  0
SECTION
  2
HEADER
  9
$ACADVER
  1
AC1015
  9
$ACADMAINTVER
 70
     6
  9
$DWGCODEPAGE
  3
ANSI_1252
  9
$INSBASE
 10
0.0
 20
0.0
 30
0.0
  9
$EXTMIN
 10
0.0
 20
0.0
 30
0.0
  9
$EXTMAX
 10
841.0
 20
594.0
 30
0.0
  9
$LIMMIN
 10
0.0
 20
0.0
  9
$LIMMAX
 10
841.0
 20
594.0
  9
$ORTHOMODE
 70
     0
  9
$REGENMODE
 70
     1
  9
$FILLMODE
 70
     1
  9
$QTEXTMODE
 70
     0
  9
$MIRRTEXT
 70
     1
  9
$LTSCALE
 40
1.0
  9
$ATTMODE
 70
     1
  9
$TEXTSIZE
 40
10.0
  9
$TRACEWID
 40
1.0
  9
$TEXTSTYLE
  7
Standard
  9
$CLAYER
  8
0
  9
$CELTYPE
  6
ByLayer
  9
$CECOLOR
 62
   256
  9
$CELTSCALE
 40
1.0
  9
$DISPSILH
 70
     0
  9
$DIMSCALE
 40
1.0
  9
$DIMASZ
 40
2.5
  9
$DIMEXO
 40
0.0
  9
$DIMDLI
 40
3.75
  9
$DIMRND
 40
0.0
  9
$DIMDLE
 40
0.0
  9
$DIMEXE
 40
1.0
  9
$DIMTP
 40
0.0
  9
$DIMTM
 40
0.0
  9
$DIMTXT
 40
3.5
  9
$DIMCEN
 40
2.5
  9
$DIMTSZ
 40
0.0
  9
$DIMTOL
 70
     0
  9
$DIMLIM
 70
     0
  9
$DIMTIH
 70
     1
  9
$DIMTOH
 70
     1
  9
$DIMSE1
 70
     0
  9
$DIMSE2
 70
     0
  9
$DIMTAD
 70
     1
  9
$DIMZIN
 70
     0
  9
$DIMBLK
  1

  9
$DIMASO
 70
     1
  9
$DIMSHO
 70
     1
  9
$DIMPOST
  1

  9
$DIMAPOST
  1

  9
$DIMALT
 70
     0
  9
$DIMALTD
 70
     3
  9
$DIMALTF
 40
0.0393700787
  9
$DIMLFAC
 40
2.0
  9
$DIMTOFL
 70
     1
  9
$DIMTVP
 40
0.0
  9
$DIMTIX
 70
     0
  9
$DIMSOXD
 70
     0
  9
$DIMSAH
 70
     0
  9
$DIMBLK1
  1

  9
$DIMBLK2
  1

  9
$DIMSTYLE
  2
ISO-25
  9
$DIMCLRD
 70
     0
  9
$DIMCLRE
 70
     0
  9
$DIMCLRT
 70
     0
  9
$DIMTFAC
 40
1.0
  9
$DIMGAP
 40
1.5
  9
$DIMJUST
 70
     0
  9
$DIMSD1
 70
     0
  9
$DIMSD2
 70
     0
  9
$DIMTOLJ
 70
     0
  9
$DIMTZIN
 70
     0
  9
$DIMALTZ
 70
     0
  9
$DIMALTTZ
 70
     0
  9
$DIMUPT
 70
     0
  9
$DIMDEC
 70
     2
  9
$DIMTDEC
 70
     2
  9
$DIMALTU
 70
     2
  9
$DIMALTTD
 70
     3
  9
$DIMTXSTY
  7
Standard
  9
$DIMAUNIT
 70
     0
  9
$DIMADEC
 70
     2
  9
$DIMALTRND
 40
0.0
  9
$DIMAZIN
 70
     0
  9
$DIMDSEP
 70
    44
  9
$DIMATFIT
 70
     3
  9
$DIMFRAC
 70
     0
  9
$DIMLDRBLK
  1

  9
$DIMLUNIT
 70
     2
  9
$DIMLWD
 70
    -2
  9
$DIMLWE
 70
    -2
  9
$DIMTMOVE
 70
     0
  9
$LUNITS
 70
     2
  9
$LUPREC
 70
     2
  9
$SKETCHINC
 40
1.0
  9
$FILLETRAD
 40
10.0
  9
$AUNITS
 70
     0
  9
$AUPREC
 70
     2
  9
$MENU
  1
.
  9
$ELEVATION
 40
0.0
  9
$PELEVATION
 40
0.0
  9
$THICKNESS
 40
0.0
  9
$LIMCHECK
 70
     0
  9
$CHAMFERA
 40
0.0
  9
$CHAMFERB
 40
0.0
  9
$CHAMFERC
 40
0.0
  9
$CHAMFERD
 40
0.0
  9
$SKPOLY
 70
     0
  9
$TDCREATE
 40
2457772.281477627
  9
$TDUCREATE
 40
2457772.239810961
  9
$TDUPDATE
 40
2457772.281479491
  9
$TDUUPDATE
 40
2457772.239812824
  9
$TDINDWG
 40
0.0000000116
  9
$TDUSRTIMER
 40
0.0000000116
  9
$USRTIMER
 70
     1
  9
$ANGBASE
 50
0.0
  9
$ANGDIR
 70
     0
  9
$PDMODE
 70
     0
  9
$PDSIZE
 40
-1.0
  9
$PLINEWID
 40
0.0
  9
$SPLFRAME
 70
     0
  9
$SPLINETYPE
 70
     6
  9
$SPLINESEGS
 70
     8
  9
$HANDSEED
  5
232
  9
$SURFTAB1
 70
     6
  9
$SURFTAB2
 70
     6
  9
$SURFTYPE
 70
     6
  9
$SURFU
 70
     6
  9
$SURFV
 70
     6
  9
$UCSBASE
  2

  9
$UCSNAME
  2

  9
$UCSORG
 10
0.0
 20
0.0
 30
0.0
  9
$UCSXDIR
 10
1.0
 20
0.0
 30
0.0
  9
$UCSYDIR
 10
0.0
 20
1.0
 30
0.0
  9
$UCSORTHOREF
  2

  9
$UCSORTHOVIEW
 70
     0
  9
$UCSORGTOP
 10
0.0
 20
0.0
 30
0.0
  9
$UCSORGBOTTOM
 10
0.0
 20
0.0
 30
0.0
  9
$UCSORGLEFT
 10
0.0
 20
0.0
 30
0.0
  9
$UCSORGRIGHT
 10
0.0
 20
0.0
 30
0.0
  9
$UCSORGFRONT
 10
0.0
 20
0.0
 30
0.0
  9
$UCSORGBACK
 10
0.0
 20
0.0
 30
0.0
  9
$PUCSBASE
  2

  9
$PUCSNAME
  2

  9
$PUCSORG
 10
0.0
 20
0.0
 30
0.0
  9
$PUCSXDIR
 10
1.0
 20
0.0
 30
0.0
  9
$PUCSYDIR
 10
0.0
 20
1.0
 30
0.0
  9
$PUCSORTHOREF
  2

  9
$PUCSORTHOVIEW
 70
     0
  9
$PUCSORGTOP
 10
0.0
 20
0.0
 30
0.0
  9
$PUCSORGBOTTOM
 10
0.0
 20
0.0
 30
0.0
  9
$PUCSORGLEFT
 10
0.0
 20
0.0
 30
0.0
  9
$PUCSORGRIGHT
 10
0.0
 20
0.0
 30
0.0
  9
$PUCSORGFRONT
 10
0.0
 20
0.0
 30
0.0
  9
$PUCSORGBACK
 10
0.0
 20
0.0
 30
0.0
  9
$USERI1
 70
     0
  9
$USERI2
 70
     0
  9
$USERI3
 70
     0
  9
$USERI4
 70
     0
  9
$USERI5
 70
     0
  9
$USERR1
 40
0.0
  9
$USERR2
 40
0.0
  9
$USERR3
 40
0.0
  9
$USERR4
 40
0.0
  9
$USERR5
 40
0.0
  9
$WORLDVIEW
 70
     1
  9
$SHADEDGE
 70
     3
  9
$SHADEDIF
 70
    70
  9
$TILEMODE
 70
     1
  9
$MAXACTVP
 70
    64
  9
$PINSBASE
 10
0.0
 20
0.0
 30
0.0
  9
$PLIMCHECK
 70
     0
  9
$PEXTMIN
 10
1.0000000000E+20
 20
1.0000000000E+20
 30
1.0000000000E+20
  9
$PEXTMAX
 10
-1.0000000000E+20
 20
-1.0000000000E+20
 30
-1.0000000000E+20
  9
$PLIMMIN
 10
0.0
 20
0.0
  9
$PLIMMAX
 10
420.0
 20
297.0
  9
$UNITMODE
 70
     0
  9
$VISRETAIN
 70
     1
  9
$PLINEGEN
 70
     0
  9
$PSLTSCALE
 70
     1
  9
$TREEDEPTH
 70
  3020
  9
$CMLSTYLE
  2
Standard
  9
$CMLJUST
 70
     0
  9
$CMLSCALE
 40
20.0
  9
$PROXYGRAPHICS
 70
     1
  9
$MEASUREMENT
 70
     1
  9
$CELWEIGHT
370
    -1
  9
$ENDCAPS
280
     0
  9
$JOINSTYLE
280
     0
  9
$LWDISPLAY
290
     1
  9
$INSUNITS
 70
     4
  9
$HYPERLINKBASE
  1

  9
$STYLESHEET
  1

  9
$XEDIT
290
     1
  9
$CEPSNTYPE
380
     0
  9
$PSTYLEMODE
290
     1
  9
$FINGERPRINTGUID
  2
{FAB5556A-F971-4659-ACD6-4B5BF05EDB44}
  9
$VERSIONGUID
  2
{FAEB1C32-E019-11D5-929B-00C0DF256EC4}
  9
$EXTNAMES
290
     1
  9
$PSVPSCALE
 40
0.0
  9
$OLESTARTUP
290
     0
  0
ENDSEC
  0
SECTION
  2
CLASSES
  0
CLASS
  1
ACDBDICTIONARYWDFLT
  2
AcDbDictionaryWithDefault
  3
ObjectDBX Classes
 90
        0
280
     0
281
     0
  0
CLASS
  1
VISUALSTYLE
  2
AcDbVisualStyle
  3
ObjectDBX Classes
 90
     4095
280
     0
281
     0
  0
CLASS
  1
MATERIAL
  2
AcDbMaterial
  3
ObjectDBX Classes
 90
     1153
280
     0
281
     0
  0
CLASS
  1
SCALE
  2
AcDbScale
  3
ObjectDBX Classes
 90
     1153
280
     0
281
     0
  0
CLASS
  1
TABLESTYLE
  2
AcDbTableStyle
  3
ObjectDBX Classes
 90
     4095
280
     0
281
     0
  0
CLASS
  1
MLEADERSTYLE
  2
AcDbMLeaderStyle
  3
ACDB_MLEADERSTYLE_CLASS
 90
     4095
280
     0
281
     0
  0
CLASS
  1
SUN
  2
AcDbSun
  3
SCENEOE
 90
     1153
280
     0
281
     0
  0
CLASS
  1
ACDBPLACEHOLDER
  2
AcDbPlaceHolder
  3
ObjectDBX Classes
 90
        0
280
     0
281
     0
  0
CLASS
  1
LAYOUT
  2
AcDbLayout
  3
ObjectDBX Classes
 90
        0
280
     0
281
     0
  0
ENDSEC
  0
SECTION
  2
TABLES
  0
TABLE
  2
VPORT
  5
8
330
0
100
AcDbSymbolTable
 70
     1
  0
VPORT
  5
29
330
8
100
AcDbSymbolTableRecord
100
AcDbViewportTableRecord
  2
*Active
 70
     0
 10
0.0
 20
0.0
 11
1.0
 21
1.0
 12
420.5
 22
297.0
 13
0.0
 23
0.0
 14
10.0
 24
10.0
 15
10.0
 25
10.0
 16
0.0
 26
0.0
 36
1.0
 17
0.0
 27
0.0
 37
0.0
 40
594.0
 41
1.4158249158
 42
50.0
 43
0.0
 44
0.0
 50
0.0
 51
0.0
 71
     0
 72
  2000
 73
     1
 74
     3
 75
     0
 76
     0
 77
     0
 78
     0
281
     0
 65
     1
110
0.0
120
0.0
130
0.0
111
1.0
121
0.0
131
0.0
112
0.0
122
1.0
132
0.0
 79
     0
146
0.0
  0
ENDTAB
  0
TABLE
  2
LTYPE
  5
5
330
0
100
AcDbSymbolTable
 70
     6
  0
LTYPE
  5
14
330
5
100
AcDbSymbolTableRecord
100
AcDbLinetypeTableRecord
  2
ByBlock
 70
     0
  3

 72
    65
 73
     0
 40
0.0
  0
LTYPE
  5
15
330
5
100
AcDbSymbolTableRecord
100
AcDbLinetypeTableRecord
  2
ByLayer
 70
     0
  3

 72
    65
 73
     0
 40
0.0
  0
LTYPE
  5
16
330
5
100
AcDbSymbolTableRecord
100
AcDbLinetypeTableRecord
  2
Continuous
 70
     0
  3
Solid line
 72
    65
 73
     0
 40
0.0
  0
LTYPE
  5
6E
330
5
100
AcDbSymbolTableRecord
100
AcDbLinetypeTableRecord
  2
HIDDEN
 70
     0
  3
Hidden __ __ __ __ __ __ __ __ __ __ __ __ __ __
 72
    65
 73
     2
 40
1.905
 49
1.27
 74
     0
 49
-0.635
 74
     0
  0
LTYPE
  5
6F
330
5
100
AcDbSymbolTableRecord
100
AcDbLinetypeTableRecord
  2
PHANTOM
 70
     0
  3
Phantom ______  __  __  ______  __  __  ______
 72
    65
 73
     6
 40
12.7
 49
6.35
 74
     0
 49
-1.27
 74
     0
 49
1.27
 74
     0
 49
-1.27
 74
     0
 49
1.27
 74
     0
 49
-1.27
 74
     0
  0
LTYPE
  5
70
330
5
100
AcDbSymbolTableRecord
100
AcDbLinetypeTableRecord
  2
CENTER
 70
     0
  3
Center ____ _ ____ _ ____ _ ____ _ ____ _ ____
 72
    65
 73
     4
 40
10.16
 49
6.35
 74
     0
 49
-1.27
 74
     0
 49
1.27
 74
     0
 49
-1.27
 74
     0
  0
LTYPE
  5
71
330
5
100
AcDbSymbolTableRecord
100
AcDbLinetypeTableRecord
  2
CENTERX2
 70
     0
  3
Center (2x) ________  __  ________  __  _____
 72
    65
 73
     4
 40
20.32
 49
12.7
 74
     0
 49
-2.54
 74
     0
 49
2.54
 74
     0
 49
-2.54
 74
     0
  0
LTYPE
  5
72
330
5
100
AcDbSymbolTableRecord
100
AcDbLinetypeTableRecord
  2
DOT2
 70
     0
  3
Dot (.5x) ........................................
 72
    65
 73
     2
 40
0.635
 49
0.0
 74
     0
 49
-0.635
 74
     0
  0
ENDTAB
  0
TABLE
  2
LAYER
  5
2
330
0
100
AcDbSymbolTable
 70
     1
  0
LAYER
  5
10
330
2
100
AcDbSymbolTableRecord
100
AcDbLayerTableRecord
  2
0
 70
     0
 62
     7
  6
Continuous
370
    -3
390
F
  0
ENDTAB
  0
TABLE
  2
STYLE
  5
3
330
0
100
AcDbSymbolTable
 70
     3
  0
STYLE
  5
11
330
3
100
AcDbSymbolTableRecord
100
AcDbTextStyleTableRecord
  2
Standard
 70
     0
 40
0.0
 41
1.0
 50
0.0
 71
     0
 42
10.0
  3
txt
  4

  0
STYLE
  5
76
330
3
100
AcDbSymbolTableRecord
100
AcDbTextStyleTableRecord
  2
SLDTEXTSTYLE0
 70
     0
 40
0.0
 41
0.96
 50
0.0
 71
     0
 42
10.0
  3
ISOCP3
  4

  0
STYLE
  5
8D
330
3
100
AcDbSymbolTableRecord
100
AcDbTextStyleTableRecord
  2
SLDTEXTSTYLE1
 70
     0
 40
0.0
 41
0.605
 50
0.0
 71
     0
 42
10.0
  3
TXT
  4

  0
ENDTAB
  0
TABLE
  2
VIEW
  5
6
330
0
100
AcDbSymbolTable
 70
     0
  0
ENDTAB
  0
TABLE
  2
UCS
  5
7
330
0
100
AcDbSymbolTable
 70
     0
  0
ENDTAB
  0
TABLE
  2
APPID
  5
9
330
0
100
AcDbSymbolTable
 70
     1
  0
APPID
  5
12
330
9
100
AcDbSymbolTableRecord
100
AcDbRegAppTableRecord
  2
ACAD
 70
     0
  0
ENDTAB
  0
TABLE
  2
DIMSTYLE
  5
A
330
0
100
AcDbSymbolTable
 70
     2
100
AcDbDimStyleTable
  0
DIMSTYLE
105
27
330
A
100
AcDbSymbolTableRecord
100
AcDbDimStyleTableRecord
  2
ISO-25
 70
     0
 41
2.5
 42
0.625
 43
3.75
 44
1.25
 73
     0
 74
     0
 77
     1
 78
     8
140
2.5
141
2.5
143
0.0393700787
147
0.625
171
     3
172
     1
178
     0
271
     2
272
     2
274
     3
278
    44
283
     0
284
     8
340
11
  0
DIMSTYLE
105
77
102
{ACAD_REACTORS
330
75
330
82
102
}
330
A
100
AcDbSymbolTableRecord
100
AcDbDimStyleTableRecord
  2
SLDDIMSTYLE0
 70
     0
 41
2.5
 44
0.0
 45
0.000000001
 73
     0
 74
     0
 77
     1
 78
    12
 79
     3
140
6.0
144
2.0
147
1.5
173
     1
178
     0
271
     2
272
     2
276
     2
284
    12
340
76
  0
ENDTAB
  0
TABLE
  2
BLOCK_RECORD
  5
1
330
0
100
AcDbSymbolTable
 70
     3
  0
BLOCK_RECORD
  5
1F
330
1
100
AcDbSymbolTableRecord
100
AcDbBlockTableRecord
  2
*Model_Space
340
22
  0
BLOCK_RECORD
  5
1B
330
1
100
AcDbSymbolTableRecord
100
AcDbBlockTableRecord
  2
*Paper_Space
340
1E
  0
BLOCK_RECORD
  5
23
330
1
100
AcDbSymbolTableRecord
100
AcDbBlockTableRecord
  2
*Paper_Space0
340
26
  0
BLOCK_RECORD
  5
78
330
1
100
AcDbSymbolTableRecord
100
AcDbBlockTableRecord
  2
_D
340
0
  0
BLOCK_RECORD
  5
83
330
1
100
AcDbSymbolTableRecord
100
AcDbBlockTableRecord
  2
_D_1
340
0
  0
ENDTAB
  0
ENDSEC
  0
SECTION
  2
BLOCKS
  0
BLOCK
  5
20
330
1F
100
AcDbEntity
  8
0
100
AcDbBlockBegin
  2
*Model_Space
 70
     0
 10
0.0
 20
0.0
 30
0.0
  3
*Model_Space
  1

  0
ENDBLK
  5
21
330
1F
100
AcDbEntity
  8
0
100
AcDbBlockEnd
  0
BLOCK
  5
1C
330
1B
100
AcDbEntity
 67
     1
  8
0
100
AcDbBlockBegin
  2
*Paper_Space
 70
     0
 10
0.0
 20
0.0
 30
0.0
  3
*Paper_Space
  1

  0
ENDBLK
  5
1D
330
1B
100
AcDbEntity
 67
     1
  8
0
100
AcDbBlockEnd
  0
BLOCK
  5
24
330
23
100
AcDbEntity
  8
0
100
AcDbBlockBegin
  2
*Paper_Space0
 70
     0
 10
0.0
 20
0.0
 30
0.0
  3
*Paper_Space0
  1

  0
ENDBLK
  5
25
330
23
100
AcDbEntity
  8
0
100
AcDbBlockEnd
  0
BLOCK
  5
79
330
78
100
AcDbEntity
  8
0
100
AcDbBlockBegin
  2
_D
 70
     0
 10
0.0
 20
0.0
 30
0.0
  3
_D
  1

  0
SOLID
  5
7B
330
78
100
AcDbEntity
  8
0
  6
Continuous
 62
     7
370
    18
100
AcDbTrace
 10
42.7614395004
 20
152.0299240879
 30
0.0
 11
42.4614395004
 21
149.5299240879
 31
0.0
 12
43.0614395004
 22
149.5299240879
 32
0.0
 13
43.0614395004
 23
149.5299240879
 33
0.0
  0
SOLID
  5
7C
330
78
100
AcDbEntity
  8
0
  6
Continuous
 62
     7
370
    18
100
AcDbTrace
 10
42.7614395004
 20
52.0299240879
 30
0.0
 11
43.0614395004
 21
54.5299240879
 31
0.0
 12
42.4614395004
 22
54.5299240879
 32
0.0
 13
42.4614395004
 23
54.5299240879
 33
0.0
  0
LINE
  5
7D
330
78
100
AcDbEntity
  8
0
  6
Continuous
 62
     7
370
    18
100
AcDbLine
 10
56.6850079902
 20
152.0299240879
 30
0.0
 11
41.7614395004
 21
152.0299240879
 31
0.0
  0
LINE
  5
7E
330
78
100
AcDbEntity
  8
0
  6
Continuous
 62
     7
370
    18
100
AcDbLine
 10
56.6850079902
 20
52.0299240879
 30
0.0
 11
41.7614395004
 21
52.0299240879
 31
0.0
  0
LINE
  5
7F
330
78
100
AcDbEntity
  8
0
  6
Continuous
 62
     7
370
    18
100
AcDbLine
 10
42.7614395004
 20
152.0299240879
 30
0.0
 11
42.7614395004
 21
52.0299240879
 31
0.0
  0
MTEXT
  5
80
330
78
100
AcDbEntity
  8
0
  6
Continuous
 62
     7
370
    18
100
AcDbMText
 10
35.0270332946
 20
94.3680541463
 30
0.0
 40
6.0
 41
0.0
 71
     1
 72
     1
  1
100
  7
SLDTEXTSTYLE0
 11
-7.044195017643634E-15
 21
1.0
 31
0.0
 73
     1
 44
1.0
  0
MTEXT
  5
81
330
78
100
AcDbEntity
  8
0
  6
Continuous
 62
     7
370
    18
100
AcDbMText
 10
35.0270332946
 20
105.7430548466
 30
0.0
 40
6.0
 41
0.0
 71
     1
 72
     1
  1
mm
  7
SLDTEXTSTYLE0
 11
-7.044195017643634E-15
 21
1.0
 31
0.0
 73
     1
 44
1.0
  0
ENDBLK
  5
7A
330
78
100
AcDbEntity
  8
0
100
AcDbBlockEnd
  0
BLOCK
  5
84
330
83
100
AcDbEntity
  8
0
100
AcDbBlockBegin
  2
_D_1
 70
     0
 10
0.0
 20
0.0
 30
0.0
  3
_D_1
  1

  0
SOLID
  5
86
330
83
100
AcDbEntity
  8
0
  6
Continuous
 62
     7
370
    18
100
AcDbTrace
 10
56.6850079902
 20
38.4602342313
 30
0.0
 11
59.1850079902
 21
38.1602342313
 31
0.0
 12
59.1850079902
 22
38.7602342313
 32
0.0
 13
59.1850079902
 23
38.7602342313
 33
0.0
  0
SOLID
  5
87
330
83
100
AcDbEntity
  8
0
  6
Continuous
 62
     7
370
    18
100
AcDbTrace
 10
156.6850079902
 20
38.4602342313
 30
0.0
 11
154.1850079902
 21
38.7602342313
 31
0.0
 12
154.1850079902
 22
38.1602342313
 32
0.0
 13
154.1850079902
 23
38.1602342313
 33
0.0
  0
LINE
  5
88
330
83
100
AcDbEntity
  8
0
  6
Continuous
 62
     7
370
    18
100
AcDbLine
 10
56.6850079902
 20
52.0299240879
 30
0.0
 11
56.6850079902
 21
37.4602342313
 31
0.0
  0
LINE
  5
89
330
83
100
AcDbEntity
  8
0
  6
Continuous
 62
     7
370
    18
100
AcDbLine
 10
156.6850079902
 20
52.0299240879
 30
0.0
 11
156.6850079902
 21
37.4602342313
 31
0.0
  0
LINE
  5
8A
330
83
100
AcDbEntity
  8
0
  6
Continuous
 62
     7
370
    18
100
AcDbLine
 10
56.6850079902
 20
38.4602342313
 30
0.0
 11
156.6850079902
 21
38.4602342313
 31
0.0
  0
MTEXT
  5
8B
330
83
100
AcDbEntity
  8
0
  6
Continuous
 62
     7
370
    18
100
AcDbMText
 10
93.9626484861
 20
46.1946404371
 30
0.0
 40
6.0
 41
0.0
 71
     1
 72
     1
  1
100
  7
SLDTEXTSTYLE0
 73
     1
 44
1.0
  0
MTEXT
  5
8C
330
83
100
AcDbEntity
  8
0
  6
Continuous
 62
     7
370
    18
100
AcDbMText
 10
105.3376491864
 20
46.1946404371
 30
0.0
 40
6.0
 41
0.0
 71
     1
 72
     1
  1
mm
  7
SLDTEXTSTYLE0
 73
     1
 44
1.0
  0
ENDBLK
  5
85
330
83
100
AcDbEntity
  8
0
100
AcDbBlockEnd
  0
ENDSEC
  0
SECTION
  2
ENTITIES
  0
LINE
  5
73
330
1F
100
AcDbEntity
  8
0
  6
Continuous
 62
     7
370
    18
100
AcDbLine
 10
56.6850079902
 20
152.0299240879
 30
0.0
 11
56.6850079902
 21
52.0299240879
 31
0.0
  0
LINE
  5
74
330
1F
100
AcDbEntity
  8
0
  6
Continuous
 62
     7
370
    18
100
AcDbLine
 10
56.6850079902
 20
52.0299240879
 30
0.0
 11
156.6850079902
 21
52.0299240879
 31
0.0
  0
DIMENSION
  5
75
330
1F
100
AcDbEntity
  8
0
  6
Continuous
 62
     7
370
    18
100
AcDbDimension
  2
_D
 10
42.7614395004
 20
52.0299240879
 30
0.0
 11
42.7614395004
 21
105.4472211621
 31
0.0
 70
   160
  1
<>mm
 71
     2
 42
-1.0
  3
SLDDIMSTYLE0
100
AcDbAlignedDimension
 13
56.6850079902
 23
152.0299240879
 33
0.0
 14
56.6850079902
 24
52.0299240879
 34
0.0
 50
90.0
100
AcDbRotatedDimension
  0
DIMENSION
  5
82
330
1F
100
AcDbEntity
  8
0
  6
Continuous
 62
     7
370
    18
100
AcDbDimension
  2
_D_1
 10
156.6850079902
 20
38.4602342313
 30
0.0
 11
105.0418155019
 21
38.4602342313
 31
0.0
 70
   160
  1
<>mm
 71
     2
 42
-1.0
  3
SLDDIMSTYLE0
100
AcDbAlignedDimension
 13
56.6850079902
 23
52.0299240879
 33
0.0
 14
156.6850079902
 24
52.0299240879
 34
0.0
100
AcDbRotatedDimension
  0
MTEXT
  5
8E
330
1F
100
AcDbEntity
  8
0
  6
Continuous
 62
     7
370
     0
100
AcDbMText
 10
664.658399795
 20
48.4342449499
 30
0.0
 40
10.0
 41
0.0
 71
     1
 72
     1
  1
KLUDI GmbH & Co KG
  7
SLDTEXTSTYLE1
 73
     1
 44
1.0
  0
MTEXT
  5
8F
330
1F
100
AcDbEntity
  8
0
  6
Continuous
 62
     7
370
     0
100
AcDbMText
 10
349.0758972247
 20
48.4342449499
 30
0.0
 40
10.0
 41
0.0
 71
     1
 72
     1
  1
41 675 05 75
  7
SLDTEXTSTYLE1
 73
     1
 44
1.0
  0
SPLINE
  5
90
330
1F
100
AcDbEntity
  8
0
  6
Continuous
 62
     7
370
    25
100
AcDbSpline
210
0.0
220
0.0
230
1.0
 70
     8
 71
     3
 72
     9
 73
     5
 74
     0
 42
0.000000001
 43
0.00000001
 40
0.0
 40
0.0
 40
0.0
 40
0.0
 40
0.4998814382797309
 40
1.0
 40
1.0
 40
1.0
 40
1.0
 10
100.364046127884
 20
319.4868995780931
 30
0.0
 10
100.3557340856101
 20
319.1698528266188
 30
0.0
 10
100.3391060581673
 20
318.5356089295753
 30
0.0
 10
100.3410342958421
 20
317.9120170346458
 30
0.0
 10
100.3419986432948
 20
317.6001471530532
 30
0.0
  0
SPLINE
  5
91
330
1F
100
AcDbEntity
  8
0
  6
Continuous
 62
     7
370
    25
100
AcDbSpline
210
0.0
220
0.0
230
1.0
 70
     8
 71
     3
 72
     9
 73
     5
 74
     0
 42
0.000000001
 43
0.00000001
 40
0.0
 40
0.0
 40
0.0
 40
0.0
 40
0.4920773231417516
 40
1.0
 40
1.0
 40
1.0
 40
1.0
 10
102.0959514087414
 20
299.4063086409207
 30
0.0
 10
102.125602758916
 20
299.2827634467759
 30
0.0
 10
102.185860260695
 20
299.0316947867612
 30
0.0
 10
102.3302574348565
 20
298.8249690754043
 30
0.0
 10
102.4036000340874
 20
298.7199683987165
 30
0.0
  0
SPLINE
  5
92
330
1F
100
AcDbEntity
  8
0
  6
Continuous
 62
     7
370
    25
100
AcDbSpline
210
0.0
220
0.0
230
1.0
 70
     8
 71
     3
 72
    15
 73
    11
 74
     0
 42
0.000000001
 43
0.00000001
 40
0.0
 40
0.0
 40
0.0
 40
0.0
 40
0.1188318976738827
 40
0.2295672217508067
 40
0.321999215554172
 40
0.3983058123270288
 40
0.496702403385563
 40
0.6257707403340516
 40
0.7912234538831588
 40
1.0
 40
1.0
 40
1.0
 40
1.0
 10
105.4641108118613
 20
299.4586795298861
 30
0.0
 10
105.7635441348933
 20
299.9332398864616
 30
0.0
 10
106.342008986618
 20
300.850026580478
 30
0.0
 10
106.9025502056722
 20
302.4175089018414
 30
0.0
 10
107.3082656600773
 20
303.8086979623217
 30
0.0
 10
107.6246667585248
 20
305.1534322644463
 30
0.0
 10
107.9068055085245
 20
306.6178781584866
 30
0.0
 10
108.1810249637
 20
308.4724281692849
 30
0.0
 10
108.4209485608097
 20
310.7897050771192
 30
0.0
 10
108.4971857146737
 20
312.4483142541935
 30
0.0
 10
108.5397172090944
 20
313.373625908489
 30
0.0
  0
SPLINE
  5
93
330
1F
100
AcDbEntity
  8
0
  6
Continuous
 62
     7
370
    25
100
AcDbSpline
210
0.0
220
0.0
230
1.0
 70
     8
 71
     3
 72
    16
 73
    12
 74
     0
 42
0.000000001
 43
0.00000001
 40
0.0
 40
0.0
 40
0.0
 40
0.0
 40
0.1086273732223915
 40
0.2007914271122325
 40
0.2783551661585841
 40
0.3699186102760331
 40
0.4465837126900976
 40
0.5522147638069426
 40
0.6891094422816153
 40
0.8533254041993296
 40
1.0
 40
1.0
 40
1.0
 40
1.0
 10
100.3640523299944
 20
318.0432445922776
 30
0.0
 10
100.3678677473025
 20
317.2848818616754
 30
0.0
 10
100.3749203258891
 20
315.8830921430325
 30
0.0
 10
100.4359848546275
 20
313.9384975922137
 30
0.0
 10
100.5242352622046
 20
312.1280228383408
 30
0.0
 10
100.6399379909953
 20
310.4205407352435
 30
0.0
 10
100.7943906649691
 20
308.6555356724027
 30
0.0
 10
100.9857040085992
 20
306.8489471688408
 30
0.0
 10
101.2747821918461
 20
304.5175696949958
 30
0.0
 10
101.6438667941895
 20
301.9017418775348
 30
0.0
 10
101.9576174831809
 20
300.2156513645936
 30
0.0
 10
102.105641456079
 20
299.4201732185734
 30
0.0
  0
SPLINE
  5
94
330
1F
100
AcDbEntity
  8
0
  6
Continuous
 62
     7
370
    25
100
AcDbSpline
210
0.0
220
0.0
230
1.0
 70
     8
 71
     3
 72
    14
 73
    10
 74
     0
 42
0.000000001
 43
0.00000001
 40
0.0
 40
0.0
 40
0.0
 40
0.0
 40
0.1652971359341887
 40
0.2828151981606699
 40
0.419223176847793
 40
0.5056335483901679
 40
0.6192130736524851
 40
0.7806530076824426
 40
1.0
 40
1.0
 40
1.0
 40
1.0
 10
113.5109707824475
 20
408.7870373980102
 30
0.0
 10
112.2997944967079
 20
408.7581503280524
 30
0.0
 10
110.2275319658231
 20
408.7087259846226
 30
0.0
 10
107.2856469131462
 20
407.6984324625082
 30
0.0
 10
105.1802309135392
 20
406.4413608347846
 30
0.0
 10
103.3342506842248
 20
404.7901778099509
 30
0.0
 10
101.8106997888739
 20
402.7793494015378
 30
0.0
 10
100.6237329601151
 20
399.9671430350605
 30
0.0
 10
100.45421464528
 20
397.7351529988615
 30
0.0
 10
100.3565659868596
 20
396.4494463018932
 30
0.0
  0
ARC
  5
95
330
1F
100
AcDbEntity
  8
0
  6
Continuous
 62
     7
370
    25
100
AcDbCircle
 10
138.534080075
 20
383.3850117993
 30
0.0
 40
21.64486082191337
100
AcDbArc
 50
253.9067143773
 51
260.9531540197
  0
ARC
  5
96
330
1F
100
AcDbEntity
  8
0
  6
Continuous
 62
     7
370
    25
100
AcDbCircle
 10
138.534080075
 20
383.3850117993
 30
0.0
 40
21.64486082191342
100
AcDbArc
 50
99.0468459803
 51
118.236788168
  0
ARC
  5
97
330
1F
100
AcDbEntity
  8
0
  6
Continuous
 62
     7
370
    25
100
AcDbCircle
 10
136.7030193
 20
394.8850117993
 30
0.0
 40
10.00000000000006
100
AcDbArc
 50
90.0
 51
99.0468459803
  0
ARC
  5
98
330
1F
100
AcDbEntity
  8
0
  6
Continuous
 62
     7
370
    25
100
AcDbCircle
 10
136.7030193
 20
371.8850117993
 30
0.0
 40
10.0
100
AcDbArc
 50
260.9531540197
 51
270.0
  0
LINE
  5
99
330
1F
100
AcDbEntity
  8
0
  6
Continuous
 62
     7
370
    25
100
AcDbLine
 10
136.7030193
 20
361.8850117993
 30
0.0
 11
138.534080075
 21
361.8850117993
 31
0.0
  0
LINE
  5
9A
330
1F
100
AcDbEntity
  8
0
  6
Continuous
 62
     7
370
    25
100
AcDbLine
 10
138.534080075
 20
404.8850117993
 30
0.0
 11
136.7030193
 21
404.8850117993
 31
0.0
  0
SPLINE
  5
9B
330
1F
100
AcDbEntity
  8
0
  6
Continuous
 62
     7
370
    25
100
AcDbSpline
210
0.0
220
0.0
230
1.0
 70
     8
 71
     3
 72
    11
 73
     7
 74
     0
 42
0.000000001
 43
0.00000001
 40
0.0
 40
0.0
 40
0.0
 40
0.0
 40
0.2497143524631028
 40
0.4986248809356497
 40
0.7484466607780446
 40
1.0
 40
1.0
 40
1.0
 40
1.0
 10
108.5399169218035
 20
313.3792793804905
 30
0.0
 10
108.599632019867
 20
315.4849666466442
 30
0.0
 10
108.7188699946502
 20
319.6895630265367
 30
0.0
 10
108.9018087039908
 20
326.175164433767
 30
0.0
 10
109.0946098659557
 20
332.8067860783692
 30
0.0
 10
109.2247500634634
 20
337.2606908423808
 30
0.0
 10
109.2900448896429
 20
339.495334272742
 30
0.0
  0
LWPOLYLINE
  5
9C
330
1F
100
AcDbEntity
  8
0
  6
Continuous
 62
     7
370
    25
100
AcDbPolyline
 90
        3
 70
   128
 43
0.0
 10
125.1663055852
 20
408.7778296731
 10
120.1975241269
 20
408.7802780616
 10
113.5057749366
 20
408.783155549
  0
SPLINE
  5
9D
330
1F
100
AcDbEntity
  8
0
  6
Continuous
 62
     7
370
    25
100
AcDbSpline
210
0.0
220
0.0
230
1.0
 70
     8
 71
     3
 72
     9
 73
     5
 74
     0
 42
0.000000001
 43
0.00000001
 40
0.0
 40
0.0
 40
0.0
 40
0.0
 40
0.6080544379536681
 40
0.9999999999999999
 40
0.9999999999999999
 40
0.9999999999999999
 40
0.9999999999999999
 10
100.3293108462868
 20
321.5627548265272
 30
0.0
 10
100.3296791552773
 20
321.0142687430157
 30
0.0
 10
100.3302848724097
 20
320.1122342387411
 30
0.0
 10
100.3355256936459
 20
319.2103131768118
 30
0.0
 10
100.3375798102709
 20
318.8568092192725
 30
0.0
  0
LINE
  5
9E
330
1F
100
AcDbEntity
  8
0
  6
Continuous
 62
     7
370
    25
100
AcDbLine
 10
100.3379836462
 20
318.7782300834
 30
0.0
 11
100.3383705156
 21
318.702952317
 31
0.0
  0
SPLINE
  5
9F
330
1F
100
AcDbEntity
  8
0
  6
Continuous
 62
     7
370
    25
100
AcDbSpline
210
0.0
220
0.0
230
1.0
 70
     8
 71
     3
 72
    16
 73
    12
 74
     0
 42
0.000000001
 43
0.00000001
 40
0.0
 40
0.0
 40
0.0
 40
0.0
 40
0.1750383134636352
 40
0.3342618699862026
 40
0.469737088368419
 40
0.5911324359863518
 40
0.7241367795596185
 40
0.7975729690144598
 40
0.8784185288063121
 40
0.9702189487494347
 40
0.9999999999999999
 40
0.9999999999999999
 40
0.9999999999999999
 40
0.9999999999999999
 10
109.284526492882
 20
339.3575370245337
 30
0.0
 10
109.3453949575257
 20
340.6301844120242
 30
0.0
 10
109.4616324052728
 20
343.0604951660411
 30
0.0
 10
110.025409783561
 20
346.7051589742167
 30
0.0
 10
110.9237654143433
 20
349.9855351582794
 30
0.0
 10
112.284932801798
 20
353.0243276484987
 30
0.0
 10
113.9631005231041
 20
355.2902735781936
 30
0.0
 10
115.8171743518477
 20
356.929022950975
 30
0.0
 10
117.6161950888603
 20
358.059114455498
 30
0.0
 10
119.2089426755278
 20
358.8167068576697
 30
0.0
 10
120.227076368019
 20
359.0902788811238
 30
0.0
 10
120.4764654515556
 20
359.1572896054654
 30
0.0
  0
LINE
  5
A0
330
1F
100
AcDbEntity
  8
0
  6
Continuous
 62
     7
370
    25
100
AcDbLine
 10
126.380329168
 20
360.2433208633
 30
0.0
 11
129.6828362856
 21
360.3958182284
 31
0.0
  0
LINE
  5
A1
330
1F
100
AcDbEntity
  8
0
  6
Continuous
 62
     7
370
    25
100
AcDbLine
 10
277.284080075
 20
356.3850117993
 30
0.0
 11
277.284080075
 21
359.3850117994
 31
0.0
  0
LINE
  5
A2
330
1F
100
AcDbEntity
  8
0
  6
Continuous
 62
     7
370
    25
100
AcDbLine
 10
253.784080075
 20
359.3850117994
 30
0.0
 11
253.784080075
 21
356.3850117993
 31
0.0
  0
LINE
  5
A3
330
1F
100
AcDbEntity
  8
0
  6
Continuous
 62
     7
370
    25
100
AcDbLine
 10
126.2974727741
 20
360.0244798506
 30
0.0
 11
126.5150121687
 21
360.5990467513
 31
0.0
  0
LINE
  5
A4
330
1F
100
AcDbEntity
  8
0
  6
Continuous
 62
     7
370
    25
100
AcDbLine
 10
126.534080075
 20
360.7000126098
 30
0.0
 11
126.534080075
 21
361.0211640865
 31
0.0
  0
LINE
  5
A5
330
1F
100
AcDbEntity
  8
0
  6
Continuous
 62
     7
370
    25
100
AcDbLine
 10
255.059080075
 20
346.5600117993
 30
0.0
 11
256.234080075
 21
345.3850117993
 31
0.0
  0
LINE
  5
A6
330
1F
100
AcDbEntity
  8
0
  6
Continuous
 62
     7
370
    25
100
AcDbLine
 10
274.834080075
 20
345.3850117993
 30
0.0
 11
276.009080075
 21
346.5600117993
 31
0.0
  0
LINE
  5
A7
330
1F
100
AcDbEntity
  8
0
  6
Continuous
 62
     7
370
    25
100
AcDbLine
 10
276.009080075
 20
353.1600117993
 30
0.0
 11
274.784080075
 21
354.3850117993
 31
0.0
  0
LINE
  5
A8
330
1F
100
AcDbEntity
  8
0
  6
Continuous
 62
     7
370
    25
100
AcDbLine
 10
256.284080075
 20
354.3850117993
 30
0.0
 11
255.059080075
 21
353.1600117993
 31
0.0
  0
LINE
  5
A9
330
1F
100
AcDbEntity
  8
0
  6
Continuous
 62
     7
370
    25
100
AcDbLine
 10
276.009080075
 20
346.5600117993
 30
0.0
 11
276.009080075
 21
353.1600117993
 31
0.0
  0
LINE
  5
AA
330
1F
100
AcDbEntity
  8
0
  6
Continuous
 62
     7
370
    25
100
AcDbLine
 10
255.059080075
 20
353.1600117993
 30
0.0
 11
255.059080075
 21
346.5600117993
 31
0.0
  0
ARC
  5
AB
330
1F
100
AcDbEntity
  8
0
  6
Continuous
 62
     7
370
    25
100
AcDbCircle
 10
275.284080075
 20
355.8850117993
 30
0.0
 40
0.5
100
AcDbArc
 50
90.0
 51
180.0
  0
ARC
  5
AC
330
1F
100
AcDbEntity
  8
0
  6
Continuous
 62
     7
370
    25
100
AcDbCircle
 10
255.784080075
 20
355.8850117993
 30
0.0
 40
0.5
100
AcDbArc
 50
0.0
 51
90.0
  0
LINE
  5
AD
330
1F
100
AcDbEntity
  8
0
  6
Continuous
 62
     7
370
    25
100
AcDbLine
 10
274.784080075
 20
354.3850117993
 30
0.0
 11
274.784080075
 21
355.8850117993
 31
0.0
  0
LINE
  5
AE
330
1F
100
AcDbEntity
  8
0
  6
Continuous
 62
     7
370
    25
100
AcDbLine
 10
256.284080075
 20
355.8850117993
 30
0.0
 11
256.284080075
 21
354.3850117993
 31
0.0
  0
SPLINE
  5
AF
330
1F
100
AcDbEntity
  8
0
  6
Continuous
 62
     7
370
    25
100
AcDbSpline
210
0.0
220
0.0
230
1.0
 70
     8
 71
     3
 72
    10
 73
     6
 74
     0
 42
0.000000001
 43
0.00000001
 40
0.0
 40
0.0
 40
0.0
 40
0.0
 40
0.2617373141741765
 40
0.6372679767156787
 40
1.0
 40
1.0
 40
1.0
 40
1.0
 10
102.7108298229724
 20
298.462125627479
 30
0.0
 10
102.7962609142417
 20
298.4071504319211
 30
0.0
 10
103.0042652595662
 20
298.2732989336994
 30
0.0
 10
103.381462699284
 20
298.2030277802614
 30
0.0
 10
103.6421803686046
 20
298.2423443664682
 30
0.0
 10
103.7702792817888
 20
298.2616618602779
 30
0.0
  0
SPLINE
  5
B0
330
1F
100
AcDbEntity
  8
0
  6
Continuous
 62
     7
370
    25
100
AcDbSpline
210
0.0
220
0.0
230
1.0
 70
     8
 71
     3
 72
    11
 73
     7
 74
     0
 42
0.000000001
 43
0.00000001
 40
0.0
 40
0.0
 40
0.0
 40
0.0
 40
0.2464642711006596
 40
0.4967939280900327
 40
0.7492713029879041
 40
1.0
 40
1.0
 40
1.0
 40
1.0
 10
103.6278626385242
 20
298.2802127333919
 30
0.0
 10
103.796877076945
 20
298.312184813106
 30
0.0
 10
104.1375566666968
 20
298.3766304019104
 30
0.0
 10
104.6293883500034
 20
298.6282609048448
 30
0.0
 10
105.0669087258115
 20
298.9763654164423
 30
0.0
 10
105.3154883605344
 20
299.2763606722332
 30
0.0
 10
105.4393462616947
 20
299.4258370474066
 30
0.0
  0
LINE
  5
B1
330
1F
100
AcDbEntity
  8
0
  6
Continuous
 62
     7
370
    25
100
AcDbLine
 10
129.6828362856
 20
360.4304240045
 30
0.0
 11
132.2494576555
 21
360.4305453268
 31
0.0
  0
ARC
  5
B2
330
1F
100
AcDbEntity
  8
0
  6
Continuous
 62
     7
370
    25
100
AcDbCircle
 10
132.2340800854
 20
360.695845118
 30
0.0
 40
0.2999999896762573
100
AcDbArc
 50
272.1916737219
 51
359.7660861755
  0
SPLINE
  5
B3
330
1F
100
AcDbEntity
  8
0
  6
Continuous
 62
     7
370
    25
100
AcDbSpline
210
0.0
220
0.0
230
1.0
 70
     8
 71
     3
 72
    10
 73
     6
 74
     0
 42
0.000000001
 43
0.00000001
 40
0.0
 40
0.0
 40
0.0
 40
0.0
 40
0.4560728044490749
 40
0.9817822096481494
 40
1.0
 40
1.0
 40
1.0
 40
1.0
 10
100.3386946221839
 20
321.5600085768619
 30
0.0
 10
100.3434442529934
 20
327.6670950136557
 30
0.0
 10
100.3536687237044
 20
340.8137434389448
 30
0.0
 10
100.3324910382535
 20
354.2043344082298
 30
0.0
 10
100.3329397473765
 20
361.4878436789505
 30
0.0
 10
100.3329547760215
 20
361.7317907476117
 30
0.0
  0
SPLINE
  5
B4
330
1F
100
AcDbEntity
  8
0
  6
Continuous
 62
     7
370
    25
100
AcDbSpline
210
0.0
220
0.0
230
1.0
 70
     8
 71
     3
 72
    10
 73
     6
 74
     0
 42
0.000000001
 43
0.00000001
 40
0.0
 40
0.0
 40
0.0
 40
0.0
 40
0.5
 40
0.5
 40
1.0
 40
1.0
 40
1.0
 40
1.0
 10
121.9003191002511
 20
361.7222117695915
 30
0.0
 10
121.5968699606461
 20
361.6147675827661
 30
0.0
 10
121.313943587187
 20
361.4906544193997
 30
0.0
 10
120.7829167798476
 20
361.217291731681
 30
0.0
 10
120.5331529504937
 20
361.0665802903333
 30
0.0
 10
120.3076416209916
 20
360.911004845343
 30
0.0
  0
SPLINE
  5
B5
330
1F
100
AcDbEntity
  8
0
  6
Continuous
 62
     7
370
    25
100
AcDbSpline
210
0.0
220
0.0
230
1.0
 70
     8
 71
     3
 72
    14
 73
    10
 74
     0
 42
0.000000001
 43
0.00000001
 40
0.0
 40
0.0
 40
0.0
 40
0.0
 40
0.4999999999999862
 40
0.4999999999999862
 40
0.7499999999999931
 40
0.7499999999999931
 40
0.8749999999999966
 40
0.8749999999999966
 40
1.0
 40
1.0
 40
1.0
 40
1.0
 10
120.3076416209924
 20
360.911004845343
 30
0.0
 10
120.2447860917183
 20
360.8676421594927
 30
0.0
 10
120.1889766119839
 20
360.8239637934377
 30
0.0
 10
120.1216913480677
 20
360.758440344546
 30
0.0
 10
120.1019172105844
 20
360.7365162134665
 30
0.0
 10
120.0829782658132
 20
360.7059991384182
 30
0.0
 10
120.0783268736272
 20
360.6960784980326
 30
0.0
 10
120.0772452219314
 20
360.6786393469632
 30
0.0
 10
120.0810831436293
 20
360.6708776200635
 30
0.0
 10
120.0952589826617
 20
360.668847468149
 30
0.0
  0
SPLINE
  5
B6
330
1F
100
AcDbEntity
  8
0
  6
Continuous
 62
     7
370
    25
100
AcDbSpline
210
0.0
220
0.0
230
1.0
 70
     8
 71
     3
 72
    10
 73
     6
 74
     0
 42
0.000000001
 43
0.00000001
 40
0.0
 40
0.0
 40
0.0
 40
0.0
 40
0.5
 40
0.5
 40
1.0
 40
1.0
 40
1.0
 40
1.0
 10
120.0952589826617
 20
360.668847468149
 30
0.0
 10
120.2393691398984
 20
360.560795095178
 30
0.0
 10
120.3594009167476
 20
360.4509624224836
 30
0.0
 10
120.5282658568617
 20
360.2260328163757
 30
0.0
 10
120.5764000303504
 20
360.1101612444917
 30
0.0
 10
120.5764003240331
 20
359.9941889273731
 30
0.0
  0
SPLINE
  5
B7
330
1F
100
AcDbEntity
  8
0
  6
Continuous
 62
     7
370
    25
100
AcDbSpline
210
0.0
220
0.0
230
1.0
 70
     8
 71
     3
 72
    24
 73
    20
 74
     0
 42
0.000000001
 43
0.00000001
 40
0.0
 40
0.0
 40
0.0
 40
0.0
 40
0.1250000000000002
 40
0.1250000000000002
 40
0.2500000000000003
 40
0.2500000000000003
 40
0.3750000000000005
 40
0.3750000000000005
 40
0.5000000000000007
 40
0.5000000000000007
 40
0.6250000000000009
 40
0.6250000000000009
 40
0.750000000000001
 40
0.750000000000001
 40
0.8125000000000007
 40
0.8125000000000007
 40
0.8750000000000002
 40
0.8750000000000002
 40
1.0
 40
1.0
 40
1.0
 40
1.0
 10
126.5340800750085
 20
361.0211640864835
 30
0.0
 10
126.5340800750085
 20
361.0969017828746
 30
0.0
 10
126.5023539893314
 20
361.1755506602125
 30
0.0
 10
126.3779735149599
 20
361.3362014583926
 30
0.0
 10
126.2835399903548
 20
361.4190871911166
 30
0.0
 10
126.0400792228451
 20
361.5769089034428
 30
0.0
 10
125.8912131812767
 20
361.6524941320238
 30
0.0
 10
125.5376627232737
 20
361.7911278848994
 30
0.0
 10
125.3368737287889
 20
361.8523741485115
 30
0.0
 10
124.8963041517018
 20
361.9506699410742
 30
0.0
 10
124.6518652513888
 20
361.9883526453904
 30
0.0
 10
124.1398281393748
 20
362.0305714844524
 30
0.0
 10
123.8724449408606
 20
362.0356351713845
 30
0.0
 10
123.4546753575246
 20
362.0155562260068
 30
0.0
 10
123.3124358542778
 20
362.0041343555198
 30
0.0
 10
123.0296960201218
 20
361.9722409714653
 30
0.0
 10
122.888287534153
 20
361.9517485089705
 30
0.0
 10
122.4640307231648
 20
361.8766694412772
 30
0.0
 10
122.1791226373626
 20
361.8078418143295
 30
0.0
 10
121.900319100251
 20
361.7222117695915
 30
0.0
  0
SPLINE
  5
B8
330
1F
100
AcDbEntity
  8
0
  6
Continuous
 62
     7
370
    25
100
AcDbSpline
210
0.0
220
0.0
230
1.0
 70
    24
 71
     3
 72
    30
 73
    26
 74
     0
 42
0.000000001
 43
0.00000001
 40
0.0
 40
0.0
 40
0.0
 40
0.0
 40
0.0625
 40
0.0625
 40
0.125
 40
0.125
 40
0.1875000000000001
 40
0.1875000000000001
 40
0.2500000000000001
 40
0.2500000000000001
 40
0.3749999999999999
 40
0.3749999999999999
 40
0.4375000000000001
 40
0.4375000000000001
 40
0.5000000000000002
 40
0.5000000000000002
 40
0.6250000000000002
 40
0.6250000000000002
 40
0.7500000000000003
 40
0.7500000000000003
 40
0.8750000000000003
 40
0.8750000000000003
 40
0.9375000000000002
 40
0.9375000000000002
 40
1.0
 40
1.0
 40
1.0
 40
1.0
 10
132.5340800750082
 20
383.1092401399855
 30
0.0
 10
132.5340800750082
 20
382.4879776995631
 30
0.0
 10
132.5340800750081
 20
381.8691784459801
 30
0.0
 10
132.5340800750082
 20
380.6381728345312
 30
0.0
 10
132.5340800750081
 20
380.0259091092141
 30
0.0
 10
132.5340800750081
 20
378.8080200691156
 30
0.0
 10
132.5340800750082
 20
378.2023942477769
 30
0.0
 10
132.5340800750083
 20
376.9979959159912
 30
0.0
 10
132.5340800750082
 20
376.4029189517605
 30
0.0
 10
132.5340800750081
 20
374.6582332385134
 30
0.0
 10
132.5340800750081
 20
373.5407233378669
 30
0.0
 10
132.5340800750081
 20
371.9295162822582
 30
0.0
 10
132.534080075008
 20
371.4035818852755
 30
0.0
 10
132.534080075008
 20
370.38990267379
 30
0.0
 10
132.5340800750081
 20
369.8997929968719
 30
0.0
 10
132.5340800750081
 20
368.4767328201948
 30
0.0
 10
132.5340800750079
 20
367.5906731265414
 30
0.0
 10
132.534080075008
 20
365.9374834588246
 30
0.0
 10
132.5340800750082
 20
365.1876700896989
 30
0.0
 10
132.5340800750081
 20
363.8336424204958
 30
0.0
 10
132.5340800750081
 20
363.2287550400956
 30
0.0
 10
132.5340800750082
 20
362.44159405752
 30
0.0
 10
132.5340800750081
 20
362.2000250637522
 30
0.0
 10
132.534080075008
 20
361.7685008840871
 30
0.0
 10
132.534080075008
 20
361.5776472998829
 30
0.0
 10
132.5340800750081
 20
361.4166937491706
 30
0.0
  0
ARC
  5
B9
330
1F
100
AcDbEntity
  8
0
  6
Continuous
 62
     7
370
    25
100
AcDbCircle
 10
385.2056519412
 20
397.9837920787
 30
0.0
 40
1.800000000000011
100
AcDbArc
 50
0.000000352
 51
49.0417566076
  0
SPLINE
  5
BA
330
1F
100
AcDbEntity
  8
0
  6
Continuous
 62
     7
370
    25
100
AcDbSpline
210
0.0
220
0.0
230
1.0
 70
     8
 71
     3
 72
    12
 73
     8
 74
     0
 42
0.000000001
 43
0.00000001
 40
0.0
 40
0.0
 40
0.0
 40
0.0
 40
0.5000000000000007
 40
0.5000000000000007
 40
0.7500000000000003
 40
0.7500000000000003
 40
1.0
 40
1.0
 40
1.0
 40
1.0
 10
131.1782394328495
 20
392.7670028336976
 30
0.0
 10
131.6317948080003
 20
391.21131905826
 30
0.0
 10
131.9705613903221
 20
389.6276244753885
 30
0.0
 10
132.3097817743749
 20
387.2052310363169
 30
0.0
 10
132.3945088829277
 20
386.3895064467036
 30
0.0
 10
132.5065281924459
 20
384.7548630329052
 30
0.0
 10
132.5340800750083
 20
383.9342333081891
 30
0.0
 10
132.5340800750082
 20
383.1092401399855
 30
0.0
  0
SPLINE
  5
BB
330
1F
100
AcDbEntity
  8
0
  6
Continuous
 62
     7
370
    25
100
AcDbSpline
210
0.0
220
0.0
230
1.0
 70
    24
 71
     3
 72
    10
 73
     6
 74
     0
 42
0.000000001
 43
0.00000001
 40
0.0126637402432159
 40
0.0126637402432159
 40
0.0126637402432159
 40
0.0126637402432159
 40
0.2999027067723636
 40
0.3999027067723638
 40
1.0
 40
1.0
 40
1.0
 40
1.0
 10
138.5340800750084
 20
397.9177804150237
 30
0.0
 10
138.5340800750085
 20
391.4386232780693
 30
0.0
 10
138.5340800750085
 20
385.0347773967187
 30
0.0
 10
138.5340800750085
 20
366.2676335920173
 30
0.0
 10
138.5340800750085
 20
359.385011799352
 30
0.0
 10
138.5340800750086
 20
359.385011799352
 30
0.0
  0
LINE
  5
BC
330
1F
100
AcDbEntity
  8
0
  6
Continuous
 62
     7
370
    25
100
AcDbLine
 10
366.3882869699
 20
359.3850117994
 30
0.0
 11
277.284080075
 21
359.3850117994
 31
0.0
  0
SPLINE
  5
BD
330
1F
100
AcDbEntity
  8
0
  6
Continuous
 62
     7
370
    25
100
AcDbSpline
210
0.0
220
0.0
230
1.0
 70
     8
 71
     3
 72
    56
 73
    52
 74
     0
 42
0.000000001
 43
0.00000001
 40
0.0
 40
0.0
 40
0.0
 40
0.0
 40
0.0624999999999998
 40
0.0624999999999998
 40
0.0937499999999995
 40
0.0937499999999995
 40
0.1249999999999991
 40
0.1249999999999991
 40
0.1874999999999983
 40
0.1874999999999983
 40
0.2187499999999981
 40
0.2187499999999981
 40
0.2499999999999978
 40
0.2499999999999978
 40
0.2812499999999976
 40
0.2812499999999976
 40
0.3124999999999973
 40
0.3124999999999973
 40
0.3749999999999968
 40
0.3749999999999968
 40
0.4062499999999966
 40
0.4062499999999966
 40
0.4374999999999962
 40
0.4374999999999962
 40
0.4999999999999967
 40
0.4999999999999967
 40
0.531249999999997
 40
0.531249999999997
 40
0.5624999999999973
 40
0.5624999999999973
 40
0.5937499999999976
 40
0.5937499999999976
 40
0.6249999999999978
 40
0.6249999999999978
 40
0.6874999999999983
 40
0.6874999999999983
 40
0.7187499999999984
 40
0.7187499999999984
 40
0.7499999999999984
 40
0.7499999999999984
 40
0.7812499999999984
 40
0.7812499999999984
 40
0.8124999999999984
 40
0.8124999999999984
 40
0.8749999999999996
 40
0.8749999999999996
 40
0.9062499999999997
 40
0.9062499999999997
 40
0.9374999999999998
 40
0.9374999999999998
 40
1.0
 40
1.0
 40
1.0
 40
1.0
 10
253.7840800750085
 20
359.385011799352
 30
0.0
 10
253.7840800750085
 20
359.385011799352
 30
0.0
 10
253.8639182563353
 20
359.4409030113623
 30
0.0
 10
254.0955679813429
 20
359.5889418434907
 30
0.0
 10
254.191597743967
 20
359.6491232773861
 30
0.0
 10
254.4218433861043
 20
359.789043339094
 30
0.0
 10
254.5546463914106
 20
359.8679033893094
 30
0.0
 10
255.0007701469151
 20
360.1246599091278
 30
0.0
 10
255.3623687553076
 20
360.3232925387229
 30
0.0
 10
256.0008114142728
 20
360.6472711941593
 30
0.0
 10
256.2281948145496
 20
360.758802575593
 30
0.0
 10
256.7071866395123
 20
360.9840983201297
 30
0.0
 10
256.9594391929926
 20
361.0981985765728
 30
0.0
 10
257.4896625368327
 20
361.3267184021669
 30
0.0
 10
257.7676306868171
 20
361.4411455277162
 30
0.0
 10
258.3504449576499
 20
361.6676488172342
 30
0.0
 10
258.6565547310151
 20
361.7801046587268
 30
0.0
 10
259.5987935498714
 20
362.1030351421309
 30
0.0
 10
260.263125279314
 20
362.3012096640435
 30
0.0
 10
261.3187816407315
 20
362.5558484298468
 30
0.0
 10
261.6806019056971
 20
362.6335939515227
 30
0.0
 10
262.4260039842471
 20
362.7713991886981
 30
0.0
 10
262.8058906687201
 20
362.8306286328436
 30
0.0
 10
263.9492418778068
 20
362.9738226180429
 30
0.0
 10
264.7235708539311
 20
363.0246339437517
 30
0.0
 10
265.9042395690585
 20
363.0261140562667
 30
0.0
 10
266.3034905006268
 20
363.0138872294813
 30
0.0
 10
267.0876252022653
 20
362.9651383109812
 30
0.0
 10
267.4743717231453
 20
362.928781668843
 30
0.0
 10
268.2377417285668
 20
362.8341909119721
 30
0.0
 10
268.6143646144632
 20
362.7759561463951
 30
0.0
 10
269.3577511256144
 20
362.6396421399413
 30
0.0
 10
269.725528181309
 20
362.5612162874868
 30
0.0
 10
270.791325128343
 20
362.3052546215755
 30
0.0
 10
271.4600179445888
 20
362.1060274163057
 30
0.0
 10
272.406339112912
 20
361.7820137835461
 30
0.0
 10
272.7126085371349
 20
361.6695585126667
 30
0.0
 10
273.2955284174887
 20
361.4431627722919
 30
0.0
 10
273.573691565121
 20
361.3287279919602
 30
0.0
 10
274.1045164646748
 20
361.1000713808035
 30
0.0
 10
274.3571759908406
 20
360.985841998886
 30
0.0
 10
274.8371315473596
 20
360.7601773761066
 30
0.0
 10
275.0654226278469
 20
360.6482242844368
 30
0.0
 10
275.7036030823923
 20
360.3244512893166
 30
0.0
 10
276.0642412845987
 20
360.1263831426027
 30
0.0
 10
276.5089540714399
 20
359.870571171339
 30
0.0
 10
276.6410174989197
 20
359.7922059762457
 30
0.0
 10
276.8712143815027
 20
359.6524283768136
 30
0.0
 10
276.969434900462
 20
359.5909365046282
 30
0.0
 10
277.2040305957064
 20
359.4410831616119
 30
0.0
 10
277.2840800750085
 20
359.385011799352
 30
0.0
 10
277.2840800750085
 20
359.385011799352
 30
0.0
  0
LINE
  5
BE
330
1F
100
AcDbEntity
  8
0
  6
Continuous
 62
     7
370
    25
100
AcDbLine
 10
253.784080075
 20
359.3850117994
 30
0.0
 11
138.534080075
 21
359.3850117994
 31
0.0
  0
SPLINE
  5
BF
330
1F
100
AcDbEntity
  8
0
  6
Continuous
 62
     7
370
    25
100
AcDbSpline
210
0.0
220
0.0
230
1.0
 70
     8
 71
     3
 72
    25
 73
    21
 74
     0
 42
0.000000001
 43
0.00000001
 40
0.0
 40
0.0
 40
0.0
 40
0.0
 40
0.0626597274270424
 40
0.1253194548540848
 40
0.1879791822811271
 40
0.2506389097081695
 40
0.2506389097081695
 40
0.2981938122167708
 40
0.3457487147253722
 40
0.3933036172339733
 40
0.4408585197425747
 40
0.4884134222511759
 40
0.5359683247597771
 40
0.5835232272683784
 40
0.6310781297769796
 40
0.6310781297769796
 40
0.7233085973327347
 40
0.8155390648884898
 40
0.907769532444245
 40
0.9849219603213271
 40
0.9849219603213271
 40
0.9849219603213271
 40
0.9849219603213271
 10
366.3882869699352
 20
359.385011799352
 30
0.0
 10
367.6360643099049
 20
359.385011799352
 30
0.0
 10
370.1380817538382
 20
359.4602954536721
 30
0.0
 10
373.8167358975062
 20
359.8951691673311
 30
0.0
 10
377.3046523112812
 20
360.7708478899528
 30
0.0
 10
379.3889324852278
 20
361.7418403582161
 30
0.0
 10
381.0471810542293
 20
362.7803454169444
 30
0.0
 10
382.3674091758005
 20
363.7984615819747
 30
0.0
 10
383.9469219728504
 20
365.6554802284289
 30
0.0
 10
385.1156381839726
 20
367.74213111848
 30
0.0
 10
385.9303731828575
 20
369.9606506515178
 30
0.0
 10
386.4701792534976
 20
372.2495652307197
 30
0.0
 10
386.7996335222103
 20
374.5845369415349
 30
0.0
 10
386.973585164703
 20
376.9562139751873
 30
0.0
 10
387.0056519411639
 20
378.5689511697814
 30
0.0
 10
387.0056519411639
 20
380.967733829485
 30
0.0
 10
387.0056519411639
 20
384.1578970209945
 30
0.0
 10
387.0056519411639
 20
389.0010375309155
 30
0.0
 10
387.0056519411639
 20
393.6174719924145
 30
0.0
 10
387.005651941164
 20
396.6172259561372
 30
0.0
 10
387.005651941164
 20
397.9837920787361
 30
0.0
  0
LINE
  5
C0
330
1F
100
AcDbEntity
  8
0
  6
Continuous
 62
     7
370
    25
100
AcDbLine
 10
138.534080075
 20
397.917780415
 30
0.0
 11
138.534080075
 21
399.3411722601
 31
0.0
  0
SPLINE
  5
C1
330
1F
100
AcDbEntity
  8
0
  6
Continuous
 62
     7
370
    25
100
AcDbSpline
210
0.0
220
0.0
230
1.0
 70
     8
 71
     3
 72
    20
 73
    16
 74
     0
 42
0.000000001
 43
0.00000001
 40
0.0
 40
0.0
 40
0.0
 40
0.0
 40
0.0200892857142857
 40
0.046875
 40
0.06640625
 40
0.125
 40
0.2958984375
 40
0.3984375
 40
0.5009765625
 40
0.5625
 40
0.69921875
 40
0.78125
 40
0.86669921875
 40
0.91796875
 40
0.9568649669824509
 40
0.9568649669824509
 40
0.9568649669824509
 40
0.9568649669824509
 10
361.1606374138447
 20
407.3850117993498
 30
0.0
 10
361.415390516292
 20
407.3850117993498
 30
0.0
 10
362.0065363799964
 20
407.3816204442615
 30
0.0
 10
362.8294957069288
 20
407.3620689497145
 30
0.0
 10
364.1109687369073
 20
407.3127868955684
 30
0.0
 10
367.0717669508844
 20
407.1172048542066
 30
0.0
 10
370.706579506166
 20
406.5709812558732
 30
0.0
 10
374.403416748287
 20
405.6412064911107
 30
0.0
 10
376.8033185747498
 20
404.8403309809318
 30
0.0
 10
379.3120770854455
 20
403.8304589590748
 30
0.0
 10
381.4266886833526
 20
402.7842659014928
 30
0.0
 10
383.4566325364401
 20
401.5614524294838
 30
0.0
 10
384.7710481775525
 20
400.6468253442528
 30
0.0
 10
385.7314565404407
 20
399.898134571667
 30
0.0
 10
386.1926027350778
 20
399.5106248533292
 30
0.0
 10
386.3855678348022
 20
399.3431295953003
 30
0.0
  0
LINE
  5
C2
330
1F
100
AcDbEntity
  8
0
  6
Continuous
 62
     7
370
    25
100
AcDbLine
 10
138.534080075
 20
407.3850117993
 30
0.0
 11
361.1606374138
 21
407.3850117993
 31
0.0
  0
SPLINE
  5
C3
330
1F
100
AcDbEntity
  8
0
  6
Continuous
 62
     7
370
    25
100
AcDbSpline
210
0.0
220
0.0
230
1.0
 70
    24
 71
     3
 72
     8
 73
     4
 74
     0
 42
0.000000001
 43
0.00000001
 40
0.033864018043914
 40
0.033864018043914
 40
0.033864018043914
 40
0.033864018043914
 40
1.0
 40
1.0
 40
1.0
 40
1.0
 10
138.5340800750084
 20
399.341172260058
 30
0.0
 10
138.5340800750084
 20
404.5474033670158
 30
0.0
 10
138.5340800750085
 20
407.3850117993498
 30
0.0
 10
138.5340800750085
 20
407.3850117993498
 30
0.0
  0
SPLINE
  5
C4
330
1F
100
AcDbEntity
  8
0
  6
Continuous
 62
     7
370
    25
100
AcDbSpline
210
0.0
220
0.0
230
1.0
 70
     8
 71
     3
 72
    12
 73
     8
 74
     0
 42
0.000000001
 43
0.00000001
 40
0.0
 40
0.0
 40
0.0
 40
0.0
 40
0.3339770665742742
 40
0.5147921857362282
 40
0.6998292743691438
 40
0.8849687183891356
 40
0.9999999999999999
 40
0.9999999999999999
 40
0.9999999999999999
 40
0.9999999999999999
 10
103.7466519564368
 20
298.262948400523
 30
0.0
 10
103.5723177019613
 20
298.242417648377
 30
0.0
 10
103.3035989158762
 20
298.2107715509953
 30
0.0
 10
102.949570232774
 20
298.3121598115002
 30
0.0
 10
102.6957050154169
 20
298.4445749274924
 30
0.0
 10
102.4953930507541
 20
298.6027544790835
 30
0.0
 10
102.4032846144828
 20
298.7286448895325
 30
0.0
 10
102.3679868636804
 20
298.7768885522882
 30
0.0
  0
LINE
  5
C5
330
1F
100
AcDbEntity
  8
0
  6
Continuous
 62
     7
370
    25
100
AcDbLine
 10
102.1035680262
 20
299.4198045049
 30
0.0
 11
102.0995822105
 21
299.4410744115
 31
0.0
  0
SPLINE
  5
C6
330
1F
100
AcDbEntity
  8
0
  6
Continuous
 62
     7
370
    25
100
AcDbSpline
210
0.0
220
0.0
230
1.0
 70
     8
 71
     3
 72
     8
 73
     4
 74
     0
 42
0.000000001
 43
0.00000001
 40
0.0
 40
0.0
 40
0.0
 40
0.0
 40
1.0
 40
1.0
 40
1.0
 40
1.0
 10
129.9709394370396
 20
396.8886843665559
 30
0.0
 10
130.3736674770255
 20
395.5195233400644
 30
0.0
 10
130.7761476211526
 20
394.1463812688258
 30
0.0
 10
131.1782394328495
 20
392.7670028336976
 30
0.0
  0
SPLINE
  5
C7
330
1F
100
AcDbEntity
  8
0
  6
Continuous
 62
     7
370
    25
100
AcDbSpline
210
0.0
220
0.0
230
1.0
 70
     8
 71
     3
 72
     8
 73
     4
 74
     0
 42
0.000000001
 43
0.00000001
 40
0.0
 40
0.0
 40
0.0
 40
0.0
 40
1.0
 40
1.0
 40
1.0
 40
1.0
 10
127.6761661709177
 20
404.6535395283828
 30
0.0
 10
128.4412205843262
 20
402.0726871363021
 30
0.0
 10
129.2062626311886
 20
399.4884106017615
 30
0.0
 10
129.9709397594264
 20
396.8886923981174
 30
0.0
  0
LINE
  5
C8
330
1F
100
AcDbEntity
  8
0
  6
Continuous
 62
     7
370
    25
100
AcDbLine
 10
100.3341070137
 20
388.3659998666
 30
0.0
 11
100.3340705896
 21
394.9342954854
 31
0.0
  0
SPLINE
  5
C9
330
1F
100
AcDbEntity
  8
0
  6
Continuous
 62
     7
370
    25
100
AcDbSpline
210
0.0
220
0.0
230
1.0
 70
     8
 71
     3
 72
     8
 73
     4
 74
     0
 42
0.000000001
 43
0.00000001
 40
0.0
 40
0.0
 40
0.0
 40
0.0
 40
1.0
 40
1.0
 40
1.0
 40
1.0
 10
127.3814021556502
 20
405.5182542443785
 30
0.0
 10
127.4529330252362
 20
405.3592567366507
 30
0.0
 10
127.5633864033918
 20
405.0339970810683
 30
0.0
 10
127.6761662001418
 20
404.6535447705146
 30
0.0
  0
SPLINE
  5
CA
330
1F
100
AcDbEntity
  8
0
  6
Continuous
 62
     7
370
    25
100
AcDbSpline
210
0.0
220
0.0
230
1.0
 70
     8
 71
     3
 72
    10
 73
     6
 74
     0
 42
0.000000001
 43
0.00000001
 40
0.0
 40
0.0
 40
0.0
 40
0.0
 40
0.0885057765090155
 40
0.5376444771468776
 40
0.9999999999999999
 40
0.9999999999999999
 40
0.9999999999999999
 40
0.9999999999999999
 10
125.5883842715724
 20
408.4416797188703
 30
0.0
 10
125.6158660256633
 20
408.4510649911415
 30
0.0
 10
125.7828089517873
 20
408.5080775388211
 30
0.0
 10
126.3588046087525
 20
407.6449026640909
 30
0.0
 10
127.0372570895191
 20
406.2339566684685
 30
0.0
 10
127.3814021684362
 20
405.5182541914687
 30
0.0
  0
SPLINE
  5
CB
330
1F
100
AcDbEntity
  8
0
  6
Continuous
 62
     7
370
    25
100
AcDbSpline
210
0.0
220
0.0
230
1.0
 70
     8
 71
     3
 72
     8
 73
     4
 74
     0
 42
0.000000001
 43
0.00000001
 40
0.0
 40
0.0
 40
0.0
 40
0.0
 40
1.0
 40
1.0
 40
1.0
 40
1.0
 10
120.5764003241096
 20
359.9941889273849
 30
0.0
 10
120.5763997327552
 20
359.7606690728088
 30
0.0
 10
120.3858429361175
 20
359.5374073657096
 30
0.0
 10
120.0952589826564
 20
359.3195303865937
 30
0.0
  0
LINE
  5
CC
330
1F
100
AcDbEntity
  8
0
  6
Continuous
 62
     7
370
    25
100
AcDbLine
 10
277.284080075
 20
356.3850117993
 30
0.0
 11
253.784080075
 21
356.3850117993
 31
0.0
  0
LWPOLYLINE
  5
CD
330
1F
100
AcDbEntity
  8
0
  6
Continuous
 62
     7
370
    25
100
AcDbPolyline
 90
        7
 70
   128
 43
0.0
 10
121.9003191003
 20
361.7222117696
 10
123.1532516471
 20
361.7228105464
 10
124.3454339694
 20
361.6230571636
 10
125.359894702
 20
361.4327389576
 10
126.0970996931
 20
361.1705290623
 10
126.4847178299
 20
360.8621542889
 10
126.5150121687
 20
360.5990467513
  0
LWPOLYLINE
  5
CE
330
1F
100
AcDbEntity
  8
0
  6
Continuous
 62
     7
370
    25
100
AcDbPolyline
 90
        4
 70
   128
 43
0.0
 10
125.8837390805
 20
360.5740736997
 10
126.1302166959
 20
360.4225285148
 10
126.3154987081
 20
360.1199283953
 10
126.2974727741
 20
360.0244798506
  0
LINE
  5
CF
330
1F
100
AcDbEntity
  8
0
  6
Continuous
 62
     7
370
    25
100
AcDbLine
 10
274.834080075
 20
345.3850117993
 30
0.0
 11
256.234080075
 21
345.3850117993
 31
0.0
  0
LINE
  5
D0
330
1F
100
AcDbEntity
  8
0
  6
Continuous
 62
     7
370
    25
100
AcDbLine
 10
276.009080075
 20
346.5600117993
 30
0.0
 11
255.059080075
 21
346.5600117993
 31
0.0
  0
LINE
  5
D1
330
1F
100
AcDbEntity
  8
0
  6
Continuous
 62
     7
370
    25
100
AcDbLine
 10
276.009080075
 20
353.1600117993
 30
0.0
 11
255.059080075
 21
353.1600117993
 31
0.0
  0
LINE
  5
D2
330
1F
100
AcDbEntity
  8
0
  6
Continuous
 62
     7
370
    25
100
AcDbLine
 10
274.784080075
 20
354.3850117993
 30
0.0
 11
256.284080075
 21
354.3850117993
 31
0.0
  0
LWPOLYLINE
  5
D3
330
1F
100
AcDbEntity
  8
0
  6
Continuous
 62
     7
370
    25
100
AcDbPolyline
 90
       16
 70
   128
 43
0.0
 10
120.0952589827
 20
359.3195303866
 10
121.0058121142
 20
359.1592406036
 10
122.0618031138
 20
359.078408813
 10
123.1627384269
 20
359.0847273853
 10
124.2038473661
 20
359.1775950126
 10
125.0860526306
 20
359.3481739321
 10
125.7253990135
 20
359.5802309732
 10
126.0610430127
 20
359.8516823901
 10
126.0610430127
 20
360.1366954647
 10
125.7253990135
 20
360.4081468815
 10
125.0860526306
 20
360.6402039227
 10
124.2038473661
 20
360.8107828421
 10
123.1627384269
 20
360.9036504694
 10
122.0618031138
 20
360.9099690418
 10
121.0058121142
 20
360.8291372512
 10
120.0952589827
 20
360.6688474681
  0
LWPOLYLINE
  5
D4
330
1F
100
AcDbEntity
  8
0
  6
Continuous
 62
     7
370
    25
100
AcDbPolyline
 90
        3
 70
   128
 43
0.0
 10
103.7708017661
 20
298.2618473435
 10
103.7885343478
 20
298.2746658422
 10
103.8189983802
 20
298.3272450467
  0
SPLINE
  5
D5
330
1F
100
AcDbEntity
  8
0
  6
Continuous
 62
     7
370
    25
100
AcDbSpline
210
0.0
220
0.0
230
1.0
 70
    24
 71
     3
 72
     9
 73
     5
 74
     0
 42
0.000000001
 43
0.00000001
 40
0.0
 40
0.0
 40
0.0
 40
0.0
 40
0.8793140797891547
 40
0.9999999999999999
 40
0.9999999999999999
 40
0.9999999999999999
 40
0.9999999999999999
 10
132.5340800750081
 20
361.4166937491706
 30
0.0
 10
132.5340800750082
 20
361.1493185417525
 30
0.0
 10
132.5340800750083
 20
360.8452460680329
 30
0.0
 10
132.5340800750081
 20
360.8228763085576
 30
0.0
 10
132.5340800750081
 20
360.8201765935505
 30
0.0
  0
ARC
  5
D6
330
1F
100
AcDbEntity
  8
0
  6
Continuous
 62
     7
370
    25
100
AcDbCircle
 10
190.534080075
 20
383.3785240708
 30
0.0
 40
35.05541344904219
100
AcDbArc
 50
90.0
 51
136.7789071936
  0
ARC
  5
D7
330
1F
100
AcDbEntity
  8
0
  6
Continuous
 62
     7
370
    25
100
AcDbCircle
 10
190.534080075
 20
383.3785240708
 30
0.0
 40
35.05541344904214
100
AcDbArc
 50
223.1919971632
 51
316.8080028368
  0
ARC
  5
D8
330
1F
100
AcDbEntity
  8
0
  6
Continuous
 62
     7
370
    25
100
AcDbCircle
 10
190.534080075
 20
383.3785240708
 30
0.0
 40
35.0554134490422
100
AcDbArc
 50
43.2210928064
 51
90.0
  0
ARC
  5
D9
330
1F
100
AcDbEntity
  8
0
  6
Continuous
 62
     7
370
    25
100
AcDbCircle
 10
340.534080075
 20
383.3850117993
 30
0.0
 40
35.05541344904214
100
AcDbArc
 50
90.0
 51
136.7934567499
  0
ARC
  5
DA
330
1F
100
AcDbEntity
  8
0
  6
Continuous
 62
     7
370
    25
100
AcDbCircle
 10
340.534080075
 20
383.3850117993
 30
0.0
 40
35.05541344904216
100
AcDbArc
 50
223.2065432501
 51
316.7934567499
  0
ARC
  5
DB
330
1F
100
AcDbEntity
  8
0
  6
Continuous
 62
     7
370
    25
100
AcDbCircle
 10
340.534080075
 20
383.3850117993
 30
0.0
 40
35.05541344904213
100
AcDbArc
 50
42.7181635812
 51
90.0
  0
SPLINE
  5
DC
330
1F
100
AcDbEntity
  8
0
  6
Continuous
 62
     8
370
    18
100
AcDbSpline
210
0.0
220
0.0
230
1.0
 70
     8
 71
     3
 72
    38
 73
    34
 74
     0
 42
0.000000001
 43
0.00000001
 40
0.0
 40
0.0
 40
0.0
 40
0.0
 40
0.0156249999999992
 40
0.0156249999999992
 40
0.0312499999999987
 40
0.0312499999999987
 40
0.0625000000000011
 40
0.0625000000000011
 40
0.1250000000000026
 40
0.1250000000000026
 40
0.2500000000000021
 40
0.2500000000000021
 40
0.3750000000000016
 40
0.3750000000000016
 40
0.5000000000000011
 40
0.5000000000000011
 40
0.6250000000000007
 40
0.6250000000000007
 40
0.7500000000000001
 40
0.7500000000000001
 40
0.8749999999999997
 40
0.8749999999999997
 40
0.9374999999999996
 40
0.9374999999999996
 40
0.9687499999999996
 40
0.9687499999999996
 40
0.9843749999999986
 40
0.9843749999999986
 40
0.9921874999999981
 40
0.9921874999999981
 40
0.9960937499999991
 40
0.9960937499999991
 40
1.0
 40
1.0
 40
1.0
 40
1.0
 10
103.635035942643
 20
320.6470024254634
 30
0.0
 10
103.6353178207877
 20
320.5780639392536
 30
0.0
 10
103.6356244128737
 20
320.5181314963461
 30
0.0
 10
103.6363887543148
 20
320.4062613880659
 30
0.0
 10
103.6368511265918
 20
320.3508909936488
 30
0.0
 10
103.6385091886838
 20
320.179789811761
 30
0.0
 10
103.6399585039155
 20
320.0620092344833
 30
0.0
 10
103.6452299843788
 20
319.7031742823498
 30
0.0
 10
103.6499956230358
 20
319.4597546496376
 30
0.0
 10
103.6665501765948
 20
318.7051145866193
 30
0.0
 10
103.6806883477434
 20
318.1687973108243
 30
0.0
 10
103.7106704353755
 20
317.0074483222908
 30
0.0
 10
103.7264156313021
 20
316.3803392735825
 30
0.0
 10
103.7619630515691
 20
315.0629924535545
 30
0.0
 10
103.7821107122954
 20
314.3757163016493
 30
0.0
 10
103.8411679609646
 20
312.9955887970866
 30
0.0
 10
103.8660820202782
 20
312.3044894992481
 30
0.0
 10
103.897104887805
 20
310.9561516952555
 30
0.0
 10
103.902968376493
 20
310.2979889333664
 30
0.0
 10
103.8954812788727
 20
309.0514889883271
 30
0.0
 10
103.8824068645029
 20
308.4624071351811
 30
0.0
 10
103.8465821461514
 20
307.6711526955229
 30
0.0
 10
103.8318913809403
 20
307.4232921748194
 30
0.0
 10
103.8020902845927
 20
307.0766124659685
 30
0.0
 10
103.7909816003267
 20
306.9654727469778
 30
0.0
 10
103.7750395576475
 20
306.8042932367395
 30
0.0
 10
103.7698353835426
 20
306.751266165231
 30
0.0
 10
103.7611061510508
 20
306.6690775145859
 30
0.0
 10
103.7580026927845
 20
306.6410702484461
 30
0.0
 10
103.7534264097108
 20
306.6021143314534
 30
0.0
 10
103.7519376787494
 20
306.5897822395948
 30
0.0
 10
103.7493734415326
 20
306.5664122016956
 30
0.0
 10
103.7484411084463
 20
306.5544700387686
 30
0.0
 10
103.7475882288921
 20
306.545045970828
 30
0.0
  0
SPLINE
  5
DD
330
1F
100
AcDbEntity
  8
0
  6
Continuous
 62
     8
370
    18
100
AcDbSpline
210
0.0
220
0.0
230
1.0
 70
     8
 71
     3
 72
    36
 73
    32
 74
     0
 42
0.000000001
 43
0.00000001
 40
0.0
 40
0.0
 40
0.0
 40
0.0
 40
0.0078125000000016
 40
0.0078125000000016
 40
0.0156250000000032
 40
0.0156250000000032
 40
0.0312500000000034
 40
0.0312500000000034
 40
0.0625000000000038
 40
0.0625000000000038
 40
0.1250000000000026
 40
0.1250000000000026
 40
0.2500000000000023
 40
0.2500000000000023
 40
0.3750000000000019
 40
0.3750000000000019
 40
0.5000000000000016
 40
0.5000000000000016
 40
0.6250000000000012
 40
0.6250000000000012
 40
0.7500000000000009
 40
0.7500000000000009
 40
0.8750000000000007
 40
0.8750000000000007
 40
0.9375000000000004
 40
0.9375000000000004
 40
0.9687500000000008
 40
0.9687500000000008
 40
0.9843750000000004
 40
0.9843750000000004
 40
1.0
 40
1.0
 40
1.0
 40
1.0
 10
102.1177965996765
 20
307.5492727243744
 30
0.0
 10
102.1185848064461
 20
307.5710038258285
 30
0.0
 10
102.1195089614961
 20
307.5968392653357
 30
0.0
 10
102.1213250240321
 20
307.6474256084388
 30
0.0
 10
102.1222119514209
 20
307.672317456591
 30
0.0
 10
102.1247286225611
 20
307.7448394281863
 30
0.0
 10
102.1262734467968
 20
307.7916651353095
 30
0.0
 10
102.1308158093862
 20
307.9359473571164
 30
0.0
 10
102.1337241067456
 20
308.03560767022
 30
0.0
 10
102.1417723677087
 20
308.340176738014
 30
0.0
 10
102.1461735025495
 20
308.5516997459022
 30
0.0
 10
102.1562766451983
 20
309.2236783627512
 30
0.0
 10
102.1593536368636
 20
309.7254729580297
 30
0.0
 10
102.1627217825373
 20
310.8006136135065
 30
0.0
 10
102.1627736504442
 20
311.3743377598863
 30
0.0
 10
102.1616527886599
 20
312.5642633233209
 30
0.0
 10
102.1605865827675
 20
313.1813377401358
 30
0.0
 10
102.1577694134869
 20
314.4379801958999
 30
0.0
 10
102.155100979419
 20
315.073908164915
 30
0.0
 10
102.1489232010973
 20
316.2984769070113
 30
0.0
 10
102.1453173974956
 20
316.8851450694631
 30
0.0
 10
102.1390006290962
 20
317.9723377084919
 30
0.0
 10
102.1361727504255
 20
318.4757075945602
 30
0.0
 10
102.1325372984714
 20
319.189614178999
 30
0.0
 10
102.1314177178899
 20
319.4207861680222
 30
0.0
 10
102.1300151113163
 20
319.7645780070104
 30
0.0
 10
102.129592526417
 20
319.8778464711702
 30
0.0
 10
102.1290319623815
 20
320.0428671338607
 30
0.0
 10
102.1288593904486
 20
320.0963225997652
 30
0.0
 10
102.1285298766224
 20
320.2045987822696
 30
0.0
 10
102.1283656644908
 20
320.2627646786871
 30
0.0
 10
102.1281857909189
 20
320.3308542158064
 30
0.0
  0
SPLINE
  5
DE
330
1F
100
AcDbEntity
  8
0
  6
Continuous
 62
     8
370
    18
100
AcDbSpline
210
0.0
220
0.0
230
1.0
 70
     8
 71
     3
 72
     8
 73
     4
 74
     0
 42
0.000000001
 43
0.00000001
 40
0.0
 40
0.0
 40
0.0
 40
0.0
 40
1.0
 40
1.0
 40
1.0
 40
1.0
 10
102.1281324259655
 20
320.3307937506519
 30
0.0
 10
102.1243728770934
 20
321.7162504785716
 30
0.0
 10
102.1221846016907
 20
323.0909600843834
 30
0.0
 10
102.1220669253733
 20
324.453140711427
 30
0.0
  0
SPLINE
  5
DF
330
1F
100
AcDbEntity
  8
0
  6
Continuous
 62
     8
370
    18
100
AcDbSpline
210
0.0
220
0.0
230
1.0
 70
     8
 71
     3
 72
     8
 73
     4
 74
     0
 42
0.000000001
 43
0.00000001
 40
0.0
 40
0.0
 40
0.0
 40
0.0
 40
1.0
 40
1.0
 40
1.0
 40
1.0
 10
103.6239093758477
 20
324.7634232099196
 30
0.0
 10
103.6242677753362
 20
323.4022992521
 30
0.0
 10
103.6273834112027
 20
322.0303971831288
 30
0.0
 10
103.6330595992034
 20
320.6469403707056
 30
0.0
  0
SPLINE
  5
E0
330
1F
100
AcDbEntity
  8
0
  6
Continuous
 62
     8
370
    18
100
AcDbSpline
210
0.0
220
0.0
230
1.0
 70
     8
 71
     3
 72
    11
 73
     7
 74
     0
 42
0.000000001
 43
0.00000001
 40
0.0
 40
0.0
 40
0.0
 40
0.0
 40
0.0276998977974757
 40
0.7570783311335175
 40
0.9232567452698989
 40
1.0
 40
1.0
 40
1.0
 40
1.0
 10
108.5584856884685
 20
314.647548059167
 30
0.0
 10
108.5667057662985
 20
314.8836568209516
 30
0.0
 10
108.7545465870756
 20
321.3793199505912
 30
0.0
 10
108.983618398654
 20
329.3007787386953
 30
0.0
 10
109.2248584945974
 20
337.6430250626203
 30
0.0
 10
109.2813254914913
 20
339.7314098804868
 30
0.0
 10
109.3050283480707
 20
340.3909651256207
 30
0.0
  0
LINE
  5
E1
330
1F
100
AcDbEntity
  8
0
  6
Continuous
 62
     8
370
    18
100
AcDbLine
 10
103.6242987966
 20
324.7634217923
 30
0.0
 11
103.6242926307
 21
324.7786193825
 31
0.0
  0
SPLINE
  5
E2
330
1F
100
AcDbEntity
  8
0
  6
Continuous
 62
     8
370
    18
100
AcDbSpline
210
0.0
220
0.0
230
1.0
 70
     8
 71
     3
 72
     8
 73
     4
 74
     0
 42
0.000000001
 43
0.00000001
 40
0.0
 40
0.0
 40
0.0
 40
0.0
 40
1.0
 40
1.0
 40
1.0
 40
1.0
 10
103.6244871051877
 20
332.9019369479102
 30
0.0
 10
103.6237114947476
 20
330.230410357377
 30
0.0
 10
103.6231764293516
 20
327.5260702283314
 30
0.0
 10
103.624292630735
 20
324.7786193824839
 30
0.0
  0
SPLINE
  5
E3
330
1F
100
AcDbEntity
  8
0
  6
Continuous
 62
     8
370
    18
100
AcDbSpline
210
0.0
220
0.0
230
1.0
 70
     8
 71
     3
 72
    38
 73
    34
 74
     0
 42
0.000000001
 43
0.00000001
 40
0.0
 40
0.0
 40
0.0
 40
0.0
 40
0.0312499999999992
 40
0.0312499999999992
 40
0.0624999999999985
 40
0.0624999999999985
 40
0.1249999999999981
 40
0.1249999999999981
 40
0.2499999999999987
 40
0.2499999999999987
 40
0.3749999999999993
 40
0.3749999999999993
 40
0.4999999999999999
 40
0.4999999999999999
 40
0.6250000000000004
 40
0.6250000000000004
 40
0.6875000000000004
 40
0.6875000000000004
 40
0.7500000000000004
 40
0.7500000000000004
 40
0.8749999999999982
 40
0.8749999999999982
 40
0.9374999999999966
 40
0.9374999999999966
 40
0.9687499999999969
 40
0.9687499999999969
 40
0.9843749999999983
 40
0.9843749999999983
 40
0.9921875
 40
0.9921875
 40
0.99609375
 40
0.99609375
 40
1.0
 40
1.0
 40
1.0
 40
1.0
 10
102.0516580163164
 20
302.6937894651833
 30
0.0
 10
102.0515772484502
 20
302.736526344092
 30
0.0
 10
102.0502087656941
 20
302.7805866624476
 30
0.0
 10
102.047007340174
 20
302.8698872007928
 30
0.0
 10
102.0451137563512
 20
302.9149636060968
 30
0.0
 10
102.039830855662
 20
303.0499731463747
 30
0.0
 10
102.0374793839373
 20
303.1388539092239
 30
0.0
 10
102.0328362342446
 20
303.4063655790733
 30
0.0
 10
102.0326200328609
 20
303.5856324424188
 30
0.0
 10
102.0334481616333
 20
303.9512279294286
 30
0.0
 10
102.0347959098512
 20
304.1367540526988
 30
0.0
 10
102.0380956268911
 20
304.5138314669751
 30
0.0
 10
102.0401108894636
 20
304.7056324973998
 30
0.0
 10
102.0443861455146
 20
305.0922023127895
 30
0.0
 10
102.0468056049712
 20
305.2873859813525
 30
0.0
 10
102.050073691138
 20
305.5871989428675
 30
0.0
 10
102.0509292235888
 20
305.6888400168374
 30
0.0
 10
102.053305820745
 20
305.897302311509
 30
0.0
 10
102.0550275559154
 20
306.0036979275992
 30
0.0
 10
102.0630864449044
 20
306.3273084097087
 30
0.0
 10
102.0726354484062
 20
306.5488746179232
 30
0.0
 10
102.0894771707967
 20
306.9021869499766
 30
0.0
 10
102.095491519601
 20
307.0231176408595
 30
0.0
 10
102.1040644874003
 20
307.2120281845237
 30
0.0
 10
102.1068660769168
 20
307.2762974856446
 30
0.0
 10
102.1109595695595
 20
307.375103375501
 30
0.0
 10
102.112304443265
 20
307.408451112719
 30
0.0
 10
102.1142967488828
 20
307.4590861051518
 30
0.0
 10
102.1149572742807
 20
307.476062038795
 30
0.0
 10
102.1159437291013
 20
307.5016694513039
 30
0.0
 10
102.1162646723151
 20
307.5100815804617
 30
0.0
 10
102.1170115781229
 20
307.5295204390275
 30
0.0
 10
102.117402083754
 20
307.5395037673435
 30
0.0
 10
102.1177951332445
 20
307.5492725908007
 30
0.0
  0
LINE
  5
E4
330
1F
100
AcDbEntity
  8
0
  6
Continuous
 62
     8
370
    18
100
AcDbLine
 10
102.1223816942
 20
324.4681458866
 30
0.0
 11
102.122383994
 21
324.4531167269
 31
0.0
  0
SPLINE
  5
E5
330
1F
100
AcDbEntity
  8
0
  6
Continuous
 62
     8
370
    18
100
AcDbSpline
210
0.0
220
0.0
230
1.0
 70
     8
 71
     3
 72
     8
 73
     4
 74
     0
 42
0.000000001
 43
0.00000001
 40
0.0
 40
0.0
 40
0.0
 40
0.0
 40
1.0
 40
1.0
 40
1.0
 40
1.0
 10
102.1223816942046
 20
324.4681458865746
 30
0.0
 10
102.121958314048
 20
327.2155667930384
 30
0.0
 10
102.1223569009335
 20
329.9205983967763
 30
0.0
 10
102.1230452205434
 20
332.5915661924449
 30
0.0
  0
SPLINE
  5
E6
330
1F
100
AcDbEntity
  8
0
  6
Continuous
 62
     8
370
    18
100
AcDbSpline
210
0.0
220
0.0
230
1.0
 70
     8
 71
     3
 72
    14
 73
    10
 74
     0
 42
0.000000001
 43
0.00000001
 40
0.0
 40
0.0
 40
0.0
 40
0.0
 40
0.5000000000000002
 40
0.5000000000000002
 40
0.7499999999999999
 40
0.7499999999999999
 40
0.875
 40
0.875
 40
1.0
 40
1.0
 40
1.0
 40
1.0
 10
102.1198545492705
 20
372.5155304185777
 30
0.0
 10
102.1224507966296
 20
376.1366072134969
 30
0.0
 10
102.1246119201571
 20
379.7556770625154
 30
0.0
 10
102.1271041966822
 20
385.182936655165
 30
0.0
 10
102.1279087044605
 20
386.9917523663379
 30
0.0
 10
102.1287996819772
 20
389.7053105690965
 30
0.0
 10
102.1289088238811
 20
390.6100264722132
 30
0.0
 10
102.1272995841686
 20
392.4212671410688
 30
0.0
 10
102.1224358677315
 20
393.3293767613485
 30
0.0
 10
102.1290414612046
 20
394.2325340639047
 30
0.0
  0
SPLINE
  5
E7
330
1F
100
AcDbEntity
  8
0
  6
Continuous
 62
     8
370
    18
100
AcDbSpline
210
0.0
220
0.0
230
1.0
 70
     8
 71
     3
 72
    18
 73
    14
 74
     0
 42
0.000000001
 43
0.00000001
 40
0.0
 40
0.0
 40
0.0
 40
0.0
 40
0.2500000000000002
 40
0.2500000000000002
 40
0.5000000000000003
 40
0.5000000000000003
 40
0.7500000000000004
 40
0.7500000000000004
 40
0.8750000000000002
 40
0.8750000000000002
 40
0.9375000000000001
 40
0.9375000000000001
 40
1.0
 40
1.0
 40
1.0
 40
1.0
 10
102.1228113186587
 20
332.5915117269287
 30
0.0
 10
102.1236973800464
 20
335.9185009965205
 30
0.0
 10
102.123652845392
 20
339.2470975348451
 30
0.0
 10
102.1213960666124
 20
345.9012823460673
 30
0.0
 10
102.1198628801361
 20
349.2277907646194
 30
0.0
 10
102.1178847319485
 20
355.8816324568364
 30
0.0
 10
102.1173163062187
 20
359.2087388327956
 30
0.0
 10
102.1175210028698
 20
364.1992118690428
 30
0.0
 10
102.1177562288107
 20
365.8626588927319
 30
0.0
 10
102.118360217457
 20
368.3576078310137
 30
0.0
 10
102.1186050259468
 20
369.1892246336235
 30
0.0
 10
102.1191980343634
 20
370.852448087936
 30
0.0
 10
102.1193223407622
 20
371.6837042035989
 30
0.0
 10
102.1199500190279
 20
372.5156778077702
 30
0.0
  0
LINE
  5
E8
330
1F
100
AcDbEntity
  8
0
  6
Continuous
 62
     8
370
    25
100
AcDbLine
 10
100.3375419937
 20
318.7651114316
 30
0.0
 11
100.3386946222
 21
321.5600085769
 31
0.0
  0
LINE
  5
E9
330
1F
100
AcDbEntity
  8
0
  6
Continuous
 62
     8
370
    25
100
AcDbLine
 10
100.332954776
 20
361.7317907476
 30
0.0
 11
100.3341070137
 21
388.3659998666
 31
0.0
  0
SPLINE
  5
EA
330
1F
100
AcDbEntity
  8
0
  6
Continuous
 62
     8
370
    18
100
AcDbSpline
210
0.0
220
0.0
230
1.0
 70
     8
 71
     3
 72
    24
 73
    20
 74
     0
 42
0.000000001
 43
0.00000001
 40
0.0
 40
0.0
 40
0.0
 40
0.0
 40
0.0078125
 40
0.0078125
 40
0.015625
 40
0.015625
 40
0.03125
 40
0.03125
 40
0.0624999999999998
 40
0.0624999999999998
 40
0.1249999999999999
 40
0.1249999999999999
 40
0.2499999999999998
 40
0.2499999999999998
 40
0.4999999999999998
 40
0.4999999999999998
 40
0.7499999999999999
 40
0.7499999999999999
 40
1.0
 40
1.0
 40
1.0
 40
1.0
 10
103.6968187440894
 20
372.8257676005534
 30
0.0
 10
103.6976090689643
 20
372.7216095955397
 30
0.0
 10
103.6993423757694
 20
372.6190374768001
 30
0.0
 10
103.7032931299163
 20
372.4147636771724
 30
0.0
 10
103.7023505161439
 20
372.3089507898183
 30
0.0
 10
103.7031628878694
 20
371.9958255177597
 30
0.0
 10
103.7050717505062
 20
371.7887766025126
 30
0.0
 10
103.7086591203984
 20
371.1651766715812
 30
0.0
 10
103.7108986316852
 20
370.7494349647797
 30
0.0
 10
103.7171772820487
 20
369.5022105952668
 30
0.0
 10
103.7207521906952
 20
368.6707288220678
 30
0.0
 10
103.7296660219503
 20
366.1760757349917
 30
0.0
 10
103.733377863942
 20
364.5128470426279
 30
0.0
 10
103.7367115001714
 20
359.5231891544729
 30
0.0
 10
103.7273816749431
 20
356.1968446346213
 30
0.0
 10
103.6964293947355
 20
349.5436910883071
 30
0.0
 10
103.6751600690882
 20
346.2170620339161
 30
0.0
 10
103.6432035061889
 20
339.560986346022
 30
0.0
 10
103.6346101672756
 20
336.2298901559944
 30
0.0
 10
103.6317511461465
 20
332.9018793436618
 30
0.0
  0
SPLINE
  5
EB
330
1F
100
AcDbEntity
  8
0
  6
Continuous
 62
     8
370
    18
100
AcDbSpline
210
0.0
220
0.0
230
1.0
 70
     8
 71
     3
 72
    33
 73
    29
 74
     0
 42
0.000000001
 43
0.00000001
 40
0.0
 40
0.0
 40
0.0
 40
0.0
 40
0.0078124999999981
 40
0.0078124999999981
 40
0.0156249999999962
 40
0.0156249999999962
 40
0.0312499999999938
 40
0.0624999999999931
 40
0.0624999999999931
 40
0.1249999999999937
 40
0.1249999999999937
 40
0.1874999999999941
 40
0.1874999999999941
 40
0.2499999999999947
 40
0.2499999999999947
 40
0.374999999999997
 40
0.374999999999997
 40
0.499999999999998
 40
0.499999999999998
 40
0.6249999999999989
 40
0.6249999999999989
 40
0.75
 40
0.75
 40
0.8750000000000009
 40
0.8750000000000009
 40
0.9375000000000004
 40
0.9375000000000004
 40
1.0
 40
1.0
 40
1.0
 40
1.0
 10
103.7457932628198
 20
306.5450210023287
 30
0.0
 10
103.7434682677511
 20
306.5258029824969
 30
0.0
 10
103.7419465632828
 20
306.5082415944493
 30
0.0
 10
103.7381228883771
 20
306.4721491681799
 30
0.0
 10
103.7361587175221
 20
306.4542083977959
 30
0.0
 10
103.7301311371198
 20
306.4007163901834
 30
0.0
 10
103.7175621005913
 20
306.2950754488829
 30
0.0
 10
103.7036722833038
 20
306.1935467642807
 30
0.0
 10
103.6747205314824
 20
305.9961938304743
 30
0.0
 10
103.6539475655557
 20
305.872648261601
 30
0.0
 10
103.6118811834583
 20
305.6373547469314
 30
0.0
 10
103.590516886276
 20
305.525564431407
 30
0.0
 10
103.549026325972
 20
305.3093271322815
 30
0.0
 10
103.5278811254676
 20
305.2048026214525
 30
0.0
 10
103.4817285968631
 20
304.8962634215003
 30
0.0
 10
103.4748492233273
 20
304.6966645719676
 30
0.0
 10
103.4626083856183
 20
304.3026778114861
 30
0.0
 10
103.4590342850457
 20
304.108817714078
 30
0.0
 10
103.453188304404
 20
303.726137934953
 30
0.0
 10
103.4510600085468
 20
303.5361378738385
 30
0.0
 10
103.4480491801459
 20
303.1619041143856
 30
0.0
 10
103.4471302415459
 20
302.9773644597394
 30
0.0
 10
103.448303090128
 20
302.6127273770062
 30
0.0
 10
103.4502612535818
 20
302.4326937585209
 30
0.0
 10
103.4584392620317
 20
302.1660796683664
 30
0.0
 10
103.4622304009065
 20
302.0778001708844
 30
0.0
 10
103.4714973823645
 20
301.9023511983342
 30
0.0
 10
103.4767061220144
 20
301.8151047355203
 30
0.0
 10
103.4765624161761
 20
301.7279588972522
 30
0.0
  0
SPLINE
  5
EC
330
1F
100
AcDbEntity
  8
0
  6
Continuous
 62
     8
370
    18
100
AcDbSpline
210
0.0
220
0.0
230
1.0
 70
     8
 71
     3
 72
    14
 73
    10
 74
     0
 42
0.000000001
 43
0.00000001
 40
0.0
 40
0.0
 40
0.0
 40
0.0
 40
0.1249999999999998
 40
0.1249999999999998
 40
0.2499999999999998
 40
0.2499999999999998
 40
0.4999999999999998
 40
0.4999999999999998
 40
1.0
 40
1.0
 40
1.0
 40
1.0
 10
103.611148964651
 20
394.5408921474004
 30
0.0
 10
103.6057427342638
 20
393.6524281887289
 30
0.0
 10
103.6117743122065
 20
392.7414752866601
 30
0.0
 10
103.6162170811212
 20
390.9280562558496
 30
0.0
 10
103.6176587814922
 20
390.0226240539225
 30
0.0
 10
103.6222006654421
 20
387.3078496008303
 30
0.0
 10
103.6262197926536
 20
385.4986796288421
 30
0.0
 10
103.6449338498701
 20
380.0693302097229
 30
0.0
 10
103.666881817379
 20
376.4483829510302
 30
0.0
 10
103.6974746125891
 20
372.8256153773359
 30
0.0
  0
LINE
  5
ED
330
1F
100
AcDbEntity
  8
0
  6
Continuous
 62
     8
370
    18
100
AcDbLine
 10
103.6111560107
 20
394.5408921063
 30
0.0
 11
103.6112705156
 21
394.5597111909
 31
0.0
  0
LINE
  5
EE
330
1F
100
AcDbEntity
  8
0
  6
Continuous
 62
     8
370
    18
100
AcDbLine
 10
103.6112705156
 20
394.5597111909
 30
0.0
 11
103.6155528885
 21
395.2556974884
 31
0.0
  0
SPLINE
  5
EF
330
1F
100
AcDbEntity
  8
0
  6
Continuous
 62
     8
370
    18
100
AcDbSpline
210
0.0
220
0.0
230
1.0
 70
     8
 71
     3
 72
    24
 73
    20
 74
     0
 42
0.000000001
 43
0.00000001
 40
0.0
 40
0.0
 40
0.0
 40
0.0
 40
0.1250000000000089
 40
0.1250000000000089
 40
0.1875000000000083
 40
0.1875000000000083
 40
0.2500000000000076
 40
0.2500000000000076
 40
0.3750000000000063
 40
0.3750000000000063
 40
0.500000000000005
 40
0.500000000000005
 40
0.6250000000000038
 40
0.6250000000000038
 40
0.7500000000000026
 40
0.7500000000000026
 40
0.8750000000000012
 40
0.8750000000000012
 40
1.0
 40
1.0
 40
1.0
 40
1.0
 10
113.5340783675667
 20
404.651777420118
 30
0.0
 10
112.8135177959237
 20
404.6471291214902
 30
0.0
 10
112.1144081658587
 20
404.6410816983102
 30
0.0
 10
111.1067452162482
 20
404.5439162514971
 30
0.0
 10
110.7777804780015
 20
404.4961811171371
 30
0.0
 10
110.1253983744737
 20
404.3642426653338
 30
0.0
 10
109.8037385196366
 20
404.2806544545394
 30
0.0
 10
108.8625834453732
 20
403.9755803440529
 30
0.0
 10
108.2670476261527
 20
403.6973045821872
 30
0.0
 10
107.1466917189118
 20
403.0158964132021
 30
0.0
 10
106.6254828270905
 20
402.6151767292694
 30
0.0
 10
105.6852262148672
 20
401.7171294401379
 30
0.0
 10
105.266259187375
 20
401.2190359411638
 30
0.0
 10
104.5627423259134
 20
400.1509886308658
 30
0.0
 10
104.2773645181007
 20
399.5798985637135
 30
0.0
 10
103.8710314437253
 20
398.4007360215405
 30
0.0
 10
103.7546804589267
 20
397.8009490926569
 30
0.0
 10
103.6282553110162
 20
396.5598631291064
 30
0.0
 10
103.6218934695331
 20
395.9275057241848
 30
0.0
 10
103.6177198019604
 20
395.2556848504808
 30
0.0
  0
SPLINE
  5
F0
330
1F
100
AcDbEntity
  8
0
  6
Continuous
 62
     8
370
    18
100
AcDbSpline
210
0.0
220
0.0
230
1.0
 70
     8
 71
     3
 72
    20
 73
    16
 74
     0
 42
0.000000001
 43
0.00000001
 40
0.0
 40
0.0
 40
0.0
 40
0.0
 40
0.25
 40
0.25
 40
0.5
 40
0.5
 40
0.625
 40
0.625
 40
0.75
 40
0.75
 40
0.875
 40
0.875
 40
0.9375
 40
0.9375
 40
1.0
 40
1.0
 40
1.0
 40
1.0
 10
127.3878710802757
 20
404.6498021751483
 30
0.0
 10
126.2386382856787
 20
404.65030517746
 30
0.0
 10
125.0865858829157
 20
404.6507035266309
 30
0.0
 10
122.7713410966207
 20
404.6514265106339
 30
0.0
 10
121.6086544227019
 20
404.6518503715674
 30
0.0
 10
119.879866997376
 20
404.6527802449838
 30
0.0
 10
119.3073880566679
 20
404.653136011773
 30
0.0
 10
118.1691994168762
 20
404.6538836329051
 30
0.0
 10
117.6021398503755
 20
404.6542596847612
 30
0.0
 10
116.4574791066053
 20
404.6548055735127
 30
0.0
 10
115.880448434571
 20
404.6549524729821
 30
0.0
 10
114.9931454766797
 20
404.6549155218118
 30
0.0
 10
114.6933481968774
 20
404.6548784628558
 30
0.0
 10
114.0991931752719
 20
404.6541167996496
 30
0.0
 10
113.8070798614862
 20
404.6533041002126
 30
0.0
 10
113.5340800750092
 20
404.6515311577584
 30
0.0
  0
ARC
  5
F1
330
1F
100
AcDbEntity
  8
0
  6
Continuous
 62
     8
370
    18
100
AcDbCircle
 10
132.3090888342
 20
379.2140200421
 30
0.0
 40
3.901712530298233
100
AcDbArc
 50
86.6942199352
 51
91.1006383634
  0
SPLINE
  5
F2
330
1F
100
AcDbEntity
  8
0
  6
Continuous
 62
     8
370
    18
100
AcDbSpline
210
0.0
220
0.0
230
1.0
 70
     8
 71
     3
 72
    44
 73
    40
 74
     0
 42
0.000000001
 43
0.00000001
 40
0.0
 40
0.0
 40
0.0
 40
0.0
 40
0.0625000000000011
 40
0.0625000000000011
 40
0.1250000000000022
 40
0.1250000000000022
 40
0.1875000000000033
 40
0.1875000000000033
 40
0.2187500000000039
 40
0.2187500000000039
 40
0.2500000000000045
 40
0.2500000000000045
 40
0.3125000000000056
 40
0.3125000000000056
 40
0.3750000000000066
 40
0.3750000000000066
 40
0.4375000000000075
 40
0.4375000000000075
 40
0.4687500000000079
 40
0.4687500000000079
 40
0.5000000000000082
 40
0.5000000000000082
 40
0.5312500000000085
 40
0.5312500000000085
 40
0.5625000000000089
 40
0.5625000000000089
 40
0.5937500000000092
 40
0.5937500000000092
 40
0.6250000000000095
 40
0.6250000000000095
 40
0.6406250000000094
 40
0.6406250000000094
 40
0.6562500000000094
 40
0.6562500000000094
 40
0.6875000000000087
 40
0.6875000000000087
 40
0.7500000000000066
 40
0.7500000000000066
 40
1.0
 40
1.0
 40
1.0
 40
1.0
 10
366.4045439708718
 20
399.3331248848095
 30
0.0
 10
367.2111440542722
 20
399.3303080999332
 30
0.0
 10
368.0177127276509
 20
399.3300109801638
 30
0.0
 10
369.6308529614049
 20
399.3288371778877
 30
0.0
 10
370.4374244048619
 20
399.3280719094287
 30
0.0
 10
372.0505590496348
 20
399.3265855330065
 30
0.0
 10
372.8571248234732
 20
399.3255867269289
 30
0.0
 10
374.0669775462431
 20
399.3241460942732
 30
0.0
 10
374.4702999198551
 20
399.323449090424
 30
0.0
 10
375.2766273208029
 20
399.3263130429216
 30
0.0
 10
375.6797091846118
 20
399.326112336001
 30
0.0
 10
376.8883206809188
 20
399.3182966108185
 30
0.0
 10
377.6958864081041
 20
399.310878733171
 30
0.0
 10
379.2772013800295
 20
399.298703008106
 30
0.0
 10
380.0537783459422
 20
399.2926171941651
 30
0.0
 10
381.5627518129949
 20
399.2812330840981
 30
0.0
 10
382.2788746625181
 20
399.2769595282942
 30
0.0
 10
383.2327334307081
 20
399.2774240513145
 30
0.0
 10
383.5255243479102
 20
399.2783912058944
 30
0.0
 10
384.0585514782258
 20
399.2829841325557
 30
0.0
 10
384.2992770391367
 20
399.2873791081658
 30
0.0
 10
384.7217713804344
 20
399.296376008306
 30
0.0
 10
384.9034330134849
 20
399.3013801423441
 30
0.0
 10
385.2142081754645
 20
399.3122780800197
 30
0.0
 10
385.3411417602418
 20
399.3177930304485
 30
0.0
 10
385.550503411
 20
399.3274287830117
 30
0.0
 10
385.6324129844565
 20
399.3318720615138
 30
0.0
 10
385.7590541554513
 20
399.3400746463672
 30
0.0
 10
385.8016632053264
 20
399.3442859049824
 30
0.0
 10
385.8563619750661
 20
399.3412212112064
 30
0.0
 10
385.8704333514851
 20
399.341024852195
 30
0.0
 10
385.8974765247376
 20
399.3425254594634
 30
0.0
 10
385.9115118006537
 20
399.3429727262321
 30
0.0
 10
385.952741377174
 20
399.343541021469
 30
0.0
 10
385.9781828573454
 20
399.3443497087114
 30
0.0
 10
386.0527735308049
 20
399.3455948607215
 30
0.0
 10
386.0977477301418
 20
399.346015094701
 30
0.0
 10
386.2996534814642
 20
399.3465823809465
 30
0.0
 10
386.3855677246695
 20
399.3431296645091
 30
0.0
 10
386.3855678348117
 20
399.3431295952921
 30
0.0
  0
SPLINE
  5
F3
330
1F
100
AcDbEntity
  8
0
  6
Continuous
 62
     8
370
    18
100
AcDbSpline
210
0.0
220
0.0
230
1.0
 70
     8
 71
     3
 72
    46
 73
    42
 74
     0
 42
0.000000001
 43
0.00000001
 40
0.0
 40
0.0
 40
0.0
 40
0.0
 40
0.2499999999999983
 40
0.2499999999999983
 40
0.3124999999999978
 40
0.3124999999999978
 40
0.3437499999999973
 40
0.3437499999999973
 40
0.3593749999999973
 40
0.3593749999999973
 40
0.3749999999999973
 40
0.3749999999999973
 40
0.4374999999999977
 40
0.4374999999999977
 40
0.468749999999998
 40
0.468749999999998
 40
0.4999999999999982
 40
0.4999999999999982
 40
0.5312499999999984
 40
0.5312499999999984
 40
0.5624999999999987
 40
0.5624999999999987
 40
0.5937499999999989
 40
0.5937499999999989
 40
0.6249999999999991
 40
0.6249999999999991
 40
0.6874999999999994
 40
0.6874999999999994
 40
0.7499999999999997
 40
0.7499999999999997
 40
0.7812499999999997
 40
0.7812499999999997
 40
0.8124999999999997
 40
0.8124999999999997
 40
0.8749999999999998
 40
0.8749999999999998
 40
0.9375
 40
0.9375
 40
0.96875
 40
0.96875
 40
1.0
 40
1.0
 40
1.0
 40
1.0
 10
387.005651941164
 20
397.9837920787358
 30
0.0
 10
387.005651941164
 20
397.9837920512976
 30
0.0
 10
386.9489853709628
 20
397.9560646730687
 30
0.0
 10
386.8068683960709
 20
397.8984346568087
 30
0.0
 10
386.7748957397023
 20
397.8858582496026
 30
0.0
 10
386.7216092884108
 20
397.8654191410164
 30
0.0
 10
386.7029584901024
 20
397.8583919031423
 30
0.0
 10
386.6736498956877
 20
397.8474257582799
 30
0.0
 10
386.6636569249673
 20
397.8445491722485
 30
0.0
 10
386.6432319483874
 20
397.8358332797853
 30
0.0
 10
386.6341644721369
 20
397.8281693996418
 30
0.0
 10
386.5688190424463
 20
397.7888705269756
 30
0.0
 10
386.4473735547852
 20
397.7574975628975
 30
0.0
 10
386.1150743610183
 20
397.7148201994955
 30
0.0
 10
385.9777979226458
 20
397.7012329543643
 30
0.0
 10
385.6462664695622
 20
397.6776413838818
 30
0.0
 10
385.4523676973122
 20
397.6675739909906
 30
0.0
 10
385.0020222315254
 20
397.6503425327769
 30
0.0
 10
384.7493240896566
 20
397.6437376939569
 30
0.0
 10
384.19117204776
 20
397.6357747282907
 30
0.0
 10
383.8860356934317
 20
397.633876321234
 30
0.0
 10
383.2243526415614
 20
397.6336253947939
 30
0.0
 10
382.8723282169442
 20
397.6354433866176
 30
0.0
 10
382.142221699162
 20
397.6423994948773
 30
0.0
 10
381.7625792903916
 20
397.6474099658984
 30
0.0
 10
380.5857617706828
 20
397.6659275149933
 30
0.0
 10
379.7763912048267
 20
397.6823442643484
 30
0.0
 10
378.134033651906
 20
397.7176941011973
 30
0.0
 10
377.2956791458409
 20
397.7377834797448
 30
0.0
 10
376.0376395201777
 20
397.7704182556891
 30
0.0
 10
375.61821823942
 20
397.7836749367987
 30
0.0
 10
374.7792321884417
 20
397.7989414606496
 30
0.0
 10
374.3596735737312
 20
397.8017117979361
 30
0.0
 10
373.1010436642189
 20
397.8134602150285
 30
0.0
 10
372.2619580499348
 20
397.8214000327062
 30
0.0
 10
370.5837780156082
 20
397.8366725391027
 30
0.0
 10
369.744685902422
 20
397.8441814647084
 30
0.0
 10
368.4860452616992
 20
397.8552738862984
 30
0.0
 10
368.0664986719565
 20
397.8590202623422
 30
0.0
 10
367.2273995513933
 20
397.8655907858612
 30
0.0
 10
366.8099789126672
 20
397.868380585509
 30
0.0
 10
366.3882869699352
 20
397.8701146583523
 30
0.0
  0
SPLINE
  5
F4
330
1F
100
AcDbEntity
  8
0
  6
Continuous
 62
     8
370
    18
100
AcDbSpline
210
0.0
220
0.0
230
1.0
 70
     8
 71
     3
 72
     8
 73
     4
 74
     0
 42
0.000000001
 43
0.00000001
 40
0.0
 40
0.0
 40
0.0
 40
0.0
 40
0.0000000734362012
 40
0.0000000734362012
 40
0.0000000734362012
 40
0.0000000734362012
 10
366.3882869699352
 20
397.8701146583523
 30
0.0
 10
366.3882869699352
 20
397.8701391369215
 30
0.0
 10
366.3882870935681
 20
397.8701636158027
 30
0.0
 10
366.3882873408006
 20
397.8701880931233
 30
0.0
  0
SPLINE
  5
F5
330
1F
100
AcDbEntity
  8
0
  6
Continuous
 62
     8
370
    18
100
AcDbSpline
210
0.0
220
0.0
230
1.0
 70
     8
 71
     3
 72
    12
 73
     8
 74
     0
 42
0.000000001
 43
0.00000001
 40
0.0
 40
0.0
 40
0.0
 40
0.0
 40
0.2500000000000001
 40
0.2500000000000001
 40
0.5000000000000001
 40
0.5000000000000001
 40
1.0
 40
1.0
 40
1.0
 40
1.0
 10
361.1606374138447
 20
399.3411586239459
 30
0.0
 10
361.597656904868
 20
399.3411586239459
 30
0.0
 10
362.0346604238968
 20
399.3376510455777
 30
0.0
 10
362.908641850339
 20
399.3360392243775
 30
0.0
 10
363.3456238645616
 20
399.3356822114239
 30
0.0
 10
364.656579861952
 20
399.3344055381648
 30
0.0
 10
365.5305640214785
 20
399.3335588827458
 30
0.0
 10
366.4045439708718
 20
399.3331248848095
 30
0.0
  0
SPLINE
  5
F6
330
1F
100
AcDbEntity
  8
0
  6
Continuous
 62
     8
370
    18
100
AcDbSpline
210
0.0
220
0.0
230
1.0
 70
     8
 71
     3
 72
    14
 73
    10
 74
     0
 42
0.000000001
 43
0.00000001
 40
0.0
 40
0.0
 40
0.0
 40
0.0
 40
0.0007850483757487
 40
0.0007850483757487
 40
0.0007850483757487
 40
0.004339294517465
 40
0.004339294517465
 40
0.004339294517465
 40
0.005227878830625
 40
0.005227878830625
 40
0.005227878830625
 40
0.005227878830625
 10
366.3882869699351
 20
397.8701880931233
 30
0.0
 10
366.1266139746951
 20
397.8724523983729
 30
0.0
 10
365.864940919571
 20
397.8747099002728
 30
0.0
 10
365.6032681453608
 20
397.8769996058895
 30
0.0
 10
364.4185655578523
 20
397.8873660652085
 30
0.0
 10
363.2338902474609
 20
397.9006478274541
 30
0.0
 10
362.0491982854401
 20
397.9121647336763
 30
0.0
 10
361.7530194152083
 20
397.9150440173913
 30
0.0
 10
361.4568302793172
 20
397.9177771361898
 30
0.0
 10
361.1606374138447
 20
397.9177771361898
 30
0.0
  0
SPLINE
  5
F7
330
1F
100
AcDbEntity
  8
0
  6
Continuous
 62
     8
370
    18
100
AcDbSpline
210
0.0
220
0.0
230
1.0
 70
    24
 71
     3
 72
    10
 73
     6
 74
     0
 42
0.000000001
 43
0.00000001
 40
0.0
 40
0.0
 40
0.0
 40
0.0
 40
0.5
 40
0.5
 40
1.0
 40
1.0
 40
1.0
 40
1.0
 10
361.1606374138447
 20
399.3411586239459
 30
0.0
 10
361.1606374138447
 20
399.1728146566371
 30
0.0
 10
361.1606374138447
 20
398.9549024818212
 30
0.0
 10
361.1606374138447
 20
398.463675420759
 30
0.0
 10
361.1606374138447
 20
398.1907076419827
 30
0.0
 10
361.1606374138447
 20
397.9177771361898
 30
0.0
  0
LINE
  5
F8
330
1F
100
AcDbEntity
  8
0
  6
Continuous
 62
     8
370
    18
100
AcDbLine
 10
361.1606374138
 20
397.917780415
 30
0.0
 11
138.534080075
 21
397.917780415
 31
0.0
  0
LINE
  5
F9
330
1F
100
AcDbEntity
  8
0
  6
Continuous
 62
     8
370
    18
100
AcDbLine
 10
138.534080075
 20
399.3411722601
 30
0.0
 11
361.1606374138
 21
399.3411722601
 31
0.0
  0
SPLINE
  5
FA
330
1F
100
AcDbEntity
  8
0
  6
Continuous
 62
     8
370
    18
100
AcDbSpline
210
0.0
220
0.0
230
1.0
 70
    24
 71
     3
 72
     8
 73
     4
 74
     0
 42
0.000000001
 43
0.00000001
 40
0.0338636592534284
 40
0.0338636592534284
 40
0.0338636592534284
 40
0.0338636592534284
 40
1.0
 40
1.0
 40
1.0
 40
1.0
 10
361.1606374138447
 20
399.3411664597984
 30
0.0
 10
361.1606374138447
 20
404.5474012594303
 30
0.0
 10
361.1606374138447
 20
407.3850117993498
 30
0.0
 10
361.1606374138447
 20
407.3850117993498
 30
0.0
  0
SPLINE
  5
FB
330
1F
100
AcDbEntity
  8
0
  6
Continuous
 62
     8
370
    18
100
AcDbSpline
210
0.0
220
0.0
230
1.0
 70
     8
 71
     3
 72
    22
 73
    18
 74
     0
 42
0.000000001
 43
0.00000001
 40
0.0
 40
0.0
 40
0.0
 40
0.0
 40
0.0248466288655636
 40
0.0629444714697017
 40
0.0950381292779447
 40
0.1259030257033303
 40
0.2518517103705
 40
0.5038945427193927
 40
0.6044289080271806
 40
0.6799362172943013
 40
0.755596302169373
 40
0.794884981334598
 40
0.8560211639728332
 40
0.8823721700308893
 40
0.929440451979504
 40
0.9651189270745065
 40
1.0
 40
1.0
 40
1.0
 40
1.0
 10
103.4765623878917
 20
301.7279592040185
 30
0.0
 10
103.4759451034533
 20
301.6935866474918
 30
0.0
 10
103.4743813242006
 20
301.6065099492669
 30
0.0
 10
103.4671599045049
 20
301.4754624038532
 30
0.0
 10
103.4602651289361
 20
301.3369837470162
 30
0.0
 10
103.4506568922558
 20
301.0798606959846
 30
0.0
 10
103.4446860696049
 20
300.53252197303
 30
0.0
 10
103.4512574603229
 20
299.9176411322984
 30
0.0
 10
103.4637245190529
 20
299.3920225242903
 30
0.0
 10
103.4749705751359
 20
299.0908717300559
 30
0.0
 10
103.4988193598326
 20
298.8690895974407
 30
0.0
 10
103.5530648310853
 20
298.672750848853
 30
0.0
 10
103.5955432766901
 20
298.5423508709549
 30
0.0
 10
103.6418161543532
 20
298.4234264144458
 30
0.0
 10
103.6790040702153
 20
298.3440033872501
 30
0.0
 10
103.7163639501166
 20
298.2843881454247
 30
0.0
 10
103.7360526104804
 20
298.2699103177098
 30
0.0
 10
103.7457856886707
 20
298.2627532117122
 30
0.0
  0
SPLINE
  5
FC
330
1F
100
AcDbEntity
  8
0
  6
Continuous
 62
     8
370
    18
100
AcDbSpline
210
0.0
220
0.0
230
1.0
 70
     8
 71
     3
 72
    12
 73
     8
 74
     0
 42
0.000000001
 43
0.00000001
 40
0.0
 40
0.0
 40
0.0
 40
0.0
 40
0.0958640611762937
 40
0.2762083029311838
 40
0.456800168892951
 40
0.7285432356120832
 40
0.9999999999999999
 40
0.9999999999999999
 40
0.9999999999999999
 40
0.9999999999999999
 10
102.0995822104871
 20
299.4410744115177
 30
0.0
 10
102.0899983329079
 20
299.4798139817839
 30
0.0
 10
102.0623847879656
 20
299.5914323591844
 30
0.0
 10
102.0496130576014
 20
300.1113734138666
 30
0.0
 10
102.0418629639085
 20
300.7999384234556
 30
0.0
 10
102.0256583257072
 20
301.664254776826
 30
0.0
 10
102.0429944985507
 20
302.3507318420546
 30
0.0
 10
102.051658016316
 20
302.6937894652017
 30
0.0
  0
LINE
  5
FD
330
1F
100
AcDbEntity
  8
0
  6
Continuous
 62
     8
370
    18
100
AcDbLine
 10
108.5584856885
 20
314.6475480592
 30
0.0
 11
108.5308552581
 21
313.3734568669
 31
0.0
  0
SPLINE
  5
FE
330
1F
100
AcDbEntity
  8
0
  6
Continuous
 62
     8
370
    18
100
AcDbSpline
210
0.0
220
0.0
230
1.0
 70
     8
 71
     3
 72
    11
 73
     7
 74
     0
 42
0.000000001
 43
0.00000001
 40
0.0
 40
0.0
 40
0.0
 40
0.0
 40
0.3177971742805997
 40
0.7628870145140701
 40
0.986028194785108
 40
1.0
 40
1.0
 40
1.0
 40
1.0
 10
105.4494647468821
 20
299.4719214299153
 30
0.0
 10
105.3134269500305
 20
299.2934327009974
 30
0.0
 10
104.9868618415264
 20
298.8649621400592
 30
0.0
 10
104.3857964253008
 20
298.466107309129
 30
0.0
 10
103.9224431128109
 20
298.3032609770058
 30
0.0
 10
103.756502044516
 20
298.2649014706524
 30
0.0
 10
103.7467240212727
 20
298.262641149271
 30
0.0
  0
LINE
  5
FF
330
1F
100
AcDbEntity
  8
0
  6
Continuous
 62
     8
370
    18
100
AcDbLine
 10
102.1342776353
 20
394.9472628872
 30
0.0
 11
102.1291839416
 21
394.2513448161
 31
0.0
  0
LINE
  5
100
330
1F
100
AcDbEntity
  8
0
  6
Continuous
 62
     8
370
    18
100
AcDbLine
 10
102.1291839416
 20
394.2513448161
 30
0.0
 11
102.1290460414
 21
394.2325271339
 31
0.0
  0
SPLINE
  5
101
330
1F
100
AcDbEntity
  8
0
  6
Continuous
 62
     8
370
    18
100
AcDbSpline
210
0.0
220
0.0
230
1.0
 70
     8
 71
     3
 72
    24
 73
    20
 74
     0
 42
0.000000001
 43
0.00000001
 40
0.0
 40
0.0
 40
0.0
 40
0.0
 40
0.125
 40
0.125
 40
0.1875
 40
0.1875
 40
0.25
 40
0.25
 40
0.375
 40
0.375
 40
0.5
 40
0.5
 40
0.625
 40
0.625
 40
0.75
 40
0.75
 40
0.875
 40
0.875
 40
1.0
 40
1.0
 40
1.0
 40
1.0
 10
102.1366491453264
 20
394.9475704180776
 30
0.0
 10
102.1417556623448
 20
395.62197967023
 30
0.0
 10
102.1488850642762
 20
396.3018934995766
 30
0.0
 10
102.2673501879117
 20
397.3732164043353
 30
0.0
 10
102.3234010267941
 20
397.7296989848244
 30
0.0
 10
102.4796381341272
 20
398.443049540583
 30
0.0
 10
102.5829232437341
 20
398.8077467631161
 30
0.0
 10
102.9701369160989
 20
399.8788915706381
 30
0.0
 10
103.3212464330994
 20
400.5545751613951
 30
0.0
 10
104.1677600414652
 20
401.8042865679495
 30
0.0
 10
104.6629168502546
 20
402.3779637797475
 30
0.0
 10
105.76145085485
 20
403.4056482928135
 30
0.0
 10
106.3647075290325
 20
403.8604653571423
 30
0.0
 10
107.6630585475591
 20
404.6341969393745
 30
0.0
 10
108.3607199388159
 20
404.9521172456718
 30
0.0
 10
109.8202546419663
 20
405.4132012503302
 30
0.0
 10
110.5757958523883
 20
405.5569093350975
 30
0.0
 10
112.0760218884798
 20
405.6985220340068
 30
0.0
 10
112.8133316080662
 20
405.7039102835018
 30
0.0
 10
113.5362530558855
 20
405.7090242948478
 30
0.0
  0
SPLINE
  5
102
330
1F
100
AcDbEntity
  8
0
  6
Continuous
 62
     8
370
    18
100
AcDbSpline
210
0.0
220
0.0
230
1.0
 70
     8
 71
     3
 72
    26
 73
    22
 74
     0
 42
0.000000001
 43
0.00000001
 40
0.0
 40
0.0
 40
0.0
 40
0.0
 40
0.0665622444973089
 40
0.2067612152861945
 40
0.2908805977595259
 40
0.3749999802328573
 40
0.403840911366571
 40
0.4254716097168562
 40
0.4254716097168562
 40
0.4561860708431063
 40
0.4582337015848563
 40
0.5073768393868565
 40
0.5128371880315232
 40
0.6111234636355236
 40
0.6438855555035238
 40
0.7749339229755243
 40
0.8400729358065468
 40
0.8791563435051604
 40
0.9182397512037738
 40
0.9338731142832192
 40
0.9416897958229419
 40
0.9416897958229419
 40
0.9416897958229419
 40
0.9416897958229419
 10
102.1361548310656
 20
394.9485168819194
 30
0.0
 10
102.060559454684
 20
395.0932513099399
 30
0.0
 10
101.8285579018462
 20
395.525901847257
 30
0.0
 10
101.5285499080602
 20
395.9760867551252
 30
0.0
 10
101.244654223773
 20
396.2847594408867
 30
0.0
 10
101.0807588698632
 20
396.4051244896371
 30
0.0
 10
100.9773804613996
 20
396.4537993419779
 30
0.0
 10
100.9400598699669
 20
396.4666254827383
 30
0.0
 10
100.9020397647405
 20
396.4773646223133
 30
0.0
 10
100.8788530473479
 20
396.4818081939814
 30
0.0
 10
100.8226148951918
 20
396.4864217701187
 30
0.0
 10
100.7855595506192
 20
396.4827465301798
 30
0.0
 10
100.690991434002
 20
396.4530977543885
 30
0.0
 10
100.6158012787192
 20
396.3931736068527
 30
0.0
 10
100.4949229409897
 20
396.1974143902871
 30
0.0
 10
100.4153619628184
 20
395.9384532428553
 30
0.0
 10
100.3675533681875
 20
395.5648274780647
 30
0.0
 10
100.3479921533992
 20
395.307367839348
 30
0.0
 10
100.3394967259682
 20
395.1255190332988
 30
0.0
 10
100.3356566798339
 20
394.9967216461465
 30
0.0
 10
100.334431491115
 20
394.9500491410527
 30
0.0
 10
100.3340800750084
 20
394.9342954853516
 30
0.0
  0
LINE
  5
103
330
1F
100
AcDbEntity
  8
0
  6
Continuous
 62
     8
370
    18
100
AcDbLine
 10
100.334080075
 20
394.9342954854
 30
0.0
 11
100.4087691523
 21
396.4512279658
 31
0.0
  0
SPLINE
  5
104
330
1F
100
AcDbEntity
  8
0
  6
Continuous
 62
     8
370
    18
100
AcDbSpline
210
0.0
220
0.0
230
1.0
 70
     8
 71
     3
 72
    10
 73
     6
 74
     0
 42
0.000000001
 43
0.00000001
 40
0.0
 40
0.0
 40
0.0
 40
0.0
 40
0.5
 40
0.5
 40
1.0
 40
1.0
 40
1.0
 40
1.0
 10
127.6761661709177
 20
404.6535395283828
 30
0.0
 10
127.6762778324075
 20
404.673506029445
 30
0.0
 10
127.6452604956728
 20
404.6847274585115
 30
0.0
 10
127.5385053651654
 20
404.6833354546598
 30
0.0
 10
127.4634269052956
 20
404.6707306189426
 30
0.0
 10
127.3878726395417
 20
404.6497804050113
 30
0.0
  0
ARC
  5
105
330
1F
100
AcDbEntity
  8
0
  6
Continuous
 62
     8
370
    18
100
AcDbCircle
 10
127.122551666
 20
405.4472880947
 30
0.0
 40
0.26840225396365
100
AcDbArc
 50
15.3314293314
 51
96.3189553559
  0
SPLINE
  5
106
330
1F
100
AcDbEntity
  8
0
  6
Continuous
 62
     8
370
    18
100
AcDbSpline
210
0.0
220
0.0
230
1.0
 70
     8
 71
     3
 72
    20
 73
    16
 74
     0
 42
0.000000001
 43
0.00000001
 40
0.0
 40
0.0
 40
0.0
 40
0.0
 40
0.0625
 40
0.0625
 40
0.125
 40
0.125
 40
0.25
 40
0.25
 40
0.375
 40
0.375
 40
0.5
 40
0.5
 40
0.75
 40
0.75
 40
1.0
 40
1.0
 40
1.0
 40
1.0
 10
113.5362534027817
 20
405.7088984413244
 30
0.0
 10
113.8068764804397
 20
405.7107481247501
 30
0.0
 10
114.0944971313745
 20
405.7116850790309
 30
0.0
 10
114.6777349064291
 20
405.7127555949914
 30
0.0
 10
114.9711494140687
 20
405.7129669288405
 30
0.0
 10
115.8395522116805
 20
405.7134796157699
 30
0.0
 10
116.4046856254452
 20
405.7136014045573
 30
0.0
 10
117.5250114061804
 20
405.7135581344336
 30
0.0
 10
118.0797689720368
 20
405.7134128993795
 30
0.0
 10
119.1922639991327
 20
405.7131583984541
 30
0.0
 10
119.7511631605983
 20
405.7130707732259
 30
0.0
 10
121.4400041863602
 20
405.7130332673191
 30
0.0
 10
122.5767720678782
 20
405.7132114250207
 30
0.0
 10
124.8413513222054
 20
405.7136032939111
 30
0.0
 10
125.9688523630975
 20
405.7138395125342
 30
0.0
 10
127.0930175520665
 20
405.7140596982254
 30
0.0
  0
ARC
  5
107
330
1F
100
AcDbEntity
  8
0
  6
Continuous
 62
     8
370
    18
100
AcDbCircle
 10
122.4964383004
 20
350.8251188179
 30
0.0
 40
10.32065539888656
100
AcDbArc
 50
70.8400783295
 51
102.2442284933
  0
SPLINE
  5
108
330
1F
100
AcDbEntity
  8
0
  6
Continuous
 62
     8
370
    18
100
AcDbSpline
210
0.0
220
0.0
230
1.0
 70
     8
 71
     3
 72
    25
 73
    21
 74
     0
 42
0.000000001
 43
0.00000001
 40
0.0
 40
0.0
 40
0.0
 40
0.0
 40
0.0128484698075118
 40
0.0403337942213039
 40
0.0781767505239453
 40
0.1133041605904736
 40
0.1522581750673866
 40
0.2293020846660075
 40
0.2932923505268703
 40
0.364328140732731
 40
0.4298383845104036
 40
0.4958158222088823
 40
0.5646357103136952
 40
0.6170134702374528
 40
0.6958970362091041
 40
0.7632170850984495
 40
0.8166660014507343
 40
0.8790048006813187
 40
0.9400814798445616
 40
1.0
 40
1.0
 40
1.0
 40
1.0
 10
103.7475880711025
 20
298.2628371372618
 30
0.0
 10
103.7510577902492
 20
298.2617122887509
 30
0.0
 10
103.7619498995947
 20
298.2581811750035
 30
0.0
 10
103.783420588575
 20
298.2649973684041
 30
0.0
 10
103.8122785342346
 20
298.3034035160193
 30
0.0
 10
103.8385331449218
 20
298.3835279275737
 30
0.0
 10
103.8663098122528
 20
298.5497284016947
 30
0.0
 10
103.8889594100494
 20
298.8579976200705
 30
0.0
 10
103.9017529156541
 20
299.36181591374
 30
0.0
 10
103.8998243971266
 20
299.9499692267786
 30
0.0
 10
103.8837539287726
 20
300.6389007295438
 30
0.0
 10
103.854459335288
 20
301.3970900383156
 30
0.0
 10
103.8145242088302
 20
302.1638188853044
 30
0.0
 10
103.7750267620971
 20
303.027151963702
 30
0.0
 10
103.7452247756146
 20
303.9229458504815
 30
0.0
 10
103.7185415619148
 20
304.8539402400392
 30
0.0
 10
103.6945488918847
 20
305.725840382501
 30
0.0
 10
103.6711278495862
 20
306.5825782455762
 30
0.0
 10
103.6487183748997
 20
307.4827704180292
 30
0.0
 10
103.6408088545636
 20
308.083914806963
 30
0.0
 10
103.6368919491299
 20
308.3816099418731
 30
0.0
  0
SPLINE
  5
109
330
1F
100
AcDbEntity
  8
0
  6
Continuous
 62
     8
370
    18
100
AcDbSpline
210
0.0
220
0.0
230
1.0
 70
     8
 71
     3
 72
    11
 73
     7
 74
     0
 42
0.000000001
 43
0.00000001
 40
0.0
 40
0.0
 40
0.0
 40
0.0
 40
0.2596158163240452
 40
0.5192316326480858
 40
0.7788474489721309
 40
1.0
 40
1.0
 40
1.0
 40
1.0
 10
340.5340800750084
 20
416.461746138003
 30
0.0
 10
338.3684539437467
 20
416.3399831510503
 30
0.0
 10
334.0372016812232
 20
416.0964571771448
 30
0.0
 10
327.8114832882127
 20
414.1102888877778
 30
0.0
 10
322.2762883940107
 20
411.2761623564766
 30
0.0
 10
319.2735794287325
 20
408.6109873325031
 30
0.0
 10
317.8923389130073
 20
407.3850117993498
 30
0.0
  0
SPLINE
  5
10A
330
1F
100
AcDbEntity
  8
0
  6
Continuous
 62
     8
370
    18
100
AcDbSpline
210
0.0
220
0.0
230
1.0
 70
     8
 71
     3
 72
    15
 73
    11
 74
     0
 42
0.000000001
 43
0.00000001
 40
0.0
 40
0.0
 40
0.0
 40
0.0
 40
0.1102570452543841
 40
0.2401713635029236
 40
0.3700856817514632
 40
0.5000000000000027
 40
0.6299143182485422
 40
0.7598286364970818
 40
0.8897429547456214
 40
1.0
 40
1.0
 40
1.0
 40
1.0
 10
317.9081495531655
 20
359.385011799352
 30
0.0
 10
319.2843521803324
 20
358.164669241301
 30
0.0
 10
322.2821149143184
 20
355.5064142932247
 30
0.0
 10
327.8115678949204
 20
352.6576763971191
 30
0.0
 10
334.0371805295471
 20
350.7430213789701
 30
0.0
 10
340.534080075009
 20
350.1103686871339
 30
0.0
 10
347.0309796204709
 20
350.7430213789702
 30
0.0
 10
353.2565922550976
 20
352.6576763971192
 30
0.0
 10
358.7860452356996
 20
355.5064142932248
 30
0.0
 10
361.7838079696854
 20
358.1646692413011
 30
0.0
 10
363.1600105968523
 20
359.385011799352
 30
0.0
  0
SPLINE
  5
10B
330
1F
100
AcDbEntity
  8
0
  6
Continuous
 62
     8
370
    18
100
AcDbSpline
210
0.0
220
0.0
230
1.0
 70
     8
 71
     3
 72
    11
 73
     7
 74
     0
 42
0.000000001
 43
0.00000001
 40
0.0
 40
0.0
 40
0.0
 40
0.0
 40
0.2261014524751124
 40
0.4840676349834083
 40
0.7420338174917042
 40
0.9999999999999999
 40
0.9999999999999999
 40
0.9999999999999999
 40
0.9999999999999999
 10
363.299259115949
 20
407.2837089501201
 30
0.0
 10
361.878696348386
 20
408.5459949281346
 30
0.0
 10
358.8373693170375
 20
411.2484622557937
 30
0.0
 10
353.2573268794362
 20
414.1111952190003
 30
0.0
 10
347.0307959643863
 20
416.0962305943393
 30
0.0
 10
342.6996520381348
 20
416.3399076234484
 30
0.0
 10
340.534080075009
 20
416.461746138003
 30
0.0
  0
SPLINE
  5
10C
330
1F
100
AcDbEntity
  8
0
  6
Continuous
 62
     8
370
    18
100
AcDbSpline
210
0.0
220
0.0
230
1.0
 70
     8
 71
     3
 72
    11
 73
     7
 74
     0
 42
0.000000001
 43
0.00000001
 40
0.0
 40
0.0
 40
0.0
 40
0.0
 40
0.2597221828135681
 40
0.5194443656271328
 40
0.779166548440701
 40
1.0
 40
1.0
 40
1.0
 40
1.0
 10
190.5340800750079
 20
416.45525840948
 30
0.0
 10
188.3684504217056
 20
416.3335003333714
 30
0.0
 10
184.0371911151011
 20
416.0899841811542
 30
0.0
 10
177.8115255526983
 20
414.103742229125
 30
0.0
 10
172.2792016850416
 20
411.2714493267237
 30
0.0
 10
169.2789658410234
 20
408.6086627381136
 30
0.0
 10
167.900244233085
 20
407.3850117993498
 30
0.0
  0
SPLINE
  5
10D
330
1F
100
AcDbEntity
  8
0
  6
Continuous
 62
     8
370
    18
100
AcDbSpline
210
0.0
220
0.0
230
1.0
 70
     8
 71
     3
 72
    15
 73
    11
 74
     0
 42
0.000000001
 43
0.00000001
 40
0.0
 40
0.0
 40
0.0
 40
0.0
 40
0.11041672577963
 40
0.2402778171864206
 40
0.3701389085932116
 40
0.5000000000000027
 40
0.6298610914067938
 40
0.7597221828135846
 40
0.8895832742203756
 40
1.0
 40
1.0
 40
1.0
 40
1.0
 10
167.9002442330865
 20
359.385011799352
 30
0.0
 10
169.2789658410246
 20
358.1623475414821
 30
0.0
 10
172.2792016850424
 20
355.501708068988
 30
0.0
 10
177.8115255526989
 20
352.651130032304
 30
0.0
 10
184.0371911151016
 20
350.7365504036734
 30
0.0
 10
190.5340800750085
 20
350.1038725819977
 30
0.0
 10
197.0309690349151
 20
350.7365504036735
 30
0.0
 10
203.256634597318
 20
352.6511300323041
 30
0.0
 10
208.7889584649744
 20
355.5017080689881
 30
0.0
 10
211.789194308992
 20
358.1623475414821
 30
0.0
 10
213.16791591693
 20
359.385011799352
 30
0.0
  0
SPLINE
  5
10E
330
1F
100
AcDbEntity
  8
0
  6
Continuous
 62
     8
370
    18
100
AcDbSpline
210
0.0
220
0.0
230
1.0
 70
     8
 71
     3
 72
    11
 73
     7
 74
     0
 42
0.000000001
 43
0.00000001
 40
0.0
 40
0.0
 40
0.0
 40
0.0
 40
0.2208334515593114
 40
0.4805556343728748
 40
0.7402778171864378
 40
1.0
 40
1.0
 40
1.0
 40
1.0
 10
213.1679159169316
 20
407.3850117993498
 30
0.0
 10
211.789194308993
 20
408.6086627381137
 30
0.0
 10
208.7889584649749
 20
411.2714493267238
 30
0.0
 10
203.256634597318
 20
414.1037422291251
 30
0.0
 10
197.0309690349151
 20
416.0899841811543
 30
0.0
 10
192.6997097283107
 20
416.3335003333715
 30
0.0
 10
190.5340800750084
 20
416.45525840948
 30
0.0
  0
SPLINE
  5
10F
330
1F
100
AcDbEntity
  8
0
  6
Continuous
 62
     7
370
    25
100
AcDbSpline
210
0.0
220
0.0
230
1.0
 70
     8
 71
     3
 72
    10
 73
     6
 74
     0
 42
0.000000001
 43
0.00000001
 40
0.0
 40
0.0
 40
0.0
 40
0.0
 40
0.243852289930748
 40
0.4958314665921518
 40
1.0
 40
1.0
 40
1.0
 40
1.0
 10
541.897837855773
 20
298.2263107204247
 30
0.0
 10
543.2108871445661
 20
298.3965395453541
 30
0.0
 10
545.880745831376
 20
298.7426704262448
 30
0.0
 10
551.156969504089
 20
300.0679524261591
 30
0.0
 10
555.1357507155031
 20
301.0804350463611
 30
0.0
 10
557.7886401726777
 20
301.7555172702845
 30
0.0
  0
SPLINE
  5
110
330
1F
100
AcDbEntity
  8
0
  6
Continuous
 62
     7
370
    25
100
AcDbSpline
210
0.0
220
0.0
230
1.0
 70
     8
 71
     3
 72
    10
 73
     6
 74
     0
 42
0.000000001
 43
0.00000001
 40
0.0
 40
0.0
 40
0.0
 40
0.0
 40
0.5041685334078482
 40
0.7561477100692514
 40
0.9999999999999999
 40
0.9999999999999999
 40
0.9999999999999999
 40
0.9999999999999999
 10
557.6013423009434
 20
301.7053309568092
 30
0.0
 10
560.2363530762502
 20
302.4471373298355
 30
0.0
 10
564.1883199915362
 20
303.5596922655574
 30
0.0
 10
569.4203047281115
 20
305.0500762228097
 30
0.0
 10
571.9055356158489
 20
306.085247430329
 30
0.0
 10
573.1277840688296
 20
306.5943495878805
 30
0.0
  0
SPLINE
  5
111
330
1F
100
AcDbEntity
  8
0
  6
Continuous
 62
     7
370
    25
100
AcDbSpline
210
0.0
220
0.0
230
1.0
 70
     8
 71
     3
 72
     9
 73
     5
 74
     0
 42
0.000000001
 43
0.00000001
 40
0.0
 40
0.0
 40
0.0
 40
0.0
 40
0.5311154160013112
 40
1.0
 40
1.0
 40
1.0
 40
1.0
 10
517.3881903747222
 20
360.5502614432088
 30
0.0
 10
519.3507124691522
 20
353.474006176525
 30
0.0
 10
523.0458078011716
 20
340.1506209884996
 30
0.0
 10
526.7612119654011
 20
326.8329349169572
 30
0.0
 10
528.5033077013329
 20
320.588477223477
 30
0.0
  0
SPLINE
  5
112
330
1F
100
AcDbEntity
  8
0
  6
Continuous
 62
     7
370
    25
100
AcDbSpline
210
0.0
220
0.0
230
1.0
 70
     8
 71
     3
 72
     9
 73
     5
 74
     0
 42
0.000000001
 43
0.00000001
 40
0.0
 40
0.0
 40
0.0
 40
0.0
 40
0.4063608882146355
 40
1.0
 40
1.0
 40
1.0
 40
1.0
 10
573.5467042028056
 20
332.6578189404011
 30
0.0
 10
572.1495653481672
 20
338.099777567231
 30
0.0
 10
568.7113927898371
 20
351.4917126295333
 30
0.0
 10
565.2478691569214
 20
364.8771680511909
 30
0.0
 10
563.1917860638296
 20
372.8232979185465
 30
0.0
  0
SPLINE
  5
113
330
1F
100
AcDbEntity
  8
0
  6
Continuous
 62
     7
370
    25
100
AcDbSpline
210
0.0
220
0.0
230
1.0
 70
     8
 71
     3
 72
    16
 73
    12
 74
     0
 42
0.000000001
 43
0.00000001
 40
0.0
 40
0.0
 40
0.0
 40
0.0
 40
0.141314712608185
 40
0.3023432423771518
 40
0.4781798847420784
 40
0.6093547059692292
 40
0.7384517593554405
 40
0.8678687802556115
 40
0.9119537460764088
 40
0.9567039598000234
 40
1.0
 40
1.0
 40
1.0
 40
1.0
 10
531.8393157492708
 20
308.7320554969943
 30
0.0
 10
532.0501887775431
 20
308.0086187933885
 30
0.0
 10
532.5013522404338
 20
306.4608238427713
 30
0.0
 10
533.4651691842228
 20
304.0951757119914
 30
0.0
 10
534.7364434989186
 20
301.9307992478452
 30
0.0
 10
536.3125918958073
 20
300.2007396557482
 30
0.0
 10
538.0354301130593
 20
299.0054776485953
 30
0.0
 10
539.5740599183794
 20
298.4496726996608
 30
0.0
 10
540.7237934160185
 20
298.2706883158328
 30
0.0
 10
541.4266131128384
 20
298.2194107499486
 30
0.0
 10
541.8954978210342
 20
298.229105034603
 30
0.0
 10
542.1260681209678
 20
298.2338721214398
 30
0.0
  0
SPLINE
  5
114
330
1F
100
AcDbEntity
  8
0
  6
Continuous
 62
     7
370
    25
100
AcDbSpline
210
0.0
220
0.0
230
1.0
 70
     8
 71
     3
 72
    17
 73
    13
 74
     0
 42
0.000000001
 43
0.00000001
 40
0.0
 40
0.0
 40
0.0
 40
0.0
 40
0.0479878072486528
 40
0.1001019896212187
 40
0.2096160225401167
 40
0.3274918631931937
 40
0.4553442633766472
 40
0.5937347391471726
 40
0.737400495348699
 40
0.8295108517774896
 40
0.9159759856265686
 40
1.0
 40
1.0
 40
1.0
 40
1.0
 10
572.9263501607506
 20
306.4867828206502
 30
0.0
 10
573.1500885938266
 20
306.6106611306755
 30
0.0
 10
573.616804278283
 20
306.8690697976979
 30
0.0
 10
574.5332961609538
 20
307.5101692232349
 30
0.0
 10
575.6082554674693
 20
308.5622124264004
 30
0.0
 10
576.610144267154
 20
310.1905924491518
 30
0.0
 10
577.2663457541324
 20
312.1481546429213
 30
0.0
 10
577.5174950467504
 20
314.3310414065737
 30
0.0
 10
577.4285044651286
 20
316.3297681338749
 30
0.0
 10
577.1906655725404
 20
318.0320546149882
 30
0.0
 10
576.9130971370593
 20
319.4050012615812
 30
0.0
 10
576.6938843584295
 20
320.2871122072364
 30
0.0
 10
576.5858473493032
 20
320.7218525033165
 30
0.0
  0
SPLINE
  5
115
330
1F
100
AcDbEntity
  8
0
  6
Continuous
 62
     7
370
    25
100
AcDbSpline
210
0.0
220
0.0
230
1.0
 70
     8
 71
     3
 72
     9
 73
     5
 74
     0
 42
0.000000001
 43
0.00000001
 40
0.0
 40
0.0
 40
0.0
 40
0.0
 40
0.5097166926209474
 40
1.0
 40
1.0
 40
1.0
 40
1.0
 10
557.3945377332666
 20
395.2521285906652
 30
0.0
 10
557.3137954985837
 20
395.5864941248169
 30
0.0
 10
557.1553893960331
 20
396.2424772209018
 30
0.0
 10
556.9887903747286
 20
396.8884623887557
 30
0.0
 10
556.9071096555573
 20
397.205178133369
 30
0.0
  0
SPLINE
  5
116
330
1F
100
AcDbEntity
  8
0
  6
Continuous
 62
     7
370
    25
100
AcDbSpline
210
0.0
220
0.0
230
1.0
 70
     8
 71
     3
 72
     9
 73
     5
 74
     0
 42
0.000000001
 43
0.00000001
 40
0.0
 40
0.0
 40
0.0
 40
0.0
 40
0.4902833073790572
 40
1.0
 40
1.0
 40
1.0
 40
1.0
 10
510.6399396914433
 20
384.8079273053979
 30
0.0
 10
510.7275599859477
 20
384.4928030652007
 30
0.0
 10
510.906273585178
 20
383.8500639887231
 30
0.0
 10
511.0970814242961
 20
383.2027629117894
 30
0.0
 10
511.1943393649776
 20
382.8728227477248
 30
0.0
  0
LINE
  5
117
330
1F
100
AcDbEntity
  8
0
  6
Continuous
 62
     7
370
    25
100
AcDbLine
 10
563.1912712335
 20
372.8231212284
 30
0.0
 11
557.58065537
 21
394.5373508668
 31
0.0
  0
LINE
  5
118
330
1F
100
AcDbEntity
  8
0
  6
Continuous
 62
     7
370
    25
100
AcDbLine
 10
511.3905456254
 20
382.1607482624
 30
0.0
 11
517.3887245759
 21
360.5503658403
 31
0.0
  0
LINE
  5
119
330
1F
100
AcDbEntity
  8
0
  6
Continuous
 62
     7
370
    25
100
AcDbLine
 10
576.7862215453
 20
319.9868746069
 30
0.0
 11
576.6469960355
 21
320.4679444173
 31
0.0
  0
LINE
  5
11A
330
1F
100
AcDbEntity
  8
0
  6
Continuous
 62
     7
370
    25
100
AcDbLine
 10
531.899833714
 20
308.5362266033
 30
0.0
 11
532.0332755535
 21
307.9953588695
 31
0.0
  0
LINE
  5
11B
330
1F
100
AcDbEntity
  8
0
  6
Continuous
 62
     7
370
    25
100
AcDbLine
 10
508.9686178866
 20
390.8858767905
 30
0.0
 11
509.4942789837
 21
388.9373801365
 31
0.0
  0
SPLINE
  5
11C
330
1F
100
AcDbEntity
  8
0
  6
Continuous
 62
     7
370
    25
100
AcDbSpline
210
0.0
220
0.0
230
1.0
 70
     8
 71
     3
 72
    14
 73
    10
 74
     0
 42
0.000000001
 43
0.00000001
 40
0.0
 40
0.0
 40
0.0
 40
0.0
 40
0.2514436309436449
 40
0.3805302633493222
 40
0.5162614489654354
 40
0.6536434198479658
 40
0.7853688401706973
 40
0.9091330778819321
 40
1.0
 40
1.0
 40
1.0
 40
1.0
 10
508.6304087149985
 20
392.1155063696389
 30
0.0
 10
508.8872988587327
 20
391.1660929353528
 30
0.0
 10
509.2760717764646
 20
389.7292677398988
 30
0.0
 10
509.6865899285021
 20
388.2378258562036
 30
0.0
 10
509.9266792146124
 20
387.3711484154264
 30
0.0
 10
510.1568047620892
 20
386.545172861202
 30
0.0
 10
510.4146120547137
 20
385.6189290243437
 30
0.0
 10
510.7295844509616
 20
384.480918474568
 30
0.0
 10
510.9784473728834
 20
383.5777538169253
 30
0.0
 10
511.0838067613446
 20
383.1953871900521
 30
0.0
  0
SPLINE
  5
11D
330
1F
100
AcDbEntity
  8
0
  6
Continuous
 62
     7
370
    25
100
AcDbSpline
210
0.0
220
0.0
230
1.0
 70
     8
 71
     3
 72
    13
 73
     9
 74
     0
 42
0.000000001
 43
0.00000001
 40
0.0
 40
0.0
 40
0.0
 40
0.0
 40
0.1297767061203332
 40
0.3065375639923756
 40
0.4946686326306218
 40
0.6908784221335424
 40
0.8847305498004621
 40
1.0
 40
1.0
 40
1.0
 40
1.0
 10
557.3289795547943
 20
395.5867438938997
 30
0.0
 10
557.2290464395159
 20
395.9705398091226
 30
0.0
 10
556.9930005832493
 20
396.8770805007438
 30
0.0
 10
556.69662345882
 20
398.0206461088403
 30
0.0
 10
556.4573994443783
 20
398.949397222202
 30
0.0
 10
556.2412391240221
 20
399.7887919384754
 30
0.0
 10
556.0508762227657
 20
400.5256693698578
 30
0.0
 10
555.881528285577
 20
401.1734475216147
 30
0.0
 10
555.8183795279041
 20
401.4149998322611
 30
0.0
  0
SPLINE
  5
11E
330
1F
100
AcDbEntity
  8
0
  6
Continuous
 62
     7
370
    25
100
AcDbSpline
210
0.0
220
0.0
230
1.0
 70
     8
 71
     3
 72
     9
 73
     5
 74
     0
 42
0.000000001
 43
0.00000001
 40
0.0
 40
0.0
 40
0.0
 40
0.0
 40
0.9314334483046106
 40
0.9999999999999999
 40
0.9999999999999999
 40
0.9999999999999999
 40
0.9999999999999999
 10
555.3155420538951
 20
403.3044976927954
 30
0.0
 10
555.6429169946678
 20
402.071491279359
 30
0.0
 10
555.994391317786
 20
400.7477183187887
 30
0.0
 10
555.8120605491798
 20
401.43962660592
 30
0.0
 10
555.7995587571086
 20
401.4870683712581
 30
0.0
  0
SPLINE
  5
11F
330
1F
100
AcDbEntity
  8
0
  6
Continuous
 62
     7
370
    25
100
AcDbSpline
210
0.0
220
0.0
230
1.0
 70
     8
 71
     3
 72
    19
 73
    15
 74
     0
 42
0.000000001
 43
0.00000001
 40
0.0
 40
0.0
 40
0.0
 40
0.0
 40
0.1328487440930158
 40
0.2447299998303689
 40
0.33633768383857
 40
0.4372746509948335
 40
0.4726555066920646
 40
0.4996699739943155
 40
0.5267490415977795
 40
0.5622835935438378
 40
0.663556759054427
 40
0.7553142244939317
 40
0.8672420654694348
 40
1.0
 40
1.0
 40
1.0
 40
1.0
 10
529.3557821055105
 20
407.4937924378814
 30
0.0
 10
528.250297904156
 20
407.1663720996231
 30
0.0
 10
526.2138078322547
 20
406.563208103806
 30
0.0
 10
523.5194103529403
 20
405.4344553092314
 30
0.0
 10
521.1598932490593
 20
404.2627169585062
 30
0.0
 10
519.4771209413658
 20
403.2801900707723
 30
0.0
 10
518.3512144288529
 20
402.5521475804015
 30
0.0
 10
517.8717978775255
 20
402.2290952180455
 30
0.0
 10
517.3988821016696
 20
401.9022867233504
 30
0.0
 10
516.3111753821638
 20
401.1224489569294
 30
0.0
 10
514.7816828918484
 20
399.9186354823501
 30
0.0
 10
512.8261895945269
 20
398.1538142264931
 30
0.0
 10
510.7886384747694
 20
396.0629298904204
 30
0.0
 10
509.4802469705244
 20
394.3900924617901
 30
0.0
 10
508.770359551439
 20
393.4824694445915
 30
0.0
  0
SPLINE
  5
120
330
1F
100
AcDbEntity
  8
0
  6
Continuous
 62
     7
370
    25
100
AcDbSpline
210
0.0
220
0.0
230
1.0
 70
     8
 71
     3
 72
    19
 73
    15
 74
     0
 42
0.000000001
 43
0.00000001
 40
0.0
 40
0.0
 40
0.0
 40
0.0
 40
0.1327579345305355
 40
0.2446857755060117
 40
0.3364432409454938
 40
0.4377164064560717
 40
0.4732509584021466
 40
0.5003300260056611
 40
0.5273444933079627
 40
0.562725349005205
 40
0.6636623161614293
 40
0.7552700001695843
 40
0.8671512559068824
 40
1.0
 40
1.0
 40
1.0
 40
1.0
 10
554.1889424816185
 20
405.6523420620988
 30
0.0
 10
553.1203504342643
 20
406.0834229425095
 30
0.0
 10
551.1508314391773
 20
406.8779468999822
 30
0.0
 10
548.3408182399219
 20
407.6699302915175
 30
0.0
 10
545.7649007395828
 20
408.2205636835677
 30
0.0
 10
543.8384146507826
 20
408.4983504888137
 30
0.0
 10
542.5065141166134
 20
408.6298564456119
 30
0.0
 10
541.9335527935253
 20
408.6764230162623
 30
0.0
 10
541.3568396999034
 20
408.7164862931516
 30
0.0
 10
540.0177548125953
 20
408.7840363285908
 30
0.0
 10
538.0691678014806
 20
408.793543419423
 30
0.0
 10
535.4398968734937
 20
408.6285400457992
 30
0.0
 10
532.5421038112266
 20
408.2588699008365
 30
0.0
 10
530.4768696764961
 20
407.7629802079115
 30
0.0
 10
529.3557821055105
 20
407.4937924378814
 30
0.0
  0
SPLINE
  5
121
330
1F
100
AcDbEntity
  8
0
  6
Continuous
 62
     7
370
    25
100
AcDbSpline
210
0.0
220
0.0
230
1.0
 70
     8
 71
     3
 72
     9
 73
     5
 74
     0
 42
0.000000001
 43
0.00000001
 40
0.0
 40
0.0
 40
0.0
 40
0.0
 40
0.5262180857365297
 40
0.9999999999999999
 40
0.9999999999999999
 40
0.9999999999999999
 40
0.9999999999999999
 10
554.8297266892574
 20
404.9913980147929
 30
0.0
 10
554.7286796797565
 20
405.1480735245253
 30
0.0
 10
554.5366547147469
 20
405.4458122643733
 30
0.0
 10
554.2320910699765
 20
405.6096498241979
 30
0.0
 10
554.0877943233421
 20
405.6872730969198
 30
0.0
  0
SPLINE
  5
122
330
1F
100
AcDbEntity
  8
0
  6
Continuous
 62
     7
370
    25
100
AcDbSpline
210
0.0
220
0.0
230
1.0
 70
     8
 71
     3
 72
     9
 73
     5
 74
     0
 42
0.000000001
 43
0.00000001
 40
0.0
 40
0.0
 40
0.0
 40
0.0
 40
0.4755915548343362
 40
1.0
 40
1.0
 40
1.0
 40
1.0
 10
508.8421046105519
 20
393.5664376614643
 30
0.0
 10
508.755276767038
 20
393.4260676188787
 30
0.0
 10
508.5727086734054
 20
393.1309193111369
 30
0.0
 10
508.555119883106
 20
392.7758725337928
 30
0.0
 10
508.5458961729328
 20
392.5896830053247
 30
0.0
  0
LINE
  5
123
330
1F
100
AcDbEntity
  8
0
  6
Continuous
 62
     7
370
    25
100
AcDbLine
 10
457.4065643369
 20
348.3231106218
 30
0.0
 11
475.0643766979
 21
348.6769701246
 31
0.0
  0
LINE
  5
124
330
1F
100
AcDbEntity
  8
0
  6
Continuous
 62
     7
370
    25
100
AcDbLine
 10
475.0643766979
 20
418.0800780171
 30
0.0
 11
457.4065643369
 21
418.4339375199
 31
0.0
  0
ARC
  5
125
330
1F
100
AcDbEntity
  8
0
  6
Continuous
 62
     7
370
    25
100
AcDbCircle
 10
475.0089406724
 20
351.6764578887
 30
0.0
 40
2.999999999999963
100
AcDbArc
 50
271.0588103613
 51
332.9681726363
  0
ARC
  5
126
330
1F
100
AcDbEntity
  8
0
  6
Continuous
 62
     7
370
    25
100
AcDbCircle
 10
475.0089406724
 20
415.080590253
 30
0.0
 40
3.000000000000055
100
AcDbArc
 50
27.2387883746
 51
88.9411896387
  0
ARC
  5
127
330
1F
100
AcDbEntity
  8
0
  6
Continuous
 62
     7
370
    25
100
AcDbCircle
 10
413.5267071829
 20
383.3850117994
 30
0.0
 40
72.17143677315539
100
AcDbArc
 50
332.7291943651
 51
346.6530110366
  0
ARC
  5
128
330
1F
100
AcDbEntity
  8
0
  6
Continuous
 62
     7
370
    25
100
AcDbCircle
 10
413.5267071829
 20
383.3850117994
 30
0.0
 40
72.1714367731554
100
AcDbArc
 50
13.3478122335
 51
27.2716325546
  0
ARC
  5
129
330
1F
100
AcDbEntity
  8
0
  6
Continuous
 62
     7
370
    25
100
AcDbCircle
 10
477.9065773109
 20
368.0977321165
 30
0.0
 40
6.004529102111693
100
AcDbArc
 50
346.7600055724
 51
0.0000113417
  0
ARC
  5
12A
330
1F
100
AcDbEntity
  8
0
  6
Continuous
 62
     7
370
    25
100
AcDbCircle
 10
477.9065773109
 20
398.6593160251
 30
0.0
 40
6.004529102111693
100
AcDbArc
 50
359.9999886583
 51
13.3588899892
  0
LINE
  5
12B
330
1F
100
AcDbEntity
  8
0
  6
Continuous
 62
     7
370
    25
100
AcDbLine
 10
500.9065643369
 20
372.8850117993
 30
0.0
 11
513.9651195555
 21
372.8850117993
 31
0.0
  0
LINE
  5
12C
330
1F
100
AcDbEntity
  8
0
  6
Continuous
 62
     7
370
    25
100
AcDbLine
 10
509.0981462278
 20
393.8850117993
 30
0.0
 11
500.9065643369
 21
393.8850117993
 31
0.0
  0
LINE
  5
12D
330
1F
100
AcDbEntity
  8
0
  6
Continuous
 62
     7
370
    25
100
AcDbLine
 10
475.0643766979
 20
418.0865657456
 30
0.0
 11
457.4065643369
 21
418.4404252484
 31
0.0
  0
ARC
  5
12E
330
1F
100
AcDbEntity
  8
0
  6
Continuous
 62
     7
370
    25
100
AcDbCircle
 10
475.0089406724
 20
415.0870779815
 30
0.0
 40
3.00000000000001
100
AcDbArc
 50
27.2387883746
 51
88.9411896387
  0
ARC
  5
12F
330
1F
100
AcDbEntity
  8
0
  6
Continuous
 62
     7
370
    25
100
AcDbCircle
 10
413.5267071829
 20
383.3914995279
 30
0.0
 40
72.17143677315539
100
AcDbArc
 50
13.3478122335
 51
27.2716325546
  0
ARC
  5
130
330
1F
100
AcDbEntity
  8
0
  6
Continuous
 62
     7
370
    25
100
AcDbCircle
 10
477.9065773109
 20
398.6658037537
 30
0.0
 40
6.004529102111693
100
AcDbArc
 50
359.9999886583
 51
13.3588899892
  0
LWPOLYLINE
  5
131
330
1F
100
AcDbEntity
  8
0
  6
Continuous
 62
     7
370
    25
100
AcDbPolyline
 90
        3
 70
   128
 43
0.0
 10
559.3054685959
 20
397.9042937957
 10
559.3061406039
 20
397.835800282
 10
559.3061405796
 20
397.8357976459
  0
SPLINE
  5
132
330
1F
100
AcDbEntity
  8
0
  6
Continuous
 62
     7
370
    25
100
AcDbSpline
210
0.0
220
0.0
230
1.0
 70
     8
 71
     3
 72
     9
 73
     5
 74
     0
 42
0.000000001
 43
0.00000001
 40
0.0
 40
0.0
 40
0.0
 40
0.0
 40
0.8067483823203658
 40
1.0
 40
1.0
 40
1.0
 40
1.0
 10
559.3336969958093
 20
397.8067199835482
 30
0.0
 10
559.3307200006461
 20
398.0322369944818
 30
0.0
 10
559.3270298845847
 20
398.311775219628
 30
0.0
 10
559.1999633734997
 20
398.520314063196
 30
0.0
 10
559.1754075646797
 20
398.5606145320645
 30
0.0
  0
SPLINE
  5
133
330
1F
100
AcDbEntity
  8
0
  6
Continuous
 62
     7
370
    25
100
AcDbSpline
210
0.0
220
0.0
230
1.0
 70
     8
 71
     3
 72
    10
 73
     6
 74
     0
 42
0.000000001
 43
0.00000001
 40
0.0
 40
0.0
 40
0.0
 40
0.0
 40
0.0078166815397227
 40
0.0234500446191681
 40
0.0325751471078964
 40
0.0325751471078964
 40
0.0325751471078964
 40
0.0325751471078964
 10
529.3564415849493
 20
407.4913312271094
 30
0.0
 10
529.2937817711837
 20
407.4745176222468
 30
0.0
 10
529.1060858371485
 20
407.4233371727105
 30
0.0
 10
528.8248918501391
 20
407.35013286624
 30
0.0
 10
528.6145840444647
 20
407.2916990095178
 30
0.0
 10
528.5374500123945
 20
407.2698176081144
 30
0.0
  0
SPLINE
  5
134
330
1F
100
AcDbEntity
  8
0
  6
Continuous
 62
     7
370
    25
100
AcDbSpline
210
0.0
220
0.0
230
1.0
 70
     8
 71
     3
 72
     8
 73
     4
 74
     0
 42
0.000000001
 43
0.00000001
 40
0.0
 40
0.0
 40
0.0
 40
0.0
 40
1.0
 40
1.0
 40
1.0
 40
1.0
 10
530.175992397704
 20
407.710934055873
 30
0.0
 10
529.9014468067659
 20
407.644042004616
 30
0.0
 10
529.6273989432019
 20
407.5740077730225
 30
0.0
 10
529.3539008346531
 20
407.5008270347822
 30
0.0
  0
LINE
  5
135
330
1F
100
AcDbEntity
  8
0
  6
Continuous
 62
     7
370
    25
100
AcDbLine
 10
557.5963040277
 20
394.5597111909
 30
0.0
 11
557.4151113937
 21
395.2556974884
 31
0.0
  0
LWPOLYLINE
  5
136
330
1F
100
AcDbEntity
  8
0
  6
Continuous
 62
     7
370
    25
100
AcDbPolyline
 90
        3
 70
   128
 43
0.0
 10
511.3658133283
 20
382.1722885423
 10
511.2702667195
 20
382.5189512579
 10
511.1747376035
 20
382.8656266736
  0
LINE
  5
137
330
1F
100
AcDbEntity
  8
0
  6
Continuous
 62
     7
370
    25
100
AcDbLine
 10
532.0447819173
 20
307.99890754
 30
0.0
 11
531.8436063497
 21
308.6481032511
 31
0.0
  0
LINE
  5
138
330
1F
100
AcDbEntity
  8
0
  6
Continuous
 62
     7
370
    25
100
AcDbLine
 10
576.7744824066
 20
319.9841946638
 30
0.0
 11
576.6241077032
 21
320.6470024255
 31
0.0
  0
LINE
  5
139
330
1F
100
AcDbEntity
  8
0
  6
Continuous
 62
     7
370
    25
100
AcDbLine
 10
557.4151146135
 20
395.255684865
 30
0.0
 11
557.3288553524
 21
395.5867115258
 31
0.0
  0
SPLINE
  5
13A
330
1F
100
AcDbEntity
  8
0
  6
Continuous
 62
     7
370
    25
100
AcDbSpline
210
0.0
220
0.0
230
1.0
 70
     8
 71
     3
 72
     9
 73
     5
 74
     0
 42
0.000000001
 43
0.00000001
 40
0.0
 40
0.0
 40
0.0
 40
0.0
 40
0.035755551955594
 40
1.0
 40
1.0
 40
1.0
 40
1.0
 10
554.9872994184985
 20
404.5608502875659
 30
0.0
 10
554.9859336742078
 20
404.5660771889495
 30
0.0
 10
554.9477369686325
 20
404.7122615183102
 30
0.0
 10
554.9557560118683
 20
404.6814689668778
 30
0.0
 10
554.963488329787
 20
404.651777420118
 30
0.0
  0
SPLINE
  5
13B
330
1F
100
AcDbEntity
  8
0
  6
Continuous
 62
     7
370
    25
100
AcDbSpline
210
0.0
220
0.0
230
1.0
 70
     8
 71
     3
 72
     9
 73
     5
 74
     0
 42
0.000000001
 43
0.00000001
 40
0.0
 40
0.0
 40
0.0
 40
0.0
 40
0.0247416035212954
 40
1.0
 40
1.0
 40
1.0
 40
1.0
 10
554.8288792253068
 20
404.9908496809651
 30
0.0
 10
554.8305822082405
 20
404.9883659304813
 30
0.0
 10
554.8994129504406
 20
404.8879783189175
 30
0.0
 10
554.9318518755326
 20
404.7683987533779
 30
0.0
 10
554.9634882096016
 20
404.6517777780382
 30
0.0
  0
LINE
  5
13C
330
1F
100
AcDbEntity
  8
0
  6
Continuous
 62
     7
370
    25
100
AcDbLine
 10
511.1747411268
 20
382.8656141315
 30
0.0
 11
511.0839305078
 21
383.1954212597
 31
0.0
  0
SPLINE
  5
13D
330
1F
100
AcDbEntity
  8
0
  6
Continuous
 62
     7
370
    25
100
AcDbSpline
210
0.0
220
0.0
230
1.0
 70
     8
 71
     3
 72
     9
 73
     5
 74
     0
 42
0.000000001
 43
0.00000001
 40
0.0
 40
0.0
 40
0.0
 40
0.0
 40
0.0357555519526465
 40
1.0
 40
1.0
 40
1.0
 40
1.0
 10
508.6247080500794
 20
392.1380313713856
 30
0.0
 10
508.6232773686386
 20
392.1432408729117
 30
0.0
 10
508.5832645213275
 20
392.2889385685605
 30
0.0
 10
508.5917161018875
 20
392.2582619151547
 30
0.0
 10
508.5998654915197
 20
392.2286821224234
 30
0.0
  0
SPLINE
  5
13E
330
1F
100
AcDbEntity
  8
0
  6
Continuous
 62
     7
370
    25
100
AcDbSpline
210
0.0
220
0.0
230
1.0
 70
     8
 71
     3
 72
     9
 73
     5
 74
     0
 42
0.000000001
 43
0.00000001
 40
0.0
 40
0.0
 40
0.0
 40
0.0
 40
0.024682934685178
 40
1.0
 40
1.0
 40
1.0
 40
1.0
 10
508.5468447334498
 20
392.5896229347061
 30
0.0
 10
508.5466127676447
 20
392.5866275430772
 30
0.0
 10
508.5372149465173
 20
392.4652727825051
 30
0.0
 10
508.5689316496748
 20
392.3454992715908
 30
0.0
 10
508.5998654915197
 20
392.2286821224234
 30
0.0
  0
SPLINE
  5
13F
330
1F
100
AcDbEntity
  8
0
  6
Continuous
 62
     7
370
    25
100
AcDbSpline
210
0.0
220
0.0
230
1.0
 70
     8
 71
     3
 72
     8
 73
     4
 74
     0
 42
0.000000001
 43
0.00000001
 40
0.0
 40
0.0
 40
0.0
 40
0.0
 40
1.0
 40
1.0
 40
1.0
 40
1.0
 10
573.5034314783089
 20
332.9019369479102
 30
0.0
 10
574.1850667661195
 20
330.230410357377
 30
0.0
 10
574.8741393671623
 20
327.5260702283314
 30
0.0
 10
575.5732777309227
 20
324.7786193824839
 30
0.0
  0
SPLINE
  5
140
330
1F
100
AcDbEntity
  8
0
  6
Continuous
 62
     7
370
    25
100
AcDbSpline
210
0.0
220
0.0
230
1.0
 70
     8
 71
     3
 72
     8
 73
     4
 74
     0
 42
0.000000001
 43
0.00000001
 40
0.0
 40
0.0
 40
0.0
 40
0.0
 40
1.0
 40
1.0
 40
1.0
 40
1.0
 10
530.6878433223048
 20
312.751603480775
 30
0.0
 10
529.9192711130332
 20
315.4817421241909
 30
0.0
 10
529.1639767712078
 20
318.1678492791871
 30
0.0
 10
528.4185559163591
 20
320.8221243724699
 30
0.0
  0
SPLINE
  5
141
330
1F
100
AcDbEntity
  8
0
  6
Continuous
 62
     7
370
    25
100
AcDbSpline
210
0.0
220
0.0
230
1.0
 70
     8
 71
     3
 72
     8
 73
     4
 74
     0
 42
0.000000001
 43
0.00000001
 40
0.0
 40
0.0
 40
0.0
 40
0.0
 40
1.0
 40
1.0
 40
1.0
 40
1.0
 10
575.5771504447105
 20
324.7634232099196
 30
0.0
 10
575.9235142918869
 20
323.4022992521
 30
0.0
 10
576.272350040245
 20
322.0303971831288
 30
0.0
 10
576.6238951657234
 20
320.6469403707056
 30
0.0
  0
SPLINE
  5
142
330
1F
100
AcDbEntity
  8
0
  6
Continuous
 62
     7
370
    25
100
AcDbSpline
210
0.0
220
0.0
230
1.0
 70
     8
 71
     3
 72
     9
 73
     5
 74
     0
 42
0.000000001
 43
0.00000001
 40
0.0
 40
0.0
 40
0.0
 40
0.0
 40
0.4976708578321078
 40
1.0
 40
1.0
 40
1.0
 40
1.0
 10
531.843820203601
 20
308.6481554308461
 30
0.0
 10
531.652670102754
 20
309.3263459328833
 30
0.0
 10
531.2685807034273
 20
310.6890749160336
 30
0.0
 10
530.8848477735514
 20
312.0519133772592
 30
0.0
 10
530.6920875400652
 20
312.7365068524001
 30
0.0
  0
LINE
  5
143
330
1F
100
AcDbEntity
  8
0
  6
Continuous
 62
     7
370
    25
100
AcDbLine
 10
511.3709808891
 20
382.1535416278
 30
0.0
 11
511.3658133283
 21
382.1722885423
 31
0.0
  0
LINE
  5
144
330
1F
100
AcDbEntity
  8
0
  6
Continuous
 62
     7
370
    25
100
AcDbLine
 10
576.6238814797
 20
320.6469366868
 30
0.0
 11
576.5972587252
 21
320.6398031412
 31
0.0
  0
LINE
  5
145
330
1F
100
AcDbEntity
  8
0
  6
Continuous
 62
     7
370
    25
100
AcDbLine
 10
531.8435929316
 20
308.6480945335
 30
0.0
 11
531.8704578889
 21
308.6552929771
 31
0.0
  0
SPLINE
  5
146
330
1F
100
AcDbEntity
  8
0
  6
Continuous
 62
     7
370
    25
100
AcDbSpline
210
0.0
220
0.0
230
1.0
 70
     8
 71
     3
 72
     9
 73
     5
 74
     0
 42
0.000000001
 43
0.00000001
 40
0.0
 40
0.0
 40
0.0
 40
0.0
 40
0.5678398953841525
 40
1.0
 40
1.0
 40
1.0
 40
1.0
 10
508.6000204118867
 20
392.2285130043605
 30
0.0
 10
508.6003659665657
 20
392.2291865100109
 30
0.0
 10
508.6009745090118
 20
392.2303725937219
 30
0.0
 10
508.6026635632975
 20
392.2290219145041
 30
0.0
 10
508.6033935051744
 20
392.2284382048321
 30
0.0
  0
SPLINE
  5
147
330
1F
100
AcDbEntity
  8
0
  6
Continuous
 62
     7
370
    25
100
AcDbSpline
210
0.0
220
0.0
230
1.0
 70
     8
 71
     3
 72
     9
 73
     5
 74
     0
 42
0.000000001
 43
0.00000001
 40
0.0
 40
0.0
 40
0.0
 40
0.0
 40
0.729429130643065
 40
1.0
 40
1.0
 40
1.0
 40
1.0
 10
554.9635540315883
 20
404.6515311578328
 30
0.0
 10
554.9628664693274
 20
404.6520570165691
 30
0.0
 10
554.9619238660891
 20
404.6527779347697
 30
0.0
 10
554.9612567871529
 20
404.6512316144845
 30
0.0
 10
554.9610762950252
 20
404.6508132252607
 30
0.0
  0
LINE
  5
148
330
1F
100
AcDbEntity
  8
0
  6
Continuous
 62
     7
370
    25
100
AcDbLine
 10
508.8629807166
 20
393.6032819381
 30
0.0
 11
508.8629443409
 21
393.6030988609
 31
0.0
  0
LINE
  5
149
330
1F
100
AcDbEntity
  8
0
  6
Continuous
 62
     7
370
    25
100
AcDbLine
 10
554.0451052271
 20
405.7136039679
 30
0.0
 11
554.0455077418
 21
405.7134229247
 31
0.0
  0
LINE
  5
14A
330
1F
100
AcDbEntity
  8
0
  6
Continuous
 62
     7
370
    25
100
AcDbLine
 10
554.0483285978
 20
405.7106895957
 30
0.0
 11
554.0484496532
 21
405.7105521477
 31
0.0
  0
SPLINE
  5
14B
330
1F
100
AcDbEntity
  8
0
  6
Continuous
 62
     7
370
    25
100
AcDbSpline
210
0.0
220
0.0
230
1.0
 70
     8
 71
     3
 72
     9
 73
     5
 74
     0
 42
0.000000001
 43
0.00000001
 40
0.0
 40
0.0
 40
0.0
 40
0.0
 40
0.5528483000108629
 40
1.0
 40
1.0
 40
1.0
 40
1.0
 10
508.5891247748366
 20
392.9105167825452
 30
0.0
 10
508.5701204077099
 20
392.8512212729656
 30
0.0
 10
508.5357450336219
 20
392.7439666977442
 30
0.0
 10
508.5557000980862
 20
392.6344192550887
 30
0.0
 10
508.5646230390848
 20
392.5854349298759
 30
0.0
  0
ARC
  5
14C
330
1F
100
AcDbEntity
  8
0
  6
Continuous
 62
     7
370
    25
100
AcDbCircle
 10
513.1096144723
 20
397.9243425016
 30
0.0
 40
1.800000000000027
100
AcDbArc
 50
128.0821102724
 51
180.2088781663
  0
ARC
  5
14D
330
1F
100
AcDbEntity
  8
0
  6
Continuous
 62
     7
370
    25
100
AcDbCircle
 10
557.5035142015
 20
397.9243425016
 30
0.0
 40
1.799999999999969
100
AcDbArc
 50
359.7911218337
 51
51.9178897276
  0
SPLINE
  5
14E
330
1F
100
AcDbEntity
  8
0
  6
Continuous
 62
     7
370
    25
100
AcDbSpline
210
0.0
220
0.0
230
1.0
 70
     8
 71
     3
 72
    10
 73
     6
 74
     0
 42
0.000000001
 43
0.00000001
 40
0.0
 40
0.0
 40
0.0
 40
0.0
 40
0.0913323988389782
 40
0.5794354111400444
 40
1.0
 40
1.0
 40
1.0
 40
1.0
 10
523.6537367629714
 20
405.4580644397851
 30
0.0
 10
523.2634439490085
 20
405.3576735256627
 30
0.0
 10
520.7873294485856
 20
404.7207686448243
 30
0.0
 10
516.785814038105
 20
402.7178631162625
 30
0.0
 10
513.5137999696973
 20
400.4095458762766
 30
0.0
 10
511.9993922262435
 20
399.341172260058
 30
0.0
  0
SPLINE
  5
14F
330
1F
100
AcDbEntity
  8
0
  6
Continuous
 62
     7
370
    25
100
AcDbSpline
210
0.0
220
0.0
230
1.0
 70
     8
 71
     3
 72
     9
 73
     5
 74
     0
 42
0.000000001
 43
0.00000001
 40
0.0
 40
0.0
 40
0.0
 40
0.0
 40
0.5491788847069359
 40
1.0
 40
1.0
 40
1.0
 40
1.0
 10
559.3035022400569
 20
397.9177804150237
 30
0.0
 10
559.3012590060827
 20
396.2066754647658
 30
0.0
 10
559.2971743006493
 20
393.0909239347865
 30
0.0
 10
559.1760748504236
 20
389.9775961183953
 30
0.0
 10
559.1214806612115
 20
388.5740421999369
 30
0.0
  0
LINE
  5
150
330
1F
100
AcDbEntity
  8
0
  6
Continuous
 62
     7
370
    25
100
AcDbLine
 10
558.6137364475
 20
399.3411722601
 30
0.0
 11
555.854391641
 21
401.1361776637
 31
0.0
  0
LINE
  5
151
330
1F
100
AcDbEntity
  8
0
  6
Continuous
 62
     7
370
    25
100
AcDbLine
 10
511.3096264337
 20
397.917780415
 30
0.0
 11
511.3214203338
 21
396.4772361865
 31
0.0
  0
LINE
  5
152
330
1F
100
AcDbEntity
  8
0
  6
Continuous
 62
     7
370
    25
100
AcDbLine
 10
457.4065643369
 20
418.4339375199
 30
0.0
 11
457.4065643369
 21
348.3231106218
 31
0.0
  0
LINE
  5
153
330
1F
100
AcDbEntity
  8
0
  6
Continuous
 62
     7
370
    25
100
AcDbLine
 10
483.9111064131
 20
368.3850117993
 30
0.0
 11
483.9111064131
 21
368.0977333051
 31
0.0
  0
LINE
  5
154
330
1F
100
AcDbEntity
  8
0
  6
Continuous
 62
     7
370
    25
100
AcDbLine
 10
483.9111064131
 20
398.6593148365
 30
0.0
 11
483.9111064131
 21
398.3850117993
 31
0.0
  0
LINE
  5
155
330
1F
100
AcDbEntity
  8
0
  6
Continuous
 62
     7
370
    25
100
AcDbLine
 10
483.9065643369
 20
368.3850117993
 30
0.0
 11
500.9065643369
 21
368.3850117993
 31
0.0
  0
LINE
  5
156
330
1F
100
AcDbEntity
  8
0
  6
Continuous
 62
     7
370
    25
100
AcDbLine
 10
483.9065643369
 20
398.3850117993
 30
0.0
 11
483.9065643369
 21
368.3850117993
 31
0.0
  0
LINE
  5
157
330
1F
100
AcDbEntity
  8
0
  6
Continuous
 62
     7
370
    25
100
AcDbLine
 10
500.9065643369
 20
398.3850117993
 30
0.0
 11
483.9065643369
 21
398.3850117993
 31
0.0
  0
LINE
  5
158
330
1F
100
AcDbEntity
  8
0
  6
Continuous
 62
     7
370
    25
100
AcDbLine
 10
500.9065643369
 20
398.3850117993
 30
0.0
 11
500.9065643369
 21
368.3850117993
 31
0.0
  0
LINE
  5
159
330
1F
100
AcDbEntity
  8
0
  6
Continuous
 62
     7
370
    25
100
AcDbLine
 10
457.4065643369
 20
418.4404252484
 30
0.0
 11
457.4065643369
 21
418.4339375199
 31
0.0
  0
LINE
  5
15A
330
1F
100
AcDbEntity
  8
0
  6
Continuous
 62
     7
370
    25
100
AcDbLine
 10
483.9111064131
 20
398.6658025651
 30
0.0
 11
483.9111064131
 21
398.6593148365
 31
0.0
  0
LINE
  5
15B
330
1F
100
AcDbEntity
  8
0
  6
Continuous
 62
     8
370
    18
100
AcDbLine
 10
556.189609098
 20
394.9472628872
 30
0.0
 11
556.3703619808
 21
394.2513448161
 31
0.0
  0
LINE
  5
15C
330
1F
100
AcDbEntity
  8
0
  6
Continuous
 62
     8
370
    18
100
AcDbLine
 10
556.3703619808
 20
394.2513448161
 30
0.0
 11
556.3752484159
 21
394.2325271339
 31
0.0
  0
SPLINE
  5
15D
330
1F
100
AcDbEntity
  8
0
  6
Continuous
 62
     8
370
    18
100
AcDbSpline
210
0.0
220
0.0
230
1.0
 70
     8
 71
     3
 72
    26
 73
    22
 74
     0
 42
0.000000001
 43
0.00000001
 40
0.0
 40
0.0
 40
0.0
 40
0.0
 40
0.0665622444973089
 40
0.2067612152861945
 40
0.2908805977595259
 40
0.3749999802328573
 40
0.403840911366571
 40
0.4254716097168562
 40
0.4254716097168562
 40
0.4561860708431063
 40
0.4582337015848563
 40
0.5073768393868565
 40
0.5128371880315232
 40
0.6111234636355236
 40
0.6438855555035238
 40
0.7749339229755243
 40
0.8400729358065468
 40
0.8791563435051604
 40
0.9182397512037738
 40
0.9338731142832192
 40
0.9416897958229419
 40
0.9416897958229419
 40
0.9416897958229419
 40
0.9416897958229419
 10
556.18734823024
 20
394.9485168819194
 30
0.0
 10
555.6503423278699
 20
395.0932513099399
 30
0.0
 10
553.9778295303382
 20
395.525901847257
 30
0.0
 10
551.583501844578
 20
395.9760867551252
 30
0.0
 10
549.0142987830444
 20
396.2847594408867
 30
0.0
 10
547.3630944153113
 20
396.4051244896371
 30
0.0
 10
546.233303816233
 20
396.4537993419779
 30
0.0
 10
545.8094220460474
 20
396.4666254827383
 30
0.0
 10
545.3697181964953
 20
396.4773646223133
 30
0.0
 10
545.0944361328455
 20
396.4818081939814
 30
0.0
 10
544.406048574551
 20
396.4864217701187
 30
0.0
 10
543.9297555945445
 20
396.4827465301798
 30
0.0
 10
542.6444361292874
 20
396.4530977543885
 30
0.0
 10
541.4971018504058
 20
396.3931736068527
 30
0.0
 10
539.2994599883658
 20
396.1974143902871
 30
0.0
 10
537.3871393148399
 20
395.9384532428553
 30
0.0
 10
535.4393219315285
 20
395.5648274780647
 30
0.0
 10
534.2586262119352
 20
395.307367839348
 30
0.0
 10
533.4886950874798
 20
395.1255190332988
 30
0.0
 10
532.9695649796641
 20
394.9967216461465
 30
0.0
 10
532.7831842101095
 20
394.9500491410527
 30
0.0
 10
532.721089171282
 20
394.9342954853516
 30
0.0
  0
LINE
  5
15E
330
1F
100
AcDbEntity
  8
0
  6
Continuous
 62
     8
370
    18
100
AcDbLine
 10
512.5816934719
 20
382.5182064515
 30
0.0
 11
512.5868697189
 21
382.4994696161
 31
0.0
  0
LWPOLYLINE
  5
15F
330
1F
100
AcDbEntity
  8
0
  6
Continuous
 62
     8
370
    18
100
AcDbPolyline
 90
        3
 70
   128
 43
0.0
 10
512.3902710246
 20
383.2112656214
 10
512.4859822851
 20
382.8647360471
 10
512.5816934719
 20
382.5182064515
  0
SPLINE
  5
160
330
1F
100
AcDbEntity
  8
0
  6
Continuous
 62
     8
370
    18
100
AcDbSpline
210
0.0
220
0.0
230
1.0
 70
     8
 71
     3
 72
    25
 73
    21
 74
     0
 42
0.000000001
 43
0.00000001
 40
0.0
 40
0.0
 40
0.0
 40
0.0
 40
0.026587042168729
 40
0.0531580029932306
 40
0.0797178662861996
 40
0.1062715768671818
 40
0.1328241171761159
 40
0.1593804473980164
 40
0.185945531338717
 40
0.2125243240412899
 40
0.239121771454893
 40
0.2657428081562697
 40
0.3984976819582565
 40
0.5314911541539435
 40
0.6640594731399995
 40
0.796914302429258
 40
0.8476853781681927
 40
0.898434438985469
 40
0.9491948447863525
 40
1.0
 40
1.0
 40
1.0
 40
1.0
 10
532.7210891712818
 20
394.9342954853515
 30
0.0
 10
532.5173901387504
 20
394.8788399844488
 30
0.0
 10
532.1101152823634
 20
394.7679625252612
 30
0.0
 10
531.5023661515249
 20
394.5909610007187
 30
0.0
 10
530.8972477025646
 20
394.4062195125127
 30
0.0
 10
530.2949805643971
 20
394.2129706782385
 30
0.0
 10
529.6955263313193
 20
394.0114255567674
 30
0.0
 10
529.0989148594983
 20
393.8015328945692
 30
0.0
 10
528.505157573891
 20
393.5833115146771
 30
0.0
 10
527.9142725299175
 20
393.3567625985788
 30
0.0
 10
527.3262688859949
 20
393.1218876178309
 30
0.0
 10
525.9638947388114
 20
392.5556336836287
 30
0.0
 10
523.8601447606442
 20
391.5768503146332
 30
0.0
 10
521.0978400778152
 20
390.0493329626951
 30
0.0
 10
518.4508619164258
 20
388.3371382790707
 30
0.0
 10
516.4525839849161
 20
386.8381758388804
 30
0.0
 10
515.0284472141934
 20
385.6604276547022
 30
0.0
 10
514.1245638144425
 20
384.8711234778353
 30
0.0
 10
513.2405366218832
 20
384.0600849764164
 30
0.0
 10
512.6699485420496
 20
383.5002999380134
 30
0.0
 10
512.3845288026278
 20
383.220284099197
 30
0.0
  0
SPLINE
  5
161
330
1F
100
AcDbEntity
  8
0
  6
Continuous
 62
     8
370
    18
100
AcDbSpline
210
0.0
220
0.0
230
1.0
 70
     8
 71
     3
 72
    22
 73
    18
 74
     0
 42
0.000000001
 43
0.00000001
 40
0.0
 40
0.0
 40
0.0
 40
0.0
 40
0.1228736844231231
 40
0.1868444796776009
 40
0.2497648137606394
 40
0.3051492535465357
 40
0.3769125111843794
 40
0.4444623155219977
 40
0.5032807597435578
 40
0.6385080372137913
 40
0.7574348644716352
 40
0.7890911115352831
 40
0.8207100437487138
 40
0.8456937917313915
 40
0.8820250887595771
 40
0.9419719353815544
 40
1.0
 40
1.0
 40
1.0
 40
1.0
 10
508.8622430609321
 20
393.6009694182033
 30
0.0
 10
508.8632129045826
 20
393.5950347464685
 30
0.0
 10
508.864687670584
 20
393.5860103515579
 30
0.0
 10
508.9351581726038
 20
393.3835172370237
 30
0.0
 10
509.0253113454033
 20
393.1240728547135
 30
0.0
 10
509.1589616031588
 20
392.740839618959
 30
0.0
 10
509.3341747957758
 20
392.2249071497246
 30
0.0
 10
509.548667643815
 20
391.5817852104539
 30
0.0
 10
509.8738320445598
 20
390.607264015763
 30
0.0
 10
510.3405664373425
 20
389.2268091509206
 30
0.0
 10
510.8573287098311
 20
387.7661742416435
 30
0.0
 10
511.2136450619234
 20
386.7867893746625
 30
0.0
 10
511.3896642631287
 20
386.3034166422386
 30
0.0
 10
511.5719186430517
 20
385.7866652324022
 30
0.0
 10
511.8067889218967
 20
385.1045545085258
 30
0.0
 10
512.0973940131096
 20
384.2260158264264
 30
0.0
 10
512.2928807018117
 20
383.545587516287
 30
0.0
 10
512.3890343168877
 20
383.210906713955
 30
0.0
  0
SPLINE
  5
162
330
1F
100
AcDbEntity
  8
0
  6
Continuous
 62
     8
370
    18
100
AcDbSpline
210
0.0
220
0.0
230
1.0
 70
     8
 71
     3
 72
    25
 73
    21
 74
     0
 42
0.000000001
 43
0.00000001
 40
0.0325751471078964
 40
0.0325751471078964
 40
0.0325751471078964
 40
0.0325751471078964
 40
0.0625334523177816
 40
0.1016168600163951
 40
0.1667558728474175
 40
0.2978042403194181
 40
0.3305663321874182
 40
0.4288526077914186
 40
0.4343129564360854
 40
0.4834560942380856
 40
0.4855037249798356
 40
0.5162181861060857
 40
0.5162181861060857
 40
0.5378488844563709
 40
0.5666898155900846
 40
0.650809198063416
 40
0.7349285805367474
 40
0.875127551325633
 40
0.9531728317471124
 40
0.9703009293615495
 40
0.9703009293615495
 40
0.9703009293615495
 40
0.9703009293615495
 10
528.5374500123945
 20
407.2698176081144
 30
0.0
 10
528.2842139662589
 20
407.1979795435588
 30
0.0
 10
527.7099987069117
 20
407.0238588802125
 30
0.0
 10
526.6049159771903
 20
406.6598966842861
 30
0.0
 10
524.6972857173652
 20
405.9553284091689
 30
0.0
 10
522.9002869946479
 20
405.1498632211772
 30
0.0
 10
520.8993816348056
 20
404.1131551369491
 30
0.0
 10
519.8806388664436
 20
403.5254205046316
 30
0.0
 10
518.7602596775774
 20
402.8247541186123
 30
0.0
 10
518.349133798491
 20
402.5568603977674
 30
0.0
 10
517.7601752933853
 20
402.1583350636488
 30
0.0
 10
517.5258691976378
 20
401.9960009129512
 30
0.0
 10
517.1539462052322
 20
401.7325018131875
 30
0.0
 10
516.7969893067111
 20
401.4756279838343
 30
0.0
 10
515.8578779476455
 20
400.774447535446
 30
0.0
 10
514.523965170091
 20
399.6948572712101
 30
0.0
 10
512.5392953426325
 20
397.8883092465885
 30
0.0
 10
510.7358417333362
 20
395.9726856022739
 30
0.0
 10
509.4508779762788
 20
394.3811614913473
 30
0.0
 10
508.9513916582451
 20
393.7205300934389
 30
0.0
 10
508.8622591315171
 20
393.6009909711124
 30
0.0
  0
SPLINE
  5
163
330
1F
100
AcDbEntity
  8
0
  6
Continuous
 62
     8
370
    18
100
AcDbSpline
210
0.0
220
0.0
230
1.0
 70
     8
 71
     3
 72
    24
 73
    20
 74
     0
 42
0.000000001
 43
0.00000001
 40
0.0
 40
0.0
 40
0.0
 40
0.0
 40
0.125
 40
0.125
 40
0.1875
 40
0.1875
 40
0.25
 40
0.25
 40
0.375
 40
0.375
 40
0.5
 40
0.5
 40
0.625
 40
0.625
 40
0.75
 40
0.75
 40
0.875
 40
0.875
 40
1.0
 40
1.0
 40
1.0
 40
1.0
 10
556.1908595720244
 20
394.9475704180776
 30
0.0
 10
556.0168252800884
 20
395.62197967023
 30
0.0
 10
555.8633024426115
 20
396.3018934995766
 30
0.0
 10
555.6522074097193
 20
397.3732164043353
 30
0.0
 10
555.5836577741467
 20
397.7296989848244
 30
0.0
 10
555.4524247286793
 20
398.443049540583
 30
0.0
 10
555.3894616812166
 20
398.8077467631161
 30
0.0
 10
555.2005813057112
 20
399.8788915706381
 30
0.0
 10
555.0731521165357
 20
400.5545751613951
 30
0.0
 10
554.8319832135003
 20
401.8042865679495
 30
0.0
 10
554.7173288485589
 20
402.3779637797475
 30
0.0
 10
554.5089037632788
 20
403.4056482928135
 30
0.0
 10
554.4151747636076
 20
403.8604653571423
 30
0.0
 10
554.2586514365571
 20
404.6341969393745
 30
0.0
 10
554.1973496621084
 20
404.9521172456718
 30
0.0
 10
554.1093657382248
 20
405.4132012503302
 30
0.0
 10
554.0819217126042
 20
405.5569093350975
 30
0.0
 10
554.0543053455872
 20
405.6985220340068
 30
0.0
 10
554.0522027423611
 20
405.7039102835018
 30
0.0
 10
554.0501190414028
 20
405.7090242948478
 30
0.0
  0
SPLINE
  5
164
330
1F
100
AcDbEntity
  8
0
  6
Continuous
 62
     8
370
    18
100
AcDbSpline
210
0.0
220
0.0
230
1.0
 70
     8
 71
     3
 72
    28
 73
    24
 74
     0
 42
0.000000001
 43
0.00000001
 40
0.0
 40
0.0
 40
0.0
 40
0.0
 40
0.0253467574664434
 40
0.0506614080608392
 40
0.0759460054864694
 40
0.1012025597393818
 40
0.1264330391883554
 40
0.1516393726575123
 40
0.1768234515151519
 40
0.2019871317732073
 40
0.2271322362024083
 40
0.2832500714111416
 40
0.3450980970428053
 40
0.4126863147799849
 40
0.4860360724193366
 40
0.5237049137514411
 40
0.6092779617801877
 40
0.7429059151096761
 40
0.8029735180804534
 40
0.8587244205079049
 40
0.9101535621679399
 40
0.9572503465993517
 40
1.0
 40
1.0
 40
1.0
 40
1.0
 10
554.0500132095318
 20
405.7088498978205
 30
0.0
 10
553.8604130518409
 20
405.7893656621762
 30
0.0
 10
553.4814529039838
 20
405.9502952011418
 30
0.0
 10
552.9084638836663
 20
406.179736462121
 30
0.0
 10
552.3327765374174
 20
406.4002033815761
 30
0.0
 10
551.754149764434
 20
406.6108430472689
 30
0.0
 10
551.1728015598768
 20
406.8118700366895
 30
0.0
 10
550.5888264665093
 20
407.003213484324
 30
0.0
 10
550.0023547236061
 20
407.1848785846078
 30
0.0
 10
549.4134973134596
 20
407.356851352164
 30
0.0
 10
548.5795871869873
 20
407.5857778743106
 30
0.0
 10
547.4501896592935
 20
407.8641726356572
 30
0.0
 10
545.972977475231
 20
408.1691333096712
 30
0.0
 10
544.3460603144911
 20
408.434711157163
 30
0.0
 10
542.903883052166
 20
408.6032587077769
 30
0.0
 10
541.3117012578957
 20
408.7317361279523
 30
0.0
 10
539.225502973989
 20
408.8168715692685
 30
0.0
 10
536.9543978614893
 20
408.7488333866649
 30
0.0
 10
534.9361141181766
 20
408.5615183436574
 30
0.0
 10
533.5883204561974
 20
408.3856362594606
 30
0.0
 10
532.3515729355968
 20
408.1797750986767
 30
0.0
 10
531.2249864794377
 20
407.9576607073215
 30
0.0
 10
530.5141934185376
 20
407.7904799816696
 30
0.0
 10
530.175992397704
 20
407.710934055873
 30
0.0
  0
SPLINE
  5
165
330
1F
100
AcDbEntity
  8
0
  6
Continuous
 62
     8
370
    18
100
AcDbSpline
210
0.0
220
0.0
230
1.0
 70
     8
 71
     3
 72
    14
 73
    10
 74
     0
 42
0.000000001
 43
0.00000001
 40
0.0
 40
0.0
 40
0.0
 40
0.0
 40
0.5000000000000002
 40
0.5000000000000002
 40
0.7499999999999999
 40
0.7499999999999999
 40
0.875
 40
0.875
 40
1.0
 40
1.0
 40
1.0
 40
1.0
 10
561.980753946076
 20
372.5155304185777
 30
0.0
 10
561.0565917865713
 20
376.1366072134969
 30
0.0
 10
560.1276639070666
 20
379.7556770625154
 30
0.0
 10
558.7257057534348
 20
385.182936655165
 30
0.0
 10
558.2570926332121
 20
386.9917523663379
 30
0.0
 10
557.5526684238085
 20
389.7053105690965
 30
0.0
 10
557.3175895913805
 20
390.6100264722132
 30
0.0
 10
556.8465767257323
 20
392.4212671410688
 30
0.0
 10
556.6098855833155
 20
393.3293767613485
 30
0.0
 10
556.375262423833
 20
394.2325340639047
 30
0.0
  0
SPLINE
  5
166
330
1F
100
AcDbEntity
  8
0
  6
Continuous
 62
     8
370
    18
100
AcDbSpline
210
0.0
220
0.0
230
1.0
 70
     8
 71
     3
 72
    18
 73
    14
 74
     0
 42
0.000000001
 43
0.00000001
 40
0.0
 40
0.0
 40
0.0
 40
0.0
 40
0.2500000000000002
 40
0.2500000000000002
 40
0.5000000000000003
 40
0.5000000000000003
 40
0.7500000000000004
 40
0.7500000000000004
 40
0.8750000000000002
 40
0.8750000000000002
 40
0.9375000000000001
 40
0.9375000000000001
 40
1.0
 40
1.0
 40
1.0
 40
1.0
 10
572.2835182582828
 20
332.5915117269287
 30
0.0
 10
571.4328613307126
 20
335.9185009965205
 30
0.0
 10
570.5785152700047
 20
339.2470975348451
 30
0.0
 10
568.8602898183095
 20
345.9012823460673
 30
0.0
 10
567.9977838354258
 20
349.2277907646194
 30
0.0
 10
566.2734269457169
 20
355.8816324568364
 30
0.0
 10
565.4115755492497
 20
359.2087388327956
 30
0.0
 10
564.1224492914022
 20
364.1992118690428
 30
0.0
 10
563.6932933070832
 20
365.8626588927319
 30
0.0
 10
563.0504681443356
 20
368.3576078310137
 30
0.0
 10
562.8363526231171
 20
369.1892246336235
 30
0.0
 10
562.4085276556577
 20
370.852448087936
 30
0.0
 10
562.1934647282837
 20
371.6837042035989
 30
0.0
 10
561.9813317184792
 20
372.5156778077702
 30
0.0
  0
SPLINE
  5
167
330
1F
100
AcDbEntity
  8
0
  6
Continuous
 62
     8
370
    18
100
AcDbSpline
210
0.0
220
0.0
230
1.0
 70
     8
 71
     3
 72
     8
 73
     4
 74
     0
 42
0.000000001
 43
0.00000001
 40
0.0
 40
0.0
 40
0.0
 40
0.0
 40
1.0
 40
1.0
 40
1.0
 40
1.0
 10
574.354664614177
 20
324.4681458865746
 30
0.0
 10
573.6571541981634
 20
327.2155667930384
 30
0.0
 10
572.9662126488022
 20
329.9205983967763
 30
0.0
 10
572.2837316774713
 20
332.5915661924449
 30
0.0
  0
LINE
  5
168
330
1F
100
AcDbEntity
  8
0
  6
Continuous
 62
     8
370
    18
100
AcDbLine
 10
574.3546646142
 20
324.4681458866
 30
0.0
 11
574.3584801283
 21
324.4531167269
 31
0.0
  0
LWPOLYLINE
  5
169
330
1F
100
AcDbEntity
  8
0
  6
Continuous
 62
     8
370
    18
100
AcDbPolyline
 90
        3
 70
   128
 43
0.0
 10
531.8984299867
 20
313.0920321045
 10
531.900535205
 20
313.0845703365
 10
531.9026402344
 20
313.0771087133
  0
SPLINE
  5
16A
330
1F
100
AcDbEntity
  8
0
  6
Continuous
 62
     8
370
    18
100
AcDbSpline
210
0.0
220
0.0
230
1.0
 70
     8
 71
     3
 72
    10
 73
     6
 74
     0
 42
0.000000001
 43
0.00000001
 40
0.0
 40
0.0
 40
0.0
 40
0.0
 40
0.4965199982285574
 40
0.7473474849113976
 40
1.0
 40
1.0
 40
1.0
 40
1.0
 10
529.6301875821285
 20
321.1625833679911
 30
0.0
 10
530.0048673420399
 20
319.8266483951528
 30
0.0
 10
530.5688244378588
 20
317.8158378628119
 30
0.0
 10
531.3251057213694
 20
315.125709833058
 30
0.0
 10
531.7068606329902
 20
313.7715608663734
 30
0.0
 10
531.8984299867464
 20
313.0920321044886
 30
0.0
  0
SPLINE
  5
16B
330
1F
100
AcDbEntity
  8
0
  6
Continuous
 62
     8
370
    18
100
AcDbSpline
210
0.0
220
0.0
230
1.0
 70
     8
 71
     3
 72
    15
 73
    11
 74
     0
 42
0.000000001
 43
0.00000001
 40
0.0
 40
0.0
 40
0.0
 40
0.0
 40
0.0510956450227232
 40
0.1428083941503637
 40
0.2499458770181843
 40
0.4999929585779317
 40
0.5706745620003727
 40
0.7500307425316013
 40
0.8818573656867413
 40
1.0
 40
1.0
 40
1.0
 40
1.0
 10
518.5902846433041
 20
360.8890817852366
 30
0.0
 10
518.7793096071545
 20
360.2127416839113
 30
0.0
 10
519.3076198286967
 20
358.3224231699401
 30
0.0
 10
520.227809653738
 20
355.0127064353271
 30
0.0
 10
521.8803430638976
 20
349.0684996813224
 30
0.0
 10
523.4503243639405
 20
343.4013571990776
 30
0.0
 10
525.2816074516332
 20
336.7766498011192
 30
0.0
 10
526.6836360377465
 20
331.7190411143699
 30
0.0
 10
528.2662271061025
 20
326.0345852743113
 30
0.0
 10
529.1925996893364
 20
322.7262604427767
 30
0.0
 10
529.6304299187303
 20
321.1626513225198
 30
0.0
  0
SPLINE
  5
16C
330
1F
100
AcDbEntity
  8
0
  6
Continuous
 62
     8
370
    18
100
AcDbSpline
210
0.0
220
0.0
230
1.0
 70
     8
 71
     3
 72
    16
 73
    12
 74
     0
 42
0.000000001
 43
0.00000001
 40
0.0
 40
0.0
 40
0.0
 40
0.0
 40
0.0416527772969
 40
0.0834009545711119
 40
0.1251395300581696
 40
0.166852015672292
 40
0.2085463768955514
 40
0.2502287096017883
 40
0.5001752719931158
 40
0.7479356987990949
 40
1.0
 40
1.0
 40
1.0
 40
1.0
 10
512.5868549397624
 20
382.4994656407032
 30
0.0
 10
512.6697395638813
 20
382.1992935150019
 30
0.0
 10
512.8356986479903
 20
381.5982617604879
 30
0.0
 10
513.0846516174931
 20
380.6964145694661
 30
0.0
 10
513.3336391120573
 20
379.7941164913148
 30
0.0
 10
513.5824512307277
 20
378.8921858961468
 30
0.0
 10
513.831143951373
 20
377.990658720019
 30
0.0
 10
514.4935058584979
 20
375.5882827515928
 30
0.0
 10
515.5706617762426
 20
371.7021841464938
 30
0.0
 10
517.0734162709978
 20
366.3018809290557
 30
0.0
 10
518.0821492377133
 20
362.7037831230257
 30
0.0
 10
518.5908587034642
 20
360.889243028649
 30
0.0
  0
SPLINE
  5
16D
330
1F
100
AcDbEntity
  8
0
  6
Continuous
 62
     8
370
    18
100
AcDbSpline
210
0.0
220
0.0
230
1.0
 70
     8
 71
     3
 72
    38
 73
    34
 74
     0
 42
0.000000001
 43
0.00000001
 40
0.0
 40
0.0
 40
0.0
 40
0.0
 40
0.0312499999999992
 40
0.0312499999999992
 40
0.0624999999999985
 40
0.0624999999999985
 40
0.1249999999999981
 40
0.1249999999999981
 40
0.2499999999999987
 40
0.2499999999999987
 40
0.3749999999999993
 40
0.3749999999999993
 40
0.4999999999999999
 40
0.4999999999999999
 40
0.6250000000000004
 40
0.6250000000000004
 40
0.6875000000000004
 40
0.6875000000000004
 40
0.7500000000000004
 40
0.7500000000000004
 40
0.8749999999999982
 40
0.8749999999999982
 40
0.9374999999999966
 40
0.9374999999999966
 40
0.9687499999999969
 40
0.9687499999999969
 40
0.9843749999999983
 40
0.9843749999999983
 40
0.9921875
 40
0.9921875
 40
0.99609375
 40
0.99609375
 40
1.0
 40
1.0
 40
1.0
 40
1.0
 10
557.4368582687894
 20
302.6937894651833
 30
0.0
 10
557.5958673745291
 20
302.736526344092
 30
0.0
 10
557.753644158514
 20
302.7805866624476
 30
0.0
 10
558.0751052359711
 20
302.8698872007928
 30
0.0
 10
558.2373811539198
 20
302.9149636060968
 30
0.0
 10
558.7262543487649
 20
303.0499731463747
 30
0.0
 10
559.0539389974513
 20
303.1388539092239
 30
0.0
 10
560.0344787886033
 20
303.4063655790733
 30
0.0
 10
560.6870507458029
 20
303.5856324424188
 30
0.0
 10
561.9882471641326
 20
303.9512279294286
 30
0.0
 10
562.637140458844
 20
304.1367540526988
 30
0.0
 10
563.9342325501507
 20
304.5138314669751
 30
0.0
 10
564.5832645307822
 20
304.7056324973998
 30
0.0
 10
565.8709363469633
 20
305.0922023127895
 30
0.0
 10
566.5137958214007
 20
305.2873859813525
 30
0.0
 10
567.478312960098
 20
305.5871989428675
 30
0.0
 10
567.7999844748831
 20
305.6888400168374
 30
0.0
 10
568.4443699144957
 20
305.897302311509
 30
0.0
 10
568.768118284738
 20
306.0036979275992
 30
0.0
 10
569.7322804494444
 20
306.3273084097087
 30
0.0
 10
570.3595369120501
 20
306.5488746179232
 30
0.0
 10
571.2327450039312
 20
306.9021869499766
 30
0.0
 10
571.5120980246653
 20
307.0231176408595
 30
0.0
 10
571.9105303276983
 20
307.2120281845237
 30
0.0
 10
572.0401335269498
 20
307.2762974856446
 30
0.0
 10
572.2301634992293
 20
307.375103375501
 30
0.0
 10
572.2927933536748
 20
307.408451112719
 30
0.0
 10
572.385642239351
 20
307.4590861051518
 30
0.0
 10
572.4164036923072
 20
307.476062038795
 30
0.0
 10
572.4622614187971
 20
307.5016694513039
 30
0.0
 10
572.4772274107469
 20
307.5100815804617
 30
0.0
 10
572.5116675902597
 20
307.5295204390275
 30
0.0
 10
572.5293290422469
 20
307.5395037673435
 30
0.0
 10
572.5466147217365
 20
307.5492725908007
 30
0.0
  0
SPLINE
  5
16E
330
1F
100
AcDbEntity
  8
0
  6
Continuous
 62
     8
370
    18
100
AcDbSpline
210
0.0
220
0.0
230
1.0
 70
     8
 71
     3
 72
     8
 73
     4
 74
     0
 42
0.000000001
 43
0.00000001
 40
0.0
 40
0.0
 40
0.0
 40
0.0
 40
1.0
 40
1.0
 40
1.0
 40
1.0
 10
575.3990782285135
 20
320.3307937506519
 30
0.0
 10
575.0522234411835
 20
321.7162504785716
 30
0.0
 10
574.7048641768491
 20
323.0909600843834
 30
0.0
 10
574.3585747937577
 20
324.453140711427
 30
0.0
  0
SPLINE
  5
16F
330
1F
100
AcDbEntity
  8
0
  6
Continuous
 62
     8
370
    18
100
AcDbSpline
210
0.0
220
0.0
230
1.0
 70
     8
 71
     3
 72
    36
 73
    32
 74
     0
 42
0.000000001
 43
0.00000001
 40
0.0
 40
0.0
 40
0.0
 40
0.0
 40
0.0078125000000016
 40
0.0078125000000016
 40
0.0156250000000032
 40
0.0156250000000032
 40
0.0312500000000034
 40
0.0312500000000034
 40
0.0625000000000038
 40
0.0625000000000038
 40
0.1250000000000026
 40
0.1250000000000026
 40
0.2500000000000023
 40
0.2500000000000023
 40
0.3750000000000019
 40
0.3750000000000019
 40
0.5000000000000016
 40
0.5000000000000016
 40
0.6250000000000012
 40
0.6250000000000012
 40
0.7500000000000009
 40
0.7500000000000009
 40
0.8750000000000007
 40
0.8750000000000007
 40
0.9375000000000004
 40
0.9375000000000004
 40
0.9687500000000008
 40
0.9687500000000008
 40
0.9843750000000004
 40
0.9843750000000004
 40
1.0
 40
1.0
 40
1.0
 40
1.0
 10
572.546614612901
 20
307.5492727243744
 30
0.0
 10
572.5842307808516
 20
307.5710038258285
 30
0.0
 10
572.6283016571747
 20
307.5968392653357
 30
0.0
 10
572.7132610369995
 20
307.6474256084388
 30
0.0
 10
572.7543911008412
 20
307.672317456591
 30
0.0
 10
572.8720221041614
 20
307.7448394281863
 30
0.0
 10
572.9451122190885
 20
307.7916651353095
 30
0.0
 10
573.1627349729624
 20
307.9359473571164
 30
0.0
 10
573.3032165593758
 20
308.03560767022
 30
0.0
 10
573.7035034679327
 20
308.340176738014
 30
0.0
 10
573.9435641022177
 20
308.5516997459022
 30
0.0
 10
574.602043995331
 20
309.2236783627512
 30
0.0
 10
574.9646986223198
 20
309.7254729580297
 30
0.0
 10
575.5534985292587
 20
310.8006136135065
 30
0.0
 10
575.7798186395405
 20
311.3743377598863
 30
0.0
 10
576.1080260858839
 20
312.5642633233209
 30
0.0
 10
576.2102916548826
 20
313.1813377401358
 30
0.0
 10
576.3162119516047
 20
314.4379801958999
 30
0.0
 10
576.3103819087235
 20
315.073908164915
 30
0.0
 10
576.2257372097004
 20
316.2984769070113
 30
0.0
 10
576.1475431932101
 20
316.8851450694631
 30
0.0
 10
575.9607367103208
 20
317.9723377084919
 30
0.0
 10
575.8520838422503
 20
318.4757075945602
 30
0.0
 10
575.6842899531024
 20
319.189614178999
 30
0.0
 10
575.6275718874251
 20
319.4207861680222
 30
0.0
 10
575.5418112965624
 20
319.7645780070104
 30
0.0
 10
575.5133164265981
 20
319.8778464711702
 30
0.0
 10
575.4717381249147
 20
320.0428671338607
 30
0.0
 10
575.4582557143207
 20
320.0963225997652
 30
0.0
 10
575.4309882462486
 20
320.2045987822696
 30
0.0
 10
575.4163759656426
 20
320.2627646786871
 30
0.0
 10
575.3993191686128
 20
320.3308542158064
 30
0.0
  0
SPLINE
  5
170
330
1F
100
AcDbEntity
  8
0
  6
Continuous
 62
     8
370
    18
100
AcDbSpline
210
0.0
220
0.0
230
1.0
 70
     8
 71
     3
 72
     9
 73
     5
 74
     0
 42
0.000000001
 43
0.00000001
 40
0.0
 40
0.0
 40
0.0
 40
0.0
 40
0.497734437665574
 40
1.0
 40
1.0
 40
1.0
 40
1.0
 10
531.9025462594698
 20
313.077082151832
 30
0.0
 10
532.0941473915072
 20
312.3982056605292
 30
0.0
 10
532.4790938961856
 20
311.0342725268549
 30
0.0
 10
532.8675242274959
 20
309.6713319746202
 30
0.0
 10
533.0626194062792
 20
308.9867738717236
 30
0.0
  0
SPLINE
  5
171
330
1F
100
AcDbEntity
  8
0
  6
Continuous
 62
     8
370
    18
100
AcDbSpline
210
0.0
220
0.0
230
1.0
 70
     8
 71
     3
 72
    26
 73
    22
 74
     0
 42
0.000000001
 43
0.00000001
 40
0.0
 40
0.0
 40
0.0
 40
0.0
 40
0.0198067341554858
 40
0.0354858818469118
 40
0.0470601643043728
 40
0.0545516184709668
 40
0.0745299380694966
 40
0.1119481173503087
 40
0.1785054974944452
 40
0.2359450354793556
 40
0.3000146728050587
 40
0.36372106951697
 40
0.4906372644088224
 40
0.6179924630011351
 40
0.7454531344156275
 40
0.8283653313802632
 40
0.8914394695212118
 40
0.9462194326858329
 40
0.9733326051637227
 40
0.9869130414454503
 40
1.0
 40
1.0
 40
1.0
 40
1.0
 10
541.9236837720794
 20
299.3438829662733
 30
0.0
 10
542.0286021222778
 20
299.3456080792045
 30
0.0
 10
542.2165745638466
 20
299.3486988034585
 30
0.0
 10
542.4656499515787
 20
299.3600188363706
 30
0.0
 10
542.6493840067683
 20
299.3711161143655
 30
0.0
 10
542.8556645794498
 20
299.3863849007905
 30
0.0
 10
543.1978770517123
 20
299.4192068191019
 30
0.0
 10
543.8496484379023
 20
299.5000987119733
 30
0.0
 10
544.6936191832889
 20
299.6398370461563
 30
0.0
 10
545.6712437711706
 20
299.8326487317744
 30
0.0
 10
546.632012437411
 20
300.032757699458
 30
0.0
 10
547.9497142933927
 20
300.3240724579982
 30
0.0
 10
549.5905614036564
 20
300.706594911121
 30
0.0
 10
551.557086600107
 20
301.1796627126413
 30
0.0
 10
553.2933639135513
 20
301.612877972862
 30
0.0
 10
554.6954999687043
 20
301.9779425979013
 30
0.0
 10
555.7246632062773
 20
302.2470482418799
 30
0.0
 10
556.4674931071991
 20
302.4424227017199
 30
0.0
 10
556.9572656949128
 20
302.5688961313069
 30
0.0
 10
557.233254906179
 20
302.6397944667856
 30
0.0
 10
557.369833037938
 20
302.6760141663176
 30
0.0
 10
557.4368584208357
 20
302.6937888949532
 30
0.0
  0
SPLINE
  5
172
330
1F
100
AcDbEntity
  8
0
  6
Continuous
 62
     8
370
    18
100
AcDbSpline
210
0.0
220
0.0
230
1.0
 70
     8
 71
     3
 72
    23
 73
    19
 74
     0
 42
0.000000001
 43
0.00000001
 40
0.0
 40
0.0
 40
0.0
 40
0.0
 40
0.0473762381553991
 40
0.1169273846899152
 40
0.2094578964583021
 40
0.3578495429852077
 40
0.4651219645183927
 40
0.528706051725845
 40
0.5867229008568248
 40
0.6390626137618891
 40
0.6856413375237389
 40
0.7263978193802528
 40
0.7955317573660537
 40
0.8567522682164049
 40
0.8887536799703808
 40
0.9233043483774426
 40
0.9603993773716892
 40
1.0
 40
1.0
 40
1.0
 40
1.0
 10
533.0623784438217
 20
308.9867051387357
 30
0.0
 10
533.1233685358666
 20
308.7707982539401
 30
0.0
 10
533.2738957248642
 20
308.2379271700672
 30
0.0
 10
533.5516010128243
 20
307.2855810856603
 30
0.0
 10
534.0167862022771
 20
305.8903604852829
 30
0.0
 10
534.66835628038
 20
304.3706893000043
 30
0.0
 10
535.4392501055165
 20
303.0651061743421
 30
0.0
 10
536.0940081482697
 20
302.1997230307898
 30
0.0
 10
536.6442846310949
 20
301.5854095708256
 30
0.0
 10
537.1877629495505
 20
301.0770947732707
 30
0.0
 10
537.707997149852
 20
300.667315622067
 30
0.0
 10
538.3256125591575
 20
300.2567583271784
 30
0.0
 10
539.0476313285113
 20
299.8826952368686
 30
0.0
 10
539.7744425298207
 20
299.6245595479755
 30
0.0
 10
540.363431715292
 20
299.4839266191425
 30
0.0
 10
540.8481361251039
 20
299.4047471525882
 30
0.0
 10
541.3729166248884
 20
299.3531427168834
 30
0.0
 10
541.7361393128006
 20
299.3470359949058
 30
0.0
 10
541.9236837731414
 20
299.3438828827356
 30
0.0
  0
LINE
  5
173
330
1F
100
AcDbEntity
  8
0
  6
Continuous
 62
     8
370
    18
100
AcDbLine
 10
530.6920929445
 20
312.7365083357
 30
0.0
 11
530.6878433223
 21
312.7516034808
 31
0.0
  0
ARC
  5
174
330
1F
100
AcDbEntity
  8
0
  6
Continuous
 62
     8
370
    18
100
AcDbCircle
 10
523.5623741572
 20
341.6119593507
 30
0.0
 40
42.35441417593621
100
AcDbArc
 50
105.025982993
 51
106.7361230729
  0
SPLINE
  5
175
330
1F
100
AcDbEntity
  8
0
  6
Continuous
 62
     8
370
    18
100
AcDbSpline
210
0.0
220
0.0
230
1.0
 70
     8
 71
     3
 72
    14
 73
    10
 74
     0
 42
0.000000001
 43
0.00000001
 40
0.0
 40
0.0
 40
0.0
 40
0.0
 40
0.25
 40
0.25
 40
0.5
 40
0.5
 40
0.75
 40
0.75
 40
1.0
 40
1.0
 40
1.0
 40
1.0
 10
518.5902846433041
 20
360.8890817852366
 30
0.0
 10
518.4304066040359
 20
360.844128462428
 30
0.0
 10
518.2638545780052
 20
360.797276054697
 30
0.0
 10
517.9515435033566
 20
360.709362064325
 30
0.0
 10
517.8066352721331
 20
360.6685394464303
 30
0.0
 10
517.574337010674
 20
360.6030219286013
 30
0.0
 10
517.4875502387425
 20
360.5784971719407
 30
0.0
 10
517.3842822262769
 20
360.5492010287615
 30
0.0
 10
517.3674246238293
 20
360.5443244931574
 30
0.0
 10
517.3777922433793
 20
360.5471098224219
 30
0.0
  0
SPLINE
  5
176
330
1F
100
AcDbEntity
  8
0
  6
Continuous
 62
     8
370
    18
100
AcDbSpline
210
0.0
220
0.0
230
1.0
 70
     8
 71
     3
 72
    14
 73
    10
 74
     0
 42
0.000000001
 43
0.00000001
 40
0.0
 40
0.0
 40
0.0
 40
0.0
 40
0.25
 40
0.25
 40
0.5
 40
0.5
 40
0.75
 40
0.75
 40
1.0
 40
1.0
 40
1.0
 40
1.0
 10
563.2017917845302
 20
372.8256208663819
 30
0.0
 10
563.2121611823069
 20
372.8284174836343
 30
0.0
 10
563.1951342342904
 20
372.8242329405025
 30
0.0
 10
563.0911132753029
 20
372.798005660351
 30
0.0
 10
563.0037413419941
 20
372.7758658953663
 30
0.0
 10
562.7699335069492
 20
372.7164802834226
 30
0.0
 10
562.6241041758498
 20
372.6793886528803
 30
0.0
 10
562.3098198442997
 20
372.5993815306887
 30
0.0
 10
562.1422201004813
 20
372.5566844259274
 30
0.0
 10
561.9813317000306
 20
372.5156778029767
 30
0.0
  0
SPLINE
  5
177
330
1F
100
AcDbEntity
  8
0
  6
Continuous
 62
     8
370
    18
100
AcDbSpline
210
0.0
220
0.0
230
1.0
 70
     8
 71
     3
 72
    14
 73
    10
 74
     0
 42
0.000000001
 43
0.00000001
 40
0.0
 40
0.0
 40
0.0
 40
0.0
 40
0.1235083626896133
 40
0.266589845912951
 40
0.4121713944527624
 40
0.5598460441179507
 40
0.7082427091052548
 40
0.8562811733691614
 40
0.9999999999999999
 40
0.9999999999999999
 40
0.9999999999999999
 40
0.9999999999999999
 10
557.3288553523743
 20
395.5867115258217
 30
0.0
 10
557.1902679737252
 20
396.118669797429
 30
0.0
 10
556.8911304326306
 20
397.2668889995271
 30
0.0
 10
556.4320632325409
 20
399.0264324062802
 30
0.0
 10
555.9869001606174
 20
400.7326078826065
 30
0.0
 10
555.599064060596
 20
402.2187237714978
 30
0.0
 10
555.2878237886649
 20
403.4107852533025
 30
0.0
 10
555.064470646088
 20
404.2654890915804
 30
0.0
 10
555.0127679983643
 20
404.4633731520561
 30
0.0
 10
554.9872994184985
 20
404.5608502875659
 30
0.0
  0
SPLINE
  5
178
330
1F
100
AcDbEntity
  8
0
  6
Continuous
 62
     8
370
    18
100
AcDbSpline
210
0.0
220
0.0
230
1.0
 70
     8
 71
     3
 72
    10
 73
     6
 74
     0
 42
0.000000001
 43
0.00000001
 40
0.0
 40
0.0
 40
0.0
 40
0.0
 40
0.3303846127255516
 40
0.6693825081568586
 40
1.0
 40
1.0
 40
1.0
 40
1.0
 10
554.0500714965198
 20
405.7087635583309
 30
0.0
 10
554.1559735572281
 20
405.6545357353214
 30
0.0
 10
554.3705385953244
 20
405.5446663443758
 30
0.0
 10
554.6397202084447
 20
405.2974941941762
 30
0.0
 10
554.7663545062937
 20
405.0922081165474
 30
0.0
 10
554.8288792253068
 20
404.9908496809651
 30
0.0
  0
SPLINE
  5
179
330
1F
100
AcDbEntity
  8
0
  6
Continuous
 62
     8
370
    18
100
AcDbSpline
210
0.0
220
0.0
230
1.0
 70
     8
 71
     3
 72
    14
 73
    10
 74
     0
 42
0.000000001
 43
0.00000001
 40
0.0
 40
0.0
 40
0.0
 40
0.0
 40
0.1235083626898945
 40
0.266589845913104
 40
0.4121713944527873
 40
0.5598460441178418
 40
0.7082427091050172
 40
0.8562811733687918
 40
0.9999999999999999
 40
0.9999999999999999
 40
0.9999999999999999
 40
0.9999999999999999
 10
511.0839305078344
 20
383.1954212596843
 30
0.0
 10
510.9379715625845
 20
383.7254043259757
 30
0.0
 10
510.6229226713485
 20
384.8693600946546
 30
0.0
 10
510.1407148252933
 20
386.6227029840108
 30
0.0
 10
509.6731496162427
 20
388.3228758257852
 30
0.0
 10
509.2659675869202
 20
389.8038079885434
 30
0.0
 10
508.939478828191
 20
390.9917836506248
 30
0.0
 10
508.7055564045386
 20
391.8436554585747
 30
0.0
 10
508.6513901806724
 20
392.0408794058129
 30
0.0
 10
508.6247080500794
 20
392.1380313713856
 30
0.0
  0
SPLINE
  5
17A
330
1F
100
AcDbEntity
  8
0
  6
Continuous
 62
     8
370
    18
100
AcDbSpline
210
0.0
220
0.0
230
1.0
 70
     8
 71
     3
 72
    10
 73
     6
 74
     0
 42
0.000000001
 43
0.00000001
 40
0.0
 40
0.0
 40
0.0
 40
0.0
 40
0.3303781951925188
 40
0.6693696347437187
 40
1.0
 40
1.0
 40
1.0
 40
1.0
 10
508.8622544312681
 20
393.6008868125024
 30
0.0
 10
508.7976601697126
 20
393.5009593629895
 30
0.0
 10
508.6667876185181
 20
393.2984992692101
 30
0.0
 10
508.5572888539634
 20
392.9498054108108
 30
0.0
 10
508.5502970062701
 20
392.7086801756674
 30
0.0
 10
508.5468447334498
 20
392.5896229347061
 30
0.0
  0
SPLINE
  5
17B
330
1F
100
AcDbEntity
  8
0
  6
Continuous
 62
     8
370
    18
100
AcDbSpline
210
0.0
220
0.0
230
1.0
 70
     8
 71
     3
 72
    14
 73
    10
 74
     0
 42
0.000000001
 43
0.00000001
 40
0.0
 40
0.0
 40
0.0
 40
0.0
 40
0.25
 40
0.25
 40
0.5
 40
0.5
 40
0.75
 40
0.75
 40
1.0
 40
1.0
 40
1.0
 40
1.0
 10
557.6012013257327
 20
394.5408956420978
 30
0.0
 10
557.6010000770656
 20
394.54201785098
 30
0.0
 10
557.5746107158184
 20
394.5363986890828
 30
0.0
 10
557.4584342468297
 20
394.5085924554775
 30
0.0
 10
557.3683972477785
 20
394.4863354337304
 30
0.0
 10
557.1362786979037
 20
394.4279505245628
 30
0.0
 10
556.9946993452228
 20
394.3919489552296
 30
0.0
 10
556.6914409889185
 20
394.3142545076674
 30
0.0
 10
556.5304496533912
 20
394.2727416936794
 30
0.0
 10
556.3752612504853
 20
394.2325342325564
 30
0.0
  0
LINE
  5
17C
330
1F
100
AcDbEntity
  8
0
  6
Continuous
 62
     8
370
    18
100
AcDbLine
 10
557.601202246
 20
394.5408921063
 30
0.0
 11
557.5963040277
 21
394.5597111909
 31
0.0
  0
LINE
  5
17D
330
1F
100
AcDbEntity
  8
0
  6
Continuous
 62
     8
370
    18
100
AcDbLine
 10
508.5999317232
 20
392.2284360021
 30
0.0
 11
508.6000204119
 21
392.2285130044
 31
0.0
  0
LINE
  5
17E
330
1F
100
AcDbEntity
  8
0
  6
Continuous
 62
     8
370
    18
100
AcDbLine
 10
554.961076295
 20
404.6508132253
 30
0.0
 11
554.9605549394
 21
404.6498021751
 31
0.0
  0
LINE
  5
17F
330
1F
100
AcDbEntity
  8
0
  6
Continuous
 62
     8
370
    18
100
AcDbLine
 10
508.8648968179
 20
393.608279244
 30
0.0
 11
508.8640403423
 21
393.6070892253
 31
0.0
  0
LINE
  5
180
330
1F
100
AcDbEntity
  8
0
  6
Continuous
 62
     8
370
    18
100
AcDbLine
 10
508.8629443409
 20
393.6030988609
 30
0.0
 11
508.8625051032
 21
393.6008881976
 31
0.0
  0
SPLINE
  5
181
330
1F
100
AcDbEntity
  8
0
  6
Continuous
 62
     8
370
    18
100
AcDbSpline
210
0.0
220
0.0
230
1.0
 70
    24
 71
     3
 72
    10
 73
     6
 74
     0
 42
0.000000001
 43
0.00000001
 40
0.0
 40
0.0
 40
0.0
 40
0.0
 40
0.2303571211231756
 40
0.9397020022720706
 40
1.0
 40
1.0
 40
1.0
 40
1.0
 10
529.3539012195497
 20
407.5008119998504
 30
0.0
 10
529.3545465294776
 20
407.4984036704131
 30
0.0
 10
529.3571789596291
 20
407.4885793073403
 30
0.0
 10
529.3553303617185
 20
407.4954783686647
 30
0.0
 10
529.3558787305817
 20
407.493431828206
 30
0.0
 10
529.3559216927729
 20
407.4932714911259
 30
0.0
  0
LINE
  5
182
330
1F
100
AcDbEntity
  8
0
  6
Continuous
 62
     8
370
    18
100
AcDbLine
 10
554.0484496532
 20
405.7105521477
 30
0.0
 11
554.0499061323
 21
405.7088984413
 31
0.0
  0
LINE
  5
183
330
1F
100
AcDbEntity
  8
0
  6
Continuous
 62
     8
370
    18
100
AcDbLine
 10
475.0643766979
 20
348.6769701246
 30
0.0
 11
475.0643766979
 21
418.0800780171
 31
0.0
  0
SPLINE
  5
184
330
1F
100
AcDbEntity
  8
0
  6
Continuous
 62
     8
370
    18
100
AcDbSpline
210
0.0
220
0.0
230
1.0
 70
    24
 71
     3
 72
    23
 73
    19
 74
     0
 42
0.000000001
 43
0.00000001
 40
0.0
 40
0.0
 40
0.0
 40
0.0
 40
0.0625014558709785
 40
0.1250029117419562
 40
0.1875043676129348
 40
0.2500058234839123
 40
0.3125072793548912
 40
0.3750087352258688
 40
0.4375101910968474
 40
0.500011646967825
 40
0.5625131028388036
 40
0.6250145587097818
 40
0.68751601458076
 40
0.7500174704517382
 40
0.8125189263227163
 40
0.8750203821936943
 40
0.9375218380646725
 40
0.9999999999999999
 40
0.9999999999999999
 40
0.9999999999999999
 40
0.9999999999999999
 10
477.6755581083068
 20
416.45525840948
 30
0.0
 10
477.6755581083068
 20
416.3321804847062
 30
0.0
 10
477.6755581083068
 20
416.0860246351584
 30
0.0
 10
477.6755581083068
 20
414.1195804131081
 30
0.0
 10
477.6755581083067
 20
411.0632683777086
 30
0.0
 10
477.6755581083067
 20
406.9188476382042
 30
0.0
 10
477.6755581083067
 20
401.8765856667821
 30
0.0
 10
477.6755581083067
 20
396.1219481820037
 30
0.0
 10
477.6755581083067
 20
389.8783052928538
 30
0.0
 10
477.6755581083067
 20
383.3850118046248
 30
0.0
 10
477.6755581083066
 20
376.8917182847546
 30
0.0
 10
477.6755581083066
 20
370.6480754905278
 30
0.0
 10
477.6755581083066
 20
364.8934376576977
 30
0.0
 10
477.6755581083066
 20
359.8511769835599
 30
0.0
 10
477.6755581083066
 20
355.7067514029709
 30
0.0
 10
477.6755581083066
 20
352.650457434626
 30
0.0
 10
477.6755581083066
 20
350.6841900879963
 30
0.0
 10
477.6755581083066
 20
350.4380494122188
 30
0.0
 10
477.6755581083066
 20
350.3150020124106
 30
0.0
  0
SPLINE
  5
185
330
1F
100
AcDbEntity
  8
0
  6
Continuous
 62
     8
370
    18
100
AcDbSpline
210
0.0
220
0.0
230
1.0
 70
    24
 71
     3
 72
    24
 73
    20
 74
     0
 42
0.000000001
 43
0.00000001
 40
0.0
 40
0.0
 40
0.0
 40
0.0
 40
0.0624956078531051
 40
0.124991215706204
 40
0.1874868235593036
 40
0.2499824314124023
 40
0.3124780392655021
 40
0.374973647118601
 40
0.4374692549717007
 40
0.4999648628247995
 40
0.5624604706778992
 40
0.6249560785309985
 40
0.6874516863840979
 40
0.7499472942371972
 40
0.8124429020902963
 40
0.8749385099433954
 40
0.9374341177964952
 40
0.9999297256495944
 40
1.0
 40
1.0
 40
1.0
 40
1.0
 10
483.7487884197872
 20
400.0456118085074
 30
0.0
 10
483.7487884197872
 20
399.9836058582368
 30
0.0
 10
483.7487884197872
 20
399.8595939576957
 30
0.0
 10
483.7487884197872
 20
398.8689106668147
 30
0.0
 10
483.7487884197872
 20
397.3291582580528
 30
0.0
 10
483.7487884197872
 20
395.241222879126
 30
0.0
 10
483.7487884197872
 20
392.7009604922159
 30
0.0
 10
483.7487884197872
 20
389.8018065241171
 30
0.0
 10
483.7487884197872
 20
386.6562977880174
 30
0.0
 10
483.7487884197872
 20
383.3850040445301
 30
0.0
 10
483.7487884197872
 20
380.1137568299702
 30
0.0
 10
483.7487884197872
 20
376.9681085070883
 30
0.0
 10
483.7487884197872
 20
374.0694663571909
 30
0.0
 10
483.7487884197872
 20
371.5272962842573
 30
0.0
 10
483.7487884197872
 20
369.4464798312236
 30
0.0
 10
483.7487884197872
 20
367.8801594049131
 30
0.0
 10
483.7487884197869
 20
366.9886292583335
 30
0.0
 10
483.7487884197877
 20
366.6177125597762
 30
0.0
 10
483.7487884197872
 20
366.7246516503528
 30
0.0
 10
483.7487884197872
 20
366.7247717649402
 30
0.0
  0
LINE
  5
186
330
1F
100
AcDbEntity
  8
0
  6
Continuous
 62
     8
370
    18
100
AcDbLine
 10
475.0643766979
 20
418.0800780171
 30
0.0
 11
475.0643766979
 21
418.0865657456
 31
0.0
  0
SPLINE
  5
187
330
1F
100
AcDbEntity
  8
0
  6
Continuous
 62
     8
370
    18
100
AcDbSpline
210
0.0
220
0.0
230
1.0
 70
     8
 71
     3
 72
     9
 73
     5
 74
     0
 42
0.000000001
 43
0.00000001
 40
0.0
 40
0.0
 40
0.0
 40
0.0
 40
0.0000079569768879
 40
0.9999999999999999
 40
0.9999999999999999
 40
0.9999999999999999
 40
0.9999999999999999
 10
511.3098007196268
 20
397.8701146583523
 30
0.0
 10
511.3098006392123
 20
397.8701145761079
 30
0.0
 10
511.2996944643807
 20
397.8597784358777
 30
0.0
 10
511.3042001772411
 20
397.8287509574979
 30
0.0
 10
511.3087058542495
 20
397.7977237260031
 30
0.0
  0
LINE
  5
188
330
1F
100
AcDbEntity
  8
0
  6
Continuous
 62
     7
370
    25
100
AcDbLine
 10
305.478666626
 20
241.5299990923
 30
0.0
 11
305.8325261288
 21
223.8721867312
 31
0.0
  0
LINE
  5
189
330
1F
100
AcDbEntity
  8
0
  6
Continuous
 62
     7
370
    25
100
AcDbLine
 10
375.2356340213
 20
223.8721867312
 30
0.0
 11
375.5894935241
 21
241.5299990923
 31
0.0
  0
LINE
  5
18A
330
1F
100
AcDbEntity
  8
0
  6
Continuous
 62
     7
370
    25
100
AcDbLine
 10
155.478666626
 20
241.5299990923
 30
0.0
 11
155.8325261288
 21
223.8721867312
 31
0.0
  0
LINE
  5
18B
330
1F
100
AcDbEntity
  8
0
  6
Continuous
 62
     7
370
    25
100
AcDbLine
 10
225.2356340213
 20
223.8721867312
 30
0.0
 11
225.5894935241
 21
241.5299990923
 31
0.0
  0
ARC
  5
18C
330
1F
100
AcDbEntity
  8
0
  6
Continuous
 62
     7
370
    25
100
AcDbCircle
 10
308.8320138929
 20
223.9276227568
 30
0.0
 40
2.999999999999932
100
AcDbArc
 50
181.0588103613
 51
242.871805938
  0
ARC
  5
18D
330
1F
100
AcDbEntity
  8
0
  6
Continuous
 62
     7
370
    25
100
AcDbCircle
 10
372.2361462572
 20
223.9276227568
 30
0.0
 40
2.999999999999963
100
AcDbArc
 50
297.1261240583
 51
358.9411896387
  0
ARC
  5
18E
330
1F
100
AcDbEntity
  8
0
  6
Continuous
 62
     7
370
    25
100
AcDbCircle
 10
158.8320138929
 20
223.9276227568
 30
0.0
 40
3.000000000000012
100
AcDbArc
 50
181.0588103613
 51
242.871805938
  0
ARC
  5
18F
330
1F
100
AcDbEntity
  8
0
  6
Continuous
 62
     7
370
    25
100
AcDbCircle
 10
222.2361462572
 20
223.9276227568
 30
0.0
 40
3.000000000000012
100
AcDbArc
 50
297.1261240583
 51
358.9411896387
  0
ARC
  5
190
330
1F
100
AcDbEntity
  8
0
  6
Continuous
 62
     7
370
    25
100
AcDbCircle
 10
340.534080075
 20
285.4098562462
 30
0.0
 40
72.1714367731554
100
AcDbArc
 50
283.347975631
 51
297.2721316491
  0
ARC
  5
191
330
1F
100
AcDbEntity
  8
0
  6
Continuous
 62
     7
370
    25
100
AcDbCircle
 10
340.534080075
 20
285.4098562462
 30
0.0
 40
72.1714367731554
100
AcDbArc
 50
242.7288357769
 51
256.6525432609
  0
ARC
  5
192
330
1F
100
AcDbEntity
  8
0
  6
Continuous
 62
     7
370
    25
100
AcDbCircle
 10
190.534080075
 20
285.4098562462
 30
0.0
 40
72.17143677315538
100
AcDbArc
 50
283.347975631
 51
297.2721316491
  0
ARC
  5
193
330
1F
100
AcDbEntity
  8
0
  6
Continuous
 62
     7
370
    25
100
AcDbCircle
 10
190.534080075
 20
285.4098562462
 30
0.0
 40
72.17143677315539
100
AcDbArc
 50
242.7288357769
 51
256.6525432609
  0
SPLINE
  5
194
330
1F
100
AcDbEntity
  8
0
  6
Continuous
 62
     7
370
    25
100
AcDbSpline
210
0.0
220
0.0
230
1.0
 70
     8
 71
     3
 72
    18
 73
    14
 74
     0
 42
0.000000001
 43
0.00000001
 40
0.0
 40
0.0
 40
0.0
 40
0.0
 40
0.0448509887407219
 40
0.1762184264784773
 40
0.2845424063483219
 40
0.3511474697786149
 40
0.4063425316738
 40
0.5104072351497493
 40
0.6191419896152323
 40
0.679313062245383
 40
0.7514635603751227
 40
0.8687484622493455
 40
0.9999999999999999
 40
0.9999999999999999
 40
0.9999999999999999
 40
0.9999999999999999
 10
110.1494236830301
 20
137.0559257332905
 30
0.0
 10
110.2584320467203
 20
137.1411242653093
 30
0.0
 10
110.6867232140238
 20
137.4758671923248
 30
0.0
 10
111.6161202704241
 20
137.8798825840702
 30
0.0
 10
112.7687822251867
 20
138.2795511869816
 30
0.0
 10
113.8091966392717
 20
138.554728775249
 30
0.0
 10
115.0082494342241
 20
138.8283886074159
 30
0.0
 10
116.8358983433455
 20
139.1574074855014
 30
0.0
 10
119.0828222627098
 20
139.42996919236
 30
0.0
 10
121.1808550710669
 20
139.6168406189244
 30
0.0
 10
123.3924060897918
 20
139.7665161623027
 30
0.0
 10
126.264275440337
 20
139.8895675022515
 30
0.0
 10
128.5014495460965
 20
139.9101560662001
 30
0.0
 10
129.6828961864366
 20
139.9210288407615
 30
0.0
  0
SPLINE
  5
195
330
1F
100
AcDbEntity
  8
0
  6
Continuous
 62
     7
370
    25
100
AcDbSpline
210
0.0
220
0.0
230
1.0
 70
     8
 71
     3
 72
     9
 73
     5
 74
     0
 42
0.000000001
 43
0.00000001
 40
0.0
 40
0.0
 40
0.0
 40
0.0
 40
0.5322933455346335
 40
1.0
 40
1.0
 40
1.0
 40
1.0
 10
102.1940954590743
 20
186.9911321503577
 30
0.0
 10
101.9427651488654
 20
185.6539905927218
 30
0.0
 10
101.4706001061921
 20
183.1419517538877
 30
0.0
 10
101.1751362302623
 20
180.3722075430512
 30
0.0
 10
101.0369458093358
 20
179.076779744476
 30
0.0
  0
LINE
  5
196
330
1F
100
AcDbEntity
  8
0
  6
Continuous
 62
     7
370
    25
100
AcDbLine
 10
136.7030193
 20
142.1299990923
 30
0.0
 11
138.534080075
 21
142.1299990923
 31
0.0
  0
LINE
  5
197
330
1F
100
AcDbEntity
  8
0
  6
Continuous
 62
     7
370
    25
100
AcDbLine
 10
138.534080075
 20
185.1299990923
 30
0.0
 11
136.7030193
 21
185.1299990923
 31
0.0
  0
ARC
  5
198
330
1F
100
AcDbEntity
  8
0
  6
Continuous
 62
     7
370
    25
100
AcDbCircle
 10
136.7030193
 20
175.1299990923
 30
0.0
 40
10.00000000000003
100
AcDbArc
 50
90.0
 51
99.0468459803
  0
ARC
  5
199
330
1F
100
AcDbEntity
  8
0
  6
Continuous
 62
     7
370
    25
100
AcDbCircle
 10
136.7030193
 20
152.1299990923
 30
0.0
 40
10.00000000000003
100
AcDbArc
 50
260.9531540197
 51
270.0
  0
ARC
  5
19A
330
1F
100
AcDbEntity
  8
0
  6
Continuous
 62
     7
370
    25
100
AcDbCircle
 10
138.534080075
 20
163.6299990923
 30
0.0
 40
21.64486082191339
100
AcDbArc
 50
253.8010788893
 51
260.9531540197
  0
ARC
  5
19B
330
1F
100
AcDbEntity
  8
0
  6
Continuous
 62
     7
370
    25
100
AcDbCircle
 10
138.534080075
 20
163.6299990923
 30
0.0
 40
21.64486082191337
100
AcDbArc
 50
99.0468459803
 51
111.401343502
  0
ARC
  5
19C
330
1F
100
AcDbEntity
  8
0
  6
Continuous
 62
     7
370
    25
100
AcDbCircle
 10
325.2532881207
 20
221.0299861182
 30
0.0
 40
6.004529102111664
100
AcDbArc
 50
256.704740274
 51
267.7712942159
  0
ARC
  5
19D
330
1F
100
AcDbEntity
  8
0
  6
Continuous
 62
     7
370
    25
100
AcDbCircle
 10
355.8148720293
 20
221.0299861182
 30
0.0
 40
6.004529102111661
100
AcDbArc
 50
272.2287057841
 51
283.2918241779
  0
ARC
  5
19E
330
1F
100
AcDbEntity
  8
0
  6
Continuous
 62
     7
370
    25
100
AcDbCircle
 10
175.2532881207
 20
221.0299861182
 30
0.0
 40
6.00452910211168
100
AcDbArc
 50
256.704740274
 51
267.771294216
  0
ARC
  5
19F
330
1F
100
AcDbEntity
  8
0
  6
Continuous
 62
     7
370
    25
100
AcDbCircle
 10
205.8148720293
 20
221.0299861182
 30
0.0
 40
6.004529102111652
100
AcDbArc
 50
272.228705784
 51
283.2918241779
  0
SPLINE
  5
1A0
330
1F
100
AcDbEntity
  8
0
  6
Continuous
 62
     7
370
    25
100
AcDbSpline
210
0.0
220
0.0
230
1.0
 70
     8
 71
     3
 72
    21
 73
    17
 74
     0
 42
0.000000001
 43
0.00000001
 40
0.0
 40
0.0
 40
0.0
 40
0.0
 40
0.0878182513335954
 40
0.2060252827141225
 40
0.3099306835994867
 40
0.4310811196790297
 40
0.4745424378598521
 40
0.5073634581574885
 40
0.53683840060538
 40
0.5721049787276937
 40
0.6159681855800284
 40
0.6704759790544879
 40
0.7365064239945844
 40
0.8155816606339501
 40
0.911725083914431
 40
1.0
 40
1.0
 40
1.0
 40
1.0
 10
387.0021713603589
 20
164.6589169527454
 30
0.0
 10
387.0002700577173
 20
165.1848691345667
 30
0.0
 10
386.9958095223694
 20
166.4187749036785
 30
0.0
 10
386.9766901828757
 20
167.9652532528787
 30
0.0
 10
386.9514499698296
 20
169.5836195228246
 30
0.0
 10
386.9265244257678
 20
170.8196657053735
 30
0.0
 10
386.9006803914066
 20
171.9070374436981
 30
0.0
 10
386.8823746573329
 20
172.6138631423436
 30
0.0
 10
386.8608748319381
 20
173.3732606470323
 30
0.0
 10
386.8355230283855
 20
174.1836070012834
 30
0.0
 10
386.8042676288447
 20
175.07138209103
 30
0.0
 10
386.7669630894031
 20
176.0028881116237
 30
0.0
 10
386.7234020009587
 20
176.9686860093285
 30
0.0
 10
386.6746612713465
 20
177.9120267965723
 30
0.0
 10
386.632846030514
 20
178.7012726020004
 30
0.0
 10
386.6052208896946
 20
179.0118322903679
 30
0.0
 10
386.591997654977
 20
179.1604868684562
 30
0.0
  0
LINE
  5
1A1
330
1F
100
AcDbEntity
  8
0
  6
Continuous
 62
     7
370
    25
100
AcDbLine
 10
386.5919908914
 20
148.0994266365
 30
0.0
 11
386.6207190088
 21
148.4591025163
 31
0.0
  0
LINE
  5
1A2
330
1F
100
AcDbEntity
  8
0
  6
Continuous
 62
     7
370
    25
100
AcDbLine
 10
386.9961936977
 20
161.3226247043
 30
0.0
 11
387.0021713604
 21
162.6010812363
 31
0.0
  0
LINE
  5
1A3
330
1F
100
AcDbEntity
  8
0
  6
Continuous
 62
     7
370
    25
100
AcDbLine
 10
324.534080075
 20
215.0299990923
 30
0.0
 11
324.534080075
 21
198.0299990923
 31
0.0
  0
LINE
  5
1A4
330
1F
100
AcDbEntity
  8
0
  6
Continuous
 62
     7
370
    25
100
AcDbLine
 10
174.534080075
 20
215.0299990923
 30
0.0
 11
174.534080075
 21
198.0299990923
 31
0.0
  0
LINE
  5
1A5
330
1F
100
AcDbEntity
  8
0
  6
Continuous
 62
     7
370
    25
100
AcDbLine
 10
356.534080075
 20
198.0299990923
 30
0.0
 11
356.534080075
 21
215.0299990923
 31
0.0
  0
LINE
  5
1A6
330
1F
100
AcDbEntity
  8
0
  6
Continuous
 62
     7
370
    25
100
AcDbLine
 10
206.534080075
 20
198.0299990923
 30
0.0
 11
206.534080075
 21
215.0299990923
 31
0.0
  0
LINE
  5
1A7
330
1F
100
AcDbEntity
  8
0
  6
Continuous
 62
     7
370
    25
100
AcDbLine
 10
129.6828362856
 20
139.9232793032
 30
0.0
 11
132.2494546207
 21
139.9253174912
 31
0.0
  0
SPLINE
  5
1A8
330
1F
100
AcDbEntity
  8
0
  6
Continuous
 62
     7
370
    25
100
AcDbSpline
210
0.0
220
0.0
230
1.0
 70
     8
 71
     3
 72
    11
 73
     7
 74
     0
 42
0.000000001
 43
0.00000001
 40
0.0
 40
0.0
 40
0.0
 40
0.0
 40
0.2676183843666273
 40
0.5231120249772632
 40
0.7670383300317737
 40
1.0
 40
1.0
 40
1.0
 40
1.0
 10
100.3320538544446
 20
158.5480272580681
 30
0.0
 10
100.332897596848
 20
157.582171860468
 30
0.0
 10
100.334546854982
 20
155.6942202009823
 30
0.0
 10
100.3420307145676
 20
153.3691059207245
 30
0.0
 10
100.3465626534564
 20
151.4642593148652
 30
0.0
 10
100.3470567631511
 20
150.5706287145914
 30
0.0
 10
100.3472981376995
 20
150.1340866169121
 30
0.0
  0
SPLINE
  5
1A9
330
1F
100
AcDbEntity
  8
0
  6
Continuous
 62
     7
370
    25
100
AcDbSpline
210
0.0
220
0.0
230
1.0
 70
     8
 71
     3
 72
     9
 73
     5
 74
     0
 42
0.000000001
 43
0.00000001
 40
0.0
 40
0.0
 40
0.0
 40
0.0
 40
0.5304938645129517
 40
1.0
 40
1.0
 40
1.0
 40
1.0
 10
100.3353774126142
 20
147.6330516829484
 30
0.0
 10
100.333595168707
 20
146.7720383953929
 30
0.0
 10
100.3302355748899
 20
145.1489974044361
 30
0.0
 10
100.3612214772823
 20
143.5359427802301
 30
0.0
 10
100.3757695485691
 20
142.7786037372896
 30
0.0
  0
LINE
  5
1AA
330
1F
100
AcDbEntity
  8
0
  6
Continuous
 62
     7
370
    25
100
AcDbLine
 10
180.034080075
 20
198.0299990923
 30
0.0
 11
180.034080075
 21
187.6269369954
 31
0.0
  0
LINE
  5
1AB
330
1F
100
AcDbEntity
  8
0
  6
Continuous
 62
     7
370
    25
100
AcDbLine
 10
201.034080075
 20
187.6269369954
 30
0.0
 11
201.034080075
 21
198.0299990923
 31
0.0
  0
LINE
  5
1AC
330
1F
100
AcDbEntity
  8
0
  6
Continuous
 62
     7
370
    25
100
AcDbLine
 10
330.034080075
 20
198.0299990923
 30
0.0
 11
330.034080075
 21
187.6269369954
 31
0.0
  0
LINE
  5
1AD
330
1F
100
AcDbEntity
  8
0
  6
Continuous
 62
     7
370
    25
100
AcDbLine
 10
351.034080075
 20
187.6269369954
 30
0.0
 11
351.034080075
 21
198.0299990923
 31
0.0
  0
SPLINE
  5
1AE
330
1F
100
AcDbEntity
  8
0
  6
Continuous
 62
     7
370
    25
100
AcDbSpline
210
0.0
220
0.0
230
1.0
 70
     8
 71
     3
 72
    14
 73
    10
 74
     0
 42
0.000000001
 43
0.00000001
 40
0.0
 40
0.0
 40
0.0
 40
0.0
 40
0.1521535779342131
 40
0.2940408581289032
 40
0.4283542593264926
 40
0.5558403610504657
 40
0.7913136195738575
 40
0.9005002310276213
 40
1.0
 40
1.0
 40
1.0
 40
1.0
 10
113.5313108772602
 20
190.3915765759577
 30
0.0
 10
112.7719500419305
 20
190.3905146851829
 30
0.0
 10
111.3044649214268
 20
190.3884625528646
 30
0.0
 10
109.1850686716638
 20
190.2634219894214
 30
0.0
 10
107.3221712776662
 20
190.0081246835981
 30
0.0
 10
105.255210015143
 20
189.5500517678505
 30
0.0
 10
103.6382456683131
 20
188.905689444635
 30
0.0
 10
102.6077636913765
 20
188.0238454680531
 30
0.0
 10
102.3730153768625
 20
187.5105064614237
 30
0.0
 10
102.2610895146519
 20
187.2657510899431
 30
0.0
  0
SPLINE
  5
1AF
330
1F
100
AcDbEntity
  8
0
  6
Continuous
 62
     7
370
    25
100
AcDbSpline
210
0.0
220
0.0
230
1.0
 70
     8
 71
     3
 72
     9
 73
     5
 74
     0
 42
0.000000001
 43
0.00000001
 40
0.0
 40
0.0
 40
0.0
 40
0.0
 40
0.4924885929514473
 40
1.0
 40
1.0
 40
1.0
 40
1.0
 10
127.2586560191476
 20
190.3835259807942
 30
0.0
 10
125.0049571446986
 20
190.3840641168709
 30
0.0
 10
120.4288128304865
 20
190.3851568042638
 30
0.0
 10
115.8526695745688
 20
190.3851067153464
 30
0.0
 10
113.5302246719023
 20
190.3850812946496
 30
0.0
  0
SPLINE
  5
1B0
330
1F
100
AcDbEntity
  8
0
  6
Continuous
 62
     7
370
    25
100
AcDbSpline
210
0.0
220
0.0
230
1.0
 70
     8
 71
     3
 72
    10
 73
     6
 74
     0
 42
0.000000001
 43
0.00000001
 40
0.0
 40
0.0
 40
0.0
 40
0.0
 40
0.3325016763024674
 40
0.7252133877555264
 40
0.9999999999999999
 40
0.9999999999999999
 40
0.9999999999999999
 40
0.9999999999999999
 10
127.5863639943746
 20
190.2672351390995
 30
0.0
 10
127.5613809186736
 20
190.2878769483743
 30
0.0
 10
127.5068907844669
 20
190.3328984249577
 30
0.0
 10
127.4023811819591
 20
190.3859665386787
 30
0.0
 10
127.3233550690865
 20
190.3798761689584
 30
0.0
 10
127.290822676024
 20
190.3773689685604
 30
0.0
  0
SPLINE
  5
1B1
330
1F
100
AcDbEntity
  8
0
  6
Continuous
 62
     7
370
    25
100
AcDbSpline
210
0.0
220
0.0
230
1.0
 70
     8
 71
     3
 72
    12
 73
     8
 74
     0
 42
0.000000001
 43
0.00000001
 40
0.0
 40
0.0
 40
0.0
 40
0.0
 40
0.2085849291652626
 40
0.4012907650233819
 40
0.5961615888118535
 40
0.7953037961296798
 40
1.0
 40
1.0
 40
1.0
 40
1.0
 10
108.6035123593729
 20
135.8651516189412
 30
0.0
 10
108.6205844283832
 20
135.8523956131064
 30
0.0
 10
108.6534289088598
 20
135.8278546869686
 30
0.0
 10
108.8222088205064
 20
135.9468432043808
 30
0.0
 10
109.055367106159
 20
136.1631025717227
 30
0.0
 10
109.3932900773682
 20
136.4999639510611
 30
0.0
 10
109.7608057451501
 20
136.8004387678691
 30
0.0
 10
109.9470908036626
 20
136.9527423939117
 30
0.0
  0
LINE
  5
1B2
330
1F
100
AcDbEntity
  8
0
  6
Continuous
 62
     7
370
    25
100
AcDbLine
 10
108.1415226615
 20
130.2178890602
 30
0.0
 11
108.6448176779
 21
135.8594972994
 31
0.0
  0
SPLINE
  5
1B3
330
1F
100
AcDbEntity
  8
0
  6
Continuous
 62
     7
370
    25
100
AcDbSpline
210
0.0
220
0.0
230
1.0
 70
     8
 71
     3
 72
    11
 73
     7
 74
     0
 42
0.000000001
 43
0.00000001
 40
0.0
 40
0.0
 40
0.0
 40
0.0
 40
0.2418853080159638
 40
0.4904911090277864
 40
0.7446170421553168
 40
1.0
 40
1.0
 40
1.0
 40
1.0
 10
100.3625977132462
 20
143.1817458626796
 30
0.0
 10
100.4051296940035
 20
141.4800105620436
 30
0.0
 10
100.4913753555607
 20
138.0292592877018
 30
0.0
 10
100.9043921958588
 20
132.8373990816387
 30
0.0
 10
101.4653789586228
 20
127.6275331396998
 30
0.0
 10
101.9371687478439
 20
124.2169577626721
 30
0.0
 10
102.1736456258475
 20
122.5074629075861
 30
0.0
  0
SPLINE
  5
1B4
330
1F
100
AcDbEntity
  8
0
  6
Continuous
 62
     7
370
    25
100
AcDbSpline
210
0.0
220
0.0
230
1.0
 70
     8
 71
     3
 72
    13
 73
     9
 74
     0
 42
0.000000001
 43
0.00000001
 40
0.0
 40
0.0
 40
0.0
 40
0.0
 40
0.238483739786906
 40
0.3673477048512321
 40
0.4991890391752792
 40
0.6311598434363693
 40
0.7603887039262542
 40
1.0
 40
1.0
 40
1.0
 40
1.0
 10
102.153900535105
 20
122.646822397423
 30
0.0
 10
102.1978401530847
 20
122.4743070220047
 30
0.0
 10
102.2655224102957
 20
122.2085734870136
 30
0.0
 10
102.4894105543258
 20
121.9104809720452
 30
0.0
 10
102.7055508031676
 20
121.7155718145063
 30
0.0
 10
102.9593472024553
 20
121.5730189745668
 30
0.0
 10
103.3140470748739
 20
121.456337802953
 30
0.0
 10
103.5872519920998
 20
121.4790830434972
 30
0.0
 10
103.7647353358877
 20
121.4938591367975
 30
0.0
  0
SPLINE
  5
1B5
330
1F
100
AcDbEntity
  8
0
  6
Continuous
 62
     7
370
    25
100
AcDbSpline
210
0.0
220
0.0
230
1.0
 70
     8
 71
     3
 72
    15
 73
    11
 74
     0
 42
0.000000001
 43
0.00000001
 40
0.0
 40
0.0
 40
0.0
 40
0.0
 40
0.0341401112216986
 40
0.1165221558713638
 40
0.2547097505249917
 40
0.4318451664270459
 40
0.5112272956861189
 40
0.6264769992868523
 40
0.7886862507539322
 40
1.0
 40
1.0
 40
1.0
 40
1.0
 10
103.7770373018825
 20
121.5146478883704
 30
0.0
 10
103.8893417521891
 20
121.5329984271719
 30
0.0
 10
104.2726432762731
 20
121.5956298676107
 30
0.0
 10
104.9629592256482
 20
121.9105737030614
 30
0.0
 10
105.860546517575
 20
122.6039977568375
 30
0.0
 10
106.4575712046622
 20
123.4491836274469
 30
0.0
 10
106.9972637784239
 20
124.5793488992414
 30
0.0
 10
107.3927158495897
 20
125.7448959140175
 30
0.0
 10
107.777289182098
 20
127.3866865996057
 30
0.0
 10
107.9406689620897
 20
128.5753994971993
 30
0.0
 10
108.0330980596156
 20
129.2478918970999
 30
0.0
  0
SPLINE
  5
1B6
330
1F
100
AcDbEntity
  8
0
  6
Continuous
 62
     7
370
    25
100
AcDbSpline
210
0.0
220
0.0
230
1.0
 70
     8
 71
     3
 72
     9
 73
     5
 74
     0
 42
0.000000001
 43
0.00000001
 40
0.0
 40
0.0
 40
0.0
 40
0.0
 40
0.4985784916415387
 40
1.0
 40
1.0
 40
1.0
 40
1.0
 10
108.0231500267505
 20
129.1686519721612
 30
0.0
 10
108.0287906337805
 20
129.2132306052766
 30
0.0
 10
108.0401040119639
 20
129.3026420697956
 30
0.0
 10
108.0507886265893
 20
129.3921769709152
 30
0.0
 10
108.056146122171
 20
129.4370716960853
 30
0.0
  0
LINE
  5
1B7
330
1F
100
AcDbEntity
  8
0
  6
Continuous
 62
     7
370
    25
100
AcDbLine
 10
340.534080075
 20
241.5299990923
 30
0.0
 11
305.478666626
 21
241.5299990923
 31
0.0
  0
LINE
  5
1B8
330
1F
100
AcDbEntity
  8
0
  6
Continuous
 62
     7
370
    25
100
AcDbLine
 10
375.5894935241
 20
241.5299990923
 30
0.0
 11
340.534080075
 21
241.5299990923
 31
0.0
  0
LINE
  5
1B9
330
1F
100
AcDbEntity
  8
0
  6
Continuous
 62
     7
370
    25
100
AcDbLine
 10
190.534080075
 20
241.5299990923
 30
0.0
 11
155.478666626
 21
241.5299990923
 31
0.0
  0
LINE
  5
1BA
330
1F
100
AcDbEntity
  8
0
  6
Continuous
 62
     7
370
    25
100
AcDbLine
 10
225.5894935241
 20
241.5299990923
 30
0.0
 11
190.534080075
 21
241.5299990923
 31
0.0
  0
SPLINE
  5
1BB
330
1F
100
AcDbEntity
  8
0
  6
Continuous
 62
     7
370
    25
100
AcDbSpline
210
0.0
220
0.0
230
1.0
 70
     8
 71
     3
 72
     8
 73
     4
 74
     0
 42
0.000000001
 43
0.00000001
 40
0.0
 40
0.0
 40
0.0
 40
0.0
 40
1.0
 40
1.0
 40
1.0
 40
1.0
 10
129.9709155956035
 20
187.864384068602
 30
0.0
 10
129.206269624731
 20
188.6435251176245
 30
0.0
 10
128.4411980466703
 20
189.3608412386299
 30
0.0
 10
127.6761628384915
 20
190.065186951205
 30
0.0
  0
SPLINE
  5
1BC
330
1F
100
AcDbEntity
  8
0
  6
Continuous
 62
     7
370
    25
100
AcDbSpline
210
0.0
220
0.0
230
1.0
 70
     8
 71
     3
 72
     8
 73
     4
 74
     0
 42
0.000000001
 43
0.00000001
 40
0.0
 40
0.0
 40
0.0
 40
0.0
 40
1.0
 40
1.0
 40
1.0
 40
1.0
 10
131.1782394328495
 20
186.5701247091461
 30
0.0
 10
130.776139577268
 20
187.02598817338
 30
0.0
 10
130.3736513762384
 20
187.4540446054155
 30
0.0
 10
129.9709152736307
 20
187.8643503281215
 30
0.0
  0
LWPOLYLINE
  5
1BD
330
1F
100
AcDbEntity
  8
0
  6
Continuous
 62
     7
370
    25
100
AcDbPolyline
 90
       21
 70
   128
 43
0.0
 10
130.6359003148
 20
183.7823874488
 10
130.4641011765
 20
183.7039672397
 10
129.7872308523
 20
183.1635730971
 10
129.1593402882
 20
182.2775941066
 10
128.5912938199
 20
181.0613602852
 10
128.0929203056
 20
179.5359160205
 10
127.6728430587
 20
177.727655941
 10
127.338330639
 20
175.6678682129
 10
127.0951710857
 20
173.392193163
 10
126.9475717674
 20
170.9400065977
 10
126.8980865819
 20
168.3537384867
 10
126.9475717674
 20
165.678138801
 10
127.0951710857
 20
162.9595032078
 10
127.338330639
 20
160.2448720212
 10
127.6728430587
 20
157.581216267
 10
128.0929203056
 20
155.014624948
 10
128.5912938199
 20
152.5895075692
 10
129.1593402882
 20
150.3478257245
 10
129.7872308523
 20
148.3283670389
 10
130.4641011765
 20
146.5660740294
 10
131.1782394328
 20
145.0914394977
  0
SPLINE
  5
1BE
330
1F
100
AcDbEntity
  8
0
  6
Continuous
 62
     7
370
    25
100
AcDbSpline
210
0.0
220
0.0
230
1.0
 70
    24
 71
     3
 72
     8
 73
     4
 74
     0
 42
0.000000001
 43
0.00000001
 40
0.033864018043914
 40
0.033864018043914
 40
0.033864018043914
 40
0.033864018043914
 40
1.0
 40
1.0
 40
1.0
 40
1.0
 10
138.5340800750084
 20
140.3228269816184
 30
0.0
 10
138.5340800750084
 20
146.966850903863
 30
0.0
 10
138.5340800750085
 20
155.1721740952007
 30
0.0
 10
138.5340800750085
 20
163.6299990922544
 30
0.0
  0
SPLINE
  5
1BF
330
1F
100
AcDbEntity
  8
0
  6
Continuous
 62
     7
370
    25
100
AcDbSpline
210
0.0
220
0.0
230
1.0
 70
    24
 71
     3
 72
     8
 73
     4
 74
     0
 42
0.000000001
 43
0.00000001
 40
0.0338640180439134
 40
0.0338640180439134
 40
0.0338640180439134
 40
0.0338640180439134
 40
1.0
 40
1.0
 40
1.0
 40
1.0
 10
138.5340800750085
 20
163.6299990922544
 30
0.0
 10
138.5340800750085
 20
172.0878240893082
 30
0.0
 10
138.5340800750085
 20
180.2931472806458
 30
0.0
 10
138.5340800750085
 20
186.9371712028904
 30
0.0
  0
SPLINE
  5
1C0
330
1F
100
AcDbEntity
  8
0
  6
Continuous
 62
     7
370
    25
100
AcDbSpline
210
0.0
220
0.0
230
1.0
 70
     8
 71
     3
 72
    10
 73
     6
 74
     0
 42
0.000000001
 43
0.00000001
 40
0.0
 40
0.0
 40
0.0
 40
0.0
 40
0.4530244011289241
 40
0.9059366309875782
 40
1.0
 40
1.0
 40
1.0
 40
1.0
 10
100.3340800750084
 20
166.2154742578519
 30
0.0
 10
100.3680377924739
 20
168.2215979220942
 30
0.0
 10
100.4359448192919
 20
172.2333485236051
 30
0.0
 10
100.7181782629864
 20
176.4549118021501
 30
0.0
 10
100.974699665495
 20
178.5329825051336
 30
0.0
 10
101.0188136394885
 20
178.8903482299888
 30
0.0
  0
SPLINE
  5
1C1
330
1F
100
AcDbEntity
  8
0
  6
Continuous
 62
     7
370
    25
100
AcDbSpline
210
0.0
220
0.0
230
1.0
 70
     8
 71
     3
 72
     9
 73
     5
 74
     0
 42
0.000000001
 43
0.00000001
 40
0.0
 40
0.0
 40
0.0
 40
0.0
 40
0.3487377048772092
 40
1.0
 40
1.0
 40
1.0
 40
1.0
 10
102.3007105377233
 20
187.2862957408876
 30
0.0
 10
102.273034414557
 20
187.2490142481293
 30
0.0
 10
102.193673557445
 20
187.1421101415849
 30
0.0
 10
102.1980145063713
 20
187.0499937816756
 30
0.0
 10
102.200841602732
 20
186.9900018697026
 30
0.0
  0
SPLINE
  5
1C2
330
1F
100
AcDbEntity
  8
0
  6
Continuous
 62
     7
370
    25
100
AcDbSpline
210
0.0
220
0.0
230
1.0
 70
     8
 71
     3
 72
    10
 73
     6
 74
     0
 42
0.000000001
 43
0.00000001
 40
0.0
 40
0.0
 40
0.0
 40
0.0
 40
0.4654640860789058
 40
0.7615885251864986
 40
1.0
 40
1.0
 40
1.0
 40
1.0
 10
131.1782394328495
 20
145.0914394977402
 30
0.0
 10
131.50976796551
 20
144.5015987763216
 30
0.0
 10
132.0522122352131
 20
143.5365062191184
 30
0.0
 10
132.4260167782819
 20
142.9274276317284
 30
0.0
 10
132.4798545950816
 20
142.8893395269485
 30
0.0
 10
132.5038671131738
 20
142.8723516296025
 30
0.0
  0
SPLINE
  5
1C3
330
1F
100
AcDbEntity
  8
0
  6
Continuous
 62
     7
370
    25
100
AcDbSpline
210
0.0
220
0.0
230
1.0
 70
     8
 71
     3
 72
     9
 73
     5
 74
     0
 42
0.000000001
 43
0.00000001
 40
0.0
 40
0.0
 40
0.0
 40
0.0
 40
0.5000000000000511
 40
1.0
 40
1.0
 40
1.0
 40
1.0
 10
344.495578012099
 20
215.0299990922552
 30
0.0
 10
344.3213171751462
 20
215.0285951092455
 30
0.0
 10
343.972795501241
 20
215.0257871432259
 30
0.0
 10
343.6242625854101
 20
215.0255670584639
 30
0.0
 10
343.4499961274947
 20
215.025457016083
 30
0.0
  0
LINE
  5
1C4
330
1F
100
AcDbEntity
  8
0
  6
Continuous
 62
     7
370
    25
100
AcDbLine
 10
343.4499961275
 20
215.0254570161
 30
0.0
 11
337.6181640225
 21
215.0254570161
 31
0.0
  0
SPLINE
  5
1C5
330
1F
100
AcDbEntity
  8
0
  6
Continuous
 62
     7
370
    25
100
AcDbSpline
210
0.0
220
0.0
230
1.0
 70
     8
 71
     3
 72
     9
 73
     5
 74
     0
 42
0.000000001
 43
0.00000001
 40
0.0
 40
0.0
 40
0.0
 40
0.0
 40
0.5000000000000715
 40
1.0
 40
1.0
 40
1.0
 40
1.0
 10
337.618164022523
 20
215.025457016083
 30
0.0
 10
337.4438975646077
 20
215.0255670584639
 30
0.0
 10
337.095364648777
 20
215.0257871432259
 30
0.0
 10
336.746842974872
 20
215.0285951092455
 30
0.0
 10
336.5725821379195
 20
215.0299990922553
 30
0.0
  0
SPLINE
  5
1C6
330
1F
100
AcDbEntity
  8
0
  6
Continuous
 62
     7
370
    25
100
AcDbSpline
210
0.0
220
0.0
230
1.0
 70
     8
 71
     3
 72
     9
 73
     5
 74
     0
 42
0.000000001
 43
0.00000001
 40
0.0
 40
0.0
 40
0.0
 40
0.0
 40
0.5000000000000209
 40
1.0
 40
1.0
 40
1.0
 40
1.0
 10
194.4709305877034
 20
215.0299990922553
 30
0.0
 10
194.295181876924
 20
215.028593736267
 30
0.0
 10
193.9436844553653
 20
215.0257830242905
 30
0.0
 10
193.5921758633961
 20
215.0255656854854
 30
0.0
 10
193.4164215674115
 20
215.0254570160829
 30
0.0
  0
LINE
  5
1C7
330
1F
100
AcDbEntity
  8
0
  6
Continuous
 62
     7
370
    25
100
AcDbLine
 10
193.4164215674
 20
215.0254570161
 30
0.0
 11
187.6517385826
 21
215.0254570161
 31
0.0
  0
SPLINE
  5
1C8
330
1F
100
AcDbEntity
  8
0
  6
Continuous
 62
     7
370
    25
100
AcDbSpline
210
0.0
220
0.0
230
1.0
 70
     8
 71
     3
 72
     9
 73
     5
 74
     0
 42
0.000000001
 43
0.00000001
 40
0.0
 40
0.0
 40
0.0
 40
0.0
 40
0.5000000000000056
 40
1.0
 40
1.0
 40
1.0
 40
1.0
 10
187.651738582605
 20
215.0254570160829
 30
0.0
 10
187.4759842866205
 20
215.0255656854854
 30
0.0
 10
187.1244756946515
 20
215.0257830242905
 30
0.0
 10
186.7729782730927
 20
215.028593736267
 30
0.0
 10
186.5972295623134
 20
215.0299990922553
 30
0.0
  0
SPLINE
  5
1C9
330
1F
100
AcDbEntity
  8
0
  6
Continuous
 62
     7
370
    25
100
AcDbSpline
210
0.0
220
0.0
230
1.0
 70
     8
 71
     3
 72
    50
 73
    46
 74
     0
 42
0.000000001
 43
0.00000001
 40
0.0
 40
0.0
 40
0.0
 40
0.0
 40
0.0625000000000006
 40
0.0625000000000006
 40
0.1250000000000013
 40
0.1250000000000013
 40
0.1875000000000019
 40
0.1875000000000019
 40
0.2187500000000022
 40
0.2187500000000022
 40
0.2343750000000024
 40
0.2343750000000024
 40
0.2500000000000026
 40
0.2500000000000026
 40
0.3125000000000031
 40
0.3125000000000031
 40
0.3437500000000033
 40
0.3437500000000033
 40
0.3750000000000036
 40
0.3750000000000036
 40
0.4062500000000039
 40
0.4062500000000039
 40
0.4375000000000041
 40
0.4375000000000041
 40
0.4687500000000044
 40
0.4687500000000044
 40
0.4843750000000044
 40
0.4843750000000044
 40
0.5000000000000043
 40
0.5000000000000043
 40
0.5312500000000041
 40
0.5312500000000041
 40
0.5625000000000039
 40
0.5625000000000039
 40
0.6250000000000032
 40
0.6250000000000032
 40
0.6406250000000031
 40
0.6406250000000031
 40
0.6562500000000029
 40
0.6562500000000029
 40
0.6875000000000028
 40
0.6875000000000028
 40
0.7500000000000022
 40
0.7500000000000022
 40
1.0
 40
1.0
 40
1.0
 40
1.0
 10
366.3882869699352
 20
187.6267627095069
 30
0.0
 10
367.2283355391262
 20
187.6301404413282
 30
0.0
 10
368.0683817712525
 20
187.6297209418194
 30
0.0
 10
369.7484420047481
 20
187.6295930898784
 30
0.0
 10
370.5884710343738
 20
187.6294931341575
 30
0.0
 10
372.2685266394863
 20
187.6292004394902
 30
0.0
 10
373.1085515332408
 20
187.6290070670203
 30
0.0
 10
374.3685904543061
 20
187.6286188067206
 30
0.0
 10
374.7886144275851
 20
187.6284778595653
 30
0.0
 10
375.4185790906247
 20
187.6282081073088
 30
0.0
 10
375.6286619399411
 20
187.6290036764095
 30
0.0
 10
376.0481738471556
 20
187.6252954259199
 30
0.0
 10
376.2575817847661
 20
187.6207054668255
 30
0.0
 10
377.3027299613236
 20
187.582819914366
 30
0.0
 10
378.1329683445851
 20
187.5060373676944
 30
0.0
 10
379.3654699094493
 20
187.2893632375852
 30
0.0
 10
379.7741454852533
 20
187.2001291466746
 30
0.0
 10
380.5860973346547
 20
186.9790910072949
 30
0.0
 10
380.9876437764577
 20
186.8473115144699
 30
0.0
 10
381.7649641100116
 20
186.5381506489652
 30
0.0
 10
382.1427799049729
 20
186.360404505903
 30
0.0
 10
382.8727068751075
 20
185.9499915815172
 30
0.0
 10
383.2277699230568
 20
185.7143581171185
 30
0.0
 10
383.8861767419374
 20
185.1923651162757
 30
0.0
 10
384.1910293823874
 20
184.9069882468928
 30
0.0
 10
384.6105056965266
 20
184.4410785428027
 30
0.0
 10
384.7439313122684
 20
184.2793688386103
 30
0.0
 10
384.997494420113
 20
183.942649211559
 30
0.0
 10
385.1179419150058
 20
183.7672429253543
 30
0.0
 10
385.4540735834898
 20
183.231635493556
 30
0.0
 10
385.6471462703973
 20
182.859323960168
 30
0.0
 10
385.9774382226748
 20
182.0872800712552
 30
0.0
 10
386.1150759217683
 20
181.6850033985334
 30
0.0
 10
386.4483894852634
 20
180.4681506710427
 30
0.0
 10
386.5692665075644
 20
179.6398471471871
 30
0.0
 10
386.6342847089106
 20
178.5898799261745
 30
0.0
 10
386.643367060834
 20
178.3791950113002
 30
0.0
 10
386.6637848550511
 20
177.9581633214932
 30
0.0
 10
386.6737741987826
 20
177.7476169517716
 30
0.0
 10
386.7030722473741
 20
177.1159876813016
 30
0.0
 10
386.7217162913403
 20
176.6948633092646
 30
0.0
 10
386.7749832964475
 20
175.4313793571659
 30
0.0
 10
386.8069441150623
 20
174.588905775288
 30
0.0
 10
386.9490077886956
 20
170.3757838026
 30
0.0
 10
387.005651941164
 20
167.002944747996
 30
0.0
 10
387.005651941164
 20
163.6299990922544
 30
0.0
  0
SPLINE
  5
1CA
330
1F
100
AcDbEntity
  8
0
  6
Continuous
 62
     7
370
    25
100
AcDbSpline
210
0.0
220
0.0
230
1.0
 70
     8
 71
     3
 72
    46
 73
    42
 74
     0
 42
0.000000001
 43
0.00000001
 40
0.0
 40
0.0
 40
0.0
 40
0.0
 40
0.2499999999999983
 40
0.2499999999999983
 40
0.3124999999999978
 40
0.3124999999999978
 40
0.3437499999999973
 40
0.3437499999999973
 40
0.3593749999999973
 40
0.3593749999999973
 40
0.3749999999999973
 40
0.3749999999999973
 40
0.4374999999999977
 40
0.4374999999999977
 40
0.468749999999998
 40
0.468749999999998
 40
0.4999999999999982
 40
0.4999999999999982
 40
0.5312499999999984
 40
0.5312499999999984
 40
0.5624999999999987
 40
0.5624999999999987
 40
0.5937499999999989
 40
0.5937499999999989
 40
0.6249999999999991
 40
0.6249999999999991
 40
0.6874999999999994
 40
0.6874999999999994
 40
0.7499999999999997
 40
0.7499999999999997
 40
0.7812499999999997
 40
0.7812499999999997
 40
0.8124999999999997
 40
0.8124999999999997
 40
0.8749999999999998
 40
0.8749999999999998
 40
0.9375
 40
0.9375
 40
0.96875
 40
0.96875
 40
1.0
 40
1.0
 40
1.0
 40
1.0
 10
387.005651941164
 20
163.6299990922544
 30
0.0
 10
387.005651941164
 20
160.2564072937437
 30
0.0
 10
386.9489853709628
 20
156.8829055732482
 30
0.0
 10
386.8068683960709
 20
152.6690080675568
 30
0.0
 10
386.7748957397023
 20
151.8263828781749
 30
0.0
 10
386.7216092884108
 20
150.562676682174
 30
0.0
 10
386.7029584901024
 20
150.1414791314474
 30
0.0
 10
386.6736498956877
 20
149.5097412342082
 30
0.0
 10
386.6636569249673
 20
149.299158005594
 30
0.0
 10
386.6432319483874
 20
148.8780563809841
 30
0.0
 10
386.6341644721369
 20
148.6675023754515
 30
0.0
 10
386.5688190424463
 20
147.6156459626374
 30
0.0
 10
386.4473735547852
 20
146.787737630406
 30
0.0
 10
386.1150743610183
 20
145.5751900244493
 30
0.0
 10
385.9777979226458
 20
145.1734751976696
 30
0.0
 10
385.6462664695622
 20
144.3987015569102
 30
0.0
 10
385.4523676973122
 20
144.0251036407452
 30
0.0
 10
385.0020222315254
 20
143.3085911446055
 30
0.0
 10
384.7493240896566
 20
142.9730491052528
 30
0.0
 10
384.19117204776
 20
142.3532237334804
 30
0.0
 10
383.8860356934317
 20
142.067361820249
 30
0.0
 10
383.2243526415614
 20
141.5430910874572
 30
0.0
 10
382.8723282169442
 20
141.309763808257
 30
0.0
 10
382.142221699162
 20
140.8993097452072
 30
0.0
 10
381.7625792903916
 20
140.720614039618
 30
0.0
 10
380.5857617706828
 20
140.2534241298273
 30
0.0
 10
379.7763912048267
 20
140.0429079530896
 30
0.0
 10
378.134033651906
 20
139.7541151971705
 30
0.0
 10
377.2956791458409
 20
139.6765555231635
 30
0.0
 10
376.0376395201777
 20
139.6315067959472
 30
0.0
 10
375.61821823942
 20
139.631874905573
 30
0.0
 10
374.7792321884417
 20
139.6315169806697
 30
0.0
 10
374.3596735737312
 20
139.6313764116204
 30
0.0
 10
373.1010436642189
 20
139.6309892478867
 30
0.0
 10
372.2619580499348
 20
139.630796390035
 30
0.0
 10
370.5837780156082
 20
139.6305044447868
 30
0.0
 10
369.744685902422
 20
139.6304047272467
 30
0.0
 10
368.4860452616992
 20
139.6303090677
 30
0.0
 10
368.0664986719565
 20
139.6302125837308
 30
0.0
 10
367.2273995513933
 20
139.630821737766
 30
0.0
 10
366.8099789126672
 20
139.6315399039414
 30
0.0
 10
366.3882869699352
 20
139.6332354750018
 30
0.0
  0
SPLINE
  5
1CB
330
1F
100
AcDbEntity
  8
0
  6
Continuous
 62
     7
370
    25
100
AcDbSpline
210
0.0
220
0.0
230
1.0
 70
     8
 71
     3
 72
    14
 73
    10
 74
     0
 42
0.000000001
 43
0.00000001
 40
0.0
 40
0.0
 40
0.0
 40
0.0
 40
0.0007850483757487
 40
0.0007850483757487
 40
0.0007850483757487
 40
0.004339294517465
 40
0.004339294517465
 40
0.004339294517465
 40
0.005227878830625
 40
0.005227878830625
 40
0.005227878830625
 40
0.005227878830625
 10
366.3882869699351
 20
139.6332352056848
 30
0.0
 10
366.1266139746951
 20
139.633226901537
 30
0.0
 10
365.864940919571
 20
139.6332186259362
 30
0.0
 10
365.6032681453608
 20
139.6332102359783
 30
0.0
 10
364.4185655578523
 20
139.6331722511135
 30
0.0
 10
363.2338902474609
 20
139.6331236838541
 30
0.0
 10
362.0491982854401
 20
139.633081668759
 30
0.0
 10
361.7530194152083
 20
139.6330711647768
 30
0.0
 10
361.4568302793172
 20
139.6330612010303
 30
0.0
 10
361.1606374138447
 20
139.6330612010303
 30
0.0
  0
SPLINE
  5
1CC
330
1F
100
AcDbEntity
  8
0
  6
Continuous
 62
     7
370
    25
100
AcDbSpline
210
0.0
220
0.0
230
1.0
 70
     8
 71
     3
 72
    14
 73
    10
 74
     0
 42
0.000000001
 43
0.00000001
 40
0.0
 40
0.0
 40
0.0
 40
0.0
 40
0.0008885785964175
 40
0.0008885785964175
 40
0.0008885785964175
 40
0.0044428018717501
 40
0.0044428018717501
 40
0.0044428018717501
 40
0.0052278451968589
 40
0.0052278451968589
 40
0.0052278451968589
 40
0.0052278451968589
 10
361.1606374138447
 20
187.6269369834785
 30
0.0
 10
361.4568302793172
 20
187.6269369834785
 30
0.0
 10
361.7530194152083
 20
187.6269270197321
 30
0.0
 10
362.0491982854401
 20
187.6269165157497
 30
0.0
 10
363.2338902474609
 20
187.6268745006547
 30
0.0
 10
364.4185655578523
 20
187.6268259333953
 30
0.0
 10
365.6032681453608
 20
187.6267879485306
 30
0.0
 10
365.864940919571
 20
187.6267795585726
 30
0.0
 10
366.1266139746951
 20
187.6267712829718
 30
0.0
 10
366.3882869699352
 20
187.626762978824
 30
0.0
  0
LINE
  5
1CD
330
1F
100
AcDbEntity
  8
0
  6
Continuous
 62
     7
370
    25
100
AcDbLine
 10
138.534080075
 20
187.6269369954
 30
0.0
 11
361.1606374138
 21
187.6269369954
 31
0.0
  0
LINE
  5
1CE
330
1F
100
AcDbEntity
  8
0
  6
Continuous
 62
     7
370
    25
100
AcDbLine
 10
138.534080075
 20
186.9371712029
 30
0.0
 11
138.534080075
 21
187.6269369954
 31
0.0
  0
LINE
  5
1CF
330
1F
100
AcDbEntity
  8
0
  6
Continuous
 62
     7
370
    25
100
AcDbLine
 10
361.1606374138
 20
139.6330611891
 30
0.0
 11
138.534080075
 21
139.6330611891
 31
0.0
  0
LINE
  5
1D0
330
1F
100
AcDbEntity
  8
0
  6
Continuous
 62
     7
370
    25
100
AcDbLine
 10
138.534080075
 20
139.6330611891
 30
0.0
 11
138.534080075
 21
140.3228269816
 31
0.0
  0
LINE
  5
1D1
330
1F
100
AcDbEntity
  8
0
  6
Continuous
 62
     7
370
    25
100
AcDbLine
 10
344.4955780121
 20
215.0299990923
 30
0.0
 11
346.1018444378
 21
215.0299990923
 31
0.0
  0
LINE
  5
1D2
330
1F
100
AcDbEntity
  8
0
  6
Continuous
 62
     7
370
    25
100
AcDbLine
 10
346.1018444378
 20
215.0299990923
 30
0.0
 11
346.1018444378
 21
198.0299990923
 31
0.0
  0
LINE
  5
1D3
330
1F
100
AcDbEntity
  8
0
  6
Continuous
 62
     7
370
    25
100
AcDbLine
 10
346.1018444378
 20
198.0299990923
 30
0.0
 11
334.9663157122
 21
198.0299990923
 31
0.0
  0
LINE
  5
1D4
330
1F
100
AcDbEntity
  8
0
  6
Continuous
 62
     7
370
    25
100
AcDbLine
 10
334.9663157122
 20
198.0299990923
 30
0.0
 11
334.9663157122
 21
215.0299990923
 31
0.0
  0
LINE
  5
1D5
330
1F
100
AcDbEntity
  8
0
  6
Continuous
 62
     7
370
    25
100
AcDbLine
 10
334.9663157122
 20
215.0299990923
 30
0.0
 11
336.5725821379
 21
215.0299990923
 31
0.0
  0
LINE
  5
1D6
330
1F
100
AcDbEntity
  8
0
  6
Continuous
 62
     7
370
    25
100
AcDbLine
 10
194.4709305877
 20
215.0299990923
 30
0.0
 11
196.1018444378
 21
215.0299990923
 31
0.0
  0
LINE
  5
1D7
330
1F
100
AcDbEntity
  8
0
  6
Continuous
 62
     7
370
    25
100
AcDbLine
 10
196.1018444378
 20
215.0299990923
 30
0.0
 11
196.1018444378
 21
198.0299990923
 31
0.0
  0
LINE
  5
1D8
330
1F
100
AcDbEntity
  8
0
  6
Continuous
 62
     7
370
    25
100
AcDbLine
 10
196.1018444378
 20
198.0299990923
 30
0.0
 11
184.9663157122
 21
198.0299990923
 31
0.0
  0
LINE
  5
1D9
330
1F
100
AcDbEntity
  8
0
  6
Continuous
 62
     7
370
    25
100
AcDbLine
 10
184.9663157122
 20
198.0299990923
 30
0.0
 11
184.9663157122
 21
215.0299990923
 31
0.0
  0
LINE
  5
1DA
330
1F
100
AcDbEntity
  8
0
  6
Continuous
 62
     7
370
    25
100
AcDbLine
 10
184.9663157122
 20
215.0299990923
 30
0.0
 11
186.5972295623
 21
215.0299990923
 31
0.0
  0
LINE
  5
1DB
330
1F
100
AcDbEntity
  8
0
  6
Continuous
 62
     7
370
    25
100
AcDbLine
 10
334.9663157122
 20
198.0299990923
 30
0.0
 11
324.534080075
 21
198.0299990923
 31
0.0
  0
LINE
  5
1DC
330
1F
100
AcDbEntity
  8
0
  6
Continuous
 62
     7
370
    25
100
AcDbLine
 10
334.9663157122
 20
215.0299990923
 30
0.0
 11
324.534080075
 21
215.0299990923
 31
0.0
  0
LINE
  5
1DD
330
1F
100
AcDbEntity
  8
0
  6
Continuous
 62
     7
370
    25
100
AcDbLine
 10
184.9663157122
 20
198.0299990923
 30
0.0
 11
174.534080075
 21
198.0299990923
 31
0.0
  0
LINE
  5
1DE
330
1F
100
AcDbEntity
  8
0
  6
Continuous
 62
     7
370
    25
100
AcDbLine
 10
184.9663157122
 20
215.0299990923
 30
0.0
 11
174.534080075
 21
215.0299990923
 31
0.0
  0
LINE
  5
1DF
330
1F
100
AcDbEntity
  8
0
  6
Continuous
 62
     7
370
    25
100
AcDbLine
 10
356.534080075
 20
198.0299990923
 30
0.0
 11
346.1018444378
 21
198.0299990923
 31
0.0
  0
LINE
  5
1E0
330
1F
100
AcDbEntity
  8
0
  6
Continuous
 62
     7
370
    25
100
AcDbLine
 10
356.534080075
 20
215.0299990923
 30
0.0
 11
346.1018444378
 21
215.0299990923
 31
0.0
  0
LINE
  5
1E1
330
1F
100
AcDbEntity
  8
0
  6
Continuous
 62
     7
370
    25
100
AcDbLine
 10
206.534080075
 20
198.0299990923
 30
0.0
 11
196.1018444378
 21
198.0299990923
 31
0.0
  0
LINE
  5
1E2
330
1F
100
AcDbEntity
  8
0
  6
Continuous
 62
     7
370
    25
100
AcDbLine
 10
206.534080075
 20
215.0299990923
 30
0.0
 11
196.1018444378
 21
215.0299990923
 31
0.0
  0
LINE
  5
1E3
330
1F
100
AcDbEntity
  8
0
  6
Continuous
 62
     7
370
    25
100
AcDbLine
 10
100.3883012922
 20
163.2032547415
 30
0.0
 11
100.3341070137
 21
164.4555047512
 31
0.0
  0
LINE
  5
1E4
330
1F
100
AcDbEntity
  8
0
  6
Continuous
 62
     7
370
    25
100
AcDbLine
 10
100.3341070137
 20
164.4555047512
 30
0.0
 11
100.3340705896
 21
166.2154742579
 31
0.0
  0
LINE
  5
1E5
330
1F
100
AcDbEntity
  8
0
  6
Continuous
 62
     7
370
    25
100
AcDbLine
 10
100.340331117
 20
147.6181633575
 30
0.0
 11
100.3449325768
 21
150.6078423303
 31
0.0
  0
SPLINE
  5
1E6
330
1F
100
AcDbEntity
  8
0
  6
Continuous
 62
     7
370
    25
100
AcDbSpline
210
0.0
220
0.0
230
1.0
 70
     8
 71
     3
 72
     9
 73
     5
 74
     0
 42
0.000000001
 43
0.00000001
 40
0.0
 40
0.0
 40
0.0
 40
0.0
 40
0.4188144755407808
 40
1.0
 40
1.0
 40
1.0
 40
1.0
 10
127.2586544777499
 20
190.374381803274
 30
0.0
 10
127.2627516921123
 20
190.3802671582767
 30
0.0
 10
127.2725345783343
 20
190.3943195737171
 30
0.0
 10
127.2839845438652
 20
190.384474598166
 30
0.0
 10
127.2906390980873
 20
190.3787528408871
 30
0.0
  0
SPLINE
  5
1E7
330
1F
100
AcDbEntity
  8
0
  6
Continuous
 62
     7
370
    25
100
AcDbSpline
210
0.0
220
0.0
230
1.0
 70
     8
 71
     3
 72
    10
 73
     6
 74
     0
 42
0.000000001
 43
0.00000001
 40
0.0
 40
0.0
 40
0.0
 40
0.0
 40
0.0293067538502243
 40
0.5146533769251223
 40
1.0
 40
1.0
 40
1.0
 40
1.0
 10
127.5862305993442
 20
190.2670248210468
 30
0.0
 10
127.5881277696432
 20
190.2659211070322
 30
0.0
 10
127.6214438136514
 20
190.2465388804066
 30
0.0
 10
127.6617032284111
 20
190.1755404994843
 30
0.0
 10
127.6713440794474
 20
190.1019704444485
 30
0.0
 10
127.6761645049656
 20
190.0651854169307
 30
0.0
  0
SPLINE
  5
1E8
330
1F
100
AcDbEntity
  8
0
  6
Continuous
 62
     7
370
    25
100
AcDbSpline
210
0.0
220
0.0
230
1.0
 70
     8
 71
     3
 72
    12
 73
     8
 74
     0
 42
0.000000001
 43
0.00000001
 40
0.0
 40
0.0
 40
0.0
 40
0.0
 40
0.5000000000000007
 40
0.5000000000000007
 40
0.7500000000000003
 40
0.7500000000000003
 40
1.0
 40
1.0
 40
1.0
 40
1.0
 10
131.1782394328495
 20
141.4606614273761
 30
0.0
 10
131.6317948080003
 20
141.1551953821052
 30
0.0
 10
131.9705613903221
 20
140.8809557051785
 30
0.0
 10
132.3097817743749
 20
140.5503007005337
 30
0.0
 10
132.3945088829277
 20
140.45249402594
 30
0.0
 10
132.5065281924459
 20
140.3008536598324
 30
0.0
 10
132.5340800750083
 20
140.247116348545
 30
0.0
 10
132.5340800750082
 20
140.2295887934393
 30
0.0
  0
ARC
  5
1E9
330
1F
100
AcDbEntity
  8
0
  6
Continuous
 62
     7
370
    25
100
AcDbCircle
 10
132.2341078572
 20
140.2296165595
 30
0.0
 40
0.2999722190532597
100
AcDbArc
 50
270.0066110875
 51
359.9946965763
  0
LINE
  5
1EA
330
1F
100
AcDbEntity
  8
0
  6
Continuous
 62
     7
370
    25
100
AcDbLine
 10
132.534080075
 20
142.8564507444
 30
0.0
 11
132.534080075
 21
140.2295887934
 31
0.0
  0
SPLINE
  5
1EB
330
1F
100
AcDbEntity
  8
0
  6
Continuous
 62
     7
370
    25
100
AcDbSpline
210
0.0
220
0.0
230
1.0
 70
     8
 71
     3
 72
     9
 73
     5
 74
     0
 42
0.000000001
 43
0.00000001
 40
0.0
 40
0.0
 40
0.0
 40
0.0
 40
0.384493681254192
 40
1.0
 40
1.0
 40
1.0
 40
1.0
 10
132.3596728414298
 20
184.2774892729678
 30
0.0
 10
132.2735905899017
 20
184.6034582160312
 30
0.0
 10
132.0497058923759
 20
185.4512457323311
 30
0.0
 10
131.510267296925
 20
186.1438329192903
 30
0.0
 10
131.1782394328495
 20
186.5701247091461
 30
0.0
  0
LINE
  5
1EC
330
1F
100
AcDbEntity
  8
0
  6
Continuous
 62
     7
370
    25
100
AcDbLine
 10
108.0973490977
 20
130.22446999
 30
0.0
 11
108.045559218
 21
129.4372941957
 31
0.0
  0
LINE
  5
1ED
330
1F
100
AcDbEntity
  8
0
  6
Continuous
 62
     7
370
    25
100
AcDbLine
 10
108.0330980596
 20
129.2478918971
 30
0.0
 11
108.0181776355
 21
129.1886319733
 31
0.0
  0
LINE
  5
1EE
330
1F
100
AcDbEntity
  8
0
  6
Continuous
 62
     8
370
    18
100
AcDbLine
 10
340.534080075
 20
223.8721867312
 30
0.0
 11
375.2356340213
 21
223.8721867312
 31
0.0
  0
LINE
  5
1EF
330
1F
100
AcDbEntity
  8
0
  6
Continuous
 62
     8
370
    18
100
AcDbLine
 10
305.8325261288
 20
223.8721867312
 30
0.0
 11
340.534080075
 21
223.8721867312
 31
0.0
  0
LINE
  5
1F0
330
1F
100
AcDbEntity
  8
0
  6
Continuous
 62
     8
370
    18
100
AcDbLine
 10
190.534080075
 20
223.8721867312
 30
0.0
 11
225.2356340213
 21
223.8721867312
 31
0.0
  0
LINE
  5
1F1
330
1F
100
AcDbEntity
  8
0
  6
Continuous
 62
     8
370
    18
100
AcDbLine
 10
155.8325261288
 20
223.8721867312
 30
0.0
 11
190.534080075
 21
223.8721867312
 31
0.0
  0
SPLINE
  5
1F2
330
1F
100
AcDbEntity
  8
0
  6
Continuous
 62
     8
370
    18
100
AcDbSpline
210
0.0
220
0.0
230
1.0
 70
    24
 71
     3
 72
    16
 73
    12
 74
     0
 42
0.000000001
 43
0.00000001
 40
0.0
 40
0.0
 40
0.0
 40
0.0
 40
0.1249781037365251
 40
0.249956207473048
 40
0.374934311209573
 40
0.499912414946096
 40
0.624890518682621
 40
0.749868622419144
 40
0.874846726155669
 40
0.9998248298921919
 40
1.0
 40
1.0
 40
1.0
 40
1.0
 10
340.5340800750084
 20
221.2610053208273
 30
0.0
 10
338.3696666784716
 20
221.2610053208273
 30
0.0
 10
334.0408398853979
 20
221.2610053208273
 30
0.0
 10
327.7969304715144
 20
221.2610053208273
 30
0.0
 10
322.0433057870516
 20
221.2610053208273
 30
0.0
 10
316.9972591391015
 20
221.2610053208272
 30
0.0
 10
312.8669643053942
 20
221.2610053208272
 30
0.0
 10
309.7579333233349
 20
221.2610053208269
 30
0.0
 10
307.9882389821276
 20
221.2610053208279
 30
0.0
 10
307.252047183853
 20
221.2610053208251
 30
0.0
 10
307.4644268393099
 20
221.261005320827
 30
0.0
 10
307.4647240953544
 20
221.261005320827
 30
0.0
  0
SPLINE
  5
1F3
330
1F
100
AcDbEntity
  8
0
  6
Continuous
 62
     8
370
    18
100
AcDbSpline
210
0.0
220
0.0
230
1.0
 70
    24
 71
     3
 72
    16
 73
    12
 74
     0
 42
0.000000001
 43
0.00000001
 40
0.0
 40
0.0
 40
0.0
 40
0.0
 40
0.000160790669872
 40
0.1251406918361379
 40
0.2501205930024038
 40
0.3751004941686703
 40
0.5000803953349363
 40
0.6250602965012022
 40
0.7500401976674682
 40
0.8750200988337341
 40
1.0
 40
1.0
 40
1.0
 40
1.0
 10
373.603509176872
 20
221.261005320827
 30
0.0
 10
373.6037819991764
 20
221.261005320827
 30
0.0
 10
373.8161150403599
 20
221.2610053208277
 30
0.0
 10
373.0799005798423
 20
221.2610053208268
 30
0.0
 10
371.3102323432328
 20
221.2610053208272
 30
0.0
 10
368.2011943664708
 20
221.2610053208272
 30
0.0
 10
364.0709014069761
 20
221.2610053208272
 30
0.0
 10
359.0248542568784
 20
221.2610053208273
 30
0.0
 10
353.271229706793
 20
221.2610053208273
 30
0.0
 10
347.0273202575471
 20
221.2610053208273
 30
0.0
 10
342.6984934691883
 20
221.2610053208273
 30
0.0
 10
340.534080075009
 20
221.2610053208273
 30
0.0
  0
SPLINE
  5
1F4
330
1F
100
AcDbEntity
  8
0
  6
Continuous
 62
     8
370
    18
100
AcDbSpline
210
0.0
220
0.0
230
1.0
 70
    24
 71
     3
 72
    16
 73
    12
 74
     0
 42
0.000000001
 43
0.00000001
 40
0.0
 40
0.0
 40
0.0
 40
0.0
 40
0.1249781037365249
 40
0.2499562074730481
 40
0.374934311209573
 40
0.499912414946096
 40
0.6248905186826216
 40
0.7498686224191445
 40
0.8748467261556696
 40
0.9998248298921926
 40
1.0
 40
1.0
 40
1.0
 40
1.0
 10
190.5340800750079
 20
221.2610053208271
 30
0.0
 10
188.369666678471
 20
221.2610053208271
 30
0.0
 10
184.0408398853972
 20
221.2610053208271
 30
0.0
 10
177.7969304715139
 20
221.261005320827
 30
0.0
 10
172.0433057870511
 20
221.2610053208271
 30
0.0
 10
166.9972591391008
 20
221.2610053208271
 30
0.0
 10
162.8669643053941
 20
221.2610053208271
 30
0.0
 10
159.7579333233326
 20
221.2610053208271
 30
0.0
 10
157.9882389821335
 20
221.2610053208272
 30
0.0
 10
157.2520471838386
 20
221.261005320827
 30
0.0
 10
157.4644268393093
 20
221.2610053208272
 30
0.0
 10
157.4647240953538
 20
221.2610053208272
 30
0.0
  0
SPLINE
  5
1F5
330
1F
100
AcDbEntity
  8
0
  6
Continuous
 62
     8
370
    18
100
AcDbSpline
210
0.0
220
0.0
230
1.0
 70
    24
 71
     3
 72
    16
 73
    12
 74
     0
 42
0.000000001
 43
0.00000001
 40
0.0
 40
0.0
 40
0.0
 40
0.0
 40
0.0001607906698715
 40
0.1251406918361375
 40
0.2501205930024036
 40
0.3751004941686702
 40
0.5000803953349362
 40
0.6250602965012021
 40
0.7500401976674683
 40
0.8750200988337343
 40
1.0
 40
1.0
 40
1.0
 40
1.0
 10
223.6035091768714
 20
221.2610053208272
 30
0.0
 10
223.6037819991759
 20
221.2610053208272
 30
0.0
 10
223.8161150403503
 20
221.2610053208289
 30
0.0
 10
223.0799005798457
 20
221.2610053208263
 30
0.0
 10
221.3102323432311
 20
221.2610053208273
 30
0.0
 10
218.2011943664704
 20
221.2610053208271
 30
0.0
 10
214.0709014069754
 20
221.2610053208271
 30
0.0
 10
209.0248542568777
 20
221.2610053208271
 30
0.0
 10
203.2712297067924
 20
221.2610053208271
 30
0.0
 10
197.0273202575465
 20
221.2610053208271
 30
0.0
 10
192.6984934691878
 20
221.2610053208271
 30
0.0
 10
190.5340800750084
 20
221.2610053208271
 30
0.0
  0
SPLINE
  5
1F6
330
1F
100
AcDbEntity
  8
0
  6
Continuous
 62
     8
370
    18
100
AcDbSpline
210
0.0
220
0.0
230
1.0
 70
    24
 71
     3
 72
    15
 73
    11
 74
     0
 42
0.000000001
 43
0.00000001
 40
0.0
 40
0.0
 40
0.0
 40
0.0
 40
0.1250157434286853
 40
0.2500314868573576
 40
0.3750472302860322
 40
0.5000629737147044
 40
0.625078717143379
 40
0.7500944605720514
 40
0.8751102040007259
 40
0.9999999999999999
 40
0.9999999999999999
 40
0.9999999999999999
 40
0.9999999999999999
 10
340.5340800750089
 20
215.1877750093467
 30
0.0
 10
339.4436520964573
 20
215.1877750093467
 30
0.0
 10
337.2627961393543
 20
215.1877750093466
 30
0.0
 10
334.1172848930178
 20
215.1877750093466
 30
0.0
 10
331.218131158033
 20
215.1877750093466
 30
0.0
 10
328.6778703489036
 20
215.1877750093466
 30
0.0
 10
326.5899284257402
 20
215.1877750093466
 30
0.0
 10
325.0502006161445
 20
215.1877750093466
 30
0.0
 10
324.0597581924835
 20
215.1877750093465
 30
0.0
 10
323.9357669547111
 20
215.1877750093465
 30
0.0
 10
323.8738025803858
 20
215.1877750093465
 30
0.0
  0
SPLINE
  5
1F7
330
1F
100
AcDbEntity
  8
0
  6
Continuous
 62
     8
370
    18
100
AcDbSpline
210
0.0
220
0.0
230
1.0
 70
    24
 71
     3
 72
    16
 73
    12
 74
     0
 42
0.000000001
 43
0.00000001
 40
0.0
 40
0.0
 40
0.0
 40
0.0
 40
0.0000797502346899
 40
0.1250697814553536
 40
0.2500598126760172
 40
0.3750498438966814
 40
0.5000398751173452
 40
0.6250299063380087
 40
0.7500199375586725
 40
0.8750099687793361
 40
1.0
 40
1.0
 40
1.0
 40
1.0
 10
357.1944758251267
 20
215.1877750093465
 30
0.0
 10
357.1945439510994
 20
215.1877750093465
 30
0.0
 10
357.3013837685631
 20
215.187775009347
 30
0.0
 10
356.9304187272259
 20
215.1877750093463
 30
0.0
 10
356.0389442267505
 20
215.1877750093466
 30
0.0
 10
354.4726089027245
 20
215.1877750093466
 30
0.0
 10
352.3917963944488
 20
215.1877750093466
 30
0.0
 10
349.8496254401985
 20
215.1877750093466
 30
0.0
 10
346.9509828708095
 20
215.1877750093466
 30
0.0
 10
343.805337107211
 20
215.1877750093467
 30
0.0
 10
341.624499085743
 20
215.1877750093467
 30
0.0
 10
340.5340800750089
 20
215.1877750093467
 30
0.0
  0
SPLINE
  5
1F8
330
1F
100
AcDbEntity
  8
0
  6
Continuous
 62
     8
370
    18
100
AcDbSpline
210
0.0
220
0.0
230
1.0
 70
    24
 71
     3
 72
    15
 73
    11
 74
     0
 42
0.000000001
 43
0.00000001
 40
0.0
 40
0.0
 40
0.0
 40
0.0
 40
0.1250157434286898
 40
0.2500314868573672
 40
0.3750472302860461
 40
0.5000629737147232
 40
0.6250787171434024
 40
0.7500944605720798
 40
0.8751102040007591
 40
1.0
 40
1.0
 40
1.0
 40
1.0
 10
190.5340800750083
 20
215.1877750093466
 30
0.0
 10
189.4436520964568
 20
215.1877750093466
 30
0.0
 10
187.2627961393537
 20
215.1877750093466
 30
0.0
 10
184.1172848930172
 20
215.1877750093466
 30
0.0
 10
181.2181311580324
 20
215.1877750093466
 30
0.0
 10
178.677870348903
 20
215.1877750093466
 30
0.0
 10
176.5899284257396
 20
215.1877750093466
 30
0.0
 10
175.0502006161439
 20
215.1877750093466
 30
0.0
 10
174.0597581924829
 20
215.1877750093466
 30
0.0
 10
173.9357669547106
 20
215.1877750093466
 30
0.0
 10
173.8738025803852
 20
215.1877750093466
 30
0.0
  0
SPLINE
  5
1F9
330
1F
100
AcDbEntity
  8
0
  6
Continuous
 62
     8
370
    18
100
AcDbSpline
210
0.0
220
0.0
230
1.0
 70
    24
 71
     3
 72
    15
 73
    11
 74
     0
 42
0.000000001
 43
0.00000001
 40
0.0
 40
0.0
 40
0.0
 40
0.0
 40
0.1249302074126961
 40
0.2499401777823109
 40
0.3749501481519262
 40
0.4999601185215409
 40
0.6249700888911559
 40
0.7499800592607706
 40
0.8749900296303853
 40
0.9999999999999999
 40
0.9999999999999999
 40
0.9999999999999999
 40
0.9999999999999999
 10
207.1944758251261
 20
215.1877750093466
 30
0.0
 10
207.1324962039074
 20
215.1877750093466
 30
0.0
 10
207.0084973899528
 20
215.1877750093466
 30
0.0
 10
206.0179666538503
 20
215.1877750093466
 30
0.0
 10
204.478229816488
 20
215.1877750093466
 30
0.0
 10
202.3902903122913
 20
215.1877750093466
 30
0.0
 10
199.8500288550614
 20
215.1877750093466
 30
0.0
 10
196.9508752935119
 20
215.1877750093466
 30
0.0
 10
193.8053640015346
 20
215.1877750093466
 30
0.0
 10
191.6245080505171
 20
215.1877750093466
 30
0.0
 10
190.5340800750083
 20
215.1877750093466
 30
0.0
  0
SPLINE
  5
1FA
330
1F
100
AcDbEntity
  8
0
  6
Continuous
 62
     8
370
    25
100
AcDbSpline
210
0.0
220
0.0
230
1.0
 70
     8
 71
     3
 72
    14
 73
    10
 74
     0
 42
0.000000001
 43
0.00000001
 40
0.0
 40
0.0
 40
0.0
 40
0.0
 40
0.25
 40
0.25
 40
0.5
 40
0.5
 40
0.75
 40
0.75
 40
1.0
 40
1.0
 40
1.0
 40
1.0
 10
125.076206224069
 20
169.523117018224
 30
0.0
 10
125.0761479069775
 20
167.4778868877709
 30
0.0
 10
125.1271468277197
 20
165.4180617237892
 30
0.0
 10
125.3264189249781
 20
161.2706049399799
 30
0.0
 10
125.4746860297808
 20
159.1829750548115
 30
0.0
 10
125.8719114745234
 20
154.978932061631
 30
0.0
 10
126.1149748094725
 20
152.9249157619692
 30
0.0
 10
126.6848042624446
 20
148.9091694512514
 30
0.0
 10
127.0116298137081
 20
146.9471770960309
 30
0.0
 10
127.3814021684362
 20
145.0321996520371
 30
0.0
  0
SPLINE
  5
1FB
330
1F
100
AcDbEntity
  8
0
  6
Continuous
 62
     8
370
    18
100
AcDbSpline
210
0.0
220
0.0
230
1.0
 70
     8
 71
     3
 72
    16
 73
    12
 74
     0
 42
0.000000001
 43
0.00000001
 40
0.0
 40
0.0
 40
0.0
 40
0.0
 40
0.2499999999999997
 40
0.2499999999999997
 40
0.4999999999999993
 40
0.4999999999999993
 40
0.6249999999999993
 40
0.6249999999999993
 40
0.7499999999999994
 40
0.7499999999999994
 40
1.0
 40
1.0
 40
1.0
 40
1.0
 10
127.0930246638961
 20
144.8923975241943
 30
0.0
 10
126.7241984741891
 20
146.8177075268121
 30
0.0
 10
126.3981250469557
 20
148.7900814037492
 30
0.0
 10
125.8293910733426
 20
152.8266579721189
 30
0.0
 10
125.5867007121733
 20
154.8908272987321
 30
0.0
 10
125.2888791008574
 20
158.0599793115922
 30
0.0
 10
125.2014760409704
 20
159.1207322365918
 30
0.0
 10
125.0512543781311
 20
161.2419651474298
 30
0.0
 10
124.9887822067712
 20
162.2970603519018
 30
0.0
 10
124.8386184500525
 20
165.4460704408976
 30
0.0
 10
124.7879282875768
 20
167.5238194183487
 30
0.0
 10
124.7879972251046
 20
169.5793884879899
 30
0.0
  0
ARC
  5
1FC
330
1F
100
AcDbEntity
  8
0
  6
Continuous
 62
     8
370
    18
100
AcDbCircle
 10
124.8327347377
 20
169.0423188363
 30
0.0
 40
0.5389297317994065
100
AcDbArc
 50
63.142792834
 51
94.7617037447
  0
SPLINE
  5
1FD
330
1F
100
AcDbEntity
  8
0
  6
Continuous
 62
     8
370
    25
100
AcDbSpline
210
0.0
220
0.0
230
1.0
 70
     8
 71
     3
 72
     8
 73
     4
 74
     0
 42
0.000000001
 43
0.00000001
 40
0.0
 40
0.0
 40
0.0
 40
0.0
 40
1.0
 40
1.0
 40
1.0
 40
1.0
 10
129.9709394370396
 20
142.3459007768192
 30
0.0
 10
130.3736674770255
 20
142.0291868823009
 30
0.0
 10
130.7761476211526
 20
141.7306706808201
 30
0.0
 10
131.1782394328495
 20
141.4606614273761
 30
0.0
  0
SPLINE
  5
1FE
330
1F
100
AcDbEntity
  8
0
  6
Continuous
 62
     8
370
    25
100
AcDbSpline
210
0.0
220
0.0
230
1.0
 70
     8
 71
     3
 72
     8
 73
     4
 74
     0
 42
0.000000001
 43
0.00000001
 40
0.0
 40
0.0
 40
0.0
 40
0.0
 40
1.0
 40
1.0
 40
1.0
 40
1.0
 10
127.6761661709177
 20
144.2876098779103
 30
0.0
 10
128.4412205843262
 20
143.6108828919757
 30
0.0
 10
129.2062626311886
 20
142.947101610657
 30
0.0
 10
129.9709397594264
 20
142.3458664586749
 30
0.0
  0
SPLINE
  5
1FF
330
1F
100
AcDbEntity
  8
0
  6
Continuous
 62
     8
370
    25
100
AcDbSpline
210
0.0
220
0.0
230
1.0
 70
     8
 71
     3
 72
     8
 73
     4
 74
     0
 42
0.000000001
 43
0.00000001
 40
0.0
 40
0.0
 40
0.0
 40
0.0
 40
1.0
 40
1.0
 40
1.0
 40
1.0
 10
127.3814021556502
 20
145.0321996268589
 30
0.0
 10
127.4529330252362
 20
144.6617555248538
 30
0.0
 10
127.5633864033918
 20
144.3873552976753
 30
0.0
 10
127.6761662001418
 20
144.2875899202322
 30
0.0
  0
SPLINE
  5
200
330
1F
100
AcDbEntity
  8
0
  6
Continuous
 62
     8
370
    25
100
AcDbSpline
210
0.0
220
0.0
230
1.0
 70
     8
 71
     3
 72
    18
 73
    14
 74
     0
 42
0.000000001
 43
0.00000001
 40
0.0
 40
0.0
 40
0.0
 40
0.0
 40
0.2499999999999999
 40
0.2499999999999999
 40
0.4999999999999998
 40
0.4999999999999998
 40
0.5624999999999997
 40
0.5624999999999997
 40
0.6249999999999996
 40
0.6249999999999996
 40
0.7499999999999998
 40
0.7499999999999998
 40
1.0
 40
1.0
 40
1.0
 40
1.0
 10
127.3814163341657
 20
189.8527553440115
 30
0.0
 10
127.0116409734831
 20
188.6052946011125
 30
0.0
 10
126.6849869547679
 20
187.2338801080527
 30
0.0
 10
126.1156054111098
 20
184.249801588262
 30
0.0
 10
125.8728499144545
 20
182.6372179671601
 30
0.0
 10
125.6248048165087
 20
180.4622413646134
 30
0.0
 10
125.5780690942028
 20
180.0197783589234
 30
0.0
 10
125.4911026423094
 20
179.1275176345199
 30
0.0
 10
125.4507511888367
 20
178.676692084353
 30
0.0
 10
125.3389795622004
 20
177.3102986565977
 30
0.0
 10
125.276826152564
 20
176.3808379445364
 30
0.0
 10
125.1271483286853
 20
173.5373112195118
 30
0.0
 10
125.076147907548
 20
171.5684880317268
 30
0.0
 10
125.0762062256559
 20
169.5231170167922
 30
0.0
  0
SPLINE
  5
201
330
1F
100
AcDbEntity
  8
0
  6
Continuous
 62
     8
370
    18
100
AcDbSpline
210
0.0
220
0.0
230
1.0
 70
     8
 71
     3
 72
    12
 73
     8
 74
     0
 42
0.000000001
 43
0.00000001
 40
0.0
 40
0.0
 40
0.0
 40
0.0
 40
0.2500000000000038
 40
0.2500000000000038
 40
0.5000000000000077
 40
0.5000000000000077
 40
1.0
 40
1.0
 40
1.0
 40
1.0
 10
127.6761628678057
 20
190.0652068558585
 30
0.0
 10
127.6479735239121
 20
190.0911583962771
 30
0.0
 10
127.6202363059357
 20
190.1060567181836
 30
0.0
 10
127.5656449772669
 20
190.1142638502983
 30
0.0
 10
127.5386808293228
 20
190.107219782827
 30
0.0
 10
127.4628489105009
 20
190.0535283829937
 30
0.0
 10
127.4171744366408
 20
189.9733690016523
 30
0.0
 10
127.3814163218981
 20
189.8527553903188
 30
0.0
  0
LINE
  5
202
330
1F
100
AcDbEntity
  8
0
  6
Continuous
 62
     8
370
    18
100
AcDbLine
 10
131.1782394328
 20
183.9866100196
 30
0.0
 11
131.1782394328
 21
186.5701247091
 31
0.0
  0
SPLINE
  5
203
330
1F
100
AcDbEntity
  8
0
  6
Continuous
 62
     8
370
    18
100
AcDbSpline
210
0.0
220
0.0
230
1.0
 70
     8
 71
     3
 72
    20
 73
    16
 74
     0
 42
0.000000001
 43
0.00000001
 40
0.0
 40
0.0
 40
0.0
 40
0.0
 40
0.0625
 40
0.0625
 40
0.125
 40
0.125
 40
0.25
 40
0.25
 40
0.375
 40
0.375
 40
0.5
 40
0.5
 40
0.75
 40
0.75
 40
1.0
 40
1.0
 40
1.0
 40
1.0
 10
113.5362534027817
 20
144.8866572968255
 30
0.0
 10
113.8068764804397
 20
144.88730973983
 30
0.0
 10
114.0944971313745
 20
144.8877304264194
 30
0.0
 10
114.6777349064291
 20
144.8883820499809
 30
0.0
 10
114.9711494140687
 20
144.8886273546359
 30
0.0
 10
115.8395522116805
 20
144.8892326355467
 30
0.0
 10
116.4046856254452
 20
144.8894467907807
 30
0.0
 10
117.5250114061804
 20
144.8896545433879
 30
0.0
 10
118.0797689720368
 20
144.8896512561041
 30
0.0
 10
119.1922639991327
 20
144.8897023453724
 30
0.0
 10
119.7511631605983
 20
144.8897766198784
 30
0.0
 10
121.4400041863602
 20
144.8902395921945
 30
0.0
 10
122.5767720678782
 20
144.8907452830055
 30
0.0
 10
124.8413513222054
 20
144.891643004596
 30
0.0
 10
125.9688523630975
 20
144.8920836151288
 30
0.0
 10
127.0930175520665
 20
144.8924714310615
 30
0.0
  0
SPLINE
  5
204
330
1F
100
AcDbEntity
  8
0
  6
Continuous
 62
     8
370
    18
100
AcDbSpline
210
0.0
220
0.0
230
1.0
 70
     8
 71
     3
 72
    24
 73
    20
 74
     0
 42
0.000000001
 43
0.00000001
 40
0.0
 40
0.0
 40
0.0
 40
0.0
 40
0.0156249999999999
 40
0.0156249999999999
 40
0.0312499999999998
 40
0.0624999999999997
 40
0.1249999999999994
 40
0.1249999999999994
 40
0.2499999999999994
 40
0.2499999999999994
 40
0.3749999999999994
 40
0.3749999999999994
 40
0.4999999999999996
 40
0.4999999999999996
 40
0.6249999999999998
 40
0.6249999999999998
 40
0.75
 40
0.75
 40
1.0
 40
1.0
 40
1.0
 40
1.0
 10
124.7879972251046
 20
169.5793884879899
 30
0.0
 10
124.7879930075738
 20
169.7060364167635
 30
0.0
 10
124.7881881958941
 20
169.8360265392501
 30
0.0
 10
124.7889758538525
 20
170.0917639687606
 30
0.0
 10
124.7907530216057
 20
170.4744701788911
 30
0.0
 10
124.7990490923453
 20
171.3611826726105
 30
0.0
 10
124.8132076784722
 20
172.1105747340595
 30
0.0
 10
124.8507920868733
 20
173.5953588725273
 30
0.0
 10
124.8881891007904
 20
174.5665718334359
 30
0.0
 10
124.9873592668856
 20
176.472175772538
 30
0.0
 10
125.0491321429362
 20
177.406567192301
 30
0.0
 10
125.1972517239961
 20
179.2382325526382
 30
0.0
 10
125.2837442886006
 20
180.1367933798685
 30
0.0
 10
125.4813818354731
 20
181.89002331924
 30
0.0
 10
125.5921582718014
 20
182.7412218757252
 30
0.0
 10
125.8358181881332
 20
184.3817512175612
 30
0.0
 10
125.9683274093529
 20
185.1690513906741
 30
0.0
 10
126.3970304959268
 20
187.4347225433966
 30
0.0
 10
126.7241990768999
 20
188.817482776913
 30
0.0
 10
127.0930246638962
 20
190.0716666097046
 30
0.0
  0
ARC
  5
205
330
1F
100
AcDbEntity
  8
0
  6
Continuous
 62
     8
370
    18
100
AcDbCircle
 10
127.0716923715
 20
189.7441389535
 30
0.0
 40
0.3282024959858981
100
AcDbArc
 50
19.3216234842
 51
86.2745422168
  0
LINE
  5
206
330
1F
100
AcDbEntity
  8
0
  6
Continuous
 62
     8
370
    18
100
AcDbLine
 10
361.1606374138
 20
186.9371712029
 30
0.0
 11
138.534080075
 21
186.9371712029
 31
0.0
  0
SPLINE
  5
207
330
1F
100
AcDbEntity
  8
0
  6
Continuous
 62
     8
370
    18
100
AcDbSpline
210
0.0
220
0.0
230
1.0
 70
     8
 71
     3
 72
    14
 73
    10
 74
     0
 42
0.000000001
 43
0.00000001
 40
0.0
 40
0.0
 40
0.0
 40
0.0
 40
0.1249999999999998
 40
0.1249999999999998
 40
0.2499999999999998
 40
0.2499999999999998
 40
0.4999999999999998
 40
0.4999999999999998
 40
1.0
 40
1.0
 40
1.0
 40
1.0
 10
103.611148964651
 20
141.3353611898659
 30
0.0
 10
103.6057427342638
 20
141.1041137295107
 30
0.0
 10
103.6117743122065
 20
140.8672079741836
 30
0.0
 10
103.6162170811212
 20
140.395867314867
 30
0.0
 10
103.6176587814922
 20
140.1606634015982
 30
0.0
 10
103.6222006654421
 20
139.4560947097078
 30
0.0
 10
103.6262197926536
 20
138.987528678353
 30
0.0
 10
103.6449338498701
 20
137.5857138334092
 30
0.0
 10
103.666881817379
 20
136.6570555219179
 30
0.0
 10
103.6974746125891
 20
135.7348162334129
 30
0.0
  0
LINE
  5
208
330
1F
100
AcDbEntity
  8
0
  6
Continuous
 62
     8
370
    18
100
AcDbLine
 10
103.6111560107
 20
141.3353611831
 30
0.0
 11
103.6112705156
 21
141.3402594014
 31
0.0
  0
LINE
  5
209
330
1F
100
AcDbEntity
  8
0
  6
Continuous
 62
     8
370
    18
100
AcDbLine
 10
103.6112705156
 20
141.3402594014
 30
0.0
 11
103.6155528885
 21
141.5214520354
 31
0.0
  0
SPLINE
  5
20A
330
1F
100
AcDbEntity
  8
0
  6
Continuous
 62
     8
370
    18
100
AcDbSpline
210
0.0
220
0.0
230
1.0
 70
     8
 71
     3
 72
    24
 73
    20
 74
     0
 42
0.000000001
 43
0.00000001
 40
0.0
 40
0.0
 40
0.0
 40
0.0
 40
0.1250000000000089
 40
0.1250000000000089
 40
0.1875000000000083
 40
0.1875000000000083
 40
0.2500000000000076
 40
0.2500000000000076
 40
0.3750000000000063
 40
0.3750000000000063
 40
0.500000000000005
 40
0.500000000000005
 40
0.6250000000000038
 40
0.6250000000000038
 40
0.7500000000000026
 40
0.7500000000000026
 40
0.8750000000000012
 40
0.8750000000000012
 40
1.0
 40
1.0
 40
1.0
 40
1.0
 10
113.5340783675667
 20
143.9730750993469
 30
0.0
 10
112.8135177959237
 20
143.9717719869103
 30
0.0
 10
112.1144081658587
 20
143.9702105830415
 30
0.0
 10
111.1067452162482
 20
143.9448479462277
 30
0.0
 10
110.7777804780015
 20
143.9323757689826
 30
0.0
 10
110.1253983744737
 20
143.8978961012591
 30
0.0
 10
109.8037385196366
 20
143.8760521441845
 30
0.0
 10
108.8625834453732
 20
143.7963336987152
 30
0.0
 10
108.2670476261527
 20
143.7236130107802
 30
0.0
 10
107.1466917189118
 20
143.5456374403641
 30
0.0
 10
106.6254828270905
 20
143.4410100643662
 30
0.0
 10
105.6852262148672
 20
143.2065975225306
 30
0.0
 10
105.266259187375
 20
143.0766103460114
 30
0.0
 10
104.5627423259134
 20
142.7979088451969
 30
0.0
 10
104.2773645181007
 20
142.6488985064206
 30
0.0
 10
103.8710314437253
 20
142.3412633079793
 30
0.0
 10
103.7546804589267
 20
142.1847964205638
 30
0.0
 10
103.6282553110162
 20
141.8611928176861
 30
0.0
 10
103.6218934695331
 20
141.6963907568929
 30
0.0
 10
103.6177198019604
 20
141.5214488118299
 30
0.0
  0
SPLINE
  5
20B
330
1F
100
AcDbEntity
  8
0
  6
Continuous
 62
     8
370
    18
100
AcDbSpline
210
0.0
220
0.0
230
1.0
 70
     8
 71
     3
 72
    20
 73
    16
 74
     0
 42
0.000000001
 43
0.00000001
 40
0.0
 40
0.0
 40
0.0
 40
0.0
 40
0.25
 40
0.25
 40
0.5
 40
0.5
 40
0.625
 40
0.625
 40
0.75
 40
0.75
 40
0.875
 40
0.875
 40
0.9375
 40
0.9375
 40
1.0
 40
1.0
 40
1.0
 40
1.0
 10
127.3878710802757
 20
143.9760084897116
 30
0.0
 10
126.2386382856787
 20
143.9757969890664
 30
0.0
 10
125.0865858829157
 20
143.9755480346921
 30
0.0
 10
122.7713410966207
 20
143.975115091303
 30
0.0
 10
121.6086544227019
 20
143.9749122558059
 30
0.0
 10
119.879866997376
 20
143.974661251434
 30
0.0
 10
119.3073880566679
 20
143.9745918186501
 30
0.0
 10
118.1691994168762
 20
143.9744830404493
 30
0.0
 10
117.6021398503755
 20
143.9744398425745
 30
0.0
 10
116.4574791066053
 20
143.9743227081642
 30
0.0
 10
115.880448434571
 20
143.9742436686344
 30
0.0
 10
114.9931454766797
 20
143.9740945996262
 30
0.0
 10
114.6933481968774
 20
143.9740447760043
 30
0.0
 10
114.0991931752719
 20
143.9737624067034
 30
0.0
 10
113.8070798614862
 20
143.973506334477
 30
0.0
 10
113.5340800750092
 20
143.9730093975247
 30
0.0
  0
SPLINE
  5
20C
330
1F
100
AcDbEntity
  8
0
  6
Continuous
 62
     8
370
    18
100
AcDbSpline
210
0.0
220
0.0
230
1.0
 70
     8
 71
     3
 72
     8
 73
     4
 74
     0
 42
0.000000001
 43
0.00000001
 40
0.0
 40
0.0
 40
0.0
 40
0.0
 40
1.0
 40
1.0
 40
1.0
 40
1.0
 10
129.6828601698004
 20
142.0322191826513
 30
0.0
 10
128.9188109973835
 20
142.634148096213
 30
0.0
 10
128.1537405161269
 20
143.2986242275695
 30
0.0
 10
127.3878726395417
 20
143.9760241123456
 30
0.0
  0
SPLINE
  5
20D
330
1F
100
AcDbEntity
  8
0
  6
Continuous
 62
     8
370
    18
100
AcDbSpline
210
0.0
220
0.0
230
1.0
 70
     8
 71
     3
 72
    24
 73
    20
 74
     0
 42
0.000000001
 43
0.00000001
 40
0.0
 40
0.0
 40
0.0
 40
0.0
 40
0.125
 40
0.125
 40
0.1875
 40
0.1875
 40
0.25
 40
0.25
 40
0.375
 40
0.375
 40
0.5
 40
0.5
 40
0.625
 40
0.625
 40
0.75
 40
0.75
 40
0.875
 40
0.875
 40
1.0
 40
1.0
 40
1.0
 40
1.0
 10
102.1366491453264
 20
142.7457038571095
 30
0.0
 10
102.1417556623448
 20
142.9197381490455
 30
0.0
 10
102.1488850642762
 20
143.0732609865223
 30
0.0
 10
102.2673501879117
 20
143.2843560194146
 30
0.0
 10
102.3234010267941
 20
143.3529056549872
 30
0.0
 10
102.4796381341272
 20
143.4841387004545
 30
0.0
 10
102.5829232437341
 20
143.5471017479172
 30
0.0
 10
102.9701369160989
 20
143.7359821234225
 30
0.0
 10
103.3212464330994
 20
143.8634113125982
 30
0.0
 10
104.1677600414652
 20
144.1045802156335
 30
0.0
 10
104.6629168502546
 20
144.2192345805749
 30
0.0
 10
105.76145085485
 20
144.427659665855
 30
0.0
 10
106.3647075290325
 20
144.5213886655262
 30
0.0
 10
107.6630585475591
 20
144.6779119925767
 30
0.0
 10
108.3607199388159
 20
144.7392137670254
 30
0.0
 10
109.8202546419663
 20
144.827197690909
 30
0.0
 10
110.5757958523883
 20
144.8546417165297
 30
0.0
 10
112.0760218884798
 20
144.8822580835466
 30
0.0
 10
112.8133316080662
 20
144.8843606867727
 30
0.0
 10
113.5362530558855
 20
144.8864443877311
 30
0.0
  0
SPLINE
  5
20E
330
1F
100
AcDbEntity
  8
0
  6
Continuous
 62
     8
370
    18
100
AcDbSpline
210
0.0
220
0.0
230
1.0
 70
     8
 71
     3
 72
    26
 73
    22
 74
     0
 42
0.000000001
 43
0.00000001
 40
0.0
 40
0.0
 40
0.0
 40
0.0
 40
0.0665622444973089
 40
0.2067612152861945
 40
0.2908805977595259
 40
0.3749999802328573
 40
0.403840911366571
 40
0.4254716097168562
 40
0.4254716097168562
 40
0.4561860708431063
 40
0.4582337015848563
 40
0.5073768393868565
 40
0.5128371880315232
 40
0.6111234636355236
 40
0.6438855555035238
 40
0.7749339229755243
 40
0.8400729358065468
 40
0.8791563435051604
 40
0.9182397512037738
 40
0.9338731142832192
 40
0.9416897958229419
 40
0.9416897958229419
 40
0.9416897958229419
 40
0.9416897958229419
 10
102.1361548310656
 20
142.7492151988939
 30
0.0
 10
102.060559454684
 20
143.2862211012639
 30
0.0
 10
101.8285579018462
 20
144.9587338987955
 30
0.0
 10
101.5285499080602
 20
147.3530615845559
 30
0.0
 10
101.244654223773
 20
149.9222646460894
 30
0.0
 10
101.0807588698632
 20
151.5734690138225
 30
0.0
 10
100.9773804613996
 20
152.7032596129008
 30
0.0
 10
100.9400598699669
 20
153.1271413830863
 30
0.0
 10
100.9020397647405
 20
153.5668452326384
 30
0.0
 10
100.8788530473479
 20
153.8421272962882
 30
0.0
 10
100.8226148951918
 20
154.5305148545828
 30
0.0
 10
100.7855595506192
 20
155.0068078345894
 30
0.0
 10
100.690991434002
 20
156.2921272998463
 30
0.0
 10
100.6158012787192
 20
157.4394615787281
 30
0.0
 10
100.4949229409897
 20
159.637103440768
 30
0.0
 10
100.4153619628184
 20
161.5494241142938
 30
0.0
 10
100.3675533681875
 20
163.4972414976052
 30
0.0
 10
100.3479921533992
 20
164.6779372171987
 30
0.0
 10
100.3394967259682
 20
165.447868341654
 30
0.0
 10
100.3356566798339
 20
165.9669984494696
 30
0.0
 10
100.334431491115
 20
166.1533792190243
 30
0.0
 10
100.3340800750084
 20
166.2154742578519
 30
0.0
  0
SPLINE
  5
20F
330
1F
100
AcDbEntity
  8
0
  6
Continuous
 62
     8
370
    18
100
AcDbSpline
210
0.0
220
0.0
230
1.0
 70
     8
 71
     3
 72
    20
 73
    16
 74
     0
 42
0.000000001
 43
0.00000001
 40
0.0
 40
0.0
 40
0.0
 40
0.0
 40
0.2500000000000031
 40
0.2500000000000031
 40
0.5000000000000062
 40
0.5000000000000062
 40
0.6250000000000047
 40
0.6250000000000047
 40
0.7500000000000031
 40
0.7500000000000031
 40
0.8750000000000016
 40
0.8750000000000016
 40
0.9375000000000008
 40
0.9375000000000008
 40
1.0
 40
1.0
 40
1.0
 40
1.0
 10
127.0930175849033
 20
190.0716666112438
 30
0.0
 10
125.9672692249572
 20
190.0719113897869
 30
0.0
 10
124.8393705222425
 20
190.0721608705108
 30
0.0
 10
122.5725020963548
 20
190.0726961523877
 30
0.0
 10
121.4337043162368
 20
190.0729784966567
 30
0.0
 10
119.7428412776665
 20
190.0734353226221
 30
0.0
 10
119.1829894900412
 20
190.0735943779227
 30
0.0
 10
118.0685214921793
 20
190.0739229401701
 30
0.0
 10
117.5126587562411
 20
190.0740888319903
 30
0.0
 10
116.3903475190108
 20
190.0743860588703
 30
0.0
 10
115.8237969142474
 20
190.0745212335295
 30
0.0
 10
114.9565539318995
 20
190.0746500533354
 30
0.0
 10
114.6626736967118
 20
190.0747018924044
 30
0.0
 10
114.0814842564521
 20
190.0746095360126
 30
0.0
 10
113.795325415338
 20
190.0744532709071
 30
0.0
 10
113.5252889136118
 20
190.0740583259187
 30
0.0
  0
SPLINE
  5
210
330
1F
100
AcDbEntity
  8
0
  6
Continuous
 62
     8
370
    18
100
AcDbSpline
210
0.0
220
0.0
230
1.0
 70
     8
 71
     3
 72
    14
 73
    10
 74
     0
 42
0.000000001
 43
0.00000001
 40
0.0
 40
0.0
 40
0.0
 40
0.0
 40
0.1424691142070565
 40
0.2893809634232308
 40
0.4365518887592277
 40
0.5828610832849245
 40
0.7297600959329233
 40
0.877547665944177
 40
1.0
 40
1.0
 40
1.0
 40
1.0
 10
113.5362530558855
 20
190.0743203682018
 30
0.0
 10
112.7982526840146
 20
190.0734620874918
 30
0.0
 10
111.2992382498524
 20
190.0717187615779
 30
0.0
 10
109.0606281809284
 20
189.9290767750256
 30
0.0
 10
106.9735273034078
 20
189.6134649389246
 30
0.0
 10
105.1516618551124
 20
189.1725380410555
 30
0.0
 10
103.6780845205822
 20
188.6111069262877
 30
0.0
 10
102.6456611348091
 20
187.9594483289838
 30
0.0
 10
102.408275703638
 20
187.4962033926968
 30
0.0
 10
102.3007105377233
 20
187.2862957408876
 30
0.0
  0
SPLINE
  5
211
330
1F
100
AcDbEntity
  8
0
  6
Continuous
 62
     8
370
    18
100
AcDbSpline
210
0.0
220
0.0
230
1.0
 70
     8
 71
     3
 72
    12
 73
     8
 74
     0
 42
0.000000001
 43
0.00000001
 40
0.0
 40
0.0
 40
0.0
 40
0.0
 40
0.5
 40
0.5
 40
0.75
 40
0.75
 40
1.0
 40
1.0
 40
1.0
 40
1.0
 10
366.4045439708685
 20
186.8845254549538
 30
0.0
 10
365.5305640214758
 20
186.894359285244
 30
0.0
 10
364.6565798619498
 20
186.9037969773869
 30
0.0
 10
363.3456238645601
 20
186.9197150403002
 30
0.0
 10
362.9086418503379
 20
186.9253172589094
 30
0.0
 10
362.0346604238962
 20
186.9349118297073
 30
0.0
 10
361.5976569048677
 20
186.937184411777
 30
0.0
 10
361.1606374138447
 20
186.937184411777
 30
0.0
  0
SPLINE
  5
212
330
1F
100
AcDbEntity
  8
0
  6
Continuous
 62
     8
370
    18
100
AcDbSpline
210
0.0
220
0.0
230
1.0
 70
     8
 71
     3
 72
    50
 73
    46
 74
     0
 42
0.000000001
 43
0.00000001
 40
0.0
 40
0.0
 40
0.0
 40
0.0
 40
0.2499999999999996
 40
0.2499999999999996
 40
0.3124999999999993
 40
0.3124999999999993
 40
0.3437499999999992
 40
0.3437499999999992
 40
0.3593749999999992
 40
0.3593749999999992
 40
0.3749999999999992
 40
0.3749999999999992
 40
0.4062499999999992
 40
0.4062499999999992
 40
0.4374999999999991
 40
0.4374999999999991
 40
0.4687499999999991
 40
0.4687499999999991
 40
0.499999999999999
 40
0.499999999999999
 40
0.531249999999999
 40
0.531249999999999
 40
0.5624999999999989
 40
0.5624999999999989
 40
0.578124999999999
 40
0.578124999999999
 40
0.5937499999999991
 40
0.5937499999999991
 40
0.624999999999999
 40
0.624999999999999
 40
0.656249999999999
 40
0.656249999999999
 40
0.6874999999999989
 40
0.6874999999999989
 40
0.7499999999999989
 40
0.7499999999999989
 40
0.7812499999999989
 40
0.7812499999999989
 40
0.812499999999999
 40
0.812499999999999
 40
0.8749999999999993
 40
0.8749999999999993
 40
0.9374999999999997
 40
0.9374999999999997
 40
1.0
 40
1.0
 40
1.0
 40
1.0
 10
386.3855678348117
 20
163.6299990922544
 30
0.0
 10
386.3855677246814
 20
166.8728650808878
 30
0.0
 10
386.2996741260039
 20
170.1154381524476
 30
0.0
 10
386.0978066325866
 20
174.1635021673816
 30
0.0
 10
386.0528403327542
 20
174.972843969762
 30
0.0
 10
385.9782617544518
 20
176.1864359581597
 30
0.0
 10
385.9528235613007
 20
176.5909323283658
 30
0.0
 10
385.9116025038951
 20
177.1974964583044
 30
0.0
 10
385.8975655905234
 20
177.3996669051439
 30
0.0
 10
385.8705215649939
 20
177.8040682796885
 30
0.0
 10
385.8564697298388
 20
178.0062381078362
 30
0.0
 10
385.8018126590045
 20
178.612011324618
 30
0.0
 10
385.7593162876605
 20
179.0154528587442
 30
0.0
 10
385.6329630217879
 20
179.8124751071111
 30
0.0
 10
385.5511833835998
 20
180.2069287332053
 30
0.0
 10
385.3416403072522
 20
180.9858076773081
 30
0.0
 10
385.2134942666501
 20
181.3724443720297
 30
0.0
 10
384.9035854343346
 20
182.1228105074498
 30
0.0
 10
384.7226106494379
 20
182.4840547705284
 30
0.0
 10
384.3018057631878
 20
183.1750151675696
 30
0.0
 10
384.0601176279348
 20
183.5068713757467
 30
0.0
 10
383.5258763979166
 20
184.1114973775043
 30
0.0
 10
383.2332497205905
 20
184.3877978440447
 30
0.0
 10
382.7583957207416
 20
184.7656178141995
 30
0.0
 10
382.5932400624632
 20
184.8858331609174
 30
0.0
 10
382.2554506114231
 20
185.1106735384449
 30
0.0
 10
382.082881386492
 20
185.2155584068158
 30
0.0
 10
381.5554379529067
 20
185.5102496844705
 30
0.0
 10
381.190891283377
 20
185.6802226173735
 30
0.0
 10
380.4405355789214
 20
185.9765756801433
 30
0.0
 10
380.052993006133
 20
186.1032526377942
 30
0.0
 10
379.2745626949844
 20
186.3164753622996
 30
0.0
 10
378.8823280379249
 20
186.4038941091011
 30
0.0
 10
377.6982516884228
 20
186.619248116721
 30
0.0
 10
376.8991519568407
 20
186.7009794038242
 30
0.0
 10
375.6913625926107
 20
186.7656112584509
 30
0.0
 10
375.2872487494922
 20
186.7785759804113
 30
0.0
 10
374.4798561456971
 20
186.7980469046017
 30
0.0
 10
374.0760735239369
 20
186.8010601294135
 30
0.0
 10
372.8647859789786
 20
186.8147416048445
 30
0.0
 10
372.0572623668023
 20
186.8239684398725
 30
0.0
 10
370.4422136332557
 20
186.8423376233746
 30
0.0
 10
369.6346870876868
 20
186.8513543598766
 30
0.0
 10
368.0196352428356
 20
186.8695044242692
 30
0.0
 10
367.2121115807194
 20
186.8787696880074
 30
0.0
 10
366.4045439708684
 20
186.8845254549538
 30
0.0
  0
SPLINE
  5
213
330
1F
100
AcDbEntity
  8
0
  6
Continuous
 62
     8
370
    18
100
AcDbSpline
210
0.0
220
0.0
230
1.0
 70
     8
 71
     3
 72
    44
 73
    40
 74
     0
 42
0.000000001
 43
0.00000001
 40
0.0
 40
0.0
 40
0.0
 40
0.0
 40
0.0625000000000011
 40
0.0625000000000011
 40
0.1250000000000022
 40
0.1250000000000022
 40
0.1875000000000033
 40
0.1875000000000033
 40
0.2187500000000039
 40
0.2187500000000039
 40
0.2500000000000045
 40
0.2500000000000045
 40
0.3125000000000056
 40
0.3125000000000056
 40
0.3750000000000066
 40
0.3750000000000066
 40
0.4375000000000075
 40
0.4375000000000075
 40
0.4687500000000079
 40
0.4687500000000079
 40
0.5000000000000082
 40
0.5000000000000082
 40
0.5312500000000085
 40
0.5312500000000085
 40
0.5625000000000089
 40
0.5625000000000089
 40
0.5937500000000092
 40
0.5937500000000092
 40
0.6250000000000095
 40
0.6250000000000095
 40
0.6406250000000094
 40
0.6406250000000094
 40
0.6562500000000094
 40
0.6562500000000094
 40
0.6875000000000087
 40
0.6875000000000087
 40
0.7500000000000066
 40
0.7500000000000066
 40
1.0
 40
1.0
 40
1.0
 40
1.0
 10
366.4045439708718
 20
140.375472729555
 30
0.0
 10
367.2111440542722
 20
140.3812216006617
 30
0.0
 10
368.0177127276509
 20
140.3904722905597
 30
0.0
 10
369.6308529614049
 20
140.4086006012601
 30
0.0
 10
370.4374244048619
 20
140.4176071367417
 30
0.0
 10
372.0505590496348
 20
140.4359524629584
 30
0.0
 10
372.8571248234732
 20
140.4451705138327
 30
0.0
 10
374.0669775462431
 20
140.4588350864753
 30
0.0
 10
374.4702999198551
 20
140.461810739523
 30
0.0
 10
375.2766273208029
 20
140.4810783653721
 30
0.0
 10
375.6797091846118
 20
140.4939526057685
 30
0.0
 10
376.8883206809188
 20
140.5580685170241
 30
0.0
 10
377.6958864081041
 20
140.6403797389216
 30
0.0
 10
379.2772013800295
 20
140.9278619309228
 30
0.0
 10
380.0537783459422
 20
141.1313712086162
 30
0.0
 10
381.5627518129949
 20
141.7259502729855
 30
0.0
 10
382.2788746625181
 20
142.1132011890704
 30
0.0
 10
383.2327334307081
 20
142.8716132656638
 30
0.0
 10
383.5255243479102
 20
143.1482355421755
 30
0.0
 10
384.0585514782258
 20
143.7512216349219
 30
0.0
 10
384.2992770391367
 20
144.0811751246022
 30
0.0
 10
384.7217713804344
 20
144.7742238058556
 30
0.0
 10
384.9034330134849
 20
145.1367262813174
 30
0.0
 10
385.2142081754645
 20
145.8893748768068
 30
0.0
 10
385.3411417602418
 20
146.2726754384
 30
0.0
 10
385.550503411
 20
147.0502058197058
 30
0.0
 10
385.6324129844565
 20
147.4445590003508
 30
0.0
 10
385.7590541554513
 20
148.2423895614966
 30
0.0
 10
385.8016632053264
 20
148.6466358798696
 30
0.0
 10
385.8563619750661
 20
149.2524138565431
 30
0.0
 10
385.8704333514851
 20
149.4545930129406
 30
0.0
 10
385.8974765247376
 20
149.859017118609
 30
0.0
 10
385.9115118006537
 20
150.0611980535779
 30
0.0
 10
385.952741377174
 20
150.667794785961
 30
0.0
 10
385.9781828573454
 20
151.0723169915968
 30
0.0
 10
386.0527735308049
 20
152.2859900810772
 30
0.0
 10
386.0977477301418
 20
153.0953955009365
 30
0.0
 10
386.2996534814642
 20
157.143823665489
 30
0.0
 10
386.3855677246695
 20
160.386785041728
 30
0.0
 10
386.3855678348117
 20
163.6299990922544
 30
0.0
  0
SPLINE
  5
214
330
1F
100
AcDbEntity
  8
0
  6
Continuous
 62
     8
370
    18
100
AcDbSpline
210
0.0
220
0.0
230
1.0
 70
     8
 71
     3
 72
    12
 73
     8
 74
     0
 42
0.000000001
 43
0.00000001
 40
0.0
 40
0.0
 40
0.0
 40
0.0
 40
0.2500000000000001
 40
0.2500000000000001
 40
0.5000000000000001
 40
0.5000000000000001
 40
1.0
 40
1.0
 40
1.0
 40
1.0
 10
361.1606374138447
 20
140.3228137727318
 30
0.0
 10
361.597656904868
 20
140.3228137727318
 30
0.0
 10
362.0346604238968
 20
140.3250863548015
 30
0.0
 10
362.908641850339
 20
140.3346809255995
 30
0.0
 10
363.3456238645616
 20
140.3402831442087
 30
0.0
 10
364.656579861952
 20
140.3562012071219
 30
0.0
 10
365.5305640214785
 20
140.3656388992647
 30
0.0
 10
366.4045439708718
 20
140.3754727295549
 30
0.0
  0
SPLINE
  5
215
330
1F
100
AcDbEntity
  8
0
  6
Continuous
 62
     8
370
    18
100
AcDbSpline
210
0.0
220
0.0
230
1.0
 70
     8
 71
     3
 72
    14
 73
    10
 74
     0
 42
0.000000001
 43
0.00000001
 40
0.0
 40
0.0
 40
0.0
 40
0.0
 40
0.25
 40
0.25
 40
0.5
 40
0.5
 40
0.75
 40
0.75
 40
1.0
 40
1.0
 40
1.0
 40
1.0
 10
103.6155529382211
 20
141.5214555416135
 30
0.0
 10
103.4533393207806
 20
141.5219628158327
 30
0.0
 10
103.280889563544
 20
141.5486394697299
 30
0.0
 10
102.945380358589
 20
141.6652022347563
 30
0.0
 10
102.7829962574212
 20
141.7553331111649
 30
0.0
 10
102.5030770034179
 20
141.9873903283913
 30
0.0
 10
102.386142431445
 20
142.1288159646779
 30
0.0
 10
102.2156216464418
 20
142.4316364795311
 30
0.0
 10
102.1620707725538
 20
142.5923138956923
 30
0.0
 10
102.1363886634925
 20
142.7472772977727
 30
0.0
  0
SPLINE
  5
216
330
1F
100
AcDbEntity
  8
0
  6
Continuous
 62
     8
370
    18
100
AcDbSpline
210
0.0
220
0.0
230
1.0
 70
     8
 71
     3
 72
    10
 73
     6
 74
     0
 42
0.000000001
 43
0.00000001
 40
0.0
 40
0.0
 40
0.0
 40
0.0
 40
0.5
 40
0.5
 40
1.0
 40
1.0
 40
1.0
 40
1.0
 10
127.3878710796183
 20
143.9760084897115
 30
0.0
 10
127.3316912913926
 20
144.0371645682168
 30
0.0
 10
127.275167216671
 20
144.1526918992531
 30
0.0
 10
127.1740649167666
 20
144.4660165681719
 30
0.0
 10
127.1283526264057
 20
144.6673228171476
 30
0.0
 10
127.0930104710425
 20
144.8924714286184
 30
0.0
  0
SPLINE
  5
217
330
1F
100
AcDbEntity
  8
0
  6
Continuous
 62
     8
370
    18
100
AcDbSpline
210
0.0
220
0.0
230
1.0
 70
     8
 71
     3
 72
    12
 73
     8
 74
     0
 42
0.000000001
 43
0.00000001
 40
0.0
 40
0.0
 40
0.0
 40
0.0
 40
0.2500000000000002
 40
0.2500000000000002
 40
0.5000000000000003
 40
0.5000000000000003
 40
1.0
 40
1.0
 40
1.0
 40
1.0
 10
366.3882873407454
 20
187.6267629788123
 30
0.0
 10
366.3897332848229
 20
187.6272880147497
 30
0.0
 10
366.3911842446824
 20
187.6109610667477
 30
0.0
 10
366.3940958400338
 20
187.5457973368865
 30
0.0
 10
366.3955656003811
 20
187.4961145716239
 30
0.0
 10
366.3997640527091
 20
187.3045583309252
 30
0.0
 10
366.4024139011327
 20
187.1130512568444
 30
0.0
 10
366.4045439708659
 20
186.884525455061
 30
0.0
  0
SPLINE
  5
218
330
1F
100
AcDbEntity
  8
0
  6
Continuous
 62
     8
370
    18
100
AcDbSpline
210
0.0
220
0.0
230
1.0
 70
     8
 71
     3
 72
    12
 73
     8
 74
     0
 42
0.000000001
 43
0.00000001
 40
0.0
 40
0.0
 40
0.0
 40
0.0
 40
0.25
 40
0.25
 40
0.5
 40
0.5
 40
1.0
 40
1.0
 40
1.0
 40
1.0
 10
366.3882873407275
 20
139.6332352056965
 30
0.0
 10
366.3897332847982
 20
139.6327101697606
 30
0.0
 10
366.3911842446458
 20
139.64903711767
 30
0.0
 10
366.3940958400037
 20
139.7142008479171
 30
0.0
 10
366.3955656003665
 20
139.7638836128764
 30
0.0
 10
366.3997640526884
 20
139.9554398534482
 30
0.0
 10
366.4024139010435
 20
140.1469469271438
 30
0.0
 10
366.4045439708676
 20
140.3754727295516
 30
0.0
  0
SPLINE
  5
219
330
1F
100
AcDbEntity
  8
0
  6
Continuous
 62
     8
370
    18
100
AcDbSpline
210
0.0
220
0.0
230
1.0
 70
    24
 71
     3
 72
    10
 73
     6
 74
     0
 42
0.000000001
 43
0.00000001
 40
0.0
 40
0.0
 40
0.0
 40
0.0
 40
0.5
 40
0.5
 40
1.0
 40
1.0
 40
1.0
 40
1.0
 10
361.1606374138447
 20
140.3228137727318
 30
0.0
 10
361.1606374138447
 20
140.1079827700926
 30
0.0
 10
361.1606374138447
 20
139.9322389832606
 30
0.0
 10
361.1606374138447
 20
139.6941965950664
 30
0.0
 10
361.1606374138447
 20
139.6320661975708
 30
0.0
 10
361.1606374138447
 20
139.6330612010304
 30
0.0
  0
SPLINE
  5
21A
330
1F
100
AcDbEntity
  8
0
  6
Continuous
 62
     8
370
    18
100
AcDbSpline
210
0.0
220
0.0
230
1.0
 70
    24
 71
     3
 72
    10
 73
     6
 74
     0
 42
0.000000001
 43
0.00000001
 40
0.0
 40
0.0
 40
0.0
 40
0.0
 40
0.5
 40
0.5
 40
1.0
 40
1.0
 40
1.0
 40
1.0
 10
361.1606374138447
 20
187.6269369834785
 30
0.0
 10
361.1606374138447
 20
187.627931986938
 30
0.0
 10
361.1606374138447
 20
187.5658015894424
 30
0.0
 10
361.1606374138447
 20
187.3277592012482
 30
0.0
 10
361.1606374138447
 20
187.1520154144162
 30
0.0
 10
361.1606374138447
 20
186.937184411777
 30
0.0
  0
SPLINE
  5
21B
330
1F
100
AcDbEntity
  8
0
  6
Continuous
 62
     8
370
    18
100
AcDbSpline
210
0.0
220
0.0
230
1.0
 70
     8
 71
     3
 72
     8
 73
     4
 74
     0
 42
0.000000001
 43
0.00000001
 40
0.0
 40
0.0
 40
0.0
 40
0.0
 40
1.0
 40
1.0
 40
1.0
 40
1.0
 10
130.8901070052562
 20
141.1448604668811
 30
0.0
 10
130.4883111574709
 20
141.4155149683893
 30
0.0
 10
130.085766086564
 20
141.7147853704633
 30
0.0
 10
129.6828362855728
 20
142.0322345666263
 30
0.0
  0
SPLINE
  5
21C
330
1F
100
AcDbEntity
  8
0
  6
Continuous
 62
     8
370
    18
100
AcDbSpline
210
0.0
220
0.0
230
1.0
 70
     8
 71
     3
 72
    12
 73
     8
 74
     0
 42
0.000000001
 43
0.00000001
 40
0.0
 40
0.0
 40
0.0
 40
0.0
 40
0.2499999999999997
 40
0.2499999999999997
 40
0.4999999999999993
 40
0.4999999999999993
 40
1.0
 40
1.0
 40
1.0
 40
1.0
 10
132.2341424696079
 20
139.929644342473
 30
0.0
 10
132.2341450960232
 20
139.9454720436109
 30
0.0
 10
132.2071459606715
 20
139.9974884389159
 30
0.0
 10
132.0966884973033
 20
140.1459825857869
 30
0.0
 10
132.0129318352471
 20
140.242357605519
 30
0.0
 10
131.676954833165
 20
140.5690900708398
 30
0.0
 10
131.3409171845872
 20
140.841189323851
 30
0.0
 10
130.8901070052562
 20
141.1448604668811
 30
0.0
  0
LINE
  5
21D
330
1F
100
AcDbEntity
  8
0
  6
Continuous
 62
     8
370
    18
100
AcDbLine
 10
102.1342776353
 20
142.7469543312
 30
0.0
 11
102.1291839416
 21
142.5662014484
 31
0.0
  0
LINE
  5
21E
330
1F
100
AcDbEntity
  8
0
  6
Continuous
 62
     8
370
    18
100
AcDbLine
 10
102.1291839416
 20
142.5662014484
 30
0.0
 11
102.1290460414
 21
142.5613150132
 31
0.0
  0
SPLINE
  5
21F
330
1F
100
AcDbEntity
  8
0
  6
Continuous
 62
     8
370
    18
100
AcDbSpline
210
0.0
220
0.0
230
1.0
 70
     8
 71
     3
 72
     9
 73
     5
 74
     0
 42
0.000000001
 43
0.00000001
 40
0.0
 40
0.0
 40
0.0
 40
0.0
 40
0.5004055851366339
 40
1.0
 40
1.0
 40
1.0
 40
1.0
 10
102.1290471970065
 20
142.5613089139049
 30
0.0
 10
101.6276098814208
 20
145.9878225870427
 30
0.0
 10
100.625548092984
 20
152.8352954668713
 30
0.0
 10
100.4673407814591
 20
159.7491377510925
 30
0.0
 10
100.3883012922308
 20
163.2032547415356
 30
0.0
  0
SPLINE
  5
220
330
1F
100
AcDbEntity
  8
0
  6
Continuous
 62
     8
370
    18
100
AcDbSpline
210
0.0
220
0.0
230
1.0
 70
     8
 71
     3
 72
    14
 73
    10
 74
     0
 42
0.000000001
 43
0.00000001
 40
0.0
 40
0.0
 40
0.0
 40
0.0
 40
0.5000000000000002
 40
0.5000000000000002
 40
0.7499999999999999
 40
0.7499999999999999
 40
0.875
 40
0.875
 40
1.0
 40
1.0
 40
1.0
 40
1.0
 10
102.1198545492705
 20
136.9558094830579
 30
0.0
 10
102.1224507966296
 20
137.8799716425625
 30
0.0
 10
102.1246119201571
 20
138.8088995220672
 30
0.0
 10
102.1271041966822
 20
140.210857675699
 30
0.0
 10
102.1279087044605
 20
140.6794707959217
 30
0.0
 10
102.1287996819772
 20
141.3838950053253
 30
0.0
 10
102.1289088238811
 20
141.6189738377533
 30
0.0
 10
102.1272995841686
 20
142.0899867034014
 30
0.0
 10
102.1224358677315
 20
142.3266778458183
 30
0.0
 10
102.1290414612046
 20
142.5613010053009
 30
0.0
  0
SPLINE
  5
221
330
1F
100
AcDbEntity
  8
0
  6
Continuous
 62
     8
370
    18
100
AcDbSpline
210
0.0
220
0.0
230
1.0
 70
     8
 71
     3
 72
    18
 73
    14
 74
     0
 42
0.000000001
 43
0.00000001
 40
0.0
 40
0.0
 40
0.0
 40
0.0
 40
0.2500000000000002
 40
0.2500000000000002
 40
0.5000000000000003
 40
0.5000000000000003
 40
0.7500000000000004
 40
0.7500000000000004
 40
0.8750000000000002
 40
0.8750000000000002
 40
0.9375000000000001
 40
0.9375000000000001
 40
1.0
 40
1.0
 40
1.0
 40
1.0
 10
102.1228113186587
 20
126.653045170851
 30
0.0
 10
102.1236973800464
 20
127.5037020984212
 30
0.0
 10
102.123652845392
 20
128.3580481591292
 30
0.0
 10
102.1213960666124
 20
130.0762736108243
 30
0.0
 10
102.1198628801361
 20
130.9387795937079
 30
0.0
 10
102.1178847319485
 20
132.6631364834169
 30
0.0
 10
102.1173163062187
 20
133.5249878798841
 30
0.0
 10
102.1175210028698
 20
134.8141141377316
 30
0.0
 10
102.1177562288107
 20
135.2432701220506
 30
0.0
 10
102.118360217457
 20
135.8860952847982
 30
0.0
 10
102.1186050259468
 20
136.1002108060167
 30
0.0
 10
102.1191980343634
 20
136.5280357734761
 30
0.0
 10
102.1193223407622
 20
136.74309870085
 30
0.0
 10
102.1199500190279
 20
136.9552317106547
 30
0.0
  0
SPLINE
  5
222
330
1F
100
AcDbEntity
  8
0
  6
Continuous
 62
     8
370
    18
100
AcDbSpline
210
0.0
220
0.0
230
1.0
 70
     8
 71
     3
 72
     8
 73
     4
 74
     0
 42
0.000000001
 43
0.00000001
 40
0.0
 40
0.0
 40
0.0
 40
0.0
 40
1.0
 40
1.0
 40
1.0
 40
1.0
 10
102.1223816942046
 20
124.5818988149569
 30
0.0
 10
102.121958314048
 20
125.2794092309704
 30
0.0
 10
102.1223569009335
 20
125.9703507803316
 30
0.0
 10
102.1230452205434
 20
126.6528317516624
 30
0.0
  0
LINE
  5
223
330
1F
100
AcDbEntity
  8
0
  6
Continuous
 62
     8
370
    18
100
AcDbLine
 10
102.1223816942
 20
124.581898815
 30
0.0
 11
102.122383994
 21
124.5780833008
 31
0.0
  0
SPLINE
  5
224
330
1F
100
AcDbEntity
  8
0
  6
Continuous
 62
     8
370
    18
100
AcDbSpline
210
0.0
220
0.0
230
1.0
 70
     8
 71
     3
 72
     9
 73
     5
 74
     0
 42
0.000000001
 43
0.00000001
 40
0.0
 40
0.0
 40
0.0
 40
0.0
 40
0.5490945319017932
 40
1.0
 40
1.0
 40
1.0
 40
1.0
 10
102.1220632746757
 20
124.578010172897
 30
0.0
 10
101.6162578086117
 20
127.8935355320403
 30
0.0
 10
100.6950949911421
 20
133.9317041287298
 30
0.0
 10
100.5399468219261
 20
140.0317596230662
 30
0.0
 10
100.4699896640613
 20
142.782308001165
 30
0.0
  0
LINE
  5
225
330
1F
100
AcDbEntity
  8
0
  6
Continuous
 62
     8
370
    18
100
AcDbLine
 10
100.3449325768
 20
150.6078423303
 30
0.0
 11
100.3461238305
 21
151.3818284552
 31
0.0
  0
LINE
  5
226
330
1F
100
AcDbEntity
  8
0
  6
Continuous
 62
     8
370
    18
100
AcDbLine
 10
100.3331532212
 20
158.5480001349
 30
0.0
 11
100.3341070137
 21
164.4555047512
 31
0.0
  0
SPLINE
  5
227
330
1F
100
AcDbEntity
  8
0
  6
Continuous
 62
     8
370
    18
100
AcDbSpline
210
0.0
220
0.0
230
1.0
 70
     8
 71
     3
 72
    10
 73
     6
 74
     0
 42
0.000000001
 43
0.00000001
 40
0.0
 40
0.0
 40
0.0
 40
0.0
 40
0.5
 40
0.5
 40
1.0
 40
1.0
 40
1.0
 40
1.0
 10
113.5253396512714
 20
190.0743089978658
 30
0.0
 10
113.5263506992166
 20
190.2135030730468
 30
0.0
 10
113.5277030209227
 20
190.3171492670389
 30
0.0
 10
113.5307697874862
 20
190.4092320856147
 30
0.0
 10
113.5324687937715
 20
190.3972051512073
 30
0.0
 10
113.5340783675647
 20
190.3366979376141
 30
0.0
  0
SPLINE
  5
228
330
1F
100
AcDbEntity
  8
0
  6
Continuous
 62
     8
370
    18
100
AcDbSpline
210
0.0
220
0.0
230
1.0
 70
     8
 71
     3
 72
    10
 73
     6
 74
     0
 42
0.000000001
 43
0.00000001
 40
0.0
 40
0.0
 40
0.0
 40
0.0
 40
0.0000669409991225
 40
0.4466843274501175
 40
1.0
 40
1.0
 40
1.0
 40
1.0
 10
127.0930104710425
 20
190.0716184986789
 30
0.0
 10
127.0930133264126
 20
190.0716303480462
 30
0.0
 10
127.112066658786
 20
190.1506988818851
 30
0.0
 10
127.1608460778213
 20
190.3059281787981
 30
0.0
 10
127.2238120732539
 20
190.3499964859092
 30
0.0
 10
127.2586544777499
 20
190.374381803274
 30
0.0
  0
SPLINE
  5
229
330
1F
100
AcDbEntity
  8
0
  6
Continuous
 62
     8
370
    18
100
AcDbSpline
210
0.0
220
0.0
230
1.0
 70
     8
 71
     3
 72
    24
 73
    20
 74
     0
 42
0.000000001
 43
0.00000001
 40
0.0
 40
0.0
 40
0.0
 40
0.0
 40
0.0078125
 40
0.0078125
 40
0.015625
 40
0.015625
 40
0.03125
 40
0.03125
 40
0.0624999999999998
 40
0.0624999999999998
 40
0.1249999999999999
 40
0.1249999999999999
 40
0.2499999999999998
 40
0.2499999999999998
 40
0.4999999999999998
 40
0.4999999999999998
 40
0.7499999999999999
 40
0.7499999999999999
 40
1.0
 40
1.0
 40
1.0
 40
1.0
 10
103.6968187440894
 20
135.734196509016
 30
0.0
 10
103.6976090689643
 20
135.7077000342453
 30
0.0
 10
103.6993423757694
 20
135.6816648957447
 30
0.0
 10
103.7032931299163
 20
135.6294050039057
 30
0.0
 10
103.7023505161439
 20
135.6019698981212
 30
0.0
 10
103.7031628878694
 20
135.5215230722561
 30
0.0
 10
103.7050717505062
 20
135.4685459796966
 30
0.0
 10
103.7086591203984
 20
135.3086063780628
 30
0.0
 10
103.7108986316852
 20
135.2019211594904
 30
0.0
 10
103.7171772820487
 20
134.8817000574045
 30
0.0
 10
103.7207521906952
 20
134.6679869893946
 30
0.0
 10
103.7296660219503
 20
134.0262018827871
 30
0.0
 10
103.733377863942
 20
133.5975674294907
 30
0.0
 10
103.7367115001714
 20
132.3092674316227
 30
0.0
 10
103.7273816749431
 20
131.4468013150993
 30
0.0
 10
103.6964293947355
 20
129.7206350883533
 30
0.0
 10
103.6751600690882
 20
128.8571444456183
 30
0.0
 10
103.6432035061889
 20
127.1379936291694
 30
0.0
 10
103.6346101672756
 20
126.2835207963993
 30
0.0
 10
103.6317511461465
 20
125.4333494530845
 30
0.0
  0
SPLINE
  5
22A
330
1F
100
AcDbEntity
  8
0
  6
Continuous
 62
     8
370
    18
100
AcDbSpline
210
0.0
220
0.0
230
1.0
 70
     8
 71
     3
 72
    17
 73
    13
 74
     0
 42
0.000000001
 43
0.00000001
 40
0.6540137648318898
 40
0.6540137648318898
 40
0.6540137648318898
 40
0.6540137648318898
 40
0.6844227112538338
 40
0.7061433872917314
 40
0.735104288675595
 40
0.7857858660973561
 40
0.7891646379254735
 40
0.8702551618002914
 40
0.9189094761251821
 40
0.9513456856751092
 40
0.9791481510036183
 40
1.0
 40
1.0
 40
1.0
 40
1.0
 10
108.6113705401075
 20
136.1498848294395
 30
0.0
 10
108.6022365904148
 20
136.0436577557145
 30
0.0
 10
108.5871663697957
 20
135.8612368585344
 30
0.0
 10
108.5632473320734
 20
135.577728033748
 30
0.0
 10
108.5334843860336
 20
135.2232685757842
 30
0.0
 10
108.5090737422909
 20
134.9329672844791
 30
0.0
 10
108.4693567772533
 20
134.4603722042995
 30
0.0
 10
108.4302383513045
 20
133.9948644100911
 30
0.0
 10
108.3825829344055
 20
133.4277474357018
 30
0.0
 10
108.3505847248911
 20
133.0469694732474
 30
0.0
 10
108.3267553753659
 20
132.7634119351949
 30
0.0
 10
108.3116263741797
 20
132.5833950640056
 30
0.0
 10
108.306328942256
 20
132.5203633560413
 30
0.0
  0
LINE
  5
22B
330
1F
100
AcDbEntity
  8
0
  6
Continuous
 62
     8
370
    18
100
AcDbLine
 10
108.045559218
 20
129.4372941957
 30
0.0
 11
108.0330980596
 21
129.2478918971
 31
0.0
  0
SPLINE
  5
22C
330
1F
100
AcDbEntity
  8
0
  6
Continuous
 62
     8
370
    18
100
AcDbSpline
210
0.0
220
0.0
230
1.0
 70
     8
 71
     3
 72
     8
 73
     4
 74
     0
 42
0.000000001
 43
0.00000001
 40
0.0
 40
0.0
 40
0.0
 40
0.0
 40
1.0
 40
1.0
 40
1.0
 40
1.0
 10
103.6239093758477
 20
123.3594129844233
 30
0.0
 10
103.6242677753362
 20
123.0130491372469
 30
0.0
 10
103.6273834112027
 20
122.6642133888888
 30
0.0
 10
103.6330595992034
 20
122.3126682634104
 30
0.0
  0
LINE
  5
22D
330
1F
100
AcDbEntity
  8
0
  6
Continuous
 62
     8
370
    18
100
AcDbLine
 10
103.6242987966
 20
123.3594184065
 30
0.0
 11
103.6242926307
 21
123.3632856982
 31
0.0
  0
SPLINE
  5
22E
330
1F
100
AcDbEntity
  8
0
  6
Continuous
 62
     8
370
    18
100
AcDbSpline
210
0.0
220
0.0
230
1.0
 70
     8
 71
     3
 72
     8
 73
     4
 74
     0
 42
0.000000001
 43
0.00000001
 40
0.0
 40
0.0
 40
0.0
 40
0.0
 40
1.0
 40
1.0
 40
1.0
 40
1.0
 10
103.6244871051877
 20
125.4331319508249
 30
0.0
 10
103.6237114947476
 20
124.7514966630144
 30
0.0
 10
103.6231764293516
 20
124.0624240619714
 30
0.0
 10
103.624292630735
 20
123.3632856982111
 30
0.0
  0
SPLINE
  5
22F
330
1F
100
AcDbEntity
  8
0
  6
Continuous
 62
     8
370
    18
100
AcDbSpline
210
0.0
220
0.0
230
1.0
 70
     8
 71
     3
 72
     8
 73
     4
 74
     0
 42
0.000000001
 43
0.00000001
 40
0.0
 40
0.0
 40
0.0
 40
0.0
 40
1.0
 40
1.0
 40
1.0
 40
1.0
 10
102.1281324259655
 20
123.5374852006202
 30
0.0
 10
102.1243728770934
 20
123.8843399879502
 30
0.0
 10
102.1221846016907
 20
124.2316992522848
 30
0.0
 10
102.1220669253733
 20
124.577988635376
 30
0.0
  0
SPLINE
  5
230
330
1F
100
AcDbEntity
  8
0
  6
Continuous
 62
     8
370
    18
100
AcDbSpline
210
0.0
220
0.0
230
1.0
 70
     8
 71
     3
 72
    10
 73
     6
 74
     0
 42
0.000000001
 43
0.00000001
 40
0.0
 40
0.0
 40
0.0
 40
0.0
 40
0.3652560472706746
 40
0.7854420846022325
 40
1.0
 40
1.0
 40
1.0
 40
1.0
 10
102.128185790919
 20
123.5372442605211
 30
0.0
 10
102.130584192555
 20
123.3832422293343
 30
0.0
 10
102.1357416857568
 20
123.0520781669947
 30
0.0
 10
102.1477800795016
 20
122.6943635873107
 30
0.0
 10
102.1520582544806
 20
122.6985452967224
 30
0.0
 10
102.1535043750798
 20
122.6999588097623
 30
0.0
  0
SPLINE
  5
231
330
1F
100
AcDbEntity
  8
0
  6
Continuous
 62
     8
370
    18
100
AcDbSpline
210
0.0
220
0.0
230
1.0
 70
     8
 71
     3
 72
    10
 73
     6
 74
     0
 42
0.000000001
 43
0.00000001
 40
0.0
 40
0.0
 40
0.0
 40
0.0
 40
0.2373378181261348
 40
0.6487858758076829
 40
1.0
 40
1.0
 40
1.0
 40
1.0
 10
103.7696898239916
 20
121.5518927324329
 30
0.0
 10
103.7551508808016
 20
121.5412287028367
 30
0.0
 10
103.7154072737132
 20
121.5120775467512
 30
0.0
 10
103.665523711636
 20
121.8215800504667
 30
0.0
 10
103.6446489804884
 20
122.1576786923154
 30
0.0
 10
103.6350359426429
 20
122.312455725902
 30
0.0
  0
ENDSEC
  0
SECTION
  2
OBJECTS
  0
DICTIONARY
  5
C
330
0
100
AcDbDictionary
281
     1
  3
ACAD_GROUP
350
D
  3
ACAD_LAYOUT
350
1A
  3
ACAD_MLINESTYLE
350
17
  3
ACAD_PLOTSETTINGS
350
19
  3
ACAD_PLOTSTYLENAME
350
E
  3
ACAD_SCALELIST
350
47
  0
DICTIONARY
  5
D
102
{ACAD_REACTORS
330
C
102
}
330
C
100
AcDbDictionary
281
     1
  0
DICTIONARY
  5
1A
102
{ACAD_REACTORS
330
C
102
}
330
C
100
AcDbDictionary
281
     1
  3
Layout1
350
1E
  3
Layout2
350
26
  3
Model
350
22
  0
DICTIONARY
  5
17
102
{ACAD_REACTORS
330
C
102
}
330
C
100
AcDbDictionary
281
     1
  3
Standard
350
18
  0
DICTIONARY
  5
19
102
{ACAD_REACTORS
330
C
102
}
330
C
100
AcDbDictionary
281
     1
  0
ACDBDICTIONARYWDFLT
  5
E
102
{ACAD_REACTORS
330
C
102
}
330
C
100
AcDbDictionary
281
     1
  3
Normal
350
F
100
AcDbDictionaryWithDefault
340
F
  0
DICTIONARY
  5
47
102
{ACAD_REACTORS
330
C
102
}
330
C
100
AcDbDictionary
281
     1
  3
A0
350
48
  3
A1
350
49
  3
A2
350
4A
  3
A3
350
4B
  3
A4
350
4C
  3
A5
350
4D
  3
A6
350
4E
  3
A7
350
4F
  3
A8
350
50
  3
A9
350
51
  3
B0
350
52
  3
B1
350
53
  3
B2
350
54
  3
B3
350
55
  3
B4
350
56
  3
B5
350
57
  3
B6
350
58
  3
B7
350
59
  3
B8
350
5A
  3
B9
350
5B
  3
C0
350
5C
  3
C1
350
5D
  3
C2
350
5E
  3
C3
350
5F
  3
C4
350
60
  3
C5
350
61
  3
C6
350
62
  3
C7
350
63
  3
C8
350
64
  3
C9
350
65
  3
D0
350
66
  3
D1
350
67
  3
D2
350
68
  0
LAYOUT
  5
1E
102
{ACAD_REACTORS
330
1A
102
}
330
1A
100
AcDbPlotSettings
  1

  2
none_device
  4

  6

 40
0.0
 41
0.0
 42
0.0
 43
0.0
 44
0.0
 45
0.0
 46
0.0
 47
0.0
 48
0.0
 49
0.0
140
0.0
141
0.0
142
1.0
143
1.0
 70
   688
 72
     1
 73
     0
 74
     5
  7

 75
    16
147
1.0
148
0.0
149
0.0
100
AcDbLayout
  1
Layout1
 70
     1
 71
     1
 10
0.0
 20
0.0
 11
420.0
 21
297.0
 12
0.0
 22
0.0
 32
0.0
 14
1.0000000000E+20
 24
1.0000000000E+20
 34
1.0000000000E+20
 15
-1.0000000000E+20
 25
-1.0000000000E+20
 35
-1.0000000000E+20
146
0.0
 13
0.0
 23
0.0
 33
0.0
 16
1.0
 26
0.0
 36
0.0
 17
0.0
 27
1.0
 37
0.0
 76
     0
330
1B
  0
LAYOUT
  5
26
102
{ACAD_REACTORS
330
1A
102
}
330
1A
100
AcDbPlotSettings
  1

  2
none_device
  4

  6

 40
0.0
 41
0.0
 42
0.0
 43
0.0
 44
0.0
 45
0.0
 46
0.0
 47
0.0
 48
0.0
 49
0.0
140
0.0
141
0.0
142
1.0
143
1.0
 70
   688
 72
     1
 73
     0
 74
     5
  7

 75
    16
147
1.0
148
0.0
149
0.0
100
AcDbLayout
  1
Layout2
 70
     1
 71
     2
 10
0.0
 20
0.0
 11
0.0
 21
0.0
 12
0.0
 22
0.0
 32
0.0
 14
0.0
 24
0.0
 34
0.0
 15
0.0
 25
0.0
 35
0.0
146
0.0
 13
0.0
 23
0.0
 33
0.0
 16
1.0
 26
0.0
 36
0.0
 17
0.0
 27
1.0
 37
0.0
 76
     0
330
23
  0
LAYOUT
  5
22
102
{ACAD_REACTORS
330
1A
102
}
330
1A
100
AcDbPlotSettings
  1

  2
none_device
  4
Letter_(8.50_x_11.00_Inches)
  6

 40
6.35
 41
6.35
 42
6.35000508
 43
6.35000508
 44
215.9
 45
279.4
 46
0.0
 47
0.0
 48
0.0
 49
0.0
140
0.0
141
0.0
142
1.0
143
1.0
 70
  1712
 72
     1
 73
     0
 74
     0
  7

 75
     0
147
1.0
148
0.0
149
0.0
100
AcDbLayout
  1
Model
 70
     1
 71
     0
 10
0.0
 20
0.0
 11
841.0
 21
594.0
 12
0.0
 22
0.0
 32
0.0
 14
0.0
 24
0.0
 34
0.0
 15
841.0
 25
594.0
 35
0.0
146
0.0
 13
0.0
 23
0.0
 33
0.0
 16
1.0
 26
0.0
 36
0.0
 17
0.0
 27
1.0
 37
0.0
 76
     0
330
1F
331
29
  0
MLINESTYLE
  5
18
102
{ACAD_REACTORS
330
17
102
}
330
17
100
AcDbMlineStyle
  2
Standard
 70
     0
  3

 62
   256
 51
90.0
 52
90.0
 71
     2
 49
0.5
 62
   256
  6
BYLAYER
 49
-0.5
 62
   256
  6
BYLAYER
  0
ACDBPLACEHOLDER
  5
F
102
{ACAD_REACTORS
330
E
102
}
330
E
  0
SCALE
  5
48
102
{ACAD_REACTORS
330
47
102
}
330
47
100
AcDbScale
 70
     0
300
1:1
140
1.0
141
1.0
290
     1
  0
SCALE
  5
49
102
{ACAD_REACTORS
330
47
102
}
330
47
100
AcDbScale
 70
     0
300
1:2
140
1.0
141
2.0
290
     0
  0
SCALE
  5
4A
102
{ACAD_REACTORS
330
47
102
}
330
47
100
AcDbScale
 70
     0
300
1:4
140
1.0
141
4.0
290
     0
  0
SCALE
  5
4B
102
{ACAD_REACTORS
330
47
102
}
330
47
100
AcDbScale
 70
     0
300
1:5
140
1.0
141
5.0
290
     0
  0
SCALE
  5
4C
102
{ACAD_REACTORS
330
47
102
}
330
47
100
AcDbScale
 70
     0
300
1:8
140
1.0
141
8.0
290
     0
  0
SCALE
  5
4D
102
{ACAD_REACTORS
330
47
102
}
330
47
100
AcDbScale
 70
     0
300
1:10
140
1.0
141
10.0
290
     0
  0
SCALE
  5
4E
102
{ACAD_REACTORS
330
47
102
}
330
47
100
AcDbScale
 70
     0
300
1:16
140
1.0
141
16.0
290
     0
  0
SCALE
  5
4F
102
{ACAD_REACTORS
330
47
102
}
330
47
100
AcDbScale
 70
     0
300
1:20
140
1.0
141
20.0
290
     0
  0
SCALE
  5
50
102
{ACAD_REACTORS
330
47
102
}
330
47
100
AcDbScale
 70
     0
300
1:30
140
1.0
141
30.0
290
     0
  0
SCALE
  5
51
102
{ACAD_REACTORS
330
47
102
}
330
47
100
AcDbScale
 70
     0
300
1:40
140
1.0
141
40.0
290
     0
  0
SCALE
  5
52
102
{ACAD_REACTORS
330
47
102
}
330
47
100
AcDbScale
 70
     0
300
1:50
140
1.0
141
50.0
290
     0
  0
SCALE
  5
53
102
{ACAD_REACTORS
330
47
102
}
330
47
100
AcDbScale
 70
     0
300
1:100
140
1.0
141
100.0
290
     0
  0
SCALE
  5
54
102
{ACAD_REACTORS
330
47
102
}
330
47
100
AcDbScale
 70
     0
300
2:1
140
2.0
141
1.0
290
     0
  0
SCALE
  5
55
102
{ACAD_REACTORS
330
47
102
}
330
47
100
AcDbScale
 70
     0
300
4:1
140
4.0
141
1.0
290
     0
  0
SCALE
  5
56
102
{ACAD_REACTORS
330
47
102
}
330
47
100
AcDbScale
 70
     0
300
8:1
140
8.0
141
1.0
290
     0
  0
SCALE
  5
57
102
{ACAD_REACTORS
330
47
102
}
330
47
100
AcDbScale
 70
     0
300
10:1
140
10.0
141
1.0
290
     0
  0
SCALE
  5
58
102
{ACAD_REACTORS
330
47
102
}
330
47
100
AcDbScale
 70
     0
300
100:1
140
100.0
141
1.0
290
     0
  0
SCALE
  5
59
102
{ACAD_REACTORS
330
47
102
}
330
47
100
AcDbScale
 70
     0
300
1/128" = 1'-0"
140
0.0078125
141
12.0
290
     0
  0
SCALE
  5
5A
102
{ACAD_REACTORS
330
47
102
}
330
47
100
AcDbScale
 70
     0
300
1/64" = 1'-0"
140
0.015625
141
12.0
290
     0
  0
SCALE
  5
5B
102
{ACAD_REACTORS
330
47
102
}
330
47
100
AcDbScale
 70
     0
300
1/32" = 1'-0"
140
0.03125
141
12.0
290
     0
  0
SCALE
  5
5C
102
{ACAD_REACTORS
330
47
102
}
330
47
100
AcDbScale
 70
     0
300
1/16" = 1'-0"
140
0.0625
141
12.0
290
     0
  0
SCALE
  5
5D
102
{ACAD_REACTORS
330
47
102
}
330
47
100
AcDbScale
 70
     0
300
3/32" = 1'-0"
140
0.09375
141
12.0
290
     0
  0
SCALE
  5
5E
102
{ACAD_REACTORS
330
47
102
}
330
47
100
AcDbScale
 70
     0
300
1/8" = 1'-0"
140
0.125
141
12.0
290
     0
  0
SCALE
  5
5F
102
{ACAD_REACTORS
330
47
102
}
330
47
100
AcDbScale
 70
     0
300
3/16" = 1'-0"
140
0.1875
141
12.0
290
     0
  0
SCALE
  5
60
102
{ACAD_REACTORS
330
47
102
}
330
47
100
AcDbScale
 70
     0
300
1/4" = 1'-0"
140
0.25
141
12.0
290
     0
  0
SCALE
  5
61
102
{ACAD_REACTORS
330
47
102
}
330
47
100
AcDbScale
 70
     0
300
3/8" = 1'-0"
140
0.375
141
12.0
290
     0
  0
SCALE
  5
62
102
{ACAD_REACTORS
330
47
102
}
330
47
100
AcDbScale
 70
     0
300
1/2" = 1'-0"
140
0.5
141
12.0
290
     0
  0
SCALE
  5
63
102
{ACAD_REACTORS
330
47
102
}
330
47
100
AcDbScale
 70
     0
300
3/4" = 1'-0"
140
0.75
141
12.0
290
     0
  0
SCALE
  5
64
102
{ACAD_REACTORS
330
47
102
}
330
47
100
AcDbScale
 70
     0
300
1" = 1'-0"
140
1.0
141
12.0
290
     0
  0
SCALE
  5
65
102
{ACAD_REACTORS
330
47
102
}
330
47
100
AcDbScale
 70
     0
300
1-1/2" = 1'-0"
140
1.5
141
12.0
290
     0
  0
SCALE
  5
66
102
{ACAD_REACTORS
330
47
102
}
330
47
100
AcDbScale
 70
     0
300
3" = 1'-0"
140
3.0
141
12.0
290
     0
  0
SCALE
  5
67
102
{ACAD_REACTORS
330
47
102
}
330
47
100
AcDbScale
 70
     0
300
6" = 1'-0"
140
6.0
141
12.0
290
     0
  0
SCALE
  5
68
102
{ACAD_REACTORS
330
47
102
}
330
47
100
AcDbScale
 70
     0
300
1'-0" = 1'-0"
140
12.0
141
12.0
290
     0
  0
ENDSEC
  0
EOF
