  0
SECTION
  2
HEADER
  9
$ACADVER
  1
AC1015
  9
$ACADMAINTVER
 70
     6
  9
$DWGCODEPAGE
  3
ANSI_1252
  9
$INSBASE
 10
0.0
 20
0.0
 30
0.0
  9
$EXTMIN
 10
0.0
 20
0.0
 30
0.0
  9
$EXTMAX
 10
594.0
 20
841.0
 30
0.0
  9
$LIMMIN
 10
0.0
 20
0.0
  9
$LIMMAX
 10
594.0
 20
841.0
  9
$ORTHOMODE
 70
     0
  9
$REGENMODE
 70
     1
  9
$FILLMODE
 70
     1
  9
$QTEXTMODE
 70
     0
  9
$MIRRTEXT
 70
     1
  9
$LTSCALE
 40
1.0
  9
$ATTMODE
 70
     1
  9
$TEXTSIZE
 40
10.0
  9
$TRACEWID
 40
1.0
  9
$TEXTSTYLE
  7
Standard
  9
$CLAYER
  8
0
  9
$CELTYPE
  6
ByLayer
  9
$CECOLOR
 62
   256
  9
$CELTSCALE
 40
1.0
  9
$DISPSILH
 70
     0
  9
$DIMSCALE
 40
1.0
  9
$DIMASZ
 40
2.5
  9
$DIMEXO
 40
0.0
  9
$DIMDLI
 40
3.75
  9
$DIMRND
 40
0.0
  9
$DIMDLE
 40
0.0
  9
$DIMEXE
 40
1.0
  9
$DIMTP
 40
0.0
  9
$DIMTM
 40
0.0
  9
$DIMTXT
 40
3.5
  9
$DIMCEN
 40
2.5
  9
$DIMTSZ
 40
0.0
  9
$DIMTOL
 70
     0
  9
$DIMLIM
 70
     0
  9
$DIMTIH
 70
     1
  9
$DIMTOH
 70
     1
  9
$DIMSE1
 70
     0
  9
$DIMSE2
 70
     0
  9
$DIMTAD
 70
     1
  9
$DIMZIN
 70
     0
  9
$DIMBLK
  1

  9
$DIMASO
 70
     1
  9
$DIMSHO
 70
     1
  9
$DIMPOST
  1

  9
$DIMAPOST
  1

  9
$DIMALT
 70
     0
  9
$DIMALTD
 70
     3
  9
$DIMALTF
 40
0.0393700787
  9
$DIMLFAC
 40
2.0
  9
$DIMTOFL
 70
     1
  9
$DIMTVP
 40
0.0
  9
$DIMTIX
 70
     0
  9
$DIMSOXD
 70
     0
  9
$DIMSAH
 70
     0
  9
$DIMBLK1
  1

  9
$DIMBLK2
  1

  9
$DIMSTYLE
  2
ISO-25
  9
$DIMCLRD
 70
     0
  9
$DIMCLRE
 70
     0
  9
$DIMCLRT
 70
     0
  9
$DIMTFAC
 40
1.0
  9
$DIMGAP
 40
1.5
  9
$DIMJUST
 70
     0
  9
$DIMSD1
 70
     0
  9
$DIMSD2
 70
     0
  9
$DIMTOLJ
 70
     0
  9
$DIMTZIN
 70
     0
  9
$DIMALTZ
 70
     0
  9
$DIMALTTZ
 70
     0
  9
$DIMUPT
 70
     0
  9
$DIMDEC
 70
     2
  9
$DIMTDEC
 70
     2
  9
$DIMALTU
 70
     2
  9
$DIMALTTD
 70
     3
  9
$DIMTXSTY
  7
Standard
  9
$DIMAUNIT
 70
     0
  9
$DIMADEC
 70
     2
  9
$DIMALTRND
 40
0.0
  9
$DIMAZIN
 70
     0
  9
$DIMDSEP
 70
    44
  9
$DIMATFIT
 70
     3
  9
$DIMFRAC
 70
     0
  9
$DIMLDRBLK
  1

  9
$DIMLUNIT
 70
     2
  9
$DIMLWD
 70
    -2
  9
$DIMLWE
 70
    -2
  9
$DIMTMOVE
 70
     0
  9
$LUNITS
 70
     2
  9
$LUPREC
 70
     2
  9
$SKETCHINC
 40
1.0
  9
$FILLETRAD
 40
10.0
  9
$AUNITS
 70
     0
  9
$AUPREC
 70
     2
  9
$MENU
  1
.
  9
$ELEVATION
 40
0.0
  9
$PELEVATION
 40
0.0
  9
$THICKNESS
 40
0.0
  9
$LIMCHECK
 70
     0
  9
$CHAMFERA
 40
0.0
  9
$CHAMFERB
 40
0.0
  9
$CHAMFERC
 40
0.0
  9
$CHAMFERD
 40
0.0
  9
$SKPOLY
 70
     0
  9
$TDCREATE
 40
2459993.442340463
  9
$TDUCREATE
 40
2459993.400673796
  9
$TDUPDATE
 40
2459993.442342176
  9
$TDUUPDATE
 40
2459993.400675509
  9
$TDINDWG
 40
0.0000000116
  9
$TDUSRTIMER
 40
0.0000000116
  9
$USRTIMER
 70
     1
  9
$ANGBASE
 50
0.0
  9
$ANGDIR
 70
     0
  9
$PDMODE
 70
     0
  9
$PDSIZE
 40
-1.0
  9
$PLINEWID
 40
0.0
  9
$SPLFRAME
 70
     0
  9
$SPLINETYPE
 70
     6
  9
$SPLINESEGS
 70
     8
  9
$HANDSEED
  5
14E
  9
$SURFTAB1
 70
     6
  9
$SURFTAB2
 70
     6
  9
$SURFTYPE
 70
     6
  9
$SURFU
 70
     6
  9
$SURFV
 70
     6
  9
$UCSBASE
  2

  9
$UCSNAME
  2

  9
$UCSORG
 10
0.0
 20
0.0
 30
0.0
  9
$UCSXDIR
 10
1.0
 20
0.0
 30
0.0
  9
$UCSYDIR
 10
0.0
 20
1.0
 30
0.0
  9
$UCSORTHOREF
  2

  9
$UCSORTHOVIEW
 70
     0
  9
$UCSORGTOP
 10
0.0
 20
0.0
 30
0.0
  9
$UCSORGBOTTOM
 10
0.0
 20
0.0
 30
0.0
  9
$UCSORGLEFT
 10
0.0
 20
0.0
 30
0.0
  9
$UCSORGRIGHT
 10
0.0
 20
0.0
 30
0.0
  9
$UCSORGFRONT
 10
0.0
 20
0.0
 30
0.0
  9
$UCSORGBACK
 10
0.0
 20
0.0
 30
0.0
  9
$PUCSBASE
  2

  9
$PUCSNAME
  2

  9
$PUCSORG
 10
0.0
 20
0.0
 30
0.0
  9
$PUCSXDIR
 10
1.0
 20
0.0
 30
0.0
  9
$PUCSYDIR
 10
0.0
 20
1.0
 30
0.0
  9
$PUCSORTHOREF
  2

  9
$PUCSORTHOVIEW
 70
     0
  9
$PUCSORGTOP
 10
0.0
 20
0.0
 30
0.0
  9
$PUCSORGBOTTOM
 10
0.0
 20
0.0
 30
0.0
  9
$PUCSORGLEFT
 10
0.0
 20
0.0
 30
0.0
  9
$PUCSORGRIGHT
 10
0.0
 20
0.0
 30
0.0
  9
$PUCSORGFRONT
 10
0.0
 20
0.0
 30
0.0
  9
$PUCSORGBACK
 10
0.0
 20
0.0
 30
0.0
  9
$USERI1
 70
     0
  9
$USERI2
 70
     0
  9
$USERI3
 70
     0
  9
$USERI4
 70
     0
  9
$USERI5
 70
     0
  9
$USERR1
 40
0.0
  9
$USERR2
 40
0.0
  9
$USERR3
 40
0.0
  9
$USERR4
 40
0.0
  9
$USERR5
 40
0.0
  9
$WORLDVIEW
 70
     1
  9
$SHADEDGE
 70
     3
  9
$SHADEDIF
 70
    70
  9
$TILEMODE
 70
     1
  9
$MAXACTVP
 70
    64
  9
$PINSBASE
 10
0.0
 20
0.0
 30
0.0
  9
$PLIMCHECK
 70
     0
  9
$PEXTMIN
 10
1.0000000000E+20
 20
1.0000000000E+20
 30
1.0000000000E+20
  9
$PEXTMAX
 10
-1.0000000000E+20
 20
-1.0000000000E+20
 30
-1.0000000000E+20
  9
$PLIMMIN
 10
0.0
 20
0.0
  9
$PLIMMAX
 10
420.0
 20
297.0
  9
$UNITMODE
 70
     0
  9
$VISRETAIN
 70
     1
  9
$PLINEGEN
 70
     0
  9
$PSLTSCALE
 70
     1
  9
$TREEDEPTH
 70
  3020
  9
$CMLSTYLE
  2
Standard
  9
$CMLJUST
 70
     0
  9
$CMLSCALE
 40
20.0
  9
$PROXYGRAPHICS
 70
     1
  9
$MEASUREMENT
 70
     1
  9
$CELWEIGHT
370
    -1
  9
$ENDCAPS
280
     0
  9
$JOINSTYLE
280
     0
  9
$LWDISPLAY
290
     1
  9
$INSUNITS
 70
     4
  9
$HYPERLINKBASE
  1

  9
$STYLESHEET
  1

  9
$XEDIT
290
     1
  9
$CEPSNTYPE
380
     0
  9
$PSTYLEMODE
290
     1
  9
$FINGERPRINTGUID
  2
{29400f11-ff19-44cc-8718-15d65b34ac68}
  9
$VERSIONGUID
  2
{FAEB1C32-E019-11D5-929B-00C0DF256EC4}
  9
$EXTNAMES
290
     1
  9
$PSVPSCALE
 40
0.0
  9
$OLESTARTUP
290
     0
  0
ENDSEC
  0
SECTION
  2
CLASSES
  0
CLASS
  1
ACDBDICTIONARYWDFLT
  2
AcDbDictionaryWithDefault
  3
ObjectDBX Classes
 90
        0
280
     0
281
     0
  0
CLASS
  1
VISUALSTYLE
  2
AcDbVisualStyle
  3
ObjectDBX Classes
 90
     4095
280
     0
281
     0
  0
CLASS
  1
MATERIAL
  2
AcDbMaterial
  3
ObjectDBX Classes
 90
     1153
280
     0
281
     0
  0
CLASS
  1
SCALE
  2
AcDbScale
  3
ObjectDBX Classes
 90
     1153
280
     0
281
     0
  0
CLASS
  1
TABLESTYLE
  2
AcDbTableStyle
  3
ObjectDBX Classes
 90
     4095
280
     0
281
     0
  0
CLASS
  1
MLEADERSTYLE
  2
AcDbMLeaderStyle
  3
ACDB_MLEADERSTYLE_CLASS
 90
     4095
280
     0
281
     0
  0
CLASS
  1
SUN
  2
AcDbSun
  3
SCENEOE
 90
     1153
280
     0
281
     0
  0
CLASS
  1
ACDBPLACEHOLDER
  2
AcDbPlaceHolder
  3
ObjectDBX Classes
 90
        0
280
     0
281
     0
  0
CLASS
  1
LAYOUT
  2
AcDbLayout
  3
ObjectDBX Classes
 90
        0
280
     0
281
     0
  0
ENDSEC
  0
SECTION
  2
TABLES
  0
TABLE
  2
VPORT
  5
8
330
0
100
AcDbSymbolTable
 70
     1
  0
VPORT
  5
29
330
8
100
AcDbSymbolTableRecord
100
AcDbViewportTableRecord
  2
*Active
 70
     0
 10
0.0
 20
0.0
 11
1.0
 21
1.0
 12
297.0
 22
420.5
 13
0.0
 23
0.0
 14
10.0
 24
10.0
 15
10.0
 25
10.0
 16
0.0
 26
0.0
 36
1.0
 17
0.0
 27
0.0
 37
0.0
 40
841.0
 41
0.7063020214
 42
50.0
 43
0.0
 44
0.0
 50
0.0
 51
0.0
 71
     0
 72
  2000
 73
     1
 74
     3
 75
     0
 76
     0
 77
     0
 78
     0
281
     0
 65
     1
110
0.0
120
0.0
130
0.0
111
1.0
121
0.0
131
0.0
112
0.0
122
1.0
132
0.0
 79
     0
146
0.0
  0
ENDTAB
  0
TABLE
  2
LTYPE
  5
5
330
0
100
AcDbSymbolTable
 70
     6
  0
LTYPE
  5
14
330
5
100
AcDbSymbolTableRecord
100
AcDbLinetypeTableRecord
  2
ByBlock
 70
     0
  3

 72
    65
 73
     0
 40
0.0
  0
LTYPE
  5
15
330
5
100
AcDbSymbolTableRecord
100
AcDbLinetypeTableRecord
  2
ByLayer
 70
     0
  3

 72
    65
 73
     0
 40
0.0
  0
LTYPE
  5
16
330
5
100
AcDbSymbolTableRecord
100
AcDbLinetypeTableRecord
  2
Continuous
 70
     0
  3
Solid line
 72
    65
 73
     0
 40
0.0
  0
LTYPE
  5
6E
330
5
100
AcDbSymbolTableRecord
100
AcDbLinetypeTableRecord
  2
HIDDEN
 70
     0
  3
Hidden __ __ __ __ __ __ __ __ __ __ __ __ __ __
 72
    65
 73
     2
 40
1.905
 49
1.27
 74
     0
 49
-0.635
 74
     0
  0
LTYPE
  5
6F
330
5
100
AcDbSymbolTableRecord
100
AcDbLinetypeTableRecord
  2
PHANTOM
 70
     0
  3
Phantom ______  __  __  ______  __  __  ______
 72
    65
 73
     6
 40
12.7
 49
6.35
 74
     0
 49
-1.27
 74
     0
 49
1.27
 74
     0
 49
-1.27
 74
     0
 49
1.27
 74
     0
 49
-1.27
 74
     0
  0
LTYPE
  5
70
330
5
100
AcDbSymbolTableRecord
100
AcDbLinetypeTableRecord
  2
CENTER
 70
     0
  3
Center ____ _ ____ _ ____ _ ____ _ ____ _ ____
 72
    65
 73
     4
 40
10.16
 49
6.35
 74
     0
 49
-1.27
 74
     0
 49
1.27
 74
     0
 49
-1.27
 74
     0
  0
LTYPE
  5
71
330
5
100
AcDbSymbolTableRecord
100
AcDbLinetypeTableRecord
  2
CENTERX2
 70
     0
  3
Center (2x) ________  __  ________  __  _____
 72
    65
 73
     4
 40
20.32
 49
12.7
 74
     0
 49
-2.54
 74
     0
 49
2.54
 74
     0
 49
-2.54
 74
     0
  0
LTYPE
  5
72
330
5
100
AcDbSymbolTableRecord
100
AcDbLinetypeTableRecord
  2
DOT2
 70
     0
  3
Dot (.5x) ........................................
 72
    65
 73
     2
 40
0.635
 49
0.0
 74
     0
 49
-0.635
 74
     0
  0
ENDTAB
  0
TABLE
  2
LAYER
  5
2
330
0
100
AcDbSymbolTable
 70
     1
  0
LAYER
  5
10
330
2
100
AcDbSymbolTableRecord
100
AcDbLayerTableRecord
  2
0
 70
     0
 62
     7
  6
Continuous
370
    -3
390
F
  0
ENDTAB
  0
TABLE
  2
STYLE
  5
3
330
0
100
AcDbSymbolTable
 70
     3
  0
STYLE
  5
11
330
3
100
AcDbSymbolTableRecord
100
AcDbTextStyleTableRecord
  2
Standard
 70
     0
 40
0.0
 41
1.0
 50
0.0
 71
     0
 42
10.0
  3
txt
  4

  0
STYLE
  5
76
330
3
100
AcDbSymbolTableRecord
100
AcDbTextStyleTableRecord
  2
SLDTEXTSTYLE0
 70
     0
 40
0.0
 41
0.96
 50
0.0
 71
     0
 42
10.0
  3
ISOCP3
  4

  0
STYLE
  5
8D
330
3
100
AcDbSymbolTableRecord
100
AcDbTextStyleTableRecord
  2
SLDTEXTSTYLE1
 70
     0
 40
0.0
 41
0.605
 50
0.0
 71
     0
 42
10.0
  3
TXT
  4

  0
ENDTAB
  0
TABLE
  2
VIEW
  5
6
330
0
100
AcDbSymbolTable
 70
     0
  0
ENDTAB
  0
TABLE
  2
UCS
  5
7
330
0
100
AcDbSymbolTable
 70
     0
  0
ENDTAB
  0
TABLE
  2
APPID
  5
9
330
0
100
AcDbSymbolTable
 70
     1
  0
APPID
  5
12
330
9
100
AcDbSymbolTableRecord
100
AcDbRegAppTableRecord
  2
ACAD
 70
     0
  0
ENDTAB
  0
TABLE
  2
DIMSTYLE
  5
A
330
0
100
AcDbSymbolTable
 70
     2
100
AcDbDimStyleTable
  0
DIMSTYLE
105
27
330
A
100
AcDbSymbolTableRecord
100
AcDbDimStyleTableRecord
  2
ISO-25
 70
     0
 41
2.5
 42
0.625
 43
3.75
 44
1.25
 73
     0
 74
     0
 77
     1
 78
     8
140
2.5
141
2.5
143
0.0393700787
147
0.625
171
     3
172
     1
178
     0
271
     2
272
     2
274
     3
278
    44
283
     0
284
     8
340
11
  0
DIMSTYLE
105
77
102
{ACAD_REACTORS
330
75
330
82
102
}
330
A
100
AcDbSymbolTableRecord
100
AcDbDimStyleTableRecord
  2
SLDDIMSTYLE0
 70
     0
 41
2.5
 44
0.0
 45
0.000000001
 73
     0
 74
     0
 77
     1
 78
    12
 79
     3
140
6.0
144
2.0
147
1.5
173
     1
178
     0
271
     2
272
     2
276
     2
284
    12
340
76
  0
ENDTAB
  0
TABLE
  2
BLOCK_RECORD
  5
1
330
0
100
AcDbSymbolTable
 70
     3
  0
BLOCK_RECORD
  5
1F
330
1
100
AcDbSymbolTableRecord
100
AcDbBlockTableRecord
  2
*Model_Space
340
22
  0
BLOCK_RECORD
  5
1B
330
1
100
AcDbSymbolTableRecord
100
AcDbBlockTableRecord
  2
*Paper_Space
340
1E
  0
BLOCK_RECORD
  5
23
330
1
100
AcDbSymbolTableRecord
100
AcDbBlockTableRecord
  2
*Paper_Space0
340
26
  0
BLOCK_RECORD
  5
78
330
1
100
AcDbSymbolTableRecord
100
AcDbBlockTableRecord
  2
_D
340
0
  0
BLOCK_RECORD
  5
83
330
1
100
AcDbSymbolTableRecord
100
AcDbBlockTableRecord
  2
_D_1
340
0
  0
ENDTAB
  0
ENDSEC
  0
SECTION
  2
BLOCKS
  0
BLOCK
  5
20
330
1F
100
AcDbEntity
  8
0
100
AcDbBlockBegin
  2
*Model_Space
 70
     0
 10
0.0
 20
0.0
 30
0.0
  3
*Model_Space
  1

  0
ENDBLK
  5
21
330
1F
100
AcDbEntity
  8
0
100
AcDbBlockEnd
  0
BLOCK
  5
1C
330
1B
100
AcDbEntity
 67
     1
  8
0
100
AcDbBlockBegin
  2
*Paper_Space
 70
     0
 10
0.0
 20
0.0
 30
0.0
  3
*Paper_Space
  1

  0
ENDBLK
  5
1D
330
1B
100
AcDbEntity
 67
     1
  8
0
100
AcDbBlockEnd
  0
BLOCK
  5
24
330
23
100
AcDbEntity
  8
0
100
AcDbBlockBegin
  2
*Paper_Space0
 70
     0
 10
0.0
 20
0.0
 30
0.0
  3
*Paper_Space0
  1

  0
ENDBLK
  5
25
330
23
100
AcDbEntity
  8
0
100
AcDbBlockEnd
  0
BLOCK
  5
79
330
78
100
AcDbEntity
  8
0
100
AcDbBlockBegin
  2
_D
 70
     0
 10
0.0
 20
0.0
 30
0.0
  3
_D
  1

  0
SOLID
  5
7B
330
78
100
AcDbEntity
  8
0
  6
Continuous
 62
     7
370
    18
100
AcDbTrace
 10
42.7614395004
 20
152.0299240879
 30
0.0
 11
42.4614395004
 21
149.5299240879
 31
0.0
 12
43.0614395004
 22
149.5299240879
 32
0.0
 13
43.0614395004
 23
149.5299240879
 33
0.0
  0
SOLID
  5
7C
330
78
100
AcDbEntity
  8
0
  6
Continuous
 62
     7
370
    18
100
AcDbTrace
 10
42.7614395004
 20
52.0299240879
 30
0.0
 11
43.0614395004
 21
54.5299240879
 31
0.0
 12
42.4614395004
 22
54.5299240879
 32
0.0
 13
42.4614395004
 23
54.5299240879
 33
0.0
  0
LINE
  5
7D
330
78
100
AcDbEntity
  8
0
  6
Continuous
 62
     7
370
     0
100
AcDbLine
 10
56.6850079902
 20
152.0299240879
 30
0.0
 11
41.7614395004
 21
152.0299240879
 31
0.0
  0
LINE
  5
7E
330
78
100
AcDbEntity
  8
0
  6
Continuous
 62
     7
370
     0
100
AcDbLine
 10
56.6850079902
 20
52.0299240879
 30
0.0
 11
41.7614395004
 21
52.0299240879
 31
0.0
  0
LINE
  5
7F
330
78
100
AcDbEntity
  8
0
  6
Continuous
 62
     7
370
     0
100
AcDbLine
 10
42.7614395004
 20
152.0299240879
 30
0.0
 11
42.7614395004
 21
52.0299240879
 31
0.0
  0
MTEXT
  5
80
330
78
100
AcDbEntity
  8
0
  6
Continuous
 62
     7
370
    18
100
AcDbMText
 10
35.0270332946
 20
94.3680541463
 30
0.0
 40
6.0
 41
0.0
 71
     1
 72
     1
  1
100
  7
SLDTEXTSTYLE0
 11
-7.044195017643634E-15
 21
1.0
 31
0.0
 73
     1
 44
1.0
  0
MTEXT
  5
81
330
78
100
AcDbEntity
  8
0
  6
Continuous
 62
     7
370
    18
100
AcDbMText
 10
35.0270332946
 20
105.7430548466
 30
0.0
 40
6.0
 41
0.0
 71
     1
 72
     1
  1
mm
  7
SLDTEXTSTYLE0
 11
-7.044195017643634E-15
 21
1.0
 31
0.0
 73
     1
 44
1.0
  0
ENDBLK
  5
7A
330
78
100
AcDbEntity
  8
0
100
AcDbBlockEnd
  0
BLOCK
  5
84
330
83
100
AcDbEntity
  8
0
100
AcDbBlockBegin
  2
_D_1
 70
     0
 10
0.0
 20
0.0
 30
0.0
  3
_D_1
  1

  0
SOLID
  5
86
330
83
100
AcDbEntity
  8
0
  6
Continuous
 62
     7
370
    18
100
AcDbTrace
 10
56.6850079902
 20
38.4602342313
 30
0.0
 11
59.1850079902
 21
38.1602342313
 31
0.0
 12
59.1850079902
 22
38.7602342313
 32
0.0
 13
59.1850079902
 23
38.7602342313
 33
0.0
  0
SOLID
  5
87
330
83
100
AcDbEntity
  8
0
  6
Continuous
 62
     7
370
    18
100
AcDbTrace
 10
156.6850079902
 20
38.4602342313
 30
0.0
 11
154.1850079902
 21
38.7602342313
 31
0.0
 12
154.1850079902
 22
38.1602342313
 32
0.0
 13
154.1850079902
 23
38.1602342313
 33
0.0
  0
LINE
  5
88
330
83
100
AcDbEntity
  8
0
  6
Continuous
 62
     7
370
     0
100
AcDbLine
 10
56.6850079902
 20
52.0299240879
 30
0.0
 11
56.6850079902
 21
37.4602342313
 31
0.0
  0
LINE
  5
89
330
83
100
AcDbEntity
  8
0
  6
Continuous
 62
     7
370
     0
100
AcDbLine
 10
156.6850079902
 20
52.0299240879
 30
0.0
 11
156.6850079902
 21
37.4602342313
 31
0.0
  0
LINE
  5
8A
330
83
100
AcDbEntity
  8
0
  6
Continuous
 62
     7
370
     0
100
AcDbLine
 10
56.6850079902
 20
38.4602342313
 30
0.0
 11
156.6850079902
 21
38.4602342313
 31
0.0
  0
MTEXT
  5
8B
330
83
100
AcDbEntity
  8
0
  6
Continuous
 62
     7
370
    18
100
AcDbMText
 10
93.9626484861
 20
46.1946404371
 30
0.0
 40
6.0
 41
0.0
 71
     1
 72
     1
  1
100
  7
SLDTEXTSTYLE0
 73
     1
 44
1.0
  0
MTEXT
  5
8C
330
83
100
AcDbEntity
  8
0
  6
Continuous
 62
     7
370
    18
100
AcDbMText
 10
105.3376491864
 20
46.1946404371
 30
0.0
 40
6.0
 41
0.0
 71
     1
 72
     1
  1
mm
  7
SLDTEXTSTYLE0
 73
     1
 44
1.0
  0
ENDBLK
  5
85
330
83
100
AcDbEntity
  8
0
100
AcDbBlockEnd
  0
ENDSEC
  0
SECTION
  2
ENTITIES
  0
LINE
  5
73
330
1F
100
AcDbEntity
  8
0
  6
Continuous
 62
     7
370
    18
100
AcDbLine
 10
56.6850079902
 20
152.0299240879
 30
0.0
 11
56.6850079902
 21
52.0299240879
 31
0.0
  0
LINE
  5
74
330
1F
100
AcDbEntity
  8
0
  6
Continuous
 62
     7
370
    18
100
AcDbLine
 10
56.6850079902
 20
52.0299240879
 30
0.0
 11
156.6850079902
 21
52.0299240879
 31
0.0
  0
DIMENSION
  5
75
330
1F
100
AcDbEntity
  8
0
  6
Continuous
 62
     7
370
    18
100
AcDbDimension
  2
_D
 10
42.7614395004
 20
52.0299240879
 30
0.0
 11
42.7614395004
 21
105.4472211621
 31
0.0
 70
   160
  1
<>mm
 71
     2
 42
-1.0
  3
SLDDIMSTYLE0
100
AcDbAlignedDimension
 13
56.6850079902
 23
152.0299240879
 33
0.0
 14
56.6850079902
 24
52.0299240879
 34
0.0
 50
90.0
100
AcDbRotatedDimension
  0
DIMENSION
  5
82
330
1F
100
AcDbEntity
  8
0
  6
Continuous
 62
     7
370
    18
100
AcDbDimension
  2
_D_1
 10
156.6850079902
 20
38.4602342313
 30
0.0
 11
105.0418155019
 21
38.4602342313
 31
0.0
 70
   160
  1
<>mm
 71
     2
 42
-1.0
  3
SLDDIMSTYLE0
100
AcDbAlignedDimension
 13
56.6850079902
 23
52.0299240879
 33
0.0
 14
156.6850079902
 24
52.0299240879
 34
0.0
100
AcDbRotatedDimension
  0
MTEXT
  5
8E
330
1F
100
AcDbEntity
  8
0
  6
Continuous
 62
     7
370
     0
100
AcDbMText
 10
412.8252631579
 20
48.4342449499
 30
0.0
 40
10.0
 41
0.0
 71
     1
 72
     1
  1
KLUDI GmbH & Co KG
  7
SLDTEXTSTYLE1
 73
     1
 44
1.0
  0
MTEXT
  5
8F
330
1F
100
AcDbEntity
  8
0
  6
Continuous
 62
     7
370
     0
100
AcDbMText
 10
210.0873490389
 20
48.4342449499
 30
0.0
 40
10.0
 41
0.0
 71
     1
 72
     1
  1
37 759 .. 65
  7
SLDTEXTSTYLE1
 73
     1
 44
1.0
  0
SPLINE
  5
90
330
1F
100
AcDbEntity
  8
0
  6
Continuous
 62
     7
370
    25
100
AcDbSpline
210
0.0
220
0.0
230
1.0
 70
     8
 71
     3
 72
    15
 73
    11
 74
     0
 42
0.00000001
 43
0.00000001
 40
0.0
 40
0.0
 40
0.0
 40
0.0
 40
0.1042162256769071
 40
0.244779548497895
 40
0.3854657402984821
 40
0.526152451272829
 40
0.6667721627432415
 40
0.8072609360286844
 40
0.9475639123068345
 40
1.0
 40
1.0
 40
1.0
 40
1.0
 10
196.5135244333214
 20
243.7751126258333
 30
0.0
 10
196.905059248376
 20
243.7871871587572
 30
0.0
 10
197.824682988612
 20
243.8155474135855
 30
0.0
 10
199.2548400994337
 20
244.0785848521172
 30
0.0
 10
200.7649378892619
 20
244.570202274799
 30
0.0
 10
202.1883626675898
 20
245.2742872461915
 30
0.0
 10
203.4993702600484
 20
246.1692079687001
 30
0.0
 10
204.6545624132647
 20
247.2473696033385
 30
0.0
 10
205.4740808501386
 20
248.1995009921307
 30
0.0
 10
205.8339022855605
 20
248.8243578862487
 30
0.0
 10
205.9317943680107
 20
248.9943548252217
 30
0.0
  0
SPLINE
  5
91
330
1F
100
AcDbEntity
  8
0
  6
Continuous
 62
     7
370
    25
100
AcDbSpline
210
0.0
220
0.0
230
1.0
 70
     8
 71
     3
 72
    11
 73
     7
 74
     0
 42
0.00000001
 43
0.00000001
 40
0.0
 40
0.0
 40
0.0
 40
0.0
 40
0.1370724380363008
 40
0.5159133306889258
 40
0.8953664960236504
 40
1.0
 40
1.0
 40
1.0
 40
1.0
 10
180.9469359583707
 20
244.5635973623478
 30
0.0
 10
181.1216366713733
 20
244.4881817075836
 30
0.0
 10
181.7791753276497
 20
244.2043322175412
 30
0.0
 10
183.0001436878363
 20
243.9292324620308
 30
0.0
 10
184.1917398236916
 20
243.7845344874848
 30
0.0
 10
184.8640122736113
 20
243.776787177392
 30
0.0
 10
185.009321422822
 20
243.7751126255962
 30
0.0
  0
LINE
  5
92
330
1F
100
AcDbEntity
  8
0
  6
Continuous
 62
     7
370
    25
100
AcDbLine
 10
185.0093214228
 20
243.7751126256
 30
0.0
 11
196.5135244333
 21
243.7751126258
 31
0.0
  0
LINE
  5
93
330
1F
100
AcDbEntity
  8
0
  6
Continuous
 62
     7
370
    25
100
AcDbLine
 10
215.7614229265
 20
317.9546667106
 30
0.0
 11
215.7614229265
 21
318.0638961183
 31
0.0
  0
LINE
  5
94
330
1F
100
AcDbEntity
  8
0
  6
Continuous
 62
     7
370
    25
100
AcDbLine
 10
165.7614229265
 20
318.0638961163
 30
0.0
 11
165.7614229265
 21
317.9546667095
 31
0.0
  0
SPLINE
  5
95
330
1F
100
AcDbEntity
  8
0
  6
Continuous
 62
     7
370
    25
100
AcDbSpline
210
0.0
220
0.0
230
1.0
 70
     8
 71
     3
 72
    30
 73
    26
 74
     0
 42
0.00000001
 43
0.00000001
 40
0.0
 40
0.0
 40
0.0
 40
0.0
 40
0.1250000000000007
 40
0.1250000000000007
 40
0.1875000000000006
 40
0.1875000000000006
 40
0.2500000000000004
 40
0.2500000000000004
 40
0.3125000000000003
 40
0.3125000000000003
 40
0.3750000000000002
 40
0.3750000000000002
 40
0.5000000000000002
 40
0.5000000000000002
 40
0.5625000000000002
 40
0.5625000000000002
 40
0.6250000000000002
 40
0.6250000000000002
 40
0.7499999999999984
 40
0.7499999999999984
 40
0.8124999999999988
 40
0.8124999999999988
 40
0.8749999999999991
 40
0.8749999999999991
 40
1.0
 40
1.0
 40
1.0
 40
1.0
 10
196.5135244333208
 20
243.8014839456162
 30
0.0
 10
197.2426674394087
 20
243.800460939071
 30
0.0
 10
197.9640037243394
 20
243.8698069570798
 30
0.0
 10
199.0342764858666
 20
244.0782045621339
 30
0.0
 10
199.3877779397438
 20
244.1651122139679
 30
0.0
 10
200.0784868040729
 20
244.3705454225536
 30
0.0
 10
200.4171685089537
 20
244.4893393001951
 30
0.0
 10
201.0813380313473
 20
244.7586395135394
 30
0.0
 10
201.4068250186425
 20
244.9091432843791
 30
0.0
 10
202.0443735205929
 20
245.2423232341243
 30
0.0
 10
202.3581044277806
 20
245.4261632131722
 30
0.0
 10
203.2631346310721
 20
246.0178144932612
 30
0.0
 10
203.8191859752098
 20
246.4645329355716
 30
0.0
 10
204.5838767049133
 20
247.2113170698146
 30
0.0
 10
204.8271228277322
 20
247.4731129137169
 30
0.0
 10
205.2895497073931
 20
248.023280502963
 30
0.0
 10
205.5063174093938
 20
248.30896164085
 30
0.0
 10
206.1081948882449
 20
249.1886749695483
 30
0.0
 10
206.4481923978798
 20
249.8085354395051
 30
0.0
 10
206.8654112564762
 20
250.7889012626764
 30
0.0
 10
206.9893318507794
 20
251.1259194727716
 30
0.0
 10
207.2006612723992
 20
251.8039288675441
 30
0.0
 10
207.2886858403664
 20
252.1459053820759
 30
0.0
 10
207.5010131027546
 20
253.1805625697188
 30
0.0
 10
207.5740104416687
 20
253.8817467137217
 30
0.0
 10
207.5758270331832
 20
254.5954658934896
 30
0.0
  0
SPLINE
  5
96
330
1F
100
AcDbEntity
  8
0
  6
Continuous
 62
     7
370
    25
100
AcDbSpline
210
0.0
220
0.0
230
1.0
 70
     8
 71
     3
 72
    30
 73
    26
 74
     0
 42
0.00000001
 43
0.00000001
 40
0.0
 40
0.0
 40
0.0
 40
0.0
 40
0.1250000000000019
 40
0.1250000000000019
 40
0.1875000000000029
 40
0.1875000000000029
 40
0.2500000000000039
 40
0.2500000000000039
 40
0.3125000000000049
 40
0.3125000000000049
 40
0.3750000000000058
 40
0.3750000000000058
 40
0.5000000000000064
 40
0.5000000000000064
 40
0.5625000000000075
 40
0.5625000000000075
 40
0.6250000000000085
 40
0.6250000000000085
 40
0.7500000000000092
 40
0.7500000000000092
 40
0.8125000000000074
 40
0.8125000000000074
 40
0.8750000000000056
 40
0.8750000000000056
 40
1.0
 40
1.0
 40
1.0
 40
1.0
 10
185.0093214228215
 20
243.801483945379
 30
0.0
 10
184.2801784167336
 20
243.8004609388038
 30
0.0
 10
183.5588421318
 20
243.8698069567829
 30
0.0
 10
182.4885693702643
 20
244.0782045617929
 30
0.0
 10
182.1350679163835
 20
244.1651122136122
 30
0.0
 10
181.444359052046
 20
244.3705454221695
 30
0.0
 10
181.1056773471603
 20
244.489339299797
 30
0.0
 10
180.4415078247556
 20
244.7586395131139
 30
0.0
 10
180.1160208374541
 20
244.9091432839402
 30
0.0
 10
179.47847233549
 20
245.2423232336591
 30
0.0
 10
179.1647414282948
 20
245.4261632126941
 30
0.0
 10
178.2597112249788
 20
246.0178144927458
 30
0.0
 10
177.7036598808228
 20
246.4645329350333
 30
0.0
 10
176.9389691510885
 20
247.2113170692446
 30
0.0
 10
176.6957230282588
 20
247.4731129131369
 30
0.0
 10
176.2332961485752
 20
248.0232805023639
 30
0.0
 10
176.0165284465628
 20
248.308961640242
 30
0.0
 10
175.4146509676754
 20
249.1886749689155
 30
0.0
 10
175.0746534580148
 20
249.8085354388583
 30
0.0
 10
174.657434599378
 20
250.7889012620124
 30
0.0
 10
174.533514005061
 20
251.1259194721025
 30
0.0
 10
174.3221845834132
 20
251.8039288668662
 30
0.0
 10
174.2341600154319
 20
252.1459053813944
 30
0.0
 10
174.021832753001
 20
253.1805625690286
 30
0.0
 10
173.948835414058
 20
253.8817467130285
 30
0.0
 10
173.9470188225141
 20
254.5954658927964
 30
0.0
  0
SPLINE
  5
97
330
1F
100
AcDbEntity
  8
0
  6
Continuous
 62
     7
370
    25
100
AcDbSpline
210
0.0
220
0.0
230
1.0
 70
     8
 71
     3
 72
    22
 73
    18
 74
     0
 42
0.00000001
 43
0.00000001
 40
0.0
 40
0.0
 40
0.0
 40
0.0
 40
0.0625000000000001
 40
0.0625000000000001
 40
0.1250000000000001
 40
0.1250000000000001
 40
0.2500000000000002
 40
0.2500000000000002
 40
0.4999999999999993
 40
0.4999999999999993
 40
0.7499999999999984
 40
0.7499999999999984
 40
0.874999999999999
 40
0.874999999999999
 40
0.9374999999999994
 40
0.9374999999999994
 40
1.0
 40
1.0
 40
1.0
 40
1.0
 10
207.5758270331832
 20
254.5954658934896
 30
0.0
 10
207.5780542749463
 20
255.3856066590924
 30
0.0
 10
207.5795501623345
 20
256.1747529965889
 30
0.0
 10
207.5824401031413
 20
257.7536582598458
 30
0.0
 10
207.5836855982651
 20
258.543117190809
 30
0.0
 10
207.5869228740295
 20
260.9113824440147
 30
0.0
 10
207.5884152842919
 20
262.4900420567726
 30
0.0
 10
207.5917888967789
 20
267.2255284394242
 30
0.0
 10
207.5926115916688
 20
270.3818253518002
 30
0.0
 10
207.5937234221795
 20
276.6938863198239
 30
0.0
 10
207.5939592677606
 20
279.8496557209513
 30
0.0
 10
207.5947509781572
 20
284.5836635399066
 30
0.0
 10
207.5950720812564
 20
286.1616470225862
 30
0.0
 10
207.5958096382081
 20
288.5293238147455
 30
0.0
 10
207.5960928028169
 20
289.3186396884228
 30
0.0
 10
207.5967812130857
 20
290.8978516123447
 30
0.0
 10
207.5971643741462
 20
291.6875367551831
 30
0.0
 10
207.5977180035646
 20
292.478640560743
 30
0.0
  0
SPLINE
  5
98
330
1F
100
AcDbEntity
  8
0
  6
Continuous
 62
     7
370
    25
100
AcDbSpline
210
0.0
220
0.0
230
1.0
 70
     8
 71
     3
 72
    22
 73
    18
 74
     0
 42
0.00000001
 43
0.00000001
 40
0.0
 40
0.0
 40
0.0
 40
0.0
 40
0.0625000000000009
 40
0.0625000000000009
 40
0.1250000000000018
 40
0.1250000000000018
 40
0.2500000000000017
 40
0.2500000000000017
 40
0.5000000000000016
 40
0.5000000000000016
 40
0.7500000000000013
 40
0.7500000000000013
 40
0.8750000000000007
 40
0.8750000000000007
 40
0.9375000000000004
 40
0.9375000000000004
 40
1.0
 40
1.0
 40
1.0
 40
1.0
 10
173.9470188225141
 20
254.5954658927964
 30
0.0
 10
173.9447915868892
 20
255.3856066255462
 30
0.0
 10
173.9432956932976
 20
256.1747529958956
 30
0.0
 10
173.9404057524258
 20
257.7536582591522
 30
0.0
 10
173.9391602572695
 20
258.5431171901154
 30
0.0
 10
173.9359229814073
 20
260.911382443321
 30
0.0
 10
173.9344305710798
 20
262.4900420560789
 30
0.0
 10
173.9310569583977
 20
267.2255284387304
 30
0.0
 10
173.9302342633776
 20
270.3818253511063
 30
0.0
 10
173.9291224326066
 20
276.6938863191301
 30
0.0
 10
173.9288865868955
 20
279.8496557202574
 30
0.0
 10
173.9280948763037
 20
284.5836635392126
 30
0.0
 10
173.9277737731394
 20
286.1616470218922
 30
0.0
 10
173.9270362160902
 20
288.5293238140514
 30
0.0
 10
173.9267530514488
 20
289.3186396877286
 30
0.0
 10
173.9260646411149
 20
290.8978516116505
 30
0.0
 10
173.9256814800218
 20
291.687536754489
 30
0.0
 10
173.9251278505708
 20
292.4786405600489
 30
0.0
  0
SPLINE
  5
99
330
1F
100
AcDbEntity
  8
0
  6
Continuous
 62
     7
370
    25
100
AcDbSpline
210
0.0
220
0.0
230
1.0
 70
     8
 71
     3
 72
    18
 73
    14
 74
     0
 42
0.00000001
 43
0.00000001
 40
0.0
 40
0.0
 40
0.0
 40
0.0
 40
0.1250000000000004
 40
0.1250000000000004
 40
0.2500000000000007
 40
0.2500000000000007
 40
0.4999999999999994
 40
0.4999999999999994
 40
0.6249999999999989
 40
0.6249999999999989
 40
0.7499999999999983
 40
0.7499999999999983
 40
1.0
 40
1.0
 40
1.0
 40
1.0
 10
207.7127065061349
 20
294.6634763383714
 30
0.0
 10
207.7562303913291
 20
295.0604350045897
 30
0.0
 10
207.8126921722077
 20
295.4575731422024
 30
0.0
 10
207.9508269895933
 20
296.2444313701741
 30
0.0
 10
208.032489425895
 20
296.6345796351475
 30
0.0
 10
208.3150073981081
 20
297.7955352441845
 30
0.0
 10
208.5534061312082
 20
298.5570608377359
 30
0.0
 10
208.9857002863104
 20
299.6809213790805
 30
0.0
 10
209.1422371565478
 20
300.052415413513
 30
0.0
 10
209.4804150989939
 20
300.7888863642546
 30
0.0
 10
209.6624788720051
 20
301.1545230163304
 30
0.0
 10
210.2405137975051
 20
302.2294259744191
 30
0.0
 10
210.6696380870711
 20
302.9204490672741
 30
0.0
 10
211.1422260603638
 20
303.5856862384506
 30
0.0
  0
SPLINE
  5
9A
330
1F
100
AcDbEntity
  8
0
  6
Continuous
 62
     7
370
    25
100
AcDbSpline
210
0.0
220
0.0
230
1.0
 70
     8
 71
     3
 72
    12
 73
     8
 74
     0
 42
0.00000001
 43
0.00000001
 40
0.0
 40
0.0
 40
0.0
 40
0.0
 40
0.25
 40
0.25
 40
0.5
 40
0.5
 40
1.0
 40
1.0
 40
1.0
 40
1.0
 10
207.6547933647524
 20
294.0450851983109
 30
0.0
 10
207.6590470345015
 20
294.0972950161326
 30
0.0
 10
207.6632311299574
 20
294.1489667350941
 30
0.0
 10
207.6720581028307
 20
294.2521337230795
 30
0.0
 10
207.6766658189349
 20
294.3036519469745
 30
0.0
 10
207.6911084384504
 20
294.4581246540587
 30
0.0
 10
207.7016431948673
 20
294.5612015400663
 30
0.0
 10
207.7127065061349
 20
294.6634763383714
 30
0.0
  0
SPLINE
  5
9B
330
1F
100
AcDbEntity
  8
0
  6
Continuous
 62
     7
370
    25
100
AcDbSpline
210
0.0
220
0.0
230
1.0
 70
     8
 71
     3
 72
     8
 73
     4
 74
     0
 42
0.00000001
 43
0.00000001
 40
0.0
 40
0.0
 40
0.0
 40
0.0
 40
1.0
 40
1.0
 40
1.0
 40
1.0
 10
207.5977196746859
 20
292.4809356175884
 30
0.0
 10
207.5973635900116
 20
293.0015001286664
 30
0.0
 10
207.6154000374707
 20
293.5232504671546
 30
0.0
 10
207.6547933647524
 20
294.0450851983109
 30
0.0
  0
SPLINE
  5
9C
330
1F
100
AcDbEntity
  8
0
  6
Continuous
 62
     7
370
    25
100
AcDbSpline
210
0.0
220
0.0
230
1.0
 70
     8
 71
     3
 72
     8
 73
     4
 74
     0
 42
0.00000001
 43
0.00000001
 40
0.0
 40
0.0
 40
0.0
 40
0.0
 40
1.0
 40
1.0
 40
1.0
 40
1.0
 10
173.9251261794495
 20
292.4809356168943
 30
0.0
 10
173.9254815746649
 20
293.001500054613
 30
0.0
 10
173.9074450573857
 20
293.5232503026168
 30
0.0
 10
173.8680524893184
 20
294.0450851976144
 30
0.0
  0
SPLINE
  5
9D
330
1F
100
AcDbEntity
  8
0
  6
Continuous
 62
     7
370
    25
100
AcDbSpline
210
0.0
220
0.0
230
1.0
 70
     8
 71
     3
 72
    16
 73
    12
 74
     0
 42
0.00000001
 43
0.00000001
 40
0.0
 40
0.0
 40
0.0
 40
0.0
 40
0.0625000000000213
 40
0.0625000000000213
 40
0.1250000000000427
 40
0.1250000000000427
 40
0.2500000000000366
 40
0.2500000000000366
 40
0.5000000000000244
 40
0.5000000000000244
 40
1.0
 40
1.0
 40
1.0
 40
1.0
 10
173.8680524893184
 20
294.0450851976144
 30
0.0
 10
173.8671883384991
 20
294.05799818012
 30
0.0
 10
173.8659250291218
 20
294.0712111318169
 30
0.0
 10
173.8638098681484
 20
294.0971973403334
 30
0.0
 10
173.8627539767998
 20
294.1101497264619
 30
0.0
 10
173.8595648181577
 20
294.1489539046792
 30
0.0
 10
173.8574079808898
 20
294.1747584813935
 30
0.0
 10
173.8507877512317
 20
294.2521337223822
 30
0.0
 10
173.8461800351253
 20
294.3036519462772
 30
0.0
 10
173.8317374156034
 20
294.4581246533606
 30
0.0
 10
173.8212022581318
 20
294.5612017681148
 30
0.0
 10
173.8101393479105
 20
294.6634763376725
 30
0.0
  0
SPLINE
  5
9E
330
1F
100
AcDbEntity
  8
0
  6
Continuous
 62
     7
370
    25
100
AcDbSpline
210
0.0
220
0.0
230
1.0
 70
     8
 71
     3
 72
    23
 73
    19
 74
     0
 42
0.00000001
 43
0.00000001
 40
0.0
 40
0.0
 40
0.0
 40
0.0
 40
0.0156250000000018
 40
0.0156250000000018
 40
0.0312500000000037
 40
0.0625000000000019
 40
0.0625000000000019
 40
0.1250000000000017
 40
0.1250000000000017
 40
0.2500000000000033
 40
0.2500000000000033
 40
0.5000000000000017
 40
0.5000000000000017
 40
0.6250000000000011
 40
0.6250000000000011
 40
0.7500000000000006
 40
0.7500000000000006
 40
1.0
 40
1.0
 40
1.0
 40
1.0
 10
173.8101393479105
 20
294.6634763376725
 30
0.0
 10
173.8049239207349
 20
294.7128824958144
 30
0.0
 10
173.7990570664274
 20
294.7627233878449
 30
0.0
 10
173.7873753913719
 20
294.8619343090027
 30
0.0
 10
173.7692524249824
 20
295.0107148755245
 30
0.0
 10
173.7493215678927
 20
295.1593847517113
 30
0.0
 10
173.7070306676893
 20
295.4565753536262
 30
0.0
 10
173.6756199774504
 20
295.6542876984909
 30
0.0
 10
173.5720188643869
 20
296.2444313694653
 30
0.0
 10
173.490356428069
 20
296.6345796344353
 30
0.0
 10
173.2078384558083
 20
297.7955352434603
 30
0.0
 10
172.9694397226769
 20
298.557060837002
 30
0.0
 10
172.5371455675283
 20
299.6809213783287
 30
0.0
 10
172.3806086972756
 20
300.0524154127547
 30
0.0
 10
172.0424307547992
 20
300.7888863634822
 30
0.0
 10
171.860366981773
 20
301.1545230155505
 30
0.0
 10
171.2823320562287
 20
302.2294259736154
 30
0.0
 10
170.8532067576164
 20
302.9204483455911
 30
0.0
 10
170.3806197933137
 20
303.5856862376104
 30
0.0
  0
SPLINE
  5
9F
330
1F
100
AcDbEntity
  8
0
  6
Continuous
 62
     7
370
    25
100
AcDbSpline
210
0.0
220
0.0
230
1.0
 70
     8
 71
     3
 72
    18
 73
    14
 74
     0
 42
0.00000001
 43
0.00000001
 40
0.0
 40
0.0
 40
0.0
 40
0.0
 40
0.1249999999999997
 40
0.1249999999999997
 40
0.2499999999999994
 40
0.2499999999999994
 40
0.3749999999999992
 40
0.3749999999999992
 40
0.4999999999999989
 40
0.4999999999999989
 40
0.7499999999999994
 40
0.7499999999999994
 40
1.0
 40
1.0
 40
1.0
 40
1.0
 10
211.1458285120678
 20
303.5907584231542
 30
0.0
 10
211.5213079967719
 20
304.1195665456464
 30
0.0
 10
211.874289575359
 20
304.6602244605428
 30
0.0
 10
212.5362220151596
 20
305.7646761369629
 30
0.0
 10
212.8451778546423
 20
306.3284914501774
 30
0.0
 10
213.4192385600682
 20
307.4791999179547
 30
0.0
 10
213.6843438054396
 20
308.0660917805275
 30
0.0
 10
214.1700841728933
 20
309.2632608219985
 30
0.0
 10
214.390993578098
 20
309.8750071706152
 30
0.0
 10
214.9766514008388
 20
311.7170228772412
 30
0.0
 10
215.268714456486
 20
312.9624620252026
 30
0.0
 10
215.6610887221806
 20
315.4873102151406
 30
0.0
 10
215.7614229265849
 20
316.7667107016057
 30
0.0
 10
215.7614229265403
 20
318.0638961177112
 30
0.0
  0
SPLINE
  5
A0
330
1F
100
AcDbEntity
  8
0
  6
Continuous
 62
     7
370
    25
100
AcDbSpline
210
0.0
220
0.0
230
1.0
 70
     8
 71
     3
 72
    18
 73
    14
 74
     0
 42
0.00000001
 43
0.00000001
 40
0.0
 40
0.0
 40
0.0
 40
0.0
 40
0.125
 40
0.125
 40
0.25
 40
0.25
 40
0.375
 40
0.375
 40
0.5
 40
0.5
 40
0.75
 40
0.75
 40
1.0
 40
1.0
 40
1.0
 40
1.0
 10
170.3770173416096
 20
303.5907584223139
 30
0.0
 10
170.0015378568836
 20
304.1195665447905
 30
0.0
 10
169.6485562782742
 20
304.6602244596724
 30
0.0
 10
168.986623838428
 20
305.7646761360651
 30
0.0
 10
168.6776679989221
 20
306.3284914492669
 30
0.0
 10
168.1036072934488
 20
307.4791999170206
 30
0.0
 10
167.8385020480532
 20
308.0660917795825
 30
0.0
 10
167.3527616805501
 20
309.2632608210334
 30
0.0
 10
167.1318522753202
 20
309.875007169641
 30
0.0
 10
166.5461944525034
 20
311.7170228762429
 30
0.0
 10
166.254131396805
 20
312.9624620241922
 30
0.0
 10
165.8617571310063
 20
315.487310214114
 30
0.0
 10
165.7614229265492
 20
316.766710700575
 30
0.0
 10
165.7614229265403
 20
318.0638961166805
 30
0.0
  0
ARC
  5
A1
330
1F
100
AcDbEntity
  8
0
  6
Continuous
 62
     7
370
    25
100
AcDbCircle
 10
190.7612267836
 20
317.9546745256
 30
0.0
 40
24.99980385703017
100
AcDbArc
 50
180.0000179133
 51
217.093468814
  0
ARC
  5
A2
330
1F
100
AcDbEntity
  8
0
  6
Continuous
 62
     7
370
    25
100
AcDbCircle
 10
190.7616262689
 20
317.9546721112
 30
0.0
 40
24.99979665762491
100
AcDbArc
 50
322.9103500606
 51
359.9999876224
  0
ARC
  5
A3
330
1F
100
AcDbEntity
  8
0
  6
Continuous
 62
     7
370
    25
100
AcDbCircle
 10
190.7614229265
 20
318.0637994841
 30
0.0
 40
25.00000000018679
100
AcDbArc
 50
0.0002214693
 51
179.999778533
  0
SPLINE
  5
A4
330
1F
100
AcDbEntity
  8
0
  6
Continuous
 62
     7
370
    25
100
AcDbSpline
210
0.0
220
0.0
230
1.0
 70
    11
 71
     3
 72
    95
 73
    91
 74
     0
 42
0.00000001
 43
0.00000001
 40
0.0
 40
0.0
 40
0.0
 40
0.0
 40
0.0312499999999994
 40
0.0312499999999994
 40
0.0468749999999991
 40
0.0468749999999991
 40
0.0624999999999987
 40
0.0624999999999987
 40
0.0937499999999982
 40
0.0937499999999982
 40
0.1093749999999979
 40
0.1093749999999979
 40
0.1249999999999976
 40
0.1249999999999976
 40
0.1562499999999971
 40
0.1562499999999971
 40
0.1718749999999969
 40
0.1718749999999969
 40
0.1874999999999966
 40
0.2031249999999964
 40
0.2031249999999964
 40
0.2187499999999962
 40
0.2187499999999962
 40
0.2499999999999957
 40
0.2499999999999957
 40
0.2656249999999956
 40
0.2656249999999956
 40
0.2812499999999956
 40
0.2812499999999956
 40
0.3124999999999951
 40
0.3124999999999951
 40
0.3281249999999951
 40
0.3281249999999951
 40
0.3437499999999951
 40
0.3437499999999951
 40
0.3749999999999952
 40
0.3749999999999952
 40
0.4062499999999953
 40
0.4062499999999953
 40
0.4218749999999956
 40
0.4218749999999956
 40
0.4374999999999958
 40
0.4374999999999958
 40
0.4687499999999962
 40
0.4687499999999962
 40
0.4999999999999967
 40
0.4999999999999967
 40
0.531249999999997
 40
0.531249999999997
 40
0.5468749999999972
 40
0.5468749999999972
 40
0.5624999999999976
 40
0.5781249999999978
 40
0.5781249999999978
 40
0.593749999999998
 40
0.593749999999998
 40
0.6249999999999983
 40
0.6249999999999983
 40
0.6406249999999986
 40
0.6406249999999986
 40
0.6562499999999989
 40
0.6562499999999989
 40
0.6874999999999992
 40
0.6874999999999992
 40
0.7031249999999994
 40
0.7031249999999994
 40
0.7187499999999997
 40
0.7187499999999997
 40
0.75
 40
0.75
 40
0.7656250000000002
 40
0.7656250000000002
 40
0.7812500000000003
 40
0.7968750000000004
 40
0.7968750000000004
 40
0.8125000000000006
 40
0.8125000000000006
 40
0.8437500000000006
 40
0.8437500000000006
 40
0.8750000000000007
 40
0.8750000000000007
 40
0.9062500000000007
 40
0.9062500000000007
 40
0.9218750000000007
 40
0.9218750000000007
 40
0.9375000000000007
 40
0.9375000000000007
 40
0.9687500000000004
 40
0.9687500000000004
 40
1.0
 40
1.0
 40
1.0
 40
1.0
 10
182.710573579825
 20
394.120147386335
 30
0.0
 10
183.2441742921369
 20
394.6520257141818
 30
0.0
 10
183.8210486701964
 20
395.1226581110403
 30
0.0
 10
184.7486166663988
 20
395.7404941580876
 30
0.0
 10
185.0682592247205
 20
395.9316448840307
 30
0.0
 10
185.7289279062628
 20
396.2836818247573
 30
0.0
 10
186.0710748181943
 20
396.4448201700499
 30
0.0
 10
187.1077572639364
 20
396.8719987234106
 30
0.0
 10
187.8189653754218
 20
397.0863322655985
 30
0.0
 10
188.9156375561596
 20
397.3031003237951
 30
0.0
 10
189.2875001813119
 20
397.3578944300073
 30
0.0
 10
190.0358724638693
 20
397.4304006539497
 30
0.0
 10
190.4089398541356
 20
397.4479166321175
 30
0.0
 10
191.5248905728047
 20
397.4460083981401
 30
0.0
 10
192.2645532295271
 20
397.3726435365157
 30
0.0
 10
193.3674363500728
 20
397.1518757602143
 30
0.0
 10
193.7336176418173
 20
397.0594965134027
 30
0.0
 10
194.4476052763227
 20
396.8415690811913
 30
0.0
 10
195.1473843881971
 20
396.5897531871094
 30
0.0
 10
195.8191757894536
 20
396.271184366719
 30
0.0
 10
196.4767827784718
 20
395.9187845896693
 30
0.0
 10
196.8001309138607
 20
395.7245296642768
 30
0.0
 10
197.7351424875206
 20
395.0976868851417
 30
0.0
 10
198.3088093691478
 20
394.6247713437336
 30
0.0
 10
199.0967866204656
 20
393.8350696568382
 30
0.0
 10
199.3472715143751
 20
393.5583513227942
 30
0.0
 10
199.823152382012
 20
392.9771255366758
 30
0.0
 10
200.0469508746407
 20
392.6742735082728
 30
0.0
 10
200.6668472944406
 20
391.7433447155863
 30
0.0
 10
201.0162681761148
 20
391.0879259821612
 30
0.0
 10
201.4441003722813
 20
390.0523074878575
 30
0.0
 10
201.5710681674309
 20
389.6962668786613
 30
0.0
 10
201.7874881433829
 20
388.9790431694872
 30
0.0
 10
201.8773706948573
 20
388.6174417728432
 30
0.0
 10
202.0933558349963
 20
387.52388423962
 30
0.0
 10
202.1663197117775
 20
386.7832602015571
 30
0.0
 10
202.1646527776219
 20
385.2779367166109
 30
0.0
 10
202.0897662345538
 20
384.5354685828717
 30
0.0
 10
201.8712582514839
 20
383.4427753329408
 30
0.0
 10
201.7805938876293
 20
383.0817087432839
 30
0.0
 10
201.5628579509561
 20
382.3660377579315
 30
0.0
 10
201.4350370978584
 20
382.0100325884007
 30
0.0
 10
201.0042519698428
 20
380.9740281238898
 30
0.0
 10
200.6531052074951
 20
380.319388461192
 30
0.0
 10
199.8244788430692
 20
379.0812787140446
 30
0.0
 10
199.3420386214014
 20
378.4947350754803
 30
0.0
 10
198.2882143147152
 20
377.4435695699775
 30
0.0
 10
197.713608283299
 20
376.972322880416
 30
0.0
 10
196.7787030881631
 20
376.3486149513924
 30
0.0
 10
196.4542818542339
 20
376.1546645247397
 30
0.0
 10
195.7950825813543
 20
375.803374400807
 30
0.0
 10
195.1221255432093
 20
375.4862301768355
 30
0.0
 10
194.4221150641828
 20
375.2362308756154
 30
0.0
 10
193.7084171077811
 20
375.0202030242774
 30
0.0
 10
193.3430145888481
 20
374.9288555343796
 30
0.0
 10
192.2377584175052
 20
374.7102028836984
 30
0.0
 10
191.4975304973053
 20
374.6386758498098
 30
0.0
 10
190.3822557588953
 20
374.6394004138954
 30
0.0
 10
190.0096694093182
 20
374.6577749701587
 30
0.0
 10
189.2627931321616
 20
374.731827441021
 30
0.0
 10
188.8897871909367
 20
374.7876086375958
 30
0.0
 10
187.7924881016069
 20
375.0071582528142
 30
0.0
 10
187.0819026779224
 20
375.2232777449067
 30
0.0
 10
186.0475118989592
 20
375.6523077226031
 30
0.0
 10
185.706160915684
 20
375.813970538949
 30
0.0
 10
185.0452717064468
 20
376.168057289661
 30
0.0
 10
184.7257800851533
 20
376.3601511681472
 30
0.0
 10
183.7993192725414
 20
376.9804233370075
 30
0.0
 10
183.2240540842488
 20
377.4521661232455
 30
0.0
 10
182.4269689854491
 20
378.2502135637144
 30
0.0
 10
182.1749510359361
 20
378.5289633441203
 30
0.0
 10
181.7027595204563
 20
379.1054842207804
 30
0.0
 10
181.2606512918542
 20
379.7027777307359
 30
0.0
 10
180.8781255300368
 20
380.3412131790141
 30
0.0
 10
180.525964870025
 20
381.0006158549517
 30
0.0
 10
180.3644529106502
 20
381.3425980659111
 30
0.0
 10
179.9357025979433
 20
382.380317456193
 30
0.0
 10
179.7208274339204
 20
383.0915368864185
 30
0.0
 10
179.4307568973302
 20
384.5521769632448
 30
0.0
 10
179.3567448799273
 20
385.3080841591028
 30
0.0
 10
179.3579680298825
 20
386.7971051967377
 30
0.0
 10
179.4307839915668
 20
387.5365242218181
 30
0.0
 10
179.6501366621671
 20
388.637887030032
 30
0.0
 10
179.7422431197787
 20
389.004672443028
 30
0.0
 10
179.9597720380533
 20
389.7197499018545
 30
0.0
 10
180.0854662832469
 20
390.0699753877669
 30
0.0
 10
180.512397780646
 20
391.0991184290649
 30
0.0
 10
180.8643686729915
 20
391.7587569130851
 30
0.0
 10
181.7011018882035
 20
393.0095422064182
 30
0.0
 10
182.176972867513
 20
393.5882690584882
 30
0.0
 10
182.710573579825
 20
394.120147386335
 30
0.0
  0
ARC
  5
A5
330
1F
100
AcDbEntity
  8
0
  6
Continuous
 62
     7
370
    25
100
AcDbCircle
 10
190.7614229249
 20
348.1421490472
 30
0.0
 40
74.50000000000003
100
AcDbArc
 50
283.0567898281
 51
256.9254899519
  0
SPLINE
  5
A6
330
1F
100
AcDbEntity
  8
0
  6
Continuous
 62
     8
370
    18
100
AcDbSpline
210
0.0
220
0.0
230
1.0
 70
     8
 71
     3
 72
     8
 73
     4
 74
     0
 42
0.00000001
 43
0.00000001
 40
0.0
 40
0.0
 40
0.0
 40
0.0
 40
1.0
 40
1.0
 40
1.0
 40
1.0
 10
196.5278662468032
 20
245.0094193985456
 30
0.0
 10
194.6058456653319
 20
244.9979918882557
 30
0.0
 10
192.6836612136477
 20
244.9880514564525
 30
0.0
 10
190.7614229280466
 20
244.9890363913756
 30
0.0
  0
SPLINE
  5
A7
330
1F
100
AcDbEntity
  8
0
  6
Continuous
 62
     8
370
    18
100
AcDbSpline
210
0.0
220
0.0
230
1.0
 70
     8
 71
     3
 72
    28
 73
    24
 74
     0
 42
0.00000001
 43
0.00000001
 40
0.0
 40
0.0
 40
0.0
 40
0.0
 40
0.015625
 40
0.015625
 40
0.03125
 40
0.03125
 40
0.0624999999999999
 40
0.0624999999999999
 40
0.1249999999999999
 40
0.1249999999999999
 40
0.2499999999999999
 40
0.2499999999999999
 40
0.5
 40
0.5
 40
0.625
 40
0.625
 40
0.75
 40
0.75
 40
0.8750000000000001
 40
0.8750000000000001
 40
0.9375000000000001
 40
0.9375000000000001
 40
1.0
 40
1.0
 40
1.0
 40
1.0
 10
214.8552842767509
 20
318.0672455136198
 30
0.0
 10
214.8552885417224
 20
317.9903666997361
 30
0.0
 10
214.8549078590159
 20
317.9111599486845
 30
0.0
 10
214.8533880374211
 20
317.755276384666
 30
0.0
 10
214.8522490750572
 20
317.6774018734266
 30
0.0
 10
214.8477129725099
 20
317.4439766820556
 30
0.0
 10
214.8431999532976
 20
317.2886236120249
 30
0.0
 10
214.8251750513012
 20
316.823359058026
 30
0.0
 10
214.8071982741703
 20
316.5142390369127
 30
0.0
 10
214.7356859997975
 20
315.5899948097573
 30
0.0
 10
214.6645055331946
 20
314.9779973100672
 30
0.0
 10
214.381372241477
 20
313.1543373703352
 30
0.0
 10
214.1000416693762
 20
311.9549692078629
 30
0.0
 10
213.5363622388918
 20
310.1810255299882
 30
0.0
 10
213.3237880415799
 20
309.5919012631198
 30
0.0
 10
212.8564729043654
 20
308.438607831788
 30
0.0
 10
212.6015709065861
 20
307.8730359878926
 30
0.0
 10
212.0503710233526
 20
306.7634863607678
 30
0.0
 10
211.7539173234121
 20
306.2195910634238
 30
0.0
 10
211.2797062438353
 20
305.4191607359745
 30
0.0
 10
211.1170447856043
 20
305.1547456556434
 30
0.0
 10
210.782867663902
 20
304.6305236279671
 30
0.0
 10
210.6112937149528
 20
304.3707426576071
 30
0.0
 10
210.4309881231648
 20
304.1155296683882
 30
0.0
  0
SPLINE
  5
A8
330
1F
100
AcDbEntity
  8
0
  6
Continuous
 62
     8
370
    18
100
AcDbSpline
210
0.0
220
0.0
230
1.0
 70
     8
 71
     3
 72
    16
 73
    12
 74
     0
 42
0.00000001
 43
0.00000001
 40
0.0
 40
0.0
 40
0.0
 40
0.0
 40
0.1249999999999996
 40
0.1249999999999996
 40
0.2499999999999992
 40
0.2499999999999992
 40
0.4999999999999994
 40
0.4999999999999994
 40
0.7499999999999997
 40
0.7499999999999997
 40
1.0
 40
1.0
 40
1.0
 40
1.0
 10
210.4275726132009
 20
304.1106969874475
 30
0.0
 10
210.1297276541154
 20
303.689423348009
 30
0.0
 10
209.8416832446487
 20
303.2622289117539
 30
0.0
 10
209.3022901695969
 20
302.3860472309379
 30
0.0
 10
209.0494889565702
 20
301.9378885899533
 30
0.0
 10
208.3422824263661
 20
300.5630545906776
 30
0.0
 10
207.9474890766855
 20
299.6230035564542
 30
0.0
 10
207.3127079965037
 20
297.70510350544
 30
0.0
 10
207.0751094806915
 20
296.7252493212923
 30
0.0
 10
206.7556138030575
 20
294.720440972504
 30
0.0
 10
206.6787107133976
 20
293.7147271427792
 30
0.0
 10
206.6719274383057
 20
292.7035914244994
 30
0.0
  0
SPLINE
  5
A9
330
1F
100
AcDbEntity
  8
0
  6
Continuous
 62
     8
370
    18
100
AcDbSpline
210
0.0
220
0.0
230
1.0
 70
     8
 71
     3
 72
    22
 73
    18
 74
     0
 42
0.00000001
 43
0.00000001
 40
0.0
 40
0.0
 40
0.0
 40
0.0
 40
0.0624999999999998
 40
0.0624999999999998
 40
0.1249999999999996
 40
0.1249999999999996
 40
0.2499999999999998
 40
0.2499999999999998
 40
0.4999999999999991
 40
0.4999999999999991
 40
0.7499999999999986
 40
0.7499999999999986
 40
0.8749999999999987
 40
0.8749999999999987
 40
0.9374999999999993
 40
0.9374999999999993
 40
1.0
 40
1.0
 40
1.0
 40
1.0
 10
206.6719115517569
 20
292.7013135656816
 30
0.0
 10
206.6666105555148
 20
291.9112270891436
 30
0.0
 10
206.661992015257
 20
291.1222714982031
 30
0.0
 10
206.6546850017779
 20
289.5443622127526
 30
0.0
 10
206.6518466508371
 20
288.7555924842348
 30
0.0
 10
206.6452311574345
 20
286.3893807744611
 30
0.0
 10
206.6431519664951
 20
284.812131010872
 30
0.0
 10
206.6368152191683
 20
280.0801923513061
 30
0.0
 10
206.6333859744031
 20
276.9255409432752
 30
0.0
 10
206.6239702811898
 20
270.6162345543912
 30
0.0
 10
206.6187123755894
 20
267.4615587987434
 30
0.0
 10
206.6099088524728
 20
262.729600322189
 30
0.0
 10
206.6068166824087
 20
261.1522981248334
 30
0.0
 10
206.6016862163106
 20
258.7864194150122
 30
0.0
 10
206.5998683847895
 20
257.9978133617702
 30
0.0
 10
206.5954489338325
 20
256.4207340753574
 30
0.0
 10
206.592879241884
 20
255.6325195511992
 30
0.0
 10
206.5897070411594
 20
254.8435276313992
 30
0.0
  0
SPLINE
  5
AA
330
1F
100
AcDbEntity
  8
0
  6
Continuous
 62
     8
370
    18
100
AcDbSpline
210
0.0
220
0.0
230
1.0
 70
     8
 71
     3
 72
    28
 73
    24
 74
     0
 42
0.00000001
 43
0.00000001
 40
0.0
 40
0.0
 40
0.0
 40
0.0
 40
0.1250000000000018
 40
0.1250000000000018
 40
0.1875000000000014
 40
0.1875000000000014
 40
0.250000000000001
 40
0.250000000000001
 40
0.375
 40
0.375
 40
0.499999999999999
 40
0.499999999999999
 40
0.624999999999998
 40
0.624999999999998
 40
0.6874999999999982
 40
0.6874999999999982
 40
0.7499999999999983
 40
0.7499999999999983
 40
0.8124999999999984
 40
0.8124999999999984
 40
0.8749999999999986
 40
0.8749999999999986
 40
1.0
 40
1.0
 40
1.0
 40
1.0
 10
206.5897070411594
 20
254.8435276313992
 30
0.0
 10
206.5870985563205
 20
254.1947435097259
 30
0.0
 10
206.519648823439
 20
253.5574103423903
 30
0.0
 10
206.3255479951028
 20
252.617000371847
 30
0.0
 10
206.2452160593437
 20
252.3061847337666
 30
0.0
 10
206.052545393677
 20
251.6899836138939
 30
0.0
 10
205.9396428080115
 20
251.3836882844732
 30
0.0
 10
205.5596178850019
 20
250.4927000055407
 30
0.0
 10
205.2499985238972
 20
249.9294412797612
 30
0.0
 10
204.5194930740368
 20
248.8636826901862
 30
0.0
 10
204.0945381528722
 20
248.358960320672
 30
0.0
 10
203.1668359747086
 20
247.454020497672
 30
0.0
 10
202.6607102571034
 20
247.0483275039341
 30
0.0
 10
201.8382372742963
 20
246.5097684633321
 30
0.0
 10
201.5532343700753
 20
246.3421547951117
 30
0.0
 10
200.9740023897801
 20
246.0380193428131
 30
0.0
 10
200.6783079255339
 20
245.9004268860537
 30
0.0
 10
200.0747814288341
 20
245.6542244797234
 30
0.0
 10
199.7669643408774
 20
245.5455821628588
 30
0.0
 10
199.1392629339189
 20
245.3571759155273
 30
0.0
 10
198.8182648286586
 20
245.276811643094
 30
0.0
 10
197.8462421597868
 20
245.0816663956895
 30
0.0
 10
197.1908515302125
 20
245.0133612247792
 30
0.0
 10
196.5278662468031
 20
245.0094193985458
 30
0.0
  0
SPLINE
  5
AB
330
1F
100
AcDbEntity
  8
0
  6
Continuous
 62
     8
370
    18
100
AcDbSpline
210
0.0
220
0.0
230
1.0
 70
     8
 71
     3
 72
    22
 73
    18
 74
     0
 42
0.00000001
 43
0.00000001
 40
0.0
 40
0.0
 40
0.0
 40
0.0
 40
0.0625
 40
0.0625
 40
0.1249999999999999
 40
0.1249999999999999
 40
0.2499999999999993
 40
0.2499999999999993
 40
0.4999999999999991
 40
0.4999999999999991
 40
0.749999999999999
 40
0.749999999999999
 40
0.8749999999999994
 40
0.8749999999999994
 40
0.9374999999999997
 40
0.9374999999999997
 40
1.0
 40
1.0
 40
1.0
 40
1.0
 10
174.8509343023694
 20
292.7013135650257
 30
0.0
 10
174.856235298644
 20
291.9112270884878
 30
0.0
 10
174.8608538389344
 20
291.1222714975476
 30
0.0
 10
174.8681608524785
 20
289.5443622120974
 30
0.0
 10
174.8709992034518
 20
288.7555924835796
 30
0.0
 10
174.8776146969519
 20
286.3893807738062
 30
0.0
 10
174.8796938879564
 20
284.8121310102172
 30
0.0
 10
174.8860306354782
 20
280.0801923506516
 30
0.0
 10
174.8894598803736
 20
276.9255409426207
 30
0.0
 10
174.898875573847
 20
270.6162345537372
 30
0.0
 10
174.9041334795774
 20
267.4615587980896
 30
0.0
 10
174.9129370028892
 20
262.7296003215357
 30
0.0
 10
174.9160291730181
 20
261.1522981241799
 30
0.0
 10
174.9211596392139
 20
258.7864194143593
 30
0.0
 10
174.9229774707675
 20
257.9978133611173
 30
0.0
 10
174.9273969217896
 20
256.4207340747047
 30
0.0
 10
174.9299666137705
 20
255.6325195505464
 30
0.0
 10
174.9331388145276
 20
254.8435276307466
 30
0.0
  0
SPLINE
  5
AC
330
1F
100
AcDbEntity
  8
0
  6
Continuous
 62
     8
370
    18
100
AcDbSpline
210
0.0
220
0.0
230
1.0
 70
     8
 71
     3
 72
    16
 73
    12
 74
     0
 42
0.00000001
 43
0.00000001
 40
0.0
 40
0.0
 40
0.0
 40
0.0
 40
0.125
 40
0.125
 40
0.25
 40
0.25
 40
0.5
 40
0.5
 40
0.75
 40
0.75
 40
1.0
 40
1.0
 40
1.0
 40
1.0
 10
171.095273240455
 20
304.1106969866367
 30
0.0
 10
171.3931181995569
 20
303.6894233472099
 30
0.0
 10
171.6811626090393
 20
303.2622289109655
 30
0.0
 10
172.220555684132
 20
302.3860472301747
 30
0.0
 10
172.4733568971768
 20
301.9378885892002
 30
0.0
 10
173.1805634274353
 20
300.5630545899523
 30
0.0
 10
173.5753567771773
 20
299.623003555753
 30
0.0
 10
174.2101378573911
 20
297.705103504749
 30
0.0
 10
174.4477363732689
 20
296.7252493206196
 30
0.0
 10
174.7672320509859
 20
294.7204409718444
 30
0.0
 10
174.8441351406868
 20
293.7147271421232
 30
0.0
 10
174.8509184158204
 20
292.7035914238434
 30
0.0
  0
SPLINE
  5
AD
330
1F
100
AcDbEntity
  8
0
  6
Continuous
 62
     8
370
    18
100
AcDbSpline
210
0.0
220
0.0
230
1.0
 70
     8
 71
     3
 72
    28
 73
    24
 74
     0
 42
0.00000001
 43
0.00000001
 40
0.0
 40
0.0
 40
0.0
 40
0.0
 40
0.0156249999999996
 40
0.0156249999999996
 40
0.0312499999999993
 40
0.0312499999999993
 40
0.0624999999999992
 40
0.0624999999999992
 40
0.1249999999999999
 40
0.1249999999999999
 40
0.2499999999999998
 40
0.2499999999999998
 40
0.4999999999999996
 40
0.4999999999999996
 40
0.6249999999999996
 40
0.6249999999999996
 40
0.7499999999999996
 40
0.7499999999999996
 40
0.8749999999999996
 40
0.8749999999999996
 40
0.9374999999999998
 40
0.9374999999999998
 40
1.0
 40
1.0
 40
1.0
 40
1.0
 10
166.6675615763296
 20
318.0672455126264
 30
0.0
 10
166.66755720574
 20
317.9903666987489
 30
0.0
 10
166.667937994071
 20
317.9111599476911
 30
0.0
 10
166.6694578156722
 20
317.7552763836728
 30
0.0
 10
166.6705967780394
 20
317.6774018724334
 30
0.0
 10
166.6751328805963
 20
317.4439766810626
 30
0.0
 10
166.679645899815
 20
317.2886236110321
 30
0.0
 10
166.6976708018307
 20
316.8233590570338
 30
0.0
 10
166.7156475789742
 20
316.5142390359214
 30
0.0
 10
166.787159853385
 20
315.5899948087689
 30
0.0
 10
166.8583403200134
 20
314.9779973090817
 30
0.0
 10
167.1414736118057
 20
313.1543373693613
 30
0.0
 10
167.4228041839564
 20
311.9549692069007
 30
0.0
 10
167.9864836145136
 20
310.1810255290492
 30
0.0
 10
168.1990578118501
 20
309.5919012621897
 30
0.0
 10
168.6663729491123
 20
308.4386078308772
 30
0.0
 10
168.9212749469142
 20
307.873035986992
 30
0.0
 10
169.472474830194
 20
306.76348635989
 30
0.0
 10
169.7689285301568
 20
306.2195910625582
 30
0.0
 10
170.2431396097667
 20
305.4191607351285
 30
0.0
 10
170.4058010680084
 20
305.154745654804
 30
0.0
 10
170.7399781897326
 20
304.6305236271415
 30
0.0
 10
170.9115521386907
 20
304.3707426567879
 30
0.0
 10
171.0918577304909
 20
304.1155296675773
 30
0.0
  0
SPLINE
  5
AE
330
1F
100
AcDbEntity
  8
0
  6
Continuous
 62
     8
370
    18
100
AcDbSpline
210
0.0
220
0.0
230
1.0
 70
     8
 71
     3
 72
     8
 73
     4
 74
     0
 42
0.00000001
 43
0.00000001
 40
0.0
 40
0.0
 40
0.0
 40
0.0
 40
1.0
 40
1.0
 40
1.0
 40
1.0
 10
184.9949796092892
 20
245.0094193983079
 30
0.0
 10
186.9170001907611
 20
244.9979918880971
 30
0.0
 10
188.8391846424456
 20
244.9880514563733
 30
0.0
 10
190.7614229280466
 20
244.9890363913756
 30
0.0
  0
SPLINE
  5
AF
330
1F
100
AcDbEntity
  8
0
  6
Continuous
 62
     8
370
    18
100
AcDbSpline
210
0.0
220
0.0
230
1.0
 70
     8
 71
     3
 72
    28
 73
    24
 74
     0
 42
0.00000001
 43
0.00000001
 40
0.0
 40
0.0
 40
0.0
 40
0.0
 40
0.1250000000000029
 40
0.1250000000000029
 40
0.1875000000000044
 40
0.1875000000000044
 40
0.2500000000000059
 40
0.2500000000000059
 40
0.3750000000000064
 40
0.3750000000000064
 40
0.500000000000007
 40
0.500000000000007
 40
0.6250000000000075
 40
0.6250000000000075
 40
0.6875000000000064
 40
0.6875000000000064
 40
0.7500000000000052
 40
0.7500000000000052
 40
0.812500000000004
 40
0.812500000000004
 40
0.8750000000000028
 40
0.8750000000000028
 40
1.0
 40
1.0
 40
1.0
 40
1.0
 10
174.9331388145276
 20
254.8435276307466
 30
0.0
 10
174.9357472993933
 20
254.1947435090737
 30
0.0
 10
175.0031970323016
 20
253.5574103417412
 30
0.0
 10
175.1972978606758
 20
252.6170003712058
 30
0.0
 10
175.2776297964479
 20
252.306184733129
 30
0.0
 10
175.4703004621405
 20
251.6899836132646
 30
0.0
 10
175.5832030478179
 20
251.3836882838483
 30
0.0
 10
175.9632279708643
 20
250.4927000049316
 30
0.0
 10
176.2728473319918
 20
249.9294412791647
 30
0.0
 10
177.0033527818964
 20
248.8636826896199
 30
0.0
 10
177.428307703081
 20
248.3589603201226
 30
0.0
 10
178.3560098812826
 20
247.4540204971618
 30
0.0
 10
178.862135598904
 20
247.0483275034442
 30
0.0
 10
179.6846085817336
 20
246.5097684628763
 30
0.0
 10
179.9696114859588
 20
246.3421547946612
 30
0.0
 10
180.5488434662734
 20
246.0380193424026
 30
0.0
 10
180.8445379305213
 20
245.9004268856459
 30
0.0
 10
181.448064427231
 20
245.6542244793394
 30
0.0
 10
181.7558815151926
 20
245.5455821624885
 30
0.0
 10
182.3835829221581
 20
245.3571759151806
 30
0.0
 10
182.704581027422
 20
245.2768116427597
 30
0.0
 10
183.6766036963023
 20
245.0816663953964
 30
0.0
 10
184.3319943258797
 20
245.0133612245143
 30
0.0
 10
184.9949796092894
 20
245.0094193983081
 30
0.0
  0
ARC
  5
B0
330
1F
100
AcDbEntity
  8
0
  6
Continuous
 62
     8
370
    18
100
AcDbCircle
 10
167.5794567656
 20
244.7490708982
 30
0.0
 40
28.94958018409559
100
AcDbArc
 50
358.1242410993
 51
0.5152776398
  0
LWPOLYLINE
  5
B1
330
1F
100
AcDbEntity
  8
0
  6
Continuous
 62
     8
370
    18
100
AcDbPolyline
 90
        9
 70
   128
 43
0.0
 10
207.5758270332
 20
254.5954658935
 10
207.5745671502
 20
254.6398649639
 10
207.5315566319
 20
254.6834470098
 10
207.4484565714
 20
254.7245288651
 10
207.3284763454
 20
254.7615239228
 10
207.1762496655
 20
254.7930034105
 10
206.9976556218
 20
254.8177515706
 10
206.7995916284
 20
254.8348126136
 10
206.5897070412
 20
254.8435276314
  0
ARC
  5
B2
330
1F
100
AcDbEntity
  8
0
  6
Continuous
 62
     8
370
    18
100
AcDbCircle
 10
213.9433890905
 20
244.7490708992
 30
0.0
 40
28.94958018408517
100
AcDbArc
 50
179.4847223626
 51
181.875758903
  0
LWPOLYLINE
  5
B3
330
1F
100
AcDbEntity
  8
0
  6
Continuous
 62
     8
370
    18
100
AcDbPolyline
 90
        9
 70
   128
 43
0.0
 10
173.9470188225
 20
254.5954658928
 10
173.9482787055
 20
254.6398649632
 10
173.9912892238
 20
254.6834470091
 10
174.0743892843
 20
254.7245288644
 10
174.1943695103
 20
254.7615239221
 10
174.3465961902
 20
254.7930034098
 10
174.5251902339
 20
254.8177515699
 10
174.7232542273
 20
254.834812613
 10
174.9331388145
 20
254.8435276307
  0
SPLINE
  5
B4
330
1F
100
AcDbEntity
  8
0
  6
Continuous
 62
     8
370
    18
100
AcDbSpline
210
0.0
220
0.0
230
1.0
 70
     8
 71
     3
 72
     8
 73
     4
 74
     0
 42
0.00000001
 43
0.00000001
 40
0.0
 40
0.0
 40
0.0
 40
0.0
 40
1.0
 40
1.0
 40
1.0
 40
1.0
 10
190.7614229280705
 20
243.8057035800855
 30
0.0
 10
192.6788854531816
 20
243.8057240562923
 30
0.0
 10
194.5963045661248
 20
243.8044647878792
 30
0.0
 10
196.5135244333208
 20
243.8014839456162
 30
0.0
  0
SPLINE
  5
B5
330
1F
100
AcDbEntity
  8
0
  6
Continuous
 62
     8
370
    18
100
AcDbSpline
210
0.0
220
0.0
230
1.0
 70
     8
 71
     3
 72
     8
 73
     4
 74
     0
 42
0.00000001
 43
0.00000001
 40
0.0
 40
0.0
 40
0.0
 40
0.0
 40
1.0
 40
1.0
 40
1.0
 40
1.0
 10
190.7614229280716
 20
243.8057035800855
 30
0.0
 10
188.8439604029602
 20
243.8057240562132
 30
0.0
 10
186.9265412900177
 20
243.8044647877211
 30
0.0
 10
185.0093214228215
 20
243.801483945379
 30
0.0
  0
LINE
  5
B6
330
1F
100
AcDbEntity
  8
0
  6
Continuous
 62
     8
370
    18
100
AcDbLine
 10
196.5135244333
 20
243.8014839456
 30
0.0
 11
196.5135244333
 21
243.775113353
 31
0.0
  0
LINE
  5
B7
330
1F
100
AcDbEntity
  8
0
  6
Continuous
 62
     8
370
    18
100
AcDbLine
 10
185.0093214228
 20
243.8014839454
 30
0.0
 11
185.0093214228
 21
243.7751133744
 31
0.0
  0
ARC
  5
B8
330
1F
100
AcDbEntity
  8
0
  6
Continuous
 62
     8
370
    18
100
AcDbCircle
 10
206.8774988556
 20
291.5201359262
 30
0.0
 40
1.198935676119533
100
AcDbArc
 50
53.0788469867
 51
99.873580475
  0
ARC
  5
B9
330
1F
100
AcDbEntity
  8
0
  6
Continuous
 62
     8
370
    18
100
AcDbCircle
 10
174.6453295386
 20
291.5201565604
 30
0.0
 40
1.198912329142109
100
AcDbArc
 50
80.125406391
 51
126.920969447
  0
ARC
  5
BA
330
1F
100
AcDbEntity
  8
0
  6
Continuous
 62
     8
370
    18
100
AcDbCircle
 10
201.5309990082
 20
291.2516259257
 30
0.0
 40
15.63664703449304
100
AcDbArc
 50
52.0727545276
 51
55.3225013708
  0
ARC
  5
BB
330
1F
100
AcDbEntity
  8
0
  6
Continuous
 62
     8
370
    18
100
AcDbCircle
 10
179.9918794859
 20
291.2515724565
 30
0.0
 40
15.6367095768519
100
AcDbArc
 50
124.6774855486
 51
127.9272193718
  0
ARC
  5
BC
330
1F
100
AcDbEntity
  8
0
  6
Continuous
 62
     8
370
    18
100
AcDbCircle
 10
190.7614229265
 20
318.067153817
 30
0.0
 40
24.09386044235418
100
AcDbArc
 50
0.0002180543
 51
179.999781948
  0
SPLINE
  5
BD
330
1F
100
AcDbEntity
  8
0
  6
Continuous
 62
     8
370
    18
100
AcDbSpline
210
0.0
220
0.0
230
1.0
 70
     8
 71
     3
 72
    10
 73
     6
 74
     0
 42
0.00000001
 43
0.00000001
 40
0.0
 40
0.0
 40
0.0
 40
0.0
 40
0.5
 40
0.5
 40
1.0
 40
1.0
 40
1.0
 40
1.0
 10
214.8552842767509
 20
318.0672455136191
 30
0.0
 10
215.1060285543655
 20
318.0671783034745
 30
0.0
 10
215.3403584360447
 20
318.0669359561179
 30
0.0
 10
215.6687040297753
 20
318.0662121499149
 30
0.0
 10
215.7614228188836
 20
318.0657335500101
 30
0.0
 10
215.7614228899874
 20
318.0652480184143
 30
0.0
  0
SPLINE
  5
BE
330
1F
100
AcDbEntity
  8
0
  6
Continuous
 62
     8
370
    18
100
AcDbSpline
210
0.0
220
0.0
230
1.0
 70
     8
 71
     3
 72
    10
 73
     6
 74
     0
 42
0.00000001
 43
0.00000001
 40
0.0
 40
0.0
 40
0.0
 40
0.0
 40
0.5
 40
0.5
 40
1.0
 40
1.0
 40
1.0
 40
1.0
 10
165.7614229630938
 20
318.0652480166668
 30
0.0
 10
165.7614232475501
 20
318.0658173446388
 30
0.0
 10
165.8541421454408
 20
318.0663787113646
 30
0.0
 10
166.1824877378868
 20
318.0671375068151
 30
0.0
 10
166.4168175122956
 20
318.0673304694694
 30
0.0
 10
166.6675616553993
 20
318.0672455111618
 30
0.0
  0
CIRCLE
  5
BF
330
1F
100
AcDbEntity
  8
0
  6
Continuous
 62
     8
370
    18
100
AcDbCircle
 10
190.7614229221
 20
386.0421490472
 30
0.0
 40
10.77434613606391
  0
CIRCLE
  5
C0
330
1F
100
AcDbEntity
  8
0
  6
Continuous
 62
     8
370
    18
100
AcDbCircle
 10
190.7614229221
 20
386.0421490472
 30
0.0
 40
11.25844862367722
  0
ARC
  5
C1
330
1F
100
AcDbEntity
  8
0
  6
Continuous
 62
     8
370
    18
100
AcDbCircle
 10
190.7614229249
 20
348.1421490472
 30
0.0
 40
73.35275294427501
100
AcDbArc
 50
283.2641696674
 51
256.7303766421
  0
ARC
  5
C2
330
1F
100
AcDbEntity
  8
0
  6
Continuous
 62
     8
370
    18
100
AcDbCircle
 10
190.7614229249
 20
348.1421490472
 30
0.0
 40
74.34193130454271
100
AcDbArc
 50
283.0849775654
 51
256.8990983058
  0
LINE
  5
C3
330
1F
100
AcDbEntity
  8
0
  6
Continuous
 62
     7
370
    25
100
AcDbLine
 10
329.2651099977
 20
273.6421490472
 30
0.0
 11
335.3015099403
 21
273.8002177426
 31
0.0
  0
LINE
  5
C4
330
1F
100
AcDbEntity
  8
0
  6
Continuous
 62
     7
370
    25
100
AcDbLine
 10
335.3015099403
 20
422.4840803517
 30
0.0
 11
329.2651099977
 21
422.6421490472
 31
0.0
  0
ARC
  5
C5
330
1F
100
AcDbEntity
  8
0
  6
Continuous
 62
     7
370
    25
100
AcDbCircle
 10
335.275332992
 20
421.4844230267
 30
0.0
 40
0.9999999999996357
100
AcDbArc
 50
0.6004114401
 51
88.5
  0
ARC
  5
C6
330
1F
100
AcDbEntity
  8
0
  6
Continuous
 62
     7
370
    25
100
AcDbCircle
 10
335.275332992
 20
274.7998750676
 30
0.0
 40
0.9999999999996357
100
AcDbArc
 50
271.5
 51
359.3995885599
  0
ARC
  5
C7
330
1F
100
AcDbEntity
  8
0
  6
Continuous
 62
     7
370
    25
100
AcDbCircle
 10
-6663.3403809079
 20
348.1421490472
 30
0.0
 40
7000.000000000002
100
AcDbArc
 50
0.4032803259
 51
0.6004114401
  0
ARC
  5
C8
330
1F
100
AcDbEntity
  8
0
  6
Continuous
 62
     7
370
    25
100
AcDbCircle
 10
-6663.3403809079
 20
348.1421490472
 30
0.0
 40
7000.000000000002
100
AcDbArc
 50
359.953498162
 51
0.2171581647
  0
ARC
  5
C9
330
1F
100
AcDbEntity
  8
0
  6
Continuous
 62
     7
370
    25
100
AcDbCircle
 10
-6663.3403809079
 20
348.1421490472
 30
0.0
 40
7000.000000000002
100
AcDbArc
 50
359.3995885599
 51
359.5531794206
  0
LINE
  5
CA
330
1F
100
AcDbEntity
  8
0
  6
Continuous
 62
     7
370
    25
100
AcDbLine
 10
383.3192903973
 20
293.0016635506
 30
0.0
 11
386.1832598075
 21
293.010613455
 31
0.0
  0
LINE
  5
CB
330
1F
100
AcDbEntity
  8
0
  6
Continuous
 62
     7
370
    25
100
AcDbLine
 10
368.319363639
 20
292.9547887795
 30
0.0
 11
375.3704522237
 21
292.9768234313
 31
0.0
  0
LINE
  5
CC
330
1F
100
AcDbEntity
  8
0
  6
Continuous
 62
     7
370
    25
100
AcDbLine
 10
403.1165248813
 20
343.0637740484
 30
0.0
 11
374.2793161041
 21
342.9736577709
 31
0.0
  0
ARC
  5
CD
330
1F
100
AcDbEntity
  8
0
  6
Continuous
 62
     7
370
    25
100
AcDbCircle
 10
403.1199216039
 20
341.976822834
 30
0.0
 40
1.086956521739176
100
AcDbArc
 50
9.7548097849
 51
90.1790487281
  0
LINE
  5
CE
330
1F
100
AcDbEntity
  8
0
  6
Continuous
 62
     7
370
    25
100
AcDbLine
 10
361.2651099977
 20
342.5421490457
 30
0.0
 11
336.657030025
 21
342.5421490457
 31
0.0
  0
LINE
  5
CF
330
1F
100
AcDbEntity
  8
0
  6
Continuous
 62
     7
370
    25
100
AcDbLine
 10
336.4467229553
 20
293.5421490457
 30
0.0
 11
361.2651099977
 21
293.5421490457
 31
0.0
  0
ARC
  5
D0
330
1F
100
AcDbEntity
  8
0
  6
Continuous
 62
     7
370
    25
100
AcDbCircle
 10
361.2651099977
 20
318.0421490457
 30
0.0
 40
24.50000000000006
100
AcDbArc
 50
60.511224567
 51
90.0
  0
ARC
  5
D1
330
1F
100
AcDbEntity
  8
0
  6
Continuous
 62
     7
370
    25
100
AcDbCircle
 10
361.2651099977
 20
318.0421490457
 30
0.0
 40
24.49999999999994
100
AcDbArc
 50
270.0
 51
286.7216040764
  0
ARC
  5
D2
330
1F
100
AcDbEntity
  8
0
  6
Continuous
 62
     7
370
    25
100
AcDbCircle
 10
261.4482822083
 20
317.62093872
 30
0.0
 40
144.8369565217397
100
AcDbArc
 50
0.179208705
 51
9.7548097849
  0
SPLINE
  5
D3
330
1F
100
AcDbEntity
  8
0
  6
Continuous
 62
     7
370
    25
100
AcDbSpline
210
0.0
220
0.0
230
1.0
 70
     8
 71
     3
 72
    15
 73
    11
 74
     0
 42
0.00000001
 43
0.00000001
 40
0.0
 40
0.0
 40
0.0
 40
0.0
 40
0.0778499903280504
 40
0.1746069612117468
 40
0.280092863922556
 40
0.390280861453033
 40
0.5040820543963916
 40
0.6839986122222912
 40
0.847889264190339
 40
1.0
 40
1.0
 40
1.0
 40
1.0
 10
416.0312328581291
 20
245.4760946684709
 30
0.0
 10
415.9670149843258
 20
246.0914334681566
 30
0.0
 10
415.8229830101017
 20
247.4715548718466
 30
0.0
 10
415.5283103751272
 20
249.7390422723604
 30
0.0
 10
415.1155911962993
 20
252.2963514714237
 30
0.0
 10
414.5986850169043
 20
255.0182030041895
 30
0.0
 10
413.9136399800318
 20
258.3556852902793
 30
0.0
 10
413.126308988205
 20
262.1281366625816
 30
0.0
 10
412.3021362148464
 20
266.1922278130934
 30
0.0
 10
411.7982823368015
 20
268.6788981834972
 30
0.0
 10
411.5557467433065
 20
269.8758842550403
 30
0.0
  0
SPLINE
  5
D4
330
1F
100
AcDbEntity
  8
0
  6
Continuous
 62
     7
370
    25
100
AcDbSpline
210
0.0
220
0.0
230
1.0
 70
     8
 71
     3
 72
    11
 73
     7
 74
     0
 42
0.00000001
 43
0.00000001
 40
0.0
 40
0.0
 40
0.0
 40
0.0
 40
0.2416185871564348
 40
0.4778919243651016
 40
0.7257229126060318
 40
1.0
 40
1.0
 40
1.0
 40
1.0
 10
409.5564491769707
 20
279.640276416087
 30
0.0
 10
409.4326798940538
 20
280.2320941150023
 30
0.0
 10
409.1878794360816
 20
281.4026369210692
 30
0.0
 10
408.7731205696039
 20
283.3869753487358
 30
0.0
 10
408.3524108064267
 20
285.4488406521426
 30
0.0
 10
408.0932570755861
 20
286.762313659232
 30
0.0
 10
407.9571168130631
 20
287.4523155334934
 30
0.0
  0
LINE
  5
D5
330
1F
100
AcDbEntity
  8
0
  6
Continuous
 62
     7
370
    25
100
AcDbLine
 10
336.6098747636
 20
374.6391635593
 30
0.0
 11
344.8903861715
 21
374.7837004236
 31
0.0
  0
LINE
  5
D6
330
1F
100
AcDbEntity
  8
0
  6
Continuous
 62
     7
370
    25
100
AcDbLine
 10
344.8903861715
 20
397.3005976709
 30
0.0
 11
336.4867868724
 21
397.4472830423
 31
0.0
  0
ARC
  5
D7
330
1F
100
AcDbEntity
  8
0
  6
Continuous
 62
     7
370
    25
100
AcDbCircle
 10
344.8816599683
 20
375.2836242711
 30
0.0
 40
0.5000000000000058
100
AcDbArc
 50
271.0
 51
358.1867030123
  0
ARC
  5
D8
330
1F
100
AcDbEntity
  8
0
  6
Continuous
 62
     7
370
    25
100
AcDbCircle
 10
344.8816599683
 20
396.8006738233
 30
0.0
 40
0.4999999999999681
100
AcDbArc
 50
1.8132969876
 51
89.0
  0
ARC
  5
D9
330
1F
100
AcDbEntity
  8
0
  6
Continuous
 62
     7
370
    25
100
AcDbCircle
 10
386.2308139232
 20
277.7932964538
 30
0.0
 40
15.21739130434787
100
AcDbArc
 50
13.3790487281
 51
90.299918461
  0
ARC
  5
DA
330
1F
100
AcDbEntity
  8
0
  6
Continuous
 62
     7
370
    25
100
AcDbCircle
 10
5.0519170901
 20
386.0421490472
 30
0.0
 40
340.5
100
AcDbArc
 50
359.9998432641
 51
1.8132969877
  0
ARC
  5
DB
330
1F
100
AcDbEntity
  8
0
  6
Continuous
 62
     7
370
    25
100
AcDbCircle
 10
5.0519170901
 20
386.0421490472
 30
0.0
 40
340.5
100
AcDbArc
 50
358.1867030123
 51
359.9998432641
  0
LINE
  5
DC
330
1F
100
AcDbEntity
  8
0
  6
Continuous
 62
     7
370
    25
100
AcDbLine
 10
375.3193041798
 20
292.9847531998
 30
0.0
 11
375.3201107057
 21
292.7266648933
 31
0.0
  0
LINE
  5
DD
330
1F
100
AcDbEntity
  8
0
  6
Continuous
 62
     7
370
    25
100
AcDbLine
 10
383.3200716435
 20
292.7516647713
 30
0.0
 11
383.3192903973
 21
293.0016635506
 31
0.0
  0
LINE
  5
DE
330
1F
100
AcDbEntity
  8
0
  6
Continuous
 62
     7
370
    25
100
AcDbLine
 10
375.3201107057
 20
292.7266648933
 30
0.0
 11
375.5405677067
 21
292.1268035192
 31
0.0
  0
LINE
  5
DF
330
1F
100
AcDbEntity
  8
0
  6
Continuous
 62
     7
370
    25
100
AcDbLine
 10
383.1033680453
 20
292.1504372702
 30
0.0
 11
383.3200716435
 21
292.7516647713
 31
0.0
  0
ARC
  5
E0
330
1F
100
AcDbEntity
  8
0
  6
Continuous
 62
     7
370
    25
100
AcDbCircle
 10
382.9152166772
 20
292.2182536599
 30
0.0
 40
0.2000000000000088
100
AcDbArc
 50
270.1790487281
 51
340.1790487281
  0
ARC
  5
E1
330
1F
100
AcDbEntity
  8
0
  6
Continuous
 62
     7
370
    25
100
AcDbCircle
 10
375.7282915517
 20
292.1957945189
 30
0.0
 40
0.2000000000000088
100
AcDbArc
 50
200.1790487281
 51
270.1790487281
  0
LINE
  5
E2
330
1F
100
AcDbEntity
  8
0
  6
Continuous
 62
     7
370
    25
100
AcDbLine
 10
375.7289165486
 20
291.9957954954
 30
0.0
 11
382.9158416742
 21
292.0182546364
 31
0.0
  0
LINE
  5
E3
330
1F
100
AcDbEntity
  8
0
  6
Continuous
 62
     7
370
    25
100
AcDbLine
 10
375.7289165486
 20
291.9957954954
 30
0.0
 11
382.9158416742
 21
292.0182546364
 31
0.0
  0
LINE
  5
E4
330
1F
100
AcDbEntity
  8
0
  6
Continuous
 62
     7
370
    25
100
AcDbLine
 10
409.5564491852
 20
279.6402763764
 30
0.0
 11
409.3337342769
 21
280.7053253003
 31
0.0
  0
LINE
  5
E5
330
1F
100
AcDbEntity
  8
0
  6
Continuous
 62
     7
370
    25
100
AcDbLine
 10
408.2000020494
 20
286.2290928095
 30
0.0
 11
407.9571168067
 21
287.4523155658
 31
0.0
  0
LINE
  5
E6
330
1F
100
AcDbEntity
  8
0
  6
Continuous
 62
     7
370
    25
100
AcDbLine
 10
416.0312328585
 20
245.4760946645
 30
0.0
 11
415.9856240919
 21
245.8974474672
 31
0.0
  0
LINE
  5
E7
330
1F
100
AcDbEntity
  8
0
  6
Continuous
 62
     7
370
    25
100
AcDbLine
 10
329.2651099977
 20
422.6421490472
 30
0.0
 11
329.2651099977
 21
273.6421490472
 31
0.0
  0
SPLINE
  5
E8
330
1F
100
AcDbEntity
  8
0
  6
Continuous
 62
     7
370
    25
100
AcDbSpline
210
0.0
220
0.0
230
1.0
 70
     8
 71
     3
 72
    21
 73
    17
 74
     0
 42
0.00000001
 43
0.00000001
 40
0.0
 40
0.0
 40
0.0
 40
0.0
 40
0.0705704415464142
 40
0.143187442468637
 40
0.2137578799453922
 40
0.2863748445869659
 40
0.3569456378532191
 40
0.429562979555445
 40
0.5001339163888309
 40
0.5727514296257301
 40
0.6433220914494423
 40
0.7159393391713025
 40
0.7865094279279425
 40
0.8591260894419928
 40
0.9296955582344899
 40
0.9999999999999999
 40
0.9999999999999999
 40
0.9999999999999999
 40
0.9999999999999999
 10
336.6265212443294
 20
335.3659235837012
 30
0.0
 10
336.6221936331199
 20
334.3595076237171
 30
0.0
 10
336.6134129089597
 20
332.3174894045885
 30
0.0
 10
336.5980073716173
 20
328.734833858943
 30
0.0
 10
336.5813027293599
 20
324.850071922678
 30
0.0
 10
336.5638815528281
 20
320.7986857802991
 30
0.0
 10
336.5459746155369
 20
316.6343440250224
 30
0.0
 10
336.5283973740688
 20
312.5466850318136
 30
0.0
 10
336.5113345938865
 20
308.5786760092043
 30
0.0
 10
336.4955757937508
 20
304.9139207761507
 30
0.0
 10
336.4812821554116
 20
301.5899004119841
 30
0.0
 10
336.469121190802
 20
298.7618439163201
 30
0.0
 10
336.4591969628885
 20
296.4539486570568
 30
0.0
 10
336.4520482953745
 20
294.7915165020356
 30
0.0
 10
336.4475015741699
 20
293.7341713313727
 30
0.0
 10
336.4469823829227
 20
293.613432868266
 30
0.0
 10
336.446723275678
 20
293.5531772097503
 30
0.0
  0
SPLINE
  5
E9
330
1F
100
AcDbEntity
  8
0
  6
Continuous
 62
     7
370
    25
100
AcDbSpline
210
0.0
220
0.0
230
1.0
 70
     8
 71
     3
 72
    13
 73
     9
 74
     0
 42
0.00000001
 43
0.00000001
 40
0.0
 40
0.0
 40
0.0
 40
0.0
 40
0.0845922318129276
 40
0.3023786956761126
 40
0.514026919304346
 40
0.7318129102789472
 40
0.8651621261895502
 40
1.0
 40
1.0
 40
1.0
 40
1.0
 10
336.6570299267543
 20
342.4609479233193
 30
0.0
 10
336.6571168191718
 20
342.4811554548934
 30
0.0
 10
336.6574274199833
 20
342.5533881754312
 30
0.0
 10
336.6548323146149
 20
341.9498755085104
 30
0.0
 10
336.649338590959
 20
340.6722665499483
 30
0.0
 10
336.6419518772968
 20
338.9544295511931
 30
0.0
 10
336.6341382639735
 20
337.1373157217384
 30
0.0
 10
336.6290696292348
 20
335.958568633488
 30
0.0
 10
336.6265212443294
 20
335.3659235837012
 30
0.0
  0
SPLINE
  5
EA
330
1F
100
AcDbEntity
  8
0
  6
Continuous
 62
     7
370
    25
100
AcDbSpline
210
0.0
220
0.0
230
1.0
 70
     8
 71
     3
 72
    12
 73
     8
 74
     0
 42
0.00000001
 43
0.00000001
 40
0.0
 40
0.0
 40
0.0
 40
0.0
 40
0.2121551046772016
 40
0.4304626676073635
 40
0.6426177916595044
 40
0.8609255272063772
 40
1.0
 40
1.0
 40
1.0
 40
1.0
 10
336.503989325842
 20
394.120147386335
 30
0.0
 10
336.5016911788682
 20
394.5445856081566
 30
0.0
 10
336.4970282390893
 20
395.4057706806433
 30
0.0
 10
336.4918066264647
 20
396.3701342630718
 30
0.0
 10
336.4881107491625
 20
397.0527141449743
 30
0.0
 10
336.4861502809104
 20
397.4147866436712
 30
0.0
 10
336.4861621960752
 20
397.4125860702233
 30
0.0
 10
336.4861668328344
 20
397.4117297220756
 30
0.0
  0
SPLINE
  5
EB
330
1F
100
AcDbEntity
  8
0
  6
Continuous
 62
     7
370
    25
100
AcDbSpline
210
0.0
220
0.0
230
1.0
 70
     8
 71
     3
 72
    21
 73
    17
 74
     0
 42
0.00000001
 43
0.00000001
 40
0.0
 40
0.0
 40
0.0
 40
0.0
 40
0.0521580309732705
 40
0.1226832493658908
 40
0.1952536922292666
 40
0.2657791500148444
 40
0.3383498068112586
 40
0.4088760633329847
 40
0.4814475289274716
 40
0.5519747935002737
 40
0.6245473083202577
 40
0.6950753484909683
 40
0.7676486931535943
 40
0.838176936543594
 40
0.9107505279685904
 40
1.0
 40
1.0
 40
1.0
 40
1.0
 10
336.6092869818602
 20
374.672870649284
 30
0.0
 10
336.6092697199522
 20
374.6760587517178
 30
0.0
 10
336.6092291174426
 20
374.6835576307704
 30
0.0
 10
336.6071170060174
 20
375.0736434437279
 30
0.0
 10
336.6033569404539
 20
375.7680895664463
 30
0.0
 10
336.5979132416217
 20
376.7734850799698
 30
0.0
 10
336.5911168843072
 20
378.0287016766253
 30
0.0
 10
336.5830167258815
 20
379.5247151847742
 30
0.0
 10
336.5739933890358
 20
381.1912279187561
 30
0.0
 10
336.5641385344186
 20
383.0113105110856
 30
0.0
 10
336.5539081921135
 20
384.9007387891181
 30
0.0
 10
336.5434100875588
 20
386.8396168198647
 30
0.0
 10
336.5331215522493
 20
388.7397869962261
 30
0.0
 10
336.5231814841248
 20
390.575596734593
 30
0.0
 10
336.5131169516827
 20
392.434391027935
 30
0.0
 10
336.5072339490964
 20
393.5209067538681
 30
0.0
 10
336.503989325842
 20
394.120147386335
 30
0.0
  0
LINE
  5
EC
330
1F
100
AcDbEntity
  8
0
  6
Continuous
 62
     7
370
    25
100
AcDbLine
 10
368.2393825199
 20
318.5487468812
 30
0.0
 11
368.319363639
 21
292.9547887795
 31
0.0
  0
SPLINE
  5
ED
330
1F
100
AcDbEntity
  8
0
  6
Continuous
 62
     7
370
    25
100
AcDbSpline
210
0.0
220
0.0
230
1.0
 70
     8
 71
     3
 72
     8
 73
     4
 74
     0
 42
0.00000001
 43
0.00000001
 40
0.0
 40
0.0
 40
0.0
 40
0.0
 40
1.0
 40
1.0
 40
1.0
 40
1.0
 10
368.2393825199191
 20
318.5487468811745
 30
0.0
 10
368.2360738833406
 20
319.6075105862911
 30
0.0
 10
368.3705228672076
 20
320.6428395065387
 30
0.0
 10
368.6385649411308
 20
321.6558380326179
 30
0.0
  0
LINE
  5
EE
330
1F
100
AcDbEntity
  8
0
  6
Continuous
 62
     7
370
    25
100
AcDbLine
 10
368.6385649411
 20
321.6558380326
 30
0.0
 11
374.2793161041
 21
342.9736577709
 31
0.0
  0
ARC
  5
EF
330
1F
100
AcDbEntity
  8
0
  6
Continuous
 62
     7
370
    25
100
AcDbCircle
 10
379.397128938
 20
268.1599327317
 30
0.0
 40
25.14945209325536
100
AcDbArc
 50
81.0278619121
 51
99.2133348006
  0
SPLINE
  5
F0
330
1F
100
AcDbEntity
  8
0
  6
Continuous
 62
     7
370
    25
100
AcDbSpline
210
0.0
220
0.0
230
1.0
 70
     8
 71
     3
 72
    14
 73
    10
 74
     0
 42
0.00000001
 43
0.00000001
 40
0.0
 40
0.0
 40
0.0
 40
0.0
 40
0.1451532724720145
 40
0.2861144918289417
 40
0.4235363294011194
 40
0.5682462496006736
 40
0.713906944066237
 40
0.8597907514857853
 40
1.0
 40
1.0
 40
1.0
 40
1.0
 10
406.2845315235144
 20
318.0735519991072
 30
0.0
 10
406.2537604861345
 20
315.7169476901083
 30
0.0
 10
406.1931070845744
 20
311.0717982365118
 30
0.0
 10
405.7346387194088
 20
304.1992894401496
 30
0.0
 10
406.2748398924327
 20
297.3319486413434
 30
0.0
 10
407.3270700780019
 20
290.4640064965339
 30
0.0
 10
408.7451407830537
 20
283.5220098288547
 30
0.0
 10
410.1783767955536
 20
276.6597457474614
 30
0.0
 10
411.1021573124208
 20
272.1069453277681
 30
0.0
 10
411.554886133955
 20
269.87569674539
 30
0.0
  0
SPLINE
  5
F1
330
1F
100
AcDbEntity
  8
0
  6
Continuous
 62
     7
370
    18
100
AcDbSpline
210
0.0
220
0.0
230
1.0
 70
     8
 71
     3
 72
    16
 73
    12
 74
     0
 42
0.00000001
 43
0.00000001
 40
0.0
 40
0.0
 40
0.0
 40
0.0
 40
0.1116720416422755
 40
0.2233439726646222
 40
0.3350257878140502
 40
0.4467079254419143
 40
0.558248440928426
 40
0.6697985907684613
 40
0.781247012237683
 40
0.892711594957334
 40
0.9999999999999999
 40
0.9999999999999999
 40
0.9999999999999999
 40
0.9999999999999999
 10
413.9214046962132
 20
254.8435276307466
 30
0.0
 10
414.0397179662673
 20
254.2899296752413
 30
0.0
 10
414.2763443891768
 20
253.1827343126128
 30
0.0
 10
414.6236414860654
 20
251.5697732580317
 30
0.0
 10
414.9481589799346
 20
250.0521149509945
 30
0.0
 10
415.2436711134514
 20
248.6690938884802
 30
0.0
 10
415.4997600751336
 20
247.467604149692
 30
0.0
 10
415.7125237302162
 20
246.4684078591674
 30
0.0
 10
415.8713542282629
 20
245.7211288585782
 30
0.0
 10
415.9841726142162
 20
245.1934742710047
 30
0.0
 10
416.010841755008
 20
245.1125394838826
 30
0.0
 10
416.0239217572912
 20
245.072844646744
 30
0.0
  0
LINE
  5
F2
330
1F
100
AcDbEntity
  8
0
  6
Continuous
 62
     7
370
    25
100
AcDbLine
 10
408.9106964421
 20
248.202962056
 30
0.0
 11
407.6780112522
 21
253.385638621
 31
0.0
  0
ARC
  5
F3
330
1F
100
AcDbEntity
  8
0
  6
Continuous
 62
     7
370
    25
100
AcDbCircle
 10
414.515219211
 20
249.5359821908
 30
0.0
 40
5.760869565217385
100
AcDbArc
 50
193.3790487281
 51
275.4843523898
  0
SPLINE
  5
F4
330
1F
100
AcDbEntity
  8
0
  6
Continuous
 62
     7
370
    25
100
AcDbSpline
210
0.0
220
0.0
230
1.0
 70
    24
 71
     3
 72
     8
 73
     4
 74
     0
 42
0.00000001
 43
0.00000001
 40
0.0
 40
0.0
 40
0.0
 40
0.0
 40
1.0
 40
1.0
 40
1.0
 40
1.0
 10
400.695762349775
 20
282.741664033584
 30
0.0
 10
403.0231786505913
 20
272.9563222293878
 30
0.0
 10
405.3505949514077
 20
263.1709804251901
 30
0.0
 10
407.6780112522241
 20
253.3856386209977
 30
0.0
  0
SPLINE
  5
F5
330
1F
100
AcDbEntity
  8
0
  6
Continuous
 62
     7
370
    25
100
AcDbSpline
210
0.0
220
0.0
230
1.0
 70
     8
 71
     3
 72
    12
 73
     8
 74
     0
 42
0.00000001
 43
0.00000001
 40
0.0
 40
0.0
 40
0.0
 40
0.0
 40
0.2499999999999892
 40
0.2499999999999892
 40
0.4999999999999784
 40
0.4999999999999784
 40
1.0
 40
1.0
 40
1.0
 40
1.0
 10
416.0783938417051
 20
244.9890363913756
 30
0.0
 10
416.0918055517909
 20
244.8469542526685
 30
0.0
 10
416.077188820496
 20
244.7049516738846
 30
0.0
 10
415.9944731882036
 20
244.4340300948266
 30
0.0
 10
415.9263616388367
 20
244.3070312026711
 30
0.0
 10
415.6583342815202
 20
243.9799140092144
 30
0.0
 10
415.3920266077906
 20
243.8350791248559
 30
0.0
 10
415.1081148084915
 20
243.8057035800856
 30
0.0
  0
SPLINE
  5
F6
330
1F
100
AcDbEntity
  8
0
  6
Continuous
 62
     7
370
    25
100
AcDbSpline
210
0.0
220
0.0
230
1.0
 70
     8
 71
     3
 72
     8
 73
     4
 74
     0
 42
0.00000001
 43
0.00000001
 40
0.0
 40
0.0
 40
0.0
 40
0.0
 40
1.0
 40
1.0
 40
1.0
 40
1.0
 10
415.1081148084916
 20
243.8057035800855
 30
0.0
 10
415.1083127086682
 20
243.8057240562132
 30
0.0
 10
415.0968541057695
 20
243.8044647877211
 30
0.0
 10
415.0658080054368
 20
243.801483945379
 30
0.0
  0
LINE
  5
F7
330
1F
100
AcDbEntity
  8
0
  6
Continuous
 62
     7
370
    25
100
AcDbLine
 10
379.3200911746
 20
292.7391648322
 30
0.0
 11
383.3200716435
 21
292.7516647713
 31
0.0
  0
LINE
  5
F8
330
1F
100
AcDbEntity
  8
0
  6
Continuous
 62
     7
370
    25
100
AcDbLine
 10
375.3201107057
 20
292.7266648933
 30
0.0
 11
379.3200911746
 21
292.7391648322
 31
0.0
  0
LINE
  5
F9
330
1F
100
AcDbEntity
  8
0
  6
Continuous
 62
     8
370
    18
100
AcDbLine
 10
336.2752780862
 20
421.4949019915
 30
0.0
 11
336.2752780862
 21
274.7893961029
 31
0.0
  0
LINE
  5
FA
330
1F
100
AcDbEntity
  8
0
  6
Continuous
 62
     8
370
    18
100
AcDbLine
 10
386.1832598075
 20
293.010613455
 30
0.0
 11
385.8454972516
 21
293.8973847411
 31
0.0
  0
LINE
  5
FB
330
1F
100
AcDbEntity
  8
0
  6
Continuous
 62
     8
370
    18
100
AcDbLine
 10
403.1946494998
 20
318.0638961173
 30
0.0
 11
403.1165248813
 21
343.0637740484
 31
0.0
  0
SPLINE
  5
FC
330
1F
100
AcDbEntity
  8
0
  6
Continuous
 62
     8
370
    18
100
AcDbSpline
210
0.0
220
0.0
230
1.0
 70
     8
 71
     3
 72
    18
 73
    14
 74
     0
 42
0.00000001
 43
0.00000001
 40
0.0
 40
0.0
 40
0.0
 40
0.0
 40
0.125
 40
0.125
 40
0.25
 40
0.25
 40
0.375
 40
0.375
 40
0.5
 40
0.5
 40
0.75
 40
0.75
 40
1.0
 40
1.0
 40
1.0
 40
1.0
 10
403.2647358995238
 20
303.5907584223139
 30
0.0
 10
403.2565053785914
 20
304.1195665447905
 30
0.0
 10
403.2509263689863
 20
304.6602244596724
 30
0.0
 10
403.2376024407998
 20
305.7646761360651
 30
0.0
 10
403.2330654159032
 20
306.3284914492669
 30
0.0
 10
403.2266709193269
 20
307.4791999170206
 30
0.0
 10
403.2246684475823
 20
308.0660917795825
 30
0.0
 10
403.2209426595615
 20
309.2632608210334
 30
0.0
 10
403.2192591892814
 20
309.875007169641
 30
0.0
 10
403.2139990675348
 20
311.7170228762429
 30
0.0
 10
403.21048229543
 20
312.9624620241922
 30
0.0
 10
403.2028329734862
 20
315.487310214114
 30
0.0
 10
403.1972058918071
 20
316.766710700575
 30
0.0
 10
403.1946492018049
 20
318.0638961166805
 30
0.0
  0
SPLINE
  5
FD
330
1F
100
AcDbEntity
  8
0
  6
Continuous
 62
     8
370
    18
100
AcDbSpline
210
0.0
220
0.0
230
1.0
 70
     8
 71
     3
 72
    55
 73
    51
 74
     0
 42
0.00000001
 43
0.00000001
 40
0.0
 40
0.0
 40
0.0
 40
0.0
 40
0.0183779311317713
 40
0.0355657321391174
 40
0.0515648563645909
 40
0.0663771092221354
 40
0.0800047700482536
 40
0.092450771252055
 40
0.1037189700710139
 40
0.1138145761344358
 40
0.1227448537958825
 40
0.1305203366540102
 40
0.1371570615997131
 40
0.1470822362853836
 40
0.1569923629813421
 40
0.1668921109741362
 40
0.1767861642445346
 40
0.1866792148621963
 40
0.1965759563230497
 40
0.2064810768765422
 40
0.2163992528901063
 40
0.2263351422975561
 40
0.2362933781767638
 40
0.2462785624998622
 40
0.2562952600964561
 40
0.2663479928669795
 40
0.2764412342795105
 40
0.2865794041791218
 40
0.2967668639343445
 40
0.3070079119406682
 40
0.3173067794962529
 40
0.32766762706036
 40
0.3380945409004573
 40
0.3485915301296261
 40
0.3591625241318712
 40
0.3698113703692242
 40
0.3805418325612518
 40
0.3913575892246545
 40
0.4022622325582244
 40
0.5006196777830729
 40
0.6010023744610641
 40
0.7057217639905132
 40
0.7415995752934651
 40
0.7775896551256454
 40
0.8137672834315506
 40
0.8502065791041629
 40
0.8869800799820609
 40
0.9241583687213222
 40
0.9618097523349175
 40
1.0
 40
1.0
 40
1.0
 40
1.0
 10
385.8454972515782
 20
293.8973847411016
 30
0.0
 10
385.8289767884812
 20
293.942618618272
 30
0.0
 10
385.7970057052774
 20
294.0301570875112
 30
0.0
 10
385.7555617814663
 20
294.1684890104563
 30
0.0
 10
385.721045253003
 20
294.3044055521461
 30
0.0
 10
385.6937433082605
 20
294.4370339782401
 30
0.0
 10
385.6735868296752
 20
294.5646623654599
 30
0.0
 10
385.6605781857332
 20
294.6859453479102
 30
0.0
 10
385.6547311362481
 20
294.799611509707
 30
0.0
 10
385.6559431502138
 20
294.9045385567778
 30
0.0
 10
385.6644637294596
 20
294.9997116642904
 30
0.0
 10
385.6794134948158
 20
295.0843080961583
 30
0.0
 10
385.708518918448
 20
295.1736162509882
 30
0.0
 10
385.752139185421
 20
295.2719743086034
 30
0.0
 10
385.8041880408306
 20
295.3848180206786
 30
0.0
 10
385.8627156362706
 20
295.4995787887548
 30
0.0
 10
385.9267859288116
 20
295.6162594000861
 30
0.0
 10
385.9966495754809
 20
295.7347882969988
 30
0.0
 10
386.0722396148994
 20
295.855114323519
 30
0.0
 10
386.1535741294917
 20
295.9771813796282
 30
0.0
 10
386.2406483889105
 20
296.1009352250188
 30
0.0
 10
386.3334637621801
 20
296.226321669436
 30
0.0
 10
386.4320199635409
 20
296.3532870716483
 30
0.0
 10
386.5363171353915
 20
296.481778218477
 30
0.0
 10
386.6463552904161
 20
296.6117423696655
 30
0.0
 10
386.7621344633215
 20
296.7431272575787
 30
0.0
 10
386.883654671875
 20
296.8758810984125
 30
0.0
 10
387.0109159293259
 20
297.0099525996799
 30
0.0
 10
387.1439182428895
 20
297.1452909679966
 30
0.0
 10
387.2826616163755
 20
297.2818459163413
 30
0.0
 10
387.427146050069
 20
297.4195676700363
 30
0.0
 10
387.5773715471699
 20
297.5584069753415
 30
0.0
 10
387.7333380960942
 20
297.6983150957564
 30
0.0
 10
387.8950457430058
 20
297.8392438522997
 30
0.0
 10
388.062494323726
 20
297.9811454957129
 30
0.0
 10
388.2356844797559
 20
298.1239732103646
 30
0.0
 10
388.4146138281776
 20
298.2676792323364
 30
0.0
 10
388.599291425558
 20
298.4122219721636
 30
0.0
 10
389.2980572907178
 20
298.9455575120281
 30
0.0
 10
390.6521451886792
 20
299.8628376538892
 30
0.0
 10
392.8987120706706
 20
301.0556908817862
 30
0.0
 10
394.8570833347808
 20
301.8485906757684
 30
0.0
 10
396.3483563963198
 20
302.3425108371528
 30
0.0
 10
397.278050011991
 20
302.6149684362036
 30
0.0
 10
398.2273637278086
 20
302.8577227182213
 30
0.0
 10
399.1964168290194
 20
303.0697127143483
 30
0.0
 10
400.1851470607311
 20
303.2503600851285
 30
0.0
 10
401.1936273786151
 20
303.3982129181345
 30
0.0
 10
402.2215714849372
 20
303.5157447644065
 30
0.0
 10
402.9152279963074
 20
303.5656267498396
 30
0.0
 10
403.2645205091013
 20
303.590744951355
 30
0.0
  0
SPLINE
  5
FE
330
1F
100
AcDbEntity
  8
0
  6
Continuous
 62
     8
370
    18
100
AcDbSpline
210
0.0
220
0.0
230
1.0
 70
     8
 71
     3
 72
    28
 73
    24
 74
     0
 42
0.00000001
 43
0.00000001
 40
0.0
 40
0.0
 40
0.0
 40
0.0
 40
0.0156249999999996
 40
0.0156249999999996
 40
0.0312499999999993
 40
0.0312499999999993
 40
0.0624999999999992
 40
0.0624999999999992
 40
0.1249999999999999
 40
0.1249999999999999
 40
0.2499999999999998
 40
0.2499999999999998
 40
0.4999999999999996
 40
0.4999999999999996
 40
0.6249999999999996
 40
0.6249999999999996
 40
0.7499999999999996
 40
0.7499999999999996
 40
0.8749999999999996
 40
0.8749999999999996
 40
0.9374999999999998
 40
0.9374999999999998
 40
1.0
 40
1.0
 40
1.0
 40
1.0
 10
404.2664560085863
 20
318.0672455126264
 30
0.0
 10
404.2666027817902
 20
317.9903666987489
 30
0.0
 10
404.266818939283
 20
317.9111599476911
 30
0.0
 10
404.2673110046969
 20
317.7552763836728
 30
0.0
 10
404.2675891807729
 20
317.6774018724334
 30
0.0
 10
404.2684231002912
 20
317.4439766810626
 30
0.0
 10
404.2689311955494
 20
317.2886236110321
 30
0.0
 10
404.2703512238893
 20
316.8233590570338
 30
0.0
 10
404.2713322305962
 20
316.5142390359214
 30
0.0
 10
404.2742800493542
 20
315.5899948087689
 30
0.0
 10
404.2761518291134
 20
314.9779973090817
 30
0.0
 10
404.2816612884486
 20
313.1543373693613
 30
0.0
 10
404.2850824366288
 20
311.9549692069007
 30
0.0
 10
404.2901498038419
 20
310.1810255290492
 30
0.0
 10
404.2917654016404
 20
309.5919012621897
 30
0.0
 10
404.2953136894143
 20
308.4386078308772
 30
0.0
 10
404.2971905869516
 20
307.873035986992
 30
0.0
 10
404.3031552921568
 20
306.76348635989
 30
0.0
 10
404.3074234659742
 20
306.2195910625582
 30
0.0
 10
404.3165576431858
 20
305.4191607351285
 30
0.0
 10
404.3198609743281
 20
305.154745654804
 30
0.0
 10
404.3254220918097
 20
304.6305236271415
 30
0.0
 10
404.3270511963293
 20
304.3707426567879
 30
0.0
 10
404.3310219350036
 20
304.1155296675773
 30
0.0
  0
ARC
  5
FF
330
1F
100
AcDbEntity
  8
0
  6
Continuous
 62
     8
370
    18
100
AcDbCircle
 10
403.3870367762
 20
304.6827583002
 30
0.0
 40
1.103858978019401
100
AcDbArc
 50
263.6430508441
 51
328.7858872389
  0
LINE
  5
100
330
1F
100
AcDbEntity
  8
0
  6
Continuous
 62
     8
370
    18
100
AcDbLine
 10
404.1911627335
 20
342.1609883093
 30
0.0
 11
404.2664556797
 21
318.0672455116
 31
0.0
  0
LINE
  5
101
330
1F
100
AcDbEntity
  8
0
  6
Continuous
 62
     8
370
    18
100
AcDbLine
 10
361.2651099977
 20
342.5421490457
 30
0.0
 11
361.2651099977
 21
293.5421490457
 31
0.0
  0
SPLINE
  5
102
330
1F
100
AcDbEntity
  8
0
  6
Continuous
 62
     8
370
    18
100
AcDbSpline
210
0.0
220
0.0
230
1.0
 70
     8
 71
     3
 72
     8
 73
     4
 74
     0
 42
0.00000001
 43
0.00000001
 40
0.0
 40
0.0
 40
0.0
 40
0.0
 40
0.9634283982343
 40
0.9634283982343
 40
0.9634283982343
 40
0.9634283982343
 10
406.2845315235144
 20
318.0735519991072
 30
0.0
 10
406.2845315235144
 20
318.0735519989408
 30
0.0
 10
405.6094549435386
 20
318.0714423844623
 30
0.0
 10
404.2664561484339
 20
318.0672455130634
 30
0.0
  0
SPLINE
  5
103
330
1F
100
AcDbEntity
  8
0
  6
Continuous
 62
     8
370
    18
100
AcDbSpline
210
0.0
220
0.0
230
1.0
 70
     8
 71
     3
 72
    22
 73
    18
 74
     0
 42
0.00000001
 43
0.00000001
 40
0.0
 40
0.0
 40
0.0
 40
0.0
 40
0.0625
 40
0.0625
 40
0.1249999999999999
 40
0.1249999999999999
 40
0.2499999999999993
 40
0.2499999999999993
 40
0.4999999999999991
 40
0.4999999999999991
 40
0.749999999999999
 40
0.749999999999999
 40
0.8749999999999994
 40
0.8749999999999994
 40
0.9374999999999997
 40
0.9374999999999997
 40
1.0
 40
1.0
 40
1.0
 40
1.0
 10
405.8036790344981
 20
292.7013135650257
 30
0.0
 10
405.9662596551297
 20
291.9112270884878
 30
0.0
 10
406.1341522893327
 20
291.1222714975476
 30
0.0
 10
406.4699763341111
 20
289.5443622120974
 30
0.0
 10
406.6387678327872
 20
288.7555924835796
 30
0.0
 10
407.1456286964755
 20
286.3893807738062
 30
0.0
 10
407.4846256958657
 20
284.8121310102172
 30
0.0
 10
408.5007258654269
 20
280.0801923506516
 30
0.0
 10
409.1780133097699
 20
276.9255409426207
 30
0.0
 10
410.5325500767274
 20
270.6162345537372
 30
0.0
 10
411.209708798103
 20
267.4615587980896
 30
0.0
 10
412.2256959764325
 20
262.7296003215357
 30
0.0
 10
412.5644375654183
 20
261.1522981241799
 30
0.0
 10
413.072893070341
 20
258.7864194143593
 30
0.0
 10
413.2424713032788
 20
257.9978133611173
 30
0.0
 10
413.582239564871
 20
256.4207340747047
 30
0.0
 10
413.7536343552688
 20
255.6325195505464
 30
0.0
 10
413.9214046962132
 20
254.8435276307466
 30
0.0
  0
SPLINE
  5
104
330
1F
100
AcDbEntity
  8
0
  6
Continuous
 62
     8
370
    18
100
AcDbSpline
210
0.0
220
0.0
230
1.0
 70
     8
 71
     3
 72
    16
 73
    12
 74
     0
 42
0.00000001
 43
0.00000001
 40
0.0
 40
0.0
 40
0.0
 40
0.0
 40
0.125
 40
0.125
 40
0.25
 40
0.25
 40
0.5
 40
0.5
 40
0.75
 40
0.75
 40
1.0
 40
1.0
 40
1.0
 40
1.0
 10
404.3310974177626
 20
304.1106969866367
 30
0.0
 10
404.3377027643521
 20
303.6894233472099
 30
0.0
 10
404.3459177827219
 20
303.2622289109655
 30
0.0
 10
404.3780967486762
 20
302.3860472301747
 30
0.0
 10
404.4005577048904
 20
301.9378885892002
 30
0.0
 10
404.4911221563349
 20
300.5630545899523
 30
0.0
 10
404.5815323780994
 20
299.623003555753
 30
0.0
 10
404.8401860445965
 20
297.705103504749
 30
0.0
 10
405.0082251778776
 20
296.7252493206196
 30
0.0
 10
405.3877460973508
 20
294.7204409718444
 30
0.0
 10
405.5951592911512
 20
293.7147271421232
 30
0.0
 10
405.8032102325156
 20
292.7035914238434
 30
0.0
  0
LINE
  5
105
330
1F
100
AcDbEntity
  8
0
  6
Continuous
 62
     8
370
    18
100
AcDbLine
 10
411.554886134
 20
269.8756967454
 30
0.0
 11
411.7044452059
 21
269.1421160122
 31
0.0
  0
SPLINE
  5
106
330
1F
100
AcDbEntity
  8
0
  6
Continuous
 62
     8
370
    18
100
AcDbSpline
210
0.0
220
0.0
230
1.0
 70
     8
 71
     3
 72
     8
 73
     4
 74
     0
 42
0.00000001
 43
0.00000001
 40
0.0
 40
0.0
 40
0.0
 40
0.0
 40
1.0
 40
1.0
 40
1.0
 40
1.0
 10
416.0414622187137
 20
245.0094193983079
 30
0.0
 10
416.0683298091652
 20
244.9979918880971
 30
0.0
 10
416.0786493560406
 20
244.9880514563733
 30
0.0
 10
416.0783938417051
 20
244.9890363913756
 30
0.0
  0
LINE
  5
107
330
1F
100
AcDbEntity
  8
0
  6
Continuous
 62
     8
370
    18
100
AcDbLine
 10
416.0239217573
 20
245.0728446467
 30
0.0
 11
416.0414622187
 21
245.0094193983
 31
0.0
  0
SPLINE
  5
108
330
1F
100
AcDbEntity
  8
0
  6
Continuous
 62
     8
370
    18
100
AcDbSpline
210
0.0
220
0.0
230
1.0
 70
     8
 71
     3
 72
     8
 73
     4
 74
     0
 42
0.00000001
 43
0.00000001
 40
0.0
 40
0.0
 40
0.0
 40
0.0
 40
1.0
 40
1.0
 40
1.0
 40
1.0
 10
404.7187644103049
 20
292.4809356168943
 30
0.0
 10
404.5893217990802
 20
293.001500054613
 30
0.0
 10
404.4641165590205
 20
293.5232503026168
 30
0.0
 10
404.3463056186627
 20
294.0450851976144
 30
0.0
  0
SPLINE
  5
109
330
1F
100
AcDbEntity
  8
0
  6
Continuous
 62
     8
370
    18
100
AcDbSpline
210
0.0
220
0.0
230
1.0
 70
     8
 71
     3
 72
    16
 73
    12
 74
     0
 42
0.00000001
 43
0.00000001
 40
0.0
 40
0.0
 40
0.0
 40
0.0
 40
0.0625000000000213
 40
0.0625000000000213
 40
0.1250000000000427
 40
0.1250000000000427
 40
0.2500000000000366
 40
0.2500000000000366
 40
0.5000000000000244
 40
0.5000000000000244
 40
1.0
 40
1.0
 40
1.0
 40
1.0
 10
404.3463056186627
 20
294.0450851976144
 30
0.0
 10
404.3434098743001
 20
294.05799818012
 30
0.0
 10
404.3426562402353
 20
294.0712111318169
 30
0.0
 10
404.3383180018412
 20
294.0971973403334
 30
0.0
 10
404.3359492573017
 20
294.1101497264619
 30
0.0
 10
404.3285941136263
 20
294.1489539046792
 30
0.0
 10
404.3233879113945
 20
294.1747584813935
 30
0.0
 10
404.3076498121501
 20
294.2521337223822
 30
0.0
 10
404.2969278227321
 20
294.3036519462772
 30
0.0
 10
404.2646448890541
 20
294.4581246533606
 30
0.0
 10
404.2437354368805
 20
294.5612017681148
 30
0.0
 10
404.2196835056958
 20
294.6634763376725
 30
0.0
  0
SPLINE
  5
10A
330
1F
100
AcDbEntity
  8
0
  6
Continuous
 62
     8
370
    18
100
AcDbSpline
210
0.0
220
0.0
230
1.0
 70
     8
 71
     3
 72
    23
 73
    19
 74
     0
 42
0.00000001
 43
0.00000001
 40
0.0
 40
0.0
 40
0.0
 40
0.0
 40
0.0156250000000018
 40
0.0156250000000018
 40
0.0312500000000037
 40
0.0625000000000019
 40
0.0625000000000019
 40
0.1250000000000017
 40
0.1250000000000017
 40
0.2500000000000033
 40
0.2500000000000033
 40
0.5000000000000017
 40
0.5000000000000017
 40
0.6250000000000011
 40
0.6250000000000011
 40
0.7500000000000006
 40
0.7500000000000006
 40
1.0
 40
1.0
 40
1.0
 40
1.0
 10
404.2196835056958
 20
294.6634763376725
 30
0.0
 10
404.2080907517245
 20
294.7128824958144
 30
0.0
 10
404.1988215411732
 20
294.7627233878449
 30
0.0
 10
404.1781609498963
 20
294.8619343090027
 30
0.0
 10
404.1473737023211
 20
295.0107148755245
 30
0.0
 10
404.1171856354022
 20
295.1593847517113
 30
0.0
 10
404.0576125402196
 20
295.4565753536262
 30
0.0
 10
404.0190417730133
 20
295.6542876984909
 30
0.0
 10
403.907290555881
 20
296.2444313694653
 30
0.0
 10
403.8380376337572
 20
296.6345796344353
 30
0.0
 10
403.6480995945774
 20
297.7955352434603
 30
0.0
 10
403.546842628398
 20
298.557060837002
 30
0.0
 10
403.433909181782
 20
299.6809213783287
 30
0.0
 10
403.4023144726352
 20
300.0524154127547
 30
0.0
 10
403.3497539967605
 20
300.7888863634822
 30
0.0
 10
403.3287753503651
 20
301.1545230155505
 30
0.0
 10
403.2801848039589
 20
302.2294259736154
 30
0.0
 10
403.2697057831943
 20
302.9204483455911
 30
0.0
 10
403.2648120516836
 20
303.5856862376104
 30
0.0
  0
SPLINE
  5
10B
330
1F
100
AcDbEntity
  8
0
  6
Continuous
 62
     8
370
    18
100
AcDbSpline
210
0.0
220
0.0
230
1.0
 70
     8
 71
     3
 72
    30
 73
    26
 74
     0
 42
0.00000001
 43
0.00000001
 40
0.0
 40
0.0
 40
0.0
 40
0.0
 40
0.1250000000000019
 40
0.1250000000000019
 40
0.1875000000000029
 40
0.1875000000000029
 40
0.2500000000000039
 40
0.2500000000000039
 40
0.3125000000000049
 40
0.3125000000000049
 40
0.3750000000000058
 40
0.3750000000000058
 40
0.5000000000000064
 40
0.5000000000000064
 40
0.5625000000000075
 40
0.5625000000000075
 40
0.6250000000000085
 40
0.6250000000000085
 40
0.7500000000000092
 40
0.7500000000000092
 40
0.8125000000000074
 40
0.8125000000000074
 40
0.8750000000000056
 40
0.8750000000000056
 40
1.0
 40
1.0
 40
1.0
 40
1.0
 10
415.0658080054368
 20
243.801483945379
 30
0.0
 10
415.0551531766725
 20
243.8004609388038
 30
0.0
 10
415.0350868096925
 20
243.8698069567829
 30
0.0
 10
414.9861450288525
 20
244.0782045617929
 30
0.0
 10
414.9666978386727
 20
244.1651122136122
 30
0.0
 10
414.9219740198987
 20
244.3705454221695
 30
0.0
 10
414.8966523591084
 20
244.489339299797
 30
0.0
 10
414.8397955394098
 20
244.7586395131139
 30
0.0
 10
414.8082385687711
 20
244.9091432839402
 30
0.0
 10
414.738347935831
 20
245.2423232336591
 30
0.0
 10
414.6997630318012
 20
245.4261632126941
 30
0.0
 10
414.5753695749787
 20
246.0178144927458
 30
0.0
 10
414.4814768719815
 20
246.4645329350333
 30
0.0
 10
414.3246125970513
 20
247.2113170692446
 30
0.0
 10
414.2695759495294
 20
247.4731129131369
 30
0.0
 10
414.1538097865227
 20
248.0232805023639
 30
0.0
 10
414.0936473585272
 20
248.308961640242
 30
0.0
 10
413.9082075577656
 20
249.1886749689155
 30
0.0
 10
413.7773477407963
 20
249.8085354388583
 30
0.0
 10
413.5701463155469
 20
250.7889012620124
 30
0.0
 10
413.498867039859
 20
251.1259194721025
 30
0.0
 10
413.3553623614642
 20
251.8039288668662
 30
0.0
 10
413.2829291939008
 20
252.1459053813944
 30
0.0
 10
413.0636796417318
 20
253.1805625690286
 30
0.0
 10
412.9142220860485
 20
253.8817467130285
 30
0.0
 10
412.7645844516932
 20
254.5954658927964
 30
0.0
  0
ARC
  5
10C
330
1F
100
AcDbEntity
  8
0
  6
Continuous
 62
     8
370
    18
100
AcDbCircle
 10
414.9618792268
 20
244.8834152264
 30
0.0
 40
1.086911444337085
100
AcDbArc
 50
275.4869159608
 51
6.657190808
  0
SPLINE
  5
10D
330
1F
100
AcDbEntity
  8
0
  6
Continuous
 62
     8
370
    18
100
AcDbSpline
210
0.0
220
0.0
230
1.0
 70
     8
 71
     3
 72
    22
 73
    18
 74
     0
 42
0.00000001
 43
0.00000001
 40
0.0
 40
0.0
 40
0.0
 40
0.0
 40
0.0625000000000009
 40
0.0625000000000009
 40
0.1250000000000018
 40
0.1250000000000018
 40
0.2500000000000017
 40
0.2500000000000017
 40
0.5000000000000016
 40
0.5000000000000016
 40
0.7500000000000013
 40
0.7500000000000013
 40
0.8750000000000007
 40
0.8750000000000007
 40
0.9375000000000004
 40
0.9375000000000004
 40
1.0
 40
1.0
 40
1.0
 40
1.0
 10
412.7645844516931
 20
254.5954658927964
 30
0.0
 10
412.6013179868104
 20
255.3856066255462
 30
0.0
 10
412.4332244694234
 20
256.1747529958956
 30
0.0
 10
412.100067240733
 20
257.7536582591522
 30
0.0
 10
411.9335176211688
 20
258.5431171901154
 30
0.0
 10
411.4333429827772
 20
260.911382443321
 30
0.0
 10
411.099026882557
 20
262.4900420560789
 30
0.0
 10
410.0937606069801
 20
267.2255284387304
 30
0.0
 10
409.4203168030125
 20
270.3818253511063
 30
0.0
 10
408.070923082198
 20
276.6938863191301
 30
0.0
 10
407.3949981259108
 20
279.8496557202574
 30
0.0
 10
406.3827745392306
 20
284.5836635392126
 30
0.0
 10
406.0452757648877
 20
286.1616470218922
 30
0.0
 10
405.5423506139625
 20
288.5293238140514
 30
0.0
 10
405.3751364604207
 20
289.3186396877286
 30
0.0
 10
405.0434557733014
 20
290.8978516116505
 30
0.0
 10
404.8779904536329
 20
291.687536754489
 30
0.0
 10
404.7192434762224
 20
292.4786405600489
 30
0.0
  0
LINE
  5
10E
330
1F
100
AcDbEntity
  8
0
  6
Continuous
 62
     8
370
    18
100
AcDbLine
 10
345.3814095902
 20
396.8164951833
 30
0.0
 11
345.3814095902
 21
375.2678029112
 31
0.0
  0
LINE
  5
10F
330
1F
100
AcDbEntity
  8
0
  6
Continuous
 62
     8
370
    18
100
AcDbLine
 10
375.5405677067
 20
292.1268035192
 30
0.0
 11
383.1033680453
 21
292.1504372702
 31
0.0
  0
LINE
  5
110
330
1F
100
AcDbEntity
  8
0
  6
Continuous
 62
     7
370
    25
100
AcDbLine
 10
116.2614229249
 20
186.4946133224
 30
0.0
 11
116.4194916204
 21
180.4582133798
 31
0.0
  0
LINE
  5
111
330
1F
100
AcDbEntity
  8
0
  6
Continuous
 62
     7
370
    25
100
AcDbLine
 10
265.1033542294
 20
180.4582133798
 30
0.0
 11
265.2614229249
 21
186.4946133224
 31
0.0
  0
ARC
  5
112
330
1F
100
AcDbEntity
  8
0
  6
Continuous
 62
     7
370
    25
100
AcDbCircle
 10
264.1036969045
 20
180.4843903281
 30
0.0
 40
0.9999999999996465
100
AcDbArc
 50
270.6004114401
 51
358.5
  0
ARC
  5
113
330
1F
100
AcDbEntity
  8
0
  6
Continuous
 62
     7
370
    25
100
AcDbCircle
 10
117.4191489453
 20
180.4843903281
 30
0.0
 40
0.9999999999996076
100
AcDbArc
 50
181.5
 51
269.3995885599
  0
ARC
  5
114
330
1F
100
AcDbEntity
  8
0
  6
Continuous
 62
     7
370
    25
100
AcDbCircle
 10
190.7614229249
 20
7179.1001042281
 30
0.0
 40
7000.000000000004
100
AcDbArc
 50
269.3995885599
 51
269.9066710329
  0
ARC
  5
115
330
1F
100
AcDbEntity
  8
0
  6
Continuous
 62
     7
370
    25
100
AcDbCircle
 10
190.7614229249
 20
7179.1001042281
 30
0.0
 40
7000.000000000002
100
AcDbArc
 50
270.093328967
 51
270.6004114401
  0
LINE
  5
116
330
1F
100
AcDbEntity
  8
0
  6
Continuous
 62
     7
370
    25
100
AcDbLine
 10
179.3573648245
 20
179.2112983211
 30
0.0
 11
179.5029742984
 21
170.8693371486
 31
0.0
  0
LINE
  5
117
330
1F
100
AcDbEntity
  8
0
  6
Continuous
 62
     7
370
    25
100
AcDbLine
 10
202.0198715457
 20
170.8693371486
 30
0.0
 11
202.165491196
 21
179.2118813255
 31
0.0
  0
ARC
  5
118
330
1F
100
AcDbEntity
  8
0
  6
Continuous
 62
     7
370
    25
100
AcDbCircle
 10
180.002898146
 20
170.8780633519
 30
0.0
 40
0.5000000000000063
100
AcDbArc
 50
181.0
 51
268.1867030123
  0
ARC
  5
119
330
1F
100
AcDbEntity
  8
0
  6
Continuous
 62
     7
370
    25
100
AcDbCircle
 10
201.5199476982
 20
170.8780633519
 30
0.0
 40
0.4999999999999983
100
AcDbArc
 50
271.8132969877
 51
359.0
  0
ARC
  5
11A
330
1F
100
AcDbEntity
  8
0
  6
Continuous
 62
     7
370
    25
100
AcDbCircle
 10
190.7614229221
 20
510.70780623
 30
0.0
 40
340.5000000000001
100
AcDbArc
 50
268.1867030123
 51
270.0
  0
ARC
  5
11B
330
1F
100
AcDbEntity
  8
0
  6
Continuous
 62
     7
370
    25
100
AcDbCircle
 10
190.7614229221
 20
510.70780623
 30
0.0
 40
340.5000000000001
100
AcDbArc
 50
270.0
 51
271.8132969877
  0
LINE
  5
11C
330
1F
100
AcDbEntity
  8
0
  6
Continuous
 62
     7
370
    25
100
AcDbLine
 10
165.7614229265
 20
147.5184842997
 30
0.0
 11
165.7614229265
 21
112.5650738203
 31
0.0
  0
LINE
  5
11D
330
1F
100
AcDbEntity
  8
0
  6
Continuous
 62
     7
370
    25
100
AcDbLine
 10
215.7614229265
 20
112.5650741184
 30
0.0
 11
215.7614229265
 21
147.5184842997
 31
0.0
  0
LINE
  5
11E
330
1F
100
AcDbEntity
  8
0
  6
Continuous
 62
     7
370
    25
100
AcDbLine
 10
215.2614229271
 20
154.4946133225
 30
0.0
 11
215.2614229271
 21
179.1429793594
 31
0.0
  0
LINE
  5
11F
330
1F
100
AcDbEntity
  8
0
  6
Continuous
 62
     7
370
    25
100
AcDbLine
 10
166.2614229271
 20
179.1429793594
 30
0.0
 11
166.2614229271
 21
154.4946133225
 31
0.0
  0
ARC
  5
120
330
1F
100
AcDbEntity
  8
0
  6
Continuous
 62
     7
370
    25
100
AcDbCircle
 10
190.7614229271
 20
154.4946133225
 30
0.0
 40
24.5
100
AcDbArc
 50
180.0
 51
196.5426384442
  0
ARC
  5
121
330
1F
100
AcDbEntity
  8
0
  6
Continuous
 62
     7
370
    25
100
AcDbCircle
 10
190.7614229271
 20
154.4946133225
 30
0.0
 40
24.50000000000001
100
AcDbArc
 50
343.4573615558
 51
0.0
  0
LINE
  5
122
330
1F
100
AcDbEntity
  8
0
  6
Continuous
 62
     7
370
    25
100
AcDbLine
 10
166.7133957764
 20
111.4865481381
 30
0.0
 11
167.2335616404
 21
111.4023496717
 31
0.0
  0
SPLINE
  5
123
330
1F
100
AcDbEntity
  8
0
  6
Continuous
 62
     7
370
    25
100
AcDbSpline
210
0.0
220
0.0
230
1.0
 70
     8
 71
     3
 72
    19
 73
    15
 74
     0
 42
0.00000001
 43
0.00000001
 40
0.0
 40
0.0
 40
0.0
 40
0.0
 40
0.0365170975822907
 40
0.1314159248957078
 40
0.2261608347667725
 40
0.3214697680374208
 40
0.4176218001644231
 40
0.5135678353061027
 40
0.6121166523948613
 40
0.7129487257416935
 40
0.8205392816969692
 40
0.8894989208172612
 40
0.9496011565434027
 40
1.0
 40
1.0
 40
1.0
 40
1.0
 10
196.8781333784208
 20
99.72053419685456
 30
0.0
 10
197.0746671687676
 20
99.72312101712777
 30
0.0
 10
197.7819432542638
 20
99.73243033800061
 30
0.0
 10
198.9853868293252
 20
99.78530950501363
 30
0.0
 10
200.4484461660911
 20
99.8863599369293
 30
0.0
 10
201.835518318224
 20
100.0318038766858
 30
0.0
 10
203.1130088548096
 20
100.2219647033392
 30
0.0
 10
204.2669000868036
 20
100.4542711883684
 30
0.0
 10
205.2798749605302
 20
100.7329801683987
 30
0.0
 10
206.1508823239511
 20
101.0693740082701
 30
0.0
 10
206.7992987825345
 20
101.4468063590544
 30
0.0
 10
207.2473485384486
 20
101.8973914105459
 30
0.0
 10
207.5259800953883
 20
102.3642129378438
 30
0.0
 10
207.5561837395099
 20
102.7238742957599
 30
0.0
 10
207.5699594305997
 20
102.8879135667703
 30
0.0
  0
SPLINE
  5
124
330
1F
100
AcDbEntity
  8
0
  6
Continuous
 62
     7
370
    25
100
AcDbSpline
210
0.0
220
0.0
230
1.0
 70
     8
 71
     3
 72
    20
 73
    16
 74
     0
 42
0.00000001
 43
0.00000001
 40
0.0
 40
0.0
 40
0.0
 40
0.0
 40
0.0475361266977067
 40
0.104063672810369
 40
0.1656380778577643
 40
0.2412466462582762
 40
0.3371665764933056
 40
0.4298161998603447
 40
0.5271740544467589
 40
0.6231028365918992
 40
0.7166264984354531
 40
0.8093098625857926
 40
0.9018984673249104
 40
0.9937688838710773
 40
1.0
 40
1.0
 40
1.0
 40
1.0
 10
173.9599917821597
 20
102.8713061923403
 30
0.0
 10
173.9717256263783
 20
102.711962355642
 30
0.0
 10
173.9974127618348
 20
102.3631349260964
 30
0.0
 10
174.2626311108914
 20
101.9195494401486
 30
0.0
 10
174.633467485804
 20
101.53102568822
 30
0.0
 10
175.1702662796906
 20
101.1758560191661
 30
0.0
 10
175.8859840610727
 20
100.8583868314469
 30
0.0
 10
176.8218530153332
 20
100.5626807255048
 30
0.0
 10
177.9260970332184
 20
100.310467634687
 30
0.0
 10
179.1842995585157
 20
100.0989673872208
 30
0.0
 10
180.5511490699121
 20
99.93523283993977
 30
0.0
 10
181.9960130013093
 20
99.81602053125994
 30
0.0
 10
183.4965528844828
 20
99.74301749007586
 30
0.0
 10
184.5547749817492
 20
99.71159965683968
 30
0.0
 10
185.0955783238242
 20
99.7104230687143
 30
0.0
 10
185.1299285356454
 20
99.7103483353533
 30
0.0
  0
SPLINE
  5
125
330
1F
100
AcDbEntity
  8
0
  6
Continuous
 62
     7
370
    25
100
AcDbSpline
210
0.0
220
0.0
230
1.0
 70
     8
 71
     3
 72
     9
 73
     5
 74
     0
 42
0.00000001
 43
0.00000001
 40
0.0
 40
0.0
 40
0.0
 40
0.0
 40
0.116261588455949
 40
1.0
 40
1.0
 40
1.0
 40
1.0
 10
190.7614246314109
 20
99.67675246294067
 30
0.0
 10
190.9848951665739
 20
99.67668727651497
 30
0.0
 10
192.9070307414515
 20
99.67612658896053
 30
0.0
 10
194.8290824616597
 20
99.6970457658462
 30
0.0
 10
196.527673395782
 20
99.71553284599793
 30
0.0
  0
SPLINE
  5
126
330
1F
100
AcDbEntity
  8
0
  6
Continuous
 62
     7
370
    25
100
AcDbSpline
210
0.0
220
0.0
230
1.0
 70
     8
 71
     3
 72
     9
 73
     5
 74
     0
 42
0.00000001
 43
0.00000001
 40
0.0
 40
0.0
 40
0.0
 40
0.0
 40
0.2133972835581126
 40
1.0
 40
1.0
 40
1.0
 40
1.0
 10
184.995069599702
 20
99.71214014056467
 30
0.0
 10
185.405216104411
 20
99.70665698388304
 30
0.0
 10
187.3272016979963
 20
99.6809623893209
 30
0.0
 10
189.2493937508267
 20
99.68097301222684
 30
0.0
 10
190.761395241106
 20
99.68098136823356
 30
0.0
  0
LINE
  5
127
330
1F
100
AcDbEntity
  8
0
  6
Continuous
 62
     7
370
    25
100
AcDbLine
 10
265.2614229249
 20
186.4946133224
 30
0.0
 11
116.2614229249
 21
186.4946133224
 31
0.0
  0
SPLINE
  5
128
330
1F
100
AcDbEntity
  8
0
  6
Continuous
 62
     7
370
    25
100
AcDbSpline
210
0.0
220
0.0
230
1.0
 70
     8
 71
     3
 72
    21
 73
    17
 74
     0
 42
0.00000001
 43
0.00000001
 40
0.0
 40
0.0
 40
0.0
 40
0.0
 40
0.071637141077824
 40
0.1432742775033325
 40
0.2149114492831378
 40
0.2865486184599771
 40
0.3581851975245758
 40
0.4298217771764925
 40
0.501458108099112
 40
0.5730944425417417
 40
0.6447312048220881
 40
0.7163679720124106
 40
0.7880056561006373
 40
0.8596433443370776
 40
0.9312820367039164
 40
0.9999999999999999
 40
0.9999999999999999
 40
0.9999999999999999
 40
0.9999999999999999
 10
182.710573579825
 20
179.2557339943162
 30
0.0
 10
183.1871800580445
 20
179.2580620534781
 30
0.0
 10
184.1403929835314
 20
179.2627181716505
 30
0.0
 10
185.8168031909663
 20
179.2679527896241
 30
0.0
 10
187.6197233148599
 20
179.271657381937
 30
0.0
 10
189.5144745102086
 20
179.2736790232938
 30
0.0
 10
191.4441453931483
 20
179.2739202967069
 30
0.0
 10
193.3551470272045
 20
179.2724383591145
 30
0.0
 10
195.1909250866849
 20
179.2692059675744
 30
0.0
 10
196.903542163182
 20
179.2643830753222
 30
0.0
 10
198.4383453695867
 20
179.2580426755914
 30
0.0
 10
199.7592231134252
 20
179.2504222062662
 30
0.0
 10
200.8213027719549
 20
179.2416886856243
 30
0.0
 10
201.596703950457
 20
179.2321295444171
 30
0.0
 10
202.0776884052458
 20
179.2221257944962
 30
0.0
 10
202.1323519108802
 20
179.2153231613972
 30
0.0
 10
202.1591149080183
 20
179.2119926239931
 30
0.0
  0
SPLINE
  5
129
330
1F
100
AcDbEntity
  8
0
  6
Continuous
 62
     7
370
    25
100
AcDbSpline
210
0.0
220
0.0
230
1.0
 70
     8
 71
     3
 72
    12
 73
     8
 74
     0
 42
0.00000001
 43
0.00000001
 40
0.0
 40
0.0
 40
0.0
 40
0.0
 40
0.0895554452789243
 40
0.303907414435964
 40
0.5182600635612467
 40
0.732612701933104
 40
1.0
 40
1.0
 40
1.0
 40
1.0
 10
179.3974610296769
 20
179.2119982029309
 30
0.0
 10
179.3881805406937
 20
179.2134478240079
 30
0.0
 10
179.3566870965731
 20
179.2183671294958
 30
0.0
 10
179.6393432232607
 20
179.2266998314079
 30
0.0
 10
180.244482646621
 20
179.2365840250452
 30
0.0
 10
181.2177265419982
 20
179.2466455131247
 30
0.0
 10
182.1777290675905
 20
179.2524900267799
 30
0.0
 10
182.710573579825
 20
179.2557339943162
 30
0.0
  0
LINE
  5
12A
330
1F
100
AcDbEntity
  8
0
  6
Continuous
 62
     7
370
    25
100
AcDbLine
 10
165.7684826173
 20
147.5203408002
 30
0.0
 11
165.7614229265
 21
147.5184842997
 31
0.0
  0
LINE
  5
12B
330
1F
100
AcDbEntity
  8
0
  6
Continuous
 62
     7
370
    25
100
AcDbLine
 10
215.7614229265
 20
147.5184842997
 30
0.0
 11
215.7543632358
 21
147.5203408002
 31
0.0
  0
SPLINE
  5
12C
330
1F
100
AcDbEntity
  8
0
  6
Continuous
 62
     7
370
    25
100
AcDbSpline
210
0.0
220
0.0
230
1.0
 70
     8
 71
     3
 72
     8
 73
     4
 74
     0
 42
0.00000001
 43
0.00000001
 40
0.0
 40
0.0
 40
0.0
 40
0.0
 40
1.0
 40
1.0
 40
1.0
 40
1.0
 10
165.7684826172539
 20
147.5203408002391
 30
0.0
 10
165.7936495907206
 20
147.5236494368176
 30
0.0
 10
165.8852622430207
 20
147.3892004529506
 30
0.0
 10
166.0367256775391
 20
147.1211583790275
 30
0.0
  0
ELLIPSE
  5
12D
330
1F
100
AcDbEntity
  8
0
  6
Continuous
 62
     7
370
    25
100
AcDbEllipse
 10
190.7614229265
 20
148.1009796999
 30
0.0
 11
25.0
 21
1.468833943363279E-10
 31
0.0
210
0.0
220
0.0
230
1.0
 40
0.2648228994
 41
3.290134773517284
 42
6.134643187207826
  0
SPLINE
  5
12E
330
1F
100
AcDbEntity
  8
0
  6
Continuous
 62
     7
370
    25
100
AcDbSpline
210
0.0
220
0.0
230
1.0
 70
     8
 71
     3
 72
     8
 73
     4
 74
     0
 42
0.00000001
 43
0.00000001
 40
0.0
 40
0.0
 40
0.0
 40
0.0
 40
1.0
 40
1.0
 40
1.0
 40
1.0
 10
215.7543632358067
 20
147.5203408002391
 30
0.0
 10
215.7291962622964
 20
147.5236494368176
 30
0.0
 10
215.6375836099536
 20
147.3892004529506
 30
0.0
 10
215.4861201753934
 20
147.1211583790275
 30
0.0
  0
SPLINE
  5
12F
330
1F
100
AcDbEntity
  8
0
  6
Continuous
 62
     7
370
    25
100
AcDbSpline
210
0.0
220
0.0
230
1.0
 70
     8
 71
     3
 72
    10
 73
     6
 74
     0
 42
0.00000001
 43
0.00000001
 40
0.0
 40
0.0
 40
0.0
 40
0.0
 40
0.5
 40
0.5
 40
1.0
 40
1.0
 40
1.0
 40
1.0
 10
214.8552842767509
 20
111.4932673115718
 30
0.0
 10
215.1060285543655
 20
111.5355686034328
 30
0.0
 10
215.3403584360447
 20
111.6691294509766
 30
0.0
 10
215.6687040297753
 20
112.0575068878208
 30
0.0
 10
215.7614228188836
 20
112.3107894361045
 30
0.0
 10
215.7614228899874
 20
112.5650764016097
 30
0.0
  0
LWPOLYLINE
  5
130
330
1F
100
AcDbEntity
  8
0
  6
Continuous
 62
     7
370
    25
100
AcDbPolyline
 90
       31
 70
   128
 43
0.0
 10
214.8455825746
 20
111.4954040082
 10
214.7232946802
 20
111.5011378964
 10
214.3287747104
 20
111.5089219242
 10
213.6760459026
 20
111.5165344404
 10
212.7722596904
 20
111.5238920406
 10
211.6273181445
 20
111.5309141135
 10
210.2537654841
 20
111.5375237238
 10
208.6666506396
 20
111.5436484552
 10
206.8833623734
 20
111.5492212038
 10
204.9234387648
 20
111.5541809135
 10
202.8083531472
 20
111.5584732446
 10
200.5612788411
 20
111.5620511694
 10
198.2068352628
 20
111.5648754876
 10
195.7708181889
 20
111.5669152551
 10
193.2799171323
 20
111.568148124
 10
190.761422926
 20
111.5685605867
 10
188.2429287198
 20
111.568148124
 10
185.7520276632
 20
111.5669152551
 10
183.3160105893
 20
111.5648754876
 10
180.9615670111
 20
111.5620511694
 10
178.714492705
 20
111.5584732446
 10
176.5994070874
 20
111.5541809135
 10
174.639483479
 20
111.5492212038
 10
172.8561952128
 20
111.5436484552
 10
171.2690803684
 20
111.5375237238
 10
169.8955277081
 20
111.5309141135
 10
168.7505861623
 20
111.5238920406
 10
167.8467999501
 20
111.5165344404
 10
167.1940711425
 20
111.5089219242
 10
166.7995511728
 20
111.5011378964
 10
166.6856766241
 20
111.4961867023
  0
SPLINE
  5
131
330
1F
100
AcDbEntity
  8
0
  6
Continuous
 62
     7
370
    25
100
AcDbSpline
210
0.0
220
0.0
230
1.0
 70
     8
 71
     3
 72
    10
 73
     6
 74
     0
 42
0.00000001
 43
0.00000001
 40
0.0
 40
0.0
 40
0.0
 40
0.0
 40
0.5
 40
0.5
 40
1.0
 40
1.0
 40
1.0
 40
1.0
 10
165.7614229630938
 20
112.5650767769952
 30
0.0
 10
165.7614232475501
 20
112.3107900268313
 30
0.0
 10
165.8541421454408
 20
112.0575077647892
 30
0.0
 10
166.1824877378868
 20
111.669130507767
 30
0.0
 10
166.4168175122956
 20
111.5355695451314
 30
0.0
 10
166.6675616553993
 20
111.4932677802615
 30
0.0
  0
LWPOLYLINE
  5
132
330
1F
100
AcDbEntity
  8
0
  6
Continuous
 62
     7
370
    25
100
AcDbPolyline
 90
       27
 70
   128
 43
0.0
 10
213.8443909792
 20
147.121158379
 10
213.1672559908
 20
146.5201044381
 10
212.2516238866
 20
145.9400960934
 10
211.10724104
 20
145.3873071977
 10
209.7462887437
 20
144.8676218687
 10
208.1832535464
 20
144.3865718557
 10
206.4347730527
 20
143.9492776575
 10
204.5194588247
 20
143.5603940176
 10
202.457698273
 20
143.224060377
 10
200.2714376446
 20
142.9438568125
 10
197.9839484175
 20
142.7227659289
 10
195.6195795899
 20
142.5631411105
 10
193.2034984983
 20
142.4666814711
 10
190.7614229266
 20
142.4344137676
 10
188.319347355
 20
142.4666814711
 10
185.9032662634
 20
142.5631411105
 10
183.5388974358
 20
142.7227659289
 10
181.2514082088
 20
142.9438568125
 10
179.0651475804
 20
143.224060377
 10
177.0033870288
 20
143.5603940176
 10
175.0880728008
 20
143.9492776575
 10
173.3395923072
 20
144.3865718557
 10
171.77655711
 20
144.8676218687
 10
170.4156048137
 20
145.3873071977
 10
169.2712219672
 20
145.9400960934
 10
168.3555898631
 20
146.5201044381
 10
167.6784548748
 20
147.121158379
  0
SPLINE
  5
133
330
1F
100
AcDbEntity
  8
0
  6
Continuous
 62
     7
370
    25
100
AcDbSpline
210
0.0
220
0.0
230
1.0
 70
     8
 71
     3
 72
     8
 73
     4
 74
     0
 42
0.00000001
 43
0.00000001
 40
0.0
 40
0.0
 40
0.0
 40
0.0
 40
1.0
 40
1.0
 40
1.0
 40
1.0
 10
167.6784548747848
 20
147.1211583790275
 30
0.0
 10
167.4362683369471
 20
147.3869811207576
 30
0.0
 10
167.3025563256618
 20
147.5236763831035
 30
0.0
 10
167.2805183146249
 20
147.5203408002391
 30
0.0
  0
SPLINE
  5
134
330
1F
100
AcDbEntity
  8
0
  6
Continuous
 62
     7
370
    25
100
AcDbSpline
210
0.0
220
0.0
230
1.0
 70
     8
 71
     3
 72
     8
 73
     4
 74
     0
 42
0.00000001
 43
0.00000001
 40
0.0
 40
0.0
 40
0.0
 40
0.0
 40
1.0
 40
1.0
 40
1.0
 40
1.0
 10
214.2423275394988
 20
147.5203408002391
 30
0.0
 10
214.2202895284183
 20
147.5236763831034
 30
0.0
 10
214.0865775170941
 20
147.3869811207621
 30
0.0
 10
213.8443909792108
 20
147.1211583790275
 30
0.0
  0
SPLINE
  5
135
330
1F
100
AcDbEntity
  8
0
  6
Continuous
 62
     7
370
    25
100
AcDbSpline
210
0.0
220
0.0
230
1.0
 70
     8
 71
     3
 72
     9
 73
     5
 74
     0
 42
0.00000001
 43
0.00000001
 40
0.0
 40
0.0
 40
0.0
 40
0.0
 40
0.1024493744729799
 40
1.0
 40
1.0
 40
1.0
 40
1.0
 10
175.5096716121103
 20
110.3018730211454
 30
0.0
 10
175.225422906232
 20
110.3248652212898
 30
0.0
 10
172.4508944394592
 20
110.5492902142449
 30
0.0
 10
169.7022239186413
 20
111.0048312697259
 30
0.0
 10
167.2351529733135
 20
111.4137024290261
 30
0.0
  0
LINE
  5
136
330
1F
100
AcDbEntity
  8
0
  6
Continuous
 62
     7
370
    25
100
AcDbLine
 10
214.2423275395
 20
147.5203408002
 30
0.0
 11
215.7543632358
 21
147.5203408002
 31
0.0
  0
LINE
  5
137
330
1F
100
AcDbEntity
  8
0
  6
Continuous
 62
     7
370
    25
100
AcDbLine
 10
165.7684826173
 20
147.5203408002
 30
0.0
 11
167.2805183146
 21
147.5203408002
 31
0.0
  0
SPLINE
  5
138
330
1F
100
AcDbEntity
  8
0
  6
Continuous
 62
     7
370
    25
100
AcDbSpline
210
0.0
220
0.0
230
1.0
 70
     8
 71
     3
 72
    22
 73
    18
 74
     0
 42
0.00000001
 43
0.00000001
 40
0.0
 40
0.0
 40
0.0
 40
0.0
 40
0.0625000000000001
 40
0.0625000000000001
 40
0.1250000000000001
 40
0.1250000000000001
 40
0.2500000000000002
 40
0.2500000000000002
 40
0.4999999999999993
 40
0.4999999999999993
 40
0.7499999999999984
 40
0.7499999999999984
 40
0.874999999999999
 40
0.874999999999999
 40
0.9374999999999994
 40
0.9374999999999994
 40
1.0
 40
1.0
 40
1.0
 40
1.0
 10
207.5758270331832
 20
102.9951388684651
 30
0.0
 10
207.5780542749463
 20
103.1584051742693
 30
0.0
 10
207.5795501623345
 20
103.3264988507349
 30
0.0
 10
207.5824401031413
 20
103.659656079425
 30
0.0
 10
207.5836855982651
 20
103.8262056989894
 30
0.0
 10
207.5869228740295
 20
104.3263803373811
 30
0.0
 10
207.5884152842919
 20
104.6606964376014
 30
0.0
 10
207.5917888967789
 20
105.6659627131783
 30
0.0
 10
207.5926115916688
 20
106.3394065171458
 30
0.0
 10
207.5937234221795
 20
107.6888002379607
 30
0.0
 10
207.5939592677606
 20
108.3647251942475
 30
0.0
 10
207.5947509781572
 20
109.3769487809277
 30
0.0
 10
207.5950720812564
 20
109.7144475552705
 30
0.0
 10
207.5958096382081
 20
110.2173727061957
 30
0.0
 10
207.5960928028169
 20
110.3845868597373
 30
0.0
 10
207.5967812130857
 20
110.7162675468569
 30
0.0
 10
207.5971643741462
 20
110.8817328665255
 30
0.0
 10
207.5977180035646
 20
111.0404798439358
 30
0.0
  0
SPLINE
  5
139
330
1F
100
AcDbEntity
  8
0
  6
Continuous
 62
     7
370
    25
100
AcDbSpline
210
0.0
220
0.0
230
1.0
 70
     8
 71
     3
 72
    10
 73
     6
 74
     0
 42
0.00000001
 43
0.00000001
 40
0.0
 40
0.0
 40
0.0
 40
0.0
 40
0.0000018118503898
 40
0.812516908689743
 40
1.0
 40
1.0
 40
1.0
 40
1.0
 10
173.9470188225141
 20
102.9951388684651
 30
0.0
 10
173.9470187625043
 20
102.9951432674677
 30
0.0
 10
173.920107606729
 20
104.9678580388336
 30
0.0
 10
173.9321265892621
 20
107.5392844847688
 30
0.0
 10
173.9270090892257
 20
110.0121472906534
 30
0.0
 10
173.9260496427608
 20
110.4757680938983
 30
0.0
  0
LINE
  5
13A
330
1F
100
AcDbEntity
  8
0
  6
Continuous
 62
     7
370
    25
100
AcDbLine
 10
196.5278031703
 20
99.7109373107
 30
0.0
 11
196.5278662468
 21
99.7182611014
 31
0.0
  0
LINE
  5
13B
330
1F
100
AcDbEntity
  8
0
  6
Continuous
 62
     7
370
    25
100
AcDbLine
 10
184.9950419507
 20
99.7109373005
 30
0.0
 11
184.9949796093
 21
99.7182611014
 31
0.0
  0
LINE
  5
13C
330
1F
100
AcDbEntity
  8
0
  6
Continuous
 62
     7
370
    25
100
AcDbLine
 10
190.761422928
 20
99.6813294785
 30
0.0
 11
190.761422928
 21
99.6889500149
 31
0.0
  0
LINE
  5
13D
330
1F
100
AcDbEntity
  8
0
  6
Continuous
 62
     8
370
    18
100
AcDbLine
 10
264.1141758692
 20
179.484445234
 30
0.0
 11
117.4086699806
 21
179.484445234
 31
0.0
  0
LINE
  5
13E
330
1F
100
AcDbEntity
  8
0
  6
Continuous
 62
     8
370
    18
100
AcDbLine
 10
201.5357690581
 20
170.37831373
 30
0.0
 11
179.987076786
 21
170.37831373
 31
0.0
  0
LWPOLYLINE
  5
13F
330
1F
100
AcDbEntity
  8
0
  6
Continuous
 62
     8
370
    18
100
AcDbPolyline
 90
       32
 70
   128
 43
0.0
 10
165.7614229265
 20
112.5650738203
 10
165.8896898417
 20
112.5729775569
 10
166.2731743951
 20
112.5808001904
 10
166.9079415164
 20
112.5884614501
 10
167.7874776358
 20
112.5958827211
 10
168.9027575227
 20
112.602987851
 10
170.2423368961
 20
112.6097039317
 10
171.7924698589
 20
112.615962047
 10
173.5372499493
 20
112.6216979803
 10
175.4587733624
 20
112.6268528731
 10
177.5373226679
 20
112.6313738292
 10
179.7515691371
 20
112.6352144575
 10
182.0787916049
 20
112.6383353479
 10
184.4951096196
 20
112.6407044759
 10
186.9757284884
 20
112.6422975311
 10
189.4951937051
 20
112.6430981665
 10
192.027652147
 20
112.6430981665
 10
194.5471173636
 20
112.6422975311
 10
197.0277362325
 20
112.6407044759
 10
199.4440542472
 20
112.6383353479
 10
201.771276715
 20
112.6352144575
 10
203.9855231843
 20
112.6313738292
 10
206.0640724898
 20
112.6268528731
 10
207.9855959031
 20
112.6216979803
 10
209.7303759935
 20
112.615962047
 10
211.2805089564
 20
112.6097039317
 10
212.6200883299
 20
112.602987851
 10
213.7353682168
 20
112.5958827211
 10
214.6149043364
 20
112.5884614501
 10
215.2496714577
 20
112.5808001904
 10
215.6331560113
 20
112.5729775569
 10
215.7614229265
 20
112.5650738203
  0
LINE
  5
140
330
1F
100
AcDbEntity
  8
0
  6
Continuous
 62
     8
370
    18
100
AcDbLine
 10
214.8552833687
 20
111.4932676404
 30
0.0
 11
214.8455825746
 21
111.4954040082
 31
0.0
  0
LINE
  5
141
330
1F
100
AcDbEntity
  8
0
  6
Continuous
 62
     8
370
    18
100
AcDbLine
 10
166.6856766241
 20
111.4961867023
 30
0.0
 11
166.6675624844
 21
111.4932676404
 31
0.0
  0
LINE
  5
142
330
1F
100
AcDbEntity
  8
0
  6
Continuous
 62
     8
370
    18
100
AcDbLine
 10
167.6784548748
 20
147.121158379
 30
0.0
 11
166.0367256775
 21
147.121158379
 31
0.0
  0
LINE
  5
143
330
1F
100
AcDbEntity
  8
0
  6
Continuous
 62
     8
370
    18
100
AcDbLine
 10
215.4861201754
 20
147.121158379
 30
0.0
 11
213.8443909792
 21
147.121158379
 31
0.0
  0
LINE
  5
144
330
1F
100
AcDbEntity
  8
0
  6
Continuous
 62
     8
370
    18
100
AcDbLine
 10
214.335552333
 20
154.4946133225
 30
0.0
 11
166.2614229271
 21
154.4946133225
 31
0.0
  0
LINE
  5
145
330
1F
100
AcDbEntity
  8
0
  6
Continuous
 62
     8
370
    18
100
AcDbLine
 10
215.2614229271
 20
154.4946133225
 30
0.0
 11
214.335552333
 21
154.4946133225
 31
0.0
  0
SPLINE
  5
146
330
1F
100
AcDbEntity
  8
0
  6
Continuous
 62
     8
370
    25
100
AcDbSpline
210
0.0
220
0.0
230
1.0
 70
     8
 71
     3
 72
     8
 73
     4
 74
     0
 42
0.00000001
 43
0.00000001
 40
0.0
 40
0.0
 40
0.0
 40
0.0
 40
1.0
 40
1.0
 40
1.0
 40
1.0
 10
214.8552833687204
 20
111.4932676404143
 30
0.0
 10
206.8989126841565
 20
110.1510168036221
 30
0.0
 10
198.8302201958467
 20
109.4751917966438
 30
0.0
 10
190.7614229265401
 20
109.4751917966438
 30
0.0
  0
SPLINE
  5
147
330
1F
100
AcDbEntity
  8
0
  6
Continuous
 62
     8
370
    25
100
AcDbSpline
210
0.0
220
0.0
230
1.0
 70
     8
 71
     3
 72
     9
 73
     5
 74
     0
 42
0.00000001
 43
0.00000001
 40
0.0
 40
0.0
 40
0.0
 40
0.0
 40
0.527992706972369
 40
1.0
 40
1.0
 40
1.0
 40
1.0
 10
190.7614229265401
 20
109.4751917966438
 30
0.0
 10
188.0710128894056
 20
109.5106057365472
 30
0.0
 10
182.9754689517593
 20
109.5776785188713
 30
0.0
 10
177.9036208875467
 20
110.0696560421514
 30
0.0
 10
175.5096716121103
 20
110.3018730211454
 30
0.0
  0
LINE
  5
148
330
1F
100
AcDbEntity
  8
0
  6
Continuous
 62
     8
370
    25
100
AcDbLine
 10
167.2351529733
 20
111.413702429
 30
0.0
 11
166.6675624844
 21
111.4932676404
 31
0.0
  0
SPLINE
  5
149
330
1F
100
AcDbEntity
  8
0
  6
Continuous
 62
     8
370
    18
100
AcDbSpline
210
0.0
220
0.0
230
1.0
 70
     8
 71
     3
 72
     8
 73
     4
 74
     0
 42
0.00000001
 43
0.00000001
 40
0.0
 40
0.0
 40
0.0
 40
0.0
 40
1.0
 40
1.0
 40
1.0
 40
1.0
 10
196.5278662468032
 20
99.7182611014445
 30
0.0
 10
194.6058456653319
 20
99.69139351099304
 30
0.0
 10
192.6836612136477
 20
99.68107396411763
 30
0.0
 10
190.7614229280466
 20
99.68132947845315
 30
0.0
  0
SPLINE
  5
14A
330
1F
100
AcDbEntity
  8
0
  6
Continuous
 62
     8
370
    18
100
AcDbSpline
210
0.0
220
0.0
230
1.0
 70
     8
 71
     3
 72
     9
 73
     5
 74
     0
 42
0.00000001
 43
0.00000001
 40
0.0
 40
0.0
 40
0.0
 40
0.0
 40
0.0000537063722101
 40
1.0
 40
1.0
 40
1.0
 40
1.0
 10
214.8552842767509
 20
111.4932673115719
 30
0.0
 10
214.8552842780072
 20
111.4932672700694
 30
0.0
 10
214.8553076708465
 20
111.4924945046517
 30
0.0
 10
214.8029743819818
 20
111.4910014895208
 30
0.0
 10
214.7506439037482
 20
111.4895085545745
 30
0.0
  0
SPLINE
  5
14B
330
1F
100
AcDbEntity
  8
0
  6
Continuous
 62
     8
370
    18
100
AcDbSpline
210
0.0
220
0.0
230
1.0
 70
     8
 71
     3
 72
     8
 73
     4
 74
     0
 42
0.00000001
 43
0.00000001
 40
0.0
 40
0.0
 40
0.0
 40
0.0
 40
1.0
 40
1.0
 40
1.0
 40
1.0
 10
184.9949796092892
 20
99.7182611014445
 30
0.0
 10
186.9170001907611
 20
99.69139351099304
 30
0.0
 10
188.8391846424456
 20
99.68107396411763
 30
0.0
 10
190.7614229280466
 20
99.68132947845315
 30
0.0
  0
SPLINE
  5
14C
330
1F
100
AcDbEntity
  8
0
  6
Continuous
 62
     8
370
    18
100
AcDbSpline
210
0.0
220
0.0
230
1.0
 70
     8
 71
     3
 72
     9
 73
     5
 74
     0
 42
0.00000001
 43
0.00000001
 40
0.0
 40
0.0
 40
0.0
 40
0.0
 40
0.0001205932672339
 40
1.0
 40
1.0
 40
1.0
 40
1.0
 10
166.6675615763296
 20
111.4932673115719
 30
0.0
 10
166.6675615750106
 20
111.4932672700704
 30
0.0
 10
166.6675506370727
 20
111.4929231245312
 30
0.0
 10
166.6908568171445
 20
111.4922582156967
 30
0.0
 10
166.7141601866479
 20
111.4915933870456
 30
0.0
  0
ENDSEC
  0
SECTION
  2
OBJECTS
  0
DICTIONARY
  5
C
330
0
100
AcDbDictionary
281
     1
  3
ACAD_GROUP
350
D
  3
ACAD_LAYOUT
350
1A
  3
ACAD_MLINESTYLE
350
17
  3
ACAD_PLOTSETTINGS
350
19
  3
ACAD_PLOTSTYLENAME
350
E
  3
ACAD_SCALELIST
350
47
  3
DWGPROPS
350
14D
  0
DICTIONARY
  5
D
102
{ACAD_REACTORS
330
C
102
}
330
C
100
AcDbDictionary
281
     1
  0
DICTIONARY
  5
1A
102
{ACAD_REACTORS
330
C
102
}
330
C
100
AcDbDictionary
281
     1
  3
Layout1
350
1E
  3
Layout2
350
26
  3
Model
350
22
  0
DICTIONARY
  5
17
102
{ACAD_REACTORS
330
C
102
}
330
C
100
AcDbDictionary
281
     1
  3
Standard
350
18
  0
DICTIONARY
  5
19
102
{ACAD_REACTORS
330
C
102
}
330
C
100
AcDbDictionary
281
     1
  0
ACDBDICTIONARYWDFLT
  5
E
102
{ACAD_REACTORS
330
C
102
}
330
C
100
AcDbDictionary
281
     1
  3
Normal
350
F
100
AcDbDictionaryWithDefault
340
F
  0
DICTIONARY
  5
47
102
{ACAD_REACTORS
330
C
102
}
330
C
100
AcDbDictionary
281
     1
  3
A0
350
48
  3
A1
350
49
  3
A2
350
4A
  3
A3
350
4B
  3
A4
350
4C
  3
A5
350
4D
  3
A6
350
4E
  3
A7
350
4F
  3
A8
350
50
  3
A9
350
51
  3
B0
350
52
  3
B1
350
53
  3
B2
350
54
  3
B3
350
55
  3
B4
350
56
  3
B5
350
57
  3
B6
350
58
  3
B7
350
59
  3
B8
350
5A
  3
B9
350
5B
  3
C0
350
5C
  3
C1
350
5D
  3
C2
350
5E
  3
C3
350
5F
  3
C4
350
60
  3
C5
350
61
  3
C6
350
62
  3
C7
350
63
  3
C8
350
64
  3
C9
350
65
  3
D0
350
66
  3
D1
350
67
  3
D2
350
68
  0
XRECORD
  5
14D
102
{ACAD_REACTORS
330
C
102
}
330
C
100
AcDbXrecord
280
     1
  1
DWGPROPS COOKIE
  2

  3

  4

  6

  7

  8
estudent
  9

300
=
301
=
302
=
303
=
304
=
305
=
306
=
307
=
308
=
309
=
 40
0.0
 41
2459993.400673796
 42
2459993.400675509
  1

 90
        0
  0
LAYOUT
  5
1E
102
{ACAD_REACTORS
330
1A
102
}
330
1A
100
AcDbPlotSettings
  1

  2
none_device
  4

  6

 40
0.0
 41
0.0
 42
0.0
 43
0.0
 44
0.0
 45
0.0
 46
0.0
 47
0.0
 48
0.0
 49
0.0
140
0.0
141
0.0
142
1.0
143
1.0
 70
   688
 72
     1
 73
     0
 74
     5
  7

 75
    16
147
1.0
148
0.0
149
0.0
100
AcDbLayout
  1
Layout1
 70
     1
 71
     1
 10
0.0
 20
0.0
 11
420.0
 21
297.0
 12
0.0
 22
0.0
 32
0.0
 14
1.0000000000E+20
 24
1.0000000000E+20
 34
1.0000000000E+20
 15
-1.0000000000E+20
 25
-1.0000000000E+20
 35
-1.0000000000E+20
146
0.0
 13
0.0
 23
0.0
 33
0.0
 16
1.0
 26
0.0
 36
0.0
 17
0.0
 27
1.0
 37
0.0
 76
     0
330
1B
  0
LAYOUT
  5
26
102
{ACAD_REACTORS
330
1A
102
}
330
1A
100
AcDbPlotSettings
  1

  2
none_device
  4

  6

 40
0.0
 41
0.0
 42
0.0
 43
0.0
 44
0.0
 45
0.0
 46
0.0
 47
0.0
 48
0.0
 49
0.0
140
0.0
141
0.0
142
1.0
143
1.0
 70
   688
 72
     1
 73
     0
 74
     5
  7

 75
    16
147
1.0
148
0.0
149
0.0
100
AcDbLayout
  1
Layout2
 70
     1
 71
     2
 10
0.0
 20
0.0
 11
0.0
 21
0.0
 12
0.0
 22
0.0
 32
0.0
 14
0.0
 24
0.0
 34
0.0
 15
0.0
 25
0.0
 35
0.0
146
0.0
 13
0.0
 23
0.0
 33
0.0
 16
1.0
 26
0.0
 36
0.0
 17
0.0
 27
1.0
 37
0.0
 76
     0
330
23
  0
LAYOUT
  5
22
102
{ACAD_REACTORS
330
1A
102
}
330
1A
100
AcDbPlotSettings
  1

  2
none_device
  4
Letter_(8.50_x_11.00_Inches)
  6

 40
6.35
 41
6.35
 42
6.35000508
 43
6.35000508
 44
215.9
 45
279.4
 46
0.0
 47
0.0
 48
0.0
 49
0.0
140
0.0
141
0.0
142
1.0
143
1.0
 70
  1712
 72
     1
 73
     0
 74
     0
  7

 75
     0
147
1.0
148
0.0
149
0.0
100
AcDbLayout
  1
Model
 70
     1
 71
     0
 10
0.0
 20
0.0
 11
594.0
 21
841.0
 12
0.0
 22
0.0
 32
0.0
 14
0.0
 24
0.0
 34
0.0
 15
594.0
 25
841.0
 35
0.0
146
0.0
 13
0.0
 23
0.0
 33
0.0
 16
1.0
 26
0.0
 36
0.0
 17
0.0
 27
1.0
 37
0.0
 76
     0
330
1F
331
29
  0
MLINESTYLE
  5
18
102
{ACAD_REACTORS
330
17
102
}
330
17
100
AcDbMlineStyle
  2
Standard
 70
     0
  3

 62
   256
 51
90.0
 52
90.0
 71
     2
 49
0.5
 62
   256
  6
BYLAYER
 49
-0.5
 62
   256
  6
BYLAYER
  0
ACDBPLACEHOLDER
  5
F
102
{ACAD_REACTORS
330
E
102
}
330
E
  0
SCALE
  5
48
102
{ACAD_REACTORS
330
47
102
}
330
47
100
AcDbScale
 70
     0
300
1:1
140
1.0
141
1.0
290
     1
  0
SCALE
  5
49
102
{ACAD_REACTORS
330
47
102
}
330
47
100
AcDbScale
 70
     0
300
1:2
140
1.0
141
2.0
290
     0
  0
SCALE
  5
4A
102
{ACAD_REACTORS
330
47
102
}
330
47
100
AcDbScale
 70
     0
300
1:4
140
1.0
141
4.0
290
     0
  0
SCALE
  5
4B
102
{ACAD_REACTORS
330
47
102
}
330
47
100
AcDbScale
 70
     0
300
1:5
140
1.0
141
5.0
290
     0
  0
SCALE
  5
4C
102
{ACAD_REACTORS
330
47
102
}
330
47
100
AcDbScale
 70
     0
300
1:8
140
1.0
141
8.0
290
     0
  0
SCALE
  5
4D
102
{ACAD_REACTORS
330
47
102
}
330
47
100
AcDbScale
 70
     0
300
1:10
140
1.0
141
10.0
290
     0
  0
SCALE
  5
4E
102
{ACAD_REACTORS
330
47
102
}
330
47
100
AcDbScale
 70
     0
300
1:16
140
1.0
141
16.0
290
     0
  0
SCALE
  5
4F
102
{ACAD_REACTORS
330
47
102
}
330
47
100
AcDbScale
 70
     0
300
1:20
140
1.0
141
20.0
290
     0
  0
SCALE
  5
50
102
{ACAD_REACTORS
330
47
102
}
330
47
100
AcDbScale
 70
     0
300
1:30
140
1.0
141
30.0
290
     0
  0
SCALE
  5
51
102
{ACAD_REACTORS
330
47
102
}
330
47
100
AcDbScale
 70
     0
300
1:40
140
1.0
141
40.0
290
     0
  0
SCALE
  5
52
102
{ACAD_REACTORS
330
47
102
}
330
47
100
AcDbScale
 70
     0
300
1:50
140
1.0
141
50.0
290
     0
  0
SCALE
  5
53
102
{ACAD_REACTORS
330
47
102
}
330
47
100
AcDbScale
 70
     0
300
1:100
140
1.0
141
100.0
290
     0
  0
SCALE
  5
54
102
{ACAD_REACTORS
330
47
102
}
330
47
100
AcDbScale
 70
     0
300
2:1
140
2.0
141
1.0
290
     0
  0
SCALE
  5
55
102
{ACAD_REACTORS
330
47
102
}
330
47
100
AcDbScale
 70
     0
300
4:1
140
4.0
141
1.0
290
     0
  0
SCALE
  5
56
102
{ACAD_REACTORS
330
47
102
}
330
47
100
AcDbScale
 70
     0
300
8:1
140
8.0
141
1.0
290
     0
  0
SCALE
  5
57
102
{ACAD_REACTORS
330
47
102
}
330
47
100
AcDbScale
 70
     0
300
10:1
140
10.0
141
1.0
290
     0
  0
SCALE
  5
58
102
{ACAD_REACTORS
330
47
102
}
330
47
100
AcDbScale
 70
     0
300
100:1
140
100.0
141
1.0
290
     0
  0
SCALE
  5
59
102
{ACAD_REACTORS
330
47
102
}
330
47
100
AcDbScale
 70
     0
300
1/128" = 1'-0"
140
0.0078125
141
12.0
290
     0
  0
SCALE
  5
5A
102
{ACAD_REACTORS
330
47
102
}
330
47
100
AcDbScale
 70
     0
300
1/64" = 1'-0"
140
0.015625
141
12.0
290
     0
  0
SCALE
  5
5B
102
{ACAD_REACTORS
330
47
102
}
330
47
100
AcDbScale
 70
     0
300
1/32" = 1'-0"
140
0.03125
141
12.0
290
     0
  0
SCALE
  5
5C
102
{ACAD_REACTORS
330
47
102
}
330
47
100
AcDbScale
 70
     0
300
1/16" = 1'-0"
140
0.0625
141
12.0
290
     0
  0
SCALE
  5
5D
102
{ACAD_REACTORS
330
47
102
}
330
47
100
AcDbScale
 70
     0
300
3/32" = 1'-0"
140
0.09375
141
12.0
290
     0
  0
SCALE
  5
5E
102
{ACAD_REACTORS
330
47
102
}
330
47
100
AcDbScale
 70
     0
300
1/8" = 1'-0"
140
0.125
141
12.0
290
     0
  0
SCALE
  5
5F
102
{ACAD_REACTORS
330
47
102
}
330
47
100
AcDbScale
 70
     0
300
3/16" = 1'-0"
140
0.1875
141
12.0
290
     0
  0
SCALE
  5
60
102
{ACAD_REACTORS
330
47
102
}
330
47
100
AcDbScale
 70
     0
300
1/4" = 1'-0"
140
0.25
141
12.0
290
     0
  0
SCALE
  5
61
102
{ACAD_REACTORS
330
47
102
}
330
47
100
AcDbScale
 70
     0
300
3/8" = 1'-0"
140
0.375
141
12.0
290
     0
  0
SCALE
  5
62
102
{ACAD_REACTORS
330
47
102
}
330
47
100
AcDbScale
 70
     0
300
1/2" = 1'-0"
140
0.5
141
12.0
290
     0
  0
SCALE
  5
63
102
{ACAD_REACTORS
330
47
102
}
330
47
100
AcDbScale
 70
     0
300
3/4" = 1'-0"
140
0.75
141
12.0
290
     0
  0
SCALE
  5
64
102
{ACAD_REACTORS
330
47
102
}
330
47
100
AcDbScale
 70
     0
300
1" = 1'-0"
140
1.0
141
12.0
290
     0
  0
SCALE
  5
65
102
{ACAD_REACTORS
330
47
102
}
330
47
100
AcDbScale
 70
     0
300
1-1/2" = 1'-0"
140
1.5
141
12.0
290
     0
  0
SCALE
  5
66
102
{ACAD_REACTORS
330
47
102
}
330
47
100
AcDbScale
 70
     0
300
3" = 1'-0"
140
3.0
141
12.0
290
     0
  0
SCALE
  5
67
102
{ACAD_REACTORS
330
47
102
}
330
47
100
AcDbScale
 70
     0
300
6" = 1'-0"
140
6.0
141
12.0
290
     0
  0
SCALE
  5
68
102
{ACAD_REACTORS
330
47
102
}
330
47
100
AcDbScale
 70
     0
300
1'-0" = 1'-0"
140
12.0
141
12.0
290
     0
  0
ENDSEC
  0
EOF
