  0
SECTION
  2
HEADER
  9
$ACADVER
  1
AC1024
  9
$ACADMAINTVER
 70
     6
  9
$DWGCODEPAGE
  3
ANSI_1252
  9
$INSBASE
 10
0.0
 20
0.0
 30
0.0
  9
$EXTMIN
 10
0.0
 20
0.0
 30
0.0
  9
$EXTMAX
 10
594.0
 20
841.0
 30
0.0
  9
$LIMMIN
 10
0.0
 20
0.0
  9
$LIMMAX
 10
594.0
 20
841.0
  9
$ORTHOMODE
 70
     0
  9
$REGENMODE
 70
     1
  9
$FILLMODE
 70
     1
  9
$QTEXTMODE
 70
     0
  9
$MIRRTEXT
 70
     1
  9
$LTSCALE
 40
1.0
  9
$ATTMODE
 70
     1
  9
$TEXTSIZE
 40
10.0
  9
$TRACEWID
 40
1.0
  9
$TEXTSTYLE
  7
Standard
  9
$CLAYER
  8
0
  9
$CELTYPE
  6
ByLayer
  9
$CECOLOR
 62
   256
  9
$CELTSCALE
 40
1.0
  9
$DISPSILH
 70
     0
  9
$DIMSCALE
 40
1.0
  9
$DIMASZ
 40
2.5
  9
$DIMEXO
 40
0.0
  9
$DIMDLI
 40
3.75
  9
$DIMRND
 40
0.0
  9
$DIMDLE
 40
0.0
  9
$DIMEXE
 40
1.0
  9
$DIMTP
 40
0.0
  9
$DIMTM
 40
0.0
  9
$DIMTXT
 40
3.5
  9
$DIMCEN
 40
2.5
  9
$DIMTSZ
 40
0.0
  9
$DIMTOL
 70
     0
  9
$DIMLIM
 70
     0
  9
$DIMTIH
 70
     1
  9
$DIMTOH
 70
     1
  9
$DIMSE1
 70
     0
  9
$DIMSE2
 70
     0
  9
$DIMTAD
 70
     1
  9
$DIMZIN
 70
     0
  9
$DIMBLK
  1

  9
$DIMASO
 70
     1
  9
$DIMSHO
 70
     1
  9
$DIMPOST
  1

  9
$DIMAPOST
  1

  9
$DIMALT
 70
     0
  9
$DIMALTD
 70
     3
  9
$DIMALTF
 40
0.0393700787
  9
$DIMLFAC
 40
1.0
  9
$DIMTOFL
 70
     1
  9
$DIMTVP
 40
0.0
  9
$DIMTIX
 70
     0
  9
$DIMSOXD
 70
     0
  9
$DIMSAH
 70
     0
  9
$DIMBLK1
  1

  9
$DIMBLK2
  1

  9
$DIMSTYLE
  2
ISO-25
  9
$DIMCLRD
 70
     0
  9
$DIMCLRE
 70
     0
  9
$DIMCLRT
 70
     0
  9
$DIMTFAC
 40
1.0
  9
$DIMGAP
 40
1.5
  9
$DIMJUST
 70
     0
  9
$DIMSD1
 70
     0
  9
$DIMSD2
 70
     0
  9
$DIMTOLJ
 70
     0
  9
$DIMTZIN
 70
     0
  9
$DIMALTZ
 70
     0
  9
$DIMALTTZ
 70
     0
  9
$DIMUPT
 70
     0
  9
$DIMDEC
 70
     2
  9
$DIMTDEC
 70
     2
  9
$DIMALTU
 70
     2
  9
$DIMALTTD
 70
     3
  9
$DIMTXSTY
  7
Standard
  9
$DIMAUNIT
 70
     0
  9
$DIMADEC
 70
     2
  9
$DIMALTRND
 40
0.0
  9
$DIMAZIN
 70
     0
  9
$DIMDSEP
 70
    44
  9
$DIMATFIT
 70
     3
  9
$DIMFRAC
 70
     0
  9
$DIMLDRBLK
  1

  9
$DIMLUNIT
 70
     2
  9
$DIMLWD
 70
    -2
  9
$DIMLWE
 70
    -2
  9
$DIMTMOVE
 70
     0
  9
$DIMFXL
 40
1.0
  9
$DIMFXLON
 70
     0
  9
$DIMJOGANG
 40
0.7853981634
  9
$DIMTFILL
 70
     0
  9
$DIMTFILLCLR
 70
     0
  9
$DIMARCSYM
 70
     0
  9
$DIMLTYPE
  6

  9
$DIMLTEX1
  6

  9
$DIMLTEX2
  6

  9
$DIMTXTDIRECTION
 70
     0
  9
$LUNITS
 70
     2
  9
$LUPREC
 70
     2
  9
$SKETCHINC
 40
1.0
  9
$FILLETRAD
 40
10.0
  9
$AUNITS
 70
     0
  9
$AUPREC
 70
     2
  9
$MENU
  1
.
  9
$ELEVATION
 40
0.0
  9
$PELEVATION
 40
0.0
  9
$THICKNESS
 40
0.0
  9
$LIMCHECK
 70
     0
  9
$CHAMFERA
 40
10.0
  9
$CHAMFERB
 40
10.0
  9
$CHAMFERC
 40
20.0
  9
$CHAMFERD
 40
0.0
  9
$SKPOLY
 70
     0
  9
$TDCREATE
 40
2456183.266223322
  9
$TDUCREATE
 40
2456183.182889989
  9
$TDUPDATE
 40
2456183.266223333
  9
$TDUUPDATE
 40
2456183.18289
  9
$TDINDWG
 40
0.0000000116
  9
$TDUSRTIMER
 40
0.0000000116
  9
$USRTIMER
 70
     1
  9
$ANGBASE
 50
0.0
  9
$ANGDIR
 70
     0
  9
$PDMODE
 70
     0
  9
$PDSIZE
 40
-1.0
  9
$PLINEWID
 40
0.0
  9
$SPLFRAME
 70
     0
  9
$SPLINETYPE
 70
     6
  9
$SPLINESEGS
 70
     8
  9
$HANDSEED
  5
15E
  9
$SURFTAB1
 70
     6
  9
$SURFTAB2
 70
     6
  9
$SURFTYPE
 70
     6
  9
$SURFU
 70
     6
  9
$SURFV
 70
     6
  9
$UCSBASE
  2

  9
$UCSNAME
  2

  9
$UCSORG
 10
0.0
 20
0.0
 30
0.0
  9
$UCSXDIR
 10
1.0
 20
0.0
 30
0.0
  9
$UCSYDIR
 10
0.0
 20
1.0
 30
0.0
  9
$UCSORTHOREF
  2

  9
$UCSORTHOVIEW
 70
     0
  9
$UCSORGTOP
 10
0.0
 20
0.0
 30
0.0
  9
$UCSORGBOTTOM
 10
0.0
 20
0.0
 30
0.0
  9
$UCSORGLEFT
 10
0.0
 20
0.0
 30
0.0
  9
$UCSORGRIGHT
 10
0.0
 20
0.0
 30
0.0
  9
$UCSORGFRONT
 10
0.0
 20
0.0
 30
0.0
  9
$UCSORGBACK
 10
0.0
 20
0.0
 30
0.0
  9
$PUCSBASE
  2

  9
$PUCSNAME
  2

  9
$PUCSORG
 10
0.0
 20
0.0
 30
0.0
  9
$PUCSXDIR
 10
1.0
 20
0.0
 30
0.0
  9
$PUCSYDIR
 10
0.0
 20
1.0
 30
0.0
  9
$PUCSORTHOREF
  2

  9
$PUCSORTHOVIEW
 70
     0
  9
$PUCSORGTOP
 10
0.0
 20
0.0
 30
0.0
  9
$PUCSORGBOTTOM
 10
0.0
 20
0.0
 30
0.0
  9
$PUCSORGLEFT
 10
0.0
 20
0.0
 30
0.0
  9
$PUCSORGRIGHT
 10
0.0
 20
0.0
 30
0.0
  9
$PUCSORGFRONT
 10
0.0
 20
0.0
 30
0.0
  9
$PUCSORGBACK
 10
0.0
 20
0.0
 30
0.0
  9
$USERI1
 70
     0
  9
$USERI2
 70
     0
  9
$USERI3
 70
     0
  9
$USERI4
 70
     0
  9
$USERI5
 70
     0
  9
$USERR1
 40
0.0
  9
$USERR2
 40
0.0
  9
$USERR3
 40
0.0
  9
$USERR4
 40
0.0
  9
$USERR5
 40
0.0
  9
$WORLDVIEW
 70
     1
  9
$SHADEDGE
 70
     3
  9
$SHADEDIF
 70
    70
  9
$TILEMODE
 70
     1
  9
$MAXACTVP
 70
    64
  9
$PINSBASE
 10
0.0
 20
0.0
 30
0.0
  9
$PLIMCHECK
 70
     0
  9
$PEXTMIN
 10
1.0000000000E+20
 20
1.0000000000E+20
 30
1.0000000000E+20
  9
$PEXTMAX
 10
-1.0000000000E+20
 20
-1.0000000000E+20
 30
-1.0000000000E+20
  9
$PLIMMIN
 10
0.0
 20
0.0
  9
$PLIMMAX
 10
420.0
 20
297.0
  9
$UNITMODE
 70
     0
  9
$VISRETAIN
 70
     1
  9
$PLINEGEN
 70
     0
  9
$PSLTSCALE
 70
     1
  9
$TREEDEPTH
 70
  3020
  9
$CMLSTYLE
  2
Standard
  9
$CMLJUST
 70
     0
  9
$CMLSCALE
 40
20.0
  9
$PROXYGRAPHICS
 70
     1
  9
$MEASUREMENT
 70
     1
  9
$CELWEIGHT
370
    -1
  9
$ENDCAPS
280
     0
  9
$JOINSTYLE
280
     0
  9
$LWDISPLAY
290
     1
  9
$INSUNITS
 70
     4
  9
$HYPERLINKBASE
  1

  9
$STYLESHEET
  1

  9
$XEDIT
290
     1
  9
$CEPSNTYPE
380
     0
  9
$PSTYLEMODE
290
     1
  9
$FINGERPRINTGUID
  2
{CC2F5754-AA45-4729-A299-B7EF5170FF35}
  9
$VERSIONGUID
  2
{FAEB1C32-E019-11D5-929B-00C0DF256EC4}
  9
$EXTNAMES
290
     1
  9
$PSVPSCALE
 40
0.0
  9
$OLESTARTUP
290
     0
  9
$SORTENTS
280
   127
  9
$INDEXCTL
280
     0
  9
$HIDETEXT
280
     1
  9
$XCLIPFRAME
280
     2
  9
$HALOGAP
280
     0
  9
$OBSCOLOR
 70
   257
  9
$OBSLTYPE
280
     0
  9
$INTERSECTIONDISPLAY
280
     0
  9
$INTERSECTIONCOLOR
 70
   257
  9
$DIMASSOC
280
     2
  9
$PROJECTNAME
  1

  9
$CAMERADISPLAY
290
     0
  9
$LENSLENGTH
 40
50.0
  9
$CAMERAHEIGHT
 40
0.0
  9
$STEPSPERSEC
 40
2.0
  9
$STEPSIZE
 40
6.0
  9
$3DDWFPREC
 40
2.0
  9
$PSOLWIDTH
 40
5.0
  9
$PSOLHEIGHT
 40
80.0
  9
$LOFTANG1
 40
1.5707963268
  9
$LOFTANG2
 40
1.5707963268
  9
$LOFTMAG1
 40
0.0
  9
$LOFTMAG2
 40
0.0
  9
$LOFTPARAM
 70
     7
  9
$LOFTNORMALS
280
     1
  9
$LATITUDE
 40
37.795
  9
$LONGITUDE
 40
-122.394
  9
$NORTHDIRECTION
 40
0.0
  9
$TIMEZONE
 70
 -8000
  9
$LIGHTGLYPHDISPLAY
280
     1
  9
$TILEMODELIGHTSYNCH
280
     1
  9
$SOLIDHIST
280
     1
  9
$SHOWHIST
280
     1
  9
$DWFFRAME
280
     2
  9
$DGNFRAME
280
     2
  9
$REALWORLDSCALE
290
     1
  9
$INTERFERECOLOR
 62
   256
  9
$CSHADOW
280
     0
  9
$SHADOWPLANELOCATION
 40
0.0
  0
ENDSEC
  0
SECTION
  2
CLASSES
  0
CLASS
  1
ACDBDICTIONARYWDFLT
  2
AcDbDictionaryWithDefault
  3
ObjectDBX Classes
 90
        0
 91
        4
280
     0
281
     0
  0
CLASS
  1
VISUALSTYLE
  2
AcDbVisualStyle
  3
ObjectDBX Classes
 90
     4095
 91
        4
280
     0
281
     0
  0
CLASS
  1
MATERIAL
  2
AcDbMaterial
  3
ObjectDBX Classes
 90
     1153
 91
        4
280
     0
281
     0
  0
ENDSEC
  0
SECTION
  2
TABLES
  0
TABLE
  2
VPORT
  5
8
330
0
100
AcDbSymbolTable
 70
     1
  0
VPORT
  5
29
330
8
100
AcDbSymbolTableRecord
100
AcDbViewportTableRecord
  2
*Active
 70
     0
 10
0.0
 20
0.0
 11
1.0
 21
1.0
 12
297.0
 22
420.5
 13
0.0
 23
0.0
 14
10.0
 24
10.0
 15
10.0
 25
10.0
 16
0.0
 26
0.0
 36
1.0
 17
0.0
 27
0.0
 37
0.0
 40
841.0
 41
0.7063020214
 42
50.0
 43
0.0
 44
0.0
 50
0.0
 51
0.0
 71
     0
 72
  2000
 73
     1
 74
     3
 75
     0
 76
     0
 77
     0
 78
     0
281
     0
 65
     1
110
0.0
120
0.0
130
0.0
111
1.0
121
0.0
131
0.0
112
0.0
122
1.0
132
0.0
 79
     0
146
0.0
 60
     3
 61
     5
292
     1
282
     1
141
0.0
142
0.0
 63
   250
  0
ENDTAB
  0
TABLE
  2
LTYPE
  5
5
330
0
100
AcDbSymbolTable
 70
     6
  0
LTYPE
  5
14
330
5
100
AcDbSymbolTableRecord
100
AcDbLinetypeTableRecord
  2
ByBlock
 70
     0
  3

 72
    65
 73
     0
 40
0.0
  0
LTYPE
  5
15
330
5
100
AcDbSymbolTableRecord
100
AcDbLinetypeTableRecord
  2
ByLayer
 70
     0
  3

 72
    65
 73
     0
 40
0.0
  0
LTYPE
  5
16
330
5
100
AcDbSymbolTableRecord
100
AcDbLinetypeTableRecord
  2
Continuous
 70
     0
  3
Solid line
 72
    65
 73
     0
 40
0.0
  0
LTYPE
  5
3F
330
5
100
AcDbSymbolTableRecord
100
AcDbLinetypeTableRecord
  2
HIDDEN
 70
     0
  3
Hidden __ __ __ __ __ __ __ __ __ __ __ __ __ __
 72
    65
 73
     2
 40
1.905
 49
1.27
 74
     0
 49
-0.635
 74
     0
  0
LTYPE
  5
40
330
5
100
AcDbSymbolTableRecord
100
AcDbLinetypeTableRecord
  2
PHANTOM
 70
     0
  3
Phantom ______  __  __  ______  __  __  ______
 72
    65
 73
     6
 40
12.7
 49
6.35
 74
     0
 49
-1.27
 74
     0
 49
1.27
 74
     0
 49
-1.27
 74
     0
 49
1.27
 74
     0
 49
-1.27
 74
     0
  0
LTYPE
  5
41
330
5
100
AcDbSymbolTableRecord
100
AcDbLinetypeTableRecord
  2
CENTER
 70
     0
  3
Center ____ _ ____ _ ____ _ ____ _ ____ _ ____
 72
    65
 73
     4
 40
10.16
 49
6.35
 74
     0
 49
-1.27
 74
     0
 49
1.27
 74
     0
 49
-1.27
 74
     0
  0
LTYPE
  5
42
330
5
100
AcDbSymbolTableRecord
100
AcDbLinetypeTableRecord
  2
CENTERX2
 70
     0
  3
Center (2x) ________  __  ________  __  _____
 72
    65
 73
     4
 40
20.32
 49
12.7
 74
     0
 49
-2.54
 74
     0
 49
2.54
 74
     0
 49
-2.54
 74
     0
  0
LTYPE
  5
43
330
5
100
AcDbSymbolTableRecord
100
AcDbLinetypeTableRecord
  2
DOT2
 70
     0
  3
Dot (.5x) ........................................
 72
    65
 73
     2
 40
0.635
 49
0.0
 74
     0
 49
-0.635
 74
     0
  0
ENDTAB
  0
TABLE
  2
LAYER
  5
2
330
0
100
AcDbSymbolTable
 70
     1
  0
LAYER
  5
10
330
2
100
AcDbSymbolTableRecord
100
AcDbLayerTableRecord
  2
0
 70
     0
 62
     7
  6
Continuous
370
    -3
390
F
347
3E
  0
ENDTAB
  0
TABLE
  2
STYLE
  5
3
330
0
100
AcDbSymbolTable
 70
     3
  0
STYLE
  5
11
330
3
100
AcDbSymbolTableRecord
100
AcDbTextStyleTableRecord
  2
Standard
 70
     0
 40
0.0
 41
1.0
 50
0.0
 71
     0
 42
2.5
  3
txt
  4

  0
STYLE
  5
47
330
3
100
AcDbSymbolTableRecord
100
AcDbTextStyleTableRecord
  2
SLDTEXTSTYLE0
 70
     0
 40
0.0
 41
0.96
 50
0.0
 71
     0
 42
0.2
  3
ISOCP3
  4

  0
STYLE
  5
5E
330
3
100
AcDbSymbolTableRecord
100
AcDbTextStyleTableRecord
  2
SLDTEXTSTYLE1
 70
     0
 40
0.0
 41
0.605
 50
0.0
 71
     0
 42
0.2
  3
TXT
  4

  0
ENDTAB
  0
TABLE
  2
VIEW
  5
6
330
0
100
AcDbSymbolTable
 70
     0
  0
ENDTAB
  0
TABLE
  2
UCS
  5
7
330
0
100
AcDbSymbolTable
 70
     0
  0
ENDTAB
  0
TABLE
  2
APPID
  5
9
330
0
100
AcDbSymbolTable
 70
     1
  0
APPID
  5
12
330
9
100
AcDbSymbolTableRecord
100
AcDbRegAppTableRecord
  2
ACAD
 70
     0
  0
ENDTAB
  0
TABLE
  2
DIMSTYLE
  5
A
330
0
100
AcDbSymbolTable
 70
     2
100
AcDbDimStyleTable
  0
DIMSTYLE
105
27
330
A
100
AcDbSymbolTableRecord
100
AcDbDimStyleTableRecord
  2
ISO-25
 70
     0
 41
2.5
 42
0.625
 43
3.75
 44
1.25
 73
     0
 74
     0
 77
     1
 78
     8
140
2.5
141
2.5
143
0.0393700787
147
0.625
171
     3
172
     1
178
     0
271
     2
272
     2
274
     3
278
    44
283
     0
284
     8
340
11
  0
DIMSTYLE
105
48
102
{ACAD_REACTORS
330
46
330
53
102
}
330
A
100
AcDbSymbolTableRecord
100
AcDbDimStyleTableRecord
  2
SLDDIMSTYLE0
 70
     0
 41
2.5
 44
0.0
 45
0.000000001
 73
     0
 74
     0
 77
     1
 78
    12
 79
     3
140
6.0
147
1.5
173
     1
178
     0
271
     2
272
     2
276
     2
284
    12
340
47
  0
ENDTAB
  0
TABLE
  2
BLOCK_RECORD
  5
1
330
0
100
AcDbSymbolTable
 70
     3
  0
BLOCK_RECORD
  5
1F
330
1
100
AcDbSymbolTableRecord
100
AcDbBlockTableRecord
  2
*Model_Space
340
22
 70
     0
280
     1
281
     0
  0
BLOCK_RECORD
  5
1B
330
1
100
AcDbSymbolTableRecord
100
AcDbBlockTableRecord
  2
*Paper_Space
340
1E
 70
     0
280
     1
281
     0
  0
BLOCK_RECORD
  5
23
330
1
100
AcDbSymbolTableRecord
100
AcDbBlockTableRecord
  2
*Paper_Space0
340
26
 70
     0
280
     1
281
     0
  0
BLOCK_RECORD
  5
49
330
1
100
AcDbSymbolTableRecord
100
AcDbBlockTableRecord
  2
*D1
340
0
 70
     0
280
     1
281
     0
  0
BLOCK_RECORD
  5
54
330
1
100
AcDbSymbolTableRecord
100
AcDbBlockTableRecord
  2
*D2
340
0
 70
     0
280
     1
281
     0
  0
ENDTAB
  0
ENDSEC
  0
SECTION
  2
BLOCKS
  0
BLOCK
  5
20
330
1F
100
AcDbEntity
  8
0
100
AcDbBlockBegin
  2
*Model_Space
 70
     0
 10
0.0
 20
0.0
 30
0.0
  3
*Model_Space
  1

  0
ENDBLK
  5
21
330
1F
100
AcDbEntity
  8
0
100
AcDbBlockEnd
  0
BLOCK
  5
1C
330
1B
100
AcDbEntity
 67
     1
  8
0
100
AcDbBlockBegin
  2
*Paper_Space
 70
     0
 10
0.0
 20
0.0
 30
0.0
  3
*Paper_Space
  1

  0
ENDBLK
  5
1D
330
1B
100
AcDbEntity
 67
     1
  8
0
100
AcDbBlockEnd
  0
BLOCK
  5
24
330
23
100
AcDbEntity
  8
0
100
AcDbBlockBegin
  2
*Paper_Space0
 70
     0
 10
0.0
 20
0.0
 30
0.0
  3
*Paper_Space0
  1

  0
ENDBLK
  5
25
330
23
100
AcDbEntity
  8
0
100
AcDbBlockEnd
  0
BLOCK
  5
4A
330
49
100
AcDbEntity
  8
0
100
AcDbBlockBegin
  2
*D1
 70
     1
 10
0.0
 20
0.0
 30
0.0
  3
*D1
  1

  0
SOLID
  5
4C
330
49
100
AcDbEntity
  8
0
  6
Continuous
 62
     7
370
     0
100
AcDbTrace
 10
42.7614395004
 20
152.0299240879
 30
0.0
 11
42.4614395004
 21
149.5299240879
 31
0.0
 12
43.0614395004
 22
149.5299240879
 32
0.0
 13
43.0614395004
 23
149.5299240879
 33
0.0
  0
SOLID
  5
4D
330
49
100
AcDbEntity
  8
0
  6
Continuous
 62
     7
370
     0
100
AcDbTrace
 10
42.7614395004
 20
52.0299240879
 30
0.0
 11
43.0614395004
 21
54.5299240879
 31
0.0
 12
42.4614395004
 22
54.5299240879
 32
0.0
 13
42.4614395004
 23
54.5299240879
 33
0.0
  0
LINE
  5
4E
330
49
100
AcDbEntity
  8
0
  6
Continuous
 62
     7
370
     0
100
AcDbLine
 10
56.6850079902
 20
152.0299240879
 30
0.0
 11
41.7614395004
 21
152.0299240879
 31
0.0
  0
LINE
  5
4F
330
49
100
AcDbEntity
  8
0
  6
Continuous
 62
     7
370
     0
100
AcDbLine
 10
56.6850079902
 20
52.0299240879
 30
0.0
 11
41.7614395004
 21
52.0299240879
 31
0.0
  0
LINE
  5
50
330
49
100
AcDbEntity
  8
0
  6
Continuous
 62
     7
370
     0
100
AcDbLine
 10
42.7614395004
 20
152.0299240879
 30
0.0
 11
42.7614395004
 21
52.0299240879
 31
0.0
  0
MTEXT
  5
51
330
49
100
AcDbEntity
  8
0
  6
Continuous
 62
     7
370
     0
100
AcDbMText
 10
35.0270332946
 20
91.6722208134
 30
0.1
 40
6.0
 41
0.0
 46
0.0
 71
     1
 72
     1
  1
100
  7
SLDTEXTSTYLE0
 11
-7.044195017643634E-15
 21
1.0
 31
0.0
 73
     1
 44
1.0
  0
MTEXT
  5
52
330
49
100
AcDbEntity
  8
0
  6
Continuous
 62
     7
370
     0
100
AcDbMText
 10
35.0270332946
 20
108.4388881795
 30
0.1
 40
6.0
 41
0.0
 46
0.0
 71
     1
 72
     1
  1
mm
  7
SLDTEXTSTYLE0
 11
-7.044195017643634E-15
 21
1.0
 31
0.0
 73
     1
 44
1.0
  0
ENDBLK
  5
4B
330
49
100
AcDbEntity
  8
0
100
AcDbBlockEnd
  0
BLOCK
  5
55
330
54
100
AcDbEntity
  8
0
100
AcDbBlockBegin
  2
*D2
 70
     1
 10
0.0
 20
0.0
 30
0.0
  3
*D2
  1

  0
SOLID
  5
57
330
54
100
AcDbEntity
  8
0
  6
Continuous
 62
     7
370
     0
100
AcDbTrace
 10
56.6850079902
 20
38.4602342313
 30
0.0
 11
59.1850079902
 21
38.1602342313
 31
0.0
 12
59.1850079902
 22
38.7602342313
 32
0.0
 13
59.1850079902
 23
38.7602342313
 33
0.0
  0
SOLID
  5
58
330
54
100
AcDbEntity
  8
0
  6
Continuous
 62
     7
370
     0
100
AcDbTrace
 10
156.6850079902
 20
38.4602342313
 30
0.0
 11
154.1850079902
 21
38.7602342313
 31
0.0
 12
154.1850079902
 22
38.1602342313
 32
0.0
 13
154.1850079902
 23
38.1602342313
 33
0.0
  0
LINE
  5
59
330
54
100
AcDbEntity
  8
0
  6
Continuous
 62
     7
370
     0
100
AcDbLine
 10
56.6850079902
 20
52.0299240879
 30
0.0
 11
56.6850079902
 21
37.4602342313
 31
0.0
  0
LINE
  5
5A
330
54
100
AcDbEntity
  8
0
  6
Continuous
 62
     7
370
     0
100
AcDbLine
 10
156.6850079902
 20
52.0299240879
 30
0.0
 11
156.6850079902
 21
37.4602342313
 31
0.0
  0
LINE
  5
5B
330
54
100
AcDbEntity
  8
0
  6
Continuous
 62
     7
370
     0
100
AcDbLine
 10
56.6850079902
 20
38.4602342313
 30
0.0
 11
156.6850079902
 21
38.4602342313
 31
0.0
  0
MTEXT
  5
5C
330
54
100
AcDbEntity
  8
0
  6
Continuous
 62
     7
370
     0
100
AcDbMText
 10
91.2668151533
 20
46.1946404371
 30
0.1
 40
6.0
 41
0.0
 46
0.0
 71
     1
 72
     1
  1
100
  7
SLDTEXTSTYLE0
 73
     1
 44
1.0
  0
MTEXT
  5
5D
330
54
100
AcDbEntity
  8
0
  6
Continuous
 62
     7
370
     0
100
AcDbMText
 10
108.0334825193
 20
46.1946404371
 30
0.1
 40
6.0
 41
0.0
 46
0.0
 71
     1
 72
     1
  1
mm
  7
SLDTEXTSTYLE0
 73
     1
 44
1.0
  0
ENDBLK
  5
56
330
54
100
AcDbEntity
  8
0
100
AcDbBlockEnd
  0
ENDSEC
  0
SECTION
  2
ENTITIES
  0
LINE
  5
44
330
1F
100
AcDbEntity
  8
0
  6
Continuous
 62
     7
370
     0
100
AcDbLine
 10
56.6850079902
 20
152.0299240879
 30
0.0
 11
56.6850079902
 21
52.0299240879
 31
0.0
  0
LINE
  5
45
330
1F
100
AcDbEntity
  8
0
  6
Continuous
 62
     7
370
     0
100
AcDbLine
 10
56.6850079902
 20
52.0299240879
 30
0.0
 11
156.6850079902
 21
52.0299240879
 31
0.0
  0
DIMENSION
  5
46
330
1F
100
AcDbEntity
  8
0
  6
Continuous
 62
     7
370
     0
100
AcDbDimension
280
     0
  2
*D1
 10
42.7614395004
 20
52.0299240879
 30
0.0
 11
42.7614395004
 21
105.4472211621
 31
0.0
 70
   160
  1
<>mm
 71
     2
 42
-1.0
 73
     0
 74
     0
 75
     0
  3
SLDDIMSTYLE0
100
AcDbAlignedDimension
 13
56.6850079902
 23
152.0299240879
 33
0.0
 14
56.6850079902
 24
52.0299240879
 34
0.0
 50
90.0
100
AcDbRotatedDimension
  0
DIMENSION
  5
53
330
1F
100
AcDbEntity
  8
0
  6
Continuous
 62
     7
370
     0
100
AcDbDimension
280
     0
  2
*D2
 10
156.6850079902
 20
38.4602342313
 30
0.0
 11
105.0418155019
 21
38.4602342313
 31
0.0
 70
   160
  1
<>mm
 71
     2
 42
-1.0
 73
     0
 74
     0
 75
     0
  3
SLDDIMSTYLE0
100
AcDbAlignedDimension
 13
56.6850079902
 23
52.0299240879
 33
0.0
 14
156.6850079902
 24
52.0299240879
 34
0.0
100
AcDbRotatedDimension
  0
MTEXT
  5
5F
330
1F
100
AcDbEntity
  8
0
  6
Continuous
 62
     7
370
     0
100
AcDbMText
 10
268.0102655393
 20
49.3034557666
 30
0.0
 40
10.0
 41
0.0
 46
0.0
 71
     1
 72
     1
  1
53 028 05 75
  7
SLDTEXTSTYLE1
 73
     1
 44
1.0
  0
MTEXT
  5
60
330
1F
100
AcDbEntity
  8
0
  6
Continuous
 62
     7
370
     0
100
AcDbMText
 10
412.8252631579
 20
48.4342449499
 30
0.0
 40
10.0
 41
0.0
 46
0.0
 71
     1
 72
     1
  1
KLUDI GmbH & Co KG
  7
SLDTEXTSTYLE1
 73
     1
 44
1.0
  0
LINE
  5
61
330
1F
100
AcDbEntity
  8
0
  6
Continuous
 62
     7
370
    15
100
AcDbLine
 10
208.1375912163
 20
394.1239158742
 30
0.0
 11
208.1375912163
 21
394.471762342
 31
0.0
  0
LINE
  5
62
330
1F
100
AcDbEntity
  8
0
  6
Continuous
 62
     7
370
    15
100
AcDbLine
 10
189.6823912163
 20
394.4716284079
 30
0.0
 11
189.6823912163
 21
394.1239158742
 31
0.0
  0
SPLINE
  5
63
330
1F
100
AcDbEntity
  8
0
  6
Continuous
 62
     7
370
    15
100
AcDbSpline
210
0.0
220
0.0
230
1.0
 70
     8
 71
     3
 72
    28
 73
    24
 74
     0
 42
0.00000001
 43
0.00000001
 40
0.0
 40
0.0
 40
0.0
 40
0.0
 40
0.0901998559304036
 40
0.1710719120444373
 40
0.2435932705122888
 40
0.3086623118027181
 40
0.3671029723867398
 40
0.4196688684321955
 40
0.4759563847704138
 40
0.5258401143151342
 40
0.5702690705010396
 40
0.6100805584000165
 40
0.6460086164017572
 40
0.6824231095653298
 40
0.7155336725497065
 40
0.7459845786587833
 40
0.7749468920003914
 40
0.8082191577660802
 40
0.8384530374941412
 40
0.8727195746246575
 40
0.9117826020189772
 40
0.9568634391536378
 40
1.0
 40
1.0
 40
1.0
 40
1.0
 10
224.3122759330891
 20
334.8868617784013
 30
0.0
 10
224.3860021609784
 20
337.3036738588328
 30
0.0
 10
224.5258303973181
 20
341.8873692471106
 30
0.0
 10
224.7773705369287
 20
348.3989265389568
 30
0.0
 10
225.0416043557042
 20
354.2262290855679
 30
0.0
 10
225.3184942776577
 20
359.4415707614131
 30
0.0
 10
225.6045929198615
 20
364.1122639435246
 30
0.0
 10
225.9140758026654
 20
368.5352171149365
 30
0.0
 10
226.2483635562725
 20
372.7148349084319
 30
0.0
 10
226.6096959373581
 20
376.6597936507164
 30
0.0
 10
226.9715732514805
 20
380.1525697459893
 30
0.0
 10
227.3314570721269
 20
383.2611744723766
 30
0.0
 10
227.6993658356555
 20
386.1407662436748
 30
0.0
 10
228.074763737996
 20
388.8245845110102
 30
0.0
 10
228.4563471190287
 20
391.341847670784
 30
0.0
 10
228.8287127028131
 20
393.6450285888063
 30
0.0
 10
229.2144770676735
 20
395.9173807686332
 30
0.0
 10
229.6135097603255
 20
398.1785721310995
 30
0.0
 10
230.042099194941
 20
400.5632885190646
 30
0.0
 10
230.4940773189781
 20
403.0845784277601
 30
0.0
 10
230.9916511147863
 20
405.9653031659977
 30
0.0
 10
231.4947841714798
 20
409.0629158412689
 30
0.0
 10
231.7866893881567
 20
411.2202707587788
 30
0.0
 10
231.9294252591836
 20
412.2751745963005
 30
0.0
  0
SPLINE
  5
64
330
1F
100
AcDbEntity
  8
0
  6
Continuous
 62
     7
370
    15
100
AcDbSpline
210
0.0
220
0.0
230
1.0
 70
     8
 71
     3
 72
    32
 73
    28
 74
     0
 42
0.00000001
 43
0.00000001
 40
0.0
 40
0.0
 40
0.0
 40
0.0
 40
0.0154674664950472
 40
0.0505651711154273
 40
0.0799423280683078
 40
0.1043563823534589
 40
0.1299752233305173
 40
0.1481881010408505
 40
0.159936150712285
 40
0.1786119818584942
 40
0.201664307277091
 40
0.2294292209355593
 40
0.2625215471540547
 40
0.2880243236831208
 40
0.3167647000248513
 40
0.3492997401581132
 40
0.3863370546813277
 40
0.4287590885974973
 40
0.4776490171459262
 40
0.5246670711647015
 40
0.5780858548582856
 40
0.6389621772250071
 40
0.7085067528678094
 40
0.7701217313482553
 40
0.8386821523737785
 40
0.9150085809936707
 40
1.0
 40
1.0
 40
1.0
 40
1.0
 10
166.0547080487084
 20
411.0644549518253
 30
0.0
 10
166.1052944839068
 20
410.6893004710536
 30
0.0
 10
166.2706681572709
 20
409.4628714032413
 30
0.0
 10
166.5737863722219
 20
407.5353440741799
 30
0.0
 10
166.9254878624126
 20
405.3976624207463
 30
0.0
 10
167.2549128401564
 20
403.4942583575607
 30
0.0
 10
167.5435697190497
 20
401.8688052619557
 30
0.0
 10
167.7805171178692
 20
400.5492868693316
 30
0.0
 10
167.9800905383266
 20
399.4381704617608
 30
0.0
 10
168.2054970520911
 20
398.1785744329451
 30
0.0
 10
168.5025312950401
 20
396.5000278010117
 30
0.0
 10
168.8582423980777
 20
394.4406716029942
 30
0.0
 10
169.2132465950232
 20
392.2945228039641
 30
0.0
 10
169.5558458816183
 20
390.1065021631952
 30
0.0
 10
169.8789571788011
 20
387.9192898486618
 30
0.0
 10
170.2212240140949
 20
385.4278494015689
 30
0.0
 10
170.5800484780667
 20
382.575529300695
 30
0.0
 10
170.9522940713081
 20
379.2917149767489
 30
0.0
 10
171.3093547833337
 20
375.7376499014791
 30
0.0
 10
171.6509138387022
 20
371.887550678337
 30
0.0
 10
171.9766608496864
 20
367.7157574157075
 30
0.0
 10
172.3001798775093
 20
362.9478723607554
 30
0.0
 10
172.590616586958
 20
357.9540924295597
 30
0.0
 10
172.8519744440005
 20
352.7490038610347
 30
0.0
 10
173.086158284159
 20
347.3567713676895
 30
0.0
 10
173.3117858401813
 20
341.3438025309094
 30
0.0
 10
173.4401021617097
 20
337.1148922723337
 30
0.0
 10
173.5077064994124
 20
334.8868617784012
 30
0.0
  0
SPLINE
  5
65
330
1F
100
AcDbEntity
  8
0
  6
Continuous
 62
     7
370
    15
100
AcDbSpline
210
0.0
220
0.0
230
1.0
 70
     8
 71
     3
 72
    10
 73
     6
 74
     0
 42
0.00000001
 43
0.00000001
 40
0.0
 40
0.0
 40
0.0
 40
0.0
 40
0.3420444993503857
 40
0.859488859021312
 40
1.0
 40
1.0
 40
1.0
 40
1.0
 10
232.0165343514371
 20
416.644392909464
 30
0.0
 10
232.0083188534659
 20
416.9133414839469
 30
0.0
 10
231.9876749635889
 20
417.5891550224097
 30
0.0
 10
231.9404893782751
 20
418.4969303204392
 30
0.0
 10
231.909878885658
 20
419.1886280363902
 30
0.0
 10
231.90334179426
 20
419.3363450707257
 30
0.0
  0
SPLINE
  5
66
330
1F
100
AcDbEntity
  8
0
  6
Continuous
 62
     7
370
    15
100
AcDbSpline
210
0.0
220
0.0
230
1.0
 70
     8
 71
     3
 72
    11
 73
     7
 74
     0
 42
0.00000001
 43
0.00000001
 40
0.0
 40
0.0
 40
0.0
 40
0.0
 40
0.0046775339878734
 40
0.3598887281697312
 40
0.721363586035073
 40
1.0
 40
1.0
 40
1.0
 40
1.0
 10
165.9169241613272
 20
419.3187370767731
 30
0.0
 10
165.9166188695954
 20
419.3115267415555
 30
0.0
 10
165.8931297718445
 20
418.7567646857561
 30
0.0
 10
165.8419379188094
 20
417.8159331003907
 30
0.0
 10
165.7968445078573
 20
416.5921950073027
 30
0.0
 10
165.7847693637746
 20
415.9579305056269
 30
0.0
 10
165.7795131294395
 20
415.6818391539673
 30
0.0
  0
SPLINE
  5
67
330
1F
100
AcDbEntity
  8
0
  6
Continuous
 62
     7
370
    15
100
AcDbSpline
210
0.0
220
0.0
230
1.0
 70
     8
 71
     3
 72
    18
 73
    14
 74
     0
 42
0.00000001
 43
0.00000001
 40
0.0
 40
0.0
 40
0.0
 40
0.0
 40
0.1087703364164255
 40
0.2034250542870107
 40
0.2846268571494868
 40
0.3526073406580859
 40
0.4072845666642437
 40
0.4530710505112151
 40
0.5231747322327751
 40
0.6125921229562088
 40
0.7214579623238854
 40
0.8502890505417647
 40
1.0
 40
1.0
 40
1.0
 40
1.0
 10
230.8646660124124
 20
420.6925470206763
 30
0.0
 10
229.9085535311934
 20
420.9053813473287
 30
0.0
 10
228.1204076101234
 20
421.3034295273736
 30
0.0
 10
225.4016074289936
 20
421.7865900953307
 30
0.0
 10
222.9676615711799
 20
422.1549152012516
 30
0.0
 10
220.8587727755809
 20
422.4263848595538
 30
0.0
 10
219.074334596231
 20
422.6262921193951
 30
0.0
 10
217.2367753204647
 20
422.8085530075408
 30
0.0
 10
214.987049141166
 20
423.0002935031533
 30
0.0
 10
211.9921722303334
 20
423.2034369980865
 30
0.0
 10
208.2837144449749
 20
423.3818682032329
 30
0.0
 10
203.8432966136246
 20
423.513205662271
 30
0.0
 10
200.6335690355855
 20
423.5285447118222
 30
0.0
 10
198.9084026398069
 20
423.5367891538147
 30
0.0
  0
SPLINE
  5
68
330
1F
100
AcDbEntity
  8
0
  6
Continuous
 62
     7
370
    15
100
AcDbSpline
210
0.0
220
0.0
230
1.0
 70
     8
 71
     3
 72
    19
 73
    15
 74
     0
 42
0.00000001
 43
0.00000001
 40
0.0
 40
0.0
 40
0.0
 40
0.0
 40
0.1092980250529242
 40
0.2042431257928857
 40
0.285248582595569
 40
0.3525805132594053
 40
0.4063619794953054
 40
0.4514566417760022
 40
0.508272994510761
 40
0.5794282938985674
 40
0.6647522377521572
 40
0.7629634242511333
 40
0.8743796629451105
 40
1.0
 40
1.0
 40
1.0
 40
1.0
 10
198.90940091394
 20
423.5367901152611
 30
0.0
 10
197.6501858646257
 20
423.5325537972656
 30
0.0
 10
195.2971148224651
 20
423.5246374709747
 30
0.0
 10
192.0197228283891
 20
423.4558335740613
 30
0.0
 10
189.2391630138875
 20
423.3630182554722
 30
0.0
 10
186.9456114401859
 20
423.257295372865
 30
0.0
 10
185.0751515874366
 20
423.1500778112126
 30
0.0
 10
183.3380632186381
 20
423.0332823354828
 30
0.0
 10
181.4272571058773
 20
422.8841132145866
 30
0.0
 10
179.1104734055372
 20
422.6691384820612
 30
0.0
 10
176.4120818408705
 20
422.3658424124359
 30
0.0
 10
173.4060771533496
 20
421.9493130328456
 30
0.0
 10
170.1537178706068
 20
421.3990420155995
 30
0.0
 10
168.0632072639599
 20
420.937269064543
 30
0.0
 10
166.9553164408068
 20
420.6925470271475
 30
0.0
  0
SPLINE
  5
69
330
1F
100
AcDbEntity
  8
0
  6
Continuous
 62
     7
370
    15
100
AcDbSpline
210
0.0
220
0.0
230
1.0
 70
     8
 71
     3
 72
     9
 73
     5
 74
     0
 42
0.00000001
 43
0.00000001
 40
0.0
 40
0.0
 40
0.0
 40
0.0
 40
0.3363218207523395
 40
1.0
 40
1.0
 40
1.0
 40
1.0
 10
165.9699632397347
 20
419.8553038052847
 30
0.0
 10
165.9668942721752
 20
419.8107321960541
 30
0.0
 10
165.9577691801646
 20
419.6782055311744
 30
0.0
 10
165.9505514721473
 20
419.5643791278272
 30
0.0
 10
165.9457612368321
 20
419.4888350277035
 30
0.0
  0
SPLINE
  5
6A
330
1F
100
AcDbEntity
  8
0
  6
Continuous
 62
     7
370
    15
100
AcDbSpline
210
0.0
220
0.0
230
1.0
 70
     8
 71
     3
 72
     9
 73
     5
 74
     0
 42
0.00000001
 43
0.00000001
 40
0.0
 40
0.0
 40
0.0
 40
0.0
 40
0.39423909200577
 40
1.0
 40
1.0
 40
1.0
 40
1.0
 10
231.8958389329561
 20
419.3373559141097
 30
0.0
 10
231.8925662027187
 20
419.3997513116321
 30
0.0
 10
231.8842648183465
 20
419.5580192226225
 30
0.0
 10
231.8720423373406
 20
419.7376758837215
 30
0.0
 10
231.8646384361486
 20
419.8465048658761
 30
0.0
  0
SPLINE
  5
6B
330
1F
100
AcDbEntity
  8
0
  6
Continuous
 62
     7
370
    15
100
AcDbSpline
210
0.0
220
0.0
230
1.0
 70
     8
 71
     3
 72
    11
 73
     7
 74
     0
 42
0.00000001
 43
0.00000001
 40
0.0
 40
0.0
 40
0.0
 40
0.0
 40
0.1550438623612139
 40
0.364974199755558
 40
0.6394126658193032
 40
1.0
 40
1.0
 40
1.0
 40
1.0
 10
231.86466470829
 20
419.8614439675618
 30
0.0
 10
231.8489388975542
 20
419.9358845680209
 30
0.0
 10
231.8119202429529
 20
420.1111181965445
 30
0.0
 10
231.6346980410498
 20
420.3202319287705
 30
0.0
 10
231.3317836482623
 20
420.5453124889809
 30
0.0
 10
231.014782226369
 20
420.6444140879427
 30
0.0
 10
230.834778992472
 20
420.700687047827
 30
0.0
  0
SPLINE
  5
6C
330
1F
100
AcDbEntity
  8
0
  6
Continuous
 62
     7
370
    15
100
AcDbSpline
210
0.0
220
0.0
230
1.0
 70
     8
 71
     3
 72
    11
 73
     7
 74
     0
 42
0.00000001
 43
0.00000001
 40
0.0
 40
0.0
 40
0.0
 40
0.0
 40
0.2863952458485959
 40
0.5536203473260978
 40
0.7983695651758124
 40
1.0
 40
1.0
 40
1.0
 40
1.0
 10
166.9552272256505
 20
420.6925191509635
 30
0.0
 10
166.8064897587108
 20
420.6437339686351
 30
0.0
 10
166.5189707118651
 20
420.549429087613
 30
0.0
 10
166.2060815599283
 20
420.3201929629045
 30
0.0
 10
166.0142433357688
 20
420.0955821473732
 30
0.0
 10
165.9809859878624
 20
419.9563686958325
 30
0.0
 10
165.9659635882541
 20
419.8934857472049
 30
0.0
  0
SPLINE
  5
6D
330
1F
100
AcDbEntity
  8
0
  6
Continuous
 62
     7
370
    15
100
AcDbSpline
210
0.0
220
0.0
230
1.0
 70
     8
 71
     3
 72
    10
 73
     6
 74
     0
 42
0.00000001
 43
0.00000001
 40
0.0
 40
0.0
 40
0.0
 40
0.0
 40
0.1780430742489787
 40
0.8991368328297041
 40
1.0
 40
1.0
 40
1.0
 40
1.0
 10
166.0544386514975
 20
421.9229262862738
 30
0.0
 10
166.0483368570591
 20
421.8974425101239
 30
0.0
 10
166.0175221334363
 20
421.7687466769801
 30
0.0
 10
166.0630247992488
 20
421.6065699793475
 30
0.0
 10
166.1295861056223
 20
421.5155200090922
 30
0.0
 10
166.1377539109677
 20
421.5043471749898
 30
0.0
  0
SPLINE
  5
6E
330
1F
100
AcDbEntity
  8
0
  6
Continuous
 62
     7
370
    15
100
AcDbSpline
210
0.0
220
0.0
230
1.0
 70
     8
 71
     3
 72
    10
 73
     6
 74
     0
 42
0.00000001
 43
0.00000001
 40
0.0
 40
0.0
 40
0.0
 40
0.0
 40
0.1526702178106498
 40
0.8854082223483289
 40
1.0
 40
1.0
 40
1.0
 40
1.0
 10
231.6793770939163
 20
421.5082039185862
 30
0.0
 10
231.6916869676268
 20
421.5241801994694
 30
0.0
 10
231.7630778620373
 20
421.6168343572966
 30
0.0
 10
231.8048570565757
 20
421.7782917466864
 30
0.0
 10
231.7741447658748
 20
421.8951083226909
 30
0.0
 10
231.7699912756268
 20
421.9109064444907
 30
0.0
  0
SPLINE
  5
6F
330
1F
100
AcDbEntity
  8
0
  6
Continuous
 62
     7
370
    15
100
AcDbSpline
210
0.0
220
0.0
230
1.0
 70
     8
 71
     3
 72
    14
 73
    10
 74
     0
 42
0.00000001
 43
0.00000001
 40
0.0
 40
0.0
 40
0.0
 40
0.0
 40
0.113865032481714
 40
0.2786228755574592
 40
0.4397368689068967
 40
0.5991839618052399
 40
0.7609471338547334
 40
0.9263918564646269
 40
1.0
 40
1.0
 40
1.0
 40
1.0
 10
231.7760473003169
 20
421.9228248095378
 30
0.0
 10
231.7489993589075
 20
422.294157977659
 30
0.0
 10
231.6828142004865
 20
423.2027943942725
 30
0.0
 10
231.5410450673791
 20
424.8267316642196
 30
0.0
 10
231.3518890193803
 20
426.7567033706464
 30
0.0
 10
231.1222539546331
 20
428.8228978421366
 30
0.0
 10
230.8397713574083
 20
431.0383445816832
 30
0.0
 10
230.5779951432203
 20
432.942687228016
 30
0.0
 10
230.3774919774551
 20
434.1308439945403
 30
0.0
 10
230.3157538939804
 20
434.4966961812264
 30
0.0
  0
SPLINE
  5
70
330
1F
100
AcDbEntity
  8
0
  6
Continuous
 62
     7
370
    15
100
AcDbSpline
210
0.0
220
0.0
230
1.0
 70
     8
 71
     3
 72
    14
 73
    10
 74
     0
 42
0.00000001
 43
0.00000001
 40
0.0
 40
0.0
 40
0.0
 40
0.0
 40
0.0383555466723062
 40
0.2009893170703885
 40
0.3729019724236795
 40
0.5369207281548115
 40
0.6987723511933708
 40
0.857179206921669
 40
1.0
 40
1.0
 40
1.0
 40
1.0
 10
167.5048477237127
 20
434.4939173676107
 30
0.0
 10
167.4713559770443
 20
434.302238329562
 30
0.0
 10
167.295853764864
 20
433.2978089237382
 30
0.0
 10
167.0462653260832
 20
431.5162817795525
 30
0.0
 10
166.7444575865816
 20
429.2195660440328
 30
0.0
 10
166.5009219843622
 20
427.0673641792536
 30
0.0
 10
166.3059769335587
 20
425.1174923260773
 30
0.0
 10
166.1522085071843
 20
423.3884804286602
 30
0.0
 10
166.0774293871468
 20
422.3915932205156
 30
0.0
 10
166.0419744304994
 20
421.9189399888455
 30
0.0
  0
LINE
  5
71
330
1F
100
AcDbEntity
  8
0
  6
Continuous
 62
     7
370
    15
100
AcDbLine
 10
231.6381559458
 20
421.4183507466
 30
0.0
 11
231.6849325078
 21
421.4990145612
 31
0.0
  0
LINE
  5
72
330
1F
100
AcDbEntity
  8
0
  6
Continuous
 62
     7
370
    15
100
AcDbLine
 10
166.1358935556
 20
421.4990340598
 30
0.0
 11
166.1809258693
 21
421.4183366953
 31
0.0
  0
SPLINE
  5
73
330
1F
100
AcDbEntity
  8
0
  6
Continuous
 62
     7
370
    15
100
AcDbSpline
210
0.0
220
0.0
230
1.0
 70
     8
 71
     3
 72
     9
 73
     5
 74
     0
 42
0.00000001
 43
0.00000001
 40
0.0
 40
0.0
 40
0.0
 40
0.0
 40
0.4914161036895847
 40
1.0
 40
1.0
 40
1.0
 40
1.0
 10
166.1917411789449
 20
421.4351106285778
 30
0.0
 10
166.2761460036792
 20
421.2810265783246
 30
0.0
 10
166.4479043650774
 20
420.9674754978933
 30
0.0
 10
166.6967619831144
 20
420.7517293927233
 30
0.0
 10
166.8233269601221
 20
420.6420043979422
 30
0.0
  0
SPLINE
  5
74
330
1F
100
AcDbEntity
  8
0
  6
Continuous
 62
     7
370
    15
100
AcDbSpline
210
0.0
220
0.0
230
1.0
 70
     8
 71
     3
 72
     9
 73
     5
 74
     0
 42
0.00000001
 43
0.00000001
 40
0.0
 40
0.0
 40
0.0
 40
0.0
 40
0.3995673774043331
 40
1.0
 40
1.0
 40
1.0
 40
1.0
 10
230.9884748978081
 20
420.6431391563608
 30
0.0
 10
231.0913149262575
 20
420.7265291721446
 30
0.0
 10
231.3486933667035
 20
420.9352299332666
 30
0.0
 10
231.5274034422254
 20
421.2425856515207
 30
0.0
 10
231.6347068015553
 20
421.4271320515018
 30
0.0
  0
SPLINE
  5
75
330
1F
100
AcDbEntity
  8
0
  6
Continuous
 62
     7
370
    15
100
AcDbSpline
210
0.0
220
0.0
230
1.0
 70
     8
 71
     3
 72
    27
 73
    23
 74
     0
 42
0.00000001
 43
0.00000001
 40
0.0
 40
0.0
 40
0.0
 40
0.0
 40
0.0428352361502347
 40
0.1090379839789749
 40
0.1781761221561588
 40
0.237042805684675
 40
0.2910658903129894
 40
0.3383199978973714
 40
0.3807226803299266
 40
0.4192859071083206
 40
0.4563371512346705
 40
0.4959722487861376
 40
0.5345056761518707
 40
0.5713434578442186
 40
0.6092782225074265
 40
0.649499885522048
 40
0.6928606516059437
 40
0.7404336353265968
 40
0.7942863039691025
 40
0.8574229875178975
 40
0.928231088369765
 40
0.9999999999999999
 40
0.9999999999999999
 40
0.9999999999999999
 40
0.9999999999999999
 10
230.314879364781
 20
434.4951072559703
 30
0.0
 10
230.2200619807479
 20
435.0738919041308
 30
0.0
 10
229.9787023588499
 20
436.5472002564431
 30
0.0
 10
229.4785053666649
 20
439.0415570191308
 30
0.0
 10
228.8446784071083
 20
441.7954887876318
 30
0.0
 10
228.1021684390958
 20
444.3925299863688
 30
0.0
 10
227.2923689005079
 20
446.6539856617351
 30
0.0
 10
226.4181553861469
 20
448.6426418127805
 30
0.0
 10
225.4844509850379
 20
450.3588472298355
 30
0.0
 10
224.4762682464757
 20
451.86422077254
 30
0.0
 10
223.3342232931821
 20
453.2354022249826
 30
0.0
 10
222.0386159518224
 20
454.481956775176
 30
0.0
 10
220.5955477506
 20
455.5741025496204
 30
0.0
 10
219.0513544952631
 20
456.4860176904421
 30
0.0
 10
217.3925627518039
 20
457.2553896490796
 30
0.0
 10
215.5668473552617
 20
457.9092319760343
 30
0.0
 10
213.5410633658211
 20
458.4562961189007
 30
0.0
 10
211.264700133488
 20
458.9038914448595
 30
0.0
 10
208.6506270571698
 20
459.2671388716282
 30
0.0
 10
205.6480630695259
 20
459.5245723367204
 30
0.0
 10
202.3494787338874
 20
459.6710762050018
 30
0.0
 10
200.0613766708452
 20
459.6838725945713
 30
0.0
 10
198.9096160054711
 20
459.6903139060859
 30
0.0
  0
SPLINE
  5
76
330
1F
100
AcDbEntity
  8
0
  6
Continuous
 62
     7
370
    15
100
AcDbSpline
210
0.0
220
0.0
230
1.0
 70
     8
 71
     3
 72
    27
 73
    23
 74
     0
 42
0.00000001
 43
0.00000001
 40
0.0
 40
0.0
 40
0.0
 40
0.0
 40
0.0599926123647653
 40
0.139495318974389
 40
0.2079990815219497
 40
0.2629974123768158
 40
0.3118497545694519
 40
0.3565271064394341
 40
0.3971049649965026
 40
0.4349899693139295
 40
0.4712821802583886
 40
0.5101251302442396
 40
0.5470936719072294
 40
0.5846162208274128
 40
0.6235513112080125
 40
0.6650704193852596
 40
0.7106975294924902
 40
0.7603857883394859
 40
0.8159336247728532
 40
0.8805233883387137
 40
0.9501607654026021
 40
1.0
 40
1.0
 40
1.0
 40
1.0
 10
198.9096169247533
 20
459.6843714255775
 30
0.0
 10
197.9467901574733
 20
459.68531339028
 30
0.0
 10
195.7080173865498
 20
459.6875036544054
 30
0.0
 10
192.372302864764
 20
459.5375798484233
 30
0.0
 10
189.1266293969531
 20
459.2616564086838
 30
0.0
 10
186.3874103123434
 20
458.8878594167719
 30
0.0
 10
184.0549701089147
 20
458.4136672268755
 30
0.0
 10
181.9914791699471
 20
457.8284658263687
 30
0.0
 10
180.151303218168
 20
457.1415869730542
 30
0.0
 10
178.5099324864572
 20
456.3467415857901
 30
0.0
 10
176.9875803687824
 20
455.41093070687
 30
0.0
 10
175.5994646825103
 20
454.3251324683903
 30
0.0
 10
174.3441325774103
 20
453.0818264048605
 30
0.0
 10
173.2382336773646
 20
451.7199409808262
 30
0.0
 10
172.2454171038162
 20
450.2073077446399
 30
0.0
 10
171.335719535844
 20
448.5152812023857
 30
0.0
 10
170.5095332600102
 20
446.6175850229039
 30
0.0
 10
169.7591090820944
 20
444.4839916947562
 30
0.0
 10
169.0589844267035
 20
442.0648179003834
 30
0.0
 10
168.4065165685729
 20
439.3733538358825
 30
0.0
 10
167.8833729175809
 20
436.7862908121838
 30
0.0
 10
167.6169563572721
 20
435.1699555572624
 30
0.0
 10
167.5058216568044
 20
434.4957071764458
 30
0.0
  0
LINE
  5
77
330
1F
100
AcDbEntity
  8
0
  6
Continuous
 62
     7
370
    15
100
AcDbLine
 10
173.5082680923
 20
334.8631957851
 30
0.0
 11
173.9546958787
 21
319.3509264255
 31
0.0
  0
LINE
  5
78
330
1F
100
AcDbEntity
  8
0
  6
Continuous
 62
     7
370
    15
100
AcDbLine
 10
223.8652725606
 20
319.3504401952
 30
0.0
 11
224.3117143402
 21
334.8631957851
 31
0.0
  0
ARC
  5
79
330
1F
100
AcDbEntity
  8
0
  6
Continuous
 62
     7
370
    15
100
AcDbCircle
 10
174.2554656884
 20
319.3597791248
 30
0.0
 40
0.3009000000000128
100
AcDbArc
 50
181.837870362
 51
270.0
  0
ARC
  5
7A
330
1F
100
AcDbEntity
  8
0
  6
Continuous
 62
     7
370
    15
100
AcDbCircle
 10
223.5645167441
 20
319.3597791248
 30
0.0
 40
0.3009000000000128
100
AcDbArc
 50
270.0
 51
358.9213364766
  0
SPLINE
  5
7B
330
1F
100
AcDbEntity
  8
0
  6
Continuous
 62
     7
370
    15
100
AcDbSpline
210
0.0
220
0.0
230
1.0
 70
     8
 71
     3
 72
    26
 73
    22
 74
     0
 42
0.00000001
 43
0.00000001
 40
0.0
 40
0.0
 40
0.0
 40
0.0
 40
0.1249999999999991
 40
0.1249999999999991
 40
0.1874999999999985
 40
0.1874999999999985
 40
0.2499999999999979
 40
0.2499999999999979
 40
0.3749999999999976
 40
0.3749999999999976
 40
0.4374999999999978
 40
0.4374999999999978
 40
0.4999999999999981
 40
0.4999999999999981
 40
0.6249999999999986
 40
0.6249999999999986
 40
0.7499999999999991
 40
0.7499999999999991
 40
0.8749999999999996
 40
0.8749999999999996
 40
1.0
 40
1.0
 40
1.0
 40
1.0
 10
198.9099912162453
 20
397.3080842411753
 30
0.0
 10
198.4037684248586
 20
397.3076301238793
 30
0.0
 10
197.8994757135613
 20
397.29306842476
 30
0.0
 10
197.145983139122
 20
397.2501620112925
 30
0.0
 10
196.8941784522965
 20
397.2322232114841
 30
0.0
 10
196.3993716931977
 20
397.1898925369233
 30
0.0
 10
196.1559648208448
 20
397.1655152232734
 30
0.0
 10
195.4374552587505
 20
397.0832451778296
 30
0.0
 10
194.9739853423738
 20
397.0162714947014
 30
0.0
 10
194.3024232134461
 20
396.8985905031951
 30
0.0
 10
194.0815310134875
 20
396.8562616055386
 30
0.0
 10
193.6536889484562
 20
396.767037605887
 30
0.0
 10
193.4468407645485
 20
396.7202095976277
 30
0.0
 10
192.8469819025682
 20
396.5734710963313
 30
0.0
 10
192.47452020217
 20
396.4673793452884
 30
0.0
 10
191.7850524790187
 20
396.2390241110355
 30
0.0
 10
191.4678859990512
 20
396.1162498117973
 30
0.0
 10
190.9129405473934
 20
395.8626716409435
 30
0.0
 10
190.6716828890577
 20
395.7308503500641
 30
0.0
 10
190.2620529158169
 20
395.4553466573663
 30
0.0
 10
190.0937307609687
 20
395.311103782649
 30
0.0
 10
189.9675284998148
 20
395.1630773524378
 30
0.0
  0
SPLINE
  5
7C
330
1F
100
AcDbEntity
  8
0
  6
Continuous
 62
     7
370
    15
100
AcDbSpline
210
0.0
220
0.0
230
1.0
 70
     8
 71
     3
 72
    24
 73
    20
 74
     0
 42
0.00000001
 43
0.00000001
 40
0.0
 40
0.0
 40
0.0
 40
0.0
 40
0.1249999999999998
 40
0.1249999999999998
 40
0.1875000000000001
 40
0.1875000000000001
 40
0.2500000000000004
 40
0.2500000000000004
 40
0.3750000000000001
 40
0.3750000000000001
 40
0.4375000000000002
 40
0.4375000000000002
 40
0.5000000000000004
 40
0.5000000000000004
 40
0.6250000000000001
 40
0.6250000000000001
 40
0.7499999999999999
 40
0.7499999999999999
 40
1.0
 40
1.0
 40
1.0
 40
1.0
 10
207.8524539326832
 20
395.1630773524418
 30
0.0
 10
207.7266195503186
 20
395.3106722865486
 30
0.0
 10
207.5614931760852
 20
395.4524492053412
 30
0.0
 10
207.2563694456996
 20
395.6584073654263
 30
0.0
 10
207.145039281741
 20
395.72593176217
 30
0.0
 10
206.9027857947892
 20
395.8589320095387
 30
0.0
 10
206.7711768470379
 20
395.9247073059892
 30
0.0
 10
206.3516471290587
 20
396.1165479317846
 30
0.0
 10
206.0399982369624
 20
396.2371045136435
 30
0.0
 10
205.5259501000753
 20
396.4077176130521
 30
0.0
 10
205.3467979676089
 20
396.4628662485061
 30
0.0
 10
204.9726357744058
 20
396.5696307696794
 30
0.0
 10
204.7767606599056
 20
396.6214535257159
 30
0.0
 10
204.1709479588166
 20
396.769714493049
 30
0.0
 10
203.746149036447
 20
396.8583749223575
 30
0.0
 10
202.8560838090757
 20
397.0146600423862
 30
0.0
 10
202.3890449077498
 20
397.0824788351541
 30
0.0
 10
200.935523348402
 20
397.2489685752157
 30
0.0
 10
199.9361267329799
 20
397.3071637257537
 30
0.0
 10
198.9099912162561
 20
397.3080842411753
 30
0.0
  0
SPLINE
  5
7D
330
1F
100
AcDbEntity
  8
0
  6
Continuous
 62
     7
370
    15
100
AcDbSpline
210
0.0
220
0.0
230
1.0
 70
     8
 71
     3
 72
     8
 73
     4
 74
     0
 42
0.00000001
 43
0.00000001
 40
0.0
 40
0.0
 40
0.0
 40
0.0
 40
0.000552702428714
 40
0.000552702428714
 40
0.000552702428714
 40
0.000552702428714
 10
231.9053014494804
 20
412.0158151377159
 30
0.0
 10
231.9027280671644
 20
411.996533395589
 30
0.0
 10
231.9002024638891
 20
411.9775618471767
 30
0.0
 10
231.8977341435328
 20
411.9589335356089
 30
0.0
  0
SPLINE
  5
7E
330
1F
100
AcDbEntity
  8
0
  6
Continuous
 62
     7
370
    15
100
AcDbSpline
210
0.0
220
0.0
230
1.0
 70
     8
 71
     3
 72
    11
 73
     7
 74
     0
 42
0.00000001
 43
0.00000001
 40
0.0
 40
0.0
 40
0.0
 40
0.0
 40
0.1826440491897005
 40
0.4521704458068244
 40
0.7254468783854111
 40
1.0
 40
1.0
 40
1.0
 40
1.0
 10
208.133105085076
 20
394.4717437972682
 30
0.0
 10
208.1330579733209
 20
394.5151869739321
 30
0.0
 10
208.1329413391168
 20
394.6227389070309
 30
0.0
 10
208.084221928198
 20
394.7918167111254
 30
0.0
 10
207.9961339914931
 20
394.9794758223282
 30
0.0
 10
207.9004216365525
 20
395.1017818330822
 30
0.0
 10
207.8524539326839
 20
395.1630773524417
 30
0.0
  0
SPLINE
  5
7F
330
1F
100
AcDbEntity
  8
0
  6
Continuous
 62
     7
370
    15
100
AcDbSpline
210
0.0
220
0.0
230
1.0
 70
     8
 71
     3
 72
     8
 73
     4
 74
     0
 42
0.00000001
 43
0.00000001
 40
0.0
 40
0.0
 40
0.0
 40
0.0
 40
0.000552702428714
 40
0.000552702428714
 40
0.000552702428714
 40
0.000552702428714
 10
165.914680983021
 20
412.0158151377159
 30
0.0
 10
165.917254365337
 20
411.996533395589
 30
0.0
 10
165.9197799686124
 20
411.9775618471767
 30
0.0
 10
165.9222482889687
 20
411.9589335356089
 30
0.0
  0
SPLINE
  5
80
330
1F
100
AcDbEntity
  8
0
  6
Continuous
 62
     7
370
    15
100
AcDbSpline
210
0.0
220
0.0
230
1.0
 70
     8
 71
     3
 72
    11
 73
     7
 74
     0
 42
0.00000001
 43
0.00000001
 40
0.0
 40
0.0
 40
0.0
 40
0.0
 40
0.2483001864241879
 40
0.5810092929053338
 40
0.9160340266222907
 40
1.0
 40
1.0
 40
1.0
 40
1.0
 10
189.9675284998148
 20
395.1630773524378
 30
0.0
 10
189.9237758866435
 20
395.1076866317353
 30
0.0
 10
189.8213970877891
 20
394.9780752773003
 30
0.0
 10
189.7258594657612
 20
394.7675072266103
 30
0.0
 10
189.6773050620967
 20
394.5920132174926
 30
0.0
 10
189.6867241338871
 20
394.4917645518183
 30
0.0
 10
189.688611721172
 20
394.4716746628288
 30
0.0
  0
LWPOLYLINE
  5
81
330
1F
100
AcDbEntity
  8
0
  6
Continuous
 62
     7
370
    15
100
AcDbPolyline
 90
       40
 70
   128
 43
0.0
 10
208.1375912163
 20
394.1239158742
 10
208.0180962198
 20
394.6301778989
 10
207.662706088
 20
395.123328003
 10
207.0806252386
 20
395.5905938579
 10
206.2869292598
 20
396.0198735235
 10
205.3021744607
 20
396.4000488819
 10
204.1518654732
 20
396.7212735909
 10
202.8657946959
 20
396.9752280995
 10
201.4772706863
 20
397.1553351191
 10
200.022255487
 20
397.2569299726
 10
198.5384332273
 20
397.2773814067
 10
197.0642341244
 20
397.2161597399
 10
195.6378391606
 20
397.0748505813
 10
194.2961912163
 20
396.8571137638
 10
193.0740382684
 20
396.5685885566
 10
192.0030334364
 20
396.2167476111
 10
191.1109151829
 20
395.810703423
 10
190.4207889019
 20
395.3609723233
 10
189.9505285018
 20
394.8792021115
 10
189.7123134797
 20
394.3778703828
 10
189.7123134797
 20
393.8699613657
 10
189.9505285018
 20
393.368629637
 10
190.4207889019
 20
392.8868594251
 10
191.1109151829
 20
392.4371283255
 10
192.0030334364
 20
392.0310841373
 10
193.0740382684
 20
391.6792431918
 10
194.2961912163
 20
391.3907179847
 10
195.6378391606
 20
391.1729811672
 10
197.0642341244
 20
391.0316720086
 10
198.5384332273
 20
390.9704503418
 10
200.022255487
 20
390.9909017758
 10
201.4772706863
 20
391.0924966294
 10
202.8657946959
 20
391.272603649
 10
204.1518654732
 20
391.5265581575
 10
205.3021744607
 20
391.8477828666
 10
206.2869292598
 20
392.227958225
 10
207.0806252386
 20
392.6572378905
 10
207.662706088
 20
393.1245037455
 10
208.0180962198
 20
393.6176538496
 10
208.1375912163
 20
394.1239158742
  0
LWPOLYLINE
  5
82
330
1F
100
AcDbEntity
  8
0
  6
Continuous
 62
     7
370
    15
100
AcDbPolyline
 90
       30
 70
   128
 43
0.0
 10
204.3613051398
 20
396.2982924811
 10
205.3464017386
 20
395.9564110845
 10
206.1507418208
 20
395.5630669278
 10
206.7517367541
 20
395.1293064661
 10
207.1325085364
 20
394.667311183
 10
207.2823637879
 20
394.1900554931
 10
207.1970940586
 20
393.7109423755
 10
206.8790940152
 20
393.2434269723
 10
206.3372941915
 20
392.800638722
 10
205.5869101874
 20
392.3950126395
 10
204.6490153634
 20
392.0379400987
 10
203.5499490278
 20
391.7394489229
 10
202.3205767386
 20
391.5079217698
 10
200.9954234926
 20
391.3498607171
 10
199.6117041448
 20
391.269704662
 10
198.2082782876
 20
391.269704662
 10
196.8245589399
 20
391.3498607171
 10
195.4994056939
 20
391.5079217698
 10
194.2700334047
 20
391.7394489229
 10
193.1709670691
 20
392.0379400987
 10
192.2330722451
 20
392.3950126395
 10
191.482688241
 20
392.800638722
 10
190.9408884173
 20
393.2434269723
 10
190.6228883739
 20
393.7109423755
 10
190.5376186446
 20
394.1900554931
 10
190.6874738961
 20
394.667311183
 10
191.0682456784
 20
395.1293064661
 10
191.6692406117
 20
395.5630669278
 10
192.4735806939
 20
395.9564110845
 10
193.4586772927
 20
396.2982924811
  0
SPLINE
  5
83
330
1F
100
AcDbEntity
  8
0
  6
Continuous
 62
     7
370
    15
100
AcDbSpline
210
0.0
220
0.0
230
1.0
 70
     8
 71
     3
 72
    20
 73
    16
 74
     0
 42
0.00000001
 43
0.00000001
 40
0.0
 40
0.0
 40
0.0
 40
0.0
 40
0.1250000000000009
 40
0.1250000000000009
 40
0.2500000000000019
 40
0.2500000000000019
 40
0.5000000000000034
 40
0.5000000000000034
 40
0.6250000000000026
 40
0.6250000000000026
 40
0.7500000000000017
 40
0.7500000000000017
 40
0.8750000000000009
 40
0.8750000000000009
 40
1.0
 40
1.0
 40
1.0
 40
1.0
 10
198.909984343921
 20
397.1619536576627
 30
0.0
 10
199.1701318999889
 20
397.1629509907791
 30
0.0
 10
199.4304254307725
 20
397.1598459951405
 30
0.0
 10
199.9513183252196
 20
397.1450411796683
 30
0.0
 10
200.2128633969819
 20
397.1332488370676
 30
0.0
 10
200.9828996778626
 20
397.0847924558211
 30
0.0
 10
201.4812082699182
 20
397.0353477300342
 30
0.0
 10
202.2013468247387
 20
396.9300586941723
 30
0.0
 10
202.4381050828211
 20
396.8893676590552
 30
0.0
 10
202.8880143856611
 20
396.7983606337095
 30
0.0
 10
203.1024651442821
 20
396.7479255085381
 30
0.0
 10
203.5087709747298
 20
396.6364465083208
 30
0.0
 10
203.7019197055633
 20
396.5749049562084
 30
0.0
 10
204.0570202779239
 20
396.442448603743
 30
0.0
 10
204.217420789369
 20
396.3722718765279
 30
0.0
 10
204.3613051398175
 20
396.2982924810719
 30
0.0
  0
SPLINE
  5
84
330
1F
100
AcDbEntity
  8
0
  6
Continuous
 62
     7
370
    15
100
AcDbSpline
210
0.0
220
0.0
230
1.0
 70
     8
 71
     3
 72
    18
 73
    14
 74
     0
 42
0.00000001
 43
0.00000001
 40
0.0
 40
0.0
 40
0.0
 40
0.0
 40
0.2500000000000008
 40
0.2500000000000008
 40
0.5000000000000016
 40
0.5000000000000016
 40
0.6250000000000011
 40
0.6250000000000011
 40
0.7500000000000008
 40
0.7500000000000008
 40
0.8750000000000003
 40
0.8750000000000003
 40
1.0
 40
1.0
 40
1.0
 40
1.0
 10
193.4586772926945
 20
396.2982924810775
 30
0.0
 10
193.7472833944401
 20
396.4466818289486
 30
0.0
 10
194.097537405223
 20
396.5774954083855
 30
0.0
 10
194.9196854060181
 20
396.8037151882493
 30
0.0
 10
195.3702633491474
 20
396.8935609360971
 30
0.0
 10
196.0946640275656
 20
396.999747692438
 30
0.0
 10
196.3424865285206
 20
397.0299955468107
 30
0.0
 10
196.8417484646484
 20
397.0805221964817
 30
0.0
 10
197.094402828676
 20
397.1009773894696
 30
0.0
 10
197.6052144263398
 20
397.1331365159562
 30
0.0
 10
197.8633744720767
 20
397.1448359773477
 30
0.0
 10
198.3850168699551
 20
397.159770791812
 30
0.0
 10
198.6483487370204
 20
397.1629566021873
 30
0.0
 10
198.9099843404547
 20
397.1619537103654
 30
0.0
  0
SPLINE
  5
85
330
1F
100
AcDbEntity
  8
0
  6
Continuous
 62
     7
370
    15
100
AcDbSpline
210
0.0
220
0.0
230
1.0
 70
     8
 71
     3
 72
    25
 73
    21
 74
     0
 42
0.00000001
 43
0.00000001
 40
0.0
 40
0.0
 40
0.0
 40
0.0
 40
0.0367685772806479
 40
0.0921797000153884
 40
0.1479805307942897
 40
0.2050102128105863
 40
0.262463801884477
 40
0.3175750128812859
 40
0.373064236009525
 40
0.4297368283913144
 40
0.4868145320897336
 40
0.5425033930908634
 40
0.598570553075968
 40
0.6558224600705537
 40
0.713480543884378
 40
0.7699775777760742
 40
0.8268615694464951
 40
0.8849629566493715
 40
0.9434840401525855
 40
0.9999999999999999
 40
0.9999999999999999
 40
0.9999999999999999
 40
0.9999999999999999
 10
190.5000387396868
 20
394.1018807222458
 30
0.0
 10
190.5139598292743
 20
394.053844625987
 30
0.0
 10
190.5488603328283
 20
393.9334169872114
 30
0.0
 10
190.6720084831915
 20
393.7382993430522
 30
0.0
 10
190.8593632821619
 20
393.5169371037478
 30
0.0
 10
191.1082304269474
 20
393.2946064618104
 30
0.0
 10
191.4108434545843
 20
393.0768957475583
 30
0.0
 10
191.762584335564
 20
392.8667312004979
 30
0.0
 10
192.160701911611
 20
392.6648942945445
 30
0.0
 10
192.6098964746359
 20
392.4702188556207
 30
0.0
 10
193.1033677493671
 20
392.2870337659236
 30
0.0
 10
193.6346729563348
 20
392.1180316181534
 30
0.0
 10
194.2021132953387
 20
391.9640292949256
 30
0.0
 10
194.8086442915742
 20
391.8254565255333
 30
0.0
 10
195.445351565262
 20
391.7055505196104
 30
0.0
 10
196.1045631094906
 20
391.6060706563475
 30
0.0
 10
196.7847455134208
 20
391.5272675696681
 30
0.0
 10
197.4879456655271
 20
391.4703459822323
 30
0.0
 10
198.1997937586427
 20
391.4350424131558
 30
0.0
 10
198.6760256764198
 20
391.4309246897208
 30
0.0
 10
198.9099912162079
 20
391.428901714464
 30
0.0
  0
SPLINE
  5
86
330
1F
100
AcDbEntity
  8
0
  6
Continuous
 62
     7
370
    15
100
AcDbSpline
210
0.0
220
0.0
230
1.0
 70
     8
 71
     3
 72
    24
 73
    20
 74
     0
 42
0.00000001
 43
0.00000001
 40
0.0
 40
0.0
 40
0.0
 40
0.0
 40
0.0143512554511964
 40
0.0754581033100223
 40
0.1369862543584634
 40
0.19984286965235
 40
0.263158729094878
 40
0.3244613000685867
 40
0.3861920832327421
 40
0.4492798338140039
 40
0.5128396459701376
 40
0.5737735176922301
 40
0.6351386446439193
 40
0.6978749620336667
 40
0.7610900078941136
 40
0.8211742088479492
 40
0.8816843490142665
 40
0.9435440489220163
 40
1.0
 40
1.0
 40
1.0
 40
1.0
 10
198.9099912162935
 20
391.428901714464
 30
0.0
 10
198.9651756243505
 20
391.4290050404661
 30
0.0
 10
199.2553321739584
 20
391.4295483228407
 30
0.0
 10
199.7817924956818
 20
391.4419413728694
 30
0.0
 10
200.4885016481392
 20
391.4807780520467
 30
0.0
 10
201.1924999768203
 20
391.5432765429426
 30
0.0
 10
201.8792305899707
 20
391.6284029094942
 30
0.0
 10
202.5407530501555
 20
391.7344947701666
 30
0.0
 10
203.1760939023027
 20
391.8605289904785
 30
0.0
 10
203.788461600445
 20
392.0073230974422
 30
0.0
 10
204.3626357467072
 20
392.1712519801649
 30
0.0
 10
204.892518269515
 20
392.3491011194218
 30
0.0
 10
205.3780925402273
 20
392.539356983935
 30
0.0
 10
205.8228845209891
 20
392.7434293250658
 30
0.0
 10
206.2138614741534
 20
392.9554516613159
 30
0.0
 10
206.548460806013
 20
393.1717910770904
 30
0.0
 10
206.826196255499
 20
393.3912353562091
 30
0.0
 10
207.048886591614
 20
393.6091562561904
 30
0.0
 10
207.1477517656861
 20
393.7539372574929
 30
0.0
 10
207.1949266523916
 20
393.8230215169163
 30
0.0
  0
LWPOLYLINE
  5
87
330
1F
100
AcDbEntity
  8
0
  6
Continuous
 62
     7
370
    15
100
AcDbPolyline
 90
        8
 70
   128
 43
0.0
 10
232.0000426114
 20
416.4270246537
 10
232.0258701029
 20
415.5978730304
 10
232.0381274484
 20
414.3596851351
 10
232.0211861478
 20
413.3890223807
 10
231.9750770873
 20
412.5904503964
 10
231.9055432903
 20
412.0143475037
 10
231.9055422963
 20
412.0143415069
 10
231.9055422963
 20
412.0143415069
  0
ARC
  5
88
330
1F
100
AcDbEntity
  8
0
  6
Continuous
 62
     7
370
    15
100
AcDbCircle
 10
183.7254030559
 20
414.3680348315
 30
0.0
 40
17.96580842579978
100
AcDbArc
 50
176.5192866361
 51
187.5279369577
  0
LINE
  5
89
330
1F
100
AcDbEntity
  8
0
  6
Continuous
 62
     7
370
    15
100
AcDbLine
 10
222.3740408283
 20
319.0588791248
 30
0.0
 11
175.4459416042
 21
319.0588791248
 31
0.0
  0
SPLINE
  5
8A
330
1F
100
AcDbEntity
  8
0
  6
Continuous
 62
     7
370
    15
100
AcDbSpline
210
0.0
220
0.0
230
1.0
 70
     8
 71
     3
 72
    11
 73
     7
 74
     0
 42
0.00000001
 43
0.00000001
 40
0.0
 40
0.0
 40
0.0
 40
0.0
 40
0.3018427983122129
 40
0.6036858738704172
 40
0.9055292265385733
 40
1.0
 40
1.0
 40
1.0
 40
1.0
 10
198.9099232082039
 20
459.2655615636589
 30
0.0
 10
198.9098571272996
 20
459.3426066504541
 30
0.0
 10
198.9097249654304
 20
459.4966968948111
 30
0.0
 10
198.9096269988953
 20
459.6348717441833
 30
0.0
 10
198.909587333158
 20
459.7010774563665
 30
0.0
 10
198.9095921423157
 20
459.6908953956771
 30
0.0
 10
198.9095932886913
 20
459.6884682625386
 30
0.0
  0
LINE
  5
8B
330
1F
100
AcDbEntity
  8
0
  6
Continuous
 62
     7
370
    15
100
AcDbLine
 10
175.4459416042
 20
319.0588791248
 30
0.0
 11
174.2554656935
 21
319.0588791248
 31
0.0
  0
LINE
  5
8C
330
1F
100
AcDbEntity
  8
0
  6
Continuous
 62
     7
370
    15
100
AcDbLine
 10
223.5645167408
 20
319.0588791248
 30
0.0
 11
222.3740408283
 21
319.0588791248
 31
0.0
  0
SPLINE
  5
8D
330
1F
100
AcDbEntity
  8
0
  6
Continuous
 62
     8
370
    15
100
AcDbSpline
210
0.0
220
0.0
230
1.0
 70
     8
 71
     3
 72
    38
 73
    34
 74
     0
 42
0.00000001
 43
0.00000001
 40
0.0
 40
0.0
 40
0.0
 40
0.0
 40
0.0625000000000001
 40
0.0625000000000001
 40
0.1250000000000001
 40
0.1250000000000001
 40
0.1875000000000002
 40
0.1875000000000002
 40
0.2500000000000002
 40
0.2500000000000002
 40
0.3125000000000003
 40
0.3125000000000003
 40
0.3750000000000003
 40
0.3750000000000003
 40
0.4062500000000004
 40
0.4062500000000004
 40
0.4375000000000005
 40
0.4375000000000005
 40
0.5000000000000007
 40
0.5000000000000007
 40
0.5312500000000007
 40
0.5312500000000007
 40
0.5625000000000008
 40
0.5625000000000008
 40
0.6250000000000007
 40
0.6250000000000007
 40
0.6875000000000004
 40
0.6875000000000004
 40
0.7500000000000003
 40
0.7500000000000003
 40
0.8750000000000002
 40
0.8750000000000002
 40
1.0
 40
1.0
 40
1.0
 40
1.0
 10
170.2691676640919
 20
411.0676221400869
 30
0.0
 10
170.4248735228735
 20
411.0653287992628
 30
0.0
 10
170.5898996211932
 20
411.0528874689182
 30
0.0
 10
170.9388263762773
 20
411.0228754250139
 30
0.0
 10
171.1224064373791
 20
411.0058070626735
 30
0.0
 10
171.5121714042227
 20
410.9679761482719
 30
0.0
 10
171.7177573649205
 20
410.9456935233804
 30
0.0
 10
172.1686666243292
 20
410.8987859770449
 30
0.0
 10
172.4155326240837
 20
410.8743936348874
 30
0.0
 10
172.9874478311621
 20
410.8197489382569
 30
0.0
 10
173.311066302309
 20
410.789528616799
 30
0.0
 10
174.0579452795506
 20
410.7270416894395
 30
0.0
 10
174.4823138191821
 20
410.6944053738075
 30
0.0
 10
175.2242984558264
 20
410.649094897946
 30
0.0
 10
175.4909768521059
 20
410.6345803290167
 30
0.0
 10
176.0547228967595
 20
410.6093045049338
 30
0.0
 10
176.3512081818853
 20
410.5988113432258
 30
0.0
 10
177.2848744444001
 20
410.5747846609557
 30
0.0
 10
177.9672654685639
 20
410.5682353205348
 30
0.0
 10
179.0672363449032
 20
410.5659737731839
 30
0.0
 10
179.4450788318727
 20
410.566393239676
 30
0.0
 10
180.2099207367556
 20
410.5685497731898
 30
0.0
 10
180.598427465514
 20
410.570298374999
 30
0.0
 10
181.7794263550475
 20
410.5770852745216
 30
0.0
 10
182.5872010245703
 20
410.5839442756478
 30
0.0
 10
184.2364089115937
 20
410.5982016485266
 30
0.0
 10
185.0802326350819
 20
410.6049614685732
 30
0.0
 10
186.7782861246946
 20
410.6158463700301
 30
0.0
 10
187.6340874920835
 20
410.6195397181509
 30
0.0
 10
190.2170968334853
 20
410.6277717383601
 30
0.0
 10
191.9486787368117
 20
410.6318977569377
 30
0.0
 10
195.4227554705003
 20
410.6373132435256
 30
0.0
 10
197.1666297505862
 20
410.6352758527818
 30
0.0
 10
198.9097246469211
 20
410.6350426926128
 30
0.0
  0
SPLINE
  5
8E
330
1F
100
AcDbEntity
  8
0
  6
Continuous
 62
     8
370
     0
100
AcDbSpline
210
0.0
220
0.0
230
1.0
 70
     8
 71
     3
 72
    38
 73
    34
 74
     0
 42
0.00000001
 43
0.00000001
 40
0.0
 40
0.0
 40
0.0
 40
0.0
 40
0.1250000000000001
 40
0.1250000000000001
 40
0.2500000000000001
 40
0.2500000000000001
 40
0.3125000000000001
 40
0.3125000000000001
 40
0.3750000000000002
 40
0.3750000000000002
 40
0.4375000000000003
 40
0.4375000000000003
 40
0.5000000000000004
 40
0.5000000000000004
 40
0.5625000000000004
 40
0.5625000000000004
 40
0.5937500000000008
 40
0.5937500000000008
 40
0.6250000000000012
 40
0.6250000000000012
 40
0.687500000000001
 40
0.687500000000001
 40
0.7500000000000008
 40
0.7500000000000008
 40
0.8125000000000006
 40
0.8125000000000006
 40
0.8750000000000004
 40
0.8750000000000004
 40
0.9375000000000002
 40
0.9375000000000002
 40
0.9687500000000001
 40
0.9687500000000001
 40
1.0
 40
1.0
 40
1.0
 40
1.0
 10
198.90870896179
 20
412.9973097891381
 30
0.0
 10
197.2211824132138
 20
412.9969521608158
 30
0.0
 10
195.5328059969222
 20
412.9998870725377
 30
0.0
 10
192.1694890471114
 20
412.9954238346667
 30
0.0
 10
190.4937105200273
 20
412.9908643880442
 30
0.0
 10
187.9929657712722
 20
412.9820087198465
 30
0.0
 10
187.1640673024776
 20
412.9785525856109
 30
0.0
 10
185.520062333989
 20
412.9694706132802
 30
0.0
 10
184.7024652129037
 20
412.9639518856255
 30
0.0
 10
183.1041217194583
 20
412.9506940939508
 30
0.0
 10
182.3220850429501
 20
412.94268003791
 30
0.0
 10
180.7998226468163
 20
412.9225241050254
 30
0.0
 10
180.0579733080224
 20
412.9102009677313
 30
0.0
 10
178.6377100332419
 20
412.8851500959523
 30
0.0
 10
177.9789687956917
 20
412.8735411440052
 30
0.0
 10
177.0839837197219
 20
412.8571654353672
 30
0.0
 10
176.8008371538858
 20
412.8518558019977
 30
0.0
 10
176.2640896805275
 20
412.8424640459343
 30
0.0
 10
176.0110704992207
 20
412.8383736459404
 30
0.0
 10
175.307222401883
 20
412.8282943186901
 30
0.0
 10
174.9048856710456
 20
412.8243397295477
 30
0.0
 10
174.1926397135913
 20
412.821565229514
 30
0.0
 10
173.881663800881
 20
412.8225811316015
 30
0.0
 10
173.32671201599
 20
412.8267122701814
 30
0.0
 10
173.0834065072871
 20
412.8299824533419
 30
0.0
 10
172.6338827229702
 20
412.8375325670893
 30
0.0
 10
172.4261124923368
 20
412.8413334512853
 30
0.0
 10
172.0307069953865
 20
412.8495747099503
 30
0.0
 10
171.843420878625
 20
412.8543793593453
 30
0.0
 10
171.5804905400365
 20
412.8625450227045
 30
0.0
 10
171.4963758263465
 20
412.8657340650495
 30
0.0
 10
171.3376812863634
 20
412.8717441694649
 30
0.0
 10
171.2622366022288
 20
412.8734433314505
 30
0.0
 10
171.1866754338174
 20
412.8726440637911
 30
0.0
  0
SPLINE
  5
8F
330
1F
100
AcDbEntity
  8
0
  6
Continuous
 62
     8
370
     0
100
AcDbSpline
210
0.0
220
0.0
230
1.0
 70
     8
 71
     3
 72
    38
 73
    34
 74
     0
 42
0.00000001
 43
0.00000001
 40
0.0
 40
0.0
 40
0.0
 40
0.0
 40
0.1249999999999984
 40
0.1249999999999984
 40
0.2499999999999968
 40
0.2499999999999968
 40
0.312499999999996
 40
0.312499999999996
 40
0.3749999999999952
 40
0.3749999999999952
 40
0.4374999999999946
 40
0.4374999999999946
 40
0.4999999999999941
 40
0.4999999999999941
 40
0.5624999999999937
 40
0.5624999999999937
 40
0.5937499999999937
 40
0.5937499999999937
 40
0.6249999999999937
 40
0.6249999999999937
 40
0.6874999999999946
 40
0.6874999999999946
 40
0.7499999999999954
 40
0.7499999999999954
 40
0.8124999999999963
 40
0.8124999999999963
 40
0.8749999999999971
 40
0.8749999999999971
 40
0.937499999999998
 40
0.937499999999998
 40
0.968749999999999
 40
0.968749999999999
 40
1.0
 40
1.0
 40
1.0
 40
1.0
 10
198.9112734707114
 20
412.9973097891381
 30
0.0
 10
200.5988000192876
 20
412.9969521608159
 30
0.0
 10
202.2871764355792
 20
412.9998870725377
 30
0.0
 10
205.65049338539
 20
412.9954238346666
 30
0.0
 10
207.3262719124741
 20
412.9908643880441
 30
0.0
 10
209.8270166612292
 20
412.9820087198466
 30
0.0
 10
210.6559151300238
 20
412.9785525856108
 30
0.0
 10
212.2999200985124
 20
412.9694706132802
 30
0.0
 10
213.1175172195977
 20
412.9639518856255
 30
0.0
 10
214.7158607130431
 20
412.9506940939508
 30
0.0
 10
215.4978973895514
 20
412.9426800379101
 30
0.0
 10
217.0201597856851
 20
412.9225241050254
 30
0.0
 10
217.7620091244791
 20
412.9102009677313
 30
0.0
 10
219.1822723992595
 20
412.8851500959523
 30
0.0
 10
219.8410136368097
 20
412.8735411440052
 30
0.0
 10
220.7359987127795
 20
412.8571654353672
 30
0.0
 10
221.0191452786157
 20
412.8518558019977
 30
0.0
 10
221.555892751974
 20
412.8424640459343
 30
0.0
 10
221.8089119332808
 20
412.8383736459404
 30
0.0
 10
222.5127600306184
 20
412.82829431869
 30
0.0
 10
222.9150967614559
 20
412.8243397295476
 30
0.0
 10
223.6273427189102
 20
412.8215652295139
 30
0.0
 10
223.9383186316205
 20
412.8225811316014
 30
0.0
 10
224.4932704165115
 20
412.8267122701814
 30
0.0
 10
224.7365759252143
 20
412.8299824533419
 30
0.0
 10
225.1860997095312
 20
412.8375325670893
 30
0.0
 10
225.3938699401647
 20
412.8413334512853
 30
0.0
 10
225.789275437115
 20
412.8495747099502
 30
0.0
 10
225.9765615538765
 20
412.8543793593453
 30
0.0
 10
226.2394918924648
 20
412.8625450227045
 30
0.0
 10
226.3236066061548
 20
412.8657340650495
 30
0.0
 10
226.482301146138
 20
412.8717441694648
 30
0.0
 10
226.5577458336954
 20
412.8734432450334
 30
0.0
 10
226.633306998684
 20
412.8726440637911
 30
0.0
  0
SPLINE
  5
90
330
1F
100
AcDbEntity
  8
0
  6
Continuous
 62
     8
370
    15
100
AcDbSpline
210
0.0
220
0.0
230
1.0
 70
     8
 71
     3
 72
    38
 73
    34
 74
     0
 42
0.00000001
 43
0.00000001
 40
0.0
 40
0.0
 40
0.0
 40
0.0
 40
0.0625000000000008
 40
0.0625000000000008
 40
0.1250000000000016
 40
0.1250000000000016
 40
0.1875000000000023
 40
0.1875000000000023
 40
0.2500000000000031
 40
0.2500000000000031
 40
0.3125000000000039
 40
0.3125000000000039
 40
0.3750000000000047
 40
0.3750000000000047
 40
0.4062500000000047
 40
0.4062500000000047
 40
0.4375000000000047
 40
0.4375000000000047
 40
0.5000000000000044
 40
0.5000000000000044
 40
0.5312500000000041
 40
0.5312500000000041
 40
0.5625000000000039
 40
0.5625000000000039
 40
0.6250000000000033
 40
0.6250000000000033
 40
0.6875000000000028
 40
0.6875000000000028
 40
0.7500000000000022
 40
0.7500000000000022
 40
0.8750000000000011
 40
0.8750000000000011
 40
1.0
 40
1.0
 40
1.0
 40
1.0
 10
227.5508147684095
 20
411.0676221400869
 30
0.0
 10
227.3951089096279
 20
411.0653287992628
 30
0.0
 10
227.2300828113082
 20
411.0528874689183
 30
0.0
 10
226.8811560562241
 20
411.022875425014
 30
0.0
 10
226.6975759951223
 20
411.0058070626735
 30
0.0
 10
226.3078110282787
 20
410.9679761482718
 30
0.0
 10
226.1022250675809
 20
410.9456935233805
 30
0.0
 10
225.6513158081722
 20
410.8987859770449
 30
0.0
 10
225.4044498084177
 20
410.8743936348873
 30
0.0
 10
224.8325346013393
 20
410.8197489382569
 30
0.0
 10
224.5089161301924
 20
410.7895286167991
 30
0.0
 10
223.7620371529508
 20
410.7270416894393
 30
0.0
 10
223.3376686133194
 20
410.6944053738076
 30
0.0
 10
222.5956839766751
 20
410.6490948979462
 30
0.0
 10
222.3290055803956
 20
410.6345803290168
 30
0.0
 10
221.765259535742
 20
410.609304504934
 30
0.0
 10
221.4687742506161
 20
410.5988113432259
 30
0.0
 10
220.5351079881013
 20
410.5747846609559
 30
0.0
 10
219.8527169639374
 20
410.5682353205345
 30
0.0
 10
218.7527460875983
 20
410.5659737731838
 30
0.0
 10
218.3749036006287
 20
410.5663932396761
 30
0.0
 10
217.6100616957459
 20
410.56854977319
 30
0.0
 10
217.2215549669874
 20
410.5702983749989
 30
0.0
 10
216.0405560774539
 20
410.5770852745216
 30
0.0
 10
215.2327814079312
 20
410.5839442756479
 30
0.0
 10
213.5835735209077
 20
410.5982016485267
 30
0.0
 10
212.7397497974195
 20
410.6049614685732
 30
0.0
 10
211.0416963078067
 20
410.6158463700302
 30
0.0
 10
210.1858949404179
 20
410.6195397181508
 30
0.0
 10
207.6028855990161
 20
410.6277717383602
 30
0.0
 10
205.8713036956897
 20
410.6318977569375
 30
0.0
 10
202.3972269620012
 20
410.6373132435254
 30
0.0
 10
200.6533526819153
 20
410.6352758527818
 30
0.0
 10
198.9102577855803
 20
410.6350426926128
 30
0.0
  0
LINE
  5
91
330
1F
100
AcDbEntity
  8
0
  6
Continuous
 62
     8
370
     0
100
AcDbLine
 10
198.9099912163
 20
412.9973100887
 30
0.0
 11
198.9112734694
 21
412.997310422
 31
0.0
  0
LINE
  5
92
330
1F
100
AcDbEntity
  8
0
  6
Continuous
 62
     8
370
     0
100
AcDbLine
 10
198.9099912163
 20
412.9973100887
 30
0.0
 11
198.9087089631
 21
412.997310422
 31
0.0
  0
SPLINE
  5
93
330
1F
100
AcDbEntity
  8
0
  6
Continuous
 62
     8
370
     0
100
AcDbSpline
210
0.0
220
0.0
230
1.0
 70
     8
 71
     3
 72
     8
 73
     4
 74
     0
 42
0.00000001
 43
0.00000001
 40
0.0
 40
0.0
 40
0.0
 40
0.0
 40
0.0002359670260062
 40
0.0002359670260062
 40
0.0002359670260062
 40
0.0002359670260062
 10
170.2272061417878
 20
411.0679919459449
 30
0.0
 10
170.2411586345751
 20
411.0677571986325
 30
0.0
 10
170.2551660672127
 20
411.0675344933945
 30
0.0
 10
170.2692291881987
 20
411.0673258948111
 30
0.0
  0
SPLINE
  5
94
330
1F
100
AcDbEntity
  8
0
  6
Continuous
 62
     8
370
     0
100
AcDbSpline
210
0.0
220
0.0
230
1.0
 70
     8
 71
     3
 72
     8
 73
     4
 74
     0
 42
0.00000001
 43
0.00000001
 40
0.0
 40
0.0
 40
0.0
 40
0.0
 40
0.0002359670260062
 40
0.0002359670260062
 40
0.0002359670260062
 40
0.0002359670260062
 10
227.5927762907137
 20
411.0679919459449
 30
0.0
 10
227.5788237979264
 20
411.0677571986325
 30
0.0
 10
227.5648163652887
 20
411.0675344933945
 30
0.0
 10
227.5507532443027
 20
411.0673258948111
 30
0.0
  0
SPLINE
  5
95
330
1F
100
AcDbEntity
  8
0
  6
Continuous
 62
     8
370
    15
100
AcDbSpline
210
0.0
220
0.0
230
1.0
 70
     8
 71
     3
 72
    24
 73
    20
 74
     0
 42
0.00000001
 43
0.00000001
 40
0.0
 40
0.0
 40
0.0
 40
0.0
 40
0.0625000000000001
 40
0.0625000000000001
 40
0.1250000000000002
 40
0.1250000000000002
 40
0.2500000000000001
 40
0.2500000000000001
 40
0.3750000000000003
 40
0.3750000000000003
 40
0.5000000000000004
 40
0.5000000000000004
 40
0.7500000000000008
 40
0.7500000000000008
 40
0.8750000000000007
 40
0.8750000000000007
 40
0.9375000000000003
 40
0.9375000000000003
 40
1.0
 40
1.0
 40
1.0
 40
1.0
 10
231.8976491322614
 20
411.9582883205504
 30
0.0
 10
231.8825919505384
 20
411.8446700366877
 30
0.0
 10
231.8681182286204
 20
411.7353296846089
 30
0.0
 10
231.8308864528721
 20
411.5483817159162
 30
0.0
 10
231.8086273133133
 20
411.4702205663722
 30
0.0
 10
231.7292340860254
 20
411.276168752967
 30
0.0
 10
231.660209904281
 20
411.1980776707459
 30
0.0
 10
231.4830076976051
 20
411.0915412638197
 30
0.0
 10
231.3748045448413
 20
411.0669159969654
 30
0.0
 10
231.1217984300171
 20
411.044278680246
 30
0.0
 10
230.9769321431068
 20
411.0443922064076
 30
0.0
 10
230.479924613908
 20
411.0484880780131
 30
0.0
 10
230.0672753270882
 20
411.0636031632428
 30
0.0
 10
229.279921381923
 20
411.0788471191634
 30
0.0
 10
228.989475068449
 20
411.0823746838884
 30
0.0
 10
228.5062053743324
 20
411.0823478421836
 30
0.0
 10
228.3373414867905
 20
411.08165989646
 30
0.0
 10
227.9803352680493
 20
411.0768313961577
 30
0.0
 10
227.7921075948439
 20
411.0713456468671
 30
0.0
 10
227.5927762907137
 20
411.067991945945
 30
0.0
  0
SPLINE
  5
96
330
1F
100
AcDbEntity
  8
0
  6
Continuous
 62
     8
370
    15
100
AcDbSpline
210
0.0
220
0.0
230
1.0
 70
     8
 71
     3
 72
    24
 73
    20
 74
     0
 42
0.00000001
 43
0.00000001
 40
0.0
 40
0.0
 40
0.0
 40
0.0
 40
0.0625000000000001
 40
0.0625000000000001
 40
0.1250000000000002
 40
0.1250000000000002
 40
0.2500000000000002
 40
0.2500000000000002
 40
0.3750000000000002
 40
0.3750000000000002
 40
0.5000000000000002
 40
0.5000000000000002
 40
0.7500000000000002
 40
0.7500000000000002
 40
0.8750000000000004
 40
0.8750000000000004
 40
0.9375000000000002
 40
0.9375000000000002
 40
1.0
 40
1.0
 40
1.0
 40
1.0
 10
165.92233330024
 20
411.9582883205504
 30
0.0
 10
165.937390481963
 20
411.8446700366877
 30
0.0
 10
165.951864203881
 20
411.735329684609
 30
0.0
 10
165.9890959796293
 20
411.5483817159163
 30
0.0
 10
166.0113551191881
 20
411.4702205663725
 30
0.0
 10
166.090748346476
 20
411.2761687529674
 30
0.0
 10
166.1597725282205
 20
411.1980776707458
 30
0.0
 10
166.3369747348963
 20
411.0915412638199
 30
0.0
 10
166.4451778876602
 20
411.0669159969654
 30
0.0
 10
166.6981840024843
 20
411.0442786802461
 30
0.0
 10
166.8430502893947
 20
411.0443922064075
 30
0.0
 10
167.3400578185934
 20
411.0484880780131
 30
0.0
 10
167.7527071054132
 20
411.0636031632426
 30
0.0
 10
168.5400610505785
 20
411.0788471191631
 30
0.0
 10
168.8305073640524
 20
411.0823746838883
 30
0.0
 10
169.313777058169
 20
411.0823478421836
 30
0.0
 10
169.482640945711
 20
411.0816598964599
 30
0.0
 10
169.8396471644521
 20
411.0768313961577
 30
0.0
 10
170.0278748376576
 20
411.071345646867
 30
0.0
 10
170.2272061417878
 20
411.067991945945
 30
0.0
  0
SPLINE
  5
97
330
1F
100
AcDbEntity
  8
0
  6
Continuous
 62
     8
370
     0
100
AcDbSpline
210
0.0
220
0.0
230
1.0
 70
     8
 71
     3
 72
    11
 73
     7
 74
     0
 42
0.00000001
 43
0.00000001
 40
-0.00000006018
 40
-0.00000006018
 40
-0.00000006018
 40
-0.00000006018
 40
0.0
 40
0.0
 40
0.0
 40
0.0002337405267701
 40
0.0002337405267701
 40
0.0002337405267701
 40
0.0002337405267701
 10
171.1865370323583
 20
412.8722878792342
 30
0.0
 10
171.1865334031461
 20
412.8722878256121
 30
0.0
 10
171.1865297739382
 20
412.8722877719903
 30
0.0
 10
171.1865261447344
 20
412.8722877183704
 30
0.0
 10
171.1724302321906
 20
412.8720794572459
 30
0.0
 10
171.1583967011641
 20
412.8718912392432
 30
0.0
 10
171.1444243557126
 20
412.8717206460135
 30
0.0
  0
SPLINE
  5
98
330
1F
100
AcDbEntity
  8
0
  6
Continuous
 62
     8
370
     0
100
AcDbSpline
210
0.0
220
0.0
230
1.0
 70
     8
 71
     3
 72
    11
 73
     7
 74
     0
 42
0.00000001
 43
0.00000001
 40
-0.00000006018
 40
-0.00000006018
 40
-0.00000006018
 40
-0.00000006018
 40
0.0
 40
0.0
 40
0.0
 40
0.0002337405267701
 40
0.0002337405267701
 40
0.0002337405267701
 40
0.0002337405267701
 10
226.6334454001431
 20
412.8722878792342
 30
0.0
 10
226.6334490293513
 20
412.8722878256133
 30
0.0
 10
226.6334526585632
 20
412.8722877719903
 30
0.0
 10
226.633456287767
 20
412.8722877183704
 30
0.0
 10
226.6475522003108
 20
412.8720794572459
 30
0.0
 10
226.6615857313374
 20
412.8718912392432
 30
0.0
 10
226.6755580767889
 20
412.8717206460135
 30
0.0
  0
SPLINE
  5
99
330
1F
100
AcDbEntity
  8
0
  6
Continuous
 62
     8
370
     0
100
AcDbSpline
210
0.0
220
0.0
230
1.0
 70
     8
 71
     3
 72
    24
 73
    20
 74
     0
 42
0.00000001
 43
0.00000001
 40
0.0
 40
0.0
 40
0.0
 40
0.0
 40
0.0625000000000004
 40
0.0625000000000004
 40
0.1250000000000008
 40
0.1250000000000008
 40
0.2500000000000008
 40
0.2500000000000008
 40
0.5000000000000008
 40
0.5000000000000008
 40
0.6250000000000008
 40
0.6250000000000008
 40
0.7500000000000008
 40
0.7500000000000008
 40
0.8750000000000004
 40
0.8750000000000004
 40
0.9375000000000002
 40
0.9375000000000002
 40
1.0
 40
1.0
 40
1.0
 40
1.0
 10
226.6755580767889
 20
412.8717206460135
 30
0.0
 10
226.8758976809438
 20
412.8692746300437
 30
0.0
 10
227.0636397659499
 20
412.8701238608745
 30
0.0
 10
227.4203418200899
 20
412.8662798222564
 30
0.0
 10
227.5892974425518
 20
412.8629020665604
 30
0.0
 10
228.0725404381753
 20
412.852118925465
 30
0.0
 10
228.3628040999992
 20
412.842901788972
 30
0.0
 10
229.1502125927114
 20
412.8122060223885
 30
0.0
 10
229.5634937804207
 20
412.7885335024777
 30
0.0
 10
230.0632404606167
 20
412.7679638263454
 30
0.0
 10
230.2094783666738
 20
412.7618806402533
 30
0.0
 10
230.4651364277426
 20
412.7718281756253
 30
0.0
 10
230.5744933316534
 20
412.789480492701
 30
0.0
 10
230.7534892105275
 20
412.8838033337753
 30
0.0
 10
230.8233269143643
 20
412.9571974474387
 30
0.0
 10
230.9037081530544
 20
413.1436056315937
 30
0.0
 10
230.9262136984582
 20
413.2190686091956
 30
0.0
 10
230.9644680044497
 20
413.3986149472528
 30
0.0
 10
230.9796180292477
 20
413.5031630226969
 30
0.0
 10
230.9955069451885
 20
413.6097614491057
 30
0.0
  0
SPLINE
  5
9A
330
1F
100
AcDbEntity
  8
0
  6
Continuous
 62
     8
370
     0
100
AcDbSpline
210
0.0
220
0.0
230
1.0
 70
     8
 71
     3
 72
    24
 73
    20
 74
     0
 42
0.00000001
 43
0.00000001
 40
0.0
 40
0.0
 40
0.0
 40
0.0
 40
0.0625
 40
0.0625
 40
0.125
 40
0.125
 40
0.2499999999999999
 40
0.2499999999999999
 40
0.4999999999999999
 40
0.4999999999999999
 40
0.6249999999999999
 40
0.6249999999999999
 40
0.7499999999999998
 40
0.7499999999999998
 40
0.8749999999999998
 40
0.8749999999999998
 40
0.9374999999999999
 40
0.9374999999999999
 40
1.0
 40
1.0
 40
1.0
 40
1.0
 10
171.1444243557125
 20
412.8717206460135
 30
0.0
 10
170.9440847515576
 20
412.8692746300437
 30
0.0
 10
170.7563426665514
 20
412.8701238608743
 30
0.0
 10
170.3996406124118
 20
412.8662798222566
 30
0.0
 10
170.2306849899495
 20
412.8629020665603
 30
0.0
 10
169.7474419943263
 20
412.852118925465
 30
0.0
 10
169.4571783325023
 20
412.842901788972
 30
0.0
 10
168.66976983979
 20
412.8122060223885
 30
0.0
 10
168.2564886520806
 20
412.7885335024777
 30
0.0
 10
167.7567419718848
 20
412.7679638263454
 30
0.0
 10
167.6105040658276
 20
412.7618806402533
 30
0.0
 10
167.3548460047589
 20
412.7718281756254
 30
0.0
 10
167.2454891008482
 20
412.7894804927012
 30
0.0
 10
167.0664932219737
 20
412.8838033337752
 30
0.0
 10
166.996655518137
 20
412.9571974474387
 30
0.0
 10
166.9162742794471
 20
413.1436056315937
 30
0.0
 10
166.8937687340433
 20
413.2190686091955
 30
0.0
 10
166.8555144280518
 20
413.3986149472528
 30
0.0
 10
166.8403644013322
 20
413.5031630329665
 30
0.0
 10
166.824475487313
 20
413.6097614491061
 30
0.0
  0
SPLINE
  5
9B
330
1F
100
AcDbEntity
  8
0
  6
Continuous
 62
     8
370
     0
100
AcDbSpline
210
0.0
220
0.0
230
1.0
 70
     8
 71
     3
 72
     8
 73
     4
 74
     0
 42
0.00000001
 43
0.00000001
 40
0.0000000203463906
 40
0.0000000203463906
 40
0.0000000203463906
 40
0.0000000203463906
 40
0.0005524032332722
 40
0.0005524032332722
 40
0.0005524032332722
 40
0.0005524032332722
 10
166.8224471301509
 20
413.60947406518
 30
0.0
 10
166.8196989497361
 20
413.6269837029303
 30
0.0
 10
166.8168758555569
 20
413.6448298314086
 30
0.0
 10
166.8139814412834
 20
413.6630231212525
 30
0.0
  0
SPLINE
  5
9C
330
1F
100
AcDbEntity
  8
0
  6
Continuous
 62
     8
370
     0
100
AcDbSpline
210
0.0
220
0.0
230
1.0
 70
     8
 71
     3
 72
    16
 73
    12
 74
     0
 42
0.00000001
 43
0.00000001
 40
0.0
 40
0.0
 40
0.0
 40
0.0
 40
0.25
 40
0.25
 40
0.5
 40
0.5
 40
0.625
 40
0.625
 40
0.75
 40
0.75
 40
1.0
 40
1.0
 40
1.0
 40
1.0
 10
166.8135521726564
 20
413.662818232926
 30
0.0
 10
166.7718989986577
 20
413.8776218309412
 30
0.0
 10
166.7341312732723
 20
414.1479757740745
 30
0.0
 10
166.6705974933501
 20
414.8453206789734
 30
0.0
 10
166.6448091636315
 20
415.2736267573746
 30
0.0
 10
166.619546842464
 20
416.0731437112716
 30
0.0
 10
166.6133818694274
 20
416.365947713585
 30
0.0
 10
166.6065899464631
 20
417.0109074233479
 30
0.0
 10
166.6059845834652
 20
417.3634927204374
 30
0.0
 10
166.6168394819859
 20
418.5134415541807
 30
0.0
 10
166.6406473152985
 20
419.4034589147712
 30
0.0
 10
166.6889184869216
 20
420.453565840071
 30
0.0
  0
SPLINE
  5
9D
330
1F
100
AcDbEntity
  8
0
  6
Continuous
 62
     8
370
     0
100
AcDbSpline
210
0.0
220
0.0
230
1.0
 70
     8
 71
     3
 72
     8
 73
     4
 74
     0
 42
0.00000001
 43
0.00000001
 40
0.0
 40
0.0
 40
0.0
 40
0.0
 40
0.0000596972843948
 40
0.0000596972843948
 40
0.0000596972843948
 40
0.0000596972843948
 10
166.6886926329192
 20
420.4534467269256
 30
0.0
 10
166.6891256564955
 20
420.4628970814165
 30
0.0
 10
166.6895612884873
 20
420.4723601761753
 30
0.0
 10
166.6899995236403
 20
420.4818360134303
 30
0.0
  0
SPLINE
  5
9E
330
1F
100
AcDbEntity
  8
0
  6
Continuous
 62
     8
370
     0
100
AcDbSpline
210
0.0
220
0.0
230
1.0
 70
     8
 71
     3
 72
    29
 73
    25
 74
     0
 42
0.00000001
 43
0.00000001
 40
0.0
 40
0.0
 40
0.0
 40
0.0
 40
0.0235438772897532
 40
0.0469061304262292
 40
0.0700905831298061
 40
0.0931008727092955
 40
0.1159404190294142
 40
0.1386124091816805
 40
0.1611198679469497
 40
0.1834658728554975
 40
0.2056535524921702
 40
0.2276860858423993
 40
0.2495667145042701
 40
0.3765862807412433
 40
0.4983357070330445
 40
0.6254633336723743
 40
0.7502096923836324
 40
0.785327953975593
 40
0.8205804537951022
 40
0.8560001186740915
 40
0.8916197958762013
 40
0.9274719763961395
 40
0.9635884853729171
 40
1.0
 40
1.0
 40
1.0
 40
1.0
 10
198.9099465953661
 20
423.4609874316324
 30
0.0
 10
198.6367126329582
 20
423.4608611088085
 30
0.0
 10
198.0923525124966
 20
423.4606094376509
 30
0.0
 10
197.2790121700115
 20
423.4570245706071
 30
0.0
 10
196.4720563640628
 20
423.4511525700535
 30
0.0
 10
195.6714629579271
 20
423.4428018837229
 30
0.0
 10
194.8772211214702
 20
423.4320539756244
 30
0.0
 10
194.0893293759138
 20
423.4188934734008
 30
0.0
 10
193.3077942371066
 20
423.4033054049165
 30
0.0
 10
192.5326247551516
 20
423.3852722956456
 30
0.0
 10
191.7638352204147
 20
423.3647731366033
 30
0.0
 10
191.0014276454372
 20
423.3417878634828
 30
0.0
 10
189.0329634647357
 20
423.2753641745628
 30
0.0
 10
185.9327532271803
 20
423.1322154175146
 30
0.0
 10
181.7064486947534
 20
422.8320443305115
 30
0.0
 10
177.6305527548167
 20
422.4230076817556
 30
0.0
 10
174.6393417289846
 20
422.0173219715264
 30
0.0
 10
172.6857125349318
 20
421.7034847420863
 30
0.0
 10
171.6459958344003
 20
421.5244055044856
 30
0.0
 10
170.6220184659755
 20
421.3355734044391
 30
0.0
 10
169.613645652388
 20
421.1369639579825
 30
0.0
 10
168.6214798948642
 20
420.9283588032285
 30
0.0
 10
167.6433639501576
 20
420.710474767254
 30
0.0
 10
167.0086482284606
 20
420.5582553141199
 30
0.0
 10
166.6899995236394
 20
420.4818360134288
 30
0.0
  0
SPLINE
  5
9F
330
1F
100
AcDbEntity
  8
0
  6
Continuous
 62
     8
370
     0
100
AcDbSpline
210
0.0
220
0.0
230
1.0
 70
     8
 71
     3
 72
    16
 73
    12
 74
     0
 42
0.00000001
 43
0.00000001
 40
0.0
 40
0.0
 40
0.0
 40
0.0
 40
0.25
 40
0.25
 40
0.5
 40
0.5
 40
0.625
 40
0.625
 40
0.75
 40
0.75
 40
1.0
 40
1.0
 40
1.0
 40
1.0
 10
231.006430259845
 20
413.662818232926
 30
0.0
 10
231.0480834338437
 20
413.8776218309412
 30
0.0
 10
231.0858511592292
 20
414.1479757740745
 30
0.0
 10
231.1493849391514
 20
414.8453206789733
 30
0.0
 10
231.1751732688699
 20
415.2736267573746
 30
0.0
 10
231.2004355900374
 20
416.0731437112716
 30
0.0
 10
231.2066005630739
 20
416.365947713585
 30
0.0
 10
231.2133924860383
 20
417.010907423348
 30
0.0
 10
231.2139978490361
 20
417.3634927204374
 30
0.0
 10
231.2031429505155
 20
418.5134415541807
 30
0.0
 10
231.179335117203
 20
419.4034589147712
 30
0.0
 10
231.1310639455799
 20
420.453565840071
 30
0.0
  0
SPLINE
  5
A0
330
1F
100
AcDbEntity
  8
0
  6
Continuous
 62
     8
370
     0
100
AcDbSpline
210
0.0
220
0.0
230
1.0
 70
     8
 71
     3
 72
     8
 73
     4
 74
     0
 42
0.00000001
 43
0.00000001
 40
0.0000000203463906
 40
0.0000000203463906
 40
0.0000000203463906
 40
0.0000000203463906
 40
0.0005524032332722
 40
0.0005524032332722
 40
0.0005524032332722
 40
0.0005524032332722
 10
230.9975353023506
 20
413.6094740651801
 30
0.0
 10
231.0002834827654
 20
413.6269837029304
 30
0.0
 10
231.0031065769446
 20
413.6448298314086
 30
0.0
 10
231.006000991218
 20
413.6630231212525
 30
0.0
  0
SPLINE
  5
A1
330
1F
100
AcDbEntity
  8
0
  6
Continuous
 62
     8
370
     0
100
AcDbSpline
210
0.0
220
0.0
230
1.0
 70
     8
 71
     3
 72
    30
 73
    26
 74
     0
 42
0.00000001
 43
0.00000001
 40
0.0
 40
0.0
 40
0.0
 40
0.0
 40
0.0196448628601557
 40
0.039200246685127
 40
0.0586707856355413
 40
0.0780612381304491
 40
0.0973764762717857
 40
0.1166214639026283
 40
0.1358012309736505
 40
0.1549208523157662
 40
0.1739854376460725
 40
0.1930001215102122
 40
0.2119700478486987
 40
0.2309003578351848
 40
0.2497961793883731
 40
0.3745407524557663
 40
0.5016693846010652
 40
0.6234170448516786
 40
0.7504376067678287
 40
0.7906668040243764
 40
0.8314158084240055
 40
0.8727041473589119
 40
0.9145507791028257
 40
0.9569753829010967
 40
1.0
 40
1.0
 40
1.0
 40
1.0
 10
231.1299829088612
 20
420.481836013429
 30
0.0
 10
230.9586327192878
 20
420.5232347227543
 30
0.0
 10
230.6167128113385
 20
420.6058435772701
 30
0.0
 10
230.0962922563237
 20
420.7267728653798
 30
0.0
 10
229.5718459051612
 20
420.8450797368907
 30
0.0
 10
229.0427305268548
 20
420.9605368179349
 30
0.0
 10
228.5090955060736
 20
421.0731650119665
 30
0.0
 10
227.9708890596391
 20
421.1829364994455
 30
0.0
 10
227.4281224138918
 20
421.2898532605506
 30
0.0
 10
226.8807971845107
 20
421.3939226090923
 30
0.0
 10
226.3289197457258
 20
421.4951539811929
 30
0.0
 10
225.7724963790472
 20
421.5935597215606
 30
0.0
 10
225.2115413284394
 20
421.6891596720423
 30
0.0
 10
224.6460565158875
 20
421.781975622153
 30
0.0
 10
223.0116640355111
 20
422.0402556271217
 30
0.0
 10
220.1894048444483
 20
422.4230036442431
 30
0.0
 10
216.1135815738168
 20
422.8320435751354
 30
0.0
 10
211.8872163089675
 20
423.1322093610752
 30
0.0
 10
208.5769288831052
 20
423.2850820934768
 30
0.0
 10
206.1798831639853
 20
423.3622852221359
 30
0.0
 10
204.7672383627603
 20
423.3986718976458
 30
0.0
 10
203.3332123940249
 20
423.4268652125314
 30
0.0
 10
201.8778209363997
 20
423.4467782541568
 30
0.0
 10
200.4010456284293
 20
423.4591887989609
 30
0.0
 10
199.4093602627285
 20
423.4603850873481
 30
0.0
 10
198.9100358371354
 20
423.4609874316323
 30
0.0
  0
SPLINE
  5
A2
330
1F
100
AcDbEntity
  8
0
  6
Continuous
 62
     8
370
     0
100
AcDbSpline
210
0.0
220
0.0
230
1.0
 70
     8
 71
     3
 72
     8
 73
     4
 74
     0
 42
0.00000001
 43
0.00000001
 40
0.0
 40
0.0
 40
0.0
 40
0.0
 40
0.0000596972843923
 40
0.0000596972843923
 40
0.0000596972843923
 40
0.0000596972843923
 10
231.1312897995822
 20
420.4534467269256
 30
0.0
 10
231.130856776006
 20
420.462897081416
 30
0.0
 10
231.1304211440143
 20
420.4723601761745
 30
0.0
 10
231.1299829088612
 20
420.481836013429
 30
0.0
  0
SPLINE
  5
A3
330
1F
100
AcDbEntity
  8
0
  6
Continuous
 62
     8
370
     0
100
AcDbSpline
210
0.0
220
0.0
230
1.0
 70
     8
 71
     3
 72
    11
 73
     7
 74
     0
 42
0.00000001
 43
0.00000001
 40
0.0
 40
0.0
 40
0.0
 40
0.0
 40
0.3008645916907982
 40
0.6017291833815933
 40
0.9025937750723954
 40
1.0
 40
1.0
 40
1.0
 40
1.0
 10
231.1312897995822
 20
420.4534467269256
 30
0.0
 10
231.2578510086504
 20
420.3738413785141
 30
0.0
 10
231.5109734267868
 20
420.2146306816909
 30
0.0
 10
231.7603797442866
 20
419.8658477865222
 30
0.0
 10
231.8892210584426
 20
419.5616206435844
 30
0.0
 10
231.8832501384871
 20
419.3803970480558
 30
0.0
 10
231.8817898136329
 20
419.3360746785231
 30
0.0
  0
SPLINE
  5
A4
330
1F
100
AcDbEntity
  8
0
  6
Continuous
 62
     8
370
     0
100
AcDbSpline
210
0.0
220
0.0
230
1.0
 70
     8
 71
     3
 72
    11
 73
     7
 74
     0
 42
0.00000001
 43
0.00000001
 40
0.0
 40
0.0
 40
0.0
 40
0.0
 40
0.2970156072987503
 40
0.5940312145975005
 40
0.8910468218962493
 40
1.0
 40
1.0
 40
1.0
 40
1.0
 10
166.6886913945941
 20
420.453419535011
 30
0.0
 10
166.5621902416413
 20
420.3738061447215
 30
0.0
 10
166.3091879357357
 20
420.2145793641425
 30
0.0
 10
166.0593249010571
 20
419.8658670374518
 30
0.0
 10
165.9297241665473
 20
419.5558689274981
 30
0.0
 10
165.9365288520455
 20
419.3687060393829
 30
0.0
 10
165.9383550813953
 20
419.3184755974956
 30
0.0
  0
SPLINE
  5
A5
330
1F
100
AcDbEntity
  8
0
  6
Continuous
 62
     8
370
     0
100
AcDbSpline
210
0.0
220
0.0
230
1.0
 70
     8
 71
     3
 72
    18
 73
    14
 74
     0
 42
0.00000001
 43
0.00000001
 40
0.0
 40
0.0
 40
0.0
 40
0.0
 40
0.25
 40
0.25
 40
0.5
 40
0.5
 40
0.5624999999999999
 40
0.5624999999999999
 40
0.6249999999999998
 40
0.6249999999999998
 40
0.7499999999999998
 40
0.7499999999999998
 40
1.0
 40
1.0
 40
1.0
 40
1.0
 10
198.9099912161419
 20
425.4060888804463
 30
0.0
 10
201.802301137659
 20
425.4074717100158
 30
0.0
 10
204.6699281082668
 20
425.3665384383313
 30
0.0
 10
210.3432170228391
 20
425.1782311474159
 30
0.0
 10
213.1485850493664
 20
425.0303705484205
 30
0.0
 10
216.6021744578376
 20
424.7536309247793
 30
0.0
 10
217.2902182841024
 20
424.6936545253895
 30
0.0
 10
218.6605348949879
 20
424.5636948306063
 30
0.0
 10
219.3410085698827
 20
424.4938588620318
 30
0.0
 10
221.3560463990293
 20
424.2703460484598
 30
0.0
 10
222.669223182603
 20
424.1020692097941
 30
0.0
 10
226.4930408749205
 20
423.539724162392
 30
0.0
 10
228.8574394941668
 20
423.0920211437627
 30
0.0
 10
231.0589533964318
 20
422.5808452325924
 30
0.0
  0
SPLINE
  5
A6
330
1F
100
AcDbEntity
  8
0
  6
Continuous
 62
     8
370
     0
100
AcDbSpline
210
0.0
220
0.0
230
1.0
 70
     8
 71
     3
 72
    18
 73
    14
 74
     0
 42
0.00000001
 43
0.00000001
 40
0.0
 40
0.0
 40
0.0
 40
0.0
 40
0.2499999999999998
 40
0.2499999999999998
 40
0.3749999999999998
 40
0.3749999999999998
 40
0.4374999999999998
 40
0.4374999999999998
 40
0.4999999999999999
 40
0.4999999999999999
 40
0.75
 40
0.75
 40
1.0
 40
1.0
 40
1.0
 40
1.0
 10
230.7391083345055
 20
421.5624619326246
 30
0.0
 10
228.5583604264405
 20
422.0550105242893
 30
0.0
 10
226.22951938959
 20
422.4829193895015
 30
0.0
 10
222.4937753334488
 20
423.0189438637765
 30
0.0
 10
221.2084794017849
 20
423.1801385653222
 30
0.0
 10
219.2211225512785
 20
423.3959980368262
 30
0.0
 10
218.5477306455095
 20
423.4637344396732
 30
0.0
 10
217.1860206213283
 20
423.5902855655186
 30
0.0
 10
216.5022292141298
 20
423.6487005967982
 30
0.0
 10
213.0696811739653
 20
423.9182789489783
 30
0.0
 10
210.2804548361246
 20
424.0624539137765
 30
0.0
 10
204.6386979041213
 20
424.2460181010892
 30
0.0
 10
201.7864604019192
 20
424.2858924704236
 30
0.0
 10
198.9092703753806
 20
424.2844636330484
 30
0.0
  0
SPLINE
  5
A7
330
1F
100
AcDbEntity
  8
0
  6
Continuous
 62
     8
370
     0
100
AcDbSpline
210
0.0
220
0.0
230
1.0
 70
     8
 71
     3
 72
     8
 73
     4
 74
     0
 42
0.00000001
 43
0.00000001
 40
0.0
 40
0.0
 40
0.0
 40
0.0
 40
0.0002926519410579
 40
0.0002926519410579
 40
0.0002926519410579
 40
0.0002926519410579
 10
166.6591326455838
 20
421.2123433226587
 30
0.0
 10
166.6731632445853
 20
421.1873578711651
 30
0.0
 10
166.6873690753208
 20
421.1623789676856
 30
0.0
 10
166.7017533442495
 20
421.1374069914215
 30
0.0
  0
SPLINE
  5
A8
330
1F
100
AcDbEntity
  8
0
  6
Continuous
 62
     8
370
     0
100
AcDbSpline
210
0.0
220
0.0
230
1.0
 70
     8
 71
     3
 72
    14
 73
    10
 74
     0
 42
0.00000001
 43
0.00000001
 40
0.0
 40
0.0
 40
0.0
 40
0.0
 40
0.25
 40
0.25
 40
0.5
 40
0.5
 40
0.75
 40
0.75
 40
1.0
 40
1.0
 40
1.0
 40
1.0
 10
167.0808740979957
 20
421.5624619326247
 30
0.0
 10
166.9870386117601
 20
421.5412680401886
 30
0.0
 10
166.9109579888831
 20
421.5162514259019
 30
0.0
 10
166.7857006124059
 20
421.4607810167639
 30
0.0
 10
166.7394998899152
 20
421.4315955203779
 30
0.0
 10
166.6724551712659
 20
421.370985987955
 30
0.0
 10
166.6518053487009
 20
421.3391700154033
 30
0.0
 10
166.6364616814514
 20
421.2757497307614
 30
0.0
 10
166.6413310130565
 20
421.2440441663612
 30
0.0
 10
166.6591326455838
 20
421.2123433226587
 30
0.0
  0
SPLINE
  5
A9
330
1F
100
AcDbEntity
  8
0
  6
Continuous
 62
     8
370
     0
100
AcDbSpline
210
0.0
220
0.0
230
1.0
 70
     8
 71
     3
 72
    20
 73
    16
 74
     0
 42
0.00000001
 43
0.00000001
 40
0.0
 40
0.0
 40
0.0
 40
0.0
 40
0.1250000000000002
 40
0.1250000000000002
 40
0.2500000000000003
 40
0.2500000000000003
 40
0.5000000000000007
 40
0.5000000000000007
 40
0.5625000000000006
 40
0.5625000000000006
 40
0.6250000000000003
 40
0.6250000000000003
 40
0.7500000000000002
 40
0.7500000000000002
 40
1.0
 40
1.0
 40
1.0
 40
1.0
 10
198.9092703700991
 20
424.284464345452
 30
0.0
 10
197.4723333825874
 20
424.2851708628057
 30
0.0
 10
196.037157920916
 20
424.2753610955891
 30
0.0
 10
193.1707018472324
 20
424.2324893632952
 30
0.0
 10
191.7369926488401
 20
424.1993018321066
 30
0.0
 10
187.4763007191814
 20
424.059831328994
 30
0.0
 10
184.6818289414889
 20
423.9139178592844
 30
0.0
 10
181.2645615460795
 20
423.6442558270109
 30
0.0
 10
180.5849172598638
 20
423.5859391050232
 30
0.0
 10
179.2337721737563
 20
423.4599326482231
 30
0.0
 10
178.5609063301559
 20
423.3920692555341
 30
0.0
 10
176.5770891683461
 20
423.1759968606648
 30
0.0
 10
175.294887601526
 20
423.014788296096
 30
0.0
 10
171.570165420231
 20
422.479318912384
 30
0.0
 10
169.2509640290626
 20
422.0526032898076
 30
0.0
 10
167.0808740979957
 20
421.5624619326246
 30
0.0
  0
SPLINE
  5
AA
330
1F
100
AcDbEntity
  8
0
  6
Continuous
 62
     8
370
     0
100
AcDbSpline
210
0.0
220
0.0
230
1.0
 70
     8
 71
     3
 72
    12
 73
     8
 74
     0
 42
0.00000001
 43
0.00000001
 40
0.0
 40
0.0
 40
0.0
 40
0.0
 40
0.2500000000000026
 40
0.2500000000000026
 40
0.5000000000000052
 40
0.5000000000000052
 40
1.0
 40
1.0
 40
1.0
 40
1.0
 10
231.160849786919
 20
421.2123433226614
 30
0.0
 10
231.1786484776725
 20
421.2440389277047
 30
0.0
 10
231.1834916797237
 20
421.2756897577322
 30
0.0
 10
231.1682844655423
 20
421.3389053838154
 30
0.0
 10
231.1477440427102
 20
421.3707723703843
 30
0.0
 10
231.0467302331923
 20
421.4621433990478
 30
0.0
 10
230.9266555195908
 20
421.520102106648
 30
0.0
 10
230.7391083345053
 20
421.5624619326247
 30
0.0
  0
SPLINE
  5
AB
330
1F
100
AcDbEntity
  8
0
  6
Continuous
 62
     8
370
     0
100
AcDbSpline
210
0.0
220
0.0
230
1.0
 70
     8
 71
     3
 72
     8
 73
     4
 74
     0
 42
0.00000001
 43
0.00000001
 40
0.0
 40
0.0
 40
0.0
 40
0.0
 40
0.0002926519410686
 40
0.0002926519410686
 40
0.0002926519410686
 40
0.0002926519410686
 10
231.1182290882518
 20
421.1374069914215
 30
0.0
 10
231.1326133571809
 20
421.1623789676866
 30
0.0
 10
231.146819187917
 20
421.187357871167
 30
0.0
 10
231.160849786919
 20
421.2123433226614
 30
0.0
  0
SPLINE
  5
AC
330
1F
100
AcDbEntity
  8
0
  6
Continuous
 62
     8
370
     0
100
AcDbSpline
210
0.0
220
0.0
230
1.0
 70
     8
 71
     3
 72
     9
 73
     5
 74
     0
 42
0.00000001
 43
0.00000001
 40
0.0
 40
0.0
 40
0.0
 40
0.0
 40
0.9074079360897795
 40
1.0
 40
1.0
 40
1.0
 40
1.0
 10
198.9099465953661
 20
423.4609874316323
 30
0.0
 10
198.9097917246083
 20
423.5017706056009
 30
0.0
 10
198.9096210508115
 20
423.5467153017476
 30
0.0
 10
198.9094182578801
 20
423.5331423553719
 30
0.0
 10
198.909399480864
 20
423.5318856082536
 30
0.0
  0
SPLINE
  5
AD
330
1F
100
AcDbEntity
  8
0
  6
Continuous
 62
     8
370
     0
100
AcDbSpline
210
0.0
220
0.0
230
1.0
 70
     8
 71
     3
 72
    10
 73
     6
 74
     0
 42
0.00000001
 43
0.00000001
 40
0.0
 40
0.0
 40
0.0
 40
0.0
 40
0.1050803457596718
 40
0.5581578125559664
 40
1.0
 40
1.0
 40
1.0
 40
1.0
 10
230.8636647072367
 20
420.6880974024983
 30
0.0
 10
230.8748057197288
 20
420.6860513065049
 30
0.0
 10
230.9339837050817
 20
420.6751830089584
 30
0.0
 10
231.0284040520245
 20
420.6095905531006
 30
0.0
 10
231.0964078748474
 20
420.5240629408474
 30
0.0
 10
231.1299829088612
 20
420.481836013429
 30
0.0
  0
SPLINE
  5
AE
330
1F
100
AcDbEntity
  8
0
  6
Continuous
 62
     8
370
     0
100
AcDbSpline
210
0.0
220
0.0
230
1.0
 70
     8
 71
     3
 72
    10
 73
     6
 74
     0
 42
0.00000001
 43
0.00000001
 40
0.0
 40
0.0
 40
0.0
 40
0.0
 40
0.4418412916829804
 40
0.8949178399405031
 40
1.0
 40
1.0
 40
1.0
 40
1.0
 10
166.6899995236403
 20
420.4818360134303
 30
0.0
 10
166.7235745562675
 20
420.5240629463585
 30
0.0
 10
166.7915783762822
 20
420.6095905697715
 30
0.0
 10
166.8859989305728
 20
420.6751830953013
 30
0.0
 10
166.9451771370672
 20
420.6860514076956
 30
0.0
 10
166.9563183656716
 20
420.6880975385282
 30
0.0
  0
SPLINE
  5
AF
330
1F
100
AcDbEntity
  8
0
  6
Continuous
 62
     8
370
     0
100
AcDbSpline
210
0.0
220
0.0
230
1.0
 70
     8
 71
     3
 72
    20
 73
    16
 74
     0
 42
0.00000001
 43
0.00000001
 40
0.0
 40
0.0
 40
0.0
 40
0.0
 40
0.2499999999999996
 40
0.2499999999999996
 40
0.3749999999999994
 40
0.3749999999999994
 40
0.4374999999999996
 40
0.4374999999999996
 40
0.4999999999999997
 40
0.4999999999999997
 40
0.7499999999999998
 40
0.7499999999999998
 40
0.8749999999999999
 40
0.8749999999999999
 40
1.0
 40
1.0
 40
1.0
 40
1.0
 10
166.7610290360694
 20
422.5808452325924
 30
0.0
 10
168.959655367167
 20
423.0913506702212
 30
0.0
 10
171.3074249063515
 20
423.53535247821
 30
0.0
 10
175.0731383397287
 20
424.0913789136497
 30
0.0
 10
176.3687243230002
 20
424.2585955146686
 30
0.0
 10
178.3721441201475
 20
424.4825376048559
 30
0.0
 10
179.0515316479483
 20
424.5528451874982
 30
0.0
 10
180.4158690592444
 20
424.6833754105152
 30
0.0
 10
181.1020770857671
 20
424.7437657159688
 30
0.0
 10
184.5520239543977
 20
425.0229413421581
 30
0.0
 10
187.3722046536933
 20
425.1737574386678
 30
0.0
 10
191.6711373296131
 20
425.3179324406647
 30
0.0
 10
193.1177436916407
 20
425.3522510116386
 30
0.0
 10
196.0117196511219
 20
425.3966154372781
 30
0.0
 10
197.4601876869947
 20
425.4067820396321
 30
0.0
 10
198.9099912163597
 20
425.4060888804462
 30
0.0
  0
SPLINE
  5
B0
330
1F
100
AcDbEntity
  8
0
  6
Continuous
 62
     8
370
     0
100
AcDbSpline
210
0.0
220
0.0
230
1.0
 70
     8
 71
     3
 72
    36
 73
    32
 74
     0
 42
0.00000001
 43
0.00000001
 40
0.0
 40
0.0
 40
0.0
 40
0.0
 40
0.062500000000001
 40
0.062500000000001
 40
0.125000000000002
 40
0.125000000000002
 40
0.2500000000000039
 40
0.2500000000000039
 40
0.3125000000000049
 40
0.3125000000000049
 40
0.3750000000000059
 40
0.3750000000000059
 40
0.4375000000000069
 40
0.4375000000000069
 40
0.468750000000007
 40
0.468750000000007
 40
0.5000000000000071
 40
0.5000000000000071
 40
0.5625000000000064
 40
0.5625000000000064
 40
0.6250000000000058
 40
0.6250000000000058
 40
0.6875000000000051
 40
0.6875000000000051
 40
0.7500000000000044
 40
0.7500000000000044
 40
0.8125000000000038
 40
0.8125000000000038
 40
0.8750000000000031
 40
0.8750000000000031
 40
1.0
 40
1.0
 40
1.0
 40
1.0
 10
198.909923209121
 20
459.2655617517379
 30
0.0
 10
197.9351027171506
 20
459.266909111027
 30
0.0
 10
196.9602373502558
 20
459.2548775366315
 30
0.0
 10
195.013403770997
 20
459.2041911325705
 30
0.0
 10
194.0410682124273
 20
459.165811369217
 30
0.0
 10
191.1281734488622
 20
459.0007267893303
 30
0.0
 10
189.1917017186437
 20
458.8245766769258
 30
0.0
 10
186.3030294081501
 20
458.3669493997517
 30
0.0
 10
185.348299215336
 20
458.1824518167325
 30
0.0
 10
183.4682126012108
 20
457.7273338496012
 30
0.0
 10
182.5418944931062
 20
457.4566503672926
 30
0.0
 10
180.727418926439
 20
456.7956702321209
 30
0.0
 10
179.8354186050533
 20
456.4018819285138
 30
0.0
 10
178.5757463006059
 20
455.7119100851427
 30
0.0
 10
178.1674908789887
 20
455.4650392980788
 30
0.0
 10
177.3758671285496
 20
454.9352318277583
 30
0.0
 10
176.9913356581637
 20
454.6513303309491
 30
0.0
 10
175.8846889201828
 20
453.7493553112848
 30
0.0
 10
175.2221035885022
 20
453.0916868255752
 30
0.0
 10
174.026902208303
 20
451.6792335606837
 30
0.0
 10
173.4928256096109
 20
450.922863992819
 30
0.0
 10
172.5318786813483
 20
449.3409353766945
 30
0.0
 10
172.1120472514446
 20
448.5290008370955
 30
0.0
 10
171.3586011182842
 20
446.8772348041
 30
0.0
 10
171.0255564978605
 20
446.0372433263339
 30
0.0
 10
170.4228842788374
 20
444.3416197746045
 30
0.0
 10
170.1531987100423
 20
443.4861392853092
 30
0.0
 10
169.6581804889895
 20
441.7706425806771
 30
0.0
 10
169.4336583448691
 20
440.9118745630943
 30
0.0
 10
168.8178766136175
 20
438.3569034151665
 30
0.0
 10
168.4818080047364
 20
436.6768454150302
 30
0.0
 10
168.1985222476161
 20
435.0417815826987
 30
0.0
  0
SPLINE
  5
B1
330
1F
100
AcDbEntity
  8
0
  6
Continuous
 62
     8
370
     0
100
AcDbSpline
210
0.0
220
0.0
230
1.0
 70
     8
 71
     3
 72
    14
 73
    10
 74
     0
 42
0.00000001
 43
0.00000001
 40
0.0
 40
0.0
 40
0.0
 40
0.0
 40
0.2500000000000027
 40
0.2500000000000027
 40
0.3750000000000021
 40
0.3750000000000021
 40
0.5000000000000016
 40
0.5000000000000016
 40
1.0
 40
1.0
 40
1.0
 40
1.0
 10
168.1985222476161
 20
435.0417815826988
 30
0.0
 10
167.9823785888728
 20
433.7942473522756
 30
0.0
 10
167.7994439203213
 20
432.583290578658
 30
0.0
 10
167.5612556435952
 20
430.8370725238938
 30
0.0
 10
167.4878669011917
 20
430.2666908030134
 30
0.0
 10
167.3518659138639
 20
429.1509575380865
 30
0.0
 10
167.2893739661993
 20
428.6059893763762
 30
0.0
 10
167.0040017523208
 20
425.9744404705882
 30
0.0
 10
166.8580514105108
 20
424.1461271702708
 30
0.0
 10
166.7610290360694
 20
422.5808452325923
 30
0.0
  0
SPLINE
  5
B2
330
1F
100
AcDbEntity
  8
0
  6
Continuous
 62
     8
370
     0
100
AcDbSpline
210
0.0
220
0.0
230
1.0
 70
     8
 71
     3
 72
    44
 73
    40
 74
     0
 42
0.00000001
 43
0.00000001
 40
0.0
 40
0.0
 40
0.0
 40
0.0
 40
0.1249999999999997
 40
0.1249999999999997
 40
0.1875000000000004
 40
0.1875000000000004
 40
0.2500000000000011
 40
0.2500000000000011
 40
0.3125000000000017
 40
0.3125000000000017
 40
0.3437500000000013
 40
0.3437500000000013
 40
0.3750000000000009
 40
0.3750000000000009
 40
0.4375000000000017
 40
0.4375000000000017
 40
0.4687500000000021
 40
0.4687500000000021
 40
0.5000000000000024
 40
0.5000000000000024
 40
0.5312500000000028
 40
0.5312500000000028
 40
0.5625000000000032
 40
0.5625000000000032
 40
0.6250000000000037
 40
0.6250000000000037
 40
0.6562500000000037
 40
0.6562500000000037
 40
0.6875000000000036
 40
0.6875000000000036
 40
0.7500000000000029
 40
0.7500000000000029
 40
0.8125000000000022
 40
0.8125000000000022
 40
0.8750000000000014
 40
0.8750000000000014
 40
0.9375000000000008
 40
0.9375000000000008
 40
1.0
 40
1.0
 40
1.0
 40
1.0
 10
229.6214607232921
 20
435.0417784751305
 30
0.0
 10
229.338096474424
 20
436.677295682235
 30
0.0
 10
229.0029496474606
 20
438.351285089896
 30
0.0
 10
228.3925808150578
 20
440.8869557614346
 30
0.0
 10
228.170949671112
 20
441.7362359828502
 30
0.0
 10
227.6819791672393
 20
443.4360527682276
 30
0.0
 10
227.415065755304
 20
444.2866402494503
 30
0.0
 10
226.8162642181928
 20
445.9799440620475
 30
0.0
 10
226.4843406141255
 20
446.8225175108429
 30
0.0
 10
225.9173627630219
 20
448.0718853816024
 30
0.0
 10
225.716490527183
 20
448.4864119518855
 30
0.0
 10
225.2925509219961
 20
449.2996247485434
 30
0.0
 10
225.0690249155999
 20
449.699413598401
 30
0.0
 10
224.3586588013016
 20
450.8750299753924
 30
0.0
 10
223.8321984053896
 20
451.6271914688098
 30
0.0
 10
222.937630718986
 20
452.6928001062989
 30
0.0
 10
222.6219031323901
 20
453.0375365150342
 30
0.0
 10
221.9510666210234
 20
453.7034889376599
 30
0.0
 10
221.5973450157178
 20
454.0230701686089
 30
0.0
 10
220.8603271591987
 20
454.6270991202129
 30
0.0
 10
220.4743578494691
 20
454.9136501011822
 30
0.0
 10
219.6802636821692
 20
455.4476992765058
 30
0.0
 10
219.2720795667969
 20
455.6955400004602
 30
0.0
 10
218.0169189456087
 20
456.3862843951928
 30
0.0
 10
217.1393233532074
 20
456.776398586591
 30
0.0
 10
215.7741000444561
 20
457.2770023455159
 30
0.0
 10
215.310477756261
 20
457.4298304944759
 30
0.0
 10
214.3796135411113
 20
457.7078314168838
 30
0.0
 10
213.9109981116224
 20
457.8335507560163
 30
0.0
 10
212.4971147883795
 20
458.177217811106
 30
0.0
 10
211.5438813415074
 20
458.3620007355923
 30
0.0
 10
209.6221213667339
 20
458.6677935320768
 30
0.0
 10
208.652066652905
 20
458.7887551375143
 30
0.0
 10
206.7092196605202
 20
458.9822351877029
 30
0.0
 10
205.7364238876792
 20
459.0547199618138
 30
0.0
 10
203.7888914753914
 20
459.1653959934126
 30
0.0
 10
202.8141796987504
 20
459.2039417234465
 30
0.0
 10
200.8632700695323
 20
459.2548369833872
 30
0.0
 10
199.8870524696777
 20
459.266912114124
 30
0.0
 10
198.9100592233803
 20
459.2655617517379
 30
0.0
  0
SPLINE
  5
B3
330
1F
100
AcDbEntity
  8
0
  6
Continuous
 62
     8
370
     0
100
AcDbSpline
210
0.0
220
0.0
230
1.0
 70
     8
 71
     3
 72
    14
 73
    10
 74
     0
 42
0.00000001
 43
0.00000001
 40
0.0
 40
0.0
 40
0.0
 40
0.0
 40
0.2500000000000009
 40
0.2500000000000009
 40
0.5000000000000018
 40
0.5000000000000018
 40
0.7500000000000009
 40
0.7500000000000009
 40
1.0
 40
1.0
 40
1.0
 40
1.0
 10
231.0589533964318
 20
422.5808452325923
 30
0.0
 10
231.0101283727769
 20
423.3685493892242
 30
0.0
 10
230.9481924260512
 20
424.2263948856408
 30
0.0
 10
230.7908907789648
 20
426.0895524956422
 30
0.0
 10
230.6961515335648
 20
427.0833982139545
 30
0.0
 10
230.4680461669471
 20
429.1787483127723
 30
0.0
 10
230.3346465355447
 20
430.2817279155504
 30
0.0
 10
230.019431893391
 20
432.5901431666031
 30
0.0
 10
229.8374134069593
 20
433.7953462541675
 30
0.0
 10
229.6214607232921
 20
435.0417784751305
 30
0.0
  0
SPLINE
  5
B4
330
1F
100
AcDbEntity
  8
0
  6
Continuous
 62
     8
370
     0
100
AcDbSpline
210
0.0
220
0.0
230
1.0
 70
     8
 71
     3
 72
    12
 73
     8
 74
     0
 42
0.00000001
 43
0.00000001
 40
0.0
 40
0.0
 40
0.0
 40
0.0
 40
0.2132307437716649
 40
0.395282341231015
 40
0.6907904370684719
 40
0.9635371135048959
 40
1.0
 40
1.0
 40
1.0
 40
1.0
 10
166.6899995236403
 20
420.4818360134303
 30
0.0
 10
166.5877878632542
 20
420.4328706171447
 30
0.0
 10
166.3983101936469
 20
420.3420996704196
 30
0.0
 10
166.157081078625
 20
420.1555431294935
 30
0.0
 10
166.0128124039023
 20
419.9877198627717
 30
0.0
 10
165.9512580356582
 20
419.9300271102197
 30
0.0
 10
165.9595912699222
 20
419.8632184852215
 30
0.0
 10
165.9605739490225
 20
419.8553402188215
 30
0.0
  0
SPLINE
  5
B5
330
1F
100
AcDbEntity
  8
0
  6
Continuous
 62
     8
370
     0
100
AcDbSpline
210
0.0
220
0.0
230
1.0
 70
     8
 71
     3
 72
    12
 73
     8
 74
     0
 42
0.00000001
 43
0.00000001
 40
0.0
 40
0.0
 40
0.0
 40
0.0
 40
0.0497124700731297
 40
0.3187086112913682
 40
0.6101531799940068
 40
0.7897013888000609
 40
1.0
 40
1.0
 40
1.0
 40
1.0
 10
231.858492880812
 20
419.8465011057166
 30
0.0
 10
231.8599317486295
 20
419.8574672520871
 30
0.0
 10
231.8691563871006
 20
419.9277716500741
 30
0.0
 10
231.8076164817837
 20
419.9881382880408
 30
0.0
 10
231.6628300868157
 20
420.1554763363571
 30
0.0
 10
231.4216892961624
 20
420.3421156572186
 30
0.0
 10
231.23220054635
 20
420.4328762191199
 30
0.0
 10
231.1299829088612
 20
420.481836013429
 30
0.0
  0
ARC
  5
B6
330
1F
100
AcDbEntity
  8
0
  6
Continuous
 62
     8
370
     0
100
AcDbCircle
 10
175.4508786132
 20
319.3515325079
 30
0.0
 40
0.2926950232884675
100
AcDbArc
 50
187.5696854261
 51
269.0335223559
  0
ARC
  5
B7
330
1F
100
AcDbEntity
  8
0
  6
Continuous
 62
     8
370
     0
100
AcDbCircle
 10
222.3691038193
 20
319.3515325079
 30
0.0
 40
0.2926950232880696
100
AcDbArc
 50
270.966477644
 51
352.430314574
  0
ARC
  5
B8
330
1F
100
AcDbEntity
  8
0
  6
Continuous
 62
     8
370
     0
100
AcDbCircle
 10
166.6306567302
 20
421.7837716174
 30
0.0
 40
0.5721373732282439
100
AcDbArc
 50
209.5549308803
 51
272.8528535284
  0
ARC
  5
B9
330
1F
100
AcDbEntity
  8
0
  6
Continuous
 62
     8
370
     0
100
AcDbCircle
 10
166.6727922611
 20
421.7081229627
 30
0.0
 40
0.571450316525864
100
AcDbArc
 50
210.486811167
 51
272.9049926721
  0
SPLINE
  5
BA
330
1F
100
AcDbEntity
  8
0
  6
Continuous
 62
     8
370
     0
100
AcDbSpline
210
0.0
220
0.0
230
1.0
 70
     8
 71
     3
 72
     9
 73
     5
 74
     0
 42
0.00000001
 43
0.00000001
 40
0.0
 40
0.0
 40
0.0
 40
0.0
 40
0.3009736160920358
 40
1.0
 40
1.0
 40
1.0
 40
1.0
 10
230.8231500727638
 20
420.7151944691575
 30
0.0
 10
230.8550971489009
 20
420.750823461336
 30
0.0
 10
230.9612429185929
 20
420.8692025825397
 30
0.0
 10
231.0536406418688
 20
421.0270602894135
 30
0.0
 10
231.1182290882518
 20
421.1374069914215
 30
0.0
  0
LINE
  5
BB
330
1F
100
AcDbEntity
  8
0
  6
Continuous
 62
     8
370
     0
100
AcDbLine
 10
166.7017533442
 20
421.1374069914
 30
0.0
 11
167.0137577038
 21
420.7048792036
 31
0.0
  0
SPLINE
  5
BC
330
1F
100
AcDbEntity
  8
0
  6
Continuous
 62
     7
370
    15
100
AcDbSpline
210
0.0
220
0.0
230
1.0
 70
     8
 71
     3
 72
    24
 73
    20
 74
     0
 42
0.00000001
 43
0.00000001
 40
0.0
 40
0.0
 40
0.0
 40
0.0
 40
0.0504701205825159
 40
0.1119718519266453
 40
0.1673021063143718
 40
0.2390843740924377
 40
0.2974160266220353
 40
0.3287240006571062
 40
0.3539808754202495
 40
0.3750451643150462
 40
0.4075021797275059
 40
0.4441123381165893
 40
0.4926108096069762
 40
0.5506586222640268
 40
0.6177213136753483
 40
0.694878004411578
 40
0.7876194757510143
 40
0.8922357605406953
 40
1.0
 40
1.0
 40
1.0
 40
1.0
 10
377.4552234169441
 20
425.3617099669612
 30
0.0
 10
376.7331568790469
 20
425.7286062821215
 30
0.0
 10
375.1311966196013
 20
426.5425940316927
 30
0.0
 10
372.8442522347797
 20
427.9869809532112
 30
0.0
 10
370.3660166019466
 20
429.7596127887487
 30
0.0
 10
368.0649346077254
 20
431.6704337042502
 30
0.0
 10
366.194756586328
 20
433.4311775096699
 30
0.0
 10
364.9375684249829
 20
434.6951119533392
 30
0.0
 10
364.1355339846567
 20
435.5204541146625
 30
0.0
 10
363.3725265059188
 20
436.3035248095307
 30
0.0
 10
362.4058923580846
 20
437.3979702373549
 30
0.0
 10
361.2136812331087
 20
438.8829277185444
 30
0.0
 10
359.8715636954043
 20
440.6972771891179
 30
0.0
 10
358.4418245273267
 20
442.7620452635284
 30
0.0
 10
356.6474479925695
 20
445.288197154941
 30
0.0
 10
354.387548032533
 20
448.3547125052245
 30
0.0
 10
351.6461065037828
 20
451.8404056825382
 30
0.0
 10
348.3911381600984
 20
455.5427546771098
 30
0.0
 10
345.93341601955
 20
457.9068449731265
 30
0.0
 10
344.6863404780659
 20
459.1064106756044
 30
0.0
  0
SPLINE
  5
BD
330
1F
100
AcDbEntity
  8
0
  6
Continuous
 62
     7
370
    15
100
AcDbSpline
210
0.0
220
0.0
230
1.0
 70
     8
 71
     3
 72
    11
 73
     7
 74
     0
 42
0.00000001
 43
0.00000001
 40
0.0
 40
0.0
 40
0.0
 40
0.0
 40
0.0412671717942083
 40
0.3704977266586792
 40
0.7208709345265661
 40
1.0
 40
1.0
 40
1.0
 40
1.0
 10
422.8458618714199
 20
386.7143723764916
 30
0.0
 10
423.0694163654283
 20
386.7882950076441
 30
0.0
 10
425.076494345656
 20
387.4519742858669
 30
0.0
 10
429.0148289012256
 20
388.5752221789048
 30
0.0
 10
434.2538964996791
 20
390.0665542112089
 30
0.0
 10
437.6971624577021
 20
391.0685119505177
 30
0.0
 10
439.223949015498
 20
391.5127923594392
 30
0.0
  0
SPLINE
  5
BE
330
1F
100
AcDbEntity
  8
0
  6
Continuous
 62
     7
370
    15
100
AcDbSpline
210
0.0
220
0.0
230
1.0
 70
     8
 71
     3
 72
    14
 73
    10
 74
     0
 42
0.00000001
 43
0.00000001
 40
0.0
 40
0.0
 40
0.0
 40
0.0
 40
0.1577659648658582
 40
0.3646093259025903
 40
0.5505019700454649
 40
0.7161743618907465
 40
0.86207718380173
 40
0.9849658343729795
 40
1.0
 40
1.0
 40
1.0
 40
1.0
 10
368.9460915054153
 20
324.4751560197893
 30
0.0
 10
369.5142911283512
 20
325.6445346615026
 30
0.0
 10
370.827444327604
 20
328.3470589901339
 30
0.0
 10
372.8466445097602
 20
332.4416674897678
 30
0.0
 10
374.940583749326
 20
336.5817025874722
 30
0.0
 10
376.8525802265149
 20
340.2490887946244
 30
0.0
 10
378.5496558222159
 20
343.3971889009005
 30
0.0
 10
379.6729331066351
 20
345.4499826090527
 30
0.0
 10
380.2334302055734
 20
346.4424468179266
 30
0.0
 10
380.2945267409485
 20
346.5506295806223
 30
0.0
  0
SPLINE
  5
BF
330
1F
100
AcDbEntity
  8
0
  6
Continuous
 62
     7
370
    15
100
AcDbSpline
210
0.0
220
0.0
230
1.0
 70
     8
 71
     3
 72
    15
 73
    11
 74
     0
 42
0.00000001
 43
0.00000001
 40
0.0
 40
0.0
 40
0.0
 40
0.0
 40
0.0772501651719757
 40
0.1617940287868233
 40
0.2451102343240555
 40
0.3698596986741813
 40
0.4955115851010137
 40
0.6648561843134138
 40
0.8360004588589416
 40
1.0
 40
1.0
 40
1.0
 40
1.0
 10
342.2293917114686
 20
458.6771274678183
 30
0.0
 10
341.8162869376123
 20
457.8815727593939
 30
0.0
 10
340.9510734390459
 20
456.2153497667342
 30
0.0
 10
340.0245054092389
 20
453.4526437162678
 30
0.0
 10
339.1755675618315
 20
450.0779663895961
 30
0.0
 10
338.5415868532327
 20
446.1482109378874
 30
0.0
 10
338.0800737266571
 20
441.1856516097734
 30
0.0
 10
337.8604175225378
 20
435.6772533663619
 30
0.0
 10
337.8368950164515
 20
429.7365395628798
 30
0.0
 10
337.9099952113997
 20
425.8020195335865
 30
0.0
 10
337.9457661188958
 20
423.8766983752876
 30
0.0
  0
SPLINE
  5
C0
330
1F
100
AcDbEntity
  8
0
  6
Continuous
 62
     7
370
    15
100
AcDbSpline
210
0.0
220
0.0
230
1.0
 70
     8
 71
     3
 72
    20
 73
    16
 74
     0
 42
0.00000001
 43
0.00000001
 40
0.0
 40
0.0
 40
0.0
 40
0.0
 40
0.0120163468595071
 40
0.0472603362743856
 40
0.0922309631873924
 40
0.1471183658523208
 40
0.2118838332557698
 40
0.2864241208696763
 40
0.3664833128977253
 40
0.4555632492729308
 40
0.55406947577458
 40
0.6624788459324609
 40
0.7809595288947946
 40
0.9091186948426966
 40
1.0
 40
1.0
 40
1.0
 40
1.0
 10
338.1829305994048
 20
411.9223082510661
 30
0.0
 10
338.1904048087906
 20
411.6671039954944
 30
0.0
 10
338.2198009017206
 20
410.6633847222419
 30
0.0
 10
338.2665368326065
 20
408.553045483824
 30
0.0
 10
338.2949492628134
 20
405.4838900195634
 30
0.0
 10
338.2449746433314
 20
401.7183738991324
 30
0.0
 10
338.0474133044569
 20
397.2868364982827
 30
0.0
 10
337.6174693656691
 20
392.2915397796252
 30
0.0
 10
336.8596761235702
 20
386.7735710520053
 30
0.0
 10
335.6837432199048
 20
380.7714572211251
 30
0.0
 10
333.9776254925035
 20
374.236822124292
 30
0.0
 10
331.7065478082702
 20
367.1895140798208
 30
0.0
 10
328.9184436148853
 20
359.6295330341615
 30
0.0
 10
326.1774566147761
 20
352.4789356076902
 30
0.0
 10
324.3714710393306
 20
347.8448067019659
 30
0.0
 10
323.6221559681768
 20
345.9220767101321
 30
0.0
  0
SPLINE
  5
C1
330
1F
100
AcDbEntity
  8
0
  6
Continuous
 62
     7
370
    15
100
AcDbSpline
210
0.0
220
0.0
230
1.0
 70
     8
 71
     3
 72
    14
 73
    10
 74
     0
 42
0.00000001
 43
0.00000001
 40
0.0
 40
0.0
 40
0.0
 40
0.0
 40
0.1140535216037408
 40
0.261994471316822
 40
0.4333921361990627
 40
0.6168590097451729
 40
0.8006908746711425
 40
0.9493103046406765
 40
1.0
 40
1.0
 40
1.0
 40
1.0
 10
344.6226686990321
 20
459.2582226404174
 30
0.0
 10
344.5409341777382
 20
459.3306810804663
 30
0.0
 10
344.3531802847097
 20
459.4971267142891
 30
0.0
 10
343.9440148211136
 20
459.6669895902299
 30
0.0
 10
343.4386485789913
 20
459.7254214995356
 30
0.0
 10
342.8989698259082
 20
459.6042674401553
 30
0.0
 10
342.4611360380369
 20
459.3179075349213
 30
0.0
 10
342.1988794672142
 20
459.0249303562566
 30
0.0
 10
342.1209691989707
 20
458.8437623209816
 30
0.0
 10
342.1011545128337
 20
458.7976863949457
 30
0.0
  0
SPLINE
  5
C2
330
1F
100
AcDbEntity
  8
0
  6
Continuous
 62
     7
370
    15
100
AcDbSpline
210
0.0
220
0.0
230
1.0
 70
     8
 71
     3
 72
     9
 73
     5
 74
     0
 42
0.00000001
 43
0.00000001
 40
0.0
 40
0.0
 40
0.0
 40
0.0
 40
0.425376110993312
 40
1.0
 40
1.0
 40
1.0
 40
1.0
 10
380.2295104329357
 20
423.46814192936
 30
0.0
 10
380.1950030339323
 20
423.4846159798993
 30
0.0
 10
380.1138809443001
 20
423.5233441785771
 30
0.0
 10
380.0105924492411
 20
423.5317323627567
 30
0.0
 10
379.9512404125206
 20
423.5365524137716
 30
0.0
  0
LINE
  5
C3
330
1F
100
AcDbEntity
  8
0
  6
Continuous
 62
     7
370
    15
100
AcDbLine
 10
380.267181591
 20
423.4527515048
 30
0.0
 11
380.2295104329
 21
423.4681419294
 31
0.0
  0
ARC
  5
C4
330
1F
100
AcDbEntity
  8
0
  6
Continuous
 62
     7
370
    15
100
AcDbCircle
 10
338.3931663451
 20
423.9302863135
 30
0.0
 40
0.6017999837478748
100
AcDbArc
 50
181.5485938336
 51
258.9944834338
  0
SPLINE
  5
C5
330
1F
100
AcDbEntity
  8
0
  6
Continuous
 62
     7
370
    15
100
AcDbSpline
210
0.0
220
0.0
230
1.0
 70
     8
 71
     3
 72
    18
 73
    14
 74
     0
 42
0.00000001
 43
0.00000001
 40
0.0
 40
0.0
 40
0.0
 40
0.0
 40
0.0733972088786408
 40
0.2019281884534187
 40
0.3326807956495026
 40
0.4157001425430497
 40
0.4968466556628612
 40
0.5747090229233283
 40
0.6513245649299392
 40
0.7306950456809241
 40
0.8150331453718411
 40
0.904941417591508
 40
1.0
 40
1.0
 40
1.0
 40
1.0
 10
455.8747871300201
 20
397.3033574243165
 30
0.0
 10
456.3779955807881
 20
397.5360974056056
 30
0.0
 10
457.7624075009475
 20
398.1764046260084
 30
0.0
 10
459.9795259080159
 20
399.3862712135665
 30
0.0
 10
462.0871913057071
 20
400.6972247748713
 30
0.0
 10
463.7654025416555
 20
401.890168458432
 30
0.0
 10
465.1224726335938
 20
402.9515254531444
 30
0.0
 10
466.4555069281017
 20
404.0973425091765
 30
0.0
 10
467.7561398152885
 20
405.3214897631191
 30
0.0
 10
468.9789239094013
 20
406.5916401628347
 30
0.0
 10
470.123684338179
 20
407.9214721240093
 30
0.0
 10
471.1989588338504
 20
409.3231702067782
 30
0.0
 10
471.82548506182
 20
410.2974763897186
 30
0.0
 10
472.1474708316071
 20
410.7981940170379
 30
0.0
  0
ARC
  5
C6
330
1F
100
AcDbEntity
  8
0
  6
Continuous
 62
     7
370
    15
100
AcDbCircle
 10
366.1155270145
 20
319.3597791248
 30
0.0
 40
0.3009000000000128
100
AcDbArc
 50
270.0
 51
333.525343209
  0
LINE
  5
C7
330
1F
100
AcDbEntity
  8
0
  6
Continuous
 62
     7
370
    15
100
AcDbLine
 10
366.385149231
 20
319.2261819264
 30
0.0
 11
368.606950847
 21
323.7815503149
 31
0.0
  0
LINE
  5
C8
330
1F
100
AcDbEntity
  8
0
  6
Continuous
 62
     7
370
    15
100
AcDbLine
 10
323.0060655307
 20
346.2385465547
 30
0.0
 11
311.6602155164
 21
319.5093989562
 31
0.0
  0
ARC
  5
C9
330
1F
100
AcDbEntity
  8
0
  6
Continuous
 62
     7
370
    15
100
AcDbCircle
 10
311.9235915036
 20
319.3597791248
 30
0.0
 40
0.3009000000000128
100
AcDbArc
 50
146.8186718262
 51
270.0
  0
ARC
  5
CA
330
1F
100
AcDbEntity
  8
0
  6
Continuous
 62
     7
370
    15
100
AcDbCircle
 10
371.7366115334
 20
411.634724768
 30
0.0
 40
30.08999999999997
100
AcDbArc
 50
159.2278116837
 51
173.5400612127
  0
LINE
  5
CB
330
1F
100
AcDbEntity
  8
0
  6
Continuous
 62
     7
370
    15
100
AcDbLine
 10
373.2188238215
 20
421.7790984526
 30
0.0
 11
372.8845047402
 21
423.0267942502
 31
0.0
  0
LINE
  5
CC
330
1F
100
AcDbEntity
  8
0
  6
Continuous
 62
     7
370
    15
100
AcDbLine
 10
341.8515640863
 20
414.8338841965
 30
0.0
 11
342.216468501
 21
413.472042381
 31
0.0
  0
ARC
  5
CD
330
1F
100
AcDbEntity
  8
0
  6
Continuous
 62
     7
370
    15
100
AcDbCircle
 10
342.3359758881
 20
414.9636819477
 30
0.0
 40
0.5015000000000287
100
AcDbArc
 50
173.5400612127
 51
195.0
  0
LINE
  5
CE
330
1F
100
AcDbEntity
  8
0
  6
Continuous
 62
     7
370
    15
100
AcDbLine
 10
455.9461580442
 20
397.2799409488
 30
0.0
 11
455.9359147235
 21
397.3080842412
 31
0.0
  0
LINE
  5
CF
330
1F
100
AcDbEntity
  8
0
  6
Continuous
 62
     7
370
    15
100
AcDbLine
 10
438.5152663971
 20
391.2115271843
 30
0.0
 11
438.6039427891
 21
390.9678907997
 31
0.0
  0
LINE
  5
D0
330
1F
100
AcDbEntity
  8
0
  6
Continuous
 62
     7
370
    15
100
AcDbLine
 10
337.6724889887
 20
431.1079852039
 30
0.0
 11
337.4499711061
 21
431.088908692
 31
0.0
  0
ARC
  5
D1
330
1F
100
AcDbEntity
  8
0
  6
Continuous
 62
     7
370
    15
100
AcDbCircle
 10
337.4671057409
 20
430.8890418256
 30
0.0
 40
0.2006000000000447
100
AcDbArc
 50
94.9
 51
183.5794392696
  0
ARC
  5
D2
330
1F
100
AcDbEntity
  8
0
  6
Continuous
 62
     7
370
    15
100
AcDbCircle
 10
337.8612023409
 20
426.292103898
 30
0.0
 40
0.2006000000000392
100
AcDbArc
 50
186.2205607304
 51
232.5224866937
  0
ARC
  5
D3
330
1F
100
AcDbEntity
  8
0
  6
Continuous
 62
     7
370
    15
100
AcDbCircle
 10
437.3712315009
 20
437.1384847195
 30
0.0
 40
100.3000000000001
100
AcDbArc
 50
183.5794392694
 51
186.2205607306
  0
ARC
  5
D4
330
1F
100
AcDbEntity
  8
0
  6
Continuous
 62
     7
370
    15
100
AcDbCircle
 10
338.3931664449
 20
423.9302862935
 30
0.0
 40
0.6017999831566154
100
AcDbArc
 50
181.5224664527
 51
258.9947593947
  0
ARC
  5
D5
330
1F
100
AcDbEntity
  8
0
  6
Continuous
 62
     7
370
    15
100
AcDbCircle
 10
377.4224943837
 20
424.8657741848
 30
0.0
 40
0.6018000683521236
100
AcDbArc
 50
285.1710268549
 51
64.1295135375
  0
SPLINE
  5
D6
330
1F
100
AcDbEntity
  8
0
  6
Continuous
 62
     7
370
    15
100
AcDbSpline
210
0.0
220
0.0
230
1.0
 70
     8
 71
     3
 72
    24
 73
    20
 74
     0
 42
0.00000001
 43
0.00000001
 40
0.0
 40
0.0
 40
0.0
 40
0.0
 40
0.039980043137589
 40
0.0800311823767331
 40
0.1201149894340997
 40
0.1602325332913389
 40
0.2003974307096874
 40
0.2406172150123247
 40
0.2808836273522626
 40
0.3211681176950336
 40
0.3614273786918712
 40
0.4016297267388362
 40
0.4417453990303182
 40
0.537372796325011
 40
0.632369091979913
 40
0.7257332531492897
 40
0.8178985506320473
 40
0.9091426570771023
 40
1.0
 40
1.0
 40
1.0
 40
1.0
 10
361.5085602092399
 20
439.08356808735
 30
0.0
 10
361.2926340213089
 20
439.3606124557589
 30
0.0
 10
360.8603976661167
 20
439.9151938577414
 30
0.0
 10
360.2190511964214
 20
440.7532421695902
 30
0.0
 10
359.5799772160931
 20
441.5945301703723
 30
0.0
 10
358.943487017008
 20
442.4390293650115
 30
0.0
 10
358.3087578777436
 20
443.2863439075622
 30
0.0
 10
357.6749935755848
 20
444.1360119614454
 30
0.0
 10
357.0412613220016
 20
444.987013695564
 30
0.0
 10
356.4069477411272
 20
445.8380152587958
 30
0.0
 10
355.7714979819368
 20
446.6874664016922
 30
0.0
 10
355.1339363969876
 20
447.5334829945529
 30
0.0
 10
354.1968629825412
 20
448.7628605862139
 30
0.0
 10
352.9475109995452
 20
450.359538396126
 30
0.0
 10
351.3583359292671
 20
452.2833878920792
 30
0.0
 10
349.734794941814
 20
454.1381900504002
 30
0.0
 10
348.0740355426776
 20
455.9149190516229
 30
0.0
 10
346.3722042193029
 20
457.6214641949867
 30
0.0
 10
345.2074037675662
 20
458.7183057459791
 30
0.0
 10
344.626240495953
 20
459.265561735849
 30
0.0
  0
SPLINE
  5
D7
330
1F
100
AcDbEntity
  8
0
  6
Continuous
 62
     7
370
    15
100
AcDbSpline
210
0.0
220
0.0
230
1.0
 70
     8
 71
     3
 72
    26
 73
    22
 74
     0
 42
0.00000001
 43
0.00000001
 40
0.0
 40
0.0
 40
0.0
 40
0.0
 40
0.0290992113130854
 40
0.0582053890888993
 40
0.0873155057903772
 40
0.1164335036086714
 40
0.1455660287882992
 40
0.174721522966314
 40
0.203909311235471
 40
0.2331386825134513
 40
0.2624179576758121
 40
0.2917535409101365
 40
0.3211489499182594
 40
0.4036112448880974
 40
0.4866517083534349
 40
0.5423876683592094
 40
0.6553496433485391
 40
0.7694085474945421
 40
0.8456003211867027
 40
0.922478847192527
 40
1.0
 40
1.0
 40
1.0
 40
1.0
 10
377.6873998673647
 20
425.4060888644514
 30
0.0
 10
377.5016098471692
 20
425.4981677164861
 30
0.0
 10
377.1299853279352
 20
425.6823474645857
 30
0.0
 10
376.577734596128
 20
425.9690083300242
 30
0.0
 10
376.0293984817817
 20
426.2633365982504
 30
0.0
 10
375.4854493852246
 20
426.5660969608622
 30
0.0
 10
374.9458269574044
 20
426.8771466704508
 30
0.0
 10
374.4105618174402
 20
427.196609801012
 30
0.0
 10
373.8796360014086
 20
427.5245486871141
 30
0.0
 10
373.3530410781913
 20
427.8610395176516
 30
0.0
 10
372.8307832886935
 20
428.2061362714268
 30
0.0
 10
372.3128980120995
 20
428.5598671616573
 30
0.0
 10
371.4908631083084
 20
429.1399985239836
 30
0.0
 10
370.3795674398942
 20
429.9736776290147
 30
0.0
 10
369.1590191937148
 20
430.9721915681418
 30
0.0
 10
367.8097989336067
 20
432.1545484729137
 30
0.0
 10
366.3479405916896
 20
433.5425374181154
 30
0.0
 10
364.8561179346033
 20
435.1065482529466
 30
0.0
 10
363.5929319513931
 20
436.5307324531693
 30
0.0
 10
362.5347811609255
 20
437.7881245999345
 30
0.0
 10
361.8515816831627
 20
438.6505571130762
 30
0.0
 10
361.5085601722328
 20
439.083568134545
 30
0.0
  0
SPLINE
  5
D8
330
1F
100
AcDbEntity
  8
0
  6
Continuous
 62
     7
370
    15
100
AcDbSpline
210
0.0
220
0.0
230
1.0
 70
     8
 71
     3
 72
    14
 73
    10
 74
     0
 42
0.00000001
 43
0.00000001
 40
0.0
 40
0.0
 40
0.0
 40
0.0
 40
0.4999999999999999
 40
0.4999999999999999
 40
0.6249999999999999
 40
0.6249999999999999
 40
0.7499999999999998
 40
0.7499999999999998
 40
1.0
 40
1.0
 40
1.0
 40
1.0
 10
365.833215495257
 20
421.1374069914215
 30
0.0
 10
363.5276265366397
 20
420.5196262918819
 30
0.0
 10
361.2084532208464
 20
420.1846820149077
 30
0.0
 10
358.3143905456926
 20
420.0921456072443
 30
0.0
 10
357.7358420796554
 20
420.0900926387302
 30
0.0
 10
356.5799726390406
 20
420.1187282981124
 30
0.0
 10
356.0015513001621
 20
420.1495840452254
 30
0.0
 10
354.2880260297374
 20
420.2892481470801
 30
0.0
 10
353.1691935666385
 20
420.4450538837648
 30
0.0
 10
352.0784192947394
 20
420.6570789239437
 30
0.0
  0
SPLINE
  5
D9
330
1F
100
AcDbEntity
  8
0
  6
Continuous
 62
     7
370
    15
100
AcDbSpline
210
0.0
220
0.0
230
1.0
 70
     8
 71
     3
 72
     9
 73
     5
 74
     0
 42
0.00000001
 43
0.00000001
 40
0.0
 40
0.0
 40
0.0
 40
0.0
 40
0.5072204117406551
 40
1.0
 40
1.0
 40
1.0
 40
1.0
 10
438.5152664005482
 20
391.2115271367115
 30
0.0
 10
436.6646658422678
 20
390.6970797123205
 30
0.0
 10
433.0161522662278
 20
389.682831443751
 30
0.0
 10
429.371774596324
 20
388.6538216622089
 30
0.0
 10
427.5758996686873
 20
388.1467466457458
 30
0.0
  0
SPLINE
  5
DA
330
1F
100
AcDbEntity
  8
0
  6
Continuous
 62
     7
370
    15
100
AcDbSpline
210
0.0
220
0.0
230
1.0
 70
     8
 71
     3
 72
    24
 73
    20
 74
     0
 42
0.00000001
 43
0.00000001
 40
0.0
 40
0.0
 40
0.0
 40
0.0
 40
0.0590374838279524
 40
0.1179416268941751
 40
0.1638048554843951
 40
0.2100675541922329
 40
0.2577091647481575
 40
0.3076090298786809
 40
0.3483107908936741
 40
0.3917292061295981
 40
0.4361406647479981
 40
0.4814261486611456
 40
0.5294491717914512
 40
0.607677113076824
 40
0.6880865070084158
 40
0.7708044871926885
 40
0.8492965251358404
 40
0.9254149256403744
 40
1.0
 40
1.0
 40
1.0
 40
1.0
 10
427.0277972378936
 20
387.9831356487999
 30
0.0
 10
425.3233532954499
 20
387.477976374678
 30
0.0
 10
421.9183150301409
 20
386.4687987680537
 30
0.0
 10
417.2500883680916
 20
384.8701215793162
 30
0.0
 10
413.0304342671335
 20
383.1672947397439
 30
0.0
 10
409.2602449699984
 20
381.2835937159992
 30
0.0
 10
405.6017449863033
 20
378.9508316809826
 30
0.0
 10
402.354756826925
 20
376.3347172745602
 30
0.0
 10
399.4156609149192
 20
373.566300606043
 30
0.0
 10
396.761532276827
 20
370.7467088636735
 30
0.0
 10
394.1671846355858
 20
367.6895818355037
 30
0.0
 10
391.6246768937859
 20
364.4122531799266
 30
0.0
 10
388.6167913729406
 20
360.212175743506
 30
0.0
 10
385.2134250563091
 20
354.9998112585365
 30
0.0
 10
381.4951696866859
 20
348.7540618432248
 30
0.0
 10
377.9773271961177
 20
342.3847717502019
 30
0.0
 10
374.6737689547078
 20
336.0477359349635
 30
0.0
 10
371.5836198264915
 20
329.8769179701631
 30
0.0
 10
369.5926291767947
 20
325.799320280611
 30
0.0
 10
368.6072624771164
 20
323.7812651086384
 30
0.0
  0
SPLINE
  5
DB
330
1F
100
AcDbEntity
  8
0
  6
Continuous
 62
     7
370
    15
100
AcDbSpline
210
0.0
220
0.0
230
1.0
 70
     8
 71
     3
 72
    32
 73
    28
 74
     0
 42
0.00000001
 43
0.00000001
 40
0.0
 40
0.0
 40
0.0
 40
0.0
 40
0.0624999999999998
 40
0.0624999999999998
 40
0.1249999999999996
 40
0.1874999999999994
 40
0.1874999999999994
 40
0.2499999999999992
 40
0.2499999999999992
 40
0.3750000000000011
 40
0.3750000000000011
 40
0.4375000000000011
 40
0.4375000000000011
 40
0.5000000000000009
 40
0.5625000000000007
 40
0.5625000000000007
 40
0.6250000000000004
 40
0.6250000000000004
 40
0.7500000000000004
 40
0.7500000000000004
 40
0.8125000000000004
 40
0.8125000000000004
 40
0.8750000000000003
 40
0.8750000000000003
 40
0.9375000000000002
 40
0.9375000000000002
 40
1.0
 40
1.0
 40
1.0
 40
1.0
 10
449.3190790022311
 20
395.1630773524379
 30
0.0
 10
448.99511766338
 20
395.0618549858791
 30
0.0
 10
448.662794704418
 20
394.9574398184008
 30
0.0
 10
448.0005706497949
 20
394.7473364682653
 30
0.0
 10
447.3382370365816
 20
394.5351819658414
 30
0.0
 10
446.6761390830303
 20
394.3176211646104
 30
0.0
 10
446.0143254787857
 20
394.0968003354603
 30
0.0
 10
445.6818902426635
 20
393.9841666653547
 30
0.0
 10
444.7089369981211
 20
393.6489816157572
 30
0.0
 10
444.0861970897015
 20
393.4269485836642
 30
0.0
 10
443.1906099899591
 20
393.0970182033349
 30
0.0
 10
442.8973924619928
 20
392.9871385035539
 30
0.0
 10
442.3382111919847
 20
392.7743908371115
 30
0.0
 10
441.8029055332972
 20
392.5674437112414
 30
0.0
 10
441.3140083434347
 20
392.3731835601316
 30
0.0
 10
440.8485248422548
 20
392.1861375003035
 30
0.0
 10
440.626979918719
 20
392.0960019198879
 30
0.0
 10
440.0139572691072
 20
391.8443768048425
 30
0.0
 10
439.6675016855217
 20
391.6991225134643
 30
0.0
 10
439.2404264878571
 20
391.518881764902
 30
0.0
 10
439.113656239519
 20
391.4651169097263
 30
0.0
 10
438.8978361119267
 20
391.3734580195658
 30
0.0
 10
438.8077838249117
 20
391.3351409922742
 30
0.0
 10
438.6628034925828
 20
391.2735355795381
 30
0.0
 10
438.607874465278
 20
391.2502464388633
 30
0.0
 10
438.5339900938985
 20
391.2191013374494
 30
0.0
 10
438.5153239970086
 20
391.211368929946
 30
0.0
 10
438.5152663971388
 20
391.2115271842853
 30
0.0
  0
SPLINE
  5
DC
330
1F
100
AcDbEntity
  8
0
  6
Continuous
 62
     7
370
    15
100
AcDbSpline
210
0.0
220
0.0
230
1.0
 70
     8
 71
     3
 72
     9
 73
     5
 74
     0
 42
0.00000001
 43
0.00000001
 40
0.0
 40
0.0
 40
0.0
 40
0.0
 40
0.499962679648925
 40
1.0
 40
1.0
 40
1.0
 40
1.0
 10
337.7391985404695
 20
426.1328699922207
 30
0.0
 10
337.7472818139319
 20
425.7631907702091
 30
0.0
 10
337.7634495676293
 20
425.0237771358331
 30
0.0
 10
337.7822334327134
 20
424.2844253342506
 30
0.0
 10
337.791626066276
 20
423.9147218405905
 30
0.0
  0
SPLINE
  5
DD
330
1F
100
AcDbEntity
  8
0
  6
Continuous
 62
     7
370
    15
100
AcDbSpline
210
0.0
220
0.0
230
1.0
 70
     8
 71
     3
 72
    18
 73
    14
 74
     0
 42
0.00000001
 43
0.00000001
 40
0.0
 40
0.0
 40
0.0
 40
0.0
 40
0.25
 40
0.25
 40
0.5
 40
0.5
 40
0.625
 40
0.625
 40
0.75
 40
0.75
 40
0.875
 40
0.875
 40
1.0
 40
1.0
 40
1.0
 40
1.0
 10
337.7391984209623
 20
426.1328700965749
 30
0.0
 10
337.7387581250581
 20
426.1332074484043
 30
0.0
 10
337.7387093967383
 20
426.1694931068077
 30
0.0
 10
337.7391138872764
 20
426.3170532902726
 30
0.0
 10
337.7395504564358
 20
426.4251545195957
 30
0.0
 10
337.7399551717178
 20
426.6391647522205
 30
0.0
 10
337.7400441582932
 20
426.7196933493724
 30
0.0
 10
337.740006005351
 20
426.893033820099
 30
0.0
 10
337.7398808599898
 20
426.9864521408388
 30
0.0
 10
337.7393049562708
 20
427.1869636074111
 30
0.0
 10
337.7388479188719
 20
427.2949599669697
 30
0.0
 10
337.7375238275337
 20
427.5195355992259
 30
0.0
 10
337.7366589721868
 20
427.6363266436454
 30
0.0
 10
337.7355554913117
 20
427.7577109807028
 30
0.0
  0
SPLINE
  5
DE
330
1F
100
AcDbEntity
  8
0
  6
Continuous
 62
     7
370
    15
100
AcDbSpline
210
0.0
220
0.0
230
1.0
 70
     8
 71
     3
 72
    22
 73
    18
 74
     0
 42
0.00000001
 43
0.00000001
 40
0.0
 40
0.0
 40
0.0
 40
0.0
 40
0.125
 40
0.125
 40
0.25
 40
0.25
 40
0.375
 40
0.375
 40
0.5
 40
0.5
 40
0.625
 40
0.625
 40
0.75
 40
0.75
 40
0.875
 40
0.875
 40
1.0
 40
1.0
 40
1.0
 40
1.0
 10
337.6724890215323
 20
431.107985206696
 30
0.0
 10
337.6719930941865
 20
431.1079419703107
 30
0.0
 10
337.6722045594348
 20
431.0835407221082
 30
0.0
 10
337.6739883652671
 20
430.9891328889881
 30
0.0
 10
337.675583917533
 20
430.9178944411687
 30
0.0
 10
337.679947296817
 20
430.7337020507064
 30
0.0
 10
337.6826873372611
 20
430.6217983456013
 30
0.0
 10
337.6891098996736
 20
430.3578355621154
 30
0.0
 10
337.6927254440632
 20
430.2084499469206
 30
0.0
 10
337.7002999789345
 20
429.8833729977486
 30
0.0
 10
337.7043331798054
 20
429.7042499624267
 30
0.0
 10
337.7121240734677
 20
429.3338558997658
 30
0.0
 10
337.7159300481516
 20
429.1405370370288
 30
0.0
 10
337.7230002083714
 20
428.7419638664744
 30
0.0
 10
337.7261507240897
 20
428.5431049453999
 30
0.0
 10
337.7315686497939
 20
428.1462173451961
 30
0.0
 10
337.7338267894409
 20
427.9478704436312
 30
0.0
 10
337.7355554913117
 20
427.7577109807033
 30
0.0
  0
SPLINE
  5
DF
330
1F
100
AcDbEntity
  8
0
  6
Continuous
 62
     7
370
    15
100
AcDbSpline
210
0.0
220
0.0
230
1.0
 70
     8
 71
     3
 72
    75
 73
    71
 74
     0
 42
0.00000001
 43
0.00000001
 40
0.0
 40
0.0
 40
0.0
 40
0.0
 40
0.0149060607076247
 40
0.0297563205642629
 40
0.0445562571361545
 40
0.0593108343226793
 40
0.0740249128204367
 40
0.088703015790451
 40
0.1033493703207283
 40
0.1179679396835289
 40
0.1325624453528096
 40
0.1471363808570028
 40
0.1616930188891598
 40
0.1762354125185367
 40
0.1907663908618273
 40
0.2052885412700802
 40
0.2198041946584189
 40
0.2343154219425831
 40
0.2488240101438965
 40
0.2633314354465275
 40
0.2778388348417301
 40
0.2923469762655712
 40
0.3068562271743319
 40
0.3213665215322528
 40
0.3358773289246529
 40
0.3503878799114346
 40
0.3648975977337361
 40
0.3794060209255977
 40
0.3939127861550867
 40
0.4084176271167596
 40
0.4229203724795802
 40
0.4374209429038472
 40
0.4519193471508506
 40
0.46641567731719
 40
0.4809101032322973
 40
0.4954028664955739
 40
0.5098942832615088
 40
0.5243847423918825
 40
0.5388746935109839
 40
0.5533646406775556
 40
0.5678551360742217
 40
0.582346773435686
 40
0.5968401812308682
 40
0.6113360156106376
 40
0.6258349531328113
 40
0.640337683275943
 40
0.6548449007529886
 40
0.669357297635344
 40
0.6838755552969268
 40
0.6984003361871757
 40
0.7129322754406692
 40
0.7274719723297915
 40
0.7420199815655759
 40
0.7565768044503813
 40
0.7711428798849741
 40
0.7857185752302449
 40
0.8003041748136638
 40
0.8148998631481362
 40
0.829505725888167
 40
0.8441217440334524
 40
0.8587477840424762
 40
0.8733835878280372
 40
0.8880287626572754
 40
0.9026827709757185
 40
0.9173449201727715
 40
0.9320143523034201
 40
0.9466900337785767
 40
0.9613707450334874
 40
0.9806827093777566
 40
0.9999999999999999
 40
0.9999999999999999
 40
0.9999999999999999
 40
0.9999999999999999
 10
342.1329314336041
 20
458.8801448278324
 30
0.0
 10
342.0643999083584
 20
458.7567277291376
 30
0.0
 10
341.9275934056905
 20
458.5103555437623
 30
0.0
 10
341.7323501115865
 20
458.1362398926441
 30
0.0
 10
341.5444838295303
 20
457.7599960720127
 30
0.0
 10
341.3643825197672
 20
457.3813939691121
 30
0.0
 10
341.1915145214568
 20
457.0007075890429
 30
0.0
 10
341.0256155807282
 20
456.6180504194598
 30
0.0
 10
340.8663721161799
 20
456.2335569809242
 30
0.0
 10
340.7135045029688
 20
455.8473371592831
 30
0.0
 10
340.5667435803657
 20
455.459490413138
 30
0.0
 10
340.4258358395359
 20
455.0701039598754
 30
0.0
 10
340.2905409145917
 20
454.679255265163
 30
0.0
 10
340.1606313160692
 20
454.2870133238144
 30
0.0
 10
340.0358905994614
 20
453.8934406509205
 30
0.0
 10
339.9161154027942
 20
453.498593993271
 30
0.0
 10
339.8011175608913
 20
453.1025251320081
 30
0.0
 10
339.6907167296824
 20
452.705284389879
 30
0.0
 10
339.5847417419391
 20
452.3069213889491
 30
0.0
 10
339.4830302714552
 20
451.9074865553534
 30
0.0
 10
339.3854288438222
 20
451.5070325157158
 30
0.0
 10
339.291792640412
 20
451.1056155494222
 30
0.0
 10
339.2019852534594
 20
450.7032970463803
 30
0.0
 10
339.1158783524525
 20
450.3001449474807
 30
0.0
 10
339.0333507925335
 20
449.8962327704476
 30
0.0
 10
338.9542869475325
 20
449.4916342572459
 30
0.0
 10
338.8785754143967
 20
449.086418358377
 30
0.0
 10
338.8061083243945
 20
448.680646410045
 30
0.0
 10
338.7367813943258
 20
448.2743733167438
 30
0.0
 10
338.6704937657018
 20
447.8676480213022
 30
0.0
 10
338.6071477670363
 20
447.460513826217
 30
0.0
 10
338.5466486268729
 20
447.0530087242318
 30
0.0
 10
338.4889041758302
 20
446.6451657331212
 30
0.0
 10
338.4338244192165
 20
446.2370132486901
 30
0.0
 10
338.3813214435768
 20
445.82857535534
 30
0.0
 10
338.3313079351873
 20
445.4198722121861
 30
0.0
 10
338.2837016639573
 20
445.0109196592144
 30
0.0
 10
338.23842625158
 20
444.6017294366583
 30
0.0
 10
338.1954070320613
 20
444.1923099970697
 30
0.0
 10
338.1545719789404
 20
443.7826667274176
 30
0.0
 10
338.1158514251322
 20
443.3728022620695
 30
0.0
 10
338.0791780924614
 20
442.9627167553717
 30
0.0
 10
338.0444870292965
 20
442.5524081661644
 30
0.0
 10
338.0117155647256
 20
442.1418725407476
 30
0.0
 10
337.9808032509458
 20
441.7311042977522
 30
0.0
 10
337.9516918021809
 20
441.3200965138528
 30
0.0
 10
337.9243250285018
 20
440.9088412104863
 30
0.0
 10
337.8986487654647
 20
440.4973296414383
 30
0.0
 10
337.8746107996855
 20
440.0855525812628
 30
0.0
 10
337.8521607905224
 20
439.6735006145059
 30
0.0
 10
337.8312501879422
 20
439.2611644257277
 30
0.0
 10
337.8118321462027
 20
438.8485350903545
 30
0.0
 10
337.7938614340013
 20
438.4356043664068
 30
0.0
 10
337.7772943372525
 20
438.0223649872052
 30
0.0
 10
337.7620885668373
 20
437.6088109550714
 30
0.0
 10
337.7482031235824
 20
437.1949378574106
 30
0.0
 10
337.7355982985654
 20
436.780743252738
 30
0.0
 10
337.7242329275091
 20
436.3662270295408
 30
0.0
 10
337.7140675906597
 20
435.9513915249309
 30
0.0
 10
337.7050645654364
 20
435.5362417007805
 30
0.0
 10
337.6971875751457
 20
435.1207854209484
 30
0.0
 10
337.6904016143677
 20
434.70503376466
 30
0.0
 10
337.6846727041569
 20
434.2890013386724
 30
0.0
 10
337.6799678844254
 20
433.8727065893419
 30
0.0
 10
337.6762543646006
 20
433.4561721089293
 30
0.0
 10
337.6735018481301
 20
433.0394249568558
 30
0.0
 10
337.6716730397824
 20
432.6224969181478
 30
0.0
 10
337.6706622029218
 20
432.161600581012
 30
0.0
 10
337.6706786966552
 20
431.6567456645408
 30
0.0
 10
337.6718855095254
 20
431.2909221706126
 30
0.0
 10
337.6724889991593
 20
431.1079852034156
 30
0.0
  0
SPLINE
  5
E0
330
1F
100
AcDbEntity
  8
0
  6
Continuous
 62
     7
370
    15
100
AcDbSpline
210
0.0
220
0.0
230
1.0
 70
     8
 71
     3
 72
    20
 73
    16
 74
     0
 42
0.00000001
 43
0.00000001
 40
0.0
 40
0.0
 40
0.0
 40
0.0
 40
0.0575442976742893
 40
0.1148996203066671
 40
0.1720394489999782
 40
0.2289635902050075
 40
0.2856898006085086
 40
0.3422456535526089
 40
0.3986605995024726
 40
0.4549582250111192
 40
0.5111487045115919
 40
0.5672214273246987
 40
0.781215828344246
 40
0.9934645884677042
 40
1.0
 40
1.0
 40
1.0
 40
1.0
 10
397.3756216861191
 20
419.3526078660735
 30
0.0
 10
397.0400334591
 20
419.392905704287
 30
0.0
 10
396.369959074282
 20
419.4733690429156
 30
0.0
 10
395.3682829392786
 20
419.6068508037071
 30
0.0
 10
394.3716458298719
 20
419.7500888788944
 30
0.0
 10
393.380404866647
 20
419.9044645725907
 30
0.0
 10
392.3944925606182
 20
420.0702900689993
 30
0.0
 10
391.4137292110592
 20
420.2482212136145
 30
0.0
 10
390.4379189303984
 20
420.4388644997287
 30
0.0
 10
389.4670020329442
 20
420.6428494356543
 30
0.0
 10
388.5011671280777
 20
420.860774420029
 30
0.0
 10
386.6385695421318
 20
421.3115190566793
 30
0.0
 10
383.9112301842467
 20
422.0858640351083
 30
0.0
 10
381.5194821227207
 20
422.9556665721042
 30
0.0
 10
380.3317807466751
 20
423.4463305627878
 30
0.0
 10
380.2963023242134
 20
423.4609874325189
 30
0.0
  0
SPLINE
  5
E1
330
1F
100
AcDbEntity
  8
0
  6
Continuous
 62
     7
370
    15
100
AcDbSpline
210
0.0
220
0.0
230
1.0
 70
     8
 71
     3
 72
    22
 73
    18
 74
     0
 42
0.00000001
 43
0.00000001
 40
0.0
 40
0.0
 40
0.0
 40
0.0
 40
0.0280313069001414
 40
0.0560400140184838
 40
0.0840192391147739
 40
0.1119710968927158
 40
0.1399856213110222
 40
0.1679976585565917
 40
0.1958634663341268
 40
0.313144825808309
 40
0.4300507918627538
 40
0.5468961219797482
 40
0.6641882743167884
 40
0.7832760958105351
 40
0.9027090885503066
 40
0.9513486635186708
 40
1.0
 40
1.0
 40
1.0
 40
1.0
 10
338.175316979612
 20
411.9139897636229
 30
0.0
 10
338.1886314535256
 20
411.2774939719855
 30
0.0
 10
338.2152496667763
 20
410.0050155530115
 30
0.0
 10
338.2405957260548
 20
408.0969591069069
 30
0.0
 10
338.2508957352588
 20
406.1905613587911
 30
0.0
 10
338.2402155048115
 20
404.2840118909908
 30
0.0
 10
338.2051831785668
 20
402.3770040655393
 30
0.0
 10
338.1432633386319
 20
400.4726010692265
 30
0.0
 10
337.9563097257362
 20
396.5443266113208
 30
0.0
 10
337.4277897028921
 20
390.6103194042304
 30
0.0
 10
336.0989607076962
 20
382.7404505734075
 30
0.0
 10
334.1324480707312
 20
375.0056897060307
 30
0.0
 10
331.617144566927
 20
367.3829882770771
 30
0.0
 10
328.7136806641589
 20
359.8396801187679
 30
0.0
 10
326.2133783642259
 20
353.8158931080471
 30
0.0
 10
324.2981618630113
 20
349.2816688106639
 30
0.0
 10
323.4344613658135
 20
347.2478387429442
 30
0.0
 10
323.002558910773
 20
346.2308007740725
 30
0.0
  0
SPLINE
  5
E2
330
1F
100
AcDbEntity
  8
0
  6
Continuous
 62
     7
370
    15
100
AcDbSpline
210
0.0
220
0.0
230
1.0
 70
     8
 71
     3
 72
    10
 73
     6
 74
     0
 42
0.00000001
 43
0.00000001
 40
0.0
 40
0.0
 40
0.0
 40
0.0
 40
0.5
 40
0.5
 40
1.0
 40
1.0
 40
1.0
 40
1.0
 10
338.6212102024696
 20
412.5086958232857
 30
0.0
 10
338.5015479644274
 20
412.4766324232378
 30
0.0
 10
338.3786703937698
 20
412.3993727467473
 30
0.0
 10
338.2122786789133
 20
412.1774492984649
 30
0.0
 10
338.1725560739085
 20
412.0378424578606
 30
0.0
 10
338.1753169796744
 20
411.9139897608243
 30
0.0
  0
SPLINE
  5
E3
330
1F
100
AcDbEntity
  8
0
  6
Continuous
 62
     7
370
    15
100
AcDbSpline
210
0.0
220
0.0
230
1.0
 70
    24
 71
     3
 72
    39
 73
    35
 74
     0
 42
0.00000001
 43
0.00000001
 40
0.0
 40
0.0
 40
0.0
 40
0.0
 40
0.0154095902943683
 40
0.0306328386482258
 40
0.0456725319976125
 40
0.0605315605607914
 40
0.0752129212551061
 40
0.0897197211099735
 40
0.1040551806568183
 40
0.1182226372742455
 40
0.1322255484641216
 40
0.146067495031489
 40
0.159752184138428
 40
0.173283452199135
 40
0.1866652675806617
 40
0.1999017330710123
 40
0.2129970880737084
 40
0.2259557104855798
 40
0.238782118212519
 40
0.251480970276361
 40
0.3151785619822792
 40
0.3764137568746401
 40
0.43874228524748
 40
0.5004411972701585
 40
0.5619419455723028
 40
0.6249415243183021
 40
0.6857892433177809
 40
0.7498220407913787
 40
0.8101789622809965
 40
0.8745961111583861
 40
0.9037978184174088
 40
0.9344219067745124
 40
0.9664845915299654
 40
1.0
 40
1.0
 40
1.0
 40
1.0
 10
338.6212102024696
 20
412.5086958232856
 30
0.0
 10
338.6221751129353
 20
412.5089543702657
 30
0.0
 10
338.6240932655948
 20
412.5094683377217
 30
0.0
 10
338.6392764252308
 20
412.5135366530847
 30
0.0
 10
338.663505747032
 20
412.5200288802945
 30
0.0
 10
338.6976344360386
 20
412.5291736349526
 30
0.0
 10
338.7414382134919
 20
412.5409108217466
 30
0.0
 10
338.7949763284121
 20
412.5552563164038
 30
0.0
 10
338.8582334393622
 20
412.5722060081985
 30
0.0
 10
338.9312138527969
 20
412.5917610510415
 30
0.0
 10
339.013916722654
 20
412.6139212182315
 30
0.0
 10
339.1063425761222
 20
412.638686651028
 30
0.0
 10
339.2084916020837
 20
412.666057400042
 30
0.0
 10
339.3203640772322
 20
412.6960335394133
 30
0.0
 10
339.4419603410503
 20
412.728615160106
 30
0.0
 10
339.573280478177
 20
412.7638022847991
 30
0.0
 10
339.7143255867524
 20
412.8015952077382
 30
0.0
 10
339.8650930853817
 20
412.8419932372408
 30
0.0
 10
340.0255939556764
 20
412.8849993158208
 30
0.0
 10
340.424144560758
 20
412.9917906285953
 30
0.0
 10
341.1655358549275
 20
413.1904458271435
 30
0.0
 10
342.4834376323554
 20
413.5435765441088
 30
0.0
 10
344.1048508206613
 20
413.9780328985125
 30
0.0
 10
346.0391262652053
 20
414.4963204418175
 30
0.0
 10
348.2584664344637
 20
415.0909908479002
 30
0.0
 10
350.6984158114842
 20
415.7447733130457
 30
0.0
 10
353.3490759408934
 20
416.4550155541303
 30
0.0
 10
356.0889910578513
 20
417.189173597049
 30
0.0
 10
358.9684767385929
 20
417.9607294598206
 30
0.0
 10
361.3638210012614
 20
418.6025600205972
 30
0.0
 10
363.3142417153315
 20
419.1251736758333
 30
0.0
 10
364.7635786387477
 20
419.5135223340232
 30
0.0
 10
366.2862830673387
 20
419.9215297559755
 30
0.0
 10
367.3279645950767
 20
420.2006474801033
 30
0.0
 10
367.8603433237138
 20
420.343297930509
 30
0.0
  0
SPLINE
  5
E4
330
1F
100
AcDbEntity
  8
0
  6
Continuous
 62
     7
370
    15
100
AcDbSpline
210
0.0
220
0.0
230
1.0
 70
    24
 71
     3
 72
    19
 73
    15
 74
     0
 42
0.00000001
 43
0.00000001
 40
0.0
 40
0.0
 40
0.0
 40
0.0
 40
0.0546606797758744
 40
0.1116051014007831
 40
0.1714383176585047
 40
0.2346825249363211
 40
0.3017803275349759
 40
0.3731026231082904
 40
0.4489583674592448
 40
0.5296044301600202
 40
0.6457455474174691
 40
0.771143090544226
 40
0.8980885850169908
 40
1.0
 40
1.0
 40
1.0
 40
1.0
 10
367.8603433237145
 20
420.3432979305093
 30
0.0
 10
367.8872985833842
 20
420.3505205705695
 30
0.0
 10
367.9423353026685
 20
420.3652676150558
 30
0.0
 10
368.0272988909817
 20
420.3880335399305
 30
0.0
 10
368.1156037131753
 20
420.411694745725
 30
0.0
 10
368.2073699204542
 20
420.4362834268578
 30
0.0
 10
368.3025748591423
 20
420.4617935132948
 30
0.0
 10
368.4012408077838
 20
420.4882309745537
 30
0.0
 10
368.5033828267865
 20
420.5155998460588
 30
0.0
 10
368.6222920587209
 20
420.5474614787281
 30
0.0
 10
368.7583972975809
 20
420.5839307675664
 30
0.0
 10
368.9081963656166
 20
420.6240693068734
 30
0.0
 10
369.048675697731
 20
420.6617106304668
 30
0.0
 10
369.1287821028889
 20
420.6831750770373
 30
0.0
 10
369.1644539867671
 20
420.6927333295151
 30
0.0
  0
SPLINE
  5
E5
330
1F
100
AcDbEntity
  8
0
  6
Continuous
 62
     7
370
    15
100
AcDbSpline
210
0.0
220
0.0
230
1.0
 70
    24
 71
     3
 72
    14
 73
    10
 74
     0
 42
0.00000001
 43
0.00000001
 40
0.0
 40
0.0
 40
0.0
 40
0.0
 40
0.25
 40
0.25
 40
0.5
 40
0.5
 40
0.75
 40
0.75
 40
1.0
 40
1.0
 40
1.0
 40
1.0
 10
367.4195421318352
 20
421.5624619326247
 30
0.0
 10
367.340445448454
 20
421.5412680401886
 30
0.0
 10
367.2470821729023
 20
421.5162514259019
 30
0.0
 10
367.0400637876828
 20
421.4607810167639
 30
0.0
 10
366.9311420323259
 20
421.4315955203779
 30
0.0
 10
366.704944177901
 20
421.370985987955
 30
0.0
 10
366.5862053518457
 20
421.3391700154033
 30
0.0
 10
366.3495176273316
 20
421.2757497307614
 30
0.0
 10
366.2311908501075
 20
421.2440441663612
 30
0.0
 10
366.1128816907668
 20
421.2123433226587
 30
0.0
  0
SPLINE
  5
E6
330
1F
100
AcDbEntity
  8
0
  6
Continuous
 62
     7
370
    15
100
AcDbSpline
210
0.0
220
0.0
230
1.0
 70
    24
 71
     3
 72
     8
 73
     4
 74
     0
 42
0.00000001
 43
0.00000001
 40
0.0
 40
0.0
 40
0.0
 40
0.0
 40
0.0002926519410579
 40
0.0002926519410579
 40
0.0002926519410579
 40
0.0002926519410579
 10
366.1128816907668
 20
421.2123433226587
 30
0.0
 10
366.0196347163429
 20
421.1873578711651
 30
0.0
 10
365.9264121794401
 20
421.1623789676856
 30
0.0
 10
365.833215495257
 20
421.1374069914215
 30
0.0
  0
SPLINE
  5
E7
330
1F
100
AcDbEntity
  8
0
  6
Continuous
 62
     7
370
    15
100
AcDbSpline
210
0.0
220
0.0
230
1.0
 70
     8
 71
     3
 72
    17
 73
    13
 74
     0
 42
0.00000001
 43
0.00000001
 40
0.0
 40
0.0
 40
0.0
 40
0.0
 40
0.0620732113322737
 40
0.1121655219123308
 40
0.2240646838361422
 40
0.2799652367303818
 40
0.3917051059890375
 40
0.4475501378148974
 40
0.7848355265350493
 40
0.8945839876150579
 40
0.9487306676707368
 40
1.0
 40
1.0
 40
1.0
 40
1.0
 10
397.3756216881255
 20
419.3526078658384
 30
0.0
 10
397.9881689707411
 20
419.278617086343
 30
0.0
 10
399.1885694110346
 20
419.1539475426592
 30
0.0
 10
401.8961280286142
 20
418.9329359015376
 30
0.0
 10
404.9321600504389
 20
418.7522046992786
 30
0.0
 10
409.2685215447436
 20
418.5504117218084
 30
0.0
 10
413.0502383727382
 20
418.4069705330505
 30
0.0
 10
422.1347260480147
 20
418.0956441685494
 30
0.0
 10
432.2498790293907
 20
417.7829405979164
 30
0.0
 10
442.1820564417958
 20
417.2471093447911
 30
0.0
 10
446.3531464471754
 20
416.9704519644021
 30
0.0
 10
448.3566000358907
 20
416.8184571143447
 30
0.0
 10
449.3190790022439
 20
416.7402481036871
 30
0.0
  0
SPLINE
  5
E8
330
1F
100
AcDbEntity
  8
0
  6
Continuous
 62
     7
370
    15
100
AcDbSpline
210
0.0
220
0.0
230
1.0
 70
    24
 71
     3
 72
    20
 73
    16
 74
     0
 42
0.00000001
 43
0.00000001
 40
0.0
 40
0.0
 40
0.0
 40
0.0
 40
0.1250000000000002
 40
0.1250000000000002
 40
0.2500000000000003
 40
0.2500000000000003
 40
0.5000000000000007
 40
0.5000000000000007
 40
0.5625000000000006
 40
0.5625000000000006
 40
0.6250000000000003
 40
0.6250000000000003
 40
0.7500000000000002
 40
0.7500000000000002
 40
1.0
 40
1.0
 40
1.0
 40
1.0
 10
377.5781934348318
 20
424.284464345452
 30
0.0
 10
377.5808301934923
 20
424.2851708628057
 30
0.0
 10
377.5442196438293
 20
424.2753610955891
 30
0.0
 10
377.3842201607001
 20
424.2324893632952
 30
0.0
 10
377.2603626081267
 20
424.1993018321066
 30
0.0
 10
376.7398516043531
 20
424.059831328994
 30
0.0
 10
376.1952951218884
 20
423.9139178592844
 30
0.0
 10
375.1889027165716
 20
423.6442558270109
 30
0.0
 10
374.9712617471815
 20
423.5859391050232
 30
0.0
 10
374.5009992483218
 20
423.4599326482231
 30
0.0
 10
374.2477296188334
 20
423.3920692555341
 30
0.0
 10
373.4413364630682
 20
423.1759968606648
 30
0.0
 10
372.8396979094818
 20
423.014788296096
 30
0.0
 10
370.8412989635713
 20
422.479318912384
 30
0.0
 10
369.2487745797325
 20
422.0526032898076
 30
0.0
 10
367.4195421318352
 20
421.5624619326246
 30
0.0
  0
LINE
  5
E9
330
1F
100
AcDbEntity
  8
0
  6
Continuous
 62
     7
370
    15
100
AcDbLine
 10
380.2963023264
 20
423.4609874316
 30
0.0
 11
380.1817066798
 21
423.4876985011
 31
0.0
  0
SPLINE
  5
EA
330
1F
100
AcDbEntity
  8
0
  6
Continuous
 62
     7
370
    15
100
AcDbSpline
210
0.0
220
0.0
230
1.0
 70
    24
 71
     3
 72
    30
 73
    26
 74
     0
 42
0.00000001
 43
0.00000001
 40
0.0
 40
0.0
 40
0.0
 40
0.0
 40
0.0196111229243042
 40
0.0391257285703507
 40
0.0585485752750212
 40
0.0778844891176457
 40
0.0971383615481339
 40
0.1163151467957572
 40
0.13541985906057
 40
0.1544575694910014
 40
0.1734334029527619
 40
0.1923525345958325
 40
0.211220186227953
 40
0.2300416225046595
 40
0.2488221469475244
 40
0.373265617576865
 40
0.5001028736021197
 40
0.6219262319475204
 40
0.7492307855643268
 40
0.7896311615580696
 40
0.8305605513772907
 40
0.8720411941379924
 40
0.9140944544044378
 40
0.9567408361567398
 40
1.0
 40
1.0
 40
1.0
 40
1.0
 10
369.16445398677
 20
420.6927333295158
 30
0.0
 10
369.308855896658
 20
420.7314257046558
 30
0.0
 10
369.596949034064
 20
420.8086200281687
 30
0.0
 10
370.0185121462262
 20
420.9215775236313
 30
0.0
 10
370.4309087394889
 20
421.0320788577574
 30
0.0
 10
370.8334708150348
 20
421.1399450408034
 30
0.0
 10
371.2263759476202
 20
421.2452236537816
 30
0.0
 10
371.6095766985968
 20
421.3479019855448
 30
0.0
 10
371.9830855132742
 20
421.4479833708036
 30
0.0
 10
372.3468989426627
 20
421.5454668854038
 30
0.0
 10
372.7010175777774
 20
421.6403526877075
 30
0.0
 10
373.045441660084
 20
421.7326408424154
 30
0.0
 10
373.3801688331565
 20
421.822330718125
 30
0.0
 10
373.7052074534116
 20
421.9094245539312
 30
0.0
 10
374.6120165752577
 20
422.1524033258192
 30
0.0
 10
375.9582315211682
 20
422.5131205334145
 30
0.0
 10
377.4081107378411
 20
422.9016144986447
 30
0.0
 10
378.4754208383193
 20
423.1875993781415
 30
0.0
 10
379.0223412848444
 20
423.3341462701118
 30
0.0
 10
379.2992714454044
 20
423.4083494829938
 30
0.0
 10
379.4305000823595
 20
423.4435120902896
 30
0.0
 10
379.5320821797444
 20
423.4707309312495
 30
0.0
 10
379.6033804102351
 20
423.4898352345311
 30
0.0
 10
379.6469755406948
 20
423.5015165145318
 30
0.0
 10
379.6509609241575
 20
423.5025843948121
 30
0.0
 10
379.6529678301727
 20
423.5031221436582
 30
0.0
  0
SPLINE
  5
EB
330
1F
100
AcDbEntity
  8
0
  6
Continuous
 62
     7
370
    15
100
AcDbSpline
210
0.0
220
0.0
230
1.0
 70
     8
 71
     3
 72
    24
 73
    20
 74
     0
 42
0.00000001
 43
0.00000001
 40
0.0
 40
0.0
 40
0.0
 40
0.0
 40
0.0456516848636159
 40
0.0929504206881065
 40
0.1418961060895018
 40
0.19248863603495
 40
0.2447279018537624
 40
0.2986137912470945
 40
0.3541461882957047
 40
0.4113249734665007
 40
0.4701500236183574
 40
0.5306212120069983
 40
0.5927384082890831
 40
0.6565014785263379
 40
0.7219102851890905
 40
0.788964687159785
 40
0.8576645397364859
 40
0.9280096946364439
 40
1.0
 40
1.0
 40
1.0
 40
1.0
 10
472.046880671836
 20
410.6350425693262
 30
0.0
 10
472.0691087389235
 20
410.67265838563
 30
0.0
 10
472.1143668316543
 20
410.7492471459444
 30
0.0
 10
472.1708969535081
 20
410.8729130052877
 30
0.0
 10
472.2189206190337
 20
411.0050570466502
 30
0.0
 10
472.2560142353544
 20
411.1456426042952
 30
0.0
 10
472.2808821789167
 20
411.2936906433297
 30
0.0
 10
472.2919289744045
 20
411.4481721194269
 30
0.0
 10
472.2877070670422
 20
411.6077373234226
 30
0.0
 10
472.2668430369526
 20
411.7707783138793
 30
0.0
 10
472.2281164426217
 20
411.9354044984287
 30
0.0
 10
472.1705016979129
 20
412.0994524631595
 30
0.0
 10
472.0932231333294
 20
412.2604919085891
 30
0.0
 10
471.9958157477678
 20
412.4158624823853
 30
0.0
 10
471.8781611078469
 20
412.5626458866042
 30
0.0
 10
471.7406243413728
 20
412.6979401692901
 30
0.0
 10
471.5837908627569
 20
412.8180216628203
 30
0.0
 10
471.4097340538258
 20
412.9218729167245
 30
0.0
 10
471.2829313943104
 20
412.9719715691443
 30
0.0
 10
471.218797255407
 20
412.9973104220157
 30
0.0
  0
SPLINE
  5
EC
330
1F
100
AcDbEntity
  8
0
  6
Continuous
 62
     7
370
    15
100
AcDbSpline
210
0.0
220
0.0
230
1.0
 70
    24
 71
     3
 72
    30
 73
    26
 74
     0
 42
0.00000001
 43
0.00000001
 40
0.0
 40
0.0
 40
0.0
 40
0.0
 40
0.1249999999999999
 40
0.1249999999999999
 40
0.1874999999999999
 40
0.1874999999999999
 40
0.2499999999999998
 40
0.2499999999999998
 40
0.3124999999999998
 40
0.3124999999999998
 40
0.3437499999999997
 40
0.3437499999999997
 40
0.3749999999999996
 40
0.3749999999999996
 40
0.4999999999999994
 40
0.4999999999999994
 40
0.5624999999999996
 40
0.5624999999999996
 40
0.6249999999999996
 40
0.6249999999999996
 40
0.7499999999999997
 40
0.7499999999999997
 40
0.8749999999999999
 40
0.8749999999999999
 40
1.0
 40
1.0
 40
1.0
 40
1.0
 10
352.0784192947394
 20
420.6570789239437
 30
0.0
 10
350.7873513584538
 20
420.9080371085257
 30
0.0
 10
349.5484130839735
 20
421.1488623133304
 30
0.0
 10
347.7915811053651
 20
421.4903558564475
 30
0.0
 10
347.2261909212045
 20
421.600256575232
 30
0.0
 10
346.153455545825
 20
421.8087752091287
 30
0.0
 10
345.6437777602586
 20
421.9078465346514
 30
0.0
 10
344.6789088723202
 20
422.0953980473729
 30
0.0
 10
344.2237194186277
 20
422.1838779141011
 30
0.0
 10
343.582053173718
 20
422.3086051971544
 30
0.0
 10
343.3750112118815
 20
422.3488500777021
 30
0.0
 10
342.9745869851693
 20
422.4266846626793
 30
0.0
 10
342.7807815437604
 20
422.4643566242943
 30
0.0
 10
341.8562823850008
 20
422.644061056578
 30
0.0
 10
341.2505079032177
 20
422.7618116876191
 30
0.0
 10
340.4955658153107
 20
422.9085575640529
 30
0.0
 10
340.2696425878841
 20
422.952472590843
 30
0.0
 10
339.8625684032072
 20
423.0315997967052
 30
0.0
 10
339.6818618370359
 20
423.0667255949021
 30
0.0
 10
339.2026288647149
 20
423.1598790482142
 30
0.0
 10
338.9633286829052
 20
423.2063942915329
 30
0.0
 10
338.5986636304381
 20
423.2772779971657
 30
0.0
 10
338.4736790203654
 20
423.3015725443099
 30
0.0
 10
338.3125391572896
 20
423.3328949607101
 30
0.0
 10
338.2766370984696
 20
423.3398736140024
 30
0.0
 10
338.2783957426112
 20
423.3395317682105
 30
0.0
  0
LINE
  5
ED
330
1F
100
AcDbEntity
  8
0
  6
Continuous
 62
     7
370
    15
100
AcDbLine
 10
472.0468810999
 20
410.6350425827
 30
0.0
 11
471.8561145079
 21
410.3594662851
 31
0.0
  0
LINE
  5
EE
330
1F
100
AcDbEntity
  8
0
  6
Continuous
 62
     7
370
    15
100
AcDbLine
 10
456.4992749931
 20
397.5983292918
 30
0.0
 11
455.9359147257
 21
397.3080842359
 31
0.0
  0
SPLINE
  5
EF
330
1F
100
AcDbEntity
  8
0
  6
Continuous
 62
     7
370
    15
100
AcDbSpline
210
0.0
220
0.0
230
1.0
 70
     8
 71
     3
 72
    26
 73
    22
 74
     0
 42
0.00000001
 43
0.00000001
 40
0.0
 40
0.0
 40
0.0
 40
0.0
 40
0.1249999999999991
 40
0.1249999999999991
 40
0.1874999999999985
 40
0.1874999999999985
 40
0.2499999999999979
 40
0.2499999999999979
 40
0.3749999999999976
 40
0.3749999999999976
 40
0.4374999999999978
 40
0.4374999999999978
 40
0.4999999999999981
 40
0.4999999999999981
 40
0.6249999999999986
 40
0.6249999999999986
 40
0.7499999999999991
 40
0.7499999999999991
 40
0.8749999999999996
 40
0.8749999999999996
 40
1.0
 40
1.0
 40
1.0
 40
1.0
 10
455.9359147235227
 20
397.3080842411753
 30
0.0
 10
455.936080008701
 20
397.3076301238793
 30
0.0
 10
455.8973516486456
 20
397.29306842476
 30
0.0
 10
455.7797036266228
 20
397.2501620112925
 30
0.0
 10
455.7301964605818
 20
397.2322232114841
 30
0.0
 10
455.6123867495346
 20
397.1898925369233
 30
0.0
 10
455.544126614044
 20
397.1655152232734
 30
0.0
 10
455.3118366041188
 20
397.0832451778296
 30
0.0
 10
455.1204823831829
 20
397.0162714947014
 30
0.0
 10
454.7774851060647
 20
396.8985905031951
 30
0.0
 10
454.6531295016892
 20
396.8562616055386
 30
0.0
 10
454.3885318069828
 20
396.767037605887
 30
0.0
 10
454.2484982002478
 20
396.7202095976277
 30
0.0
 10
453.8057017501502
 20
396.5734710963313
 30
0.0
 10
453.4803828502841
 20
396.4673793452884
 30
0.0
 10
452.7687062419889
 20
396.2390241110355
 30
0.0
 10
452.3806026149825
 20
396.1162498117973
 30
0.0
 10
451.5711073558378
 20
395.8626716409435
 30
0.0
 10
451.1465955273994
 20
395.7308503500641
 30
0.0
 10
450.2583361071638
 20
395.4553466573663
 30
0.0
 10
449.792836355935
 20
395.311103782649
 30
0.0
 10
449.3190790022311
 20
395.1630773524378
 30
0.0
  0
LINE
  5
F0
330
1F
100
AcDbEntity
  8
0
  6
Continuous
 62
     7
370
    15
100
AcDbLine
 10
471.218798069
 20
412.9973100887
 30
0.0
 11
471.2187972554
 21
412.997310422
 31
0.0
  0
SPLINE
  5
F1
330
1F
100
AcDbEntity
  8
0
  6
Continuous
 62
     7
370
    15
100
AcDbSpline
210
0.0
220
0.0
230
1.0
 70
     8
 71
     3
 72
    16
 73
    12
 74
     0
 42
0.00000001
 43
0.00000001
 40
0.0
 40
0.0
 40
0.0
 40
0.0
 40
0.1249999999999993
 40
0.1249999999999993
 40
0.2499999999999987
 40
0.2499999999999987
 40
0.4999999999999991
 40
0.4999999999999991
 40
0.7499999999999996
 40
0.7499999999999996
 40
1.0
 40
1.0
 40
1.0
 40
1.0
 10
471.2187980690305
 20
412.9973100887392
 30
0.0
 10
470.3424432352739
 20
413.3064331778696
 30
0.0
 10
469.458982468843
 20
413.5932025519182
 30
0.0
 10
467.6729598189156
 20
414.1066533498206
 30
0.0
 10
466.7715167138995
 20
414.3344288732761
 30
0.0
 10
464.0561682133464
 20
414.9463812179156
 30
0.0
 10
462.2279818385646
 20
415.2637533701006
 30
0.0
 10
458.5532199230065
 20
415.8057059569078
 30
0.0
 10
456.7100150165201
 20
416.0287432511642
 30
0.0
 10
453.0183603117795
 20
416.4204771001878
 30
0.0
 10
451.1695322544749
 20
416.588569135442
 30
0.0
 10
449.3187914798872
 20
416.7389568272595
 30
0.0
  0
LINE
  5
F2
330
1F
100
AcDbEntity
  8
0
  6
Continuous
 62
     7
370
    15
100
AcDbLine
 10
347.3376701173
 20
319.0588791248
 30
0.0
 11
325.0593730093
 21
319.0588791248
 31
0.0
  0
LINE
  5
F3
330
1F
100
AcDbEntity
  8
0
  6
Continuous
 62
     7
370
    15
100
AcDbLine
 10
366.115526921
 20
319.0588791248
 30
0.0
 11
347.3376701173
 21
319.0588791248
 31
0.0
  0
LINE
  5
F4
330
1F
100
AcDbEntity
  8
0
  6
Continuous
 62
     7
370
    15
100
AcDbLine
 10
325.0593730093
 20
319.0588791248
 30
0.0
 11
311.9235915036
 21
319.0588791248
 31
0.0
  0
LINE
  5
F5
330
1F
100
AcDbEntity
  8
0
  6
Continuous
 62
     7
370
    15
100
AcDbLine
 10
455.9461580442
 20
397.2799409488
 30
0.0
 11
438.6039427891
 21
390.9678907997
 31
0.0
  0
SPLINE
  5
F6
330
1F
100
AcDbEntity
  8
0
  6
Continuous
 62
     7
370
    15
100
AcDbSpline
210
0.0
220
0.0
230
1.0
 70
     8
 71
     3
 72
    13
 73
     9
 74
     0
 42
0.00000001
 43
0.00000001
 40
0.0
 40
0.0
 40
0.0
 40
0.0
 40
0.1107804000184643
 40
0.2233874002097587
 40
0.3378355301357779
 40
0.4541377466616505
 40
0.7208652291572015
 40
0.9999999999999999
 40
0.9999999999999999
 40
0.9999999999999999
 40
0.9999999999999999
 10
455.6219908439633
 20
397.1619537370166
 30
0.0
 10
455.3935143506249
 20
397.0573322365342
 30
0.0
 10
454.9327941343467
 20
396.8463641862752
 30
0.0
 10
454.2313742459037
 20
396.5376474633235
 30
0.0
 10
453.5153175472666
 20
396.2312219571276
 30
0.0
 10
452.4729279287478
 20
395.7989613200066
 30
0.0
 10
451.0764725477192
 20
395.2452933480372
 30
0.0
 10
449.9136867767603
 20
394.81964052785
 30
0.0
 10
449.3190790021233
 20
394.6019766360991
 30
0.0
  0
SPLINE
  5
F7
330
1F
100
AcDbEntity
  8
0
  6
Continuous
 62
     7
370
    15
100
AcDbSpline
210
0.0
220
0.0
230
1.0
 70
     8
 71
     3
 72
     9
 73
     5
 74
     0
 42
0.00000001
 43
0.00000001
 40
0.0
 40
0.0
 40
0.0
 40
0.0
 40
0.7352740304369897
 40
1.0
 40
1.0
 40
1.0
 40
1.0
 10
449.3190790021233
 20
394.6019766360991
 30
0.0
 10
447.6695192339391
 20
394.0277965357203
 30
0.0
 10
445.4260566609391
 20
393.2468902659347
 30
0.0
 10
443.1469615677779
 20
392.5787043518868
 30
0.0
 10
442.5436259095144
 20
392.4018181879421
 30
0.0
  0
LINE
  5
F8
330
1F
100
AcDbEntity
  8
0
  6
Continuous
 62
     7
370
    15
100
AcDbLine
 10
471.218798069
 20
412.9973100887
 30
0.0
 11
471.2187972554
 21
412.997310422
 31
0.0
  0
SPLINE
  5
F9
330
1F
100
AcDbEntity
  8
0
  6
Continuous
 62
     7
370
    15
100
AcDbSpline
210
0.0
220
0.0
230
1.0
 70
     8
 71
     3
 72
    13
 73
     9
 74
     0
 42
0.00000001
 43
0.00000001
 40
0.0
 40
0.0
 40
0.0
 40
0.0
 40
0.0253629930442587
 40
0.2517990132655006
 40
0.4782350120035371
 40
0.7046709621821212
 40
0.9311068643584995
 40
1.0
 40
1.0
 40
1.0
 40
1.0
 10
471.6369116246365
 20
412.7646430582365
 30
0.0
 10
471.6546671400133
 20
412.7551133937886
 30
0.0
 10
471.8309405492313
 20
412.6605046817749
 30
0.0
 10
472.0671834237
 20
412.3386963732626
 30
0.0
 10
472.2830592287636
 20
411.8425734834245
 30
0.0
 10
472.3079654040673
 20
411.2917441153201
 30
0.0
 10
472.1919618670178
 20
410.8850829205383
 30
0.0
 10
472.0743231635161
 20
410.6823380679777
 30
0.0
 10
472.0468808936434
 20
410.6350425878879
 30
0.0
  0
SPLINE
  5
FA
330
1F
100
AcDbEntity
  8
0
  6
Continuous
 62
     8
370
     0
100
AcDbSpline
210
0.0
220
0.0
230
1.0
 70
     8
 71
     3
 72
    36
 73
    32
 74
     0
 42
0.00000001
 43
0.00000001
 40
0.0
 40
0.0
 40
0.0
 40
0.0
 40
0.062500000000001
 40
0.062500000000001
 40
0.125000000000002
 40
0.125000000000002
 40
0.2500000000000039
 40
0.2500000000000039
 40
0.3125000000000049
 40
0.3125000000000049
 40
0.3750000000000059
 40
0.3750000000000059
 40
0.4375000000000069
 40
0.4375000000000069
 40
0.468750000000007
 40
0.468750000000007
 40
0.5000000000000071
 40
0.5000000000000071
 40
0.5625000000000064
 40
0.5625000000000064
 40
0.6250000000000058
 40
0.6250000000000058
 40
0.6875000000000051
 40
0.6875000000000051
 40
0.7500000000000044
 40
0.7500000000000044
 40
0.8125000000000038
 40
0.8125000000000038
 40
0.8750000000000031
 40
0.8750000000000031
 40
1.0
 40
1.0
 40
1.0
 40
1.0
 10
344.6262404789326
 20
459.2655617517379
 30
0.0
 10
344.6262621206907
 20
459.266909111027
 30
0.0
 10
344.6320283926278
 20
459.2548775366315
 30
0.0
 10
344.654003555302
 20
459.2041911325705
 30
0.0
 10
344.6698979073484
 20
459.165811369217
 30
0.0
 10
344.735301520715
 20
459.0007267893303
 30
0.0
 10
344.80294579745
 20
458.8245766769258
 30
0.0
 10
344.97702301107
 20
458.3669493997517
 30
0.0
 10
345.0472571969108
 20
458.1824518167325
 30
0.0
 10
345.2210068167425
 20
457.7273338496012
 30
0.0
 10
345.3242843645507
 20
457.4566503672926
 30
0.0
 10
345.5771965991768
 20
456.7956702321209
 30
0.0
 10
345.7283739179139
 20
456.4018819285138
 30
0.0
 10
345.9954980813184
 20
455.7119100851427
 30
0.0
 10
346.0913850194772
 20
455.4650392980788
 30
0.0
 10
346.2979025945077
 20
454.9352318277583
 30
0.0
 10
346.408909231708
 20
454.6513303309491
 30
0.0
 10
346.7627225522313
 20
453.7493553112848
 30
0.0
 10
347.0221661502022
 20
453.0916868255752
 30
0.0
 10
347.5825654399307
 20
451.6792335606837
 30
0.0
 10
347.8840058995071
 20
450.922863992819
 30
0.0
 10
348.5164050952241
 20
449.3409353766945
 30
0.0
 10
348.8417095321652
 20
448.5290008370955
 30
0.0
 10
349.509855928574
 20
446.8772348041
 30
0.0
 10
349.8528724882156
 20
446.0372433263339
 30
0.0
 10
350.5634945031096
 20
444.3416197746045
 30
0.0
 10
350.93140638732
 20
443.4861392853092
 30
0.0
 10
351.6997674042293
 20
441.7706425806771
 30
0.0
 10
352.0998559862641
 20
440.9118745630943
 30
0.0
 10
353.3545508005986
 20
438.3569034151665
 30
0.0
 10
354.266040358881
 20
436.6768454150302
 30
0.0
 10
355.2846313019234
 20
435.0417815826987
 30
0.0
  0
SPLINE
  5
FB
330
1F
100
AcDbEntity
  8
0
  6
Continuous
 62
     8
370
     0
100
AcDbSpline
210
0.0
220
0.0
230
1.0
 70
     8
 71
     3
 72
    14
 73
    10
 74
     0
 42
0.00000001
 43
0.00000001
 40
0.0
 40
0.0
 40
0.0
 40
0.0
 40
0.2500000000000027
 40
0.2500000000000027
 40
0.3750000000000021
 40
0.3750000000000021
 40
0.5000000000000016
 40
0.5000000000000016
 40
1.0
 40
1.0
 40
1.0
 40
1.0
 10
355.2846313019234
 20
435.0417815826988
 30
0.0
 10
356.0618040600243
 20
433.7942473522756
 30
0.0
 10
356.8943934190861
 20
432.583290578658
 30
0.0
 10
358.2443538274273
 20
430.8370725238938
 30
0.0
 10
358.7111653147059
 20
430.2666908030134
 30
0.0
 10
359.680407911182
 20
429.1509575380865
 30
0.0
 10
360.1825888560188
 20
428.6059893763762
 30
0.0
 10
362.7556723283764
 20
425.9744404705882
 30
0.0
 10
365.0363354535248
 20
424.1461271702708
 30
0.0
 10
367.5261118440842
 20
422.5808452325923
 30
0.0
  0
SPLINE
  5
FC
330
1F
100
AcDbEntity
  8
0
  6
Continuous
 62
     8
370
     0
100
AcDbSpline
210
0.0
220
0.0
230
1.0
 70
     8
 71
     3
 72
    25
 73
    21
 74
     0
 42
0.00000001
 43
0.00000001
 40
0.0
 40
0.0
 40
0.0
 40
0.0
 40
0.0312499999999998
 40
0.0312499999999998
 40
0.0624999999999996
 40
0.1249999999999993
 40
0.1249999999999993
 40
0.2499999999999994
 40
0.2499999999999994
 40
0.3749999999999994
 40
0.3749999999999994
 40
0.4999999999999996
 40
0.4999999999999996
 40
0.7499999999999997
 40
0.7499999999999997
 40
0.875
 40
0.875
 40
0.9374999999999999
 40
0.9374999999999999
 40
1.0
 40
1.0
 40
1.0
 40
1.0
 10
369.0919524586216
 20
419.0591912096388
 30
0.0
 10
369.3401195410021
 20
418.924824683219
 30
0.0
 10
369.59145858841
 20
418.7918486423195
 30
0.0
 10
370.094165955976
 20
418.5319185692144
 30
0.0
 10
370.8513968050552
 20
418.1493641357185
 30
0.0
 10
371.6178514442793
 20
417.7881732052006
 30
0.0
 10
373.1623197837789
 20
417.092569120908
 30
0.0
 10
374.2073557872351
 20
416.6644867519021
 30
0.0
 10
376.3246443364503
 20
415.8713927044744
 30
0.0
 10
377.398381499132
 20
415.5060009418268
 30
0.0
 10
379.5604268442287
 20
414.8367168465613
 30
0.0
 10
380.6493715142429
 20
414.5323963893237
 30
0.0
 10
383.9373179480523
 20
413.7002436211918
 30
0.0
 10
386.1604953721795
 20
413.2529965209479
 30
0.0
 10
389.5099696345382
 20
412.7060975110994
 30
0.0
 10
390.6293877970725
 20
412.544236647664
 30
0.0
 10
392.3121962693973
 20
412.3271515130797
 30
0.0
 10
392.8737459369767
 20
412.2590736916923
 30
0.0
 10
393.9979845658564
 20
412.1308740974585
 30
0.0
 10
394.5621470723341
 20
412.0706060353479
 30
0.0
 10
395.1238936271048
 20
412.0143415068844
 30
0.0
  0
SPLINE
  5
FD
330
1F
100
AcDbEntity
  8
0
  6
Continuous
 62
     8
370
     0
100
AcDbSpline
210
0.0
220
0.0
230
1.0
 70
     8
 71
     3
 72
    16
 73
    12
 74
     0
 42
0.00000001
 43
0.00000001
 40
0.0
 40
0.0
 40
0.0
 40
0.0
 40
0.25
 40
0.25
 40
0.5
 40
0.5
 40
0.625
 40
0.625
 40
0.75
 40
0.75
 40
1.0
 40
1.0
 40
1.0
 40
1.0
 10
395.272289817099
 20
413.662818232926
 30
0.0
 10
393.0755992920077
 20
413.8776218309412
 30
0.0
 10
390.8857038844273
 20
414.1479757740745
 30
0.0
 10
386.5297363802651
 20
414.8453206789734
 30
0.0
 10
384.3612144888335
 20
415.2736267573746
 30
0.0
 10
381.1532194125703
 20
416.0731437112716
 30
0.0
 10
380.0906755693637
 20
416.365947713585
 30
0.0
 10
377.9809039716991
 20
417.0109074233479
 30
0.0
 10
376.9328807673537
 20
417.3634927204374
 30
0.0
 10
373.8329666885085
 20
418.5134415541807
 30
0.0
 10
371.8192153290373
 20
419.4034589147712
 30
0.0
 10
369.874077314439
 20
420.453565840071
 30
0.0
  0
SPLINE
  5
FE
330
1F
100
AcDbEntity
  8
0
  6
Continuous
 62
     8
370
     0
100
AcDbSpline
210
0.0
220
0.0
230
1.0
 70
     8
 71
     3
 72
    14
 73
    10
 74
     0
 42
0.00000001
 43
0.00000001
 40
0.0
 40
0.0
 40
0.0
 40
0.0
 40
0.4999999999999992
 40
0.4999999999999992
 40
0.6250000000000002
 40
0.6250000000000002
 40
0.7500000000000012
 40
0.7500000000000012
 40
1.0
 40
1.0
 40
1.0
 40
1.0
 10
365.8850402372853
 20
421.7291133049594
 30
0.0
 10
363.4469235192663
 20
423.3303418681123
 30
0.0
 10
361.205355424417
 20
425.1806282097985
 30
0.0
 10
358.6569786936762
 20
427.8115586638501
 30
0.0
 10
358.1589201114521
 20
428.3546699920463
 30
0.0
 10
357.1963497947509
 20
429.4623213527813
 30
0.0
 10
356.7310396587993
 20
430.0276839197722
 30
0.0
 10
355.3801262129247
 20
431.7559241630951
 30
0.0
 10
354.5394919387651
 20
432.9509382165319
 30
0.0
 10
353.7474600946882
 20
434.1791039042727
 30
0.0
  0
SPLINE
  5
FF
330
1F
100
AcDbEntity
  8
0
  6
Continuous
 62
     8
370
     0
100
AcDbSpline
210
0.0
220
0.0
230
1.0
 70
     8
 71
     3
 72
    24
 73
    20
 74
     0
 42
0.00000001
 43
0.00000001
 40
0.0
 40
0.0
 40
0.0
 40
0.0
 40
0.0625000000000001
 40
0.0625000000000001
 40
0.1250000000000002
 40
0.1250000000000002
 40
0.2500000000000002
 40
0.2500000000000002
 40
0.3750000000000002
 40
0.3750000000000002
 40
0.5000000000000002
 40
0.5000000000000002
 40
0.7500000000000002
 40
0.7500000000000002
 40
0.8750000000000004
 40
0.8750000000000004
 40
0.9375000000000002
 40
0.9375000000000002
 40
1.0
 40
1.0
 40
1.0
 40
1.0
 10
395.6740425158848
 20
411.9582883205504
 30
0.0
 10
396.7919435005658
 20
411.8446700366877
 30
0.0
 10
397.9102016140012
 20
411.735329684609
 30
0.0
 10
400.1491461652316
 20
411.5483817159163
 30
0.0
 10
401.2697964481403
 20
411.4702205663725
 30
0.0
 10
404.6348052295908
 20
411.2761687529674
 30
0.0
 10
406.878958369348
 20
411.1980776707458
 30
0.0
 10
411.3655341493476
 20
411.0915412638199
 30
0.0
 10
413.6083641600884
 20
411.0669159969654
 30
0.0
 10
418.0927071884453
 20
411.0442786802461
 30
0.0
 10
420.3341887591806
 20
411.0443922064075
 30
0.0
 10
427.0556487279167
 20
411.0484880780131
 30
0.0
 10
431.5273615214834
 20
411.0636031632426
 30
0.0
 10
438.2158000221598
 20
411.0788471191631
 30
0.0
 10
440.4420992829184
 20
411.0823746838883
 30
0.0
 10
443.7761445095337
 20
411.0823478421836
 30
0.0
 10
444.8866101364246
 20
411.0816598964599
 30
0.0
 10
447.1053546779104
 20
411.0768313961577
 30
0.0
 10
448.2131960261442
 20
411.071345646867
 30
0.0
 10
449.3190790022439
 20
411.067991945945
 30
0.0
  0
SPLINE
  5
100
330
1F
100
AcDbEntity
  8
0
  6
Continuous
 62
     8
370
     0
100
AcDbSpline
210
0.0
220
0.0
230
1.0
 70
     8
 71
     3
 72
    24
 73
    20
 74
     0
 42
0.00000001
 43
0.00000001
 40
0.0
 40
0.0
 40
0.0
 40
0.0
 40
0.0625
 40
0.0625
 40
0.125
 40
0.125
 40
0.2499999999999999
 40
0.2499999999999999
 40
0.4999999999999999
 40
0.4999999999999999
 40
0.6249999999999999
 40
0.6249999999999999
 40
0.7499999999999998
 40
0.7499999999999998
 40
0.8749999999999998
 40
0.8749999999999998
 40
0.9374999999999999
 40
0.9374999999999999
 40
1.0
 40
1.0
 40
1.0
 40
1.0
 10
449.1527633207112
 20
412.8717206460135
 30
0.0
 10
448.0537296010575
 20
412.8692746300437
 30
0.0
 10
446.9524589101784
 20
412.8701238608743
 30
0.0
 10
444.7469653321263
 20
412.8662798222566
 30
0.0
 10
443.6431500887488
 20
412.8629020665603
 30
0.0
 10
440.3290058287495
 20
412.852118925465
 30
0.0
 10
438.1159371968213
 20
412.842901788972
 30
0.0
 10
431.4672095991895
 20
412.8122060223885
 30
0.0
 10
427.0219705273042
 20
412.7885335024777
 30
0.0
 10
420.3403117136342
 20
412.7679638263454
 30
0.0
 10
418.1120448399975
 20
412.7618806402533
 30
0.0
 10
413.6540889340286
 20
412.7718281756254
 30
0.0
 10
411.4243912227922
 20
412.7894804927012
 30
0.0
 10
406.963917649902
 20
412.8838033337752
 30
0.0
 10
404.7328050201419
 20
412.9571974474387
 30
0.0
 10
401.3869917278844
 20
413.1436056315937
 30
0.0
 10
400.2726840347162
 20
413.2190686091955
 30
0.0
 10
398.0461818149068
 20
413.3986149472528
 30
0.0
 10
396.9338978166772
 20
413.5031630329665
 30
0.0
 10
395.8220171890933
 20
413.6097614491061
 30
0.0
  0
SPLINE
  5
101
330
1F
100
AcDbEntity
  8
0
  6
Continuous
 62
     8
370
     0
100
AcDbSpline
210
0.0
220
0.0
230
1.0
 70
     8
 71
     3
 72
     8
 73
     4
 74
     0
 42
0.00000001
 43
0.00000001
 40
0.0
 40
0.0
 40
0.0
 40
0.0
 40
0.000552702428714
 40
0.000552702428714
 40
0.000552702428714
 40
0.000552702428714
 10
395.1243936846262
 20
412.0158151377159
 30
0.0
 10
395.3075979737021
 20
411.996533395589
 30
0.0
 10
395.4908359137589
 20
411.9775618471767
 30
0.0
 10
395.6741092419181
 20
411.9589335356089
 30
0.0
  0
SPLINE
  5
102
330
1F
100
AcDbEntity
  8
0
  6
Continuous
 62
     8
370
     0
100
AcDbSpline
210
0.0
220
0.0
230
1.0
 70
     8
 71
     3
 72
    40
 73
    36
 74
     0
 42
0.00000001
 43
0.00000001
 40
0.0
 40
0.0
 40
0.0
 40
0.0
 40
0.1249999999999982
 40
0.1249999999999982
 40
0.1874999999999981
 40
0.1874999999999981
 40
0.2499999999999979
 40
0.2499999999999979
 40
0.3124999999999977
 40
0.3124999999999977
 40
0.3749999999999976
 40
0.3749999999999976
 40
0.4062499999999975
 40
0.4062499999999975
 40
0.4374999999999974
 40
0.4374999999999974
 40
0.4999999999999974
 40
0.4999999999999974
 40
0.5312499999999974
 40
0.5312499999999974
 40
0.5624999999999974
 40
0.5624999999999974
 40
0.5937499999999974
 40
0.5937499999999974
 40
0.6249999999999974
 40
0.6249999999999974
 40
0.6874999999999978
 40
0.6874999999999978
 40
0.7499999999999981
 40
0.7499999999999981
 40
0.874999999999999
 40
0.874999999999999
 40
0.9374999999999994
 40
0.9374999999999994
 40
1.0
 40
1.0
 40
1.0
 40
1.0
 10
353.7474600946882
 20
434.1791039042726
 30
0.0
 10
352.6738395358897
 20
435.8439156688879
 30
0.0
 10
351.700661048308
 20
437.5545108472071
 30
0.0
 10
350.3465788820273
 20
440.1559300123054
 30
0.0
 10
349.9121199599883
 20
441.0300887382616
 30
0.0
 10
349.0715279665244
 20
442.7763180147026
 30
0.0
 10
348.6658213306833
 20
443.6469011551348
 30
0.0
 10
347.8780206425311
 20
445.3721164414753
 30
0.0
 10
347.4953522580096
 20
446.2263132462061
 30
0.0
 10
346.7448733744108
 20
447.9038787860837
 30
0.0
 10
346.3768376603443
 20
448.7273413813606
 30
0.0
 10
345.8379066323066
 20
449.9295332576904
 30
0.0
 10
345.6613953959641
 20
450.3229138582716
 30
0.0
 10
345.3199257883878
 20
451.0848640362573
 30
0.0
 10
345.1544434768406
 20
451.454643292123
 30
0.0
 10
344.676410726649
 20
452.5275875094815
 30
0.0
 10
344.3825262611733
 20
453.194163419624
 30
0.0
 10
343.9856008724648
 20
454.1112782357535
 30
0.0
 10
343.861050860225
 20
454.4022922237382
 30
0.0
 10
343.6315289163646
 20
454.9454958868703
 30
0.0
 10
343.5258717387877
 20
455.1992549290802
 30
0.0
 10
343.3313532000053
 20
455.6731901202942
 30
0.0
 10
343.242482818514
 20
455.8933603021046
 30
0.0
 10
343.0797617650529
 20
456.3025020405826
 30
0.0
 10
343.0060687750767
 20
456.4910718802029
 30
0.0
 10
342.8070267239631
 20
457.0081051675716
 30
0.0
 10
342.7023181705829
 20
457.2915816090612
 30
0.0
 10
342.5298678181492
 20
457.7677818230837
 30
0.0
 10
342.4621985108449
 20
457.9604874016331
 30
0.0
 10
342.2964724543327
 20
458.4377375608134
 30
0.0
 10
342.2368870062591
 20
458.6196022299137
 30
0.0
 10
342.1791206286097
 20
458.7882463733144
 30
0.0
 10
342.1650000793136
 20
458.8268502781632
 30
0.0
 10
342.1432833763749
 20
458.8750123308726
 30
0.0
 10
342.135212402905
 20
458.8831221031861
 30
0.0
 10
342.1329314517574
 20
458.8801448600567
 30
0.0
  0
SPLINE
  5
103
330
1F
100
AcDbEntity
  8
0
  6
Continuous
 62
     8
370
     0
100
AcDbSpline
210
0.0
220
0.0
230
1.0
 70
     8
 71
     3
 72
     8
 73
     4
 74
     0
 42
0.00000001
 43
0.00000001
 40
0.0000000203463906
 40
0.0000000203463906
 40
0.0000000203463906
 40
0.0000000203463906
 40
0.0005524032332722
 40
0.0005524032332722
 40
0.0005524032332722
 40
0.0005524032332722
 10
395.8220193852694
 20
413.60947406518
 30
0.0
 10
395.6387467909273
 20
413.6269837029303
 30
0.0
 10
395.4555071217517
 20
413.6448298314086
 30
0.0
 10
395.2723033818409
 20
413.6630231212525
 30
0.0
  0
SPLINE
  5
104
330
1F
100
AcDbEntity
  8
0
  6
Continuous
 62
     8
370
     0
100
AcDbSpline
210
0.0
220
0.0
230
1.0
 70
     8
 71
     3
 72
     8
 73
     4
 74
     0
 42
0.00000001
 43
0.00000001
 40
0.0
 40
0.0
 40
0.0
 40
0.0
 40
0.0000596972843948
 40
0.0000596972843948
 40
0.0000596972843948
 40
0.0000596972843948
 10
369.8740074048618
 20
420.4534467269256
 30
0.0
 10
369.8565004005311
 20
420.4628970814165
 30
0.0
 10
369.839000331748
 20
420.4723601761753
 30
0.0
 10
369.8215072368723
 20
420.4818360134303
 30
0.0
  0
SPLINE
  5
105
330
1F
100
AcDbEntity
  8
0
  6
Continuous
 62
     8
370
     0
100
AcDbSpline
210
0.0
220
0.0
230
1.0
 70
     8
 71
     3
 72
     8
 73
     4
 74
     0
 42
0.00000001
 43
0.00000001
 40
0.0
 40
0.0
 40
0.0
 40
0.0
 40
1.0
 40
1.0
 40
1.0
 40
1.0
 10
367.9549339337279
 20
419.6956397748399
 30
0.0
 10
368.3306069517129
 20
419.4779276743876
 30
0.0
 10
368.7095684242328
 20
419.2658780142381
 30
0.0
 10
369.0917264069691
 20
419.0593272650367
 30
0.0
  0
SPLINE
  5
106
330
1F
100
AcDbEntity
  8
0
  6
Continuous
 62
     8
370
     0
100
AcDbSpline
210
0.0
220
0.0
230
1.0
 70
     8
 71
     3
 72
    14
 73
    10
 74
     0
 42
0.00000001
 43
0.00000001
 40
0.0
 40
0.0
 40
0.0
 40
0.0
 40
0.25
 40
0.25
 40
0.5
 40
0.5
 40
0.75
 40
0.75
 40
1.0
 40
1.0
 40
1.0
 40
1.0
 10
367.9549339337161
 20
419.6956397748369
 30
0.0
 10
367.9351911952284
 20
419.766416502999
 30
0.0
 10
367.9151467592017
 20
419.8449164138712
 30
0.0
 10
367.880237739687
 20
420.0006436790947
 30
0.0
 10
367.8655580130214
 20
420.0773366266582
 30
0.0
 10
367.8467693991787
 20
420.205981520572
 30
0.0
 10
367.8427391724833
 20
420.2573948817234
 30
0.0
 10
367.8450714127773
 20
420.3247195319838
 30
0.0
 10
367.8512917652894
 20
420.340872572739
 30
0.0
 10
367.8603433237138
 20
420.343297930509
 30
0.0
  0
SPLINE
  5
107
330
1F
100
AcDbEntity
  8
0
  6
Continuous
 62
     8
370
     0
100
AcDbSpline
210
0.0
220
0.0
230
1.0
 70
     8
 71
     3
 72
    10
 73
     6
 74
     0
 42
0.00000001
 43
0.00000001
 40
0.0
 40
0.0
 40
0.0
 40
0.0
 40
0.5
 40
0.5
 40
1.0
 40
1.0
 40
1.0
 40
1.0
 10
369.8215072368723
 20
420.4818360134303
 30
0.0
 10
369.7274721022405
 20
420.5729886424759
 30
0.0
 10
369.6156154183096
 20
420.6440868567407
 30
0.0
 10
369.3853175702464
 20
420.7180065855433
 30
0.0
 10
369.2679814152368
 20
420.720473420368
 30
0.0
 10
369.1644539867671
 20
420.6927333295151
 30
0.0
  0
ARC
  5
108
330
1F
100
AcDbEntity
  8
0
  6
Continuous
 62
     8
370
     0
100
AcDbCircle
 10
366.8955035394
 20
421.8660097165
 30
0.0
 40
1.019694421065
100
AcDbArc
 50
187.7153913698
 51
219.8695219736
  0
LWPOLYLINE
  5
109
330
1F
100
AcDbEntity
  8
0
  6
Continuous
 62
     8
370
     0
100
AcDbPolyline
 90
        9
 70
   128
 43
0.0
 10
367.4195421318
 20
421.5624619326
 10
367.5326340241
 20
421.6161811203
 10
367.6255167349
 20
421.7095577018
 10
367.6912083445
 20
421.8355726334
 10
367.7247708662
 20
421.9847534721
 10
367.7236814321
 20
422.1458864124
 10
367.6880219339
 20
422.3068592184
 10
367.6204728679
 20
422.4555716914
 10
367.5261118441
 20
422.5808452326
  0
SPLINE
  5
10A
330
1F
100
AcDbEntity
  8
0
  6
Continuous
 62
     8
370
     0
100
AcDbSpline
210
0.0
220
0.0
230
1.0
 70
     8
 71
     3
 72
    11
 73
     7
 74
     0
 42
0.00000001
 43
0.00000001
 40
-0.00000006018
 40
-0.00000006018
 40
-0.00000006018
 40
-0.00000006018
 40
0.0
 40
0.0
 40
0.0
 40
0.0002337405267701
 40
0.0002337405267701
 40
0.0002337405267701
 40
0.0002337405267701
 10
449.3827393437838
 20
412.8722878792342
 30
0.0
 10
449.3827196148826
 20
412.8722878256121
 30
0.0
 10
449.3826998859806
 20
412.8722877719903
 30
0.0
 10
449.3826801570779
 20
412.8722877183704
 30
0.0
 10
449.306052637546
 20
412.8720794572459
 30
0.0
 10
449.2294135609801
 20
412.8718912392432
 30
0.0
 10
449.1527633207111
 20
412.8717206460135
 30
0.0
  0
SPLINE
  5
10B
330
1F
100
AcDbEntity
  8
0
  6
Continuous
 62
     8
370
     0
100
AcDbSpline
210
0.0
220
0.0
230
1.0
 70
     8
 71
     3
 72
    14
 73
    10
 74
     0
 42
0.00000001
 43
0.00000001
 40
0.0
 40
0.0
 40
0.0
 40
0.0
 40
0.2499999999999999
 40
0.2499999999999999
 40
0.4999999999999999
 40
0.4999999999999999
 40
0.7499999999999998
 40
0.7499999999999998
 40
1.0
 40
1.0
 40
1.0
 40
1.0
 10
377.5781934348317
 20
424.2844643454519
 30
0.0
 10
377.6956086134825
 20
424.3159256477506
 30
0.0
 10
377.8029511153221
 20
424.3839415644516
 30
0.0
 10
377.9601318978163
 20
424.5694107578219
 30
0.0
 10
378.0096230843586
 20
424.6864544725583
 30
0.0
 10
378.0331824198401
 20
424.9284249161774
 30
0.0
 10
378.0071985439295
 20
425.0528173143674
 30
0.0
 10
377.8887469836764
 20
425.2651236479872
 30
0.0
 10
377.7965408697279
 20
425.3525687584292
 30
0.0
 10
377.6873998650037
 20
425.4060888656093
 30
0.0
  0
LINE
  5
10C
330
1F
100
AcDbEntity
  8
0
  6
Continuous
 62
     8
370
     0
100
AcDbLine
 10
379.9516572143
 20
423.5325478654
 30
0.0
 11
379.6529678302
 21
423.5031221437
 31
0.0
  0
SPLINE
  5
10D
330
1F
100
AcDbEntity
  8
0
  6
Continuous
 62
     8
370
     0
100
AcDbSpline
210
0.0
220
0.0
230
1.0
 70
     8
 71
     3
 72
    38
 73
    34
 74
     0
 42
0.00000001
 43
0.00000001
 40
0.0
 40
0.0
 40
0.0
 40
0.0
 40
0.0625000000000001
 40
0.0625000000000001
 40
0.1250000000000001
 40
0.1250000000000001
 40
0.1875000000000002
 40
0.1875000000000002
 40
0.2500000000000002
 40
0.2500000000000002
 40
0.3125000000000003
 40
0.3125000000000003
 40
0.3750000000000003
 40
0.3750000000000003
 40
0.4062500000000004
 40
0.4062500000000004
 40
0.4375000000000005
 40
0.4375000000000005
 40
0.5000000000000007
 40
0.5000000000000007
 40
0.5312500000000007
 40
0.5312500000000007
 40
0.5625000000000008
 40
0.5625000000000008
 40
0.6250000000000007
 40
0.6250000000000007
 40
0.6875000000000004
 40
0.6875000000000004
 40
0.7500000000000003
 40
0.7500000000000003
 40
0.8750000000000002
 40
0.8750000000000002
 40
1.0
 40
1.0
 40
1.0
 40
1.0
 10
449.5512849889791
 20
411.0676221400869
 30
0.0
 10
450.4081422939844
 20
411.0653287992628
 30
0.0
 10
451.2632343597467
 20
411.0528874689182
 30
0.0
 10
452.9693978348532
 20
411.0228754250139
 30
0.0
 10
453.8205231557396
 20
411.0058070626735
 30
0.0
 10
455.5176602277846
 20
410.9679761482719
 30
0.0
 10
456.3631330000561
 20
410.9456935233804
 30
0.0
 10
458.0428713070245
 20
410.8987859770449
 30
0.0
 10
458.8767108567365
 20
410.8743936348874
 30
0.0
 10
460.5223044843142
 20
410.8197489382569
 30
0.0
 10
461.3306517058824
 20
410.789528616799
 30
0.0
 10
462.8887922889169
 20
410.7270416894395
 30
0.0
 10
463.6404982071686
 20
410.6944053738075
 30
0.0
 10
464.7116693980337
 20
410.649094897946
 30
0.0
 10
465.0612751205981
 20
410.6345803290167
 30
0.0
 10
465.7277058354246
 20
410.6093045049338
 30
0.0
 10
466.0444107146366
 20
410.5988113432258
 30
0.0
 10
466.9445933529595
 20
410.5747846609557
 30
0.0
 10
467.4769958292077
 20
410.5682353205348
 30
0.0
 10
468.1892107005486
 20
410.5659737731839
 30
0.0
 10
468.4114047427369
 20
410.566393239676
 30
0.0
 10
468.8247733084292
 20
410.5685497731898
 30
0.0
 10
469.0169517371806
 20
410.570298374999
 30
0.0
 10
469.556594895887
 20
410.5770852745216
 30
0.0
 10
469.8676307382617
 20
410.5839442756478
 30
0.0
 10
470.4095213324912
 20
410.5982016485266
 30
0.0
 10
470.6391381841265
 20
410.6049614685732
 30
0.0
 10
471.031020920467
 20
410.6158463700301
 30
0.0
 10
471.1949642293903
 20
410.6195397181509
 30
0.0
 10
471.6130571691759
 20
410.6277717383601
 30
0.0
 10
471.7909846785872
 20
410.6318977569377
 30
0.0
 10
472.0089221831938
 20
410.6373132435256
 30
0.0
 10
472.0483944523301
 20
410.6352758527818
 30
0.0
 10
472.046881168463
 20
410.6350426926128
 30
0.0
  0
SPLINE
  5
10E
330
1F
100
AcDbEntity
  8
0
  6
Continuous
 62
     8
370
     0
100
AcDbSpline
210
0.0
220
0.0
230
1.0
 70
     8
 71
     3
 72
    38
 73
    34
 74
     0
 42
0.00000001
 43
0.00000001
 40
0.0
 40
0.0
 40
0.0
 40
0.0
 40
0.1250000000000001
 40
0.1250000000000001
 40
0.2500000000000001
 40
0.2500000000000001
 40
0.3125000000000001
 40
0.3125000000000001
 40
0.3750000000000002
 40
0.3750000000000002
 40
0.4375000000000003
 40
0.4375000000000003
 40
0.5000000000000004
 40
0.5000000000000004
 40
0.5625000000000004
 40
0.5625000000000004
 40
0.5937500000000008
 40
0.5937500000000008
 40
0.6250000000000012
 40
0.6250000000000012
 40
0.687500000000001
 40
0.687500000000001
 40
0.7500000000000008
 40
0.7500000000000008
 40
0.8125000000000006
 40
0.8125000000000006
 40
0.8750000000000004
 40
0.8750000000000004
 40
0.9375000000000002
 40
0.9375000000000002
 40
0.9687500000000001
 40
0.9687500000000001
 40
1.0
 40
1.0
 40
1.0
 40
1.0
 10
471.2187990495966
 20
412.9973097891381
 30
0.0
 10
471.2199808691244
 20
412.9969521608158
 30
0.0
 10
471.1830772039792
 20
412.9998870725377
 30
0.0
 10
470.9741201586183
 20
412.9954238346667
 30
0.0
 10
470.8026973791755
 20
412.9908643880442
 30
0.0
 10
470.3983659430559
 20
412.9820087198465
 30
0.0
 10
470.2395234129305
 20
412.9785525856109
 30
0.0
 10
469.8610952760743
 20
412.9694706132802
 30
0.0
 10
469.6397026188473
 20
412.9639518856255
 30
0.0
 10
469.1161512782745
 20
412.9506940939508
 30
0.0
 10
468.8149059379794
 20
412.94268003791
 30
0.0
 10
468.1161268037473
 20
412.9225241050254
 30
0.0
 10
467.7187987160687
 20
412.9102009677313
 30
0.0
 10
466.7924021440091
 20
412.8851500959523
 30
0.0
 10
466.2727979499236
 20
412.8735411440052
 30
0.0
 10
465.3911882775633
 20
412.8571654353672
 30
0.0
 10
465.0806572975086
 20
412.8518558019977
 30
0.0
 10
464.427152394659
 20
412.8424640459343
 30
0.0
 10
464.084592818511
 20
412.8383736459404
 30
0.0
 10
463.0358115420046
 20
412.8282943186901
 30
0.0
 10
462.3011252943648
 20
412.8243397295477
 30
0.0
 10
460.782699615974
 20
412.821565229514
 30
0.0
 10
459.9969211315681
 20
412.8225811316015
 30
0.0
 10
458.403206559121
 20
412.8267122701814
 30
0.0
 10
457.5963965048686
 20
412.8299824533419
 30
0.0
 10
455.9719728346381
 20
412.8375325670893
 30
0.0
 10
455.1547723918337
 20
412.8413334512853
 30
0.0
 10
453.5146581605358
 20
412.8495747099503
 30
0.0
 10
452.6922468927338
 20
412.8543793593453
 30
0.0
 10
451.4545609576815
 20
412.8625450227045
 30
0.0
 10
451.041253655483
 20
412.8657340650495
 30
0.0
 10
450.2127869260706
 20
412.8717441694649
 30
0.0
 10
449.7978778677058
 20
412.8734433314505
 30
0.0
 10
449.382818797176
 20
412.8726440637911
 30
0.0
  0
SPLINE
  5
10F
330
1F
100
AcDbEntity
  8
0
  6
Continuous
 62
     8
370
     0
100
AcDbSpline
210
0.0
220
0.0
230
1.0
 70
     8
 71
     3
 72
     8
 73
     4
 74
     0
 42
0.00000001
 43
0.00000001
 40
0.0
 40
0.0
 40
0.0
 40
0.0
 40
0.0002359670260062
 40
0.0002359670260062
 40
0.0002359670260062
 40
0.0002359670260062
 10
449.3190790022439
 20
411.0679919459449
 30
0.0
 10
449.3964869353076
 20
411.0677571986325
 30
0.0
 10
449.4738850241515
 20
411.0675344933945
 30
0.0
 10
449.5512730101522
 20
411.0673258948111
 30
0.0
  0
LINE
  5
110
330
1F
100
AcDbEntity
  8
0
  6
Continuous
 62
     8
370
     0
100
AcDbLine
 10
361.6157641851
 20
420.3196319869
 30
0.0
 11
341.8376600298
 21
415.0201049507
 31
0.0
  0
LINE
  5
111
330
1F
100
AcDbEntity
  8
0
  6
Continuous
 62
     8
370
     0
100
AcDbLine
 10
342.1329314518
 20
458.8801448601
 30
0.0
 11
342.1371905026
 21
458.8754060881
 31
0.0
  0
SPLINE
  5
112
330
1F
100
AcDbEntity
  8
0
  6
Continuous
 62
     8
370
     0
100
AcDbSpline
210
0.0
220
0.0
230
1.0
 70
     8
 71
     3
 72
     9
 73
     5
 74
     0
 42
0.00000001
 43
0.00000001
 40
0.0
 40
0.0
 40
0.0
 40
0.0
 40
0.0776486291476777
 40
0.9999999999999999
 40
0.9999999999999999
 40
0.9999999999999999
 40
0.9999999999999999
 10
472.0468959995185
 20
410.6350737474966
 30
0.0
 10
472.0469046273508
 20
410.635071886525
 30
0.0
 10
472.0470157411252
 20
410.6350479199511
 30
0.0
 10
472.0469457369292
 20
410.6350452007093
 30
0.0
 10
472.046881168463
 20
410.6350426926128
 30
0.0
  0
LINE
  5
113
330
1F
100
AcDbEntity
  8
0
  6
Continuous
 62
     8
370
     0
100
AcDbLine
 10
337.4499711061
 20
431.088908692
 30
0.0
 11
337.7355554913
 21
427.7577109807
 31
0.0
  0
LINE
  5
114
330
1F
100
AcDbEntity
  8
0
  6
Continuous
 62
     8
370
     0
100
AcDbLine
 10
337.6617834447
 20
426.2703676639
 30
0.0
 11
337.266897072
 21
430.876517892
 31
0.0
  0
SPLINE
  5
115
330
1F
100
AcDbEntity
  8
0
  6
Continuous
 62
     7
370
    15
100
AcDbSpline
210
0.0
220
0.0
230
1.0
 70
     8
 71
     3
 72
    22
 73
    18
 74
     0
 42
0.00000001
 43
0.00000001
 40
0.0
 40
0.0
 40
0.0
 40
0.0
 40
0.0504748135555245
 40
0.1671358887229158
 40
0.2771583757923963
 40
0.3748688149672816
 40
0.4566683019122587
 40
0.523641558442282
 40
0.578801452931041
 40
0.6339284746563058
 40
0.6917445387069472
 40
0.7535918257968004
 40
0.7981450625594102
 40
0.8487206276138322
 40
0.9075180344520759
 40
0.9759934777476421
 40
1.0
 40
1.0
 40
1.0
 40
1.0
 10
198.909942592572
 20
235.7546016666017
 30
0.0
 10
198.2987340485437
 20
235.7619432349557
 30
0.0
 10
196.2748556821812
 20
235.7862531722299
 30
0.0
 10
192.9590886392532
 20
235.6376538452772
 30
0.0
 10
189.2050865021157
 20
235.3376946323924
 30
0.0
 10
185.9310451651807
 20
234.903299847459
 30
0.0
 10
183.1776055002739
 20
234.3748051496097
 30
0.0
 10
180.9492467687388
 20
233.7905820189997
 30
0.0
 10
179.0865566579795
 20
233.1651432302835
 30
0.0
 10
177.2630028088691
 20
232.3859061508612
 30
0.0
 10
175.4133082019851
 20
231.3595413346257
 30
0.0
 10
173.7963749418445
 20
230.1728620573251
 30
0.0
 10
172.4117359979034
 20
228.8724819095875
 30
0.0
 10
171.2072981290904
 20
227.4778009943343
 30
0.0
 10
170.0366779636204
 20
225.740342660368
 30
0.0
 10
169.1798410320188
 20
224.1923955542853
 30
0.0
 10
168.7950016459332
 20
223.2003473713999
 30
0.0
 10
168.6951048149035
 20
222.9428309287426
 30
0.0
  0
LINE
  5
116
330
1F
100
AcDbEntity
  8
0
  6
Continuous
 62
     7
370
    15
100
AcDbLine
 10
229.7978625804
 20
221.2672437736
 30
0.0
 11
229.737077053
 21
221.4185872108
 31
0.0
  0
SPLINE
  5
117
330
1F
100
AcDbEntity
  8
0
  6
Continuous
 62
     7
370
    15
100
AcDbSpline
210
0.0
220
0.0
230
1.0
 70
     8
 71
     3
 72
    22
 73
    18
 74
     0
 42
0.00000001
 43
0.00000001
 40
0.0
 40
0.0
 40
0.0
 40
0.0
 40
0.0250023001479826
 40
0.0934057038955639
 40
0.1521417773373405
 40
0.2026644480070683
 40
0.247173182656258
 40
0.3089817242125254
 40
0.3667973556466215
 40
0.4219672143313106
 40
0.4771991652269871
 40
0.5441744382694199
 40
0.625881262643704
 40
0.7233933151150721
 40
0.8331625046394773
 40
0.9496130273542996
 40
1.0
 40
1.0
 40
1.0
 40
1.0
 10
229.1381150342756
 20
222.9098792119452
 30
0.0
 10
229.0340636834757
 20
223.1783924737061
 30
0.0
 10
228.6453398618584
 20
224.1815269881955
 30
0.0
 10
227.7836369460237
 20
225.7402020144315
 30
0.0
 10
226.6128263624125
 20
227.4775405793385
 30
0.0
 10
225.4085158635785
 20
228.872226058861
 30
0.0
 10
224.023688650683
 20
230.1728455645963
 30
0.0
 10
222.4058308451047
 20
231.3601916145134
 30
0.0
 10
220.5540167419381
 20
232.3874832621077
 30
0.0
 10
218.7271899860276
 20
233.1676431038049
 30
0.0
 10
216.8610056351706
 20
233.7935723130325
 30
0.0
 10
214.6304156745215
 20
234.3775053539741
 30
0.0
 10
211.8773207924442
 20
234.9050987409059
 30
0.0
 10
208.6061724308906
 20
235.3385284425872
 30
0.0
 10
204.8559692774872
 20
235.6378914134533
 30
0.0
 10
201.54323400938
 20
235.7862631530861
 30
0.0
 10
199.5208180967724
 20
235.7619590054625
 30
0.0
 10
198.9100236524745
 20
235.7546188543842
 30
0.0
  0
SPLINE
  5
118
330
1F
100
AcDbEntity
  8
0
  6
Continuous
 62
     7
370
    15
100
AcDbSpline
210
0.0
220
0.0
230
1.0
 70
     8
 71
     3
 72
     9
 73
     5
 74
     0
 42
0.00000001
 43
0.00000001
 40
0.0
 40
0.0
 40
0.0
 40
0.0
 40
0.4190255294036959
 40
1.0
 40
1.0
 40
1.0
 40
1.0
 10
196.4476414384543
 20
235.9100456286554
 30
0.0
 10
196.4367495728305
 20
235.8978112101136
 30
0.0
 10
196.4107562505639
 20
235.8686138994887
 30
0.0
 10
196.4089739082269
 20
235.818046885143
 30
0.0
 10
196.4079384128312
 20
235.7886687407539
 30
0.0
  0
SPLINE
  5
119
330
1F
100
AcDbEntity
  8
0
  6
Continuous
 62
     7
370
    15
100
AcDbSpline
210
0.0
220
0.0
230
1.0
 70
     8
 71
     3
 72
    11
 73
     7
 74
     0
 42
0.00000001
 43
0.00000001
 40
0.0
 40
0.0
 40
0.0
 40
0.0
 40
0.0877258951112458
 40
0.4987341598236556
 40
0.8759083645594696
 40
1.0
 40
1.0
 40
1.0
 40
1.0
 10
201.4128509010674
 20
235.7855133766442
 30
0.0
 10
201.4143299397518
 20
235.7930658182343
 30
0.0
 10
201.4227384845111
 20
235.8360025201769
 30
0.0
 10
201.3838981881729
 20
235.9094710168342
 30
0.0
 10
201.3417345556824
 20
235.9564177032339
 30
0.0
 10
201.3207485655975
 20
235.9685127472527
 30
0.0
 10
201.3155533465695
 20
235.9715069544632
 30
0.0
  0
SPLINE
  5
11A
330
1F
100
AcDbEntity
  8
0
  6
Continuous
 62
     7
370
    15
100
AcDbSpline
210
0.0
220
0.0
230
1.0
 70
     8
 71
     3
 72
    19
 73
    15
 74
     0
 42
0.00000001
 43
0.00000001
 40
0.0
 40
0.0
 40
0.0
 40
0.0
 40
0.0705805818518395
 40
0.1715915242690846
 40
0.2672945098695755
 40
0.3687471992070606
 40
0.4554079649258181
 40
0.5387909634181623
 40
0.627250102853513
 40
0.7127859564737318
 40
0.7950702407280689
 40
0.8779854152788292
 40
0.9621086788960412
 40
1.0
 40
1.0
 40
1.0
 40
1.0
 10
198.910323490094
 20
195.4498161131439
 30
0.0
 10
199.7273972393898
 20
195.4441663764565
 30
0.0
 10
201.7138207910721
 20
195.4304310557141
 30
0.0
 10
204.8045574096884
 20
195.6111659549452
 30
0.0
 10
208.2374138823958
 20
195.9647661440093
 30
0.0
 10
211.4784978957403
 20
196.4978940618859
 30
0.0
 10
214.5398669938468
 20
197.1915214304071
 30
0.0
 10
217.4053676902396
 20
198.030883280931
 30
0.0
 10
220.1940357426645
 20
199.0512353336544
 30
0.0
 10
222.8859926593063
 20
200.262007046543
 30
0.0
 10
225.422079717885
 20
201.6324179881289
 30
0.0
 10
227.8283640784009
 20
203.1748246898108
 30
0.0
 10
229.7317301791831
 20
204.5498510440994
 30
0.0
 10
230.7831616784867
 20
205.4618281609887
 30
0.0
 10
231.1096810749177
 20
205.745040351191
 30
0.0
  0
SPLINE
  5
11B
330
1F
100
AcDbEntity
  8
0
  6
Continuous
 62
     7
370
    15
100
AcDbSpline
210
0.0
220
0.0
230
1.0
 70
     8
 71
     3
 72
    20
 73
    16
 74
     0
 42
0.00000001
 43
0.00000001
 40
0.0
 40
0.0
 40
0.0
 40
0.0
 40
0.012700740268385
 40
0.0930142638165815
 40
0.1772084874791163
 40
0.2611783371601801
 40
0.3445468788122265
 40
0.4276195826731092
 40
0.5123990733226259
 40
0.5992966716080518
 40
0.6889409745495432
 40
0.7839062933480354
 40
0.883470896932332
 40
0.988345446252722
 40
1.0
 40
1.0
 40
1.0
 40
1.0
 10
166.7018871826284
 20
205.7358604448068
 30
0.0
 10
166.8101822020473
 20
205.6397412963181
 30
0.0
 10
167.6032841231478
 20
204.9358097422177
 30
0.0
 10
169.2273057807564
 20
203.7183857136971
 30
0.0
 10
171.5834427205246
 20
202.1221959950626
 30
0.0
 10
174.094189177184
 20
200.6905528007925
 30
0.0
 10
176.6937132579038
 20
199.4456354147894
 30
0.0
 10
179.388664931924
 20
198.3835118653111
 30
0.0
 10
182.1897591332637
 20
197.4861661416883
 30
0.0
 10
185.1201328116616
 20
196.7530016380994
 30
0.0
 10
188.2067238868964
 20
196.1732895287052
 30
0.0
 10
191.4685075419607
 20
195.7460694678961
 30
0.0
 10
194.9249699521403
 20
195.4972476652262
 30
0.0
 10
197.4269965159792
 20
195.3987961312685
 30
0.0
 10
198.7754644530246
 20
195.4300493749072
 30
0.0
 10
198.9103302645262
 20
195.4331751400437
 30
0.0
  0
SPLINE
  5
11C
330
1F
100
AcDbEntity
  8
0
  6
Continuous
 62
     7
370
    15
100
AcDbSpline
210
0.0
220
0.0
230
1.0
 70
     8
 71
     3
 72
    12
 73
     8
 74
     0
 42
0.00000001
 43
0.00000001
 40
0.0
 40
0.0
 40
0.0
 40
0.0
 40
0.0125540937375947
 40
0.2952435986519928
 40
0.5984793911459322
 40
0.9374380339032247
 40
1.0
 40
1.0
 40
1.0
 40
1.0
 10
231.1253398292019
 20
205.7278032402201
 30
0.0
 10
231.1316178921367
 20
205.7320621183734
 30
0.0
 10
231.2792635870136
 20
205.832221201019
 30
0.0
 10
231.499219643027
 20
206.134996738282
 30
0.0
 10
231.7175722152024
 20
206.6377308204787
 30
0.0
 10
231.809867820684
 20
207.063847203034
 30
0.0
 10
231.771399208323
 20
207.3002170242202
 30
0.0
 10
231.7654053141884
 20
207.3370464183117
 30
0.0
  0
SPLINE
  5
11D
330
1F
100
AcDbEntity
  8
0
  6
Continuous
 62
     7
370
    15
100
AcDbSpline
210
0.0
220
0.0
230
1.0
 70
     8
 71
     3
 72
    11
 73
     7
 74
     0
 42
0.00000001
 43
0.00000001
 40
0.0
 40
0.0
 40
0.0
 40
0.0
 40
0.3511061264902615
 40
0.6804711427257283
 40
0.97799131571372
 40
1.0
 40
1.0
 40
1.0
 40
1.0
 10
166.0484126641792
 20
207.362361247912
 30
0.0
 10
166.0509896477744
 20
207.1481007668482
 30
0.0
 10
166.055984043598
 20
206.7328471913897
 30
0.0
 10
166.2945396975739
 20
206.1866574448433
 30
0.0
 10
166.5192207270512
 20
205.8397917391638
 30
0.0
 10
166.6861181895474
 20
205.7371081608242
 30
0.0
 10
166.6976138447179
 20
205.7300354648669
 30
0.0
  0
LINE
  5
11E
330
1F
100
AcDbEntity
  8
0
  6
Continuous
 62
     7
370
    15
100
AcDbLine
 10
231.9053939329
 20
204.2047445056
 30
0.0
 11
231.9043274745
 21
204.2470504236
 31
0.0
  0
LINE
  5
11F
330
1F
100
AcDbEntity
  8
0
  6
Continuous
 62
     7
370
    15
100
AcDbLine
 10
231.866562217
 20
205.1406247851
 30
0.0
 11
231.8371944553
 21
205.5316032049
 31
0.0
  0
LINE
  5
120
330
1F
100
AcDbEntity
  8
0
  6
Continuous
 62
     7
370
    15
100
AcDbLine
 10
166.0144071543
 20
205.558444657
 30
0.0
 11
165.9534202155
 21
205.1406247852
 31
0.0
  0
SPLINE
  5
121
330
1F
100
AcDbEntity
  8
0
  6
Continuous
 62
     7
370
    15
100
AcDbSpline
210
0.0
220
0.0
230
1.0
 70
     8
 71
     3
 72
     9
 73
     5
 74
     0
 42
0.00000001
 43
0.00000001
 40
0.0
 40
0.0
 40
0.0
 40
0.0
 40
0.6424658998352802
 40
1.0
 40
1.0
 40
1.0
 40
1.0
 10
165.957162809076
 20
205.2232012721048
 30
0.0
 10
165.9482585028407
 20
205.0207484066437
 30
0.0
 10
165.9343989248653
 20
204.7056299458617
 30
0.0
 10
165.9254657559813
 20
204.3756032115768
 30
0.0
 10
165.9222718434828
 20
204.257607400104
 30
0.0
  0
SPLINE
  5
122
330
1F
100
AcDbEntity
  8
0
  6
Continuous
 62
     7
370
    15
100
AcDbSpline
210
0.0
220
0.0
230
1.0
 70
     8
 71
     3
 72
     9
 73
     5
 74
     0
 42
0.00000001
 43
0.00000001
 40
0.0
 40
0.0
 40
0.0
 40
0.0
 40
0.3626764278403828
 40
1.0
 40
1.0
 40
1.0
 40
1.0
 10
231.8976988551373
 20
204.2575255425899
 30
0.0
 10
231.8944707991616
 20
204.377149268892
 30
0.0
 10
231.8855701490835
 20
204.7069852249107
 30
0.0
 10
231.8715799277113
 20
205.0213626293777
 30
0.0
 10
231.862663629851
 20
205.221722759799
 30
0.0
  0
LINE
  5
123
330
1F
100
AcDbEntity
  8
0
  6
Continuous
 62
     7
370
    15
100
AcDbLine
 10
231.8055760467
 20
205.5584442265
 30
0.0
 11
231.6441004335
 21
206.5142384449
 31
0.0
  0
LINE
  5
124
330
1F
100
AcDbEntity
  8
0
  6
Continuous
 62
     7
370
    15
100
AcDbLine
 10
166.1711352202
 20
206.5475141225
 30
0.0
 11
166.0144063858
 21
205.5584442265
 31
0.0
  0
LINE
  5
125
330
1F
100
AcDbEntity
  8
0
  6
Continuous
 62
     7
370
    15
100
AcDbLine
 10
231.8945513661
 20
176.7863986634
 30
0.0
 11
231.9064729101
 21
177.7538860996
 31
0.0
  0
SPLINE
  5
126
330
1F
100
AcDbEntity
  8
0
  6
Continuous
 62
     7
370
    15
100
AcDbSpline
210
0.0
220
0.0
230
1.0
 70
     8
 71
     3
 72
    17
 73
    13
 74
     0
 42
0.00000001
 43
0.00000001
 40
0.0
 40
0.0
 40
0.0
 40
0.0
 40
0.0022969829640801
 40
0.1007099753061622
 40
0.2201101469350027
 40
0.3504930640574019
 40
0.4953968796715508
 40
0.6495081208255334
 40
0.7655782095465948
 40
0.8687490691135022
 40
0.9750189729706775
 40
1.0
 40
1.0
 40
1.0
 40
1.0
 10
227.6252067689119
 20
124.1252816575496
 30
0.0
 10
227.6329118065496
 20
124.1650548531782
 30
0.0
 10
227.9707350130627
 20
125.9088890967221
 30
0.0
 10
228.5605804215575
 20
129.7476722402399
 30
0.0
 10
229.4054709781376
 20
135.8304204573355
 30
0.0
 10
230.1677334838059
 20
142.7509478929059
 30
0.0
 10
230.8203396342915
 20
150.2968350639321
 30
0.0
 10
231.2908619766738
 20
157.6033309757838
 30
0.0
 10
231.599475848807
 20
164.1816554079123
 30
0.0
 10
231.7781178683069
 20
169.9171215524062
 30
0.0
 10
231.8622522315002
 20
174.043199935119
 30
0.0
 10
231.8893868302217
 20
176.3477693170417
 30
0.0
 10
231.8945513661188
 20
176.7863986633779
 30
0.0
  0
SPLINE
  5
127
330
1F
100
AcDbEntity
  8
0
  6
Continuous
 62
     7
370
    15
100
AcDbSpline
210
0.0
220
0.0
230
1.0
 70
     8
 71
     3
 72
    16
 73
    12
 74
     0
 42
0.00000001
 43
0.00000001
 40
0.0
 40
0.0
 40
0.0
 40
0.0
 40
0.0476422127364281
 40
0.1500175936831297
 40
0.2496384219562406
 40
0.3539545788875457
 40
0.4873098323642735
 40
0.6456627425852194
 40
0.7797303850994384
 40
0.8997722450589358
 40
1.0
 40
1.0
 40
1.0
 40
1.0
 10
165.9183088378023
 20
177.7533608785462
 30
0.0
 10
165.9264764118442
 20
176.9016718636418
 30
0.0
 10
165.9521947765804
 20
174.2198414186712
 30
0.0
 10
166.0468183837544
 20
169.7451714375439
 30
0.0
 10
166.2194207850542
 20
164.2487934060827
 30
0.0
 10
166.5002792584794
 20
158.1967285340607
 30
0.0
 10
166.9423377419467
 20
151.0970318560148
 30
0.0
 10
167.5746818495927
 20
143.4747127914472
 30
0.0
 10
168.3860606117092
 20
136.1104656706148
 30
0.0
 10
169.2257812047677
 20
129.800376757309
 30
0.0
 10
169.893896386057
 20
125.900566504201
 30
0.0
 10
170.1979042025363
 20
124.1260628962403
 30
0.0
  0
SPLINE
  5
128
330
1F
100
AcDbEntity
  8
0
  6
Continuous
 62
     7
370
    15
100
AcDbSpline
210
0.0
220
0.0
230
1.0
 70
     8
 71
     3
 72
    26
 73
    22
 74
     0
 42
0.00000001
 43
0.00000001
 40
0.0
 40
0.0
 40
0.0
 40
0.0
 40
0.0696380078003151
 40
0.1511693299621581
 40
0.223824517573646
 40
0.2897128363252339
 40
0.3466599701442847
 40
0.3971826288456026
 40
0.443725080355502
 40
0.4863397451645048
 40
0.5251950957628042
 40
0.5616666095756356
 40
0.6006350137725744
 40
0.6384386192491338
 40
0.6785858547533973
 40
0.7218430936886496
 40
0.7706310701591694
 40
0.8260191446430025
 40
0.8944368057526618
 40
0.9938643367486701
 40
0.9999999999999999
 40
0.9999999999999999
 40
0.9999999999999999
 40
0.9999999999999999
 10
198.9101930633108
 20
101.1838441058681
 30
0.0
 10
199.8845689081524
 20
101.1805093975474
 30
0.0
 10
201.9997319957923
 20
101.1732704537813
 30
0.0
 10
205.1279859761752
 20
101.3508602156847
 30
0.0
 10
208.191416279766
 20
101.6713359363364
 30
0.0
 10
210.8900093335944
 20
102.1271058278249
 30
0.0
 10
213.2522753688477
 20
102.684322278499
 30
0.0
 10
215.3069850049926
 20
103.3408281769987
 30
0.0
 10
217.1104717066459
 20
104.0997205257153
 30
0.0
 10
218.6914681431852
 20
104.9467065365971
 30
0.0
 10
220.0590662036493
 20
105.875295198056
 30
0.0
 10
221.2728704903832
 20
106.9220897015267
 30
0.0
 10
222.3281528689693
 20
108.1098859319033
 30
0.0
 10
223.2638295672704
 20
109.4553899193382
 30
0.0
 10
224.0797126028258
 20
110.9450967406842
 30
0.0
 10
224.8181457246393
 20
112.6429790189701
 30
0.0
 10
225.4874093006639
 20
114.5958761062293
 30
0.0
 10
226.1225537988995
 20
116.9263907921098
 30
0.0
 10
226.8278317240182
 20
119.9685154541337
 30
0.0
 10
227.3222606118385
 20
122.3528967360394
 30
0.0
 10
227.5679665184054
 20
123.8091225573531
 30
0.0
 10
227.5822477147286
 20
123.8937629599212
 30
0.0
  0
SPLINE
  5
129
330
1F
100
AcDbEntity
  8
0
  6
Continuous
 62
     7
370
    15
100
AcDbSpline
210
0.0
220
0.0
230
1.0
 70
     8
 71
     3
 72
    26
 73
    22
 74
     0
 42
0.00000001
 43
0.00000001
 40
0.0
 40
0.0
 40
0.0
 40
0.0
 40
0.0839466529623917
 40
0.1679587720277973
 40
0.2259662102263746
 40
0.2771655572313577
 40
0.3230238041540437
 40
0.3639839746419782
 40
0.4024277914127817
 40
0.4386746827351485
 40
0.4767248297991106
 40
0.5150101886123761
 40
0.555688796421014
 40
0.6010112438632489
 40
0.6499606825594281
 40
0.7033487847673241
 40
0.7637513530174359
 40
0.8328250770581623
 40
0.9086750912459473
 40
0.9941999650552881
 40
1.0
 40
1.0
 40
1.0
 40
1.0
 10
170.2469023705734
 20
123.8950473075067
 30
0.0
 10
170.4590283362758
 20
122.7398465877391
 30
0.0
 10
170.8834456948875
 20
120.4285442607159
 30
0.0
 10
171.5915833617601
 20
117.3469458259591
 30
0.0
 10
172.2884124352529
 20
114.734400294365
 30
0.0
 10
172.9855342095586
 20
112.6779142009695
 30
0.0
 10
173.7570579702635
 20
110.9051106972442
 30
0.0
 10
174.6079749925218
 20
109.3696868051479
 30
0.0
 10
175.5441993397675
 20
108.0459371070842
 30
0.0
 10
176.6014776700833
 20
106.8703364901329
 30
0.0
 10
177.8014080992965
 20
105.8436261638922
 30
0.0
 10
179.1623370851993
 20
104.9287610608575
 30
0.0
 10
180.6976099078119
 20
104.1075675552158
 30
0.0
 10
182.4381632328423
 20
103.3702015322568
 30
0.0
 10
184.4051898260253
 20
102.7320416828936
 30
0.0
 10
186.6191520843221
 20
102.1942105673668
 30
0.0
 10
189.1389748686363
 20
101.7446504801604
 30
0.0
 10
191.9934359660897
 20
101.4068862340574
 30
0.0
 10
195.2118861284319
 20
101.2109166378568
 30
0.0
 10
197.5513065246981
 20
101.137815951374
 30
0.0
 10
198.8286868786338
 20
101.1631485737169
 30
0.0
 10
198.9098131648967
 20
101.1647574457851
 30
0.0
  0
LINE
  5
12A
330
1F
100
AcDbEntity
  8
0
  6
Continuous
 62
     7
370
    15
100
AcDbLine
 10
165.9010782497
 20
178.304156647
 30
0.0
 11
165.9083878359
 21
177.7538483232
 31
0.0
  0
LINE
  5
12B
330
1F
100
AcDbEntity
  8
0
  6
Continuous
 62
     7
370
    15
100
AcDbLine
 10
231.9110719535
 20
177.7535581024
 30
0.0
 11
231.9185861373
 21
178.3040562568
 31
0.0
  0
LINE
  5
12C
330
1F
100
AcDbEntity
  8
0
  6
Continuous
 62
     7
370
    15
100
AcDbLine
 10
170.2091952889
 20
124.1279976545
 30
0.0
 11
170.2507527476
 21
123.8958654171
 31
0.0
  0
LINE
  5
12D
330
1F
100
AcDbEntity
  8
0
  6
Continuous
 62
     7
370
    15
100
AcDbLine
 10
227.5799669958
 20
123.8938885404
 30
0.0
 11
227.6227904554
 21
124.1258068158
 31
0.0
  0
LINE
  5
12E
330
1F
100
AcDbEntity
  8
0
  6
Continuous
 62
     7
370
    15
100
AcDbLine
 10
224.2081397205
 20
229.961990033
 30
0.0
 11
223.8054666372
 21
236.3283848953
 31
0.0
  0
LINE
  5
12F
330
1F
100
AcDbEntity
  8
0
  6
Continuous
 62
     7
370
    15
100
AcDbLine
 10
174.0145169624
 20
236.3284033472
 30
0.0
 11
173.6118396136
 21
229.961941046
 31
0.0
  0
SPLINE
  5
130
330
1F
100
AcDbEntity
  8
0
  6
Continuous
 62
     7
370
    15
100
AcDbSpline
210
0.0
220
0.0
230
1.0
 70
     8
 71
     3
 72
    11
 73
     7
 74
     0
 42
0.00000001
 43
0.00000001
 40
0.0
 40
0.0
 40
0.0
 40
0.0
 40
0.246522847563226
 40
0.4343018045748149
 40
0.6223028284344331
 40
1.0
 40
1.0
 40
1.0
 40
1.0
 10
228.1981495785472
 20
224.5494531073645
 30
0.0
 10
228.4300657941112
 20
224.2002316109679
 30
0.0
 10
228.8386349467282
 20
223.5850045535958
 30
0.0
 10
229.2844518929842
 20
222.621673118267
 30
0.0
 10
229.7833193826463
 20
221.4093984874794
 30
0.0
 10
230.076316439862
 20
220.385882532687
 30
0.0
 10
230.2719404681555
 20
219.7025162354217
 30
0.0
  0
SPLINE
  5
131
330
1F
100
AcDbEntity
  8
0
  6
Continuous
 62
     7
370
    15
100
AcDbSpline
210
0.0
220
0.0
230
1.0
 70
     8
 71
     3
 72
    12
 73
     8
 74
     0
 42
0.00000001
 43
0.00000001
 40
0.0
 40
0.0
 40
0.0
 40
0.0
 40
0.4999999999999964
 40
0.4999999999999964
 40
0.7499999999999982
 40
0.7499999999999982
 40
1.0
 40
1.0
 40
1.0
 40
1.0
 10
167.5480425035117
 20
219.7025182997718
 30
0.0
 10
167.7945192891975
 20
220.6462247123352
 30
0.0
 10
168.0778308926623
 20
221.5124658311066
 30
0.0
 10
168.5827145944189
 20
222.7255886194521
 30
0.0
 10
168.7645151333541
 20
223.1156731731496
 30
0.0
 10
169.1620960267702
 20
223.8733583998456
 30
0.0
 10
169.3775589211395
 20
224.2406616445929
 30
0.0
 10
169.6138604233378
 20
224.5975361267784
 30
0.0
  0
SPLINE
  5
132
330
1F
100
AcDbEntity
  8
0
  6
Continuous
 62
     7
370
    15
100
AcDbSpline
210
0.0
220
0.0
230
1.0
 70
     8
 71
     3
 72
    14
 73
    10
 74
     0
 42
0.00000001
 43
0.00000001
 40
0.0
 40
0.0
 40
0.0
 40
0.0
 40
0.4999999999999992
 40
0.4999999999999992
 40
0.6250000000000002
 40
0.6250000000000002
 40
0.7500000000000012
 40
0.7500000000000012
 40
1.0
 40
1.0
 40
1.0
 40
1.0
 10
166.0651597967002
 20
207.5649381571747
 30
0.0
 10
166.1871041189446
 20
210.0030548751936
 30
0.0
 10
166.352009108697
 20
212.244622970043
 30
0.0
 10
166.6494460390773
 20
214.7929997007838
 30
0.0
 10
166.7137764607839
 20
215.2910582830079
 30
0.0
 10
166.8517558344233
 20
216.253628599709
 30
0.0
 10
166.9254557009091
 20
216.7189387356606
 30
0.0
 10
167.1623448986616
 20
218.0698521815353
 30
0.0
 10
167.3411800084708
 20
218.9104864556948
 30
0.0
 10
167.5480425035116
 20
219.7025182997718
 30
0.0
  0
SPLINE
  5
133
330
1F
100
AcDbEntity
  8
0
  6
Continuous
 62
     7
370
    15
100
AcDbSpline
210
0.0
220
0.0
230
1.0
 70
     8
 71
     3
 72
    16
 73
    12
 74
     0
 42
0.00000001
 43
0.00000001
 40
0.0
 40
0.0
 40
0.0
 40
0.0
 40
0.2500000000000003
 40
0.2500000000000003
 40
0.5000000000000007
 40
0.5000000000000007
 40
0.750000000000001
 40
0.750000000000001
 40
0.8750000000000004
 40
0.8750000000000004
 40
1.0
 40
1.0
 40
1.0
 40
1.0
 10
230.2719404681554
 20
219.7025162354218
 30
0.0
 10
230.47864616577
 20
218.9110844631045
 30
0.0
 10
230.6567216299296
 20
218.0735885473848
 30
0.0
 10
230.9704939376136
 20
216.2871871634617
 30
0.0
 10
231.1062002013305
 20
215.337915111254
 30
0.0
 10
231.3433171776682
 20
213.3186796105015
 30
0.0
 10
231.4446290404429
 20
212.2489440240261
 30
0.0
 10
231.5762315200093
 20
210.5479568099713
 30
0.0
 10
231.6165659105482
 20
209.9662655344501
 30
0.0
 10
231.6904359713813
 20
208.7826057453405
 30
0.0
 10
231.7240916794749
 20
208.1793633062977
 30
0.0
 10
231.7548226358011
 20
207.5649381571747
 30
0.0
  0
SPLINE
  5
134
330
1F
100
AcDbEntity
  8
0
  6
Continuous
 62
     7
370
    15
100
AcDbSpline
210
0.0
220
0.0
230
1.0
 70
     8
 71
     3
 72
    14
 73
    10
 74
     0
 42
0.00000001
 43
0.00000001
 40
0.0
 40
0.0
 40
0.0
 40
0.0
 40
0.25
 40
0.25
 40
0.5
 40
0.5
 40
0.75
 40
0.75
 40
1.0
 40
1.0
 40
1.0
 40
1.0
 10
231.0589533964318
 20
205.9238665503756
 30
0.0
 10
231.1997703070908
 20
206.01667083528
 30
0.0
 10
231.3193606212662
 20
206.1269604409634
 30
0.0
 10
231.5219966943741
 20
206.3777534793549
 30
0.0
 10
231.6019114846851
 20
206.5154242945386
 30
0.0
 10
231.7185779801166
 20
206.8025957772249
 30
0.0
 10
231.7562354135348
 20
206.9556803910502
 30
0.0
 10
231.7873910550958
 20
207.2595714084536
 30
0.0
 10
231.782046338901
 20
207.4120048764705
 30
0.0
 10
231.754822635801
 20
207.5649381571747
 30
0.0
  0
ARC
  5
135
330
1F
100
AcDbEntity
  8
0
  6
Continuous
 62
     7
370
    15
100
AcDbCircle
 10
198.9415466238
 20
225.7907796584
 30
0.0
 40
10.46651914000715
100
AcDbArc
 50
77.5157409095
 51
102.9294973254
  0
LWPOLYLINE
  5
136
330
1F
100
AcDbEntity
  8
0
  6
Continuous
 62
     7
370
    15
100
AcDbPolyline
 90
        5
 70
   128
 43
0.0
 10
231.0589533964
 20
205.9238665504
 10
231.1101985091
 20
205.8295055266
 10
231.1335490667
 20
205.7619564606
 10
231.1272498262
 20
205.7262969624
 10
231.1257005061
 20
205.7250819548
  0
SPLINE
  5
137
330
1F
100
AcDbEntity
  8
0
  6
Continuous
 62
     7
370
    15
100
AcDbSpline
210
0.0
220
0.0
230
1.0
 70
     8
 71
     3
 72
    25
 73
    21
 74
     0
 42
0.00000001
 43
0.00000001
 40
0.0
 40
0.0
 40
0.0
 40
0.0
 40
0.0312499999999998
 40
0.0312499999999998
 40
0.0624999999999996
 40
0.1249999999999993
 40
0.1249999999999993
 40
0.2499999999999994
 40
0.2499999999999994
 40
0.3749999999999994
 40
0.3749999999999994
 40
0.4999999999999996
 40
0.4999999999999996
 40
0.7499999999999997
 40
0.7499999999999997
 40
0.875
 40
0.875
 40
0.9374999999999999
 40
0.9374999999999999
 40
1.0
 40
1.0
 40
1.0
 40
1.0
 10
165.9376586626439
 20
204.3580259358384
 30
0.0
 10
165.9298033739648
 20
204.1098588534578
 30
0.0
 10
165.9222550794471
 20
203.85851980605
 30
0.0
 10
165.9079307404628
 20
203.355812438484
 30
0.0
 10
165.8875044419695
 20
202.5985815894047
 30
0.0
 10
165.8700938184401
 20
201.8321269501807
 30
0.0
 10
165.8389195826252
 20
200.2876586106811
 30
0.0
 10
165.8229899451048
 20
199.2426226072249
 30
0.0
 10
165.7992182397807
 20
197.1253340580097
 30
0.0
 10
165.7913753974265
 20
196.0515968953279
 30
0.0
 10
165.782163651511
 20
193.8895515502312
 30
0.0
 10
165.7807668365867
 20
192.8006068802171
 30
0.0
 10
165.7853243249127
 20
189.5126604464076
 30
0.0
 10
165.7999193869278
 20
187.2894830222805
 30
0.0
 10
165.8342808485849
 20
183.9400087599218
 30
0.0
 10
165.8478711623193
 20
182.8205905973874
 30
0.0
 10
165.8709251125226
 20
181.1377821250627
 30
0.0
 10
165.8790512225216
 20
180.5762324574833
 30
0.0
 10
165.8961330668198
 20
179.4519938286036
 30
0.0
 10
165.9051132890426
 20
178.8878313221258
 30
0.0
 10
165.9144401362351
 20
178.3260847673552
 30
0.0
  0
LWPOLYLINE
  5
138
330
1F
100
AcDbEntity
  8
0
  6
Continuous
 62
     7
370
    15
100
AcDbPolyline
 90
       14
 70
   128
 43
0.0
 10
231.8859934839
 20
204.2253986534
 10
231.9361679896
 20
202.4119356622
 10
232.0067095747
 20
198.373134092
 10
232.0258701029
 20
196.2942430286
 10
232.0359102452
 20
194.2144631486
 10
232.0381257471
 20
192.110568515
 10
232.0330086628
 20
189.985505433
 10
232.0211861478
 20
187.8417240965
 10
232.0013974474
 20
185.4798759678
 10
231.9750770873
 20
183.1057758474
 10
231.9428922275
 20
180.7194705494
 10
231.9055432903
 20
178.3261446396
 10
231.9055422963
 20
178.3260847674
 10
231.9055422963
 20
178.3260847674
  0
LINE
  5
139
330
1F
100
AcDbEntity
  8
0
  6
Continuous
 62
     7
370
    15
100
AcDbLine
 10
231.8534423202
 20
205.2213593633
 30
0.0
 11
231.8618029617
 21
205.0050126679
 31
0.0
  0
SPLINE
  5
13A
330
1F
100
AcDbEntity
  8
0
  6
Continuous
 62
     7
370
    15
100
AcDbSpline
210
0.0
220
0.0
230
1.0
 70
     8
 71
     3
 72
    42
 73
    38
 74
     0
 42
0.00000001
 43
0.00000001
 40
0.0
 40
0.0
 40
0.0
 40
0.0
 40
0.0625
 40
0.0625
 40
0.125
 40
0.125
 40
0.1875
 40
0.1875
 40
0.2187500000000001
 40
0.2187500000000001
 40
0.2500000000000001
 40
0.2500000000000001
 40
0.3749999999999997
 40
0.3749999999999997
 40
0.4062499999999996
 40
0.4062499999999996
 40
0.4374999999999996
 40
0.4374999999999996
 40
0.4999999999999994
 40
0.4999999999999994
 40
0.5312499999999993
 40
0.5312499999999993
 40
0.5624999999999992
 40
0.5624999999999992
 40
0.6249999999999989
 40
0.6249999999999989
 40
0.6874999999999987
 40
0.6874999999999987
 40
0.7187499999999987
 40
0.7187499999999987
 40
0.7499999999999987
 40
0.7499999999999987
 40
0.812499999999999
 40
0.812499999999999
 40
0.8749999999999993
 40
0.8749999999999993
 40
1.0
 40
1.0
 40
1.0
 40
1.0
 10
220.2998351626691
 20
248.5324782629016
 30
0.0
 10
219.7665034557469
 20
249.5057660377716
 30
0.0
 10
219.1750596791332
 20
250.4475715278293
 30
0.0
 10
217.8844612912824
 20
252.2482820058104
 30
0.0
 10
217.1905761301514
 20
253.1005678612776
 30
0.0
 10
215.7058221737531
 20
254.709187116892
 30
0.0
 10
214.914970561957
 20
255.4655375177698
 30
0.0
 10
213.6525602136098
 20
256.5247396826736
 30
0.0
 10
213.2190298346513
 20
256.8652154623609
 30
0.0
 10
212.3254184051693
 20
257.5198986557605
 30
0.0
 10
211.8662395770162
 20
257.8332291573116
 30
0.0
 10
209.5399250825606
 20
259.3083068043204
 30
0.0
 10
207.55628073839
 20
260.2202409730984
 30
0.0
 10
204.9148115172017
 20
261.0060300242823
 30
0.0
 10
204.3759077577257
 20
261.1456810817701
 30
0.0
 10
203.2938353776222
 20
261.3845728456157
 30
0.0
 10
202.7515580464236
 20
261.4838354179612
 30
0.0
 10
201.1210747486908
 20
261.7222460039481
 30
0.0
 10
200.0292329821606
 20
261.8022690134101
 30
0.0
 10
198.3841892267387
 20
261.803898941149
 30
0.0
 10
197.8346239156785
 20
261.7846451380668
 30
0.0
 10
196.7330098031505
 20
261.705751267618
 30
0.0
 10
196.1787328821102
 20
261.6457071098307
 30
0.0
 10
194.5353849863123
 20
261.4068264813999
 30
0.0
 10
193.4623083995294
 20
261.1699996374271
 30
0.0
 10
191.3592057912325
 20
260.5478460812142
 30
0.0
 10
190.3291864539022
 20
260.1624963123726
 30
0.0
 10
188.8167248427826
 20
259.4721327354949
 30
0.0
 10
188.3190092249815
 20
259.2234972556181
 30
0.0
 10
187.3489767156397
 20
258.6965913541755
 30
0.0
 10
186.87480637573
 20
258.4175050041899
 30
0.0
 10
185.4838406281519
 20
257.5347763123667
 30
0.0
 10
184.598464395143
 20
256.885846086769
 30
0.0
 10
182.909607689171
 20
255.469940329621
 30
0.0
 10
182.1028652521181
 20
254.6983636444529
 30
0.0
 10
179.8626555651323
 20
252.26697855276
 30
0.0
 10
178.5870544065468
 20
250.4794985874161
 30
0.0
 10
177.5201472698323
 20
248.5324782629016
 30
0.0
  0
SPLINE
  5
13B
330
1F
100
AcDbEntity
  8
0
  6
Continuous
 62
     7
370
    15
100
AcDbSpline
210
0.0
220
0.0
230
1.0
 70
     8
 71
     3
 72
    15
 73
    11
 74
     0
 42
0.00000001
 43
0.00000001
 40
0.0
 40
0.0
 40
0.0
 40
0.0
 40
0.1873834605159037
 40
0.3867573150959003
 40
0.4867458748301506
 40
0.5881909989892232
 40
0.6898375568755489
 40
0.7927115956527043
 40
0.8962426083907412
 40
1.0
 40
1.0
 40
1.0
 40
1.0
 10
223.8028950975294
 20
236.3281215204917
 30
0.0
 10
223.7350652492382
 20
237.1249956786934
 30
0.0
 10
223.5950652196931
 20
238.7697348090674
 30
0.0
 10
223.1989188567658
 20
240.8122291382692
 30
0.0
 10
222.7758287830562
 20
242.4689694131492
 30
0.0
 10
222.3996682222656
 20
243.7064325297207
 30
0.0
 10
221.9653100435339
 20
244.9376882824907
 30
0.0
 10
221.4711788061435
 20
246.1557085065676
 30
0.0
 10
220.9215961377015
 20
247.3600467703806
 30
0.0
 10
220.5072396600531
 20
248.1413833338401
 30
0.0
 10
220.2998351626691
 20
248.5324782629016
 30
0.0
  0
SPLINE
  5
13C
330
1F
100
AcDbEntity
  8
0
  6
Continuous
 62
     7
370
    15
100
AcDbSpline
210
0.0
220
0.0
230
1.0
 70
     8
 71
     3
 72
    14
 73
    10
 74
     0
 42
0.00000001
 43
0.00000001
 40
0.0
 40
0.0
 40
0.0
 40
0.0
 40
0.0470312679277786
 40
0.2353155263373049
 40
0.3305430054969066
 40
0.5214723239887308
 40
0.7130903002117405
 40
0.9053888904724368
 40
1.0
 40
1.0
 40
1.0
 40
1.0
 10
177.5201472698323
 20
248.5324782629016
 30
0.0
 10
177.4249321703433
 20
248.3559042754699
 30
0.0
 10
176.94853439842
 20
247.4724366884638
 30
0.0
 10
176.3535296199361
 20
246.1916274015799
 30
0.0
 10
175.613700438436
 20
244.3077602319684
 30
0.0
 10
174.9895444164443
 20
242.3647616828066
 30
0.0
 10
174.4382997389068
 20
239.9732167116371
 30
0.0
 10
174.1368491770077
 20
237.9513250899287
 30
0.0
 10
174.0452039631431
 20
236.7308330562322
 30
0.0
 10
174.0149831118682
 20
236.3283645946821
 30
0.0
  0
SPLINE
  5
13D
330
1F
100
AcDbEntity
  8
0
  6
Continuous
 62
     8
370
     0
100
AcDbSpline
210
0.0
220
0.0
230
1.0
 70
     8
 71
     3
 72
    44
 73
    40
 74
     0
 42
0.00000001
 43
0.00000001
 40
0.0
 40
0.0
 40
0.0
 40
0.0
 40
0.1249999999999997
 40
0.1249999999999997
 40
0.1875000000000004
 40
0.1875000000000004
 40
0.2500000000000011
 40
0.2500000000000011
 40
0.3125000000000017
 40
0.3125000000000017
 40
0.3437500000000013
 40
0.3437500000000013
 40
0.3750000000000009
 40
0.3750000000000009
 40
0.4375000000000017
 40
0.4375000000000017
 40
0.4687500000000021
 40
0.4687500000000021
 40
0.5000000000000024
 40
0.5000000000000024
 40
0.5312500000000028
 40
0.5312500000000028
 40
0.5625000000000032
 40
0.5625000000000032
 40
0.6250000000000037
 40
0.6250000000000037
 40
0.6562500000000037
 40
0.6562500000000037
 40
0.6875000000000036
 40
0.6875000000000036
 40
0.7500000000000029
 40
0.7500000000000029
 40
0.8125000000000022
 40
0.8125000000000022
 40
0.8750000000000014
 40
0.8750000000000014
 40
0.9375000000000008
 40
0.9375000000000008
 40
1.0
 40
1.0
 40
1.0
 40
1.0
 10
229.6214607232921
 20
218.1653451566237
 30
0.0
 10
229.338096474424
 20
219.1842187076024
 30
0.0
 10
229.0029496474606
 20
220.0920468407889
 30
0.0
 10
228.3925808150578
 20
221.33819107127
 30
0.0
 10
228.170949671112
 20
221.7342874630726
 30
0.0
 10
227.6819791672393
 20
222.4966267042689
 30
0.0
 10
227.415065755304
 20
222.8630172192939
 30
0.0
 10
226.8162642181928
 20
223.5734902308006
 30
0.0
 10
226.4843406141255
 20
223.917849411134
 30
0.0
 10
225.9173627630219
 20
224.4234277422165
 30
0.0
 10
225.716490527183
 20
224.5902890432966
 30
0.0
 10
225.2925509219961
 20
224.9167827698365
 30
0.0
 10
225.0690249155999
 20
225.076861470556
 30
0.0
 10
224.3586588013016
 20
225.5468848985033
 30
0.0
 10
223.8321984053896
 20
225.8467002135908
 30
0.0
 10
222.937630718986
 20
226.2695807426635
 30
0.0
 10
222.6219031323901
 20
226.4060330498403
 30
0.0
 10
221.9510666210234
 20
226.6688620479929
 30
0.0
 10
221.5973450157178
 20
226.7946034808763
 30
0.0
 10
220.8603271591987
 20
227.0315835313301
 30
0.0
 10
220.4743578494691
 20
227.1436459260878
 30
0.0
 10
219.6802636821692
 20
227.3518504298969
 30
0.0
 10
219.2720795667969
 20
227.4481277277069
 30
0.0
 10
218.0169189456087
 20
227.7155940873875
 30
0.0
 10
217.1393233532074
 20
227.8653921117445
 30
0.0
 10
215.7741000444561
 20
228.0569622405981
 30
0.0
 10
215.310477756261
 20
228.1153302752316
 30
0.0
 10
214.3796135411113
 20
228.2214948147617
 30
0.0
 10
213.9109981116224
 20
228.2695205254575
 30
0.0
 10
212.4971147883795
 20
228.4007255105493
 30
0.0
 10
211.5438813415074
 20
228.4710729229827
 30
0.0
 10
209.6221213667339
 20
228.5873937619856
 30
0.0
 10
208.652066652905
 20
228.6334330355827
 30
0.0
 10
206.7092196605202
 20
228.7078186138208
 30
0.0
 10
205.7364238876792
 20
228.7360730815822
 30
0.0
 10
203.7888914753914
 20
228.7799109280603
 30
0.0
 10
202.8141796987504
 20
228.7958693097038
 30
0.0
 10
200.8632700695323
 20
228.8179298324807
 30
0.0
 10
199.8870524696777
 20
228.8237162255318
 30
0.0
 10
198.9100592233803
 20
228.8237379155273
 30
0.0
  0
SPLINE
  5
13E
330
1F
100
AcDbEntity
  8
0
  6
Continuous
 62
     8
370
     0
100
AcDbSpline
210
0.0
220
0.0
230
1.0
 70
     8
 71
     3
 72
    24
 73
    20
 74
     0
 42
0.00000001
 43
0.00000001
 40
0.0
 40
0.0
 40
0.0
 40
0.0
 40
0.064837402777168
 40
0.1297110483535615
 40
0.1947303745355016
 40
0.2598276284460526
 40
0.3094004892824948
 40
0.4082498391431248
 40
0.4576726543877966
 40
0.4953903924587325
 40
0.5713509499824968
 40
0.609752207669379
 40
0.639856300662339
 40
0.670116216350794
 40
0.7452878123567928
 40
0.8233411584769007
 40
0.8632495580593847
 40
0.9653703491820007
 40
1.0
 40
1.0
 40
1.0
 40
1.0
 10
198.9102197055474
 20
231.3170469427025
 30
0.0
 10
199.7210394810569
 20
231.3129547607819
 30
0.0
 10
201.3431322639617
 20
231.3047681094936
 30
0.0
 10
203.7772211476246
 20
231.2739020915541
 30
0.0
 10
206.2116050593326
 20
231.2278338383519
 30
0.0
 10
208.4492669300776
 20
231.1598374297874
 30
0.0
 10
211.0945817077643
 20
231.0419401117577
 30
0.0
 10
213.5240564862321
 20
230.8779002971875
 30
0.0
 10
215.7482108676087
 20
230.6397742808013
 30
0.0
 10
217.6506608415686
 20
230.375824255228
 30
0.0
 10
219.3497018577197
 20
230.050689041393
 30
0.0
 10
220.8371419360684
 20
229.6525981284375
 30
0.0
 10
221.7936452167777
 20
229.3437889128299
 30
0.0
 10
223.0255674343844
 20
228.8780191417218
 30
0.0
 10
224.4886463352009
 20
228.1529615643159
 30
0.0
 10
225.7163497376296
 20
227.2971157989807
 30
0.0
 10
226.8809253322142
 20
226.2771505803371
 30
0.0
 10
227.6642754210787
 20
225.4440455775434
 30
0.0
 10
228.0902731306103
 20
224.7302175378654
 30
0.0
 10
228.1981495785472
 20
224.5494531073645
 30
0.0
  0
SPLINE
  5
13F
330
1F
100
AcDbEntity
  8
0
  6
Continuous
 62
     8
370
     0
100
AcDbSpline
210
0.0
220
0.0
230
1.0
 70
     8
 71
     3
 72
    36
 73
    32
 74
     0
 42
0.00000001
 43
0.00000001
 40
0.0
 40
0.0
 40
0.0
 40
0.0
 40
0.062500000000001
 40
0.062500000000001
 40
0.125000000000002
 40
0.125000000000002
 40
0.2500000000000039
 40
0.2500000000000039
 40
0.3125000000000049
 40
0.3125000000000049
 40
0.3750000000000059
 40
0.3750000000000059
 40
0.4375000000000069
 40
0.4375000000000069
 40
0.468750000000007
 40
0.468750000000007
 40
0.5000000000000071
 40
0.5000000000000071
 40
0.5625000000000064
 40
0.5625000000000064
 40
0.6250000000000058
 40
0.6250000000000058
 40
0.6875000000000051
 40
0.6875000000000051
 40
0.7500000000000044
 40
0.7500000000000044
 40
0.8125000000000038
 40
0.8125000000000038
 40
0.8750000000000031
 40
0.8750000000000031
 40
1.0
 40
1.0
 40
1.0
 40
1.0
 10
198.909923209121
 20
228.8237379155273
 30
0.0
 10
197.9351027171506
 20
228.8237162737692
 30
0.0
 10
196.9602373502558
 20
228.8179500018321
 30
0.0
 10
195.013403770997
 20
228.795974839158
 30
0.0
 10
194.0410682124273
 20
228.7800804871116
 30
0.0
 10
191.1281734488622
 20
228.7146768737449
 30
0.0
 10
189.1917017186437
 20
228.6470325970099
 30
0.0
 10
186.3030294081501
 20
228.4729553833899
 30
0.0
 10
185.348299215336
 20
228.4027211975492
 30
0.0
 10
183.4682126012108
 20
228.2289715777175
 30
0.0
 10
182.5418944931062
 20
228.1256940299092
 30
0.0
 10
180.727418926439
 20
227.8727817952831
 30
0.0
 10
179.8354186050533
 20
227.721604476546
 30
0.0
 10
178.5757463006059
 20
227.4544803131416
 30
0.0
 10
178.1674908789887
 20
227.3585933749827
 30
0.0
 10
177.3758671285496
 20
227.1520757999523
 30
0.0
 10
176.9913356581637
 20
227.041069162752
 30
0.0
 10
175.8846889201828
 20
226.6872558422287
 30
0.0
 10
175.2221035885022
 20
226.4278122442577
 30
0.0
 10
174.026902208303
 20
225.8674129545292
 30
0.0
 10
173.4928256096109
 20
225.5659724949529
 30
0.0
 10
172.5318786813483
 20
224.9335732992358
 30
0.0
 10
172.1120472514446
 20
224.6082688622948
 30
0.0
 10
171.3586011182842
 20
223.940122465886
 30
0.0
 10
171.0255564978605
 20
223.5971059062444
 30
0.0
 10
170.4228842788374
 20
222.8864838913504
 30
0.0
 10
170.1531987100423
 20
222.51857200714
 30
0.0
 10
169.6581804889895
 20
221.7502109902306
 30
0.0
 10
169.4336583448691
 20
221.3501224081959
 30
0.0
 10
168.8178766136175
 20
220.0954275938613
 30
0.0
 10
168.4818080047364
 20
219.183938035579
 30
0.0
 10
168.1985222476161
 20
218.1653470925366
 30
0.0
  0
SPLINE
  5
140
330
1F
100
AcDbEntity
  8
0
  6
Continuous
 62
     8
370
     0
100
AcDbSpline
210
0.0
220
0.0
230
1.0
 70
     8
 71
     3
 72
    36
 73
    32
 74
     0
 42
0.00000001
 43
0.00000001
 40
0.0
 40
0.0
 40
0.0
 40
0.0
 40
0.1249999999999972
 40
0.1249999999999972
 40
0.1874999999999949
 40
0.1874999999999949
 40
0.2187499999999946
 40
0.2187499999999946
 40
0.2499999999999943
 40
0.2499999999999943
 40
0.3124999999999938
 40
0.3124999999999938
 40
0.3437499999999942
 40
0.3437499999999942
 40
0.3749999999999946
 40
0.3749999999999946
 40
0.4374999999999952
 40
0.4374999999999952
 40
0.4687499999999955
 40
0.4687499999999955
 40
0.4999999999999958
 40
0.4999999999999958
 40
0.6249999999999964
 40
0.6249999999999964
 40
0.6874999999999971
 40
0.6874999999999971
 40
0.7499999999999977
 40
0.7499999999999977
 40
0.8749999999999988
 40
0.8749999999999988
 40
1.0
 40
1.0
 40
1.0
 40
1.0
 10
169.6138604233378
 20
224.5975361267784
 30
0.0
 10
170.0333729697591
 20
225.2311051958772
 30
0.0
 10
170.5196923812206
 20
225.83210089446
 30
0.0
 10
171.4224568729535
 20
226.707687612345
 30
0.0
 10
171.7522403778163
 20
226.9951005746453
 30
0.0
 10
172.3029774452882
 20
227.4186164548873
 30
0.0
 10
172.4965914126961
 20
227.5588886565577
 30
0.0
 10
172.9009378882879
 20
227.8332618451803
 30
0.0
 10
173.1118195954293
 20
227.9675246514527
 30
0.0
 10
173.7727584319927
 20
228.3602832278523
 30
0.0
 10
174.2511756404975
 20
228.6086436118696
 30
0.0
 10
175.0334893396488
 20
228.9564693931922
 30
0.0
 10
175.3050508882691
 20
229.0683581655455
 30
0.0
 10
175.8707529708866
 20
229.2834837676409
 30
0.0
 10
176.1658590566458
 20
229.3870243028123
 30
0.0
 10
177.0795078920403
 20
229.6818302742016
 30
0.0
 10
177.72013818893
 20
229.8553842278074
 30
0.0
 10
178.7241429710758
 20
230.0847946306802
 30
0.0
 10
179.0659782722634
 20
230.1561374505506
 30
0.0
 10
179.7631430854926
 20
230.2893883109313
 30
0.0
 10
180.1194727890131
 20
230.3514506930591
 30
0.0
 10
181.918450924488
 20
230.6382022440961
 30
0.0
 10
183.4085246309755
 20
230.7937712323668
 30
0.0
 10
185.6898074748589
 20
230.9692932583358
 30
0.0
 10
186.4589540506928
 20
231.0178808795681
 30
0.0
 10
188.005853861335
 20
231.1001410190891
 30
0.0
 10
188.7807777160673
 20
231.1336554091435
 30
0.0
 10
191.1089411769222
 20
231.2173541408289
 30
0.0
 10
192.6655334700628
 20
231.2506026652209
 30
0.0
 10
195.7838822266859
 20
231.2977335117515
 30
0.0
 10
197.3457698866603
 20
231.3134875120008
 30
0.0
 10
198.9097627269539
 20
231.3170469427025
 30
0.0
  0
SPLINE
  5
141
330
1F
100
AcDbEntity
  8
0
  6
Continuous
 62
     8
370
     0
100
AcDbSpline
210
0.0
220
0.0
230
1.0
 70
     8
 71
     3
 72
    14
 73
    10
 74
     0
 42
0.00000001
 43
0.00000001
 40
0.0
 40
0.0
 40
0.0
 40
0.0
 40
0.2500000000000027
 40
0.2500000000000027
 40
0.3750000000000021
 40
0.3750000000000021
 40
0.5000000000000016
 40
0.5000000000000016
 40
1.0
 40
1.0
 40
1.0
 40
1.0
 10
168.1985222476161
 20
218.1653470925366
 30
0.0
 10
167.9823785888728
 20
217.3881743344357
 30
0.0
 10
167.7994439203213
 20
216.5555849753739
 30
0.0
 10
167.5612556435952
 20
215.2056245670327
 30
0.0
 10
167.4878669011917
 20
214.738813079754
 30
0.0
 10
167.3518659138639
 20
213.769570483278
 30
0.0
 10
167.2893739661993
 20
213.2673895384412
 30
0.0
 10
167.0040017523208
 20
210.6943060660836
 30
0.0
 10
166.8580514105108
 20
208.4136429409352
 30
0.0
 10
166.7610290360694
 20
205.9238665503757
 30
0.0
  0
SPLINE
  5
142
330
1F
100
AcDbEntity
  8
0
  6
Continuous
 62
     8
370
     0
100
AcDbSpline
210
0.0
220
0.0
230
1.0
 70
     8
 71
     3
 72
    14
 73
    10
 74
     0
 42
0.00000001
 43
0.00000001
 40
0.0
 40
0.0
 40
0.0
 40
0.0
 40
0.2500000000000009
 40
0.2500000000000009
 40
0.5000000000000018
 40
0.5000000000000018
 40
0.7500000000000009
 40
0.7500000000000009
 40
1.0
 40
1.0
 40
1.0
 40
1.0
 10
231.0589533964318
 20
205.9238665503756
 30
0.0
 10
231.0101283727769
 20
207.1768083781182
 30
0.0
 10
230.9481924260512
 20
208.3823716009809
 30
0.0
 10
230.7908907789648
 20
210.69362360337
 30
0.0
 10
230.6961515335648
 20
211.7824696781183
 30
0.0
 10
230.4680461669471
 20
213.8233862060562
 30
0.0
 10
230.3346465355447
 20
214.7772758608598
 30
0.0
 10
230.019431893391
 20
216.559893010973
 30
0.0
 10
229.8374134069593
 20
217.3888587842943
 30
0.0
 10
229.6214607232921
 20
218.1653451566237
 30
0.0
  0
ARC
  5
143
330
1F
100
AcDbEntity
  8
0
  6
Continuous
 62
     8
370
     0
100
AcDbCircle
 10
198.9099912163
 20
225.3206463507
 30
0.0
 40
10.76138963522076
100
AcDbArc
 50
76.5257143447
 51
103.4742856553
  0
SPLINE
  5
144
330
1F
100
AcDbEntity
  8
0
  6
Continuous
 62
     8
370
     0
100
AcDbSpline
210
0.0
220
0.0
230
1.0
 70
     8
 71
     3
 72
     8
 73
     4
 74
     0
 42
0.00000001
 43
0.00000001
 40
0.0000000203463906
 40
0.0000000203463906
 40
0.0000000203463906
 40
0.0000000203463906
 40
0.0005524032332722
 40
0.0005524032332722
 40
0.0005524032332722
 40
0.0005524032332722
 10
166.8224471301509
 20
177.6279590091905
 30
0.0
 10
166.8196989497361
 20
177.8112316035327
 30
0.0
 10
166.8168758555569
 20
177.9944712727082
 30
0.0
 10
166.8139814412834
 20
178.177675012619
 30
0.0
  0
SPLINE
  5
145
330
1F
100
AcDbEntity
  8
0
  6
Continuous
 62
     8
370
     0
100
AcDbSpline
210
0.0
220
0.0
230
1.0
 70
     8
 71
     3
 72
    16
 73
    12
 74
     0
 42
0.00000001
 43
0.00000001
 40
0.0
 40
0.0
 40
0.0
 40
0.0
 40
0.25
 40
0.25
 40
0.5
 40
0.5
 40
0.625
 40
0.625
 40
0.75
 40
0.75
 40
1.0
 40
1.0
 40
1.0
 40
1.0
 10
166.8135521726564
 20
178.177688577361
 30
0.0
 10
166.7718989986577
 20
180.3743791024523
 30
0.0
 10
166.7341312732723
 20
182.5642745100326
 30
0.0
 10
166.6705974933501
 20
186.9202420141948
 30
0.0
 10
166.6448091636315
 20
189.0887639056264
 30
0.0
 10
166.619546842464
 20
192.2967589818897
 30
0.0
 10
166.6133818694274
 20
193.3593028250963
 30
0.0
 10
166.6065899464631
 20
195.4690744227609
 30
0.0
 10
166.6059845834652
 20
196.5170976271063
 30
0.0
 10
166.6168394819859
 20
199.6170117059515
 30
0.0
 10
166.6406473152985
 20
201.6307630654227
 30
0.0
 10
166.6889184869216
 20
203.5759010800209
 30
0.0
  0
SPLINE
  5
146
330
1F
100
AcDbEntity
  8
0
  6
Continuous
 62
     8
370
     0
100
AcDbSpline
210
0.0
220
0.0
230
1.0
 70
     8
 71
     3
 72
     8
 73
     4
 74
     0
 42
0.00000001
 43
0.00000001
 40
0.0
 40
0.0
 40
0.0
 40
0.0
 40
0.0000596972843948
 40
0.0000596972843948
 40
0.0000596972843948
 40
0.0000596972843948
 10
166.6886926329192
 20
203.5759709895981
 30
0.0
 10
166.6891256564955
 20
203.5934779939289
 30
0.0
 10
166.6895612884873
 20
203.610978062712
 30
0.0
 10
166.6899995236403
 20
203.6284711575876
 30
0.0
  0
SPLINE
  5
147
330
1F
100
AcDbEntity
  8
0
  6
Continuous
 62
     8
370
     0
100
AcDbSpline
210
0.0
220
0.0
230
1.0
 70
     8
 71
     3
 72
    29
 73
    25
 74
     0
 42
0.00000001
 43
0.00000001
 40
0.0
 40
0.0
 40
0.0
 40
0.0
 40
0.0235438772897532
 40
0.0469061304262292
 40
0.0700905831298061
 40
0.0931008727092955
 40
0.1159404190294142
 40
0.1386124091816805
 40
0.1611198679469497
 40
0.1834658728554975
 40
0.2056535524921702
 40
0.2276860858423993
 40
0.2495667145042701
 40
0.3765862807412433
 40
0.4983357070330445
 40
0.6254633336723743
 40
0.7502096923836324
 40
0.785327953975593
 40
0.8205804537951022
 40
0.8560001186740915
 40
0.8916197958762013
 40
0.9274719763961395
 40
0.9635884853729171
 40
1.0
 40
1.0
 40
1.0
 40
1.0
 10
198.9099465953661
 20
193.1536760681053
 30
0.0
 10
198.6367126329582
 20
193.1540664269307
 30
0.0
 10
198.0923525124966
 20
193.1548441332428
 30
0.0
 10
197.2790121700115
 20
193.1671572582501
 30
0.0
 10
196.4720563640628
 20
193.187625381412
 30
0.0
 10
195.6714629579271
 20
193.2170141583447
 30
0.0
 10
194.8772211214702
 20
193.2551055631539
 30
0.0
 10
194.0893293759138
 20
193.3019542948902
 30
0.0
 10
193.3077942371066
 20
193.3575552055158
 30
0.0
 10
192.5326247551516
 20
193.421921041995
 30
0.0
 10
191.7638352204147
 20
193.4950582049745
 30
0.0
 10
191.0014276454372
 20
193.576988216623
 30
0.0
 10
189.0329634647357
 20
193.8131595977244
 30
0.0
 10
185.9327532271803
 20
194.3221960130729
 30
0.0
 10
181.7064486947534
 20
195.3844879920399
 30
0.0
 10
177.6305527548167
 20
196.8292294540615
 30
0.0
 10
174.6393417289846
 20
198.2540415824936
 30
0.0
 10
172.6857125349318
 20
199.3554759182109
 30
0.0
 10
171.6459958344003
 20
199.9837645573405
 30
0.0
 10
170.6220184659755
 20
200.6454857736956
 30
0.0
 10
169.613645652388
 20
201.3405262871735
 30
0.0
 10
168.6214798948642
 20
202.0695120749938
 30
0.0
 10
167.6433639501576
 20
202.8300940848322
 30
0.0
 10
167.0086482284606
 20
203.3616248046956
 30
0.0
 10
166.6899995236394
 20
203.6284711575861
 30
0.0
  0
SPLINE
  5
148
330
1F
100
AcDbEntity
  8
0
  6
Continuous
 62
     8
370
     0
100
AcDbSpline
210
0.0
220
0.0
230
1.0
 70
     8
 71
     3
 72
    16
 73
    12
 74
     0
 42
0.00000001
 43
0.00000001
 40
0.0
 40
0.0
 40
0.0
 40
0.0
 40
0.25
 40
0.25
 40
0.5
 40
0.5
 40
0.625
 40
0.625
 40
0.75
 40
0.75
 40
1.0
 40
1.0
 40
1.0
 40
1.0
 10
231.006430259845
 20
178.177688577361
 30
0.0
 10
231.0480834338437
 20
180.3743791024523
 30
0.0
 10
231.0858511592292
 20
182.5642745100326
 30
0.0
 10
231.1493849391514
 20
186.9202420141948
 30
0.0
 10
231.1751732688699
 20
189.0887639056264
 30
0.0
 10
231.2004355900374
 20
192.2967589818897
 30
0.0
 10
231.2066005630739
 20
193.3593028250962
 30
0.0
 10
231.2133924860383
 20
195.4690744227608
 30
0.0
 10
231.2139978490361
 20
196.5170976271062
 30
0.0
 10
231.2031429505155
 20
199.6170117059514
 30
0.0
 10
231.179335117203
 20
201.6307630654227
 30
0.0
 10
231.1310639455799
 20
203.5759010800209
 30
0.0
  0
SPLINE
  5
149
330
1F
100
AcDbEntity
  8
0
  6
Continuous
 62
     8
370
     0
100
AcDbSpline
210
0.0
220
0.0
230
1.0
 70
     8
 71
     3
 72
     8
 73
     4
 74
     0
 42
0.00000001
 43
0.00000001
 40
0.0000000203463906
 40
0.0000000203463906
 40
0.0000000203463906
 40
0.0000000203463906
 40
0.0005524032332722
 40
0.0005524032332722
 40
0.0005524032332722
 40
0.0005524032332722
 10
230.9975353023506
 20
177.6279590091905
 30
0.0
 10
231.0002834827654
 20
177.8112316035326
 30
0.0
 10
231.0031065769446
 20
177.9944712727082
 30
0.0
 10
231.006000991218
 20
178.177675012619
 30
0.0
  0
SPLINE
  5
14A
330
1F
100
AcDbEntity
  8
0
  6
Continuous
 62
     8
370
     0
100
AcDbSpline
210
0.0
220
0.0
230
1.0
 70
     8
 71
     3
 72
    30
 73
    26
 74
     0
 42
0.00000001
 43
0.00000001
 40
0.0
 40
0.0
 40
0.0
 40
0.0
 40
0.0196448628601557
 40
0.039200246685127
 40
0.0586707856355413
 40
0.0780612381304491
 40
0.0973764762717857
 40
0.1166214639026283
 40
0.1358012309736505
 40
0.1549208523157662
 40
0.1739854376460725
 40
0.1930001215102122
 40
0.2119700478486987
 40
0.2309003578351848
 40
0.2497961793883731
 40
0.3745407524557663
 40
0.5016693846010652
 40
0.6234170448516786
 40
0.7504376067678287
 40
0.7906668040243764
 40
0.8314158084240055
 40
0.8727041473589119
 40
0.9145507791028257
 40
0.9569753829010967
 40
1.0
 40
1.0
 40
1.0
 40
1.0
 10
231.1299829088612
 20
203.6284711575854
 30
0.0
 10
230.9586327192878
 20
203.4838901708395
 30
0.0
 10
230.6167128113385
 20
203.1953867393438
 30
0.0
 10
230.0962922563237
 20
202.773245435195
 30
0.0
 10
229.5718459051612
 20
202.3602247013602
 30
0.0
 10
229.0427305268548
 20
201.9570201065676
 30
0.0
 10
228.5090955060736
 20
201.5634662715027
 30
0.0
 10
227.9708890596391
 20
201.1796185644048
 30
0.0
 10
227.4281224138918
 20
200.8054652708037
 30
0.0
 10
226.8807971845107
 20
200.441005868109
 30
0.0
 10
226.3289197457258
 20
200.0862352169142
 30
0.0
 10
225.7724963790472
 20
199.7411472333082
 30
0.0
 10
225.2115413284394
 20
199.4057339015735
 30
0.0
 10
224.6460565158875
 20
199.0799786424957
 30
0.0
 10
223.0116640355111
 20
198.1735562239905
 30
0.0
 10
220.1894048444483
 20
196.8292147337483
 30
0.0
 10
216.1135815738168
 20
195.3845079181395
 30
0.0
 10
211.8872163089675
 20
194.3221774683885
 30
0.0
 10
208.5769288831052
 20
193.7787072737612
 30
0.0
 10
206.1798831639853
 20
193.5040006168366
 30
0.0
 10
204.7672383627603
 20
193.3740732597287
 30
0.0
 10
203.3332123940249
 20
193.2735016558198
 30
0.0
 10
201.8778209363997
 20
193.2028734861734
 30
0.0
 10
200.4010456284293
 20
193.1596010475505
 30
0.0
 10
199.4093602627285
 20
193.1556602850939
 30
0.0
 10
198.9100358371354
 20
193.1536760681052
 30
0.0
  0
SPLINE
  5
14B
330
1F
100
AcDbEntity
  8
0
  6
Continuous
 62
     8
370
     0
100
AcDbSpline
210
0.0
220
0.0
230
1.0
 70
     8
 71
     3
 72
     8
 73
     4
 74
     0
 42
0.00000001
 43
0.00000001
 40
0.0
 40
0.0
 40
0.0
 40
0.0
 40
0.0000596972843923
 40
0.0000596972843923
 40
0.0000596972843923
 40
0.0000596972843923
 10
231.1312897995822
 20
203.5759709895981
 30
0.0
 10
231.130856776006
 20
203.5934779939281
 30
0.0
 10
231.1304211440143
 20
203.6109780627105
 30
0.0
 10
231.1299829088612
 20
203.6284711575854
 30
0.0
  0
LWPOLYLINE
  5
14C
330
1F
100
AcDbEntity
  8
0
  6
Continuous
 62
     8
370
     0
100
AcDbPolyline
 90
        5
 70
   128
 43
0.0
 10
166.6933117742
 20
205.7258093698
 10
166.6927326063
 20
205.7262969624
 10
166.6864333658
 20
205.7619564606
 10
166.7097839234
 20
205.8295055266
 10
166.7610290361
 20
205.9238665504
  0
SPLINE
  5
14D
330
1F
100
AcDbEntity
  8
0
  6
Continuous
 62
     8
370
     0
100
AcDbSpline
210
0.0
220
0.0
230
1.0
 70
     8
 71
     3
 72
    29
 73
    25
 74
     0
 42
0.00000001
 43
0.00000001
 40
0.0
 40
0.0
 40
0.0
 40
0.0
 40
0.0236730951908459
 40
0.0471613644705546
 40
0.0704679054052583
 40
0.0935958885786699
 40
0.1165485585702395
 40
0.1393292348674407
 40
0.1619413127046833
 40
0.1843882638210567
 40
0.2066736371288538
 40
0.2288010592845998
 40
0.2507742351541226
 40
0.3780639351151253
 40
0.4999025138726662
 40
0.6267247665180191
 40
0.7511838589999784
 40
0.7860894943794402
 40
0.8211531898559191
 40
0.8564086065248858
 40
0.8918888598124494
 40
0.9276264401307747
 40
0.9636531416933629
 40
1.0
 40
1.0
 40
1.0
 40
1.0
 10
198.9089061937121
 20
193.7970141364069
 30
0.0
 10
199.1797411519492
 20
193.7974114798604
 30
0.0
 10
199.7192965448464
 20
193.7982030645381
 30
0.0
 10
200.5254101575598
 20
193.8105892739483
 30
0.0
 10
201.3250924240579
 20
193.8312030156959
 30
0.0
 10
202.1183448126459
 20
193.8608300139182
 30
0.0
 10
202.9051669325592
 20
193.8992622429251
 30
0.0
 10
203.6855589458392
 20
193.9465549752154
 30
0.0
 10
204.4595206237387
 20
194.0026934078643
 30
0.0
 10
205.227052719738
 20
194.0676825358001
 30
0.0
 10
205.9881524582613
 20
194.1415175704524
 30
0.0
 10
206.7428300409545
 20
194.2242130834503
 30
0.0
 10
208.6880790148504
 20
194.4621079361499
 30
0.0
 10
211.7481207588095
 20
194.9742828663016
 30
0.0
 10
215.9109455487769
 20
196.0414282810766
 30
0.0
 10
219.915313846632
 20
197.4913817203583
 30
0.0
 10
222.8457520324773
 20
198.9179320241429
 30
0.0
 10
224.7557848025282
 20
200.0194642973864
 30
0.0
 10
225.7698461820287
 20
200.646495646501
 30
0.0
 10
226.7687835438006
 20
201.3070240728561
 30
0.0
 10
227.7527684401921
 20
202.0009158062772
 30
0.0
 10
228.7212304709138
 20
202.7287628878611
 30
0.0
 10
229.6762972070178
 20
203.4882875931434
 30
0.0
 10
230.2958057370527
 20
204.0189962428668
 30
0.0
 10
230.6069302527131
 20
204.2855244076892
 30
0.0
  0
SPLINE
  5
14E
330
1F
100
AcDbEntity
  8
0
  6
Continuous
 62
     8
370
     0
100
AcDbSpline
210
0.0
220
0.0
230
1.0
 70
     8
 71
     3
 72
    30
 73
    26
 74
     0
 42
0.00000001
 43
0.00000001
 40
0.0
 40
0.0
 40
0.0
 40
0.0
 40
0.0196111229243042
 40
0.0391257285703507
 40
0.0585485752750212
 40
0.0778844891176457
 40
0.0971383615481339
 40
0.1163151467957572
 40
0.13541985906057
 40
0.1544575694910014
 40
0.1734334029527619
 40
0.1923525345958325
 40
0.211220186227953
 40
0.2300416225046595
 40
0.2488221469475244
 40
0.373265617576865
 40
0.5001028736021197
 40
0.6219262319475204
 40
0.7492307855643268
 40
0.7896311615580696
 40
0.8305605513772907
 40
0.8720411941379924
 40
0.9140944544044378
 40
0.9567408361567398
 40
1.0
 40
1.0
 40
1.0
 40
1.0
 10
167.2130521797874
 20
204.28552440769
 30
0.0
 10
167.3803391912308
 20
204.1411224978019
 30
0.0
 10
167.7140899013938
 20
203.8530293603959
 30
0.0
 10
168.2222165047941
 20
203.4314662482338
 30
0.0
 10
168.734224680307
 20
203.019069654971
 30
0.0
 10
169.2507379348342
 20
202.6165075794252
 30
0.0
 10
169.7715903449242
 20
202.2236024468398
 30
0.0
 10
170.2968260545401
 20
201.8404016958632
 30
0.0
 10
170.8264332601203
 20
201.4668928811858
 30
0.0
 10
171.3604151000081
 20
201.1030794517972
 30
0.0
 10
171.8987705127331
 20
200.7489608166826
 30
0.0
 10
172.4415003113718
 20
200.404536734376
 30
0.0
 10
172.98860194256
 20
200.0698095613035
 30
0.0
 10
173.5400843481019
 20
199.7447709410484
 30
0.0
 10
175.1385684902167
 20
198.8379618192023
 30
0.0
 10
177.9038106720506
 20
197.4917468732918
 30
0.0
 10
181.9076714851111
 20
196.0418676566188
 30
0.0
 10
186.0704109458454
 20
194.9745575561406
 30
0.0
 10
189.3381374815922
 20
194.4276371096156
 30
0.0
 10
191.7076935518606
 20
194.1507069490556
 30
0.0
 10
193.1061842496497
 20
194.0194783121005
 30
0.0
 10
194.5262593519009
 20
193.9178962147155
 30
0.0
 10
195.9679465943461
 20
193.8465979842249
 30
0.0
 10
197.4312433745649
 20
193.8030028537652
 30
0.0
 10
198.4140151447739
 20
193.7990174703025
 30
0.0
 10
198.9089061874098
 20
193.7970105642873
 30
0.0
  0
SPLINE
  5
14F
330
1F
100
AcDbEntity
  8
0
  6
Continuous
 62
     8
370
     0
100
AcDbSpline
210
0.0
220
0.0
230
1.0
 70
     8
 71
     3
 72
    18
 73
    14
 74
     0
 42
0.00000001
 43
0.00000001
 40
0.0
 40
0.0
 40
0.0
 40
0.0
 40
0.0478837620689863
 40
0.101900130535678
 40
0.1622190797760886
 40
0.2289624494489785
 40
0.354074884587872
 40
0.4705330500297895
 40
0.5971951237126193
 40
0.7120039706061988
 40
0.8162103895482185
 40
0.911483681612115
 40
1.0
 40
1.0
 40
1.0
 40
1.0
 10
230.6069302527131
 20
204.2855244076892
 30
0.0
 10
230.6247204732846
 20
204.3018385557933
 30
0.0
 10
230.6625793573857
 20
204.3365562502591
 30
0.0
 10
230.717846826856
 20
204.3965683611649
 30
0.0
 10
230.7764933621049
 20
204.4659675868947
 30
0.0
 10
230.8538232082498
 20
204.5659064354473
 30
0.0
 10
230.9434659030492
 20
204.6915303204005
 30
0.0
 10
231.0419898105738
 20
204.8469612928597
 30
0.0
 10
231.1265914773124
 20
205.0042362745071
 30
0.0
 10
231.1934864392913
 20
205.1629502830369
 30
0.0
 10
231.2363273390322
 20
205.313035605544
 30
0.0
 10
231.2577062941181
 20
205.4549419258614
 30
0.0
 10
231.2510687515407
 20
205.5458514434609
 30
0.0
 10
231.2478719939512
 20
205.5896350707538
 30
0.0
  0
SPLINE
  5
150
330
1F
100
AcDbEntity
  8
0
  6
Continuous
 62
     8
370
     0
100
AcDbSpline
210
0.0
220
0.0
230
1.0
 70
     8
 71
     3
 72
    19
 73
    15
 74
     0
 42
0.00000001
 43
0.00000001
 40
0.0
 40
0.0
 40
0.0
 40
0.0
 40
0.0546606797758744
 40
0.1116051014007831
 40
0.1714383176585047
 40
0.2346825249363211
 40
0.3017803275349759
 40
0.3731026231082904
 40
0.4489583674592448
 40
0.5296044301600202
 40
0.6457455474174691
 40
0.771143090544226
 40
0.8980885850169908
 40
1.0
 40
1.0
 40
1.0
 40
1.0
 10
166.5721104385499
 20
205.5896350707455
 30
0.0
 10
166.5695404232455
 20
205.5626798110758
 30
0.0
 10
166.5642930165204
 20
205.5076430917914
 30
0.0
 10
166.5684828351816
 20
205.4226795034782
 30
0.0
 10
166.5811351617751
 20
205.3343746812846
 30
0.0
 10
166.6031998819848
 20
205.2426084740057
 30
0.0
 10
166.634370244388
 20
205.1474035353177
 30
0.0
 10
166.6747154470295
 20
205.0487375866761
 30
0.0
 10
166.7242005591769
 20
204.9465955676735
 30
0.0
 10
166.7902257621026
 20
204.8276863357391
 30
0.0
 10
166.8763682295151
 20
204.6915810968791
 30
0.0
 10
166.9838363196845
 20
204.5417820288433
 30
0.0
 10
167.0930811140567
 20
204.4013026967289
 30
0.0
 10
167.1760884799315
 20
204.3211962915711
 30
0.0
 10
167.2130521797841
 20
204.2855244076929
 30
0.0
  0
SPLINE
  5
151
330
1F
100
AcDbEntity
  8
0
  6
Continuous
 62
     8
370
     0
100
AcDbSpline
210
0.0
220
0.0
230
1.0
 70
     8
 71
     3
 72
    11
 73
     7
 74
     0
 42
0.00000001
 43
0.00000001
 40
0.0
 40
0.0
 40
0.0
 40
0.0
 40
0.2857942139314459
 40
0.5715884278628891
 40
0.8573826417943388
 40
1.0
 40
1.0
 40
1.0
 40
1.0
 10
231.1312897995822
 20
203.5759709895981
 30
0.0
 10
231.2577218390433
 20
203.6232569280812
 30
0.0
 10
231.5105859179655
 20
203.7178288050473
 30
0.0
 10
231.7619297795721
 20
203.9154165137741
 30
0.0
 10
231.894355663573
 20
204.0979647928337
 30
0.0
 10
231.8850770224483
 20
204.2095098884219
 30
0.0
 10
231.8819881813174
 20
204.2466430283467
 30
0.0
  0
SPLINE
  5
152
330
1F
100
AcDbEntity
  8
0
  6
Continuous
 62
     8
370
     0
100
AcDbSpline
210
0.0
220
0.0
230
1.0
 70
     8
 71
     3
 72
    16
 73
    12
 74
     0
 42
0.00000001
 43
0.00000001
 40
0.0
 40
0.0
 40
0.0
 40
0.0
 40
0.0410760404174311
 40
0.1407709311047354
 40
0.2826862307458654
 40
0.4296069312963895
 40
0.5100254035352976
 40
0.590065180203052
 40
0.7186397509175003
 40
0.8548613089870583
 40
1.0
 40
1.0
 40
1.0
 40
1.0
 10
231.8618029617274
 20
205.0050126678748
 30
0.0
 10
231.8603974424672
 20
204.9818137462928
 30
0.0
 10
231.8555806136558
 20
204.9023091553311
 30
0.0
 10
231.8388034349716
 20
204.7428014739742
 30
0.0
 10
231.8013644805835
 20
204.5256989843646
 30
0.0
 10
231.7435098726725
 20
204.3277205589366
 30
0.0
 10
231.6770537326295
 20
204.1740526804544
 30
0.0
 10
231.6015948918013
 20
204.0386104194972
 30
0.0
 10
231.490508672247
 20
203.8934877670339
 30
0.0
 10
231.3308274525415
 20
203.7450417672235
 30
0.0
 10
231.1983308258814
 20
203.6681404371612
 30
0.0
 10
231.1299829088612
 20
203.6284711575853
 30
0.0
  0
SPLINE
  5
153
330
1F
100
AcDbEntity
  8
0
  6
Continuous
 62
     8
370
     0
100
AcDbSpline
210
0.0
220
0.0
230
1.0
 70
     8
 71
     3
 72
    12
 73
     8
 74
     0
 42
0.00000001
 43
0.00000001
 40
0.0
 40
0.0
 40
0.0
 40
0.0
 40
0.2017425977831969
 40
0.3739858754287475
 40
0.6535730018707676
 40
0.9116250166399867
 40
0.9999999999999999
 40
0.9999999999999999
 40
0.9999999999999999
 40
0.9999999999999999
 10
166.6899995236403
 20
203.6284711575877
 30
0.0
 10
166.587766628557
 20
203.6915278447654
 30
0.0
 10
166.3982495945472
 20
203.808420908575
 30
0.0
 10
166.1573342660434
 20
204.1034003651406
 30
0.0
 10
166.0112263101012
 20
204.508860035296
 30
0.0
 10
165.9493229953437
 20
204.9047938248934
 30
0.0
 10
165.9612665790045
 20
205.1111084108674
 30
0.0
 10
165.9643134373988
 20
205.1637401289519
 30
0.0
  0
SPLINE
  5
154
330
1F
100
AcDbEntity
  8
0
  6
Continuous
 62
     8
370
     0
100
AcDbSpline
210
0.0
220
0.0
230
1.0
 70
     8
 71
     3
 72
    24
 73
    20
 74
     0
 42
0.00000001
 43
0.00000001
 40
0.0
 40
0.0
 40
0.0
 40
0.0
 40
0.0625
 40
0.0625
 40
0.125
 40
0.125
 40
0.2499999999999999
 40
0.2499999999999999
 40
0.4999999999999999
 40
0.4999999999999999
 40
0.6249999999999999
 40
0.6249999999999999
 40
0.7499999999999998
 40
0.7499999999999998
 40
0.8749999999999998
 40
0.8749999999999998
 40
0.9374999999999999
 40
0.9374999999999999
 40
1.0
 40
1.0
 40
1.0
 40
1.0
 10
171.1444243557125
 20
124.2972150737488
 30
0.0
 10
170.9440847515576
 20
125.3962487934025
 30
0.0
 10
170.7563426665514
 20
126.4975194842815
 30
0.0
 10
170.3996406124118
 20
128.7030130623337
 30
0.0
 10
170.2306849899495
 20
129.8068283057112
 30
0.0
 10
169.7474419943263
 20
133.1209725657105
 30
0.0
 10
169.4571783325023
 20
135.3340411976386
 30
0.0
 10
168.66976983979
 20
141.9827687952705
 30
0.0
 10
168.2564886520806
 20
146.4280078671557
 30
0.0
 10
167.7567419718848
 20
153.1096666808258
 30
0.0
 10
167.6105040658276
 20
155.3379335544624
 30
0.0
 10
167.3548460047589
 20
159.7958894604315
 30
0.0
 10
167.2454891008482
 20
162.0255871716678
 30
0.0
 10
167.0664932219737
 20
166.486060744558
 30
0.0
 10
166.996655518137
 20
168.7171733743181
 30
0.0
 10
166.9162742794471
 20
172.0629866665755
 30
0.0
 10
166.8937687340433
 20
173.1772943597438
 30
0.0
 10
166.8555144280518
 20
175.4037965795532
 30
0.0
 10
166.8403644013322
 20
176.5160805777827
 30
0.0
 10
166.824475487313
 20
177.6279612053667
 30
0.0
  0
SPLINE
  5
155
330
1F
100
AcDbEntity
  8
0
  6
Continuous
 62
     8
370
     0
100
AcDbSpline
210
0.0
220
0.0
230
1.0
 70
     8
 71
     3
 72
    11
 73
     7
 74
     0
 42
0.00000001
 43
0.00000001
 40
-0.00000006018
 40
-0.00000006018
 40
-0.00000006018
 40
-0.00000006018
 40
0.0
 40
0.0
 40
0.0
 40
0.0002337405267701
 40
0.0002337405267701
 40
0.0002337405267701
 40
0.0002337405267701
 10
171.1865370323583
 20
124.0672390506761
 30
0.0
 10
171.1865334031461
 20
124.0672587795773
 30
0.0
 10
171.1865297739382
 20
124.0672785084793
 30
0.0
 10
171.1865261447344
 20
124.0672982373821
 30
0.0
 10
171.1724302321906
 20
124.143925756914
 30
0.0
 10
171.1583967011641
 20
124.2205648334799
 30
0.0
 10
171.1444243557126
 20
124.2972150737488
 30
0.0
  0
SPLINE
  5
156
330
1F
100
AcDbEntity
  8
0
  6
Continuous
 62
     8
370
     0
100
AcDbSpline
210
0.0
220
0.0
230
1.0
 70
     8
 71
     3
 72
    24
 73
    20
 74
     0
 42
0.00000001
 43
0.00000001
 40
0.0
 40
0.0
 40
0.0
 40
0.0
 40
0.0625000000000004
 40
0.0625000000000004
 40
0.1250000000000008
 40
0.1250000000000008
 40
0.2500000000000008
 40
0.2500000000000008
 40
0.5000000000000008
 40
0.5000000000000008
 40
0.6250000000000008
 40
0.6250000000000008
 40
0.7500000000000008
 40
0.7500000000000008
 40
0.8750000000000004
 40
0.8750000000000004
 40
0.9375000000000002
 40
0.9375000000000002
 40
1.0
 40
1.0
 40
1.0
 40
1.0
 10
226.6755580767889
 20
124.2972150737488
 30
0.0
 10
226.8758976809438
 20
125.3962487934026
 30
0.0
 10
227.0636397659499
 20
126.4975194842815
 30
0.0
 10
227.4203418200899
 20
128.7030130623337
 30
0.0
 10
227.5892974425518
 20
129.8068283057112
 30
0.0
 10
228.0725404381753
 20
133.1209725657105
 30
0.0
 10
228.3628040999992
 20
135.3340411976387
 30
0.0
 10
229.1502125927114
 20
141.9827687952706
 30
0.0
 10
229.5634937804207
 20
146.4280078671558
 30
0.0
 10
230.0632404606167
 20
153.1096666808259
 30
0.0
 10
230.2094783666738
 20
155.3379335544626
 30
0.0
 10
230.4651364277426
 20
159.7958894604316
 30
0.0
 10
230.5744933316534
 20
162.0255871716679
 30
0.0
 10
230.7534892105275
 20
166.4860607445582
 30
0.0
 10
230.8233269143643
 20
168.7171733743183
 30
0.0
 10
230.9037081530544
 20
172.0629866665757
 30
0.0
 10
230.9262136984582
 20
173.177294359744
 30
0.0
 10
230.9644680044497
 20
175.4037965795534
 30
0.0
 10
230.9796180292477
 20
176.5160805787949
 30
0.0
 10
230.9955069451885
 20
177.6279612053669
 30
0.0
  0
SPLINE
  5
157
330
1F
100
AcDbEntity
  8
0
  6
Continuous
 62
     8
370
     0
100
AcDbSpline
210
0.0
220
0.0
230
1.0
 70
     8
 71
     3
 72
    11
 73
     7
 74
     0
 42
0.00000001
 43
0.00000001
 40
-0.00000006018
 40
-0.00000006018
 40
-0.00000006018
 40
-0.00000006018
 40
0.0
 40
0.0
 40
0.0
 40
0.0002337405267701
 40
0.0002337405267701
 40
0.0002337405267701
 40
0.0002337405267701
 10
226.6334454001431
 20
124.0672390506761
 30
0.0
 10
226.6334490293513
 20
124.0672587795781
 30
0.0
 10
226.6334526585632
 20
124.0672785084793
 30
0.0
 10
226.633456287767
 20
124.0672982373821
 30
0.0
 10
226.6475522003108
 20
124.143925756914
 30
0.0
 10
226.6615857313374
 20
124.2205648334799
 30
0.0
 10
226.6755580767889
 20
124.2972150737488
 30
0.0
  0
SPLINE
  5
158
330
1F
100
AcDbEntity
  8
0
  6
Continuous
 62
     8
370
     0
100
AcDbSpline
210
0.0
220
0.0
230
1.0
 70
     8
 71
     3
 72
    38
 73
    34
 74
     0
 42
0.00000001
 43
0.00000001
 40
0.0
 40
0.0
 40
0.0
 40
0.0
 40
0.1249999999999984
 40
0.1249999999999984
 40
0.2499999999999968
 40
0.2499999999999968
 40
0.312499999999996
 40
0.312499999999996
 40
0.3749999999999952
 40
0.3749999999999952
 40
0.4374999999999946
 40
0.4374999999999946
 40
0.4999999999999941
 40
0.4999999999999941
 40
0.5624999999999937
 40
0.5624999999999937
 40
0.5937499999999937
 40
0.5937499999999937
 40
0.6249999999999937
 40
0.6249999999999937
 40
0.6874999999999946
 40
0.6874999999999946
 40
0.7499999999999954
 40
0.7499999999999954
 40
0.8124999999999963
 40
0.8124999999999963
 40
0.8749999999999971
 40
0.8749999999999971
 40
0.937499999999998
 40
0.937499999999998
 40
0.968749999999999
 40
0.968749999999999
 40
1.0
 40
1.0
 40
1.0
 40
1.0
 10
198.9112734707114
 20
102.2311793448633
 30
0.0
 10
200.5988000192876
 20
102.2299975253355
 30
0.0
 10
202.2871764355792
 20
102.2669011904808
 30
0.0
 10
205.65049338539
 20
102.4758582358416
 30
0.0
 10
207.3262719124741
 20
102.6472810152845
 30
0.0
 10
209.8270166612292
 20
103.0516124514041
 30
0.0
 10
210.6559151300238
 20
103.2104549815295
 30
0.0
 10
212.2999200985124
 20
103.5888831183858
 30
0.0
 10
213.1175172195977
 20
103.8102757756127
 30
0.0
 10
214.7158607130431
 20
104.3338271161855
 30
0.0
 10
215.4978973895514
 20
104.6350724564805
 30
0.0
 10
217.0201597856851
 20
105.3338515907127
 30
0.0
 10
217.7620091244791
 20
105.7311796783911
 30
0.0
 10
219.1822723992595
 20
106.6575762504508
 30
0.0
 10
219.8410136368097
 20
107.1771804445363
 30
0.0
 10
220.7359987127795
 20
108.0587901168965
 30
0.0
 10
221.0191452786157
 20
108.3693210969514
 30
0.0
 10
221.555892751974
 20
109.022825999801
 30
0.0
 10
221.8089119332808
 20
109.365385575949
 30
0.0
 10
222.5127600306184
 20
110.4141668524554
 30
0.0
 10
222.9150967614559
 20
111.1488531000952
 30
0.0
 10
223.6273427189102
 20
112.667278778486
 30
0.0
 10
223.9383186316205
 20
113.453057262892
 30
0.0
 10
224.4932704165115
 20
115.0467718353389
 30
0.0
 10
224.7365759252143
 20
115.8535818895915
 30
0.0
 10
225.1860997095312
 20
117.478005559822
 30
0.0
 10
225.3938699401647
 20
118.2952060026263
 30
0.0
 10
225.789275437115
 20
119.9353202339242
 30
0.0
 10
225.9765615538765
 20
120.7577315017263
 30
0.0
 10
226.2394918924648
 20
121.9954174367787
 30
0.0
 10
226.3236066061548
 20
122.4087247389771
 30
0.0
 10
226.482301146138
 20
123.2371914683895
 30
0.0
 10
226.5577458336954
 20
123.6521005259647
 30
0.0
 10
226.633306998684
 20
124.067159597284
 30
0.0
  0
LINE
  5
159
330
1F
100
AcDbEntity
  8
0
  6
Continuous
 62
     8
370
     0
100
AcDbLine
 10
198.9099912163
 20
102.2311803254
 30
0.0
 11
198.9112734694
 21
102.2311811391
 31
0.0
  0
LINE
  5
15A
330
1F
100
AcDbEntity
  8
0
  6
Continuous
 62
     8
370
     0
100
AcDbLine
 10
198.9099912163
 20
102.2311803254
 30
0.0
 11
198.9087089631
 21
102.2311811391
 31
0.0
  0
SPLINE
  5
15B
330
1F
100
AcDbEntity
  8
0
  6
Continuous
 62
     8
370
     0
100
AcDbSpline
210
0.0
220
0.0
230
1.0
 70
     8
 71
     3
 72
    38
 73
    34
 74
     0
 42
0.00000001
 43
0.00000001
 40
0.0
 40
0.0
 40
0.0
 40
0.0
 40
0.1250000000000001
 40
0.1250000000000001
 40
0.2500000000000001
 40
0.2500000000000001
 40
0.3125000000000001
 40
0.3125000000000001
 40
0.3750000000000002
 40
0.3750000000000002
 40
0.4375000000000003
 40
0.4375000000000003
 40
0.5000000000000004
 40
0.5000000000000004
 40
0.5625000000000004
 40
0.5625000000000004
 40
0.5937500000000008
 40
0.5937500000000008
 40
0.6250000000000012
 40
0.6250000000000012
 40
0.687500000000001
 40
0.687500000000001
 40
0.7500000000000008
 40
0.7500000000000008
 40
0.8125000000000006
 40
0.8125000000000006
 40
0.8750000000000004
 40
0.8750000000000004
 40
0.9375000000000002
 40
0.9375000000000002
 40
0.9687500000000001
 40
0.9687500000000001
 40
1.0
 40
1.0
 40
1.0
 40
1.0
 10
198.90870896179
 20
102.2311793448633
 30
0.0
 10
197.2211824132138
 20
102.2299975253355
 30
0.0
 10
195.5328059969222
 20
102.2669011904808
 30
0.0
 10
192.1694890471114
 20
102.4758582358417
 30
0.0
 10
190.4937105200273
 20
102.6472810152845
 30
0.0
 10
187.9929657712722
 20
103.0516124514041
 30
0.0
 10
187.1640673024776
 20
103.2104549815295
 30
0.0
 10
185.520062333989
 20
103.5888831183857
 30
0.0
 10
184.7024652129037
 20
103.8102757756127
 30
0.0
 10
183.1041217194583
 20
104.3338271161855
 30
0.0
 10
182.3220850429501
 20
104.6350724564805
 30
0.0
 10
180.7998226468163
 20
105.3338515907127
 30
0.0
 10
180.0579733080224
 20
105.7311796783913
 30
0.0
 10
178.6377100332419
 20
106.6575762504508
 30
0.0
 10
177.9789687956917
 20
107.1771804445363
 30
0.0
 10
177.0839837197219
 20
108.0587901168966
 30
0.0
 10
176.8008371538858
 20
108.3693210969514
 30
0.0
 10
176.2640896805275
 20
109.022825999801
 30
0.0
 10
176.0110704992207
 20
109.365385575949
 30
0.0
 10
175.307222401883
 20
110.4141668524554
 30
0.0
 10
174.9048856710456
 20
111.1488531000952
 30
0.0
 10
174.1926397135913
 20
112.667278778486
 30
0.0
 10
173.881663800881
 20
113.4530572628919
 30
0.0
 10
173.32671201599
 20
115.0467718353389
 30
0.0
 10
173.0834065072871
 20
115.8535818895914
 30
0.0
 10
172.6338827229702
 20
117.4780055598219
 30
0.0
 10
172.4261124923368
 20
118.2952060026262
 30
0.0
 10
172.0307069953865
 20
119.9353202339241
 30
0.0
 10
171.843420878625
 20
120.7577315017262
 30
0.0
 10
171.5804905400365
 20
121.9954174367785
 30
0.0
 10
171.4963758263465
 20
122.408724738977
 30
0.0
 10
171.3376812863634
 20
123.2371914683894
 30
0.0
 10
171.2622366022288
 20
123.6521005267542
 30
0.0
 10
171.1866754338174
 20
124.067159597284
 30
0.0
  0
ENDSEC
  0
SECTION
  2
OBJECTS
  0
DICTIONARY
  5
C
330
0
100
AcDbDictionary
281
     1
  3
ACAD_GROUP
350
D
  3
ACAD_LAYOUT
350
1A
  3
ACAD_MATERIAL
350
3B
  3
ACAD_MLEADERSTYLE
350
15D
  3
ACAD_MLINESTYLE
350
17
  3
ACAD_PLOTSETTINGS
350
19
  3
ACAD_PLOTSTYLENAME
350
E
  3
ACAD_TABLESTYLE
350
15C
  3
ACAD_VISUALSTYLE
350
2A
  0
DICTIONARY
  5
D
102
{ACAD_REACTORS
330
C
102
}
330
C
100
AcDbDictionary
281
     1
  0
DICTIONARY
  5
1A
102
{ACAD_REACTORS
330
C
102
}
330
C
100
AcDbDictionary
281
     1
  3
Layout1
350
1E
  3
Layout2
350
26
  3
Model
350
22
  0
DICTIONARY
  5
3B
102
{ACAD_REACTORS
330
C
102
}
330
C
100
AcDbDictionary
281
     1
  3
ByBlock
350
3D
  3
ByLayer
350
3C
  3
Global
350
3E
  0
DICTIONARY
  5
15D
102
{ACAD_REACTORS
330
C
102
}
330
C
100
AcDbDictionary
281
     1
  0
DICTIONARY
  5
17
102
{ACAD_REACTORS
330
C
102
}
330
C
100
AcDbDictionary
281
     1
  3
Standard
350
18
  0
DICTIONARY
  5
19
102
{ACAD_REACTORS
330
C
102
}
330
C
100
AcDbDictionary
281
     1
  0
ACDBDICTIONARYWDFLT
  5
E
102
{ACAD_REACTORS
330
C
102
}
330
C
100
AcDbDictionary
281
     1
  3
Normal
350
F
100
AcDbDictionaryWithDefault
340
F
  0
DICTIONARY
  5
15C
102
{ACAD_REACTORS
330
C
102
}
330
C
100
AcDbDictionary
281
     1
  0
DICTIONARY
  5
2A
102
{ACAD_REACTORS
330
C
102
}
330
C
100
AcDbDictionary
281
     1
  3
2dWireframe
350
2F
  3
3D Hidden
350
31
  3
3dWireframe
350
30
  3
Basic
350
32
  3
Brighten
350
36
  3
ColorChange
350
3A
  3
Conceptual
350
34
  3
Dim
350
35
  3
Facepattern
350
39
  3
Flat
350
2B
  3
FlatWithEdges
350
2C
  3
Gouraud
350
2D
  3
GouraudWithEdges
350
2E
  3
Linepattern
350
38
  3
Realistic
350
33
  3
Thicken
350
37
  0
LAYOUT
  5
1E
102
{ACAD_REACTORS
330
1A
102
}
330
1A
100
AcDbPlotSettings
  1

  2
none_device
  4

  6

 40
0.0
 41
0.0
 42
0.0
 43
0.0
 44
0.0
 45
0.0
 46
0.0
 47
0.0
 48
0.0
 49
0.0
140
0.0
141
0.0
142
1.0
143
1.0
 70
   688
 72
     0
 73
     0
 74
     5
  7

 75
    16
 76
     0
 77
     2
 78
   300
147
1.0
148
0.0
149
0.0
100
AcDbLayout
  1
Layout1
 70
     1
 71
     1
 10
0.0
 20
0.0
 11
420.0
 21
297.0
 12
0.0
 22
0.0
 32
0.0
 14
1.0000000000E+20
 24
1.0000000000E+20
 34
1.0000000000E+20
 15
-1.0000000000E+20
 25
-1.0000000000E+20
 35
-1.0000000000E+20
146
0.0
 13
0.0
 23
0.0
 33
0.0
 16
1.0
 26
0.0
 36
0.0
 17
0.0
 27
1.0
 37
0.0
 76
     0
330
1B
  0
LAYOUT
  5
26
102
{ACAD_REACTORS
330
1A
102
}
330
1A
100
AcDbPlotSettings
  1

  2
none_device
  4

  6

 40
0.0
 41
0.0
 42
0.0
 43
0.0
 44
0.0
 45
0.0
 46
0.0
 47
0.0
 48
0.0
 49
0.0
140
0.0
141
0.0
142
1.0
143
1.0
 70
   688
 72
     0
 73
     0
 74
     5
  7

 75
    16
 76
     0
 77
     2
 78
   300
147
1.0
148
0.0
149
0.0
100
AcDbLayout
  1
Layout2
 70
     1
 71
     2
 10
0.0
 20
0.0
 11
0.0
 21
0.0
 12
0.0
 22
0.0
 32
0.0
 14
0.0
 24
0.0
 34
0.0
 15
0.0
 25
0.0
 35
0.0
146
0.0
 13
0.0
 23
0.0
 33
0.0
 16
1.0
 26
0.0
 36
0.0
 17
0.0
 27
1.0
 37
0.0
 76
     0
330
23
  0
LAYOUT
  5
22
102
{ACAD_REACTORS
330
1A
102
}
330
1A
100
AcDbPlotSettings
  1

  2
none_device
  4

  6

 40
0.0
 41
0.0
 42
0.0
 43
0.0
 44
0.0
 45
0.0
 46
0.0
 47
0.0
 48
0.0
 49
0.0
140
0.0
141
0.0
142
1.0
143
1.0
 70
  1712
 72
     0
 73
     0
 74
     0
  7

 75
     0
 76
     0
 77
     2
 78
   300
147
1.0
148
0.0
149
0.0
100
AcDbLayout
  1
Model
 70
     1
 71
     0
 10
0.0
 20
0.0
 11
594.0
 21
841.0
 12
0.0
 22
0.0
 32
0.0
 14
0.0
 24
0.0
 34
0.0
 15
594.0
 25
841.0
 35
0.0
146
0.0
 13
0.0
 23
0.0
 33
0.0
 16
1.0
 26
0.0
 36
0.0
 17
0.0
 27
1.0
 37
0.0
 76
     0
330
1F
331
29
  0
MATERIAL
  5
3D
102
{ACAD_REACTORS
330
3B
102
}
330
3B
100
AcDbMaterial
  1
ByBlock
 72
     1
 94
      127
  0
MATERIAL
  5
3C
102
{ACAD_REACTORS
330
3B
102
}
330
3B
100
AcDbMaterial
  1
ByLayer
 72
     1
 94
      127
  0
MATERIAL
  5
3E
102
{ACAD_REACTORS
330
3B
102
}
330
3B
100
AcDbMaterial
  1
Global
 72
     1
 94
      127
  0
MLINESTYLE
  5
18
102
{ACAD_REACTORS
330
17
102
}
330
17
100
AcDbMlineStyle
  2
Standard
 70
     0
  3

 62
   256
 51
90.0
 52
90.0
 71
     2
 49
0.5
 62
   256
  6
BYLAYER
 49
-0.5
 62
   256
  6
BYLAYER
  0
ACDBPLACEHOLDER
  5
F
102
{ACAD_REACTORS
330
E
102
}
330
E
  0
VISUALSTYLE
  5
2F
102
{ACAD_REACTORS
330
2A
102
}
330
2A
100
AcDbVisualStyle
  2
2dWireframe
 70
     4
177
     2
291
     0
 71
     0
176
     1
 72
     2
176
     1
 73
     0
176
     1
 90
        0
176
     1
 40
-0.6
176
     1
 41
-30.0
176
     1
 62
     5
 63
     7
421
 16777215
176
     1
 74
     1
176
     1
 91
        4
176
     1
 64
     7
176
     1
 65
   257
176
     1
 75
     1
176
     1
175
     1
176
     1
 42
1.0
176
     1
 92
        0
176
     1
 66
   257
176
     1
 43
1.0
176
     1
 76
     1
176
     1
 77
     6
176
     1
 78
     2
176
     1
 67
     7
176
     1
 79
     5
176
     1
170
     0
176
     1
171
     0
176
     1
290
     0
176
     1
 93
        1
176
     1
 44
0.0
176
     1
173
     0
176
     1
  0
VISUALSTYLE
  5
31
102
{ACAD_REACTORS
330
2A
102
}
330
2A
100
AcDbVisualStyle
  2
3D Hidden
 70
     6
177
     2
291
     0
 71
     1
176
     1
 72
     2
176
     1
 73
     2
176
     1
 90
        0
176
     1
 40
-0.6
176
     1
 41
-30.0
176
     1
 62
     5
 63
     7
421
 16777215
176
     1
 74
     2
176
     1
 91
        2
176
     1
 64
     7
176
     1
 65
   257
176
     1
 75
     2
176
     1
175
     1
176
     1
 42
40.0
176
     1
 92
        0
176
     1
 66
   257
176
     1
 43
1.0
176
     1
 76
     1
176
     1
 77
     6
176
     1
 78
     2
176
     1
 67
     7
176
     1
 79
     3
176
     1
170
     0
176
     1
171
     0
176
     1
290
     0
176
     1
 93
        1
176
     1
 44
0.0
176
     1
173
     0
176
     1
  0
VISUALSTYLE
  5
30
102
{ACAD_REACTORS
330
2A
102
}
330
2A
100
AcDbVisualStyle
  2
3dWireframe
 70
     5
177
     2
291
     0
 71
     0
176
     1
 72
     2
176
     1
 73
     0
176
     1
 90
        0
176
     1
 40
-0.6
176
     1
 41
-30.0
176
     1
 62
     5
 63
     7
421
 16777215
176
     1
 74
     1
176
     1
 91
        4
176
     1
 64
     7
176
     1
 65
   257
176
     1
 75
     1
176
     1
175
     1
176
     1
 42
1.0
176
     1
 92
        0
176
     1
 66
   257
176
     1
 43
1.0
176
     1
 76
     1
176
     1
 77
     6
176
     1
 78
     2
176
     1
 67
     7
176
     1
 79
     5
176
     1
170
     0
176
     1
171
     0
176
     1
290
     0
176
     1
 93
        1
176
     1
 44
0.0
176
     1
173
     0
176
     1
  0
VISUALSTYLE
  5
32
102
{ACAD_REACTORS
330
2A
102
}
330
2A
100
AcDbVisualStyle
  2
Basic
 70
     7
177
     2
291
     1
 71
     1
176
     1
 72
     0
176
     1
 73
     1
176
     1
 90
        0
176
     1
 40
-0.6
176
     1
 41
-30.0
176
     1
 62
     5
 63
     7
421
 16777215
176
     1
 74
     0
176
     1
 91
        4
176
     1
 64
     7
176
     1
 65
   257
176
     1
 75
     1
176
     1
175
     1
176
     1
 42
1.0
176
     1
 92
        8
176
     1
 66
     7
176
     1
 43
1.0
176
     1
 76
     1
176
     1
 77
     6
176
     1
 78
     2
176
     1
 67
     7
176
     1
 79
     5
176
     1
170
     0
176
     1
171
     0
176
     1
290
     0
176
     1
 93
        1
176
     1
 44
0.0
176
     1
173
     0
176
     1
  0
VISUALSTYLE
  5
36
102
{ACAD_REACTORS
330
2A
102
}
330
2A
100
AcDbVisualStyle
  2
Brighten
 70
    12
177
     2
291
     1
 71
     2
176
     1
 72
     2
176
     1
 73
     0
176
     1
 90
        0
176
     1
 40
-0.6
176
     1
 41
-30.0
176
     1
 62
     5
 63
     7
421
 16777215
176
     1
 74
     1
176
     1
 91
        4
176
     1
 64
     7
176
     1
 65
   257
176
     1
 75
     1
176
     1
175
     1
176
     1
 42
1.0
176
     1
 92
        8
176
     1
 66
     7
176
     1
 43
1.0
176
     1
 76
     1
176
     1
 77
     6
176
     1
 78
     2
176
     1
 67
     7
176
     1
 79
     5
176
     1
170
     0
176
     1
171
     0
176
     1
290
     0
176
     1
 93
        1
176
     1
 44
50.0
176
     1
173
     0
176
     1
  0
VISUALSTYLE
  5
3A
102
{ACAD_REACTORS
330
2A
102
}
330
2A
100
AcDbVisualStyle
  2
ColorChange
 70
    16
177
     2
291
     1
 71
     2
176
     1
 72
     2
176
     1
 73
     3
176
     1
 90
        0
176
     1
 40
-0.6
176
     1
 41
-30.0
176
     1
 62
     5
 63
     8
421
  8421504
176
     1
 74
     1
176
     1
 91
        4
176
     1
 64
     7
176
     1
 65
   257
176
     1
 75
     1
176
     1
175
     1
176
     1
 42
1.0
176
     1
 92
        8
176
     1
 66
     8
424
  8421504
176
     1
 43
1.0
176
     1
 76
     1
176
     1
 77
     6
176
     1
 78
     2
176
     1
 67
     7
176
     1
 79
     5
176
     1
170
     0
176
     1
171
     0
176
     1
290
     0
176
     1
 93
        1
176
     1
 44
0.0
176
     1
173
     0
176
     1
  0
VISUALSTYLE
  5
34
102
{ACAD_REACTORS
330
2A
102
}
330
2A
100
AcDbVisualStyle
  2
Conceptual
 70
     9
177
     2
291
     0
 71
     3
176
     1
 72
     2
176
     1
 73
     0
176
     1
 90
        0
176
     1
 40
-0.6
176
     1
 41
-30.0
176
     1
 62
     5
 63
     7
421
 16777215
176
     1
 74
     2
176
     1
 91
        2
176
     1
 64
     7
176
     1
 65
   257
176
     1
 75
     1
176
     1
175
     1
176
     1
 42
40.0
176
     1
 92
        8
176
     1
 66
     7
176
     1
 43
1.0
176
     1
 76
     1
176
     1
 77
     6
176
     1
 78
     2
176
     1
 67
     7
176
     1
 79
     3
176
     1
170
     0
176
     1
171
     0
176
     1
290
     0
176
     1
 93
        1
176
     1
 44
0.0
176
     1
173
     0
176
     1
  0
VISUALSTYLE
  5
35
102
{ACAD_REACTORS
330
2A
102
}
330
2A
100
AcDbVisualStyle
  2
Dim
 70
    11
177
     2
291
     1
 71
     2
176
     1
 72
     2
176
     1
 73
     0
176
     1
 90
        0
176
     1
 40
-0.6
176
     1
 41
-30.0
176
     1
 62
     5
 63
     7
421
 16777215
176
     1
 74
     1
176
     1
 91
        4
176
     1
 64
     7
176
     1
 65
   257
176
     1
 75
     1
176
     1
175
     1
176
     1
 42
1.0
176
     1
 92
        8
176
     1
 66
     7
176
     1
 43
1.0
176
     1
 76
     1
176
     1
 77
     6
176
     1
 78
     2
176
     1
 67
     7
176
     1
 79
     5
176
     1
170
     0
176
     1
171
     0
176
     1
290
     0
176
     1
 93
        1
176
     1
 44
-50.0
176
     1
173
     0
176
     1
  0
VISUALSTYLE
  5
39
102
{ACAD_REACTORS
330
2A
102
}
330
2A
100
AcDbVisualStyle
  2
Facepattern
 70
    15
177
     2
291
     1
 71
     2
176
     1
 72
     2
176
     1
 73
     0
176
     1
 90
        0
176
     1
 40
-0.6
176
     1
 41
-30.0
176
     1
 62
     5
 63
     7
421
 16777215
176
     1
 74
     1
176
     1
 91
        4
176
     1
 64
     7
176
     1
 65
   257
176
     1
 75
     1
176
     1
175
     1
176
     1
 42
1.0
176
     1
 92
        8
176
     1
 66
     7
176
     1
 43
1.0
176
     1
 76
     1
176
     1
 77
     6
176
     1
 78
     2
176
     1
 67
     7
176
     1
 79
     5
176
     1
170
     0
176
     1
171
     0
176
     1
290
     0
176
     1
 93
        1
176
     1
 44
0.0
176
     1
173
     0
176
     1
  0
VISUALSTYLE
  5
2B
102
{ACAD_REACTORS
330
2A
102
}
330
2A
100
AcDbVisualStyle
  2
Flat
 70
     0
177
     2
291
     1
 71
     2
176
     1
 72
     1
176
     1
 73
     1
176
     1
 90
        2
176
     1
 40
-0.6
176
     1
 41
30.0
176
     1
 62
     5
 63
     7
421
 16777215
176
     1
 74
     0
176
     1
 91
        4
176
     1
 64
     7
176
     1
 65
   257
176
     1
 75
     1
176
     1
175
     1
176
     1
 42
1.0
176
     1
 92
        8
176
     1
 66
     7
176
     1
 43
1.0
176
     1
 76
     1
176
     1
 77
     6
176
     1
 78
     2
176
     1
 67
     7
176
     1
 79
     5
176
     1
170
     0
176
     1
171
     0
176
     1
290
     0
176
     1
 93
       13
176
     1
 44
0.0
176
     1
173
     0
176
     1
  0
VISUALSTYLE
  5
2C
102
{ACAD_REACTORS
330
2A
102
}
330
2A
100
AcDbVisualStyle
  2
FlatWithEdges
 70
     1
177
     2
291
     1
 71
     2
176
     1
 72
     1
176
     1
 73
     1
176
     1
 90
        2
176
     1
 40
-0.6
176
     1
 41
30.0
176
     1
 62
     5
 63
     7
421
 16777215
176
     1
 74
     1
176
     1
 91
        4
176
     1
 64
     7
176
     1
 65
   257
176
     1
 75
     1
176
     1
175
     1
176
     1
 42
1.0
176
     1
 92
        0
176
     1
 66
   257
176
     1
 43
1.0
176
     1
 76
     1
176
     1
 77
     6
176
     1
 78
     2
176
     1
 67
     7
176
     1
 79
     5
176
     1
170
     0
176
     1
171
     0
176
     1
290
     0
176
     1
 93
       13
176
     1
 44
0.0
176
     1
173
     0
176
     1
  0
VISUALSTYLE
  5
2D
102
{ACAD_REACTORS
330
2A
102
}
330
2A
100
AcDbVisualStyle
  2
Gouraud
 70
     2
177
     2
291
     1
 71
     2
176
     1
 72
     2
176
     1
 73
     1
176
     1
 90
        2
176
     1
 40
-0.6
176
     1
 41
30.0
176
     1
 62
     5
 63
     7
421
 16777215
176
     1
 74
     0
176
     1
 91
        4
176
     1
 64
     7
176
     1
 65
   257
176
     1
 75
     1
176
     1
175
     1
176
     1
 42
1.0
176
     1
 92
        0
176
     1
 66
     7
176
     1
 43
1.0
176
     1
 76
     1
176
     1
 77
     6
176
     1
 78
     2
176
     1
 67
     7
176
     1
 79
     5
176
     1
170
     0
176
     1
171
     0
176
     1
290
     0
176
     1
 93
       13
176
     1
 44
0.0
176
     1
173
     0
176
     1
  0
VISUALSTYLE
  5
2E
102
{ACAD_REACTORS
330
2A
102
}
330
2A
100
AcDbVisualStyle
  2
GouraudWithEdges
 70
     3
177
     2
291
     1
 71
     2
176
     1
 72
     2
176
     1
 73
     1
176
     1
 90
        2
176
     1
 40
-0.6
176
     1
 41
30.0
176
     1
 62
     5
 63
     7
421
 16777215
176
     1
 74
     1
176
     1
 91
        4
176
     1
 64
     7
176
     1
 65
   257
176
     1
 75
     1
176
     1
175
     1
176
     1
 42
1.0
176
     1
 92
        0
176
     1
 66
   257
176
     1
 43
1.0
176
     1
 76
     1
176
     1
 77
     6
176
     1
 78
     2
176
     1
 67
     7
176
     1
 79
     5
176
     1
170
     0
176
     1
171
     0
176
     1
290
     0
176
     1
 93
       13
176
     1
 44
0.0
176
     1
173
     0
176
     1
  0
VISUALSTYLE
  5
38
102
{ACAD_REACTORS
330
2A
102
}
330
2A
100
AcDbVisualStyle
  2
Linepattern
 70
    14
177
     2
291
     1
 71
     2
176
     1
 72
     2
176
     1
 73
     0
176
     1
 90
        0
176
     1
 40
-0.6
176
     1
 41
-30.0
176
     1
 62
     5
 63
     7
421
 16777215
176
     1
 74
     1
176
     1
 91
        4
176
     1
 64
     7
176
     1
 65
   257
176
     1
 75
     7
176
     1
175
     7
176
     1
 42
1.0
176
     1
 92
        8
176
     1
 66
     7
176
     1
 43
1.0
176
     1
 76
     1
176
     1
 77
     6
176
     1
 78
     2
176
     1
 67
     7
176
     1
 79
     5
176
     1
170
     0
176
     1
171
     0
176
     1
290
     0
176
     1
 93
        1
176
     1
 44
0.0
176
     1
173
     0
176
     1
  0
VISUALSTYLE
  5
33
102
{ACAD_REACTORS
330
2A
102
}
330
2A
100
AcDbVisualStyle
  2
Realistic
 70
     8
177
     2
291
     0
 71
     2
176
     1
 72
     2
176
     1
 73
     0
176
     1
 90
        0
176
     1
 40
-0.6
176
     1
 41
-30.0
176
     1
 62
     5
 63
     7
421
 16777215
176
     1
 74
     1
176
     1
 91
        0
176
     1
 64
     7
176
     1
 65
   257
176
     1
 75
     1
176
     1
175
     1
176
     1
 42
1.0
176
     1
 92
        8
176
     1
 66
     8
424
  7895160
176
     1
 43
1.0
176
     1
 76
     1
176
     1
 77
     6
176
     1
 78
     2
176
     1
 67
     7
176
     1
 79
     5
176
     1
170
     0
176
     1
171
     0
176
     1
290
     0
176
     1
 93
       13
176
     1
 44
0.0
176
     1
173
     0
176
     1
  0
VISUALSTYLE
  5
37
102
{ACAD_REACTORS
330
2A
102
}
330
2A
100
AcDbVisualStyle
  2
Thicken
 70
    13
177
     2
291
     1
 71
     2
176
     1
 72
     2
176
     1
 73
     0
176
     1
 90
        0
176
     1
 40
-0.6
176
     1
 41
-30.0
176
     1
 62
     5
 63
     7
421
 16777215
176
     1
 74
     1
176
     1
 91
        4
176
     1
 64
     7
176
     1
 65
   257
176
     1
 75
     1
176
     1
175
     1
176
     1
 42
1.0
176
     1
 92
       12
176
     1
 66
     7
176
     1
 43
1.0
176
     1
 76
     1
176
     1
 77
     6
176
     1
 78
     2
176
     1
 67
     7
176
     1
 79
     5
176
     1
170
     0
176
     1
171
     0
176
     1
290
     0
176
     1
 93
        1
176
     1
 44
0.0
176
     1
173
     0
176
     1
  0
ENDSEC
  0
EOF
