  0
SECTION
  2
HEADER
  9
$ACADVER
  1
AC1009
  9
$DWGCODEPAGE
  3
ansi_1252
  9
$INSBASE
 10
0.0
 20
0.0
 30
0.0
  9
$EXTMIN
 10
0.0
 20
0.0
 30
0.0
  9
$EXTMAX
 10
594.0
 20
841.0
 30
0.0
  9
$LIMMIN
 10
0.0
 20
0.0
  9
$LIMMAX
 10
594.0
 20
841.0
  9
$ORTHOMODE
 70
     0
  9
$REGENMODE
 70
     1
  9
$FILLMODE
 70
     1
  9
$QTEXTMODE
 70
     0
  9
$MIRRTEXT
 70
     1
  9
$DRAGMODE
 70
     2
  9
$LTSCALE
 40
1.0
  9
$OSMODE
 70
    37
  9
$ATTMODE
 70
     1
  9
$TEXTSIZE
 40
10.0
  9
$TRACEWID
 40
1.0
  9
$TEXTSTYLE
  7
STANDARD
  9
$CLAYER
  8
0
  9
$CELTYPE
  6
BYLAYER
  9
$CECOLOR
 62
   256
  9
$DIMSCALE
 40
1.0
  9
$DIMASZ
 40
2.5
  9
$DIMEXO
 40
0.0
  9
$DIMDLI
 40
3.75
  9
$DIMRND
 40
0.0
  9
$DIMDLE
 40
0.0
  9
$DIMEXE
 40
1.0
  9
$DIMTP
 40
0.0
  9
$DIMTM
 40
0.0
  9
$DIMTXT
 40
3.5
  9
$DIMCEN
 40
2.5
  9
$DIMTSZ
 40
0.0
  9
$DIMTOL
 70
     0
  9
$DIMLIM
 70
     0
  9
$DIMTIH
 70
     1
  9
$DIMTOH
 70
     1
  9
$DIMSE1
 70
     0
  9
$DIMSE2
 70
     0
  9
$DIMTAD
 70
     1
  9
$DIMZIN
 70
     0
  9
$DIMBLK
  1

  9
$DIMASO
 70
     1
  9
$DIMSHO
 70
     1
  9
$DIMPOST
  1

  9
$DIMAPOST
  1

  9
$DIMALT
 70
     0
  9
$DIMALTD
 70
     3
  9
$DIMALTF
 40
0.0393700787
  9
$DIMLFAC
 40
1.0
  9
$DIMTOFL
 70
     1
  9
$DIMTVP
 40
0.0
  9
$DIMTIX
 70
     0
  9
$DIMSOXD
 70
     0
  9
$DIMSAH
 70
     0
  9
$DIMBLK1
  1

  9
$DIMBLK2
  1

  9
$DIMSTYLE
  2
ISO-25
  9
$DIMCLRD
 70
     0
  9
$DIMCLRE
 70
     0
  9
$DIMCLRT
 70
     0
  9
$DIMTFAC
 40
1.0
  9
$DIMGAP
 40
1.5
  9
$LUNITS
 70
     2
  9
$LUPREC
 70
     2
  9
$SKETCHINC
 40
1.0
  9
$FILLETRAD
 40
10.0
  9
$AUNITS
 70
     0
  9
$AUPREC
 70
     2
  9
$MENU
  1
.
  9
$ELEVATION
 40
0.0
  9
$PELEVATION
 40
0.0
  9
$THICKNESS
 40
0.0
  9
$LIMCHECK
 70
     0
  9
$CHAMFERA
 40
0.0
  9
$CHAMFERB
 40
0.0
  9
$SKPOLY
 70
     0
  9
$TDCREATE
 40
2458400.576530706
  9
$TDUPDATE
 40
2458400.576531065
  9
$TDINDWG
 40
0.0000000116
  9
$TDUSRTIMER
 40
0.0000000116
  9
$USRTIMER
 70
     1
  9
$ANGBASE
 50
0.0
  9
$ANGDIR
 70
     0
  9
$PDMODE
 70
     0
  9
$PDSIZE
 40
-1.0
  9
$PLINEWID
 40
0.0
  9
$COORDS
 70
     1
  9
$SPLFRAME
 70
     0
  9
$SPLINETYPE
 70
     6
  9
$SPLINESEGS
 70
     8
  9
$ATTDIA
 70
     0
  9
$ATTREQ
 70
     1
  9
$HANDLING
 70
     1
  9
$HANDSEED
  5
1C2
  9
$SURFTAB1
 70
     6
  9
$SURFTAB2
 70
     6
  9
$SURFTYPE
 70
     6
  9
$SURFU
 70
     6
  9
$SURFV
 70
     6
  9
$UCSNAME
  2

  9
$UCSORG
 10
0.0
 20
0.0
 30
0.0
  9
$UCSXDIR
 10
1.0
 20
0.0
 30
0.0
  9
$UCSYDIR
 10
0.0
 20
1.0
 30
0.0
  9
$PUCSNAME
  2

  9
$PUCSORG
 10
0.0
 20
0.0
 30
0.0
  9
$PUCSXDIR
 10
1.0
 20
0.0
 30
0.0
  9
$PUCSYDIR
 10
0.0
 20
1.0
 30
0.0
  9
$USERI1
 70
     0
  9
$USERI2
 70
     0
  9
$USERI3
 70
     0
  9
$USERI4
 70
     0
  9
$USERI5
 70
     0
  9
$USERR1
 40
0.0
  9
$USERR2
 40
0.0
  9
$USERR3
 40
0.0
  9
$USERR4
 40
0.0
  9
$USERR5
 40
0.0
  9
$WORLDVIEW
 70
     1
  9
$SHADEDGE
 70
     3
  9
$SHADEDIF
 70
    70
  9
$TILEMODE
 70
     1
  9
$MAXACTVP
 70
    64
  9
$PLIMCHECK
 70
     0
  9
$PEXTMIN
 10
1.0000000000E+20
 20
1.0000000000E+20
 30
1.0000000000E+20
  9
$PEXTMAX
 10
-1.0000000000E+20
 20
-1.0000000000E+20
 30
-1.0000000000E+20
  9
$PLIMMIN
 10
0.0
 20
0.0
  9
$PLIMMAX
 10
420.0
 20
297.0
  9
$UNITMODE
 70
     0
  9
$VISRETAIN
 70
     1
  9
$PLINEGEN
 70
     0
  9
$PSLTSCALE
 70
     1
  0
ENDSEC
  0
SECTION
  2
TABLES
  0
TABLE
  2
VPORT
 70
     1
  0
VPORT
  2
*ACTIVE
 70
     0
 10
0.0
 20
0.0
 11
1.0
 21
1.0
 12
297.0
 22
420.5
 13
0.0
 23
0.0
 14
10.0
 24
10.0
 15
10.0
 25
10.0
 16
0.0
 26
0.0
 36
1.0
 17
0.0
 27
0.0
 37
0.0
 40
841.0
 41
0.7063020214
 42
50.0
 43
0.0
 44
0.0
 50
0.0
 51
0.0
 71
     0
 72
  2000
 73
     1
 74
     3
 75
     0
 76
     0
 77
     0
 78
     0
  0
ENDTAB
  0
TABLE
  2
LTYPE
 70
     6
  0
LTYPE
  2
CONTINUOUS
 70
     0
  3
Solid line
 72
    65
 73
     0
 40
0.0
  0
LTYPE
  2
HIDDEN
 70
     0
  3
Hidden __ __ __ __ __ __ __ __ __ __ __ __ __ __
 72
    65
 73
     2
 40
1.905
 49
1.27
 49
-0.635
  0
LTYPE
  2
PHANTOM
 70
     0
  3
Phantom ______  __  __  ______  __  __  ______
 72
    65
 73
     6
 40
12.7
 49
6.35
 49
-1.27
 49
1.27
 49
-1.27
 49
1.27
 49
-1.27
  0
LTYPE
  2
CENTER
 70
     0
  3
Center ____ _ ____ _ ____ _ ____ _ ____ _ ____
 72
    65
 73
     4
 40
10.16
 49
6.35
 49
-1.27
 49
1.27
 49
-1.27
  0
LTYPE
  2
CENTERX2
 70
     0
  3
Center (2x) ________  __  ________  __  _____
 72
    65
 73
     4
 40
20.32
 49
12.7
 49
-2.54
 49
2.54
 49
-2.54
  0
LTYPE
  2
DOT2
 70
     0
  3
Dot (.5x) ........................................
 72
    65
 73
     2
 40
0.635
 49
0.0
 49
-0.635
  0
ENDTAB
  0
TABLE
  2
LAYER
 70
     1
  0
LAYER
  2
0
 70
     0
 62
     7
  6
CONTINUOUS
  0
ENDTAB
  0
TABLE
  2
STYLE
 70
     1
  0
STYLE
  2
STANDARD
 70
     0
 40
0.0
 41
1.0
 50
0.0
 71
     0
 42
10.0
  3
txt
  4

  0
ENDTAB
  0
TABLE
  2
VIEW
 70
     0
  0
ENDTAB
  0
TABLE
  2
UCS
 70
     0
  0
ENDTAB
  0
TABLE
  2
APPID
 70
     1
  0
APPID
  2
ACAD
 70
     0
  0
ENDTAB
  0
TABLE
  2
DIMSTYLE
 70
     2
  0
DIMSTYLE
  2
ISO-25
 70
     0
  3

  4

  5

  6

  7

 40
1.0
 41
2.5
 42
0.625
 43
3.75
 44
1.25
 45
0.0
 46
0.0
 47
0.0
 48
0.0
140
2.5
141
2.5
142
0.0
143
0.0393700787
144
1.0
145
0.0
146
1.0
147
0.625
 71
     0
 72
     0
 73
     0
 74
     0
 75
     0
 76
     0
 77
     1
 78
     8
170
     0
171
     3
172
     1
173
     0
174
     0
175
     0
176
     0
177
     0
178
     0
  0
DIMSTYLE
  2
SLDDIMSTYLE0
 70
     0
  3

  4

  5

  6

  7

 40
1.0
 41
2.5
 42
0.0625
 43
0.38
 44
0.0
 45
0.000000001
 46
0.0
 47
0.0
 48
0.0
140
6.0
141
0.09
142
0.0
143
25.4
144
1.0
145
0.0
146
1.0
147
1.5
 71
     0
 72
     0
 73
     0
 74
     0
 75
     0
 76
     0
 77
     1
 78
    12
170
     0
171
     2
172
     0
173
     1
174
     0
175
     0
176
     0
177
     0
178
     0
  0
ENDTAB
  0
ENDSEC
  0
SECTION
  2
BLOCKS
  0
BLOCK
  8
0
  2
$MODEL_SPACE
 70
     0
 10
0.0
 20
0.0
 30
0.0
  3
$MODEL_SPACE
  1

  0
ENDBLK
  5
21
  8
0
  0
BLOCK
 67
     1
  8
0
  2
$PAPER_SPACE
 70
     0
 10
0.0
 20
0.0
 30
0.0
  3
$PAPER_SPACE
  1

  0
ENDBLK
  5
1D
 67
     1
  8
0
  0
BLOCK
  8
0
  2
_D
 70
     0
 10
0.0
 20
0.0
 30
0.0
  3
_D
  1

  0
SOLID
  5
7A
  8
0
  6
CONTINUOUS
 62
     7
 10
42.7614395004
 20
152.0299240879
 30
0.0
 11
42.4614395004
 21
149.5299240879
 31
0.0
 12
43.0614395004
 22
149.5299240879
 32
0.0
 13
43.0614395004
 23
149.5299240879
 33
0.0
  0
SOLID
  5
7B
  8
0
  6
CONTINUOUS
 62
     7
 10
42.7614395004
 20
52.0299240879
 30
0.0
 11
43.0614395004
 21
54.5299240879
 31
0.0
 12
42.4614395004
 22
54.5299240879
 32
0.0
 13
42.4614395004
 23
54.5299240879
 33
0.0
  0
LINE
  5
7C
  8
0
  6
CONTINUOUS
 62
     7
 10
56.6850079902
 20
152.0299240879
 30
0.0
 11
41.7614395004
 21
152.0299240879
 31
0.0
  0
LINE
  5
7D
  8
0
  6
CONTINUOUS
 62
     7
 10
56.6850079902
 20
52.0299240879
 30
0.0
 11
41.7614395004
 21
52.0299240879
 31
0.0
  0
LINE
  5
7E
  8
0
  6
CONTINUOUS
 62
     7
 10
42.7614395004
 20
152.0299240879
 30
0.0
 11
42.7614395004
 21
52.0299240879
 31
0.0
  0
TEXT
  5
7F
  8
0
  6
CONTINUOUS
 62
     7
 10
40.6418793617
 20
94.3680541463
 30
0.0
 40
6.0
  1
100
 50
90.0
 41
0.7
 11
42.7614397332
 21
94.3680541463
 31
0.0
 73
     1
  0
TEXT
  5
80
  8
0
  6
CONTINUOUS
 62
     7
 10
40.6418793617
 20
105.7430548466
 30
0.0
 40
6.0
  1
mm
 50
90.0
 41
0.7
 11
42.7614397332
 21
105.7430548466
 31
0.0
 73
     1
  0
ENDBLK
  5
79
  8
0
  0
BLOCK
  8
0
  2
_D_1
 70
     0
 10
0.0
 20
0.0
 30
0.0
  3
_D_1
  1

  0
SOLID
  5
85
  8
0
  6
CONTINUOUS
 62
     7
 10
56.6850079902
 20
38.4602342313
 30
0.0
 11
59.1850079902
 21
38.1602342313
 31
0.0
 12
59.1850079902
 22
38.7602342313
 32
0.0
 13
59.1850079902
 23
38.7602342313
 33
0.0
  0
SOLID
  5
86
  8
0
  6
CONTINUOUS
 62
     7
 10
156.6850079902
 20
38.4602342313
 30
0.0
 11
154.1850079902
 21
38.7602342313
 31
0.0
 12
154.1850079902
 22
38.1602342313
 32
0.0
 13
154.1850079902
 23
38.1602342313
 33
0.0
  0
LINE
  5
87
  8
0
  6
CONTINUOUS
 62
     7
 10
56.6850079902
 20
52.0299240879
 30
0.0
 11
56.6850079902
 21
37.4602342313
 31
0.0
  0
LINE
  5
88
  8
0
  6
CONTINUOUS
 62
     7
 10
156.6850079902
 20
52.0299240879
 30
0.0
 11
156.6850079902
 21
37.4602342313
 31
0.0
  0
LINE
  5
89
  8
0
  6
CONTINUOUS
 62
     7
 10
56.6850079902
 20
38.4602342313
 30
0.0
 11
156.6850079902
 21
38.4602342313
 31
0.0
  0
TEXT
  5
8A
  8
0
  6
CONTINUOUS
 62
     7
 10
93.9626484861
 20
40.57979437
 30
0.0
 40
6.0
  1
100
 41
0.7
 11
93.9626484861
 21
38.4602339984
 31
0.0
 73
     1
  0
TEXT
  5
8B
  8
0
  6
CONTINUOUS
 62
     7
 10
105.3376491864
 20
40.57979437
 30
0.0
 40
6.0
  1
mm
 41
0.7
 11
105.3376491864
 21
38.4602339984
 31
0.0
 73
     1
  0
ENDBLK
  5
84
  8
0
  0
ENDSEC
  0
SECTION
  2
ENTITIES
  0
LINE
  5
73
  8
0
  6
CONTINUOUS
 62
     7
 10
56.6850079902
 20
152.0299240879
 30
0.0
 11
56.6850079902
 21
52.0299240879
 31
0.0
  0
LINE
  5
74
  8
0
  6
CONTINUOUS
 62
     7
 10
56.6850079902
 20
52.0299240879
 30
0.0
 11
156.6850079902
 21
52.0299240879
 31
0.0
  0
DIMENSION
  5
75
  8
0
  6
CONTINUOUS
 62
     7
  2
_D
 10
42.7614395004
 20
52.0299240879
 30
0.0
 11
42.7614395004
 21
105.4472211621
 31
0.0
 70
   160
  1
<>mm
  3
SLDDIMSTYLE0
 13
56.6850079902
 23
152.0299240879
 33
0.0
 14
56.6850079902
 24
52.0299240879
 34
0.0
 50
90.0
  0
DIMENSION
  5
81
  8
0
  6
CONTINUOUS
 62
     7
  2
_D_1
 10
156.6850079902
 20
38.4602342313
 30
0.0
 11
105.0418155019
 21
38.4602342313
 31
0.0
 70
   160
  1
<>mm
  3
SLDDIMSTYLE0
 13
56.6850079902
 23
52.0299240879
 33
0.0
 14
156.6850079902
 24
52.0299240879
 34
0.0
  0
TEXT
  5
8C
  8
0
  6
CONTINUOUS
 62
     7
 10
412.8252631579
 20
39.0761681714
 30
0.0
 40
10.0
  1
KLUDI GmbH & Co KG
 41
0.6222222222
 11
412.8252631579
 21
35.5435675522
 31
0.0
 73
     1
  0
TEXT
  5
8D
  8
0
  6
CONTINUOUS
 62
     7
 10
210.0873490389
 20
39.0761681714
 30
0.0
 40
10.0
  1
48 655 05 65
 41
0.6125
 11
210.0873490389
 21
35.5435675522
 31
0.0
 73
     1
  0
LINE
  5
8E
  8
0
  6
CONTINUOUS
 62
     7
 10
332.321331527
 20
210.1909954959
 30
0.0
 11
341.5721475286
 21
210.4332366381
 31
0.0
  0
LINE
  5
8F
  8
0
  6
CONTINUOUS
 62
     7
 10
341.5721475286
 20
380.4487543536
 30
0.0
 11
332.321331527
 21
380.6909954959
 31
0.0
  0
ARC
  5
90
  8
0
  6
CONTINUOUS
 62
     7
 10
341.5354998009
 20
379.0492340986
 30
0.0
 40
1.40000000000003
 50
9.653305255
 51
88.5
  0
ARC
  5
91
  8
0
  6
CONTINUOUS
 62
     7
 10
341.5354998009
 20
211.8327568931
 30
0.0
 40
1.40000000000003
 50
271.5
 51
350.346694745
  0
ARC
  5
92
  8
0
  6
CONTINUOUS
 62
     7
 10
-150.0045519118
 20
295.4409954959
 30
0.0
 40
500.0000000000001
 50
4.4413754289
 51
9.653305255
  0
ARC
  5
93
  8
0
  6
CONTINUOUS
 62
     7
 10
-150.0045519118
 20
295.4409954959
 30
0.0
 40
500.0000000000001
 50
350.346694745
 51
358.8320509596
  0
LINE
  5
94
  8
0
  6
CONTINUOUS
 62
     7
 10
378.6943506475
 20
334.2409954959
 30
0.0
 11
348.4900454602
 21
334.2409954959
 31
0.0
  0
LINE
  5
95
  8
0
  6
CONTINUOUS
 62
     7
 10
349.8911605174
 20
285.2409954959
 30
0.0
 11
378.6943506475
 21
285.2409954959
 31
0.0
  0
ARC
  5
96
  8
0
  6
CONTINUOUS
 62
     7
 10
378.6943506475
 20
309.7409954959
 30
0.0
 40
24.5
 50
45.3262161606
 51
90.0
  0
ARC
  5
97
  8
0
  6
CONTINUOUS
 62
     7
 10
378.6943506475
 20
309.7409954959
 30
0.0
 40
24.5
 50
270.0
 51
296.4872862829
  0
POLYLINE
  5
98
  8
0
  6
CONTINUOUS
 62
     7
 66
     1
 10
0.0
 20
0.0
 30
0.0
 70
   128
  0
VERTEX
  5
F4
  8
0
  6
CONTINUOUS
 62
     7
 10
421.4431559365
 20
221.30946195
 30
0.0
  0
VERTEX
  5
F5
  8
0
  6
CONTINUOUS
 62
     7
 10
421.5805875154
 20
229.9768166574
 30
0.0
  0
VERTEX
  5
F6
  8
0
  6
CONTINUOUS
 62
     7
 10
421.6163203234
 20
239.3327483092
 30
0.0
  0
VERTEX
  5
F7
  8
0
  6
CONTINUOUS
 62
     7
 10
421.6614268348
 20
248.7173955881
 30
0.0
  0
VERTEX
  5
F8
  8
0
  6
CONTINUOUS
 62
     7
 10
421.6930292858
 20
258.145029201
 30
0.0
  0
VERTEX
  5
F9
  8
0
  6
CONTINUOUS
 62
     7
 10
421.7095286997
 20
267.6194019134
 30
0.0
  0
VERTEX
  5
FA
  8
0
  6
CONTINUOUS
 62
     7
 10
421.7325266886
 20
277.1219210728
 30
0.0
  0
VERTEX
  5
FB
  8
0
  6
CONTINUOUS
 62
     7
 10
421.844336987
 20
296.1328003903
 30
0.0
  0
VERTEX
  5
FC
  8
0
  6
CONTINUOUS
 62
     7
 10
421.8009800963
 20
315.1151202121
 30
0.0
  0
VERTEX
  5
FD
  8
0
  6
CONTINUOUS
 62
     7
 10
421.4471765949
 20
333.4094157246
 30
0.0
  0
SEQEND
  5
1AA
  8
0
  6
CONTINUOUS
 62
     7
  0
LINE
  5
99
  8
0
  6
CONTINUOUS
 62
     7
 10
396.1943506448
 20
284.8597973588
 30
0.0
 11
396.1943506448
 21
284.3909954959
 31
0.0
  0
LINE
  5
9A
  8
0
  6
CONTINUOUS
 62
     7
 10
396.1943506448
 20
284.3909954959
 30
0.0
 11
396.4129320117
 21
283.7904481259
 31
0.0
  0
ARC
  5
9B
  8
0
  6
CONTINUOUS
 62
     7
 10
403.7878307537
 20
283.8588521546
 30
0.0
 40
0.200000000000021
 50
270.0
 51
311.3304313351
  0
ARC
  5
9C
  8
0
  6
CONTINUOUS
 62
     7
 10
396.6008705359
 20
283.8588521546
 30
0.0
 40
0.2000000000000019
 50
200.0
 51
270.0
  0
LINE
  5
9D
  8
0
  6
CONTINUOUS
 62
     7
 10
396.6008705359
 20
283.6588521546
 30
0.0
 11
403.7878307537
 21
283.6588521546
 31
0.0
  0
ARC
  5
9E
  8
0
  6
CONTINUOUS
 62
     7
 10
398.2064883839
 20
266.3704410411
 30
0.0
 40
18.26894785841754
 50
1.8132869305
 51
71.9113360597
  0
POLYLINE
  5
9F
  8
0
  6
CONTINUOUS
 62
     7
 66
     1
 10
0.0
 20
0.0
 30
0.0
 70
   128
  0
VERTEX
  5
FE
  8
0
  6
CONTINUOUS
 62
     7
 10
393.0850686154
 20
284.8591342904
 30
0.0
  0
VERTEX
  5
FF
  8
0
  6
CONTINUOUS
 62
     7
 10
395.5402743005
 20
284.8613919516
 30
0.0
  0
VERTEX
  5
100
  8
0
  6
CONTINUOUS
 62
     7
 10
396.2175556196
 20
284.8453175889
 30
0.0
  0
SEQEND
  5
1AB
  8
0
  6
CONTINUOUS
 62
     7
  0
LINE
  5
A0
  8
0
  6
CONTINUOUS
 62
     7
 10
332.321331527
 20
380.6909954959
 30
0.0
 11
332.321331527
 21
210.1909954959
 31
0.0
  0
POLYLINE
  5
A1
  8
0
  6
CONTINUOUS
 62
     7
 66
     1
 10
0.0
 20
0.0
 30
0.0
 70
   128
  0
VERTEX
  5
101
  8
0
  6
CONTINUOUS
 62
     7
 10
348.6926196356
 20
327.0973273355
 30
0.0
  0
VERTEX
  5
102
  8
0
  6
CONTINUOUS
 62
     7
 10
348.7815620729
 20
323.9952785727
 30
0.0
  0
VERTEX
  5
103
  8
0
  6
CONTINUOUS
 62
     7
 10
348.8848113942
 20
320.3935542414
 30
0.0
  0
VERTEX
  5
104
  8
0
  6
CONTINUOUS
 62
     7
 10
348.993690041
 20
316.5946503232
 30
0.0
  0
VERTEX
  5
105
  8
0
  6
CONTINUOUS
 62
     7
 10
349.1113273756
 20
312.48921379
 30
0.0
  0
VERTEX
  5
106
  8
0
  6
CONTINUOUS
 62
     7
 10
349.227875303
 20
308.420842251
 30
0.0
  0
VERTEX
  5
107
  8
0
  6
CONTINUOUS
 62
     7
 10
349.3466613875
 20
304.2733653049
 30
0.0
  0
VERTEX
  5
108
  8
0
  6
CONTINUOUS
 62
     7
 10
349.4577265389
 20
300.394576085
 30
0.0
  0
VERTEX
  5
109
  8
0
  6
CONTINUOUS
 62
     7
 10
349.5642603071
 20
296.6732283
 30
0.0
  0
VERTEX
  5
10A
  8
0
  6
CONTINUOUS
 62
     7
 10
349.6573046576
 20
293.4224321949
 30
0.0
  0
VERTEX
  5
10B
  8
0
  6
CONTINUOUS
 62
     7
 10
349.739562986
 20
290.5479753919
 30
0.0
  0
VERTEX
  5
10C
  8
0
  6
CONTINUOUS
 62
     7
 10
349.8041079259
 20
288.2921686146
 30
0.0
  0
VERTEX
  5
10D
  8
0
  6
CONTINUOUS
 62
     7
 10
349.8528348566
 20
286.5889987492
 30
0.0
  0
VERTEX
  5
10E
  8
0
  6
CONTINUOUS
 62
     7
 10
349.8816445612
 20
285.5819247174
 30
0.0
  0
VERTEX
  5
10F
  8
0
  6
CONTINUOUS
 62
     7
 10
349.8911587445
 20
285.2493334416
 30
0.0
  0
SEQEND
  5
1AC
  8
0
  6
CONTINUOUS
 62
     7
  0
POLYLINE
  5
A2
  8
0
  6
CONTINUOUS
 62
     7
 66
     1
 10
0.0
 20
0.0
 30
0.0
 70
   128
  0
VERTEX
  5
110
  8
0
  6
CONTINUOUS
 62
     7
 10
348.4900462434
 20
334.1604223858
 30
0.0
  0
VERTEX
  5
111
  8
0
  6
CONTINUOUS
 62
     7
 10
348.4892205572
 20
334.1892056213
 30
0.0
  0
VERTEX
  5
112
  8
0
  6
CONTINUOUS
 62
     7
 10
348.5072290381
 20
333.5614239616
 30
0.0
  0
VERTEX
  5
113
  8
0
  6
CONTINUOUS
 62
     7
 10
348.5438358809
 20
332.2852272906
 30
0.0
  0
VERTEX
  5
114
  8
0
  6
CONTINUOUS
 62
     7
 10
348.6000887472
 20
330.3239435122
 30
0.0
  0
VERTEX
  5
115
  8
0
  6
CONTINUOUS
 62
     7
 10
348.6430808142
 20
328.8248548248
 30
0.0
  0
VERTEX
  5
116
  8
0
  6
CONTINUOUS
 62
     7
 10
348.6926196356
 20
327.0973273355
 30
0.0
  0
SEQEND
  5
1AD
  8
0
  6
CONTINUOUS
 62
     7
  0
ARC
  5
A3
  8
0
  6
CONTINUOUS
 62
     7
 10
409.621331527
 20
306.3327109116
 30
0.0
 40
19.99999999999956
 50
160.0
 51
180.0
  0
POLYLINE
  5
A4
  8
0
  6
CONTINUOUS
 62
     7
 66
     1
 10
0.0
 20
0.0
 30
0.0
 70
   128
  0
VERTEX
  5
117
  8
0
  6
CONTINUOUS
 62
     7
 10
421.4565873071
 20
272.5682729756
 30
0.0
  0
VERTEX
  5
118
  8
0
  6
CONTINUOUS
 62
     7
 10
421.4563545256
 20
280.0561691687
 30
0.0
  0
VERTEX
  5
119
  8
0
  6
CONTINUOUS
 62
     7
 10
421.4566366856
 20
287.5123385664
 30
0.0
  0
VERTEX
  5
11A
  8
0
  6
CONTINUOUS
 62
     7
 10
421.456391257
 20
292.3080114077
 30
0.0
  0
VERTEX
  5
11B
  8
0
  6
CONTINUOUS
 62
     7
 10
421.456451345
 20
297.0737316488
 30
0.0
  0
VERTEX
  5
11C
  8
0
  6
CONTINUOUS
 62
     7
 10
421.4563052552
 20
301.7855908049
 30
0.0
  0
SEQEND
  5
1AE
  8
0
  6
CONTINUOUS
 62
     7
  0
LINE
  5
A5
  8
0
  6
CONTINUOUS
 62
     7
 10
398.8606288913
 20
334.8592505257
 30
0.0
 11
419.9573233295
 21
334.8592505257
 31
0.0
  0
ARC
  5
A6
  8
0
  6
CONTINUOUS
 62
     7
 10
419.9573233295
 20
333.3592505257
 30
0.0
 40
1.5
 50
1.9102075604
 51
90.0
  0
LINE
  5
A7
  8
0
  6
CONTINUOUS
 62
     7
 10
421.4564897646
 20
301.7855909519
 30
0.0
 11
421.4564897646
 21
333.4092505257
 31
0.0
  0
LINE
  5
A8
  8
0
  6
CONTINUOUS
 62
     7
 10
390.8274791113
 20
313.1731137781
 30
0.0
 11
398.6726903671
 21
334.7276545544
 31
0.0
  0
ARC
  5
A9
  8
0
  6
CONTINUOUS
 62
     7
 10
398.8606288913
 20
334.6592505257
 30
0.0
 40
0.2000000000000019
 50
90.0
 51
160.0
  0
LINE
  5
AA
  8
0
  6
CONTINUOUS
 62
     7
 10
389.621331527
 20
292.9952505257
 30
0.0
 11
389.621331527
 21
306.3327109116
 31
0.0
  0
LINE
  5
AB
  8
0
  6
CONTINUOUS
 62
     7
 10
393.1142421936
 20
284.8592505257
 30
0.0
 11
389.821331527
 21
284.8592505257
 31
0.0
  0
ARC
  5
AC
  8
0
  6
CONTINUOUS
 62
     7
 10
398.5116852621
 20
272.8352733011
 30
0.0
 40
12.22244273993472
 50
72.1682493555
 51
91.7757778886
  0
ARC
  5
AD
  8
0
  6
CONTINUOUS
 62
     7
 10
389.821331527
 20
285.0592505257
 30
0.0
 40
0.2000000000000455
 50
180.0
 51
270.0
  0
LINE
  5
AE
  8
0
  6
CONTINUOUS
 62
     7
 10
389.621331527
 20
285.0592505257
 30
0.0
 11
389.621331527
 21
292.9952505257
 31
0.0
  0
LINE
  5
AF
  8
0
  6
CONTINUOUS
 62
     7
 10
416.5716762379
 20
260.7745177437
 30
0.0
 11
416.4971518344
 21
271.4491787906
 31
0.0
  0
LINE
  5
B0
  8
0
  6
CONTINUOUS
 62
     7
 10
416.837895954
 20
222.6419718823
 30
0.0
 11
416.5716762379
 21
260.7745177437
 31
0.0
  0
ARC
  5
B1
  8
0
  6
CONTINUOUS
 62
     7
 10
418.3468877387
 20
221.3592505257
 30
0.0
 40
1.5
 50
180.4
 51
270.0
  0
LINE
  5
B2
  8
0
  6
CONTINUOUS
 62
     7
 10
416.8469242927
 20
221.3487786353
 30
0.0
 11
416.837895954
 21
222.6419718823
 31
0.0
  0
LINE
  5
B3
  8
0
  6
CONTINUOUS
 62
     7
 10
419.9573233295
 20
219.8592505257
 30
0.0
 11
418.3468877387
 21
219.8592505257
 31
0.0
  0
ARC
  5
B4
  8
0
  6
CONTINUOUS
 62
     7
 10
419.9573233295
 20
221.3592505257
 30
0.0
 40
1.5
 50
270.0
 51
358.0897868283
  0
LINE
  5
B5
  8
0
  6
CONTINUOUS
 62
     7
 10
396.1943506448
 20
284.3909954959
 30
0.0
 11
402.4917217021
 21
284.3909954959
 31
0.0
  0
ARC
  5
B6
  8
0
  6
CONTINUOUS
 62
     7
 10
398.7373864222
 20
269.4236927389
 30
0.0
 40
15.64042596875842
 50
92.2118768047
 51
99.2713748778
  0
LINE
  5
B7
  8
0
  6
CONTINUOUS
 62
     7
 10
402.2549522741
 20
284.4706939766
 30
0.0
 11
402.4917217021
 21
284.3909954959
 31
0.0
  0
POLYLINE
  5
B8
  8
0
  6
CONTINUOUS
 62
     7
 66
     1
 10
0.0
 20
0.0
 30
0.0
 70
   128
  0
VERTEX
  5
11D
  8
0
  6
CONTINUOUS
 62
     7
 10
402.4917217021
 20
284.3909954959
 30
0.0
  0
VERTEX
  5
11E
  8
0
  6
CONTINUOUS
 62
     7
 10
403.408001773
 20
284.0017831346
 30
0.0
  0
VERTEX
  5
11F
  8
0
  6
CONTINUOUS
 62
     7
 10
403.8277483867
 20
283.7904481259
 30
0.0
  0
SEQEND
  5
1AF
  8
0
  6
CONTINUOUS
 62
     7
  0
POLYLINE
  5
B9
  8
0
  6
CONTINUOUS
 62
     7
 66
     1
 10
0.0
 20
0.0
 30
0.0
 70
   128
  0
VERTEX
  5
120
  8
0
  6
CONTINUOUS
 62
     7
 10
403.8277483867
 20
283.7904481259
 30
0.0
  0
VERTEX
  5
121
  8
0
  6
CONTINUOUS
 62
     7
 10
403.8990405879
 20
283.7514337369
 30
0.0
  0
VERTEX
  5
122
  8
0
  6
CONTINUOUS
 62
     7
 10
403.8851592741
 20
283.7591749204
 30
0.0
  0
SEQEND
  5
1B0
  8
0
  6
CONTINUOUS
 62
     7
  0
LINE
  5
BA
  8
0
  6
CONTINUOUS
 62
     7
 10
416.5014442423
 20
266.224775491
 30
0.0
 11
416.537561399
 21
265.6610290008
 31
0.0
  0
LINE
  5
BB
  8
0
  6
CONTINUOUS
 62
     8
 10
342.9156764403
 20
379.2839944958
 30
0.0
 11
342.9156764403
 21
211.5979964959
 31
0.0
  0
LINE
  5
BC
  8
0
  6
CONTINUOUS
 62
     8
 10
378.6943506475
 20
286.2671766183
 30
0.0
 11
378.6943506475
 21
285.2409954959
 31
0.0
  0
LINE
  5
BD
  8
0
  6
CONTINUOUS
 62
     8
 10
378.6943506475
 20
334.2409954959
 30
0.0
 11
378.6943506475
 21
286.2671766183
 31
0.0
  0
POLYLINE
  5
BE
  8
0
  6
CONTINUOUS
 62
     8
 66
     1
 10
0.0
 20
0.0
 30
0.0
 70
   128
  0
VERTEX
  5
123
  8
0
  6
CONTINUOUS
 62
     8
 10
421.4567000446
 20
221.3092507825
 30
0.0
  0
VERTEX
  5
124
  8
0
  6
CONTINUOUS
 62
     8
 10
421.4571916027
 20
221.327860527
 30
0.0
  0
VERTEX
  5
125
  8
0
  6
CONTINUOUS
 62
     8
 10
421.4567488552
 20
221.3784835694
 30
0.0
  0
VERTEX
  5
126
  8
0
  6
CONTINUOUS
 62
     8
 10
421.4561516552
 20
221.422815011
 30
0.0
  0
VERTEX
  5
127
  8
0
  6
CONTINUOUS
 62
     8
 10
421.4555696395
 20
221.4974597594
 30
0.0
  0
VERTEX
  5
128
  8
0
  6
CONTINUOUS
 62
     8
 10
421.4557763507
 20
221.5572688809
 30
0.0
  0
VERTEX
  5
129
  8
0
  6
CONTINUOUS
 62
     8
 10
421.4567536977
 20
221.7655688277
 30
0.0
  0
VERTEX
  5
12A
  8
0
  6
CONTINUOUS
 62
     8
 10
421.4571213643
 20
222.0578259397
 30
0.0
  0
VERTEX
  5
12B
  8
0
  6
CONTINUOUS
 62
     8
 10
421.4567741061
 20
222.6521822383
 30
0.0
  0
SEQEND
  5
1B1
  8
0
  6
CONTINUOUS
 62
     8
  0
LINE
  5
BF
  8
0
  6
CONTINUOUS
 62
     8
 10
421.4564897646
 20
222.6521819746
 30
0.0
 11
421.4564897646
 21
260.784727836
 31
0.0
  0
POLYLINE
  5
C0
  8
0
  6
CONTINUOUS
 62
     8
 66
     1
 10
0.0
 20
0.0
 30
0.0
 70
   128
  0
VERTEX
  5
12C
  8
0
  6
CONTINUOUS
 62
     8
 10
421.4563337713
 20
260.7847276944
 30
0.0
  0
VERTEX
  5
12D
  8
0
  6
CONTINUOUS
 62
     8
 10
421.4566262726
 20
266.6945659837
 30
0.0
  0
VERTEX
  5
12E
  8
0
  6
CONTINUOUS
 62
     8
 10
421.4565873071
 20
272.5682729756
 30
0.0
  0
SEQEND
  5
1B2
  8
0
  6
CONTINUOUS
 62
     8
  0
LINE
  5
C1
  8
0
  6
CONTINUOUS
 62
     8
 10
396.5426715624
 20
285.0954446334
 30
0.0
 11
396.5744465785
 21
285.0954446334
 31
0.0
  0
LINE
  5
C2
  8
0
  6
CONTINUOUS
 62
     7
 10
164.5441444692
 20
300.9478248692
 30
0.0
 11
164.6097672426
 21
300.778617395
 31
0.0
  0
ARC
  5
C3
  8
0
  6
CONTINUOUS
 62
     7
 10
73.2286499497
 20
264.0747110975
 30
0.0
 40
98.48807906525224
 50
4.8863279469
 51
22.2006046214
  0
POLYLINE
  5
C4
  8
0
  6
CONTINUOUS
 62
     7
 66
     1
 10
0.0
 20
0.0
 30
0.0
 70
   128
  0
VERTEX
  5
12F
  8
0
  6
CONTINUOUS
 62
     7
 10
211.3853355688
 20
301.2884866469
 30
0.0
  0
VERTEX
  5
130
  8
0
  6
CONTINUOUS
 62
     7
 10
211.3853149989
 20
301.2884302831
 30
0.0
  0
VERTEX
  5
131
  8
0
  6
CONTINUOUS
 62
     7
 10
209.3613410317
 20
295.831896217
 30
0.0
  0
VERTEX
  5
132
  8
0
  6
CONTINUOUS
 62
     7
 10
207.6212214665
 20
290.2717694627
 30
0.0
  0
VERTEX
  5
133
  8
0
  6
CONTINUOUS
 62
     7
 10
206.0022130103
 20
283.7237160805
 30
0.0
  0
VERTEX
  5
134
  8
0
  6
CONTINUOUS
 62
     7
 10
204.8890278091
 20
277.0322826398
 30
0.0
  0
VERTEX
  5
135
  8
0
  6
CONTINUOUS
 62
     7
 10
204.4420192956
 20
272.4638439724
 30
0.0
  0
SEQEND
  5
1B3
  8
0
  6
CONTINUOUS
 62
     7
  0
ARC
  5
C5
  8
0
  6
CONTINUOUS
 62
     7
 10
201.5722752237
 20
222.1996014721
 30
0.0
 40
2.384600354082941
 50
258.9450334904
 51
10.7549665096
  0
ARC
  5
C6
  8
0
  6
CONTINUOUS
 62
     7
 10
174.2285329575
 20
222.1996014721
 30
0.0
 40
2.384600354082947
 50
169.2450334904
 51
281.0549665096
  0
POLYLINE
  5
C7
  8
0
  6
CONTINUOUS
 62
     7
 66
     1
 10
0.0
 20
0.0
 30
0.0
 70
   128
  0
VERTEX
  5
136
  8
0
  6
CONTINUOUS
 62
     7
 10
204.4420192956
 20
272.4638439724
 30
0.0
  0
VERTEX
  5
137
  8
0
  6
CONTINUOUS
 62
     7
 10
204.270520677
 20
269.4684167446
 30
0.0
  0
VERTEX
  5
138
  8
0
  6
CONTINUOUS
 62
     7
 10
204.1146515942
 20
260.7771356884
 30
0.0
  0
SEQEND
  5
1B4
  8
0
  6
CONTINUOUS
 62
     7
  0
POLYLINE
  5
C8
  8
0
  6
CONTINUOUS
 62
     7
 66
     1
 10
0.0
 20
0.0
 30
0.0
 70
   128
  0
VERTEX
  5
139
  8
0
  6
CONTINUOUS
 62
     7
 10
171.686156587
 20
260.7771356884
 30
0.0
  0
VERTEX
  5
13A
  8
0
  6
CONTINUOUS
 62
     7
 10
171.6660032657
 20
263.7770712888
 30
0.0
  0
VERTEX
  5
13B
  8
0
  6
CONTINUOUS
 62
     7
 10
171.3587888856
 20
272.4638439724
 30
0.0
  0
SEQEND
  5
1B5
  8
0
  6
CONTINUOUS
 62
     7
  0
LINE
  5
C9
  8
0
  6
CONTINUOUS
 62
     7
 10
171.8858199548
 20
222.644589827
 30
0.0
 11
171.686156587
 21
260.7771356884
 31
0.0
  0
LINE
  5
CA
  8
0
  6
CONTINUOUS
 62
     7
 10
204.1146515942
 20
260.7771356884
 30
0.0
 11
203.9149882263
 21
222.644589827
 31
0.0
  0
LINE
  5
CB
  8
0
  6
CONTINUOUS
 62
     7
 10
187.9004040906
 20
219.8592505257
 30
0.0
 11
174.6857815731
 21
219.8592505257
 31
0.0
  0
LINE
  5
CC
  8
0
  6
CONTINUOUS
 62
     7
 10
201.1150266081
 20
219.8592505257
 30
0.0
 11
187.9004040906
 21
219.8592505257
 31
0.0
  0
ARC
  5
CD
  8
0
  6
CONTINUOUS
 62
     7
 10
187.9004040906
 20
309.8592505257
 30
0.0
 40
25.0
 50
339.9505790809
 51
90.0
  0
ARC
  5
CE
  8
0
  6
CONTINUOUS
 62
     7
 10
187.9004040906
 20
309.8592505257
 30
0.0
 40
25.0
 50
90.0
 51
200.0494209191
  0
CIRCLE
  5
CF
  8
0
  6
CONTINUOUS
 62
     7
 10
187.9004040906
 20
295.4409954959
 30
0.0
 40
85.25
  0
CIRCLE
  5
D0
  8
0
  6
CONTINUOUS
 62
     8
 10
187.9004040906
 20
295.4409954959
 30
0.0
 40
85.0077588577324
  0
LINE
  5
D1
  8
0
  6
CONTINUOUS
 62
     7
 10
102.6504040906
 20
167.4956508268
 30
0.0
 11
102.8926452329
 21
158.2448348253
 31
0.0
  0
LINE
  5
D2
  8
0
  6
CONTINUOUS
 62
     7
 10
272.9081629483
 20
158.2448348253
 30
0.0
 11
273.1504040906
 21
167.4956508268
 31
0.0
  0
ARC
  5
D3
  8
0
  6
CONTINUOUS
 62
     7
 10
271.5086426934
 20
158.2814825529
 30
0.0
 40
1.40000000000002
 50
279.653305255
 51
358.5
  0
ARC
  5
D4
  8
0
  6
CONTINUOUS
 62
     7
 10
104.2921654878
 20
158.2814825529
 30
0.0
 40
1.400000000000027
 50
181.5
 51
260.346694745
  0
ARC
  5
D5
  8
0
  6
CONTINUOUS
 62
     7
 10
187.9004040906
 20
649.8215342656
 30
0.0
 40
500.0000000000001
 50
260.346694745
 51
267.1913821231
  0
ARC
  5
D6
  8
0
  6
CONTINUOUS
 62
     7
 10
187.9004040906
 20
649.8215342656
 30
0.0
 40
500.0000000000001
 50
272.8086178769
 51
279.653305255
  0
ARC
  5
D7
  8
0
  6
CONTINUOUS
 62
     7
 10
211.4004040906
 20
79.8596590243
 30
0.0
 40
1.5
 50
270.0
 51
0.0
  0
ARC
  5
D8
  8
0
  6
CONTINUOUS
 62
     7
 10
164.4004040906
 20
79.8596590243
 30
0.0
 40
1.5
 50
180.0
 51
270.0
  0
LINE
  5
D9
  8
0
  6
CONTINUOUS
 62
     7
 10
212.9004040906
 20
79.8596590243
 30
0.0
 11
212.9004040906
 21
109.636668892
 31
0.0
  0
LINE
  5
DA
  8
0
  6
CONTINUOUS
 62
     7
 10
162.9004040906
 20
109.6417971207
 30
0.0
 11
162.9004040906
 21
79.8596590243
 31
0.0
  0
LINE
  5
DB
  8
0
  6
CONTINUOUS
 62
     7
 10
212.4004040906
 20
121.1226317063
 30
0.0
 11
212.4004040906
 21
150.626852193
 31
0.0
  0
LINE
  5
DC
  8
0
  6
CONTINUOUS
 62
     7
 10
163.4004040906
 20
150.6268637456
 30
0.0
 11
163.4004040906
 21
121.1226317063
 31
0.0
  0
ARC
  5
DD
  8
0
  6
CONTINUOUS
 62
     7
 10
187.9004040906
 20
121.1226317063
 30
0.0
 40
24.50000000000001
 50
180.0
 51
207.3065545037
  0
ARC
  5
DE
  8
0
  6
CONTINUOUS
 62
     7
 10
187.9004040906
 20
121.1226317063
 30
0.0
 40
24.50000000000003
 50
332.6725681116
 51
0.0
  0
POLYLINE
  5
DF
  8
0
  6
CONTINUOUS
 62
     7
 66
     1
 10
0.0
 20
0.0
 30
0.0
 70
   128
  0
VERTEX
  5
13C
  8
0
  6
CONTINUOUS
 62
     7
 10
164.4108286296
 20
78.3618238877
 30
0.0
  0
VERTEX
  5
13D
  8
0
  6
CONTINUOUS
 62
     7
 10
169.4917510164
 20
78.2166065182
 30
0.0
  0
VERTEX
  5
13E
  8
0
  6
CONTINUOUS
 62
     7
 10
174.2994007516
 20
78.1121501049
 30
0.0
  0
VERTEX
  5
13F
  8
0
  6
CONTINUOUS
 62
     7
 10
178.3489417377
 20
78.0350932949
 30
0.0
  0
VERTEX
  5
140
  8
0
  6
CONTINUOUS
 62
     7
 10
180.8885886678
 20
77.9975119967
 30
0.0
  0
VERTEX
  5
141
  8
0
  6
CONTINUOUS
 62
     7
 10
183.0017994016
 20
77.974371974
 30
0.0
  0
VERTEX
  5
142
  8
0
  6
CONTINUOUS
 62
     7
 10
184.6885738363
 20
77.9616398954
 30
0.0
  0
VERTEX
  5
143
  8
0
  6
CONTINUOUS
 62
     7
 10
186.1077021468
 20
77.9550510227
 30
0.0
  0
VERTEX
  5
144
  8
0
  6
CONTINUOUS
 62
     7
 10
188.5587885035
 20
77.9526893068
 30
0.0
  0
VERTEX
  5
145
  8
0
  6
CONTINUOUS
 62
     7
 10
191.7432567224
 20
77.9663881865
 30
0.0
  0
VERTEX
  5
146
  8
0
  6
CONTINUOUS
 62
     7
 10
195.6611071095
 20
78.0081175366
 30
0.0
  0
VERTEX
  5
147
  8
0
  6
CONTINUOUS
 62
     7
 10
200.3123399204
 20
78.0878882304
 30
0.0
  0
VERTEX
  5
148
  8
0
  6
CONTINUOUS
 62
     7
 10
205.6969550605
 20
78.2019906538
 30
0.0
  0
VERTEX
  5
149
  8
0
  6
CONTINUOUS
 62
     7
 10
211.3906690746
 20
78.3617195216
 30
0.0
  0
SEQEND
  5
1B6
  8
0
  6
CONTINUOUS
 62
     7
  0
POLYLINE
  5
E0
  8
0
  6
CONTINUOUS
 62
     7
 66
     1
 10
0.0
 20
0.0
 30
0.0
 70
   128
  0
VERTEX
  5
14A
  8
0
  6
CONTINUOUS
 62
     7
 10
212.8825247589
 20
109.7112096997
 30
0.0
  0
VERTEX
  5
14B
  8
0
  6
CONTINUOUS
 62
     7
 10
212.8535967069
 20
109.9355704614
 30
0.0
  0
VERTEX
  5
14C
  8
0
  6
CONTINUOUS
 62
     7
 10
212.6514014282
 20
110.1528948522
 30
0.0
  0
VERTEX
  5
14D
  8
0
  6
CONTINUOUS
 62
     7
 10
212.4474843004
 20
110.1778064571
 30
0.0
  0
SEQEND
  5
1B7
  8
0
  6
CONTINUOUS
 62
     7
  0
POLYLINE
  5
E1
  8
0
  6
CONTINUOUS
 62
     7
 66
     1
 10
0.0
 20
0.0
 30
0.0
 70
   128
  0
VERTEX
  5
14E
  8
0
  6
CONTINUOUS
 62
     7
 10
163.3375324567
 20
110.1769310705
 30
0.0
  0
VERTEX
  5
14F
  8
0
  6
CONTINUOUS
 62
     7
 10
163.21880385
 20
110.1789103469
 30
0.0
  0
VERTEX
  5
150
  8
0
  6
CONTINUOUS
 62
     7
 10
162.9799133753
 20
110.0034444687
 30
0.0
  0
VERTEX
  5
151
  8
0
  6
CONTINUOUS
 62
     7
 10
162.902556934
 20
109.721001266
 30
0.0
  0
VERTEX
  5
152
  8
0
  6
CONTINUOUS
 62
     7
 10
162.9168348439
 20
109.5894594012
 30
0.0
  0
SEQEND
  5
1B8
  8
0
  6
CONTINUOUS
 62
     7
  0
LINE
  5
E2
  8
0
  6
CONTINUOUS
 62
     7
 10
273.1504040906
 20
167.4956508268
 30
0.0
 11
102.6504040906
 21
167.4956508268
 31
0.0
  0
POLYLINE
  5
E3
  8
0
  6
CONTINUOUS
 62
     7
 66
     1
 10
0.0
 20
0.0
 30
0.0
 70
   128
  0
VERTEX
  5
153
  8
0
  6
CONTINUOUS
 62
     7
 10
170.6085636717
 20
151.1243627182
 30
0.0
  0
VERTEX
  5
154
  8
0
  6
CONTINUOUS
 62
     7
 10
167.9739037966
 20
151.0354202809
 30
0.0
  0
VERTEX
  5
155
  8
0
  6
CONTINUOUS
 62
     7
 10
165.8374715527
 20
150.9321709596
 30
0.0
  0
VERTEX
  5
156
  8
0
  6
CONTINUOUS
 62
     7
 10
164.3785543439
 20
150.8232923129
 30
0.0
  0
VERTEX
  5
157
  8
0
  6
CONTINUOUS
 62
     7
 10
163.5550288376
 20
150.7056549783
 30
0.0
  0
VERTEX
  5
158
  8
0
  6
CONTINUOUS
 62
     7
 10
163.4745586396
 20
150.6268637456
 30
0.0
  0
SEQEND
  5
1B9
  8
0
  6
CONTINUOUS
 62
     7
  0
POLYLINE
  5
E4
  8
0
  6
CONTINUOUS
 62
     7
 66
     1
 10
0.0
 20
0.0
 30
0.0
 70
   128
  0
VERTEX
  5
159
  8
0
  6
CONTINUOUS
 62
     7
 10
212.3251201858
 20
150.626852193
 30
0.0
  0
VERTEX
  5
15A
  8
0
  6
CONTINUOUS
 62
     7
 10
212.2249423067
 20
150.7107748281
 30
0.0
  0
VERTEX
  5
15B
  8
0
  6
CONTINUOUS
 62
     7
 10
211.4046028725
 20
150.825020085
 30
0.0
  0
VERTEX
  5
15C
  8
0
  6
CONTINUOUS
 62
     7
 10
209.883328991
 20
150.936875891
 30
0.0
  0
VERTEX
  5
15D
  8
0
  6
CONTINUOUS
 62
     7
 10
207.7889923601
 20
151.0369354715
 30
0.0
  0
VERTEX
  5
15E
  8
0
  6
CONTINUOUS
 62
     7
 10
205.0610520533
 20
151.1280825414
 30
0.0
  0
VERTEX
  5
15F
  8
0
  6
CONTINUOUS
 62
     7
 10
201.9296291514
 20
151.2026295057
 30
0.0
  0
VERTEX
  5
160
  8
0
  6
CONTINUOUS
 62
     7
 10
198.3036367649
 20
151.2627447079
 30
0.0
  0
VERTEX
  5
161
  8
0
  6
CONTINUOUS
 62
     7
 10
194.4892567731
 20
151.3033555384
 30
0.0
  0
VERTEX
  5
162
  8
0
  6
CONTINUOUS
 62
     7
 10
190.3751662782
 20
151.3256527953
 30
0.0
  0
VERTEX
  5
163
  8
0
  6
CONTINUOUS
 62
     7
 10
186.3082289555
 20
151.3277617966
 30
0.0
  0
VERTEX
  5
164
  8
0
  6
CONTINUOUS
 62
     7
 10
182.1700299573
 20
151.3097533157
 30
0.0
  0
VERTEX
  5
165
  8
0
  6
CONTINUOUS
 62
     7
 10
178.3083442084
 20
151.2731464729
 30
0.0
  0
VERTEX
  5
166
  8
0
  6
CONTINUOUS
 62
     7
 10
174.6116023781
 20
151.2168936066
 30
0.0
  0
VERTEX
  5
167
  8
0
  6
CONTINUOUS
 62
     7
 10
172.5362798685
 20
151.1739015397
 30
0.0
  0
VERTEX
  5
168
  8
0
  6
CONTINUOUS
 62
     7
 10
170.6085636717
 20
151.1243627182
 30
0.0
  0
SEQEND
  5
1BA
  8
0
  6
CONTINUOUS
 62
     7
  0
LINE
  5
E5
  8
0
  6
CONTINUOUS
 62
     7
 10
187.9004040906
 20
78.3604925892
 30
0.0
 11
211.4491772329
 21
78.3604925892
 31
0.0
  0
LINE
  5
E6
  8
0
  6
CONTINUOUS
 62
     7
 10
164.3516309483
 20
78.3604925892
 30
0.0
 11
187.9004040906
 21
78.3604925892
 31
0.0
  0
LINE
  5
E7
  8
0
  6
CONTINUOUS
 62
     7
 10
212.8710986358
 20
109.673405342
 30
0.0
 11
212.8680915247
 21
109.636668892
 31
0.0
  0
LINE
  5
E8
  8
0
  6
CONTINUOUS
 62
     7
 10
162.9208685846
 20
109.5915906791
 30
0.0
 11
162.9291840671
 21
109.6417971207
 31
0.0
  0
POLYLINE
  5
E9
  8
0
  6
CONTINUOUS
 62
     7
 66
     1
 10
0.0
 20
0.0
 30
0.0
 70
   128
  0
VERTEX
  5
169
  8
0
  6
CONTINUOUS
 62
     7
 10
208.906540284
 20
108.9895032425
 30
0.0
  0
VERTEX
  5
16A
  8
0
  6
CONTINUOUS
 62
     7
 10
207.9496458415
 20
108.2016008667
 30
0.0
  0
VERTEX
  5
16B
  8
0
  6
CONTINUOUS
 62
     7
 10
206.741045111
 20
107.4552569633
 30
0.0
  0
VERTEX
  5
16C
  8
0
  6
CONTINUOUS
 62
     7
 10
205.2959113548
 20
106.7598414354
 30
0.0
  0
VERTEX
  5
16D
  8
0
  6
CONTINUOUS
 62
     7
 10
203.6323873664
 20
106.1240848109
 30
0.0
  0
VERTEX
  5
16E
  8
0
  6
CONTINUOUS
 62
     7
 10
201.7713576985
 20
105.5559686353
 30
0.0
  0
VERTEX
  5
16F
  8
0
  6
CONTINUOUS
 62
     7
 10
199.7361864703
 20
105.062625269
 30
0.0
  0
VERTEX
  5
170
  8
0
  6
CONTINUOUS
 62
     7
 10
197.5524240442
 20
104.6502483441
 30
0.0
  0
VERTEX
  5
171
  8
0
  6
CONTINUOUS
 62
     7
 10
195.2474862567
 20
104.3240150071
 30
0.0
  0
VERTEX
  5
172
  8
0
  6
CONTINUOUS
 62
     7
 10
192.8503102288
 20
104.0880209234
 30
0.0
  0
VERTEX
  5
173
  8
0
  6
CONTINUOUS
 62
     7
 10
190.3909910778
 20
103.945228858
 30
0.0
  0
VERTEX
  5
174
  8
0
  6
CONTINUOUS
 62
     7
 10
187.9004040906
 20
103.8974314803
 30
0.0
  0
VERTEX
  5
175
  8
0
  6
CONTINUOUS
 62
     7
 10
185.4098171034
 20
103.945228858
 30
0.0
  0
VERTEX
  5
176
  8
0
  6
CONTINUOUS
 62
     7
 10
182.9504979524
 20
104.0880209234
 30
0.0
  0
VERTEX
  5
177
  8
0
  6
CONTINUOUS
 62
     7
 10
180.5533219245
 20
104.3240150071
 30
0.0
  0
VERTEX
  5
178
  8
0
  6
CONTINUOUS
 62
     7
 10
178.248384137
 20
104.6502483441
 30
0.0
  0
VERTEX
  5
179
  8
0
  6
CONTINUOUS
 62
     7
 10
176.0646217109
 20
105.062625269
 30
0.0
  0
VERTEX
  5
17A
  8
0
  6
CONTINUOUS
 62
     7
 10
174.0294504826
 20
105.5559686353
 30
0.0
  0
VERTEX
  5
17B
  8
0
  6
CONTINUOUS
 62
     7
 10
172.1684208148
 20
106.1240848109
 30
0.0
  0
VERTEX
  5
17C
  8
0
  6
CONTINUOUS
 62
     7
 10
170.5048968264
 20
106.7598414354
 30
0.0
  0
VERTEX
  5
17D
  8
0
  6
CONTINUOUS
 62
     7
 10
169.0597630702
 20
107.4552569633
 30
0.0
  0
VERTEX
  5
17E
  8
0
  6
CONTINUOUS
 62
     7
 10
167.8511623396
 20
108.2016008667
 30
0.0
  0
VERTEX
  5
17F
  8
0
  6
CONTINUOUS
 62
     7
 10
166.8942678971
 20
108.9895032425
 30
0.0
  0
SEQEND
  5
1BB
  8
0
  6
CONTINUOUS
 62
     7
  0
POLYLINE
  5
EA
  8
0
  6
CONTINUOUS
 62
     7
 66
     1
 10
0.0
 20
0.0
 30
0.0
 70
   128
  0
VERTEX
  5
180
  8
0
  6
CONTINUOUS
 62
     7
 10
166.8942678971
 20
108.9895032425
 30
0.0
  0
VERTEX
  5
181
  8
0
  6
CONTINUOUS
 62
     7
 10
166.3677589896
 20
109.5498754412
 30
0.0
  0
VERTEX
  5
182
  8
0
  6
CONTINUOUS
 62
     7
 10
166.1400581803
 20
109.8893718082
 30
0.0
  0
SEQEND
  5
1BC
  8
0
  6
CONTINUOUS
 62
     7
  0
POLYLINE
  5
EB
  8
0
  6
CONTINUOUS
 62
     7
 66
     1
 10
0.0
 20
0.0
 30
0.0
 70
   128
  0
VERTEX
  5
183
  8
0
  6
CONTINUOUS
 62
     7
 10
209.6523279271
 20
109.8834370688
 30
0.0
  0
VERTEX
  5
184
  8
0
  6
CONTINUOUS
 62
     7
 10
209.6238210122
 20
109.805775978
 30
0.0
  0
VERTEX
  5
185
  8
0
  6
CONTINUOUS
 62
     7
 10
208.906540284
 20
108.9895032425
 30
0.0
  0
SEQEND
  5
1BD
  8
0
  6
CONTINUOUS
 62
     7
  0
LINE
  5
EC
  8
0
  6
CONTINUOUS
 62
     7
 10
163.3524200929
 20
110.1956508268
 30
0.0
 11
165.9720870357
 21
110.1956508268
 31
0.0
  0
LINE
  5
ED
  8
0
  6
CONTINUOUS
 62
     7
 10
209.8287211455
 20
110.1956508268
 30
0.0
 11
212.4483880883
 21
110.1956508268
 31
0.0
  0
LINE
  5
EE
  8
0
  6
CONTINUOUS
 62
     8
 10
271.7434030906
 20
156.9013059135
 30
0.0
 11
104.0574050906
 21
156.9013059135
 31
0.0
  0
POLYLINE
  5
EF
  8
0
  6
CONTINUOUS
 62
     8
 66
     1
 10
0.0
 20
0.0
 30
0.0
 70
   128
  0
VERTEX
  5
186
  8
0
  6
CONTINUOUS
 62
     8
 10
212.685408069
 20
108.8015647184
 30
0.0
  0
VERTEX
  5
187
  8
0
  6
CONTINUOUS
 62
     8
 10
212.218682783
 20
107.889257597
 30
0.0
  0
VERTEX
  5
188
  8
0
  6
CONTINUOUS
 62
     8
 10
211.4950656282
 20
106.9990662657
 30
0.0
  0
VERTEX
  5
189
  8
0
  6
CONTINUOUS
 62
     8
 10
210.5222007049
 20
106.1403944702
 30
0.0
  0
VERTEX
  5
18A
  8
0
  6
CONTINUOUS
 62
     8
 10
209.3103651012
 20
105.3223129925
 30
0.0
  0
VERTEX
  5
18B
  8
0
  6
CONTINUOUS
 62
     8
 10
207.8723603279
 20
104.5534638291
 30
0.0
  0
VERTEX
  5
18C
  8
0
  6
CONTINUOUS
 62
     8
 10
206.2233770876
 20
103.8419688994
 30
0.0
  0
VERTEX
  5
18D
  8
0
  6
CONTINUOUS
 62
     8
 10
204.3808348033
 20
103.1953442478
 30
0.0
  0
VERTEX
  5
18E
  8
0
  6
CONTINUOUS
 62
     8
 10
202.3641976047
 20
102.6204206462
 30
0.0
  0
VERTEX
  5
18F
  8
0
  6
CONTINUOUS
 62
     8
 10
200.1947687142
 20
102.1232714355
 30
0.0
  0
VERTEX
  5
190
  8
0
  6
CONTINUOUS
 62
     8
 10
197.8954654052
 20
101.7091483686
 30
0.0
  0
VERTEX
  5
191
  8
0
  6
CONTINUOUS
 62
     8
 10
195.4905769102
 20
101.3824261321
 30
0.0
  0
VERTEX
  5
192
  8
0
  6
CONTINUOUS
 62
     8
 10
193.0055078356
 20
101.1465561335
 30
0.0
  0
VERTEX
  5
193
  8
0
  6
CONTINUOUS
 62
     8
 10
190.4665097943
 20
101.0040300409
 30
0.0
  0
VERTEX
  5
194
  8
0
  6
CONTINUOUS
 62
     8
 10
187.9004040906
 20
100.9563534625
 30
0.0
  0
SEQEND
  5
1BE
  8
0
  6
CONTINUOUS
 62
     8
  0
POLYLINE
  5
F0
  8
0
  6
CONTINUOUS
 62
     8
 66
     1
 10
0.0
 20
0.0
 30
0.0
 70
   128
  0
VERTEX
  5
195
  8
0
  6
CONTINUOUS
 62
     8
 10
212.8680915247
 20
109.636668892
 30
0.0
  0
VERTEX
  5
196
  8
0
  6
CONTINUOUS
 62
     8
 10
212.8392299768
 20
109.284081054
 30
0.0
  0
VERTEX
  5
197
  8
0
  6
CONTINUOUS
 62
     8
 10
212.685408069
 20
108.8015647184
 30
0.0
  0
SEQEND
  5
1BF
  8
0
  6
CONTINUOUS
 62
     8
  0
POLYLINE
  5
F1
  8
0
  6
CONTINUOUS
 62
     8
 66
     1
 10
0.0
 20
0.0
 30
0.0
 70
   128
  0
VERTEX
  5
198
  8
0
  6
CONTINUOUS
 62
     8
 10
187.9004040906
 20
100.9563534625
 30
0.0
  0
VERTEX
  5
199
  8
0
  6
CONTINUOUS
 62
     8
 10
185.3342983869
 20
101.0040300409
 30
0.0
  0
VERTEX
  5
19A
  8
0
  6
CONTINUOUS
 62
     8
 10
182.7953003456
 20
101.1465561335
 30
0.0
  0
VERTEX
  5
19B
  8
0
  6
CONTINUOUS
 62
     8
 10
180.310231271
 20
101.3824261321
 30
0.0
  0
VERTEX
  5
19C
  8
0
  6
CONTINUOUS
 62
     8
 10
177.905342776
 20
101.7091483686
 30
0.0
  0
VERTEX
  5
19D
  8
0
  6
CONTINUOUS
 62
     8
 10
175.606039467
 20
102.1232714355
 30
0.0
  0
VERTEX
  5
19E
  8
0
  6
CONTINUOUS
 62
     8
 10
173.4366105765
 20
102.6204206462
 30
0.0
  0
VERTEX
  5
19F
  8
0
  6
CONTINUOUS
 62
     8
 10
171.4199733779
 20
103.1953442478
 30
0.0
  0
VERTEX
  5
1A0
  8
0
  6
CONTINUOUS
 62
     8
 10
169.5774310936
 20
103.8419688994
 30
0.0
  0
VERTEX
  5
1A1
  8
0
  6
CONTINUOUS
 62
     8
 10
167.9284478533
 20
104.5534638291
 30
0.0
  0
VERTEX
  5
1A2
  8
0
  6
CONTINUOUS
 62
     8
 10
166.49044308
 20
105.3223129925
 30
0.0
  0
VERTEX
  5
1A3
  8
0
  6
CONTINUOUS
 62
     8
 10
165.2786074763
 20
106.1403944702
 30
0.0
  0
VERTEX
  5
1A4
  8
0
  6
CONTINUOUS
 62
     8
 10
164.305742553
 20
106.9990662657
 30
0.0
  0
VERTEX
  5
1A5
  8
0
  6
CONTINUOUS
 62
     8
 10
163.5821253982
 20
107.889257597
 30
0.0
  0
VERTEX
  5
1A6
  8
0
  6
CONTINUOUS
 62
     8
 10
163.1154001121
 20
108.8015647184
 30
0.0
  0
SEQEND
  5
1C0
  8
0
  6
CONTINUOUS
 62
     8
  0
POLYLINE
  5
F2
  8
0
  6
CONTINUOUS
 62
     8
 66
     1
 10
0.0
 20
0.0
 30
0.0
 70
   128
  0
VERTEX
  5
1A7
  8
0
  6
CONTINUOUS
 62
     8
 10
163.1154001121
 20
108.8015647184
 30
0.0
  0
VERTEX
  5
1A8
  8
0
  6
CONTINUOUS
 62
     8
 10
162.9111829595
 20
109.5331117187
 30
0.0
  0
VERTEX
  5
1A9
  8
0
  6
CONTINUOUS
 62
     8
 10
162.9208685846
 20
109.5915906791
 30
0.0
  0
SEQEND
  5
1C1
  8
0
  6
CONTINUOUS
 62
     8
  0
LINE
  5
F3
  8
0
  6
CONTINUOUS
 62
     8
 10
212.4004040906
 20
121.1226317063
 30
0.0
 11
163.4004040906
 21
121.1226317063
 31
0.0
  0
ENDSEC
  0
EOF
