  0
SECTION
  2
HEADER
  9
$ACADVER
  1
AC1015
  9
$ACADMAINTVER
 70
     6
  9
$DWGCODEPAGE
  3
ANSI_1252
  9
$INSBASE
 10
0.0
 20
0.0
 30
0.0
  9
$EXTMIN
 10
0.0
 20
0.0
 30
0.0
  9
$EXTMAX
 10
594.0
 20
841.0
 30
0.0
  9
$LIMMIN
 10
0.0
 20
0.0
  9
$LIMMAX
 10
594.0
 20
841.0
  9
$ORTHOMODE
 70
     0
  9
$REGENMODE
 70
     1
  9
$FILLMODE
 70
     1
  9
$QTEXTMODE
 70
     0
  9
$MIRRTEXT
 70
     1
  9
$LTSCALE
 40
1.0
  9
$ATTMODE
 70
     1
  9
$TEXTSIZE
 40
10.0
  9
$TRACEWID
 40
1.0
  9
$TEXTSTYLE
  7
Standard
  9
$CLAYER
  8
0
  9
$CELTYPE
  6
ByLayer
  9
$CECOLOR
 62
   256
  9
$CELTSCALE
 40
1.0
  9
$DISPSILH
 70
     0
  9
$DIMSCALE
 40
1.0
  9
$DIMASZ
 40
2.5
  9
$DIMEXO
 40
0.0
  9
$DIMDLI
 40
3.75
  9
$DIMRND
 40
0.0
  9
$DIMDLE
 40
0.0
  9
$DIMEXE
 40
1.0
  9
$DIMTP
 40
0.0
  9
$DIMTM
 40
0.0
  9
$DIMTXT
 40
3.5
  9
$DIMCEN
 40
2.5
  9
$DIMTSZ
 40
0.0
  9
$DIMTOL
 70
     0
  9
$DIMLIM
 70
     0
  9
$DIMTIH
 70
     1
  9
$DIMTOH
 70
     1
  9
$DIMSE1
 70
     0
  9
$DIMSE2
 70
     0
  9
$DIMTAD
 70
     1
  9
$DIMZIN
 70
     0
  9
$DIMBLK
  1

  9
$DIMASO
 70
     1
  9
$DIMSHO
 70
     1
  9
$DIMPOST
  1

  9
$DIMAPOST
  1

  9
$DIMALT
 70
     0
  9
$DIMALTD
 70
     3
  9
$DIMALTF
 40
0.0393700787
  9
$DIMLFAC
 40
1.0
  9
$DIMTOFL
 70
     1
  9
$DIMTVP
 40
0.0
  9
$DIMTIX
 70
     0
  9
$DIMSOXD
 70
     0
  9
$DIMSAH
 70
     0
  9
$DIMBLK1
  1

  9
$DIMBLK2
  1

  9
$DIMSTYLE
  2
ISO-25
  9
$DIMCLRD
 70
     0
  9
$DIMCLRE
 70
     0
  9
$DIMCLRT
 70
     0
  9
$DIMTFAC
 40
1.0
  9
$DIMGAP
 40
1.5
  9
$DIMJUST
 70
     0
  9
$DIMSD1
 70
     0
  9
$DIMSD2
 70
     0
  9
$DIMTOLJ
 70
     0
  9
$DIMTZIN
 70
     0
  9
$DIMALTZ
 70
     0
  9
$DIMALTTZ
 70
     0
  9
$DIMUPT
 70
     0
  9
$DIMDEC
 70
     2
  9
$DIMTDEC
 70
     2
  9
$DIMALTU
 70
     2
  9
$DIMALTTD
 70
     3
  9
$DIMTXSTY
  7
Standard
  9
$DIMAUNIT
 70
     0
  9
$DIMADEC
 70
     2
  9
$DIMALTRND
 40
0.0
  9
$DIMAZIN
 70
     0
  9
$DIMDSEP
 70
    44
  9
$DIMATFIT
 70
     3
  9
$DIMFRAC
 70
     0
  9
$DIMLDRBLK
  1

  9
$DIMLUNIT
 70
     2
  9
$DIMLWD
 70
    -2
  9
$DIMLWE
 70
    -2
  9
$DIMTMOVE
 70
     0
  9
$LUNITS
 70
     2
  9
$LUPREC
 70
     2
  9
$SKETCHINC
 40
1.0
  9
$FILLETRAD
 40
10.0
  9
$AUNITS
 70
     0
  9
$AUPREC
 70
     2
  9
$MENU
  1
.
  9
$ELEVATION
 40
0.0
  9
$PELEVATION
 40
0.0
  9
$THICKNESS
 40
0.0
  9
$LIMCHECK
 70
     0
  9
$CHAMFERA
 40
0.0
  9
$CHAMFERB
 40
0.0
  9
$CHAMFERC
 40
0.0
  9
$CHAMFERD
 40
0.0
  9
$SKPOLY
 70
     0
  9
$TDCREATE
 40
2459074.473827234
  9
$TDUCREATE
 40
2459074.390493901
  9
$TDUPDATE
 40
2459074.473827952
  9
$TDUUPDATE
 40
2459074.390494618
  9
$TDINDWG
 40
0.0000000116
  9
$TDUSRTIMER
 40
0.0000000116
  9
$USRTIMER
 70
     1
  9
$ANGBASE
 50
0.0
  9
$ANGDIR
 70
     0
  9
$PDMODE
 70
     0
  9
$PDSIZE
 40
-1.0
  9
$PLINEWID
 40
0.0
  9
$SPLFRAME
 70
     0
  9
$SPLINETYPE
 70
     6
  9
$SPLINESEGS
 70
     8
  9
$HANDSEED
  5
10B
  9
$SURFTAB1
 70
     6
  9
$SURFTAB2
 70
     6
  9
$SURFTYPE
 70
     6
  9
$SURFU
 70
     6
  9
$SURFV
 70
     6
  9
$UCSBASE
  2

  9
$UCSNAME
  2

  9
$UCSORG
 10
0.0
 20
0.0
 30
0.0
  9
$UCSXDIR
 10
1.0
 20
0.0
 30
0.0
  9
$UCSYDIR
 10
0.0
 20
1.0
 30
0.0
  9
$UCSORTHOREF
  2

  9
$UCSORTHOVIEW
 70
     0
  9
$UCSORGTOP
 10
0.0
 20
0.0
 30
0.0
  9
$UCSORGBOTTOM
 10
0.0
 20
0.0
 30
0.0
  9
$UCSORGLEFT
 10
0.0
 20
0.0
 30
0.0
  9
$UCSORGRIGHT
 10
0.0
 20
0.0
 30
0.0
  9
$UCSORGFRONT
 10
0.0
 20
0.0
 30
0.0
  9
$UCSORGBACK
 10
0.0
 20
0.0
 30
0.0
  9
$PUCSBASE
  2

  9
$PUCSNAME
  2

  9
$PUCSORG
 10
0.0
 20
0.0
 30
0.0
  9
$PUCSXDIR
 10
1.0
 20
0.0
 30
0.0
  9
$PUCSYDIR
 10
0.0
 20
1.0
 30
0.0
  9
$PUCSORTHOREF
  2

  9
$PUCSORTHOVIEW
 70
     0
  9
$PUCSORGTOP
 10
0.0
 20
0.0
 30
0.0
  9
$PUCSORGBOTTOM
 10
0.0
 20
0.0
 30
0.0
  9
$PUCSORGLEFT
 10
0.0
 20
0.0
 30
0.0
  9
$PUCSORGRIGHT
 10
0.0
 20
0.0
 30
0.0
  9
$PUCSORGFRONT
 10
0.0
 20
0.0
 30
0.0
  9
$PUCSORGBACK
 10
0.0
 20
0.0
 30
0.0
  9
$USERI1
 70
     0
  9
$USERI2
 70
     0
  9
$USERI3
 70
     0
  9
$USERI4
 70
     0
  9
$USERI5
 70
     0
  9
$USERR1
 40
0.0
  9
$USERR2
 40
0.0
  9
$USERR3
 40
0.0
  9
$USERR4
 40
0.0
  9
$USERR5
 40
0.0
  9
$WORLDVIEW
 70
     1
  9
$SHADEDGE
 70
     3
  9
$SHADEDIF
 70
    70
  9
$TILEMODE
 70
     1
  9
$MAXACTVP
 70
    64
  9
$PINSBASE
 10
0.0
 20
0.0
 30
0.0
  9
$PLIMCHECK
 70
     0
  9
$PEXTMIN
 10
1.0000000000E+20
 20
1.0000000000E+20
 30
1.0000000000E+20
  9
$PEXTMAX
 10
-1.0000000000E+20
 20
-1.0000000000E+20
 30
-1.0000000000E+20
  9
$PLIMMIN
 10
0.0
 20
0.0
  9
$PLIMMAX
 10
420.0
 20
297.0
  9
$UNITMODE
 70
     0
  9
$VISRETAIN
 70
     1
  9
$PLINEGEN
 70
     0
  9
$PSLTSCALE
 70
     1
  9
$TREEDEPTH
 70
  3020
  9
$CMLSTYLE
  2
Standard
  9
$CMLJUST
 70
     0
  9
$CMLSCALE
 40
20.0
  9
$PROXYGRAPHICS
 70
     1
  9
$MEASUREMENT
 70
     1
  9
$CELWEIGHT
370
    -1
  9
$ENDCAPS
280
     0
  9
$JOINSTYLE
280
     0
  9
$LWDISPLAY
290
     1
  9
$INSUNITS
 70
     4
  9
$HYPERLINKBASE
  1

  9
$STYLESHEET
  1

  9
$XEDIT
290
     1
  9
$CEPSNTYPE
380
     0
  9
$PSTYLEMODE
290
     1
  9
$FINGERPRINTGUID
  2
{bbede2fd-8cac-4beb-a037-38271081e458}
  9
$VERSIONGUID
  2
{FAEB1C32-E019-11D5-929B-00C0DF256EC4}
  9
$EXTNAMES
290
     1
  9
$PSVPSCALE
 40
0.0
  9
$OLESTARTUP
290
     0
  0
ENDSEC
  0
SECTION
  2
CLASSES
  0
CLASS
  1
ACDBDICTIONARYWDFLT
  2
AcDbDictionaryWithDefault
  3
ObjectDBX Classes
 90
        0
280
     0
281
     0
  0
CLASS
  1
VISUALSTYLE
  2
AcDbVisualStyle
  3
ObjectDBX Classes
 90
     4095
280
     0
281
     0
  0
CLASS
  1
MATERIAL
  2
AcDbMaterial
  3
ObjectDBX Classes
 90
     1153
280
     0
281
     0
  0
CLASS
  1
SCALE
  2
AcDbScale
  3
ObjectDBX Classes
 90
     1153
280
     0
281
     0
  0
CLASS
  1
TABLESTYLE
  2
AcDbTableStyle
  3
ObjectDBX Classes
 90
     4095
280
     0
281
     0
  0
CLASS
  1
MLEADERSTYLE
  2
AcDbMLeaderStyle
  3
ACDB_MLEADERSTYLE_CLASS
 90
     4095
280
     0
281
     0
  0
CLASS
  1
SUN
  2
AcDbSun
  3
SCENEOE
 90
     1153
280
     0
281
     0
  0
CLASS
  1
ACDBPLACEHOLDER
  2
AcDbPlaceHolder
  3
ObjectDBX Classes
 90
        0
280
     0
281
     0
  0
CLASS
  1
LAYOUT
  2
AcDbLayout
  3
ObjectDBX Classes
 90
        0
280
     0
281
     0
  0
ENDSEC
  0
SECTION
  2
TABLES
  0
TABLE
  2
VPORT
  5
8
330
0
100
AcDbSymbolTable
 70
     1
  0
VPORT
  5
29
330
8
100
AcDbSymbolTableRecord
100
AcDbViewportTableRecord
  2
*Active
 70
     0
 10
0.0
 20
0.0
 11
1.0
 21
1.0
 12
297.0
 22
420.5
 13
0.0
 23
0.0
 14
10.0
 24
10.0
 15
10.0
 25
10.0
 16
0.0
 26
0.0
 36
1.0
 17
0.0
 27
0.0
 37
0.0
 40
841.0
 41
0.7063020214
 42
50.0
 43
0.0
 44
0.0
 50
0.0
 51
0.0
 71
     0
 72
  2000
 73
     1
 74
     3
 75
     0
 76
     0
 77
     0
 78
     0
281
     0
 65
     1
110
0.0
120
0.0
130
0.0
111
1.0
121
0.0
131
0.0
112
0.0
122
1.0
132
0.0
 79
     0
146
0.0
  0
ENDTAB
  0
TABLE
  2
LTYPE
  5
5
330
0
100
AcDbSymbolTable
 70
     6
  0
LTYPE
  5
14
330
5
100
AcDbSymbolTableRecord
100
AcDbLinetypeTableRecord
  2
ByBlock
 70
     0
  3

 72
    65
 73
     0
 40
0.0
  0
LTYPE
  5
15
330
5
100
AcDbSymbolTableRecord
100
AcDbLinetypeTableRecord
  2
ByLayer
 70
     0
  3

 72
    65
 73
     0
 40
0.0
  0
LTYPE
  5
16
330
5
100
AcDbSymbolTableRecord
100
AcDbLinetypeTableRecord
  2
Continuous
 70
     0
  3
Solid line
 72
    65
 73
     0
 40
0.0
  0
LTYPE
  5
6E
330
5
100
AcDbSymbolTableRecord
100
AcDbLinetypeTableRecord
  2
HIDDEN
 70
     0
  3
Hidden __ __ __ __ __ __ __ __ __ __ __ __ __ __
 72
    65
 73
     2
 40
1.905
 49
1.27
 74
     0
 49
-0.635
 74
     0
  0
LTYPE
  5
6F
330
5
100
AcDbSymbolTableRecord
100
AcDbLinetypeTableRecord
  2
PHANTOM
 70
     0
  3
Phantom ______  __  __  ______  __  __  ______
 72
    65
 73
     6
 40
12.7
 49
6.35
 74
     0
 49
-1.27
 74
     0
 49
1.27
 74
     0
 49
-1.27
 74
     0
 49
1.27
 74
     0
 49
-1.27
 74
     0
  0
LTYPE
  5
70
330
5
100
AcDbSymbolTableRecord
100
AcDbLinetypeTableRecord
  2
CENTER
 70
     0
  3
Center ____ _ ____ _ ____ _ ____ _ ____ _ ____
 72
    65
 73
     4
 40
10.16
 49
6.35
 74
     0
 49
-1.27
 74
     0
 49
1.27
 74
     0
 49
-1.27
 74
     0
  0
LTYPE
  5
71
330
5
100
AcDbSymbolTableRecord
100
AcDbLinetypeTableRecord
  2
CENTERX2
 70
     0
  3
Center (2x) ________  __  ________  __  _____
 72
    65
 73
     4
 40
20.32
 49
12.7
 74
     0
 49
-2.54
 74
     0
 49
2.54
 74
     0
 49
-2.54
 74
     0
  0
LTYPE
  5
72
330
5
100
AcDbSymbolTableRecord
100
AcDbLinetypeTableRecord
  2
DOT2
 70
     0
  3
Dot (.5x) ........................................
 72
    65
 73
     2
 40
0.635
 49
0.0
 74
     0
 49
-0.635
 74
     0
  0
ENDTAB
  0
TABLE
  2
LAYER
  5
2
330
0
100
AcDbSymbolTable
 70
     1
  0
LAYER
  5
10
330
2
100
AcDbSymbolTableRecord
100
AcDbLayerTableRecord
  2
0
 70
     0
 62
     7
  6
Continuous
370
    -3
390
F
  0
ENDTAB
  0
TABLE
  2
STYLE
  5
3
330
0
100
AcDbSymbolTable
 70
     3
  0
STYLE
  5
11
330
3
100
AcDbSymbolTableRecord
100
AcDbTextStyleTableRecord
  2
Standard
 70
     0
 40
0.0
 41
1.0
 50
0.0
 71
     0
 42
10.0
  3
txt
  4

  0
STYLE
  5
76
330
3
100
AcDbSymbolTableRecord
100
AcDbTextStyleTableRecord
  2
SLDTEXTSTYLE0
 70
     0
 40
0.0
 41
0.96
 50
0.0
 71
     0
 42
10.0
  3
ISOCP3
  4

  0
STYLE
  5
8D
330
3
100
AcDbSymbolTableRecord
100
AcDbTextStyleTableRecord
  2
SLDTEXTSTYLE1
 70
     0
 40
0.0
 41
0.605
 50
0.0
 71
     0
 42
10.0
  3
TXT
  4

  0
ENDTAB
  0
TABLE
  2
VIEW
  5
6
330
0
100
AcDbSymbolTable
 70
     0
  0
ENDTAB
  0
TABLE
  2
UCS
  5
7
330
0
100
AcDbSymbolTable
 70
     0
  0
ENDTAB
  0
TABLE
  2
APPID
  5
9
330
0
100
AcDbSymbolTable
 70
     1
  0
APPID
  5
12
330
9
100
AcDbSymbolTableRecord
100
AcDbRegAppTableRecord
  2
ACAD
 70
     0
  0
ENDTAB
  0
TABLE
  2
DIMSTYLE
  5
A
330
0
100
AcDbSymbolTable
 70
     2
100
AcDbDimStyleTable
  0
DIMSTYLE
105
27
330
A
100
AcDbSymbolTableRecord
100
AcDbDimStyleTableRecord
  2
ISO-25
 70
     0
 41
2.5
 42
0.625
 43
3.75
 44
1.25
 73
     0
 74
     0
 77
     1
 78
     8
140
2.5
141
2.5
143
0.0393700787
147
0.625
171
     3
172
     1
178
     0
271
     2
272
     2
274
     3
278
    44
283
     0
284
     8
340
11
  0
DIMSTYLE
105
77
102
{ACAD_REACTORS
330
75
330
82
102
}
330
A
100
AcDbSymbolTableRecord
100
AcDbDimStyleTableRecord
  2
SLDDIMSTYLE0
 70
     0
 41
2.5
 44
0.0
 45
0.000000001
 73
     0
 74
     0
 77
     1
 78
    12
 79
     3
140
6.0
147
1.5
173
     1
178
     0
271
     2
272
     2
276
     2
284
    12
340
76
  0
ENDTAB
  0
TABLE
  2
BLOCK_RECORD
  5
1
330
0
100
AcDbSymbolTable
 70
     3
  0
BLOCK_RECORD
  5
1F
330
1
100
AcDbSymbolTableRecord
100
AcDbBlockTableRecord
  2
*Model_Space
340
22
  0
BLOCK_RECORD
  5
1B
330
1
100
AcDbSymbolTableRecord
100
AcDbBlockTableRecord
  2
*Paper_Space
340
1E
  0
BLOCK_RECORD
  5
23
330
1
100
AcDbSymbolTableRecord
100
AcDbBlockTableRecord
  2
*Paper_Space0
340
26
  0
BLOCK_RECORD
  5
78
330
1
100
AcDbSymbolTableRecord
100
AcDbBlockTableRecord
  2
_D
340
0
  0
BLOCK_RECORD
  5
83
330
1
100
AcDbSymbolTableRecord
100
AcDbBlockTableRecord
  2
_D_1
340
0
  0
ENDTAB
  0
ENDSEC
  0
SECTION
  2
BLOCKS
  0
BLOCK
  5
20
330
1F
100
AcDbEntity
  8
0
100
AcDbBlockBegin
  2
*Model_Space
 70
     0
 10
0.0
 20
0.0
 30
0.0
  3
*Model_Space
  1

  0
ENDBLK
  5
21
330
1F
100
AcDbEntity
  8
0
100
AcDbBlockEnd
  0
BLOCK
  5
1C
330
1B
100
AcDbEntity
 67
     1
  8
0
100
AcDbBlockBegin
  2
*Paper_Space
 70
     0
 10
0.0
 20
0.0
 30
0.0
  3
*Paper_Space
  1

  0
ENDBLK
  5
1D
330
1B
100
AcDbEntity
 67
     1
  8
0
100
AcDbBlockEnd
  0
BLOCK
  5
24
330
23
100
AcDbEntity
  8
0
100
AcDbBlockBegin
  2
*Paper_Space0
 70
     0
 10
0.0
 20
0.0
 30
0.0
  3
*Paper_Space0
  1

  0
ENDBLK
  5
25
330
23
100
AcDbEntity
  8
0
100
AcDbBlockEnd
  0
BLOCK
  5
79
330
78
100
AcDbEntity
  8
0
100
AcDbBlockBegin
  2
_D
 70
     0
 10
0.0
 20
0.0
 30
0.0
  3
_D
  1

  0
SOLID
  5
7B
330
78
100
AcDbEntity
  8
0
  6
Continuous
 62
     7
370
    18
100
AcDbTrace
 10
42.7614395004
 20
152.0299240879
 30
0.0
 11
42.4614395004
 21
149.5299240879
 31
0.0
 12
43.0614395004
 22
149.5299240879
 32
0.0
 13
43.0614395004
 23
149.5299240879
 33
0.0
  0
SOLID
  5
7C
330
78
100
AcDbEntity
  8
0
  6
Continuous
 62
     7
370
    18
100
AcDbTrace
 10
42.7614395004
 20
52.0299240879
 30
0.0
 11
43.0614395004
 21
54.5299240879
 31
0.0
 12
42.4614395004
 22
54.5299240879
 32
0.0
 13
42.4614395004
 23
54.5299240879
 33
0.0
  0
LINE
  5
7D
330
78
100
AcDbEntity
  8
0
  6
Continuous
 62
     7
370
     0
100
AcDbLine
 10
56.6850079902
 20
152.0299240879
 30
0.0
 11
41.7614395004
 21
152.0299240879
 31
0.0
  0
LINE
  5
7E
330
78
100
AcDbEntity
  8
0
  6
Continuous
 62
     7
370
     0
100
AcDbLine
 10
56.6850079902
 20
52.0299240879
 30
0.0
 11
41.7614395004
 21
52.0299240879
 31
0.0
  0
LINE
  5
7F
330
78
100
AcDbEntity
  8
0
  6
Continuous
 62
     7
370
     0
100
AcDbLine
 10
42.7614395004
 20
152.0299240879
 30
0.0
 11
42.7614395004
 21
52.0299240879
 31
0.0
  0
MTEXT
  5
80
330
78
100
AcDbEntity
  8
0
  6
Continuous
 62
     7
370
    18
100
AcDbMText
 10
35.0270332946
 20
94.3680541463
 30
0.0
 40
6.0
 41
0.0
 71
     1
 72
     1
  1
100
  7
SLDTEXTSTYLE0
 11
-7.044195017643634E-15
 21
1.0
 31
0.0
 73
     1
 44
1.0
  0
MTEXT
  5
81
330
78
100
AcDbEntity
  8
0
  6
Continuous
 62
     7
370
    18
100
AcDbMText
 10
35.0270332946
 20
105.7430548466
 30
0.0
 40
6.0
 41
0.0
 71
     1
 72
     1
  1
mm
  7
SLDTEXTSTYLE0
 11
-7.044195017643634E-15
 21
1.0
 31
0.0
 73
     1
 44
1.0
  0
ENDBLK
  5
7A
330
78
100
AcDbEntity
  8
0
100
AcDbBlockEnd
  0
BLOCK
  5
84
330
83
100
AcDbEntity
  8
0
100
AcDbBlockBegin
  2
_D_1
 70
     0
 10
0.0
 20
0.0
 30
0.0
  3
_D_1
  1

  0
SOLID
  5
86
330
83
100
AcDbEntity
  8
0
  6
Continuous
 62
     7
370
    18
100
AcDbTrace
 10
56.6850079902
 20
38.4602342313
 30
0.0
 11
59.1850079902
 21
38.1602342313
 31
0.0
 12
59.1850079902
 22
38.7602342313
 32
0.0
 13
59.1850079902
 23
38.7602342313
 33
0.0
  0
SOLID
  5
87
330
83
100
AcDbEntity
  8
0
  6
Continuous
 62
     7
370
    18
100
AcDbTrace
 10
156.6850079902
 20
38.4602342313
 30
0.0
 11
154.1850079902
 21
38.7602342313
 31
0.0
 12
154.1850079902
 22
38.1602342313
 32
0.0
 13
154.1850079902
 23
38.1602342313
 33
0.0
  0
LINE
  5
88
330
83
100
AcDbEntity
  8
0
  6
Continuous
 62
     7
370
     0
100
AcDbLine
 10
56.6850079902
 20
52.0299240879
 30
0.0
 11
56.6850079902
 21
37.4602342313
 31
0.0
  0
LINE
  5
89
330
83
100
AcDbEntity
  8
0
  6
Continuous
 62
     7
370
     0
100
AcDbLine
 10
156.6850079902
 20
52.0299240879
 30
0.0
 11
156.6850079902
 21
37.4602342313
 31
0.0
  0
LINE
  5
8A
330
83
100
AcDbEntity
  8
0
  6
Continuous
 62
     7
370
     0
100
AcDbLine
 10
56.6850079902
 20
38.4602342313
 30
0.0
 11
156.6850079902
 21
38.4602342313
 31
0.0
  0
MTEXT
  5
8B
330
83
100
AcDbEntity
  8
0
  6
Continuous
 62
     7
370
    18
100
AcDbMText
 10
93.9626484861
 20
46.1946404371
 30
0.0
 40
6.0
 41
0.0
 71
     1
 72
     1
  1
100
  7
SLDTEXTSTYLE0
 73
     1
 44
1.0
  0
MTEXT
  5
8C
330
83
100
AcDbEntity
  8
0
  6
Continuous
 62
     7
370
    18
100
AcDbMText
 10
105.3376491864
 20
46.1946404371
 30
0.0
 40
6.0
 41
0.0
 71
     1
 72
     1
  1
mm
  7
SLDTEXTSTYLE0
 73
     1
 44
1.0
  0
ENDBLK
  5
85
330
83
100
AcDbEntity
  8
0
100
AcDbBlockEnd
  0
ENDSEC
  0
SECTION
  2
ENTITIES
  0
LINE
  5
73
330
1F
100
AcDbEntity
  8
0
  6
Continuous
 62
     7
370
    18
100
AcDbLine
 10
56.6850079902
 20
152.0299240879
 30
0.0
 11
56.6850079902
 21
52.0299240879
 31
0.0
  0
LINE
  5
74
330
1F
100
AcDbEntity
  8
0
  6
Continuous
 62
     7
370
    18
100
AcDbLine
 10
56.6850079902
 20
52.0299240879
 30
0.0
 11
156.6850079902
 21
52.0299240879
 31
0.0
  0
DIMENSION
  5
75
330
1F
100
AcDbEntity
  8
0
  6
Continuous
 62
     7
370
    18
100
AcDbDimension
  2
_D
 10
42.7614395004
 20
52.0299240879
 30
0.0
 11
42.7614395004
 21
105.4472211621
 31
0.0
 70
   160
  1
<>mm
 71
     2
 42
-1.0
  3
SLDDIMSTYLE0
100
AcDbAlignedDimension
 13
56.6850079902
 23
152.0299240879
 33
0.0
 14
56.6850079902
 24
52.0299240879
 34
0.0
 50
90.0
100
AcDbRotatedDimension
  0
DIMENSION
  5
82
330
1F
100
AcDbEntity
  8
0
  6
Continuous
 62
     7
370
    18
100
AcDbDimension
  2
_D_1
 10
156.6850079902
 20
38.4602342313
 30
0.0
 11
105.0418155019
 21
38.4602342313
 31
0.0
 70
   160
  1
<>mm
 71
     2
 42
-1.0
  3
SLDDIMSTYLE0
100
AcDbAlignedDimension
 13
56.6850079902
 23
52.0299240879
 33
0.0
 14
156.6850079902
 24
52.0299240879
 34
0.0
100
AcDbRotatedDimension
  0
MTEXT
  5
8E
330
1F
100
AcDbEntity
  8
0
  6
Continuous
 62
     7
370
     0
100
AcDbMText
 10
412.8252631579
 20
48.4342449499
 30
0.0
 40
10.0
 41
0.0
 71
     1
 72
     1
  1
KLUDI GmbH & Co KG
  7
SLDTEXTSTYLE1
 73
     1
 44
1.0
  0
MTEXT
  5
8F
330
1F
100
AcDbEntity
  8
0
  6
Continuous
 62
     7
370
     0
100
AcDbMText
 10
210.0873490389
 20
48.4342449499
 30
0.0
 40
10.0
 41
0.0
 71
     1
 72
     1
  1
38 712 05 38
  7
SLDTEXTSTYLE1
 73
     1
 44
1.0
  0
SPLINE
  5
90
330
1F
100
AcDbEntity
  8
0
  6
Continuous
 62
     7
370
    25
100
AcDbSpline
210
0.0
220
0.0
230
1.0
 70
     8
 71
     3
 72
    10
 73
     6
 74
     0
 42
0.000000001
 43
0.00000001
 40
0.0
 40
0.0
 40
0.0
 40
0.0
 40
0.5
 40
0.5
 40
1.0
 40
1.0
 40
1.0
 40
1.0
 10
216.3564932565608
 20
345.1249654752222
 30
0.0
 10
216.5411671501815
 20
346.2186935821269
 30
0.0
 10
216.6336793356561
 20
347.3288846965481
 30
0.0
 10
216.6329975563256
 20
349.5347197257568
 30
0.0
 10
216.541205978959
 20
350.6330123082163
 30
0.0
 10
216.3564933435598
 20
351.7266055987372
 30
0.0
  0
SPLINE
  5
91
330
1F
100
AcDbEntity
  8
0
  6
Continuous
 62
     7
370
    25
100
AcDbSpline
210
0.0
220
0.0
230
1.0
 70
     8
 71
     3
 72
    28
 73
    24
 74
     0
 42
0.000000001
 43
0.00000001
 40
0.0
 40
0.0
 40
0.0
 40
0.0
 40
0.125
 40
0.125
 40
0.25
 40
0.25
 40
0.375
 40
0.375
 40
0.4375000000000001
 40
0.4375000000000001
 40
0.5000000000000001
 40
0.5000000000000001
 40
0.625
 40
0.625
 40
0.6875
 40
0.6875
 40
0.75
 40
0.75
 40
0.8125
 40
0.8125
 40
0.875
 40
0.875
 40
1.0
 40
1.0
 40
1.0
 40
1.0
 10
200.1104973937676
 20
328.8789697001527
 30
0.0
 10
201.1240172534891
 20
329.0501576491206
 30
0.0
 10
202.1154869945372
 20
329.2981597182978
 30
0.0
 10
204.055011315908
 20
329.9454055582244
 30
0.0
 10
205.006552217216
 20
330.3474782434872
 30
0.0
 10
206.8131429102174
 20
331.2812844225925
 30
0.0
 10
207.675382966609
 20
331.8136242538295
 30
0.0
 10
208.9058949037918
 20
332.7123056953757
 30
0.0
 10
209.3056682235789
 20
333.0284381482232
 30
0.0
 10
210.0842456084971
 20
333.6941252924771
 30
0.0
 10
210.4622710223092
 20
334.0432937074191
 30
0.0
 10
211.5440481698218
 20
335.1243508484246
 30
0.0
 10
212.2032223630692
 20
335.8945199756402
 30
0.0
 10
213.1023851679041
 20
337.1212442589664
 30
0.0
 10
213.3866857187995
 20
337.5424528290723
 30
0.0
 10
213.9242933417226
 20
338.4095927343818
 30
0.0
 10
214.178217566853
 20
338.8565774918567
 30
0.0
 10
214.6507602409583
 20
339.7691721128018
 30
0.0
 10
214.8688260544287
 20
340.2337267651704
 30
0.0
 10
215.2682819034412
 20
341.178725631531
 30
0.0
 10
215.4500398904851
 20
341.6601794999494
 30
0.0
 10
215.9371226801096
 20
343.1187823030778
 30
0.0
 10
216.1853854184264
 20
344.111582109494
 30
0.0
 10
216.3564932565608
 20
345.1249654752222
 30
0.0
  0
SPLINE
  5
92
330
1F
100
AcDbEntity
  8
0
  6
Continuous
 62
     7
370
    25
100
AcDbSpline
210
0.0
220
0.0
230
1.0
 70
     8
 71
     3
 72
    10
 73
     6
 74
     0
 42
0.000000001
 43
0.00000001
 40
0.0
 40
0.0
 40
0.0
 40
0.0
 40
0.5
 40
0.5
 40
1.0
 40
1.0
 40
1.0
 40
1.0
 10
193.5088572703818
 20
328.8789697872489
 30
0.0
 10
194.6025853774153
 20
328.6942958910456
 30
0.0
 10
195.7127764927914
 20
328.6017837011932
 30
0.0
 10
197.9186115208793
 20
328.602465494391
 30
0.0
 10
199.0169041068402
 20
328.694256998178
 30
0.0
 10
200.1104973937678
 20
328.8789697001528
 30
0.0
  0
SPLINE
  5
93
330
1F
100
AcDbEntity
  8
0
  6
Continuous
 62
     7
370
    25
100
AcDbSpline
210
0.0
220
0.0
230
1.0
 70
     8
 71
     3
 72
    28
 73
    24
 74
     0
 42
0.000000001
 43
0.00000001
 40
0.0
 40
0.0
 40
0.0
 40
0.0
 40
0.1249999999999998
 40
0.1249999999999998
 40
0.2499999999999996
 40
0.2499999999999996
 40
0.3749999999999993
 40
0.3749999999999993
 40
0.4374999999999993
 40
0.4374999999999993
 40
0.4999999999999993
 40
0.4999999999999993
 40
0.6249999999999996
 40
0.6249999999999996
 40
0.6874999999999996
 40
0.6874999999999996
 40
0.7499999999999996
 40
0.7499999999999996
 40
0.8124999999999996
 40
0.8124999999999996
 40
0.8749999999999997
 40
0.8749999999999997
 40
1.0
 40
1.0
 40
1.0
 40
1.0
 10
177.2628614949498
 20
345.1249656499446
 30
0.0
 10
177.4340494554698
 20
344.1114457936478
 30
0.0
 10
177.6820515131009
 20
343.1199760491608
 30
0.0
 10
178.3292973534868
 20
341.1804517272122
 30
0.0
 10
178.7313700382959
 20
340.2289108262548
 30
0.0
 10
179.6651762172714
 20
338.4223201346026
 30
0.0
 10
180.1975160482412
 20
337.5600800782402
 30
0.0
 10
181.0961974894138
 20
336.3295681403251
 30
0.0
 10
181.4123299428356
 20
335.929794820601
 30
0.0
 10
182.0780170881339
 20
335.1512174354789
 30
0.0
 10
182.4271855027312
 20
334.7731920222924
 30
0.0
 10
183.5082426413702
 20
333.6914148736116
 30
0.0
 10
184.2784117695968
 20
333.0322406822642
 30
0.0
 10
185.5051360524729
 20
332.133077876995
 30
0.0
 10
185.9263446221917
 20
331.8487773255169
 30
0.0
 10
186.7934845277543
 20
331.3111697024329
 30
0.0
 10
187.2404692856206
 20
331.0572454774128
 30
0.0
 10
188.153063906754
 20
330.5847028034258
 30
0.0
 10
188.6176185589865
 20
330.3666369897664
 30
0.0
 10
189.5626174251441
 20
329.9671811407326
 30
0.0
 10
190.044071293555
 20
329.7854231537095
 30
0.0
 10
191.5026740977093
 20
329.2983403638287
 30
0.0
 10
192.495473905134
 20
329.0500776276752
 30
0.0
 10
193.5088572703818
 20
328.8789697872489
 30
0.0
  0
SPLINE
  5
94
330
1F
100
AcDbEntity
  8
0
  6
Continuous
 62
     7
370
    25
100
AcDbSpline
210
0.0
220
0.0
230
1.0
 70
     8
 71
     3
 72
    10
 73
     6
 74
     0
 42
0.000000001
 43
0.00000001
 40
0.0
 40
0.0
 40
0.0
 40
0.0
 40
0.5
 40
0.5
 40
1.0
 40
1.0
 40
1.0
 40
1.0
 10
177.26286158234
 20
351.7266057736519
 30
0.0
 10
177.0781876819594
 20
350.6328776660206
 30
0.0
 10
176.9856755066129
 20
349.5226865499238
 30
0.0
 10
176.9863572788181
 20
347.316851521517
 30
0.0
 10
177.0781487800646
 20
346.2185589358152
 30
0.0
 10
177.2628614949498
 20
345.1249656499445
 30
0.0
  0
SPLINE
  5
95
330
1F
100
AcDbEntity
  8
0
  6
Continuous
 62
     7
370
    25
100
AcDbSpline
210
0.0
220
0.0
230
1.0
 70
     8
 71
     3
 72
    28
 73
    24
 74
     0
 42
0.000000001
 43
0.00000001
 40
0.0
 40
0.0
 40
0.0
 40
0.0
 40
0.1249999999999998
 40
0.1249999999999998
 40
0.2499999999999997
 40
0.2499999999999997
 40
0.3749999999999995
 40
0.3749999999999995
 40
0.4374999999999995
 40
0.4374999999999995
 40
0.4999999999999996
 40
0.4999999999999996
 40
0.6249999999999996
 40
0.6249999999999996
 40
0.6874999999999997
 40
0.6874999999999997
 40
0.7499999999999997
 40
0.7499999999999997
 40
0.8124999999999997
 40
0.8124999999999997
 40
0.8749999999999997
 40
0.8749999999999997
 40
1.0
 40
1.0
 40
1.0
 40
1.0
 10
193.5088574449215
 20
367.9726015489823
 30
0.0
 10
192.4953375921227
 20
367.8014135767747
 30
0.0
 10
191.5038678440524
 20
367.5534115308427
 30
0.0
 10
189.5643435211161
 20
366.9061656897985
 30
0.0
 10
188.6128026207596
 20
366.5040930055691
 30
0.0
 10
186.8062119310404
 20
365.5702868269644
 30
0.0
 10
185.9439718747223
 20
365.0379469963498
 30
0.0
 10
184.7134599357661
 20
364.1392655554848
 30
0.0
 10
184.3136866160218
 20
363.8231331013153
 30
0.0
 10
183.5351092304211
 20
363.1574459545562
 30
0.0
 10
183.157083818178
 20
362.8082775405235
 30
0.0
 10
182.0753066683554
 20
361.7272204050609
 30
0.0
 10
181.4161324794303
 20
360.957051275701
 30
0.0
 10
180.5169696735908
 20
359.7303269934498
 30
0.0
 10
180.2326691213406
 20
359.3091184242265
 30
0.0
 10
179.695061497989
 20
358.4419785182811
 30
0.0
 10
179.4411372730791
 20
357.9949937598534
 30
0.0
 10
178.9685945992405
 20
357.0823991384717
 30
0.0
 10
178.7505287853476
 20
356.6178444864643
 30
0.0
 10
178.3510729362658
 20
355.6728456205201
 30
0.0
 10
178.1693149492667
 20
355.1913917520956
 30
0.0
 10
177.6822321591098
 20
353.7327889468955
 30
0.0
 10
177.4339694264069
 20
352.7399891380934
 30
0.0
 10
177.26286158234
 20
351.7266057736519
 30
0.0
  0
SPLINE
  5
96
330
1F
100
AcDbEntity
  8
0
  6
Continuous
 62
     7
370
    25
100
AcDbSpline
210
0.0
220
0.0
230
1.0
 70
     8
 71
     3
 72
    10
 73
     6
 74
     0
 42
0.000000001
 43
0.00000001
 40
0.0
 40
0.0
 40
0.0
 40
0.0
 40
0.5
 40
0.5
 40
1.0
 40
1.0
 40
1.0
 40
1.0
 10
200.1104975685705
 20
367.9726014613448
 30
0.0
 10
199.0167694604608
 20
368.1572753651579
 30
0.0
 10
197.9065783438444
 20
368.2497875275595
 30
0.0
 10
195.7007433152194
 20
368.2491057745797
 30
0.0
 10
194.6024507297263
 20
368.1573142769359
 30
0.0
 10
193.5088574449213
 20
367.9726015489823
 30
0.0
  0
SPLINE
  5
97
330
1F
100
AcDbEntity
  8
0
  6
Continuous
 62
     7
370
    25
100
AcDbSpline
210
0.0
220
0.0
230
1.0
 70
     8
 71
     3
 72
    28
 73
    24
 74
     0
 42
0.000000001
 43
0.00000001
 40
0.0
 40
0.0
 40
0.0
 40
0.0
 40
0.1250000000000002
 40
0.1250000000000002
 40
0.2500000000000004
 40
0.2500000000000004
 40
0.3750000000000007
 40
0.3750000000000007
 40
0.4375000000000007
 40
0.4375000000000007
 40
0.5000000000000007
 40
0.5000000000000007
 40
0.6250000000000007
 40
0.6250000000000007
 40
0.6875000000000006
 40
0.6875000000000006
 40
0.7500000000000004
 40
0.7500000000000004
 40
0.8125000000000003
 40
0.8125000000000003
 40
0.8750000000000002
 40
0.8750000000000002
 40
1.0
 40
1.0
 40
1.0
 40
1.0
 10
216.3564933435598
 20
351.726605598737
 30
0.0
 10
216.1853054544016
 20
352.7401254729858
 30
0.0
 10
215.9373033176447
 20
353.7315951932511
 30
0.0
 10
215.2900575150107
 20
355.6711195250223
 30
0.0
 10
214.8879848066449
 20
356.6226604144294
 30
0.0
 10
213.9541786166782
 20
358.429251097446
 30
0.0
 10
213.4218387947976
 20
359.291491160025
 30
0.0
 10
212.5231573579743
 20
360.5220031035595
 30
0.0
 10
212.2070249033897
 20
360.9217764238683
 30
0.0
 10
211.5413377545009
 20
361.7003538100732
 30
0.0
 10
211.1921693398367
 20
362.0783792211636
 30
0.0
 10
210.1111122043104
 20
363.1601563712158
 30
0.0
 10
209.3409430740046
 20
363.819330559879
 30
0.0
 10
208.114218791609
 20
364.7184933679599
 30
0.0
 10
207.6930102224188
 20
365.0027939212374
 30
0.0
 10
206.8258703153034
 20
365.5404015454525
 30
0.0
 10
206.3788855559393
 20
365.7943257704713
 30
0.0
 10
205.4662909331317
 20
366.2668684445575
 30
0.0
 10
205.0017362809234
 20
366.48493425869
 30
0.0
 10
204.0567374120978
 20
366.8843901088709
 30
0.0
 10
203.5752835424109
 20
367.0661480961081
 30
0.0
 10
202.1166807419142
 20
367.5532308843887
 30
0.0
 10
201.1238809334283
 20
367.8014936141019
 30
0.0
 10
200.1104975685705
 20
367.9726014613448
 30
0.0
  0
CIRCLE
  5
98
330
1F
100
AcDbEntity
  8
0
  6
Continuous
 62
     7
370
    25
100
AcDbCircle
 10
196.8096774194
 20
348.4257856244
 30
0.0
 40
20.0
  0
CIRCLE
  5
99
330
1F
100
AcDbEntity
  8
0
  6
Continuous
 62
     7
370
    25
100
AcDbCircle
 10
196.8096774194
 20
386.4257856244
 30
0.0
 40
11.97348501976035
  0
CIRCLE
  5
9A
330
1F
100
AcDbEntity
  8
0
  6
Continuous
 62
     7
370
    25
100
AcDbCircle
 10
196.8096774194
 20
310.4257856244
 30
0.0
 40
11.97348501976023
  0
ELLIPSE
  5
9B
330
1F
100
AcDbEntity
  8
0
  6
Continuous
 62
     7
370
    25
100
AcDbEllipse
 10
150.2174839561
 20
348.4257856244
 30
0.0
 11
93.24832753680053
 21
-2.154365574824623E-11
 31
0.0
210
0.0
220
0.0
230
1.0
 40
0.8662232586
 41
5.114824691439443
 42
5.116346132877034
  0
ARC
  5
9C
330
1F
100
AcDbEntity
  8
0
  6
Continuous
 62
     7
370
    25
100
AcDbCircle
 10
196.8096774194
 20
348.4257856244
 30
0.0
 40
75.0
100
AcDbArc
 50
277.7165988175
 51
262.2834011825
  0
ELLIPSE
  5
9D
330
1F
100
AcDbEntity
  8
0
  6
Continuous
 62
     7
370
    25
100
AcDbEllipse
 10
243.4018708826
 20
348.4257856244
 30
0.0
 11
93.24832753680053
 21
2.484057404217310E-11
 31
0.0
210
0.0
220
0.0
230
1.0
 40
0.8662232586
 41
4.308431827892371
 42
4.30995326932996
  0
ARC
  5
9E
330
1F
100
AcDbEntity
  8
0
  6
Continuous
 62
     7
370
    25
100
AcDbCircle
 10
196.8096774194
 20
348.4257856244
 30
0.0
 40
74.93479705529275
100
AcDbArc
 50
262.3773251375
 51
277.6226748625
  0
SPLINE
  5
9F
330
1F
100
AcDbEntity
  8
0
  6
Continuous
 62
     8
370
    18
100
AcDbSpline
210
0.0
220
0.0
230
1.0
 70
    11
 71
     3
 72
    98
 73
    94
 74
     0
 42
0.000000001
 43
0.00000001
 40
0.0
 40
0.0
 40
0.0
 40
0.0
 40
0.0093154216561949
 40
0.0186496745063609
 40
0.0282690879564198
 40
0.0413999575478351
 40
0.0586821716171409
 40
0.0641298935155193
 40
0.0717875055414153
 40
0.081655012431858
 40
0.0937324179563847
 40
0.1080197250467394
 40
0.1245169351578718
 40
0.1540022317234102
 40
0.1759471171778411
 40
0.1903516137687324
 40
0.19640398434704
 40
0.2016737551433645
 40
0.2061644680722307
 40
0.2139258974020026
 40
0.220893355378727
 40
0.2305306871139282
 40
0.2398704858456463
 40
0.249177086789146
 40
0.2584556380462162
 40
0.2677411223437865
 40
0.277298497252753
 40
0.2905524001678573
 40
0.3076400189940584
 40
0.3135719408341328
 40
0.3231162361358801
 40
0.3362729148706428
 40
0.353041983872746
 40
0.3734234472867992
 40
0.4029316355514997
 40
0.4248615622651235
 40
0.4392132474696144
 40
0.4482357103139163
 40
0.4550796131046328
 40
0.4700660460403651
 40
0.4846213939033137
 40
0.4987631346619841
 40
0.5129168301440976
 40
0.5273974074644423
 40
0.5344908572378452
 40
0.5423186006165852
 40
0.5495202561221186
 40
0.558278442658098
 40
0.5648561855621456
 40
0.574839399053201
 40
0.5882280914103762
 40
0.6050222689701092
 40
0.6252219352655773
 40
0.6504763439867229
 40
0.6700509961484412
 40
0.6839459018714178
 40
0.6921610773009246
 40
0.6984481473168431
 40
0.7042768750281997
 40
0.7096556041863725
 40
0.7145949545324348
 40
0.7191086439737204
 40
0.7232146582630189
 40
0.7291781313562885
 40
0.7350008651894518
 40
0.7407440294686218
 40
0.7464713442270475
 40
0.7522470538518089
 40
0.7617705784445131
 40
0.7713718333627726
 40
0.7813306870464108
 40
0.796159511090225
 40
0.8027948808155706
 40
0.8118880155181519
 40
0.8220433334415475
 40
0.8362591133800038
 40
0.854535364813729
 40
0.8768720931116266
 40
0.901035419767241
 40
0.9199202831781639
 40
0.9335266926521604
 40
0.9418546625514954
 40
0.9479852368323688
 40
0.9536616146012808
 40
0.9588907730255837
 40
0.963681638804684
 40
0.9680458249287812
 40
0.9719987060001554
 40
0.9777607661445661
 40
0.9833870646098709
 40
0.9889314250054809
 40
0.9944500690783893
 40
1.0
 40
1.0
 40
1.0
 40
1.0
 10
209.5758228957465
 20
361.1919461476967
 30
0.0
 10
209.3432376680978
 20
361.4244483804445
 30
0.0
 10
208.8383994045652
 20
361.8517255850809
 30
0.0
 10
207.9729877236181
 20
362.3559256645416
 30
0.0
 10
206.9108890455446
 20
362.763400461566
 30
0.0
 10
205.5094169925711
 20
362.9942012634755
 30
0.0
 10
204.2439227820642
 20
363.0355265224326
 30
0.0
 10
203.1720778896859
 20
363.0353997151295
 30
0.0
 10
202.3617153465231
 20
363.0373437828099
 30
0.0
 10
201.3175112705489
 20
363.0380664813692
 30
0.0
 10
200.0394421045949
 20
363.0388724803914
 30
0.0
 10
198.5275167048756
 20
363.039279944558
 30
0.0
 10
196.4015385077752
 20
363.0393635385437
 30
0.0
 10
194.0054449649639
 20
363.0396201963226
 30
0.0
 10
191.6831694451417
 20
363.0365760156287
 30
0.0
 10
190.1874795108192
 20
363.0374465268264
 30
0.0
 10
189.2799931765283
 20
363.0295233297078
 30
0.0
 10
188.7224301188731
 20
363.0111003542758
 30
0.0
 10
188.10547869162
 20
362.9728224860544
 30
0.0
 10
187.4314474938069
 20
362.8919107045362
 30
0.0
 10
186.5902671797492
 20
362.7087961613744
 30
0.0
 10
185.7264635032312
 20
362.3939559481959
 30
0.0
 10
184.8532960866769
 20
361.9016070845457
 30
0.0
 10
184.0879642954137
 20
361.2739891141874
 30
0.0
 10
183.4379646395348
 20
360.52999346634
 30
0.0
 10
182.9224375000678
 20
359.6772291344214
 30
0.0
 10
182.4983957527065
 20
358.6212757897495
 30
0.0
 10
182.2478740813191
 20
357.2274288978246
 30
0.0
 10
182.1998689516819
 20
355.9471415194595
 30
0.0
 10
182.2001535799411
 20
354.7985634781779
 30
0.0
 10
182.1976692143316
 20
353.7885336185669
 30
0.0
 10
182.197031981102
 20
352.3962650929208
 30
0.0
 10
182.196185340924
 20
350.6217078714988
 30
0.0
 10
182.1961171679918
 20
348.2703641808854
 30
0.0
 10
182.195852630881
 20
345.7369898447353
 30
0.0
 10
182.1986126086756
 20
343.4162587706008
 30
0.0
 10
182.1979188075975
 20
341.8182718294428
 30
0.0
 10
182.2077090157503
 20
340.7521912403737
 30
0.0
 10
182.2533391185983
 20
339.6650067132786
 30
0.0
 10
182.4337177699027
 20
338.3861281495795
 30
0.0
 10
183.0026332845436
 20
336.9358920677491
 30
0.0
 10
183.9085885763379
 20
335.7048585893823
 30
0.0
 10
185.096243136479
 20
334.7469518599462
 30
0.0
 10
186.2629593461589
 20
334.2323349447011
 30
0.0
 10
187.2722238869475
 20
333.9874715659979
 30
0.0
 10
188.0465903953403
 20
333.8811532243008
 30
0.0
 10
188.884422428859
 20
333.8289952594722
 30
0.0
 10
189.6794790944105
 20
333.8162336319421
 30
0.0
 10
190.5725745986233
 20
333.8158418225756
 30
0.0
 10
191.6290338800204
 20
333.8137335286625
 30
0.0
 10
193.0458628157004
 20
333.8129991860924
 30
0.0
 10
194.8230745214795
 20
333.8122952298763
 30
0.0
 10
197.0188400973287
 20
333.8121026592077
 30
0.0
 10
199.3126861098801
 20
333.8125773257103
 30
0.0
 10
201.3841339101905
 20
333.812872622294
 30
0.0
 10
202.8545370186446
 20
333.815943551361
 30
0.0
 10
203.8562188554992
 20
333.8152752874943
 30
0.0
 10
204.5733816613726
 20
333.8271827419931
 30
0.0
 10
205.1897171938575
 20
333.8611470091306
 30
0.0
 10
205.7569193950426
 20
333.914929662165
 30
0.0
 10
206.274988550925
 20
333.9894411879944
 30
0.0
 10
206.7441998455084
 20
334.083915445474
 30
0.0
 10
207.2403025782457
 20
334.2215950595875
 30
0.0
 10
207.7656916298591
 20
334.4200213744879
 30
0.0
 10
208.3211272434862
 20
334.6940377730198
 30
0.0
 10
208.8376547594072
 20
335.0207370533961
 30
0.0
 10
209.3152581567809
 20
335.3994398811735
 30
0.0
 10
209.8454534298356
 20
335.9197552579625
 30
0.0
 10
210.385526816256
 20
336.618524628987
 30
0.0
 10
210.8623230674164
 20
337.5324885566593
 30
0.0
 10
211.2398963629777
 20
338.6910496935787
 30
0.0
 10
211.3766190481342
 20
339.7980719960333
 30
0.0
 10
211.413291490449
 20
340.874996977088
 30
0.0
 10
211.4202489350755
 20
341.7881891684352
 30
0.0
 10
211.4207785555398
 20
342.9685577085163
 30
0.0
 10
211.4225827817708
 20
344.4729375665859
 30
0.0
 10
211.4230863884426
 20
346.4069767180389
 30
0.0
 10
211.4233949679287
 20
348.6919213264853
 30
0.0
 10
211.4228731645694
 20
350.9983306513928
 30
0.0
 10
211.4225196402132
 20
352.9967831804281
 30
0.0
 10
211.419625978389
 20
354.4366565549689
 30
0.0
 10
211.4201802723055
 20
355.426620647586
 30
0.0
 10
211.4094553345545
 20
356.1368690425238
 30
0.0
 10
211.3789362018919
 20
356.7371677831286
 30
0.0
 10
211.3306000930546
 20
357.2888841893273
 30
0.0
 10
211.2636015647658
 20
357.7920209592972
 30
0.0
 10
211.1786706734649
 20
358.2468233104512
 30
0.0
 10
211.0544714739782
 20
358.7280696732454
 30
0.0
 10
210.8742724795929
 20
359.2392941282555
 30
0.0
 10
210.6240824151245
 20
359.7826397259154
 30
0.0
 10
210.3247357087789
 20
360.2907446233831
 30
0.0
 10
209.9768897217891
 20
360.7636609703864
 30
0.0
 10
209.7143922482115
 20
361.053426241836
 30
0.0
 10
209.5758228957465
 20
361.1919461476967
 30
0.0
  0
SPLINE
  5
A0
330
1F
100
AcDbEntity
  8
0
  6
Continuous
 62
     8
370
    18
100
AcDbSpline
210
0.0
220
0.0
230
1.0
 70
    11
 71
     3
 72
    76
 73
    72
 74
     0
 42
0.000000001
 43
0.00000001
 40
0.0
 40
0.0
 40
0.0
 40
0.0
 40
0.0145867881941747
 40
0.03059023488226
 40
0.0452724241663409
 40
0.0617437388420484
 40
0.0637356405905706
 40
0.0834437574543812
 40
0.1231750237743092
 40
0.151731010126303
 40
0.1716228234256299
 40
0.18457225604868
 40
0.1909575561249587
 40
0.2016180697360682
 40
0.2157070571815165
 40
0.2273408276711246
 40
0.237863348428668
 40
0.2474882330038382
 40
0.2627410726109123
 40
0.2792191759791753
 40
0.2943819085514998
 40
0.3113996994890943
 40
0.3175440134541414
 40
0.3284313176073123
 40
0.3466604218817009
 40
0.3746851240388397
 40
0.4060889551195441
 40
0.4259501621163518
 40
0.4379641982606003
 40
0.4495233896265584
 40
0.4600239037198306
 40
0.4698981436141695
 40
0.4788405851835052
 40
0.4892906970468959
 40
0.5012999146211896
 40
0.5160530234626528
 40
0.5326882519418278
 40
0.5478247867335302
 40
0.5587204860109332
 40
0.5642866634232041
 40
0.5770745076321829
 40
0.5970575405179332
 40
0.6264499881618911
 40
0.6508418032106866
 40
0.6684943311153707
 40
0.6803962663991855
 40
0.6886462791118786
 40
0.7000076409245642
 40
0.7103616916144763
 40
0.7201132628062851
 40
0.7288832928267139
 40
0.7391322747438357
 40
0.7509071452154895
 40
0.765520516688868
 40
0.7818114352846053
 40
0.7975051886029612
 40
0.8083824078147397
 40
0.813201810500193
 40
0.8216946686453656
 40
0.8338337224445863
 40
0.8515845433429182
 40
0.8754159192663311
 40
0.9062080500176246
 40
0.9257570407587772
 40
0.9376424217240162
 40
0.9490163717859529
 40
0.9593468940438195
 40
0.9690572820812744
 40
0.9779173979497722
 40
0.9882160308100141
 40
1.0
 40
1.0
 40
1.0
 40
1.0
 10
210.2671469921723
 20
361.8832604815549
 30
0.0
 10
210.6531769144616
 20
361.4971784795833
 30
0.0
 10
211.3673036426785
 20
360.5910535499241
 30
0.0
 10
212.0672852935284
 20
359.0318890366637
 30
0.0
 10
212.4169975539906
 20
357.294260777961
 30
0.0
 10
212.4496253084602
 20
356.0534111620011
 30
0.0
 10
212.4591203426012
 20
354.6275480770938
 30
0.0
 10
212.4620574576516
 20
352.3323980085586
 30
0.0
 10
212.4638409407659
 20
349.0450533926562
 30
0.0
 10
212.462988416092
 20
345.7507406636018
 30
0.0
 10
212.4610637922573
 20
343.4570113406631
 30
0.0
 10
212.457207890142
 20
341.9915260368952
 30
0.0
 10
212.4514207018925
 20
340.8710069919902
 30
0.0
 10
212.4106158997933
 20
339.7079942934305
 30
0.0
 10
212.1981163700478
 20
338.3584882953178
 30
0.0
 10
211.7515311550783
 20
337.0731357075146
 30
0.0
 10
211.1735553107041
 20
336.0295659011056
 30
0.0
 10
210.3525281025095
 20
334.9867381791186
 30
0.0
 10
209.1607794971115
 20
333.9773742437675
 30
0.0
 10
207.5631926791131
 20
333.2119080860816
 30
0.0
 10
205.7742530648189
 20
332.82441658697
 30
0.0
 10
204.3393155081402
 20
332.7825901187316
 30
0.0
 10
203.0676508279646
 20
332.7781268310858
 30
0.0
 10
201.7502165989237
 20
332.774533798472
 30
0.0
 10
199.6155509140684
 20
332.7725597391229
 30
0.0
 10
196.7142887299698
 20
332.7719244912142
 30
0.0
 10
193.7521482704188
 20
332.7720644159791
 30
0.0
 10
191.3880062450719
 20
332.7760580338272
 30
0.0
 10
189.7655363193457
 20
332.7784007868954
 30
0.0
 10
188.4920801146106
 20
332.800802456054
 30
0.0
 10
187.3043826461902
 20
332.9377258499027
 30
0.0
 10
186.2375409928067
 20
333.1994552159445
 30
0.0
 10
185.2184689405828
 20
333.6042523422075
 30
0.0
 10
184.2009664272869
 20
334.1989821832825
 30
0.0
 10
183.1395404765409
 20
335.1100793469778
 30
0.0
 10
182.1554906128103
 20
336.4182392694601
 30
0.0
 10
181.4809581341344
 20
338.0413410015901
 30
0.0
 10
181.2138885609949
 20
339.6220283819705
 30
0.0
 10
181.1694032639638
 20
340.8023832990974
 30
0.0
 10
181.1623117984684
 20
341.8950255631381
 30
0.0
 10
181.1586295625149
 20
343.3272904907012
 30
0.0
 10
181.1563331335602
 20
345.6496368252136
 30
0.0
 10
181.1557294925717
 20
348.4055202246766
 30
0.0
 10
181.1564289393106
 20
351.0743405657115
 30
0.0
 10
181.1579530507713
 20
353.0897026592408
 30
0.0
 10
181.1612282469037
 20
354.502085557512
 30
0.0
 10
181.1646304054318
 20
355.679254820013
 30
0.0
 10
181.1886171287586
 20
356.7991811090259
 30
0.0
 10
181.328941478455
 20
357.9688580313496
 30
0.0
 10
181.5907006605948
 20
359.018598064535
 30
0.0
 10
181.9905500546973
 20
360.0195003849779
 30
0.0
 10
182.5727033851419
 20
361.0176897615495
 30
0.0
 10
183.4647413025266
 20
362.0664971829416
 30
0.0
 10
184.7437242682999
 20
363.043763843152
 30
0.0
 10
186.3609804797595
 20
363.7373691376095
 30
0.0
 10
187.9480959544416
 20
364.0171652706753
 30
0.0
 10
189.1205426142948
 20
364.0643771460832
 30
0.0
 10
190.0241430057058
 20
364.0718751258369
 30
0.0
 10
190.9749909380671
 20
364.0751339388559
 30
0.0
 10
192.4089224983263
 20
364.0776353741604
 30
0.0
 10
194.4159017972979
 20
364.0791837939693
 30
0.0
 10
197.1197467959222
 20
364.07962451703
 30
0.0
 10
199.8907288274237
 20
364.0794029661515
 30
0.0
 10
202.2155349531282
 20
364.0756789391952
 30
0.0
 10
203.814636312448
 20
364.072988178486
 30
0.0
 10
205.0699537556448
 20
364.0531507441237
 30
0.0
 10
206.2389999319661
 20
363.926024977072
 30
0.0
 10
207.2931117494286
 20
363.678879317841
 30
0.0
 10
208.3035408737174
 20
363.2932401485361
 30
0.0
 10
209.3152410824353
 20
362.723382329899
 30
0.0
 10
209.9552918633999
 20
362.1951576830139
 30
0.0
 10
210.2671469921723
 20
361.8832604815549
 30
0.0
  0
CIRCLE
  5
A1
330
1F
100
AcDbEntity
  8
0
  6
Continuous
 62
     8
370
    18
100
AcDbCircle
 10
196.8096774194
 20
386.4257856244
 30
0.0
 40
11.66554315570778
  0
CIRCLE
  5
A2
330
1F
100
AcDbEntity
  8
0
  6
Continuous
 62
     8
370
    18
100
AcDbCircle
 10
196.8096774194
 20
310.4257856244
 30
0.0
 40
11.66554315570778
  0
CIRCLE
  5
A3
330
1F
100
AcDbEntity
  8
0
  6
Continuous
 62
     8
370
    18
100
AcDbCircle
 10
196.8096774194
 20
348.4257856244
 30
0.0
 40
72.88411665438778
  0
CIRCLE
  5
A4
330
1F
100
AcDbEntity
  8
0
  6
Continuous
 62
     8
370
    18
100
AcDbCircle
 10
196.8096774194
 20
348.4257856244
 30
0.0
 40
74.38360264185113
  0
LINE
  5
A5
330
1F
100
AcDbEntity
  8
0
  6
Continuous
 62
     7
370
    25
100
AcDbLine
 10
121.8096744391
 20
195.3649386584
 30
0.0
 11
122.4260758731
 21
171.8256730411
 31
0.0
  0
LINE
  5
A6
330
1F
100
AcDbEntity
  8
0
  6
Continuous
 62
     7
370
    25
100
AcDbLine
 10
271.1932789656
 20
171.8256730411
 30
0.0
 11
271.8096803996
 21
195.3649386584
 31
0.0
  0
ARC
  5
A7
330
1F
100
AcDbEntity
  8
0
  6
Continuous
 62
     7
370
    25
100
AcDbCircle
 10
123.925560765
 20
171.8649386584
 30
0.0
 40
1.500000000000008
100
AcDbArc
 50
181.5
 51
270.0
  0
ARC
  5
A8
330
1F
100
AcDbEntity
  8
0
  6
Continuous
 62
     7
370
    25
100
AcDbCircle
 10
269.6937940737
 20
171.8649386584
 30
0.0
 40
1.500000000000008
100
AcDbArc
 50
270.0
 51
358.5
  0
ARC
  5
A9
330
1F
100
AcDbEntity
  8
0
  6
Continuous
 62
     7
370
    25
100
AcDbCircle
 10
185.1596883212
 20
170.746187119
 30
0.0
 40
0.4999999999999747
100
AcDbArc
 50
229.6848181752
 51
268.217348702
  0
ARC
  5
AA
330
1F
100
AcDbEntity
  8
0
  6
Continuous
 62
     7
370
    25
100
AcDbCircle
 10
208.4596665175
 20
170.746187119
 30
0.0
 40
0.4999999999999739
100
AcDbArc
 50
271.782651298
 51
310.3151818248
  0
ARC
  5
AB
330
1F
100
AcDbEntity
  8
0
  6
Continuous
 62
     7
370
    25
100
AcDbCircle
 10
196.8096774194
 20
545.0649386584
 30
0.0
 40
375.0000000000001
100
AcDbArc
 50
268.217348702
 51
270.0
  0
ARC
  5
AC
330
1F
100
AcDbEntity
  8
0
  6
Continuous
 62
     7
370
    25
100
AcDbCircle
 10
196.8096774194
 20
545.0649386584
 30
0.0
 40
375.0000000000001
100
AcDbArc
 50
270.0
 51
271.782651298
  0
LINE
  5
AD
330
1F
100
AcDbEntity
  8
0
  6
Continuous
 62
     7
370
    25
100
AcDbLine
 10
216.8096769723
 20
169.3649381224
 30
0.0
 11
216.8096769723
 21
170.3649382863
 31
0.0
  0
LINE
  5
AE
330
1F
100
AcDbEntity
  8
0
  6
Continuous
 62
     7
370
    25
100
AcDbLine
 10
176.8096778664
 20
170.3649382863
 30
0.0
 11
176.8096778664
 21
169.3649381224
 31
0.0
  0
ARC
  5
AF
330
1F
100
AcDbEntity
  8
0
  6
Continuous
 62
     7
370
    25
100
AcDbCircle
 10
216.0096774194
 20
169.3649386584
 30
0.0
 40
0.8000000000000114
100
AcDbArc
 50
270.0
 51
0.0
  0
ARC
  5
B0
330
1F
100
AcDbEntity
  8
0
  6
Continuous
 62
     7
370
    25
100
AcDbCircle
 10
177.6096774194
 20
169.3649386584
 30
0.0
 40
0.8000000000000114
100
AcDbArc
 50
180.0
 51
270.0
  0
SPLINE
  5
B1
330
1F
100
AcDbEntity
  8
0
  6
Continuous
 62
     7
370
    25
100
AcDbSpline
210
0.0
220
0.0
230
1.0
 70
     8
 71
     3
 72
    11
 73
     7
 74
     0
 42
0.000000001
 43
0.00000001
 40
0.0
 40
0.0
 40
0.0
 40
0.0
 40
0.2481341007907838
 40
0.4971622960507391
 40
0.7477879652468284
 40
1.0
 40
1.0
 40
1.0
 40
1.0
 10
176.9860703620211
 20
167.8649388078224
 30
0.0
 10
177.082960653863
 20
164.9072582496319
 30
0.0
 10
177.277090359549
 20
158.981239807957
 30
0.0
 10
178.3109110108749
 20
150.1313194816666
 30
0.0
 10
179.6558725722762
 20
141.3075229583699
 30
0.0
 10
180.6799959231043
 20
135.4603989542922
 30
0.0
 10
181.1936730641023
 20
132.5276136222851
 30
0.0
  0
SPLINE
  5
B2
330
1F
100
AcDbEntity
  8
0
  6
Continuous
 62
     7
370
    25
100
AcDbSpline
210
0.0
220
0.0
230
1.0
 70
     8
 71
     3
 72
    11
 73
     7
 74
     0
 42
0.000000001
 43
0.00000001
 40
0.0
 40
0.0
 40
0.0
 40
0.0
 40
0.2522118829806732
 40
0.5028375204630765
 40
0.751865681132317
 40
1.0
 40
1.0
 40
1.0
 40
1.0
 10
212.4256817746059
 20
132.5276136222851
 30
0.0
 10
212.9393581748686
 20
135.4603992545698
 30
0.0
 10
213.9634802914633
 20
141.3075252422885
 30
0.0
 10
215.3084421567966
 20
150.1313200764085
 30
0.0
 10
216.3422624925039
 20
158.9812393236519
 30
0.0
 10
216.5363934904713
 20
164.9072570825708
 30
0.0
 10
216.6332844766871
 20
167.8649388078224
 30
0.0
  0
SPLINE
  5
B3
330
1F
100
AcDbEntity
  8
0
  6
Continuous
 62
     7
370
    25
100
AcDbSpline
210
0.0
220
0.0
230
1.0
 70
     8
 71
     3
 72
    11
 73
     7
 74
     0
 42
0.000000001
 43
0.00000001
 40
0.0
 40
0.0
 40
0.0
 40
0.0
 40
0.2430907537150309
 40
0.4999971912436302
 40
0.7569067377449347
 40
1.0
 40
1.0
 40
1.0
 40
1.0
 10
181.1559666070238
 20
132.7371015969288
 30
0.0
 10
181.1884498150482
 20
132.6187428973909
 30
0.0
 10
181.2552623635578
 20
132.3752987662432
 30
0.0
 10
181.5014566252148
 20
132.0747870581352
 30
0.0
 10
181.8259357841922
 20
131.8611660717329
 30
0.0
 10
182.0750093703243
 20
131.8200228776717
 30
0.0
 10
182.1961049112574
 20
131.8000197235119
 30
0.0
  0
SPLINE
  5
B4
330
1F
100
AcDbEntity
  8
0
  6
Continuous
 62
     7
370
    25
100
AcDbSpline
210
0.0
220
0.0
230
1.0
 70
     8
 71
     3
 72
    11
 73
     7
 74
     0
 42
0.000000001
 43
0.00000001
 40
0.0
 40
0.0
 40
0.0
 40
0.0
 40
0.2436565585807971
 40
0.5000165642851311
 40
0.7563693573903584
 40
1.0
 40
1.0
 40
1.0
 40
1.0
 10
211.4232489961282
 20
131.8000197235119
 30
0.0
 10
211.5442273125843
 20
131.8199484761361
 30
0.0
 10
211.7924913548072
 20
131.8608450006362
 30
0.0
 10
212.1180033700633
 20
132.0746663648719
 30
0.0
 10
212.3645136502694
 20
132.3761539347438
 30
0.0
 10
212.4310289712277
 20
132.6188140813319
 30
0.0
 10
212.4634403857485
 20
132.7370568934452
 30
0.0
  0
SPLINE
  5
B5
330
1F
100
AcDbEntity
  8
0
  6
Continuous
 62
     7
370
    25
100
AcDbSpline
210
0.0
220
0.0
230
1.0
 70
     8
 71
     3
 72
    11
 73
     7
 74
     0
 42
0.000000001
 43
0.00000001
 40
0.0
 40
0.0
 40
0.0
 40
0.0
 40
0.2501354029037446
 40
0.4999999954568146
 40
0.7498645813804589
 40
1.0
 40
1.0
 40
1.0
 40
1.0
 10
182.0207052054897
 20
131.8124621931087
 30
0.0
 10
184.4848665866501
 20
131.6726502215767
 30
0.0
 10
189.4105215122711
 20
131.3931776466461
 30
0.0
 10
196.8096832729261
 20
131.3592026406129
 30
0.0
 10
204.2088451879841
 20
131.3931776583011
 30
0.0
 10
209.1345002039926
 20
131.6726502213015
 30
0.0
 10
211.5986617404119
 20
131.8124621931087
 30
0.0
  0
ARC
  5
B6
330
1F
100
AcDbEntity
  8
0
  6
Continuous
 62
     7
370
    25
100
AcDbCircle
 10
177.1860043284
 20
167.6649386584
 30
0.0
 40
0.200000000000013
100
AcDbArc
 50
89.4261430734
 51
182.2543919493
  0
ARC
  5
B7
330
1F
100
AcDbEntity
  8
0
  6
Continuous
 62
     7
370
    25
100
AcDbCircle
 10
216.4333505103
 20
167.6649386584
 30
0.0
 40
0.2000000000000171
100
AcDbArc
 50
1.0622756851
 51
90.0000002044
  0
LINE
  5
B8
330
1F
100
AcDbEntity
  8
0
  6
Continuous
 62
     7
370
    25
100
AcDbLine
 10
121.8096744391
 20
195.3649386584
 30
0.0
 11
271.8096803996
 21
195.3649386584
 31
0.0
  0
LINE
  5
B9
330
1F
100
AcDbEntity
  8
0
  6
Continuous
 62
     7
370
    25
100
AcDbLine
 10
269.6937974664
 20
170.3649382863
 30
0.0
 11
123.9255573723
 21
170.3649382863
 31
0.0
  0
SPLINE
  5
BA
330
1F
100
AcDbEntity
  8
0
  6
Continuous
 62
     7
370
    25
100
AcDbSpline
210
0.0
220
0.0
230
1.0
 70
    24
 71
     3
 72
    10
 73
     6
 74
     0
 42
0.000000001
 43
0.00000001
 40
0.0
 40
0.0
 40
0.0
 40
0.0
 40
0.5
 40
0.5
 40
1.0
 40
1.0
 40
1.0
 40
1.0
 10
193.5421648838328
 20
167.864938658389
 30
0.0
 10
194.6313376101703
 20
167.864938658389
 30
0.0
 10
195.7205103090633
 20
167.864938658389
 30
0.0
 10
197.8988556541354
 20
167.864938658389
 30
0.0
 10
198.9880283003241
 20
167.864938658389
 30
0.0
 10
200.0772009190906
 20
167.864938658389
 30
0.0
  0
SPLINE
  5
BB
330
1F
100
AcDbEntity
  8
0
  6
Continuous
 62
     7
370
    25
100
AcDbSpline
210
0.0
220
0.0
230
1.0
 70
    24
 71
     3
 72
    28
 73
    24
 74
     0
 42
0.000000001
 43
0.00000001
 40
0.0
 40
0.0
 40
0.0
 40
0.0
 40
0.1250000000000003
 40
0.1250000000000003
 40
0.2500000000000006
 40
0.2500000000000006
 40
0.3125000000000007
 40
0.3125000000000007
 40
0.3750000000000007
 40
0.3750000000000007
 40
0.5000000000000007
 40
0.5000000000000007
 40
0.5625000000000006
 40
0.5625000000000006
 40
0.6250000000000006
 40
0.6250000000000006
 40
0.7500000000000004
 40
0.7500000000000004
 40
0.8125000000000004
 40
0.8125000000000004
 40
0.8750000000000003
 40
0.8750000000000003
 40
1.0
 40
1.0
 40
1.0
 40
1.0
 10
200.0772009190906
 20
167.864938658389
 30
0.0
 10
201.08240832705
 20
167.864938658389
 30
0.0
 10
202.0611931127551
 20
167.864938658389
 30
0.0
 10
203.9682017472671
 20
167.864938658389
 30
0.0
 10
204.8964446065892
 20
167.864938658389
 30
0.0
 10
206.2495837778094
 20
167.864938658389
 30
0.0
 10
206.6944415824622
 20
167.864938658389
 30
0.0
 10
207.5556892909628
 20
167.864938658389
 30
0.0
 10
207.9740301625021
 20
167.864938658389
 30
0.0
 10
209.1923387831052
 20
167.864938658389
 30
0.0
 10
209.957145202358
 20
167.864938658389
 30
0.0
 10
211.0307114290646
 20
167.864938658389
 30
0.0
 10
211.3774203132092
 20
167.864938658389
 30
0.0
 10
212.0386903472736
 20
167.864938658389
 30
0.0
 10
212.3527075525916
 20
167.864938658389
 30
0.0
 10
213.2453612507319
 20
167.864938658389
 30
0.0
 10
213.7740645310576
 20
167.864938658389
 30
0.0
 10
214.4695783418739
 20
167.864938658389
 30
0.0
 10
214.6849129835926
 20
167.864938658389
 30
0.0
 10
215.0814809849849
 20
167.864938658389
 30
0.0
 10
215.2613525804852
 20
167.864938658389
 30
0.0
 10
215.7433326155025
 20
167.864938658389
 30
0.0
 10
215.9894892202004
 20
167.864938658389
 30
0.0
 10
216.159296722892
 20
167.864938658389
 30
0.0
  0
SPLINE
  5
BC
330
1F
100
AcDbEntity
  8
0
  6
Continuous
 62
     7
370
    25
100
AcDbSpline
210
0.0
220
0.0
230
1.0
 70
    24
 71
     3
 72
    28
 73
    24
 74
     0
 42
0.000000001
 43
0.00000001
 40
0.0
 40
0.0
 40
0.0
 40
0.0
 40
0.125
 40
0.125
 40
0.25
 40
0.25
 40
0.3125
 40
0.3125
 40
0.375
 40
0.375
 40
0.5000000000000004
 40
0.5000000000000004
 40
0.5625000000000004
 40
0.5625000000000004
 40
0.6250000000000004
 40
0.6250000000000004
 40
0.7500000000000006
 40
0.7500000000000006
 40
0.8125000000000004
 40
0.8125000000000004
 40
0.8750000000000003
 40
0.8750000000000003
 40
1.0
 40
1.0
 40
1.0
 40
1.0
 10
177.4600600236739
 20
167.864938658389
 30
0.0
 10
177.6297877250065
 20
167.864938658389
 30
0.0
 10
177.8751794807916
 20
167.864938658389
 30
0.0
 10
178.5107497209632
 20
167.864938658389
 30
0.0
 10
178.9008737692449
 20
167.864938658389
 30
0.0
 10
179.5983852279404
 20
167.864938658389
 30
0.0
 10
179.8499554102959
 20
167.864938658389
 30
0.0
 10
180.3818437953084
 20
167.864938658389
 30
0.0
 10
180.6631865017613
 20
167.864938658389
 30
0.0
 10
181.5532409806592
 20
167.864938658389
 30
0.0
 10
182.2060326219496
 20
167.864938658389
 30
0.0
 10
183.2775428540344
 20
167.864938658389
 30
0.0
 10
183.6520169998216
 20
167.864938658389
 30
0.0
 10
184.4237167319361
 20
167.864938658389
 30
0.0
 10
184.819992743885
 20
167.864938658389
 30
0.0
 10
186.0398134201515
 20
167.864938658389
 30
0.0
 10
186.8946865734894
 20
167.864938658389
 30
0.0
 10
188.2381943793879
 20
167.864938658389
 30
0.0
 10
188.6963846153896
 20
167.864938658389
 30
0.0
 10
189.6341604974779
 20
167.8649386583889
 30
0.0
 10
190.1106118976357
 20
167.864938658389
 30
0.0
 10
191.5533906386363
 20
167.864938658389
 30
0.0
 10
192.5368194584537
 20
167.864938658389
 30
0.0
 10
193.5421648838328
 20
167.864938658389
 30
0.0
  0
LINE
  5
BD
330
1F
100
AcDbEntity
  8
0
  6
Continuous
 62
     7
370
    25
100
AcDbLine
 10
216.0096783313
 20
168.5649394814
 30
0.0
 11
177.6096765074
 21
168.5649394814
 31
0.0
  0
SPLINE
  5
BE
330
1F
100
AcDbEntity
  8
0
  6
Continuous
 62
     7
370
    25
100
AcDbSpline
210
0.0
220
0.0
230
1.0
 70
     8
 71
     3
 72
     9
 73
     5
 74
     0
 42
0.000000001
 43
0.00000001
 40
0.0
 40
0.0
 40
0.0
 40
0.0
 40
0.5467106113697627
 40
1.0
 40
1.0
 40
1.0
 40
1.0
 10
212.463509303619
 20
132.7369823876392
 30
0.0
 10
212.4637397346106
 20
132.7367793165147
 30
0.0
 10
212.4641612208352
 20
132.7364078748045
 30
0.0
 10
212.4638215827821
 20
132.73662888591
 30
0.0
 10
212.4636676284567
 20
132.7367290678989
 30
0.0
  0
SPLINE
  5
BF
330
1F
100
AcDbEntity
  8
0
  6
Continuous
 62
     7
370
    25
100
AcDbSpline
210
0.0
220
0.0
230
1.0
 70
     8
 71
     3
 72
    10
 73
     6
 74
     0
 42
0.000000001
 43
0.00000001
 40
0.0
 40
0.0
 40
0.0
 40
0.0
 40
0.0473942629874493
 40
0.7065837944072134
 40
1.0
 40
1.0
 40
1.0
 40
1.0
 10
181.156156596829
 20
132.7372580591213
 30
0.0
 10
181.1560944403576
 20
132.7372064301995
 30
0.0
 10
181.1551677721774
 20
132.7364367134206
 30
0.0
 10
181.1562644511042
 20
132.7371954887731
 30
0.0
 10
181.1567402124282
 20
132.7376249636197
 30
0.0
 10
181.1568867537275
 20
132.7377572480213
 30
0.0
  0
SPLINE
  5
C0
330
1F
100
AcDbEntity
  8
0
  6
Continuous
 62
     7
370
    25
100
AcDbSpline
210
0.0
220
0.0
230
1.0
 70
     8
 71
     3
 72
     9
 73
     5
 74
     0
 42
0.000000001
 43
0.00000001
 40
0.0
 40
0.0
 40
0.0
 40
0.0
 40
0.29695817275817
 40
1.0
 40
1.0
 40
1.0
 40
1.0
 10
216.6006825986401
 20
167.6628380838405
 30
0.0
 10
216.6090632156983
 20
167.6628350222501
 30
0.0
 10
216.63728475606
 20
167.6628247124128
 30
0.0
 10
216.4724084701683
 20
167.6628763125745
 30
0.0
 10
216.3564935448662
 20
167.6629125896465
 30
0.0
  0
LINE
  5
C1
330
1F
100
AcDbEntity
  8
0
  6
Continuous
 62
     7
370
    25
100
AcDbLine
 10
177.0209763321
 20
167.6628399465
 30
0.0
 11
177.0186722401
 21
167.6628380838
 31
0.0
  0
LINE
  5
C2
330
1F
100
AcDbEntity
  8
0
  6
Continuous
 62
     7
370
    25
100
AcDbLine
 10
181.8096777546
 20
168.5649394814
 30
0.0
 11
181.8096777546
 21
167.8649388078
 31
0.0
  0
LINE
  5
C3
330
1F
100
AcDbEntity
  8
0
  6
Continuous
 62
     7
370
    25
100
AcDbLine
 10
211.8096770841
 20
167.8649388078
 30
0.0
 11
211.8096770841
 21
168.5649394814
 31
0.0
  0
SPLINE
  5
C4
330
1F
100
AcDbEntity
  8
0
  6
Continuous
 62
     7
370
    25
100
AcDbSpline
210
0.0
220
0.0
230
1.0
 70
     8
 71
     3
 72
     9
 73
     5
 74
     0
 42
0.000000001
 43
0.00000001
 40
0.0
 40
0.0
 40
0.0
 40
0.0
 40
0.0373186849409966
 40
1.0
 40
1.0
 40
1.0
 40
1.0
 10
182.1961095678703
 20
131.8000271740925
 30
0.0
 10
182.1961076745113
 20
131.800024646021
 30
0.0
 10
182.1960569396333
 20
131.7999569032423
 30
0.0
 10
182.1960723657216
 20
131.7999851144901
 30
0.0
 10
182.1960872161285
 20
131.8000122729313
 30
0.0
  0
SPLINE
  5
C5
330
1F
100
AcDbEntity
  8
0
  6
Continuous
 62
     7
370
    25
100
AcDbSpline
210
0.0
220
0.0
230
1.0
 70
     8
 71
     3
 72
     9
 73
     5
 74
     0
 42
0.000000001
 43
0.00000001
 40
0.0
 40
0.0
 40
0.0
 40
0.0
 40
0.9273968925462686
 40
0.9999999999999999
 40
0.9999999999999999
 40
0.9999999999999999
 40
0.9999999999999999
 10
211.4231214049355
 20
131.8001016798984
 30
0.0
 10
211.4231730784468
 20
131.8000616934198
 30
0.0
 10
211.4232287973215
 20
131.8000185765204
 30
0.0
 10
211.4232537068752
 20
131.8000196458735
 30
0.0
 10
211.4232555153862
 20
131.8000197235119
 30
0.0
  0
LINE
  5
C6
330
1F
100
AcDbEntity
  8
0
  6
Continuous
 62
     7
370
    25
100
AcDbLine
 10
177.1896164986
 20
167.8649388078
 30
0.0
 11
177.4600595358
 21
167.8649388078
 31
0.0
  0
LINE
  5
C7
330
1F
100
AcDbEntity
  8
0
  6
Continuous
 62
     8
370
    18
100
AcDbLine
 10
122.4260758731
 20
171.8256730411
 30
0.0
 11
271.1932789656
 21
171.8256730411
 31
0.0
  0
LINE
  5
C8
330
1F
100
AcDbEntity
  8
0
  6
Continuous
 62
     8
370
    18
100
AcDbLine
 10
208.4752209607
 20
170.2464293513
 30
0.0
 11
185.144133878
 21
170.2464293513
 31
0.0
  0
SPLINE
  5
C9
330
1F
100
AcDbEntity
  8
0
  6
Continuous
 62
     8
370
    18
100
AcDbSpline
210
0.0
220
0.0
230
1.0
 70
     8
 71
     3
 72
    10
 73
     6
 74
     0
 42
0.000000001
 43
0.00000001
 40
0.0
 40
0.0
 40
0.0
 40
0.0
 40
0.5
 40
0.5
 40
1.0
 40
1.0
 40
1.0
 40
1.0
 10
200.1104975685705
 20
167.6629118608588
 30
0.0
 10
199.0167694604608
 20
167.6628746231099
 30
0.0
 10
197.9065783438444
 20
167.6628224384321
 30
0.0
 10
195.7007433152194
 20
167.6628226195048
 30
0.0
 10
194.6024507297263
 20
167.6628790388434
 30
0.0
 10
193.5088574449213
 20
167.6629117419259
 30
0.0
  0
ARC
  5
CA
330
1F
100
AcDbEntity
  8
0
  6
Continuous
 62
     8
370
    18
100
AcDbCircle
 10
193.8380260603
 20
167.7124021085
 30
0.0
 40
0.3328681635705866
100
AcDbArc
 50
152.7257857382
 51
188.5502086749
  0
ARC
  5
CB
330
1F
100
AcDbEntity
  8
0
  6
Continuous
 62
     8
370
    18
100
AcDbCircle
 10
199.7812334756
 20
167.712402389
 30
0.0
 40
0.3329626794446424
100
AcDbArc
 50
351.4521877811
 51
27.2657749873
  0
SPLINE
  5
CC
330
1F
100
AcDbEntity
  8
0
  6
Continuous
 62
     8
370
    18
100
AcDbSpline
210
0.0
220
0.0
230
1.0
 70
     8
 71
     3
 72
    28
 73
    24
 74
     0
 42
0.000000001
 43
0.00000001
 40
0.0
 40
0.0
 40
0.0
 40
0.0
 40
0.1250000000000002
 40
0.1250000000000002
 40
0.2500000000000004
 40
0.2500000000000004
 40
0.3750000000000007
 40
0.3750000000000007
 40
0.4375000000000007
 40
0.4375000000000007
 40
0.5000000000000007
 40
0.5000000000000007
 40
0.6250000000000007
 40
0.6250000000000007
 40
0.6875000000000006
 40
0.6875000000000006
 40
0.7500000000000004
 40
0.7500000000000004
 40
0.8125000000000003
 40
0.8125000000000003
 40
0.8750000000000002
 40
0.8750000000000002
 40
1.0
 40
1.0
 40
1.0
 40
1.0
 10
216.3564933435598
 20
167.6629117415661
 30
0.0
 10
216.1853054544016
 20
167.6629421334376
 30
0.0
 10
215.9373033176447
 20
167.662981626065
 30
0.0
 10
215.2900575150107
 20
167.6630411845539
 30
0.0
 10
214.8879848066449
 20
167.663066529968
 30
0.0
 10
213.9541786166782
 20
167.6631062368394
 30
0.0
 10
213.4218387947976
 20
167.6631210058837
 30
0.0
 10
212.5231573579743
 20
167.6631360936171
 30
0.0
 10
212.2070249033897
 20
167.6631398266912
 30
0.0
 10
211.5413377545009
 20
167.6631447983
 30
0.0
 10
211.1921693398367
 20
167.663146018644
 30
0.0
 10
210.1111122043104
 20
167.6631460513417
 30
0.0
 10
209.3409430740046
 20
167.663141332131
 30
0.0
 10
208.114218791609
 20
167.6631264695601
 30
0.0
 10
207.6930102224188
 20
167.6631202364402
 30
0.0
 10
206.8258703153034
 20
167.6631054079873
 30
0.0
 10
206.3788855559393
 20
167.6630967321238
 30
0.0
 10
205.4662909331317
 20
167.6630767242868
 30
0.0
 10
205.0017362809234
 20
167.663065389356
 30
0.0
 10
204.0567374120978
 20
167.6630403227801
 30
0.0
 10
203.5752835424109
 20
167.6630265286156
 30
0.0
 10
202.1166807419142
 20
167.662981809641
 30
0.0
 10
201.1238809334283
 20
167.6629463631404
 30
0.0
 10
200.1104975685705
 20
167.6629118608588
 30
0.0
  0
SPLINE
  5
CD
330
1F
100
AcDbEntity
  8
0
  6
Continuous
 62
     8
370
    18
100
AcDbSpline
210
0.0
220
0.0
230
1.0
 70
     8
 71
     3
 72
    28
 73
    24
 74
     0
 42
0.000000001
 43
0.00000001
 40
0.0
 40
0.0
 40
0.0
 40
0.0
 40
0.1249999999999998
 40
0.1249999999999998
 40
0.2499999999999997
 40
0.2499999999999997
 40
0.3749999999999995
 40
0.3749999999999995
 40
0.4374999999999995
 40
0.4374999999999995
 40
0.4999999999999996
 40
0.4999999999999996
 40
0.6249999999999996
 40
0.6249999999999996
 40
0.6874999999999997
 40
0.6874999999999997
 40
0.7499999999999997
 40
0.7499999999999997
 40
0.8124999999999997
 40
0.8124999999999997
 40
0.8749999999999997
 40
0.8749999999999997
 40
1.0
 40
1.0
 40
1.0
 40
1.0
 10
193.5088574449215
 20
167.6629117419259
 30
0.0
 10
192.4953375921227
 20
167.6629420504729
 30
0.0
 10
191.5038678440524
 20
167.6629816352898
 30
0.0
 10
189.5643435211161
 20
167.6630411561097
 30
0.0
 10
188.6128026207596
 20
167.6630665279381
 30
0.0
 10
186.8062119310404
 20
167.6631062487294
 30
0.0
 10
185.9439718747223
 20
167.6631210078785
 30
0.0
 10
184.7134599357661
 20
167.6631360904413
 30
0.0
 10
184.3136866160218
 20
167.6631398236964
 30
0.0
 10
183.5351092304211
 20
167.6631447968325
 30
0.0
 10
183.157083818178
 20
167.6631460185214
 30
0.0
 10
182.0753066683554
 20
167.6631460515799
 30
0.0
 10
181.4161324794303
 20
167.6631413334804
 30
0.0
 10
180.5169696735908
 20
167.6631264695638
 30
0.0
 10
180.2326691213406
 20
167.6631202356965
 30
0.0
 10
179.695061497989
 20
167.6631054072664
 30
0.0
 10
179.4411372730791
 20
167.6630967318011
 30
0.0
 10
178.9685945992405
 20
167.6630767244156
 30
0.0
 10
178.7505287853476
 20
167.663065389371
 30
0.0
 10
178.3510729362658
 20
167.6630403228039
 30
0.0
 10
178.1693149492667
 20
167.6630265286723
 30
0.0
 10
177.6822321591098
 20
167.6629818097522
 30
0.0
 10
177.4339694264069
 20
167.6629463662677
 30
0.0
 10
177.26286158234
 20
167.6629118610128
 30
0.0
  0
ARC
  5
CE
330
1F
100
AcDbEntity
  8
0
  6
Continuous
 62
     8
370
    18
100
AcDbCircle
 10
177.4614864097
 20
167.6662901022
 30
0.0
 40
0.1986538301430395
100
AcDbArc
 50
90.4115428048
 51
180.9741898085
  0
LINE
  5
CF
330
1F
100
AcDbEntity
  8
0
  6
Continuous
 62
     8
370
    18
100
AcDbLine
 10
216.8096769723
 20
169.3649381224
 30
0.0
 11
176.8096778664
 21
169.3649381224
 31
0.0
  0
SPLINE
  5
D0
330
1F
100
AcDbEntity
  8
0
  6
Continuous
 62
     8
370
    18
100
AcDbSpline
210
0.0
220
0.0
230
1.0
 70
     8
 71
     3
 72
    13
 73
     9
 74
     0
 42
0.000000001
 43
0.00000001
 40
0.0
 40
0.0
 40
0.0
 40
0.0
 40
0.1201164467645873
 40
0.2402902421902356
 40
0.3621936854638785
 40
0.4849258992585301
 40
0.9674913661032564
 40
1.0
 40
1.0
 40
1.0
 40
1.0
 10
210.2671470615164
 20
132.8132167283069
 30
0.0
 10
210.6425207965686
 20
132.8117739327664
 30
0.0
 10
211.3934474859364
 20
132.8088876528338
 30
0.0
 10
212.084422166387
 20
132.788849584343
 30
0.0
 10
212.4100625559538
 20
132.7624550165041
 30
0.0
 10
212.5049415586246
 20
132.725723786765
 30
0.0
 10
212.4619468618963
 20
132.7379341171479
 30
0.0
 10
212.4634165453147
 20
132.7370388894685
 30
0.0
 10
212.463509303619
 20
132.7369823876392
 30
0.0
  0
SPLINE
  5
D1
330
1F
100
AcDbEntity
  8
0
  6
Continuous
 62
     8
370
    18
100
AcDbSpline
210
0.0
220
0.0
230
1.0
 70
     8
 71
     3
 72
    25
 73
    21
 74
     0
 42
0.000000001
 43
0.00000001
 40
0.0
 40
0.0
 40
0.0
 40
0.0
 40
0.0298473512519396
 40
0.0837162929244271
 40
0.1382775168733903
 40
0.1925107339653279
 40
0.2370593109118787
 40
0.2812704276311527
 40
0.3256651393187401
 40
0.3704607828024047
 40
0.4155347772472279
 40
0.4610390095994876
 40
0.6406226577934218
 40
0.6943699606471982
 40
0.748126429269337
 40
0.8021388587283074
 40
0.8566333139786155
 40
0.9108106448104419
 40
0.9555297673503056
 40
1.0
 40
1.0
 40
1.0
 40
1.0
 10
181.1568867537275
 20
132.7377572480213
 30
0.0
 10
181.1570421037695
 20
132.7379284673742
 30
0.0
 10
181.1574778318686
 20
132.7384087059517
 30
0.0
 10
181.1601529807475
 20
132.739401177418
 30
0.0
 10
181.1711415240597
 20
132.7574609489514
 30
0.0
 10
181.504198769043
 20
132.7889963496342
 30
0.0
 10
182.2910666073541
 20
132.8089029211002
 30
0.0
 10
183.3751072418164
 20
132.8157563888406
 30
0.0
 10
184.7728537192936
 20
132.8071414612722
 30
0.0
 10
186.3855875583419
 20
132.7871504060577
 30
0.0
 10
188.1252003801557
 20
132.7603087375695
 30
0.0
 10
191.6228396455318
 20
132.7260123819648
 30
0.0
 10
195.2310209583225
 20
132.7393596038288
 30
0.0
 10
198.9466635594702
 20
132.7359159624458
 30
0.0
 10
201.0372023317609
 20
132.7354169299182
 30
0.0
 10
203.1368055250839
 20
132.7394695557778
 30
0.0
 10
205.2440833735367
 20
132.7558759273009
 30
0.0
 10
207.2184257626636
 20
132.787064182153
 30
0.0
 10
208.9501299889802
 20
132.8087291002942
 30
0.0
 10
209.8289588509576
 20
132.8117236378
 30
0.0
 10
210.2671470615164
 20
132.8132167283069
 30
0.0
  0
SPLINE
  5
D2
330
1F
100
AcDbEntity
  8
0
  6
Continuous
 62
     8
370
    18
100
AcDbSpline
210
0.0
220
0.0
230
1.0
 70
     8
 71
     3
 72
    10
 73
     6
 74
     0
 42
0.000000001
 43
0.00000001
 40
0.0
 40
0.0
 40
0.0
 40
0.0
 40
0.131767057192921
 40
0.659279096850037
 40
0.9999999999999999
 40
0.9999999999999999
 40
0.9999999999999999
 40
0.9999999999999999
 10
177.262861293842
 20
167.6629125896465
 30
0.0
 10
177.2415073620949
 20
167.6629084225362
 30
0.0
 10
177.1346657801678
 20
167.6628875729496
 30
0.0
 10
177.0098747031912
 20
167.6628355504928
 30
0.0
 10
177.0178475468072
 20
167.6628387075578
 30
0.0
 10
177.0209763321177
 20
167.6628399464857
 30
0.0
  0
SPLINE
  5
D3
330
1F
100
AcDbEntity
  8
0
  6
Continuous
 62
     8
370
    18
100
AcDbSpline
210
0.0
220
0.0
230
1.0
 70
     8
 71
     3
 72
    51
 73
    47
 74
     0
 42
0.000000001
 43
0.00000001
 40
0.0
 40
0.0
 40
0.0
 40
0.0
 40
0.0057969313152228
 40
0.011566917999374
 40
0.0173187755575137
 40
0.0230614030115712
 40
0.0288037423235875
 40
0.0345547368221176
 40
0.0403232895928251
 40
0.0461182227963085
 40
0.0519482388268048
 40
0.0578218841292103
 40
0.0637475163577102
 40
0.0697332753990351
 40
0.0757870586102983
 40
0.088590371408157
 40
0.1030862657170181
 40
0.1193394373283889
 40
0.1373957136346571
 40
0.1572884846992758
 40
0.1755054038576248
 40
0.2022443480785966
 40
0.2375053372774759
 40
0.2812883872566649
 40
0.3335935067614803
 40
0.4125549190624178
 40
0.4713231645983779
 40
0.5098983029481874
 40
0.5261065078604068
 40
0.5402189161807748
 40
0.5522450131309338
 40
0.5730300650971056
 40
0.5916888674858394
 40
0.617497572612229
 40
0.6425094864935673
 40
0.6674324969366389
 40
0.6922803905210363
 40
0.7171468507380674
 40
0.7427414320584252
 40
0.7782352888134328
 40
0.8239958092266448
 40
0.8398700577847475
 40
0.8654075785435605
 40
0.900608398176595
 40
0.9454725349622952
 40
1.0
 40
1.0
 40
1.0
 40
1.0
 10
209.5758228957465
 20
131.8111386078112
 30
0.0
 10
209.5212206316837
 20
131.8111381075801
 30
0.0
 10
209.4122698995376
 20
131.8111371094429
 30
0.0
 10
209.2414445216846
 20
131.8111286663984
 30
0.0
 10
209.0657936071559
 20
131.8111059548238
 30
0.0
 10
208.8847562746834
 20
131.8110633838448
 30
0.0
 10
208.6984837557914
 20
131.8109965154457
 30
0.0
 10
208.5069373166555
 20
131.8109021712792
 30
0.0
 10
208.310129303169
 20
131.8107783511939
 30
0.0
 10
208.1080581260022
 20
131.8106240529701
 30
0.0
 10
207.9007271852918
 20
131.8104394470815
 30
0.0
 10
207.6881339240723
 20
131.8102244172075
 30
0.0
 10
207.4702946029253
 20
131.8099829786126
 30
0.0
 10
207.2471547806563
 20
131.8097051111338
 30
0.0
 10
206.9350942783479
 20
131.809334112743
 30
0.0
 10
206.5075947253805
 20
131.8084125304296
 30
0.0
 10
205.9410417598073
 20
131.8069216309087
 30
0.0
 10
205.3014012937959
 20
131.805544943583
 30
0.0
 10
204.588421032432
 20
131.8045202302165
 30
0.0
 10
203.8485801886524
 20
131.8034277064998
 30
0.0
 10
202.9944117406396
 20
131.8018710772554
 30
0.0
 10
201.9377980514359
 20
131.800807150722
 30
0.0
 10
200.5444337980483
 20
131.8001239507503
 30
0.0
 10
198.8143110335864
 20
131.7999889309143
 30
0.0
 10
196.5085699461935
 20
131.800051992284
 30
0.0
 10
194.0054449277024
 20
131.7999346175766
 30
0.0
 10
191.6831694507625
 20
131.8005039285355
 30
0.0
 10
190.1874795103505
 20
131.8026274481482
 30
0.0
 10
189.2799931765962
 20
131.8042016979332
 30
0.0
 10
188.7224301188593
 20
131.8051967124414
 30
0.0
 10
188.1054786916257
 20
131.8065318279098
 30
0.0
 10
187.4314474938105
 20
131.8079545489921
 30
0.0
 10
186.5902671797293
 20
131.8095517745757
 30
0.0
 10
185.72646350334
 20
131.8104875220607
 30
0.0
 10
184.8532960862887
 20
131.8111029557795
 30
0.0
 10
184.0879642968554
 20
131.811135613481
 30
0.0
 10
183.4379646341697
 20
131.8111788010986
 30
0.0
 10
182.9224375203576
 20
131.81060860805
 30
0.0
 10
182.4983956616944
 20
131.8097107935012
 30
0.0
 10
182.2478746310702
 20
131.8058795960254
 30
0.0
 10
182.1998726571574
 20
131.8043499050517
 30
0.0
 10
182.2001538347316
 20
131.8021587459929
 30
0.0
 10
182.1976715862956
 20
131.8009944574808
 30
0.0
 10
182.1970324868047
 20
131.8001793759335
 30
0.0
 10
182.1961913434455
 20
131.7999870547336
 30
0.0
 10
182.1961352249799
 20
131.8000095274278
 30
0.0
 10
182.196104437694
 20
131.8000218562264
 30
0.0
  0
LWPOLYLINE
  5
D4
330
1F
100
AcDbEntity
  8
0
  6
Continuous
 62
     8
370
    18
100
AcDbPolyline
 90
        8
 70
   128
 43
0.0
 10
211.4232555154
 20
131.8000197235
 10
211.4239940542
 20
131.7999377671
 10
211.4241058129
 20
131.8003699008
 10
211.420289253
 20
131.8023070518
 10
211.3746684167
 20
131.8061366502
 10
211.0657272982
 20
131.809444708
 10
210.4757158208
 20
131.8107783619
 10
209.5758225891
 20
131.8111359898
  0
LINE
  5
D5
330
1F
100
AcDbEntity
  8
0
  6
Continuous
 62
     7
370
    25
100
AcDbLine
 10
368.6144162807
 20
273.4909901256
 30
0.0
 11
389.6636817976
 21
274.0421840781
 31
0.0
  0
LINE
  5
D6
330
1F
100
AcDbEntity
  8
0
  6
Continuous
 62
     7
370
    25
100
AcDbLine
 10
389.6636817976
 20
422.8093871707
 30
0.0
 11
366.1244161803
 21
423.4257886047
 31
0.0
  0
ARC
  5
D7
330
1F
100
AcDbEntity
  8
0
  6
Continuous
 62
     7
370
    25
100
AcDbCircle
 10
389.6244161803
 20
275.54166897
 30
0.0
 40
1.500000000000009
100
AcDbArc
 50
271.5
 51
360.0
  0
ARC
  5
D8
330
1F
100
AcDbEntity
  8
0
  6
Continuous
 62
     7
370
    25
100
AcDbCircle
 10
389.6244161803
 20
421.3099022788
 30
0.0
 40
1.500000000000009
100
AcDbArc
 50
0.0
 51
88.5
  0
ARC
  5
D9
330
1F
100
AcDbEntity
  8
0
  6
Continuous
 62
     7
370
    25
100
AcDbCircle
 10
392.1244161803
 20
367.6257856244
 30
0.0
 40
0.8000000000000114
100
AcDbArc
 50
360.0
 51
90.0
  0
ARC
  5
DA
330
1F
100
AcDbEntity
  8
0
  6
Continuous
 62
     7
370
    25
100
AcDbCircle
 10
392.1244161803
 20
329.2257856244
 30
0.0
 40
0.7999999999999545
100
AcDbArc
 50
270.0
 51
0.0
  0
LINE
  5
DB
330
1F
100
AcDbEntity
  8
0
  6
Continuous
 62
     7
370
    25
100
AcDbLine
 10
392.1244167163
 20
368.4257851774
 30
0.0
 11
391.1244165524
 21
368.4257851774
 31
0.0
  0
LINE
  5
DC
330
1F
100
AcDbEntity
  8
0
  6
Continuous
 62
     7
370
    25
100
AcDbLine
 10
391.1244165524
 20
328.4257860715
 30
0.0
 11
392.1244167163
 21
328.4257860715
 31
0.0
  0
SPLINE
  5
DD
330
1F
100
AcDbEntity
  8
0
  6
Continuous
 62
     7
370
    25
100
AcDbSpline
210
0.0
220
0.0
230
1.0
 70
     8
 71
     3
 72
    11
 73
     7
 74
     0
 42
0.000000001
 43
0.00000001
 40
0.0
 40
0.0
 40
0.0
 40
0.0
 40
0.2481341753175001
 40
0.497162414485752
 40
0.747788063689239
 40
1.0
 40
1.0
 40
1.0
 40
1.0
 10
393.6244160308872
 20
328.6021785670878
 30
0.0
 10
396.5820965288711
 20
328.699069650004
 30
0.0
 10
402.5081144817535
 20
328.8932009286282
 30
0.0
 10
411.3580342281392
 20
329.927020660532
 30
0.0
 10
420.1818303798473
 20
331.2719829178894
 30
0.0
 10
426.0289556855144
 20
332.2961048961355
 30
0.0
 10
428.9617412164245
 20
332.809781269169
 30
0.0
  0
SPLINE
  5
DE
330
1F
100
AcDbEntity
  8
0
  6
Continuous
 62
     7
370
    25
100
AcDbSpline
210
0.0
220
0.0
230
1.0
 70
     8
 71
     3
 72
    11
 73
     7
 74
     0
 42
0.000000001
 43
0.00000001
 40
0.0
 40
0.0
 40
0.0
 40
0.0
 40
0.2522121235409651
 40
0.50283781127908
 40
0.7518659630526565
 40
1.0
 40
1.0
 40
1.0
 40
1.0
 10
428.9617412164245
 20
364.0417899796726
 30
0.0
 10
426.0289560568253
 20
364.5554678245142
 30
0.0
 10
420.1818332068205
 20
365.5795924366711
 30
0.0
 10
411.3580364916586
 20
366.9245542836144
 30
0.0
 10
402.508115359171
 20
367.9583720721695
 30
0.0
 10
396.5820966167199
 20
368.1525021888143
 30
0.0
 10
393.6244160308872
 20
368.2493926817538
 30
0.0
  0
SPLINE
  5
DF
330
1F
100
AcDbEntity
  8
0
  6
Continuous
 62
     7
370
    25
100
AcDbSpline
210
0.0
220
0.0
230
1.0
 70
     8
 71
     3
 72
    11
 73
     7
 74
     0
 42
0.000000001
 43
0.00000001
 40
0.0
 40
0.0
 40
0.0
 40
0.0
 40
0.2430202972237465
 40
0.4999995610482781
 40
0.7569815486405854
 40
1.0
 40
1.0
 40
1.0
 40
1.0
 10
428.7522457912002
 20
332.772080400026
 30
0.0
 10
428.8706216739436
 20
332.8045731786349
 30
0.0
 10
429.1141728920377
 20
332.8714251051089
 30
0.0
 10
429.4145522909689
 20
333.1175797736719
 30
0.0
 10
429.628146194629
 20
333.4419196741479
 30
0.0
 10
429.6693221156484
 20
333.6911003541009
 30
0.0
 10
429.6893351151977
 20
333.812211253679
 30
0.0
  0
SPLINE
  5
E0
330
1F
100
AcDbEntity
  8
0
  6
Continuous
 62
     7
370
    25
100
AcDbSpline
210
0.0
220
0.0
230
1.0
 70
     8
 71
     3
 72
    11
 73
     7
 74
     0
 42
0.000000001
 43
0.00000001
 40
0.0
 40
0.0
 40
0.0
 40
0.0
 40
0.2430326296676671
 40
0.5000005320456875
 40
0.7569656920464948
 40
1.0
 40
1.0
 40
1.0
 40
1.0
 10
429.6893351151977
 20
363.0393599951627
 30
0.0
 10
429.6693240084737
 20
363.1604679107826
 30
0.0
 10
429.6281543761386
 20
363.4096279611337
 30
0.0
 10
429.414555190007
 20
363.7339940826408
 30
0.0
 10
429.1141503791044
 20
363.9801566726651
 30
0.0
 10
428.8706189175887
 20
364.0470002494113
 30
0.0
 10
428.7522457912002
 20
364.0794908488156
 30
0.0
  0
LINE
  5
E1
330
1F
100
AcDbEntity
  8
0
  6
Continuous
 62
     7
370
    25
100
AcDbLine
 10
393.6244160309
 20
365.4257865483
 30
0.0
 11
392.9244153574
 21
365.4257865483
 31
0.0
  0
LINE
  5
E2
330
1F
100
AcDbEntity
  8
0
  6
Continuous
 62
     7
370
    25
100
AcDbLine
 10
392.9244153574
 20
331.4257847005
 30
0.0
 11
393.6244160309
 21
331.4257847005
 31
0.0
  0
SPLINE
  5
E3
330
1F
100
AcDbEntity
  8
0
  6
Continuous
 62
     7
370
    25
100
AcDbSpline
210
0.0
220
0.0
230
1.0
 70
     8
 71
     3
 72
    19
 73
    15
 74
     0
 42
0.000000001
 43
0.00000001
 40
0.0
 40
0.0
 40
0.0
 40
0.0
 40
0.1339136267362113
 40
0.2406622784524538
 40
0.3203517161597151
 40
0.3735083862426806
 40
0.4195102004329496
 40
0.4683839862572973
 40
0.5201305266479126
 40
0.580848796232934
 40
0.6591299440632815
 40
0.7550464091543883
 40
0.8686378059338261
 40
1.0
 40
1.0
 40
1.0
 40
1.0
 10
429.6768926456008
 20
333.6368366936209
 30
0.0
 10
429.7613381940338
 20
334.9553693936975
 30
0.0
 10
429.9130991356672
 20
337.3249645689486
 30
0.0
 10
430.0229170808659
 20
340.4838974643829
 30
0.0
 10
430.0747461259228
 20
342.8471224094392
 30
0.0
 10
430.0990133544037
 20
344.6114421208288
 30
0.0
 10
430.1120015704749
 20
346.07183937859
 30
0.0
 10
430.1187189011902
 20
347.5183681012048
 30
0.0
 10
430.1194643556354
 20
349.1101019111637
 30
0.0
 10
430.1116067750539
 20
350.9919464125149
 30
0.0
 10
430.0878443245564
 20
353.3094813625444
 30
0.0
 10
430.0306693773006
 20
356.1481865897088
 30
0.0
 10
429.9145747552245
 20
359.509503801016
 30
0.0
 10
429.7598613773476
 20
361.9213310536081
 30
0.0
 10
429.6768926456008
 20
363.2147308299305
 30
0.0
  0
ARC
  5
E4
330
1F
100
AcDbEntity
  8
0
  6
Continuous
 62
     7
370
    25
100
AcDbCircle
 10
390.7431677197
 20
374.7757965263
 30
0.0
 40
0.499999999999973
100
AcDbArc
 50
319.6848181752
 51
358.217348702
  0
ARC
  5
E5
330
1F
100
AcDbEntity
  8
0
  6
Continuous
 62
     7
370
    25
100
AcDbCircle
 10
390.7431677197
 20
398.0757747226
 30
0.0
 40
0.4999999999999762
100
AcDbArc
 50
1.782651298
 51
40.3151818248
  0
ARC
  5
E6
330
1F
100
AcDbEntity
  8
0
  6
Continuous
 62
     7
370
    25
100
AcDbCircle
 10
390.7431677197
 20
298.7757965263
 30
0.0
 40
0.4999999999999762
100
AcDbArc
 50
319.6848181752
 51
358.217348702
  0
ARC
  5
E7
330
1F
100
AcDbEntity
  8
0
  6
Continuous
 62
     7
370
    25
100
AcDbCircle
 10
390.7431677197
 20
322.0757747226
 30
0.0
 40
0.4999999999999762
100
AcDbArc
 50
1.782651298
 51
40.3151818248
  0
ARC
  5
E8
330
1F
100
AcDbEntity
  8
0
  6
Continuous
 62
     7
370
    25
100
AcDbCircle
 10
16.4244161803
 20
386.4257856244
 30
0.0
 40
375.0
100
AcDbArc
 50
358.217348702
 51
0.0
  0
ARC
  5
E9
330
1F
100
AcDbEntity
  8
0
  6
Continuous
 62
     7
370
    25
100
AcDbCircle
 10
16.4244161803
 20
386.4257856244
 30
0.0
 40
375.0000000000001
100
AcDbArc
 50
0.0
 51
1.782651298
  0
ARC
  5
EA
330
1F
100
AcDbEntity
  8
0
  6
Continuous
 62
     7
370
    25
100
AcDbCircle
 10
16.4244161803
 20
310.4257856244
 30
0.0
 40
375.0
100
AcDbArc
 50
358.217348702
 51
0.0
  0
ARC
  5
EB
330
1F
100
AcDbEntity
  8
0
  6
Continuous
 62
     7
370
    25
100
AcDbCircle
 10
16.4244161803
 20
310.4257856244
 30
0.0
 40
375.0000000000001
100
AcDbArc
 50
0.0
 51
1.782651298
  0
ARC
  5
EC
330
1F
100
AcDbEntity
  8
0
  6
Continuous
 62
     7
370
    25
100
AcDbCircle
 10
393.8244161803
 20
328.8021125334
 30
0.0
 40
0.2000000000000415
100
AcDbArc
 50
179.426139537
 51
272.2543922924
  0
ARC
  5
ED
330
1F
100
AcDbEntity
  8
0
  6
Continuous
 62
     7
370
    25
100
AcDbCircle
 10
393.8244161803
 20
368.0494587154
 30
0.0
 40
0.2000000000000058
100
AcDbArc
 50
91.062272646
 51
180.0000002038
  0
ELLIPSE
  5
EE
330
1F
100
AcDbEntity
  8
0
  6
Continuous
 62
     7
370
    25
100
AcDbEllipse
 10
-330.7510971977
 20
348.4257856244
 30
0.0
 11
1779.284083631739
 21
-4.149569576838984E-12
 31
0.0
210
0.0
220
0.0
230
1.0
 40
0.0453968373
 41
5.114824691439265
 42
5.116346132876854
  0
LINE
  5
EF
330
1F
100
AcDbEntity
  8
0
  6
Continuous
 62
     7
370
    25
100
AcDbLine
 10
366.1244161803
 20
274.1049626702
 30
0.0
 11
366.1244161803
 21
423.4257886047
 31
0.0
  0
LINE
  5
F0
330
1F
100
AcDbEntity
  8
0
  6
Continuous
 62
     7
370
    25
100
AcDbLine
 10
368.6144162807
 20
274.1531753773
 30
0.0
 11
368.6144162807
 21
273.4909901256
 31
0.0
  0
LINE
  5
F1
330
1F
100
AcDbEntity
  8
0
  6
Continuous
 62
     7
370
    25
100
AcDbLine
 10
391.1244165524
 20
421.3099056715
 30
0.0
 11
391.1244165524
 21
275.5416655773
 31
0.0
  0
SPLINE
  5
F2
330
1F
100
AcDbEntity
  8
0
  6
Continuous
 62
     7
370
    25
100
AcDbSpline
210
0.0
220
0.0
230
1.0
 70
    24
 71
     3
 72
    10
 73
     6
 74
     0
 42
0.000000001
 43
0.00000001
 40
0.0
 40
0.0
 40
0.0
 40
0.0
 40
0.5
 40
0.5
 40
1.0
 40
1.0
 40
1.0
 40
1.0
 10
393.6244161803205
 20
345.1582730865557
 30
0.0
 10
393.6244161803205
 20
346.2474458133682
 30
0.0
 10
393.6244161803205
 20
347.3366185127439
 30
0.0
 10
393.6244161803205
 20
349.514963858796
 30
0.0
 10
393.6244161803205
 20
350.6041365054821
 30
0.0
 10
393.6244161803206
 20
351.6933091247536
 30
0.0
  0
SPLINE
  5
F3
330
1F
100
AcDbEntity
  8
0
  6
Continuous
 62
     7
370
    25
100
AcDbSpline
210
0.0
220
0.0
230
1.0
 70
    24
 71
     3
 72
    28
 73
    24
 74
     0
 42
0.000000001
 43
0.00000001
 40
0.0
 40
0.0
 40
0.0
 40
0.0
 40
0.1249999999999996
 40
0.1249999999999996
 40
0.2499999999999993
 40
0.2499999999999993
 40
0.3124999999999992
 40
0.3124999999999992
 40
0.3749999999999991
 40
0.3749999999999991
 40
0.4999999999999992
 40
0.4999999999999992
 40
0.5624999999999991
 40
0.5624999999999991
 40
0.6249999999999991
 40
0.6249999999999991
 40
0.7499999999999991
 40
0.7499999999999991
 40
0.8124999999999993
 40
0.8124999999999993
 40
0.8749999999999996
 40
0.8749999999999996
 40
1.0
 40
1.0
 40
1.0
 40
1.0
 10
393.6244161803205
 20
329.0761682287042
 30
0.0
 10
393.6244161803205
 20
329.2458959264592
 30
0.0
 10
393.6244161803205
 20
329.4912876856458
 30
0.0
 10
393.6244161803205
 20
330.1268579259642
 30
0.0
 10
393.6244161803205
 20
330.5169819738475
 30
0.0
 10
393.6244161803205
 20
331.2144934331578
 30
0.0
 10
393.6244161803205
 20
331.4660636156493
 30
0.0
 10
393.6244161803205
 20
331.9979520003545
 30
0.0
 10
393.6244161803205
 20
332.2792947060308
 30
0.0
 10
393.6244161803205
 20
333.169349184134
 30
0.0
 10
393.6244161803205
 20
333.8221408277764
 30
0.0
 10
393.6244161803205
 20
334.8936510585013
 30
0.0
 10
393.6244161803205
 20
335.2681252051408
 30
0.0
 10
393.6244161803205
 20
336.0398249365889
 30
0.0
 10
393.6244161803205
 20
336.4361009484248
 30
0.0
 10
393.6244161803205
 20
337.6559216233828
 30
0.0
 10
393.6244161803205
 20
338.5107947765052
 30
0.0
 10
393.6244161803205
 20
339.8543025834822
 30
0.0
 10
393.6244161803205
 20
340.31249281979
 30
0.0
 10
393.6244161803205
 20
341.2502687031428
 30
0.0
 10
393.6244161803205
 20
341.7267201020711
 30
0.0
 10
393.6244161803205
 20
343.1694988419609
 30
0.0
 10
393.6244161803205
 20
344.1529276579669
 30
0.0
 10
393.6244161803205
 20
345.1582730865557
 30
0.0
  0
ARC
  5
F4
330
1F
100
AcDbEntity
  8
0
  6
Continuous
 62
     7
370
    25
100
AcDbCircle
 10
393.8230629399
 20
367.7739784613
 30
0.0
 40
0.1986520337760912
100
AcDbArc
 50
89.0252831062
 51
179.5884432463
  0
SPLINE
  5
F5
330
1F
100
AcDbEntity
  8
0
  6
Continuous
 62
     7
370
    25
100
AcDbSpline
210
0.0
220
0.0
230
1.0
 70
    24
 71
     3
 72
    28
 73
    24
 74
     0
 42
0.000000001
 43
0.00000001
 40
0.0
 40
0.0
 40
0.0
 40
0.0
 40
0.125
 40
0.125
 40
0.25
 40
0.25
 40
0.3125
 40
0.3125
 40
0.375
 40
0.375
 40
0.5000000000000004
 40
0.5000000000000004
 40
0.5625000000000004
 40
0.5625000000000004
 40
0.6250000000000004
 40
0.6250000000000004
 40
0.7500000000000006
 40
0.7500000000000006
 40
0.8125000000000004
 40
0.8125000000000004
 40
0.8750000000000003
 40
0.8750000000000003
 40
1.0
 40
1.0
 40
1.0
 40
1.0
 10
393.6244161803206
 20
351.6933091247536
 30
0.0
 10
393.6244161803206
 20
352.6985165333494
 30
0.0
 10
393.6244161803206
 20
353.6773013178218
 30
0.0
 10
393.6244161803206
 20
355.5843099521782
 30
0.0
 10
393.6244161803206
 20
356.5125528116798
 30
0.0
 10
393.6244161803206
 20
357.865691982975
 30
0.0
 10
393.6244161803206
 20
358.3105497870606
 30
0.0
 10
393.6244161803206
 20
359.1717974950341
 30
0.0
 10
393.6244161803206
 20
359.5901383668899
 30
0.0
 10
393.6244161803206
 20
360.8084469882538
 30
0.0
 10
393.6244161803206
 20
361.5732534070488
 30
0.0
 10
393.6244161803206
 20
362.6468196343289
 30
0.0
 10
393.6244161803206
 20
362.993528518102
 30
0.0
 10
393.6244161803206
 20
363.6547985502566
 30
0.0
 10
393.6244161803206
 20
363.9688157552238
 30
0.0
 10
393.6244161803206
 20
364.8614694574492
 30
0.0
 10
393.6244161803206
 20
365.3901727465671
 30
0.0
 10
393.6244161803206
 20
366.0856865489337
 30
0.0
 10
393.6244161803206
 20
366.3010211830795
 30
0.0
 10
393.6244161803206
 20
366.6975891749154
 30
0.0
 10
393.6244161803206
 20
366.8774607696432
 30
0.0
 10
393.6244161803206
 20
367.3594408324037
 30
0.0
 10
393.6244161803206
 20
367.6055973466627
 30
0.0
 10
393.6244161803206
 20
367.7754049310528
 30
0.0
  0
LINE
  5
F6
330
1F
100
AcDbEntity
  8
0
  6
Continuous
 62
     7
370
    25
100
AcDbLine
 10
392.9244153574
 20
367.6257846737
 30
0.0
 11
392.9244153574
 21
329.2257847125
 31
0.0
  0
SPLINE
  5
F7
330
1F
100
AcDbEntity
  8
0
  6
Continuous
 62
     7
370
    25
100
AcDbSpline
210
0.0
220
0.0
230
1.0
 70
     8
 71
     3
 72
     9
 73
     5
 74
     0
 42
0.000000001
 43
0.00000001
 40
0.0
 40
0.0
 40
0.0
 40
0.0
 40
0.6523640670921728
 40
1.0
 40
1.0
 40
1.0
 40
1.0
 10
428.7522755935226
 20
332.772030108607
 30
0.0
 10
428.7527156701661
 20
332.7713944439242
 30
0.0
 10
428.7533902576637
 20
332.7704200421832
 30
0.0
 10
428.7533260830476
 20
332.7702588796153
 30
0.0
 10
428.753303773645
 20
332.7702028537156
 30
0.0
  0
SPLINE
  5
F8
330
1F
100
AcDbEntity
  8
0
  6
Continuous
 62
     7
370
    25
100
AcDbSpline
210
0.0
220
0.0
230
1.0
 70
     8
 71
     3
 72
    10
 73
     6
 74
     0
 42
0.000000001
 43
0.00000001
 40
0.0
 40
0.0
 40
0.0
 40
0.0
 40
0.0279061826167812
 40
0.6750464921949336
 40
1.0
 40
1.0
 40
1.0
 40
1.0
 10
428.7521489336524
 20
364.0793716395261
 30
0.0
 10
428.7521815624305
 20
364.0794104747536
 30
0.0
 10
428.7529708478178
 20
364.0803498932503
 30
0.0
 10
428.7532482983853
 20
364.0808559049893
 30
0.0
 10
428.7532061158126
 20
364.0809300893899
 30
0.0
 10
428.753192014936
 20
364.0809548879029
 30
0.0
  0
LINE
  5
F9
330
1F
100
AcDbEntity
  8
0
  6
Continuous
 62
     7
370
    25
100
AcDbLine
 10
393.8265148922
 20
328.6370845372
 30
0.0
 11
393.8265167549
 21
328.6347804451
 31
0.0
  0
SPLINE
  5
FA
330
1F
100
AcDbEntity
  8
0
  6
Continuous
 62
     7
370
    25
100
AcDbSpline
210
0.0
220
0.0
230
1.0
 70
     8
 71
     3
 72
     9
 73
     5
 74
     0
 42
0.000000001
 43
0.00000001
 40
0.0
 40
0.0
 40
0.0
 40
0.0
 40
0.2969580928950974
 40
1.0
 40
1.0
 40
1.0
 40
1.0
 10
393.826516754869
 20
368.2167908037068
 30
0.0
 10
393.8265198164584
 20
368.2251714172209
 30
0.0
 10
393.8265301262946
 20
368.2533929532374
 30
0.0
 10
393.8264785261366
 20
368.08851667971
 30
0.0
 10
393.8264422490631
 20
367.9726017499329
 30
0.0
  0
LINE
  5
FB
330
1F
100
AcDbEntity
  8
0
  6
Continuous
 62
     7
370
    25
100
AcDbLine
 10
392.9244153574
 20
356.4257860044
 30
0.0
 11
393.6244160309
 21
356.4257860044
 31
0.0
  0
LINE
  5
FC
330
1F
100
AcDbEntity
  8
0
  6
Continuous
 62
     7
370
    25
100
AcDbLine
 10
393.6244160309
 20
340.4257852444
 30
0.0
 11
392.9244153574
 21
340.4257852444
 31
0.0
  0
LINE
  5
FD
330
1F
100
AcDbEntity
  8
0
  6
Continuous
 62
     7
370
    25
100
AcDbLine
 10
393.6244160309
 20
328.8057247037
 30
0.0
 11
393.6244160309
 21
329.0761677409
 31
0.0
  0
LINE
  5
FE
330
1F
100
AcDbEntity
  8
0
  6
Continuous
 62
     8
370
    18
100
AcDbLine
 10
389.6636817976
 20
274.0421840781
 30
0.0
 11
389.6636817976
 21
422.8093871707
 31
0.0
  0
ARC
  5
FF
330
1F
100
AcDbEntity
  8
0
  6
Continuous
 62
     8
370
    18
100
AcDbCircle
 10
393.7769524497
 20
351.3973416807
 30
0.0
 40
0.3329626794446171
100
AcDbArc
 50
81.4521877811
 51
117.2657749873
  0
SPLINE
  5
100
330
1F
100
AcDbEntity
  8
0
  6
Continuous
 62
     8
370
    18
100
AcDbSpline
210
0.0
220
0.0
230
1.0
 70
     8
 71
     3
 72
    10
 73
     6
 74
     0
 42
0.000000001
 43
0.00000001
 40
0.0
 40
0.0
 40
0.0
 40
0.0
 40
0.5
 40
0.5
 40
1.0
 40
1.0
 40
1.0
 40
1.0
 10
393.8264429776967
 20
351.7266057736519
 30
0.0
 10
393.8264802186544
 20
350.6328776660206
 30
0.0
 10
393.8265323908262
 20
349.5226865499238
 30
0.0
 10
393.8265322286764
 20
347.316851521517
 30
0.0
 10
393.8264758127946
 20
346.2185589358152
 30
0.0
 10
393.826443097008
 20
345.1249656499445
 30
0.0
  0
ARC
  5
101
330
1F
100
AcDbEntity
  8
0
  6
Continuous
 62
     8
370
    18
100
AcDbCircle
 10
393.7769527302
 20
345.4541342654
 30
0.0
 40
0.3328681635706701
100
AcDbArc
 50
242.7257857382
 51
278.5502086749
  0
SPLINE
  5
102
330
1F
100
AcDbEntity
  8
0
  6
Continuous
 62
     8
370
    18
100
AcDbSpline
210
0.0
220
0.0
230
1.0
 70
     8
 71
     3
 72
    28
 73
    24
 74
     0
 42
0.000000001
 43
0.00000001
 40
0.0
 40
0.0
 40
0.0
 40
0.0
 40
0.1249999999999998
 40
0.1249999999999998
 40
0.2499999999999996
 40
0.2499999999999996
 40
0.3749999999999993
 40
0.3749999999999993
 40
0.4374999999999993
 40
0.4374999999999993
 40
0.4999999999999993
 40
0.4999999999999993
 40
0.6249999999999996
 40
0.6249999999999996
 40
0.6874999999999996
 40
0.6874999999999996
 40
0.7499999999999996
 40
0.7499999999999996
 40
0.8124999999999996
 40
0.8124999999999996
 40
0.8749999999999997
 40
0.8749999999999997
 40
1.0
 40
1.0
 40
1.0
 40
1.0
 10
393.826443097008
 20
345.1249656499446
 30
0.0
 10
393.8264127766871
 20
344.1114457936478
 30
0.0
 10
393.8263732036126
 20
343.1199760491608
 30
0.0
 10
393.8263136825248
 20
341.1804517272122
 30
0.0
 10
393.8262883110939
 20
340.2289108262548
 30
0.0
 10
393.8262485896868
 20
338.4223201346026
 30
0.0
 10
393.8262338306544
 20
337.5600800782402
 30
0.0
 10
393.8262187488316
 20
336.3295681403251
 30
0.0
 10
393.8262150149847
 20
335.929794820601
 30
0.0
 10
393.8262100410709
 20
335.1512174354789
 30
0.0
 10
393.8262088191952
 20
334.7731920222924
 30
0.0
 10
393.8262087890506
 20
333.6914148736116
 30
0.0
 10
393.826213504484
 20
333.0322406822642
 30
0.0
 10
393.8262283690061
 20
332.133077876995
 30
0.0
 10
393.8262346036894
 20
331.8487773255169
 30
0.0
 10
393.8262494320159
 20
331.3111697024329
 30
0.0
 10
393.8262581070674
 20
331.0572454774128
 30
0.0
 10
393.8262781141181
 20
330.5847028034258
 30
0.0
 10
393.8262894494179
 20
330.3666369897664
 30
0.0
 10
393.8263145160047
 20
329.9671811407326
 30
0.0
 10
393.8263283100434
 20
329.7854231537095
 30
0.0
 10
393.8263730287579
 20
329.2983403638287
 30
0.0
 10
393.8264084686514
 20
329.0500776276752
 30
0.0
 10
393.8264429775096
 20
328.8789697872489
 30
0.0
  0
ARC
  5
103
330
1F
100
AcDbEntity
  8
0
  6
Continuous
 62
     8
370
    18
100
AcDbCircle
 10
393.8230647365
 20
329.0775946147
 30
0.0
 40
0.19865383014304
100
AcDbArc
 50
180.4115428048
 51
270.9741898085
  0
SPLINE
  5
104
330
1F
100
AcDbEntity
  8
0
  6
Continuous
 62
     8
370
    18
100
AcDbSpline
210
0.0
220
0.0
230
1.0
 70
     8
 71
     3
 72
    28
 73
    24
 74
     0
 42
0.000000001
 43
0.00000001
 40
0.0
 40
0.0
 40
0.0
 40
0.0
 40
0.1249999999999998
 40
0.1249999999999998
 40
0.2499999999999997
 40
0.2499999999999997
 40
0.3749999999999995
 40
0.3749999999999995
 40
0.4374999999999995
 40
0.4374999999999995
 40
0.4999999999999996
 40
0.4999999999999996
 40
0.6249999999999996
 40
0.6249999999999996
 40
0.6874999999999997
 40
0.6874999999999997
 40
0.7499999999999997
 40
0.7499999999999997
 40
0.8124999999999997
 40
0.8124999999999997
 40
0.8749999999999997
 40
0.8749999999999997
 40
1.0
 40
1.0
 40
1.0
 40
1.0
 10
393.8264430967836
 20
367.9726015489823
 30
0.0
 10
393.8264127882367
 20
367.8014135767747
 30
0.0
 10
393.8263732034198
 20
367.5534115308427
 30
0.0
 10
393.8263136825998
 20
366.9061656897985
 30
0.0
 10
393.8262883107715
 20
366.5040930055691
 30
0.0
 10
393.8262485899801
 20
365.5702868269644
 30
0.0
 10
393.8262338308311
 20
365.0379469963498
 30
0.0
 10
393.8262187482682
 20
364.1392655554848
 30
0.0
 10
393.8262150150131
 20
363.8231331013153
 30
0.0
 10
393.8262100418771
 20
363.1574459545562
 30
0.0
 10
393.8262088201881
 20
362.8082775405235
 30
0.0
 10
393.8262087871297
 20
361.7272204050609
 30
0.0
 10
393.8262135052291
 20
360.957051275701
 30
0.0
 10
393.8262283691458
 20
359.7303269934498
 30
0.0
 10
393.8262346030131
 20
359.3091184242265
 30
0.0
 10
393.8262494314431
 20
358.4419785182811
 30
0.0
 10
393.8262581069085
 20
357.9949937598534
 30
0.0
 10
393.826278114294
 20
357.0823991384717
 30
0.0
 10
393.8262894493386
 20
356.6178444864643
 30
0.0
 10
393.8263145159057
 20
355.6728456205201
 30
0.0
 10
393.8263283100373
 20
355.1913917520956
 30
0.0
 10
393.8263730289573
 20
353.7327889468955
 30
0.0
 10
393.8264084724419
 20
352.7399891380934
 30
0.0
 10
393.8264429776967
 20
351.7266057736519
 30
0.0
  0
LINE
  5
105
330
1F
100
AcDbEntity
  8
0
  6
Continuous
 62
     8
370
    18
100
AcDbLine
 10
392.1244167163
 20
368.4257851774
 30
0.0
 11
392.1244167163
 21
328.4257860715
 31
0.0
  0
SPLINE
  5
106
330
1F
100
AcDbEntity
  8
0
  6
Continuous
 62
     8
370
    18
100
AcDbSpline
210
0.0
220
0.0
230
1.0
 70
     8
 71
     3
 72
    30
 73
    26
 74
     0
 42
0.000000001
 43
0.00000001
 40
0.0
 40
0.0
 40
0.0
 40
0.0
 40
0.0194873357967103
 40
0.0598872400878641
 40
0.1006265318160192
 40
0.1411369174460848
 40
0.1746206064785201
 40
0.2077020263596867
 40
0.2407525970749544
 40
0.2743322033037678
 40
0.3079958200750943
 40
0.3413925838564897
 40
0.4733660921085777
 40
0.5129266008596243
 40
0.5524879493954548
 40
0.5921078022756018
 40
0.6322368190838665
 40
0.6721245914381738
 40
0.7048894464704697
 40
0.7374061042272576
 40
0.7700577935144278
 40
0.8030043625278813
 40
0.8361556547786541
 40
0.8696233809905715
 40
1.0
 40
1.0
 40
1.0
 40
1.0
 10
428.753303773645
 20
332.7702028537156
 30
0.0
 10
428.7534047357585
 20
332.7698884739713
 30
0.0
 10
428.7537150060998
 20
332.7689223421502
 30
0.0
 10
428.7497846183267
 20
332.7783342080482
 30
0.0
 10
428.7328924137718
 20
332.7817546834769
 30
0.0
 10
428.7005910227537
 20
333.1107955354435
 30
0.0
 10
428.6803195421795
 20
333.9114535202135
 30
0.0
 10
428.6735342474763
 20
335.0202264125027
 30
0.0
 10
428.6827587595808
 20
336.4483918073079
 30
0.0
 10
428.7035671440344
 20
338.0958006524348
 30
0.0
 10
428.7307467319851
 20
339.8570326432541
 30
0.0
 10
428.7625507300466
 20
343.3605049641883
 30
0.0
 10
428.7511657544362
 20
346.9660759312476
 30
0.0
 10
428.7523573663607
 20
350.680817084187
 30
0.0
 10
428.7510160833445
 20
352.7703593174779
 30
0.0
 10
428.7499813829673
 20
354.8697566029843
 30
0.0
 10
428.7318864471803
 20
356.9754684684019
 30
0.0
 10
428.7003600031006
 20
358.9521427395684
 30
0.0
 10
428.6804517961183
 20
360.6477932068821
 30
0.0
 10
428.6735975518938
 20
362.0101510244482
 30
0.0
 10
428.6822171253687
 20
363.0537255119883
 30
0.0
 10
428.7021901690352
 20
363.7448522786382
 30
0.0
 10
428.7290999288016
 20
364.038487193623
 30
0.0
 10
428.7625965879666
 20
364.1073179035171
 30
0.0
 10
428.7567785488453
 20
364.0917553234101
 30
0.0
 10
428.7521489336524
 20
364.0793716395261
 30
0.0
  0
SPLINE
  5
107
330
1F
100
AcDbEntity
  8
0
  6
Continuous
 62
     8
370
    18
100
AcDbSpline
210
0.0
220
0.0
230
1.0
 70
     8
 71
     3
 72
    10
 73
     6
 74
     0
 42
0.000000001
 43
0.00000001
 40
0.0
 40
0.0
 40
0.0
 40
0.0
 40
0.1317671014049268
 40
0.6592793180589789
 40
0.9999999999999999
 40
0.9999999999999999
 40
0.9999999999999999
 40
0.9999999999999999
 10
393.8264422490631
 20
328.8789694989087
 30
0.0
 10
393.8264464161733
 20
328.8576155672814
 30
0.0
 10
393.8264672657597
 20
328.7507739859536
 30
0.0
 10
393.8265192882042
 20
328.6259829381143
 30
0.0
 10
393.8265161311477
 20
328.6339557616328
 30
0.0
 10
393.8265148922239
 20
328.6370845371844
 30
0.0
  0
SPLINE
  5
108
330
1F
100
AcDbEntity
  8
0
  6
Continuous
 62
     8
370
    18
100
AcDbSpline
210
0.0
220
0.0
230
1.0
 70
     8
 71
     3
 72
    49
 73
    45
 74
     0
 42
0.000000001
 43
0.00000001
 40
0.0
 40
0.0
 40
0.0
 40
0.0
 40
0.0000379168121857
 40
0.0589219212077743
 40
0.1027472471185093
 40
0.1315139389741925
 40
0.1436009062849887
 40
0.1541249722730918
 40
0.1630932103660993
 40
0.1785932762295878
 40
0.1925077310228638
 40
0.2117540927813747
 40
0.2304062622906747
 40
0.248992133714655
 40
0.2675219881385911
 40
0.2860656882834404
 40
0.3051523711967006
 40
0.3316212546205783
 40
0.3657463114886911
 40
0.3775927350418282
 40
0.3966532971512064
 40
0.4229280177302281
 40
0.4564169104274734
 40
0.4971199835199898
 40
0.55604970408842
 40
0.5998451564465022
 40
0.6285063806192667
 40
0.6465248102661252
 40
0.6601925175288202
 40
0.6901213731162267
 40
0.7191893245148542
 40
0.7474312763345988
 40
0.7756971024940915
 40
0.8046157323842997
 40
0.8187818007739637
 40
0.8344142999925738
 40
0.8487964620814223
 40
0.866287115205283
 40
0.8794232843197454
 40
0.8993603938476338
 40
0.9260984603228586
 40
0.9596374963996882
 40
0.9999775091341012
 40
1.0
 40
1.0
 40
1.0
 40
1.0
 10
429.6893328314466
 20
363.0393596719026
 30
0.0
 10
429.689332831096
 20
363.0393596740037
 30
0.0
 10
429.6893322864055
 20
363.0393629391336
 30
0.0
 10
429.6894212085598
 20
363.0396420922738
 30
0.0
 10
429.6888507612224
 20
363.0365727126611
 30
0.0
 10
429.6867274029837
 20
363.0374468022886
 30
0.0
 10
429.6851531389758
 20
363.0295232897813
 30
0.0
 10
429.6841581266403
 20
363.0111003625281
 30
0.0
 10
429.6828230106285
 20
362.9728224822536
 30
0.0
 10
429.6814002897663
 20
362.8919107056244
 30
0.0
 10
429.679803064117
 20
362.7087961609745
 30
0.0
 10
429.6788673166482
 20
362.3939559483131
 30
0.0
 10
429.6782518829499
 20
361.9016070845148
 30
0.0
 10
429.67821922515
 20
361.2739891141956
 30
0.0
 10
429.678176037905
 20
360.5299934663378
 30
0.0
 10
429.6787462295474
 20
359.677229134422
 30
0.0
 10
429.6796440501972
 20
358.6212757897492
 30
0.0
 10
429.6834752125494
 20
357.2274288978247
 30
0.0
 10
429.6850052187177
 20
355.9471415194595
 30
0.0
 10
429.6871971129973
 20
354.7985634781779
 30
0.0
 10
429.6883619488579
 20
353.7885336185669
 30
0.0
 10
429.6891755570654
 20
352.3962650929208
 30
0.0
 10
429.6893725085234
 20
350.6217078714988
 30
0.0
 10
429.6893015031926
 20
348.2703641808854
 30
0.0
 10
429.6894125622547
 20
345.7369898447353
 30
0.0
 10
429.6889221084239
 20
343.4162587706008
 30
0.0
 10
429.6867603595621
 20
341.8182718294428
 30
0.0
 10
429.6850102895936
 20
340.7521912403737
 30
0.0
 10
429.682619554815
 20
339.6650067132787
 30
0.0
 10
429.6799102635243
 20
338.3861281495785
 30
0.0
 10
429.6784078625162
 20
336.9358920677527
 30
0.0
 10
429.6781636258387
 20
335.7048585893695
 30
0.0
 10
429.6782525865263
 20
334.7469518599949
 30
0.0
 10
429.6793190986798
 20
334.232334944555
 30
0.0
 10
429.681101921433
 20
333.9874715662552
 30
0.0
 10
429.6827181254719
 20
333.8811532232394
 30
0.0
 10
429.6844618104277
 20
333.8289952634034
 30
0.0
 10
429.6857850492277
 20
333.8162336156043
 30
0.0
 10
429.6873964684084
 20
333.8158418760971
 30
0.0
 10
429.6885154898267
 20
333.8137331589812
 30
0.0
 10
429.6892271091085
 20
333.8130012776769
 30
0.0
 10
429.6893673034257
 20
333.8122844355286
 30
0.0
 10
429.689332491025
 20
333.8122086574085
 30
0.0
 10
429.689332827757
 20
333.8122115937177
 30
0.0
 10
429.6893328279447
 20
333.8122115953539
 30
0.0
  0
LINE
  5
109
330
1F
100
AcDbEntity
  8
0
  6
Continuous
 62
     8
370
    18
100
AcDbLine
 10
391.2429254874
 20
398.0913298065
 30
0.0
 11
391.2429254874
 21
374.7602427239
 31
0.0
  0
LINE
  5
10A
330
1F
100
AcDbEntity
  8
0
  6
Continuous
 62
     8
370
    18
100
AcDbLine
 10
391.2429254874
 20
322.091328525
 30
0.0
 11
391.2429254874
 21
298.7602414424
 31
0.0
  0
ENDSEC
  0
SECTION
  2
OBJECTS
  0
DICTIONARY
  5
C
330
0
100
AcDbDictionary
281
     1
  3
ACAD_GROUP
350
D
  3
ACAD_LAYOUT
350
1A
  3
ACAD_MLINESTYLE
350
17
  3
ACAD_PLOTSETTINGS
350
19
  3
ACAD_PLOTSTYLENAME
350
E
  3
ACAD_SCALELIST
350
47
  0
DICTIONARY
  5
D
102
{ACAD_REACTORS
330
C
102
}
330
C
100
AcDbDictionary
281
     1
  0
DICTIONARY
  5
1A
102
{ACAD_REACTORS
330
C
102
}
330
C
100
AcDbDictionary
281
     1
  3
Layout1
350
1E
  3
Layout2
350
26
  3
Model
350
22
  0
DICTIONARY
  5
17
102
{ACAD_REACTORS
330
C
102
}
330
C
100
AcDbDictionary
281
     1
  3
Standard
350
18
  0
DICTIONARY
  5
19
102
{ACAD_REACTORS
330
C
102
}
330
C
100
AcDbDictionary
281
     1
  0
ACDBDICTIONARYWDFLT
  5
E
102
{ACAD_REACTORS
330
C
102
}
330
C
100
AcDbDictionary
281
     1
  3
Normal
350
F
100
AcDbDictionaryWithDefault
340
F
  0
DICTIONARY
  5
47
102
{ACAD_REACTORS
330
C
102
}
330
C
100
AcDbDictionary
281
     1
  3
A0
350
48
  3
A1
350
49
  3
A2
350
4A
  3
A3
350
4B
  3
A4
350
4C
  3
A5
350
4D
  3
A6
350
4E
  3
A7
350
4F
  3
A8
350
50
  3
A9
350
51
  3
B0
350
52
  3
B1
350
53
  3
B2
350
54
  3
B3
350
55
  3
B4
350
56
  3
B5
350
57
  3
B6
350
58
  3
B7
350
59
  3
B8
350
5A
  3
B9
350
5B
  3
C0
350
5C
  3
C1
350
5D
  3
C2
350
5E
  3
C3
350
5F
  3
C4
350
60
  3
C5
350
61
  3
C6
350
62
  3
C7
350
63
  3
C8
350
64
  3
C9
350
65
  3
D0
350
66
  3
D1
350
67
  3
D2
350
68
  0
LAYOUT
  5
1E
102
{ACAD_REACTORS
330
1A
102
}
330
1A
100
AcDbPlotSettings
  1

  2
none_device
  4

  6

 40
0.0
 41
0.0
 42
0.0
 43
0.0
 44
0.0
 45
0.0
 46
0.0
 47
0.0
 48
0.0
 49
0.0
140
0.0
141
0.0
142
1.0
143
1.0
 70
   688
 72
     1
 73
     0
 74
     5
  7

 75
    16
147
1.0
148
0.0
149
0.0
100
AcDbLayout
  1
Layout1
 70
     1
 71
     1
 10
0.0
 20
0.0
 11
420.0
 21
297.0
 12
0.0
 22
0.0
 32
0.0
 14
1.0000000000E+20
 24
1.0000000000E+20
 34
1.0000000000E+20
 15
-1.0000000000E+20
 25
-1.0000000000E+20
 35
-1.0000000000E+20
146
0.0
 13
0.0
 23
0.0
 33
0.0
 16
1.0
 26
0.0
 36
0.0
 17
0.0
 27
1.0
 37
0.0
 76
     0
330
1B
  0
LAYOUT
  5
26
102
{ACAD_REACTORS
330
1A
102
}
330
1A
100
AcDbPlotSettings
  1

  2
none_device
  4

  6

 40
0.0
 41
0.0
 42
0.0
 43
0.0
 44
0.0
 45
0.0
 46
0.0
 47
0.0
 48
0.0
 49
0.0
140
0.0
141
0.0
142
1.0
143
1.0
 70
   688
 72
     1
 73
     0
 74
     5
  7

 75
    16
147
1.0
148
0.0
149
0.0
100
AcDbLayout
  1
Layout2
 70
     1
 71
     2
 10
0.0
 20
0.0
 11
0.0
 21
0.0
 12
0.0
 22
0.0
 32
0.0
 14
0.0
 24
0.0
 34
0.0
 15
0.0
 25
0.0
 35
0.0
146
0.0
 13
0.0
 23
0.0
 33
0.0
 16
1.0
 26
0.0
 36
0.0
 17
0.0
 27
1.0
 37
0.0
 76
     0
330
23
  0
LAYOUT
  5
22
102
{ACAD_REACTORS
330
1A
102
}
330
1A
100
AcDbPlotSettings
  1

  2
none_device
  4
Letter_(8.50_x_11.00_Inches)
  6

 40
6.35
 41
6.35
 42
6.35000508
 43
6.35000508
 44
215.9
 45
279.4
 46
0.0
 47
0.0
 48
0.0
 49
0.0
140
0.0
141
0.0
142
1.0
143
1.0
 70
  1712
 72
     1
 73
     0
 74
     0
  7

 75
     0
147
1.0
148
0.0
149
0.0
100
AcDbLayout
  1
Model
 70
     1
 71
     0
 10
0.0
 20
0.0
 11
594.0
 21
841.0
 12
0.0
 22
0.0
 32
0.0
 14
0.0
 24
0.0
 34
0.0
 15
594.0
 25
841.0
 35
0.0
146
0.0
 13
0.0
 23
0.0
 33
0.0
 16
1.0
 26
0.0
 36
0.0
 17
0.0
 27
1.0
 37
0.0
 76
     0
330
1F
331
29
  0
MLINESTYLE
  5
18
102
{ACAD_REACTORS
330
17
102
}
330
17
100
AcDbMlineStyle
  2
Standard
 70
     0
  3

 62
   256
 51
90.0
 52
90.0
 71
     2
 49
0.5
 62
   256
  6
BYLAYER
 49
-0.5
 62
   256
  6
BYLAYER
  0
ACDBPLACEHOLDER
  5
F
102
{ACAD_REACTORS
330
E
102
}
330
E
  0
SCALE
  5
48
102
{ACAD_REACTORS
330
47
102
}
330
47
100
AcDbScale
 70
     0
300
1:1
140
1.0
141
1.0
290
     1
  0
SCALE
  5
49
102
{ACAD_REACTORS
330
47
102
}
330
47
100
AcDbScale
 70
     0
300
1:2
140
1.0
141
2.0
290
     0
  0
SCALE
  5
4A
102
{ACAD_REACTORS
330
47
102
}
330
47
100
AcDbScale
 70
     0
300
1:4
140
1.0
141
4.0
290
     0
  0
SCALE
  5
4B
102
{ACAD_REACTORS
330
47
102
}
330
47
100
AcDbScale
 70
     0
300
1:5
140
1.0
141
5.0
290
     0
  0
SCALE
  5
4C
102
{ACAD_REACTORS
330
47
102
}
330
47
100
AcDbScale
 70
     0
300
1:8
140
1.0
141
8.0
290
     0
  0
SCALE
  5
4D
102
{ACAD_REACTORS
330
47
102
}
330
47
100
AcDbScale
 70
     0
300
1:10
140
1.0
141
10.0
290
     0
  0
SCALE
  5
4E
102
{ACAD_REACTORS
330
47
102
}
330
47
100
AcDbScale
 70
     0
300
1:16
140
1.0
141
16.0
290
     0
  0
SCALE
  5
4F
102
{ACAD_REACTORS
330
47
102
}
330
47
100
AcDbScale
 70
     0
300
1:20
140
1.0
141
20.0
290
     0
  0
SCALE
  5
50
102
{ACAD_REACTORS
330
47
102
}
330
47
100
AcDbScale
 70
     0
300
1:30
140
1.0
141
30.0
290
     0
  0
SCALE
  5
51
102
{ACAD_REACTORS
330
47
102
}
330
47
100
AcDbScale
 70
     0
300
1:40
140
1.0
141
40.0
290
     0
  0
SCALE
  5
52
102
{ACAD_REACTORS
330
47
102
}
330
47
100
AcDbScale
 70
     0
300
1:50
140
1.0
141
50.0
290
     0
  0
SCALE
  5
53
102
{ACAD_REACTORS
330
47
102
}
330
47
100
AcDbScale
 70
     0
300
1:100
140
1.0
141
100.0
290
     0
  0
SCALE
  5
54
102
{ACAD_REACTORS
330
47
102
}
330
47
100
AcDbScale
 70
     0
300
2:1
140
2.0
141
1.0
290
     0
  0
SCALE
  5
55
102
{ACAD_REACTORS
330
47
102
}
330
47
100
AcDbScale
 70
     0
300
4:1
140
4.0
141
1.0
290
     0
  0
SCALE
  5
56
102
{ACAD_REACTORS
330
47
102
}
330
47
100
AcDbScale
 70
     0
300
8:1
140
8.0
141
1.0
290
     0
  0
SCALE
  5
57
102
{ACAD_REACTORS
330
47
102
}
330
47
100
AcDbScale
 70
     0
300
10:1
140
10.0
141
1.0
290
     0
  0
SCALE
  5
58
102
{ACAD_REACTORS
330
47
102
}
330
47
100
AcDbScale
 70
     0
300
100:1
140
100.0
141
1.0
290
     0
  0
SCALE
  5
59
102
{ACAD_REACTORS
330
47
102
}
330
47
100
AcDbScale
 70
     0
300
1/128" = 1'-0"
140
0.0078125
141
12.0
290
     0
  0
SCALE
  5
5A
102
{ACAD_REACTORS
330
47
102
}
330
47
100
AcDbScale
 70
     0
300
1/64" = 1'-0"
140
0.015625
141
12.0
290
     0
  0
SCALE
  5
5B
102
{ACAD_REACTORS
330
47
102
}
330
47
100
AcDbScale
 70
     0
300
1/32" = 1'-0"
140
0.03125
141
12.0
290
     0
  0
SCALE
  5
5C
102
{ACAD_REACTORS
330
47
102
}
330
47
100
AcDbScale
 70
     0
300
1/16" = 1'-0"
140
0.0625
141
12.0
290
     0
  0
SCALE
  5
5D
102
{ACAD_REACTORS
330
47
102
}
330
47
100
AcDbScale
 70
     0
300
3/32" = 1'-0"
140
0.09375
141
12.0
290
     0
  0
SCALE
  5
5E
102
{ACAD_REACTORS
330
47
102
}
330
47
100
AcDbScale
 70
     0
300
1/8" = 1'-0"
140
0.125
141
12.0
290
     0
  0
SCALE
  5
5F
102
{ACAD_REACTORS
330
47
102
}
330
47
100
AcDbScale
 70
     0
300
3/16" = 1'-0"
140
0.1875
141
12.0
290
     0
  0
SCALE
  5
60
102
{ACAD_REACTORS
330
47
102
}
330
47
100
AcDbScale
 70
     0
300
1/4" = 1'-0"
140
0.25
141
12.0
290
     0
  0
SCALE
  5
61
102
{ACAD_REACTORS
330
47
102
}
330
47
100
AcDbScale
 70
     0
300
3/8" = 1'-0"
140
0.375
141
12.0
290
     0
  0
SCALE
  5
62
102
{ACAD_REACTORS
330
47
102
}
330
47
100
AcDbScale
 70
     0
300
1/2" = 1'-0"
140
0.5
141
12.0
290
     0
  0
SCALE
  5
63
102
{ACAD_REACTORS
330
47
102
}
330
47
100
AcDbScale
 70
     0
300
3/4" = 1'-0"
140
0.75
141
12.0
290
     0
  0
SCALE
  5
64
102
{ACAD_REACTORS
330
47
102
}
330
47
100
AcDbScale
 70
     0
300
1" = 1'-0"
140
1.0
141
12.0
290
     0
  0
SCALE
  5
65
102
{ACAD_REACTORS
330
47
102
}
330
47
100
AcDbScale
 70
     0
300
1-1/2" = 1'-0"
140
1.5
141
12.0
290
     0
  0
SCALE
  5
66
102
{ACAD_REACTORS
330
47
102
}
330
47
100
AcDbScale
 70
     0
300
3" = 1'-0"
140
3.0
141
12.0
290
     0
  0
SCALE
  5
67
102
{ACAD_REACTORS
330
47
102
}
330
47
100
AcDbScale
 70
     0
300
6" = 1'-0"
140
6.0
141
12.0
290
     0
  0
SCALE
  5
68
102
{ACAD_REACTORS
330
47
102
}
330
47
100
AcDbScale
 70
     0
300
1'-0" = 1'-0"
140
12.0
141
12.0
290
     0
  0
ENDSEC
  0
EOF
