  0
SECTION
  2
HEADER
  9
$ACADVER
  1
AC1015
  9
$ACADMAINTVER
 70
     6
  9
$DWGCODEPAGE
  3
ANSI_1252
  9
$INSBASE
 10
0.0
 20
0.0
 30
0.0
  9
$EXTMIN
 10
0.0
 20
0.0
 30
0.0
  9
$EXTMAX
 10
594.0
 20
841.0
 30
0.0
  9
$LIMMIN
 10
0.0
 20
0.0
  9
$LIMMAX
 10
594.0
 20
841.0
  9
$ORTHOMODE
 70
     0
  9
$REGENMODE
 70
     1
  9
$FILLMODE
 70
     1
  9
$QTEXTMODE
 70
     0
  9
$MIRRTEXT
 70
     1
  9
$LTSCALE
 40
1.0
  9
$ATTMODE
 70
     1
  9
$TEXTSIZE
 40
10.0
  9
$TRACEWID
 40
1.0
  9
$TEXTSTYLE
  7
Standard
  9
$CLAYER
  8
0
  9
$CELTYPE
  6
ByLayer
  9
$CECOLOR
 62
   256
  9
$CELTSCALE
 40
1.0
  9
$DISPSILH
 70
     0
  9
$DIMSCALE
 40
1.0
  9
$DIMASZ
 40
2.5
  9
$DIMEXO
 40
0.0
  9
$DIMDLI
 40
3.75
  9
$DIMRND
 40
0.0
  9
$DIMDLE
 40
0.0
  9
$DIMEXE
 40
1.0
  9
$DIMTP
 40
0.0
  9
$DIMTM
 40
0.0
  9
$DIMTXT
 40
3.5
  9
$DIMCEN
 40
2.5
  9
$DIMTSZ
 40
0.0
  9
$DIMTOL
 70
     0
  9
$DIMLIM
 70
     0
  9
$DIMTIH
 70
     1
  9
$DIMTOH
 70
     1
  9
$DIMSE1
 70
     0
  9
$DIMSE2
 70
     0
  9
$DIMTAD
 70
     1
  9
$DIMZIN
 70
     0
  9
$DIMBLK
  1

  9
$DIMASO
 70
     1
  9
$DIMSHO
 70
     1
  9
$DIMPOST
  1

  9
$DIMAPOST
  1

  9
$DIMALT
 70
     0
  9
$DIMALTD
 70
     3
  9
$DIMALTF
 40
0.0393700787
  9
$DIMLFAC
 40
1.0
  9
$DIMTOFL
 70
     1
  9
$DIMTVP
 40
0.0
  9
$DIMTIX
 70
     0
  9
$DIMSOXD
 70
     0
  9
$DIMSAH
 70
     0
  9
$DIMBLK1
  1

  9
$DIMBLK2
  1

  9
$DIMSTYLE
  2
ISO-25
  9
$DIMCLRD
 70
     0
  9
$DIMCLRE
 70
     0
  9
$DIMCLRT
 70
     0
  9
$DIMTFAC
 40
1.0
  9
$DIMGAP
 40
1.5
  9
$DIMJUST
 70
     0
  9
$DIMSD1
 70
     0
  9
$DIMSD2
 70
     0
  9
$DIMTOLJ
 70
     0
  9
$DIMTZIN
 70
     0
  9
$DIMALTZ
 70
     0
  9
$DIMALTTZ
 70
     0
  9
$DIMUPT
 70
     0
  9
$DIMDEC
 70
     2
  9
$DIMTDEC
 70
     2
  9
$DIMALTU
 70
     2
  9
$DIMALTTD
 70
     3
  9
$DIMTXSTY
  7
Standard
  9
$DIMAUNIT
 70
     0
  9
$DIMADEC
 70
     2
  9
$DIMALTRND
 40
0.0
  9
$DIMAZIN
 70
     0
  9
$DIMDSEP
 70
    44
  9
$DIMATFIT
 70
     3
  9
$DIMFRAC
 70
     0
  9
$DIMLDRBLK
  1

  9
$DIMLUNIT
 70
     2
  9
$DIMLWD
 70
    -2
  9
$DIMLWE
 70
    -2
  9
$DIMTMOVE
 70
     0
  9
$LUNITS
 70
     2
  9
$LUPREC
 70
     2
  9
$SKETCHINC
 40
1.0
  9
$FILLETRAD
 40
10.0
  9
$AUNITS
 70
     0
  9
$AUPREC
 70
     2
  9
$MENU
  1
.
  9
$ELEVATION
 40
0.0
  9
$PELEVATION
 40
0.0
  9
$THICKNESS
 40
0.0
  9
$LIMCHECK
 70
     0
  9
$CHAMFERA
 40
0.0
  9
$CHAMFERB
 40
0.0
  9
$CHAMFERC
 40
0.0
  9
$CHAMFERD
 40
0.0
  9
$SKPOLY
 70
     0
  9
$TDCREATE
 40
2458733.503727234
  9
$TDUCREATE
 40
2458733.4203939
  9
$TDUPDATE
 40
2458733.503727778
  9
$TDUUPDATE
 40
2458733.420394444
  9
$TDINDWG
 40
0.0000000116
  9
$TDUSRTIMER
 40
0.0000000116
  9
$USRTIMER
 70
     1
  9
$ANGBASE
 50
0.0
  9
$ANGDIR
 70
     0
  9
$PDMODE
 70
     0
  9
$PDSIZE
 40
-1.0
  9
$PLINEWID
 40
0.0
  9
$SPLFRAME
 70
     0
  9
$SPLINETYPE
 70
     6
  9
$SPLINESEGS
 70
     8
  9
$HANDSEED
  5
118
  9
$SURFTAB1
 70
     6
  9
$SURFTAB2
 70
     6
  9
$SURFTYPE
 70
     6
  9
$SURFU
 70
     6
  9
$SURFV
 70
     6
  9
$UCSBASE
  2

  9
$UCSNAME
  2

  9
$UCSORG
 10
0.0
 20
0.0
 30
0.0
  9
$UCSXDIR
 10
1.0
 20
0.0
 30
0.0
  9
$UCSYDIR
 10
0.0
 20
1.0
 30
0.0
  9
$UCSORTHOREF
  2

  9
$UCSORTHOVIEW
 70
     0
  9
$UCSORGTOP
 10
0.0
 20
0.0
 30
0.0
  9
$UCSORGBOTTOM
 10
0.0
 20
0.0
 30
0.0
  9
$UCSORGLEFT
 10
0.0
 20
0.0
 30
0.0
  9
$UCSORGRIGHT
 10
0.0
 20
0.0
 30
0.0
  9
$UCSORGFRONT
 10
0.0
 20
0.0
 30
0.0
  9
$UCSORGBACK
 10
0.0
 20
0.0
 30
0.0
  9
$PUCSBASE
  2

  9
$PUCSNAME
  2

  9
$PUCSORG
 10
0.0
 20
0.0
 30
0.0
  9
$PUCSXDIR
 10
1.0
 20
0.0
 30
0.0
  9
$PUCSYDIR
 10
0.0
 20
1.0
 30
0.0
  9
$PUCSORTHOREF
  2

  9
$PUCSORTHOVIEW
 70
     0
  9
$PUCSORGTOP
 10
0.0
 20
0.0
 30
0.0
  9
$PUCSORGBOTTOM
 10
0.0
 20
0.0
 30
0.0
  9
$PUCSORGLEFT
 10
0.0
 20
0.0
 30
0.0
  9
$PUCSORGRIGHT
 10
0.0
 20
0.0
 30
0.0
  9
$PUCSORGFRONT
 10
0.0
 20
0.0
 30
0.0
  9
$PUCSORGBACK
 10
0.0
 20
0.0
 30
0.0
  9
$USERI1
 70
     0
  9
$USERI2
 70
     0
  9
$USERI3
 70
     0
  9
$USERI4
 70
     0
  9
$USERI5
 70
     0
  9
$USERR1
 40
0.0
  9
$USERR2
 40
0.0
  9
$USERR3
 40
0.0
  9
$USERR4
 40
0.0
  9
$USERR5
 40
0.0
  9
$WORLDVIEW
 70
     1
  9
$SHADEDGE
 70
     3
  9
$SHADEDIF
 70
    70
  9
$TILEMODE
 70
     1
  9
$MAXACTVP
 70
    64
  9
$PINSBASE
 10
0.0
 20
0.0
 30
0.0
  9
$PLIMCHECK
 70
     0
  9
$PEXTMIN
 10
1.0000000000E+20
 20
1.0000000000E+20
 30
1.0000000000E+20
  9
$PEXTMAX
 10
-1.0000000000E+20
 20
-1.0000000000E+20
 30
-1.0000000000E+20
  9
$PLIMMIN
 10
0.0
 20
0.0
  9
$PLIMMAX
 10
420.0
 20
297.0
  9
$UNITMODE
 70
     0
  9
$VISRETAIN
 70
     1
  9
$PLINEGEN
 70
     0
  9
$PSLTSCALE
 70
     1
  9
$TREEDEPTH
 70
  3020
  9
$CMLSTYLE
  2
Standard
  9
$CMLJUST
 70
     0
  9
$CMLSCALE
 40
20.0
  9
$PROXYGRAPHICS
 70
     1
  9
$MEASUREMENT
 70
     1
  9
$CELWEIGHT
370
    -1
  9
$ENDCAPS
280
     0
  9
$JOINSTYLE
280
     0
  9
$LWDISPLAY
290
     1
  9
$INSUNITS
 70
     4
  9
$HYPERLINKBASE
  1

  9
$STYLESHEET
  1

  9
$XEDIT
290
     1
  9
$CEPSNTYPE
380
     0
  9
$PSTYLEMODE
290
     1
  9
$FINGERPRINTGUID
  2
{888ABEA6-279F-40F5-ABCA-32BB486C42F6}
  9
$VERSIONGUID
  2
{FAEB1C32-E019-11D5-929B-00C0DF256EC4}
  9
$EXTNAMES
290
     1
  9
$PSVPSCALE
 40
0.0
  9
$OLESTARTUP
290
     0
  0
ENDSEC
  0
SECTION
  2
CLASSES
  0
CLASS
  1
ACDBDICTIONARYWDFLT
  2
AcDbDictionaryWithDefault
  3
ObjectDBX Classes
 90
        0
280
     0
281
     0
  0
CLASS
  1
VISUALSTYLE
  2
AcDbVisualStyle
  3
ObjectDBX Classes
 90
     4095
280
     0
281
     0
  0
CLASS
  1
MATERIAL
  2
AcDbMaterial
  3
ObjectDBX Classes
 90
     1153
280
     0
281
     0
  0
CLASS
  1
SCALE
  2
AcDbScale
  3
ObjectDBX Classes
 90
     1153
280
     0
281
     0
  0
CLASS
  1
TABLESTYLE
  2
AcDbTableStyle
  3
ObjectDBX Classes
 90
     4095
280
     0
281
     0
  0
CLASS
  1
MLEADERSTYLE
  2
AcDbMLeaderStyle
  3
ACDB_MLEADERSTYLE_CLASS
 90
     4095
280
     0
281
     0
  0
CLASS
  1
SUN
  2
AcDbSun
  3
SCENEOE
 90
     1153
280
     0
281
     0
  0
CLASS
  1
ACDBPLACEHOLDER
  2
AcDbPlaceHolder
  3
ObjectDBX Classes
 90
        0
280
     0
281
     0
  0
CLASS
  1
LAYOUT
  2
AcDbLayout
  3
ObjectDBX Classes
 90
        0
280
     0
281
     0
  0
ENDSEC
  0
SECTION
  2
TABLES
  0
TABLE
  2
VPORT
  5
8
330
0
100
AcDbSymbolTable
 70
     1
  0
VPORT
  5
29
330
8
100
AcDbSymbolTableRecord
100
AcDbViewportTableRecord
  2
*Active
 70
     0
 10
0.0
 20
0.0
 11
1.0
 21
1.0
 12
297.0
 22
420.5
 13
0.0
 23
0.0
 14
10.0
 24
10.0
 15
10.0
 25
10.0
 16
0.0
 26
0.0
 36
1.0
 17
0.0
 27
0.0
 37
0.0
 40
841.0
 41
0.7063020214
 42
50.0
 43
0.0
 44
0.0
 50
0.0
 51
0.0
 71
     0
 72
  2000
 73
     1
 74
     3
 75
     0
 76
     0
 77
     0
 78
     0
281
     0
 65
     1
110
0.0
120
0.0
130
0.0
111
1.0
121
0.0
131
0.0
112
0.0
122
1.0
132
0.0
 79
     0
146
0.0
  0
ENDTAB
  0
TABLE
  2
LTYPE
  5
5
330
0
100
AcDbSymbolTable
 70
     6
  0
LTYPE
  5
14
330
5
100
AcDbSymbolTableRecord
100
AcDbLinetypeTableRecord
  2
ByBlock
 70
     0
  3

 72
    65
 73
     0
 40
0.0
  0
LTYPE
  5
15
330
5
100
AcDbSymbolTableRecord
100
AcDbLinetypeTableRecord
  2
ByLayer
 70
     0
  3

 72
    65
 73
     0
 40
0.0
  0
LTYPE
  5
16
330
5
100
AcDbSymbolTableRecord
100
AcDbLinetypeTableRecord
  2
Continuous
 70
     0
  3
Solid line
 72
    65
 73
     0
 40
0.0
  0
LTYPE
  5
6E
330
5
100
AcDbSymbolTableRecord
100
AcDbLinetypeTableRecord
  2
HIDDEN
 70
     0
  3
Hidden __ __ __ __ __ __ __ __ __ __ __ __ __ __
 72
    65
 73
     2
 40
1.905
 49
1.27
 74
     0
 49
-0.635
 74
     0
  0
LTYPE
  5
6F
330
5
100
AcDbSymbolTableRecord
100
AcDbLinetypeTableRecord
  2
PHANTOM
 70
     0
  3
Phantom ______  __  __  ______  __  __  ______
 72
    65
 73
     6
 40
12.7
 49
6.35
 74
     0
 49
-1.27
 74
     0
 49
1.27
 74
     0
 49
-1.27
 74
     0
 49
1.27
 74
     0
 49
-1.27
 74
     0
  0
LTYPE
  5
70
330
5
100
AcDbSymbolTableRecord
100
AcDbLinetypeTableRecord
  2
CENTER
 70
     0
  3
Center ____ _ ____ _ ____ _ ____ _ ____ _ ____
 72
    65
 73
     4
 40
10.16
 49
6.35
 74
     0
 49
-1.27
 74
     0
 49
1.27
 74
     0
 49
-1.27
 74
     0
  0
LTYPE
  5
71
330
5
100
AcDbSymbolTableRecord
100
AcDbLinetypeTableRecord
  2
CENTERX2
 70
     0
  3
Center (2x) ________  __  ________  __  _____
 72
    65
 73
     4
 40
20.32
 49
12.7
 74
     0
 49
-2.54
 74
     0
 49
2.54
 74
     0
 49
-2.54
 74
     0
  0
LTYPE
  5
72
330
5
100
AcDbSymbolTableRecord
100
AcDbLinetypeTableRecord
  2
DOT2
 70
     0
  3
Dot (.5x) ........................................
 72
    65
 73
     2
 40
0.635
 49
0.0
 74
     0
 49
-0.635
 74
     0
  0
ENDTAB
  0
TABLE
  2
LAYER
  5
2
330
0
100
AcDbSymbolTable
 70
     1
  0
LAYER
  5
10
330
2
100
AcDbSymbolTableRecord
100
AcDbLayerTableRecord
  2
0
 70
     0
 62
     7
  6
Continuous
370
    -3
390
F
  0
ENDTAB
  0
TABLE
  2
STYLE
  5
3
330
0
100
AcDbSymbolTable
 70
     3
  0
STYLE
  5
11
330
3
100
AcDbSymbolTableRecord
100
AcDbTextStyleTableRecord
  2
Standard
 70
     0
 40
0.0
 41
1.0
 50
0.0
 71
     0
 42
10.0
  3
txt
  4

  0
STYLE
  5
76
330
3
100
AcDbSymbolTableRecord
100
AcDbTextStyleTableRecord
  2
SLDTEXTSTYLE0
 70
     0
 40
0.0
 41
0.96
 50
0.0
 71
     0
 42
10.0
  3
ISOCP3
  4

  0
STYLE
  5
8D
330
3
100
AcDbSymbolTableRecord
100
AcDbTextStyleTableRecord
  2
SLDTEXTSTYLE1
 70
     0
 40
0.0
 41
0.605
 50
0.0
 71
     0
 42
10.0
  3
TXT
  4

  0
ENDTAB
  0
TABLE
  2
VIEW
  5
6
330
0
100
AcDbSymbolTable
 70
     0
  0
ENDTAB
  0
TABLE
  2
UCS
  5
7
330
0
100
AcDbSymbolTable
 70
     0
  0
ENDTAB
  0
TABLE
  2
APPID
  5
9
330
0
100
AcDbSymbolTable
 70
     1
  0
APPID
  5
12
330
9
100
AcDbSymbolTableRecord
100
AcDbRegAppTableRecord
  2
ACAD
 70
     0
  0
ENDTAB
  0
TABLE
  2
DIMSTYLE
  5
A
330
0
100
AcDbSymbolTable
 70
     2
100
AcDbDimStyleTable
  0
DIMSTYLE
105
27
330
A
100
AcDbSymbolTableRecord
100
AcDbDimStyleTableRecord
  2
ISO-25
 70
     0
 41
2.5
 42
0.625
 43
3.75
 44
1.25
 73
     0
 74
     0
 77
     1
 78
     8
140
2.5
141
2.5
143
0.0393700787
147
0.625
171
     3
172
     1
178
     0
271
     2
272
     2
274
     3
278
    44
283
     0
284
     8
340
11
  0
DIMSTYLE
105
77
102
{ACAD_REACTORS
330
75
330
82
102
}
330
A
100
AcDbSymbolTableRecord
100
AcDbDimStyleTableRecord
  2
SLDDIMSTYLE0
 70
     0
 41
2.5
 44
0.0
 45
0.000000001
 73
     0
 74
     0
 77
     1
 78
    12
 79
     3
140
6.0
147
1.5
173
     1
178
     0
271
     2
272
     2
276
     2
284
    12
340
76
  0
ENDTAB
  0
TABLE
  2
BLOCK_RECORD
  5
1
330
0
100
AcDbSymbolTable
 70
     3
  0
BLOCK_RECORD
  5
1F
330
1
100
AcDbSymbolTableRecord
100
AcDbBlockTableRecord
  2
*Model_Space
340
22
  0
BLOCK_RECORD
  5
1B
330
1
100
AcDbSymbolTableRecord
100
AcDbBlockTableRecord
  2
*Paper_Space
340
1E
  0
BLOCK_RECORD
  5
23
330
1
100
AcDbSymbolTableRecord
100
AcDbBlockTableRecord
  2
*Paper_Space0
340
26
  0
BLOCK_RECORD
  5
78
330
1
100
AcDbSymbolTableRecord
100
AcDbBlockTableRecord
  2
_D
340
0
  0
BLOCK_RECORD
  5
83
330
1
100
AcDbSymbolTableRecord
100
AcDbBlockTableRecord
  2
_D_1
340
0
  0
ENDTAB
  0
ENDSEC
  0
SECTION
  2
BLOCKS
  0
BLOCK
  5
20
330
1F
100
AcDbEntity
  8
0
100
AcDbBlockBegin
  2
*Model_Space
 70
     0
 10
0.0
 20
0.0
 30
0.0
  3
*Model_Space
  1

  0
ENDBLK
  5
21
330
1F
100
AcDbEntity
  8
0
100
AcDbBlockEnd
  0
BLOCK
  5
1C
330
1B
100
AcDbEntity
 67
     1
  8
0
100
AcDbBlockBegin
  2
*Paper_Space
 70
     0
 10
0.0
 20
0.0
 30
0.0
  3
*Paper_Space
  1

  0
ENDBLK
  5
1D
330
1B
100
AcDbEntity
 67
     1
  8
0
100
AcDbBlockEnd
  0
BLOCK
  5
24
330
23
100
AcDbEntity
  8
0
100
AcDbBlockBegin
  2
*Paper_Space0
 70
     0
 10
0.0
 20
0.0
 30
0.0
  3
*Paper_Space0
  1

  0
ENDBLK
  5
25
330
23
100
AcDbEntity
  8
0
100
AcDbBlockEnd
  0
BLOCK
  5
79
330
78
100
AcDbEntity
  8
0
100
AcDbBlockBegin
  2
_D
 70
     0
 10
0.0
 20
0.0
 30
0.0
  3
_D
  1

  0
SOLID
  5
7B
330
78
100
AcDbEntity
  8
0
  6
Continuous
 62
     7
370
    18
100
AcDbTrace
 10
42.7614395004
 20
152.0299240879
 30
0.0
 11
42.4614395004
 21
149.5299240879
 31
0.0
 12
43.0614395004
 22
149.5299240879
 32
0.0
 13
43.0614395004
 23
149.5299240879
 33
0.0
  0
SOLID
  5
7C
330
78
100
AcDbEntity
  8
0
  6
Continuous
 62
     7
370
    18
100
AcDbTrace
 10
42.7614395004
 20
52.0299240879
 30
0.0
 11
43.0614395004
 21
54.5299240879
 31
0.0
 12
42.4614395004
 22
54.5299240879
 32
0.0
 13
42.4614395004
 23
54.5299240879
 33
0.0
  0
LINE
  5
7D
330
78
100
AcDbEntity
  8
0
  6
Continuous
 62
     7
370
    18
100
AcDbLine
 10
56.6850079902
 20
152.0299240879
 30
0.0
 11
41.7614395004
 21
152.0299240879
 31
0.0
  0
LINE
  5
7E
330
78
100
AcDbEntity
  8
0
  6
Continuous
 62
     7
370
    18
100
AcDbLine
 10
56.6850079902
 20
52.0299240879
 30
0.0
 11
41.7614395004
 21
52.0299240879
 31
0.0
  0
LINE
  5
7F
330
78
100
AcDbEntity
  8
0
  6
Continuous
 62
     7
370
    18
100
AcDbLine
 10
42.7614395004
 20
152.0299240879
 30
0.0
 11
42.7614395004
 21
52.0299240879
 31
0.0
  0
MTEXT
  5
80
330
78
100
AcDbEntity
  8
0
  6
Continuous
 62
     7
370
    18
100
AcDbMText
 10
35.0270332946
 20
94.3680541463
 30
0.0
 40
6.0
 41
0.0
 71
     1
 72
     1
  1
100
  7
SLDTEXTSTYLE0
 11
-7.044195017643634E-15
 21
1.0
 31
0.0
 73
     1
 44
1.0
  0
MTEXT
  5
81
330
78
100
AcDbEntity
  8
0
  6
Continuous
 62
     7
370
    18
100
AcDbMText
 10
35.0270332946
 20
105.7430548466
 30
0.0
 40
6.0
 41
0.0
 71
     1
 72
     1
  1
mm
  7
SLDTEXTSTYLE0
 11
-7.044195017643634E-15
 21
1.0
 31
0.0
 73
     1
 44
1.0
  0
ENDBLK
  5
7A
330
78
100
AcDbEntity
  8
0
100
AcDbBlockEnd
  0
BLOCK
  5
84
330
83
100
AcDbEntity
  8
0
100
AcDbBlockBegin
  2
_D_1
 70
     0
 10
0.0
 20
0.0
 30
0.0
  3
_D_1
  1

  0
SOLID
  5
86
330
83
100
AcDbEntity
  8
0
  6
Continuous
 62
     7
370
    18
100
AcDbTrace
 10
56.6850079902
 20
38.4602342313
 30
0.0
 11
59.1850079902
 21
38.1602342313
 31
0.0
 12
59.1850079902
 22
38.7602342313
 32
0.0
 13
59.1850079902
 23
38.7602342313
 33
0.0
  0
SOLID
  5
87
330
83
100
AcDbEntity
  8
0
  6
Continuous
 62
     7
370
    18
100
AcDbTrace
 10
156.6850079902
 20
38.4602342313
 30
0.0
 11
154.1850079902
 21
38.7602342313
 31
0.0
 12
154.1850079902
 22
38.1602342313
 32
0.0
 13
154.1850079902
 23
38.1602342313
 33
0.0
  0
LINE
  5
88
330
83
100
AcDbEntity
  8
0
  6
Continuous
 62
     7
370
    18
100
AcDbLine
 10
56.6850079902
 20
52.0299240879
 30
0.0
 11
56.6850079902
 21
37.4602342313
 31
0.0
  0
LINE
  5
89
330
83
100
AcDbEntity
  8
0
  6
Continuous
 62
     7
370
    18
100
AcDbLine
 10
156.6850079902
 20
52.0299240879
 30
0.0
 11
156.6850079902
 21
37.4602342313
 31
0.0
  0
LINE
  5
8A
330
83
100
AcDbEntity
  8
0
  6
Continuous
 62
     7
370
    18
100
AcDbLine
 10
56.6850079902
 20
38.4602342313
 30
0.0
 11
156.6850079902
 21
38.4602342313
 31
0.0
  0
MTEXT
  5
8B
330
83
100
AcDbEntity
  8
0
  6
Continuous
 62
     7
370
    18
100
AcDbMText
 10
93.9626484861
 20
46.1946404371
 30
0.0
 40
6.0
 41
0.0
 71
     1
 72
     1
  1
100
  7
SLDTEXTSTYLE0
 73
     1
 44
1.0
  0
MTEXT
  5
8C
330
83
100
AcDbEntity
  8
0
  6
Continuous
 62
     7
370
    18
100
AcDbMText
 10
105.3376491864
 20
46.1946404371
 30
0.0
 40
6.0
 41
0.0
 71
     1
 72
     1
  1
mm
  7
SLDTEXTSTYLE0
 73
     1
 44
1.0
  0
ENDBLK
  5
85
330
83
100
AcDbEntity
  8
0
100
AcDbBlockEnd
  0
ENDSEC
  0
SECTION
  2
ENTITIES
  0
LINE
  5
73
330
1F
100
AcDbEntity
  8
0
  6
Continuous
 62
     7
370
    18
100
AcDbLine
 10
56.6850079902
 20
152.0299240879
 30
0.0
 11
56.6850079902
 21
52.0299240879
 31
0.0
  0
LINE
  5
74
330
1F
100
AcDbEntity
  8
0
  6
Continuous
 62
     7
370
    18
100
AcDbLine
 10
56.6850079902
 20
52.0299240879
 30
0.0
 11
156.6850079902
 21
52.0299240879
 31
0.0
  0
DIMENSION
  5
75
330
1F
100
AcDbEntity
  8
0
  6
Continuous
 62
     7
370
    18
100
AcDbDimension
  2
_D
 10
42.7614395004
 20
52.0299240879
 30
0.0
 11
42.7614395004
 21
105.4472211621
 31
0.0
 70
   160
  1
<>mm
 71
     2
 42
-1.0
  3
SLDDIMSTYLE0
100
AcDbAlignedDimension
 13
56.6850079902
 23
152.0299240879
 33
0.0
 14
56.6850079902
 24
52.0299240879
 34
0.0
 50
90.0
100
AcDbRotatedDimension
  0
DIMENSION
  5
82
330
1F
100
AcDbEntity
  8
0
  6
Continuous
 62
     7
370
    18
100
AcDbDimension
  2
_D_1
 10
156.6850079902
 20
38.4602342313
 30
0.0
 11
105.0418155019
 21
38.4602342313
 31
0.0
 70
   160
  1
<>mm
 71
     2
 42
-1.0
  3
SLDDIMSTYLE0
100
AcDbAlignedDimension
 13
56.6850079902
 23
52.0299240879
 33
0.0
 14
156.6850079902
 24
52.0299240879
 34
0.0
100
AcDbRotatedDimension
  0
MTEXT
  5
8E
330
1F
100
AcDbEntity
  8
0
  6
Continuous
 62
     7
370
     0
100
AcDbMText
 10
412.8252631579
 20
48.4342449499
 30
0.0
 40
10.0
 41
0.0
 71
     1
 72
     1
  1
KLUDI GmbH & Co KG
  7
SLDTEXTSTYLE1
 73
     1
 44
1.0
  0
MTEXT
  5
8F
330
1F
100
AcDbEntity
  8
0
  6
Continuous
 62
     7
370
     0
100
AcDbMText
 10
210.0873490389
 20
48.4342449499
 30
0.0
 40
10.0
 41
0.0
 71
     1
 72
     1
  1
38 272 05 76
  7
SLDTEXTSTYLE1
 73
     1
 44
1.0
  0
SPLINE
  5
90
330
1F
100
AcDbEntity
  8
0
  6
Continuous
 62
     7
370
    25
100
AcDbSpline
210
0.0
220
0.0
230
1.0
 70
     8
 71
     3
 72
    21
 73
    17
 74
     0
 42
0.000000001
 43
0.00000001
 40
0.0
 40
0.0
 40
0.0
 40
0.0
 40
0.0062357894544725
 40
0.0819106169717197
 40
0.1573850790702104
 40
0.2334929168220697
 40
0.3109134428826635
 40
0.389845492522479
 40
0.4700159082664946
 40
0.550895547597793
 40
0.6319285633080143
 40
0.712760000383968
 40
0.7932970044669357
 40
0.8735584117594978
 40
0.9536253518824406
 40
1.0
 40
1.0
 40
1.0
 40
1.0
 10
143.1909434976115
 20
376.6720422583832
 30
0.0
 10
143.1883738930715
 20
376.6411769810112
 30
0.0
 10
143.1546206859137
 20
376.235744127481
 30
0.0
 10
143.2887434044445
 20
375.4536033191743
 30
0.0
 10
143.6027173741326
 20
374.3582164912252
 30
0.0
 10
144.1366991593521
 20
373.3072905538294
 30
0.0
 10
144.8558202668696
 20
372.3113829903326
 30
0.0
 10
145.7622055317392
 20
371.3814336957293
 30
0.0
 10
146.8435022776364
 20
370.5315666353796
 30
0.0
 10
148.0834674050185
 20
369.7767885883083
 30
0.0
 10
149.4594885255861
 20
369.1302870997249
 30
0.0
 10
150.9466276644106
 20
368.6020430923462
 30
0.0
 10
152.5199200658232
 20
368.197940361945
 30
0.0
 10
154.1549369157722
 20
367.9246238286244
 30
0.0
 10
155.5940691886535
 20
367.7964930668815
 30
0.0
 10
156.480137955691
 20
367.7843524848533
 30
0.0
 10
156.8051190623911
 20
367.7798997155759
 30
0.0
  0
SPLINE
  5
91
330
1F
100
AcDbEntity
  8
0
  6
Continuous
 62
     7
370
    25
100
AcDbSpline
210
0.0
220
0.0
230
1.0
 70
     8
 71
     3
 72
    20
 73
    16
 74
     0
 42
0.000000001
 43
0.00000001
 40
0.0
 40
0.0
 40
0.0
 40
0.0
 40
0.0424860883309694
 40
0.1223243694353568
 40
0.2023480975154145
 40
0.2826442890805118
 40
0.3633260616909098
 40
0.444476118396253
 40
0.5261149841857162
 40
0.6081453893069764
 40
0.6901816184011467
 40
0.7715527289519881
 40
0.8515468087456676
 40
0.9297235031726951
 40
1.0
 40
1.0
 40
1.0
 40
1.0
 10
156.8051190623911
 20
367.7798997155759
 30
0.0
 10
157.1034497132468
 20
367.7836726549983
 30
0.0
 10
157.9623922561536
 20
367.7945355622201
 30
0.0
 10
159.375244187786
 20
367.9146422637763
 30
0.0
 10
161.0113994606607
 20
368.1814889447543
 30
0.0
 10
162.587699032758
 20
368.5791328562385
 30
0.0
 10
164.0812645604187
 20
369.1018820006102
 30
0.0
 10
165.4701567639492
 20
369.7461897589067
 30
0.0
 10
166.7324669635981
 20
370.5067488660762
 30
0.0
 10
167.8456724756646
 20
371.3765188819996
 30
0.0
 10
168.7857443176536
 20
372.3446354962082
 30
0.0
 10
169.5321440190133
 20
373.3945725076705
 30
0.0
 10
170.060272316066
 20
374.5036523078307
 30
0.0
 10
170.3772715646238
 20
375.6145906360847
 30
0.0
 10
170.4057928769161
 20
376.3536787708454
 30
0.0
 10
170.4192946271707
 20
376.703556900906
 30
0.0
  0
LINE
  5
92
330
1F
100
AcDbEntity
  8
0
  6
Continuous
 62
     7
370
    25
100
AcDbLine
 10
143.1828606624
 20
381.3791515702
 30
0.0
 11
143.1828606624
 21
376.6877995796
 31
0.0
  0
LINE
  5
93
330
1F
100
AcDbEntity
  8
0
  6
Continuous
 62
     7
370
    25
100
AcDbLine
 10
170.4273774624
 20
376.6877995796
 30
0.0
 11
170.4273774624
 21
381.3791515702
 31
0.0
  0
SPLINE
  5
94
330
1F
100
AcDbEntity
  8
0
  6
Continuous
 62
     7
370
    25
100
AcDbSpline
210
0.0
220
0.0
230
1.0
 70
     8
 71
     3
 72
    16
 73
    12
 74
     0
 42
0.000000001
 43
0.00000001
 40
0.0
 40
0.0
 40
0.0
 40
0.0
 40
0.1260963700247084
 40
0.2378471999766195
 40
0.3382618125148174
 40
0.4298957330163317
 40
0.5419352062318655
 40
0.645659791904627
 40
0.743255708988556
 40
0.8798846098333926
 40
0.9999999999999999
 40
0.9999999999999999
 40
0.9999999999999999
 40
0.9999999999999999
 10
170.4278534287895
 20
381.3791515702137
 30
0.0
 10
170.427846897555
 20
382.3274620866954
 30
0.0
 10
170.4278345781217
 20
384.116197170896
 30
0.0
 10
170.4278710502137
 20
386.4746110659922
 30
0.0
 10
170.4279700234992
 20
388.4208380731707
 30
0.0
 10
170.4279570115857
 20
390.1559076361715
 30
0.0
 10
170.4272925100212
 20
391.6364111715075
 30
0.0
 10
170.4247867340958
 20
392.8094804702408
 30
0.0
 10
170.4171744105681
 20
393.7233545035691
 30
0.0
 10
170.4032199330416
 20
394.3133288362392
 30
0.0
 10
170.3710065751632
 20
394.3863618056341
 30
0.0
 10
170.3559358601148
 20
394.4205295901614
 30
0.0
  0
SPLINE
  5
95
330
1F
100
AcDbEntity
  8
0
  6
Continuous
 62
     7
370
    25
100
AcDbSpline
210
0.0
220
0.0
230
1.0
 70
     8
 71
     3
 72
    16
 73
    12
 74
     0
 42
0.000000001
 43
0.00000001
 40
0.0
 40
0.0
 40
0.0
 40
0.0
 40
0.0142968899047319
 40
0.1216928217418074
 40
0.2362800495787931
 40
0.3580851143183676
 40
0.4891336913267921
 40
0.5962268287346801
 40
0.714196201690659
 40
0.8471143504562618
 40
1.0
 40
1.0
 40
1.0
 40
1.0
 10
143.372776550663
 20
393.5057055280041
 30
0.0
 10
143.3685431646761
 20
393.5091554463167
 30
0.0
 10
143.3325092657163
 20
393.5385205947534
 30
0.0
 10
143.2941502828337
 20
393.3641015889837
 30
0.0
 10
143.2473528480239
 20
392.8997830513414
 30
0.0
 10
143.2183538081996
 20
391.9950771498116
 30
0.0
 10
143.200958969875
 20
390.6840022538623
 30
0.0
 10
143.1911377976775
 20
389.0034867744338
 30
0.0
 10
143.185654123938
 20
387.0005227490727
 30
0.0
 10
143.182780655321
 20
384.4499886611116
 30
0.0
 10
143.182522689964
 20
382.4493549352196
 30
0.0
 10
143.1823846959927
 20
381.3791515702138
 30
0.0
  0
LINE
  5
96
330
1F
100
AcDbEntity
  8
0
  6
Continuous
 62
     7
370
    25
100
AcDbLine
 10
180.8051190624
 20
433.7999149037
 30
0.0
 11
180.8051190624
 21
458.4873857118
 31
0.0
  0
LINE
  5
97
330
1F
100
AcDbEntity
  8
0
  6
Continuous
 62
     7
370
    25
100
AcDbLine
 10
132.8051190624
 20
458.4873857118
 30
0.0
 11
132.8051190624
 21
433.7919623959
 31
0.0
  0
LINE
  5
98
330
1F
100
AcDbEntity
  8
0
  6
Continuous
 62
     7
370
    25
100
AcDbLine
 10
180.8051190624
 20
300.2191978593
 30
0.0
 11
180.8051190624
 21
429.4873857118
 31
0.0
  0
LINE
  5
99
330
1F
100
AcDbEntity
  8
0
  6
Continuous
 62
     7
370
    25
100
AcDbLine
 10
132.8051190624
 20
429.4873857118
 30
0.0
 11
132.8051190624
 21
300.2191978593
 31
0.0
  0
ARC
  5
9A
330
1F
100
AcDbEntity
  8
0
  6
Continuous
 62
     7
370
    25
100
AcDbCircle
 10
180.3051190624
 20
429.4873857118
 30
0.0
 40
0.5
100
AcDbArc
 50
0.0
 51
90.0
  0
ARC
  5
9B
330
1F
100
AcDbEntity
  8
0
  6
Continuous
 62
     7
370
    25
100
AcDbCircle
 10
133.3051190624
 20
429.4873857118
 30
0.0
 40
0.5
100
AcDbArc
 50
90.0
 51
180.0
  0
ARC
  5
9C
330
1F
100
AcDbEntity
  8
0
  6
Continuous
 62
     7
370
    25
100
AcDbCircle
 10
133.1051190624
 20
300.2191978593
 30
0.0
 40
0.2999999999999829
100
AcDbArc
 50
180.0
 51
270.0
  0
ARC
  5
9D
330
1F
100
AcDbEntity
  8
0
  6
Continuous
 62
     7
370
    25
100
AcDbCircle
 10
180.5051190624
 20
300.2191978593
 30
0.0
 40
0.2999999999999829
100
AcDbArc
 50
270.0
 51
0.0
  0
ARC
  5
9E
330
1F
100
AcDbEntity
  8
0
  6
Continuous
 62
     7
370
    25
100
AcDbCircle
 10
134.3051190624
 20
458.4873857118
 30
0.0
 40
1.5
100
AcDbArc
 50
90.0
 51
180.0
  0
ARC
  5
9F
330
1F
100
AcDbEntity
  8
0
  6
Continuous
 62
     7
370
    25
100
AcDbCircle
 10
179.3051190624
 20
458.4873857118
 30
0.0
 40
1.5
100
AcDbArc
 50
0.0
 51
90.0
  0
ARC
  5
A0
330
1F
100
AcDbEntity
  8
0
  6
Continuous
 62
     7
370
    25
100
AcDbCircle
 10
180.4020848594
 20
430.1873857118
 30
0.0
 40
0.2000000000000232
100
AcDbArc
 50
270.0
 51
26.6421673927
  0
ARC
  5
A1
330
1F
100
AcDbEntity
  8
0
  6
Continuous
 62
     7
370
    25
100
AcDbCircle
 10
133.2081532653
 20
430.1873857118
 30
0.0
 40
0.1999999999999978
100
AcDbArc
 50
153.3578326073
 51
270.0
  0
ARC
  5
A2
330
1F
100
AcDbEntity
  8
0
  6
Continuous
 62
     7
370
    25
100
AcDbCircle
 10
156.8051190624
 20
418.3491761693
 30
0.0
 40
26.60000000000002
100
AcDbArc
 50
146.6118111875
 51
153.3578326073
  0
ARC
  5
A3
330
1F
100
AcDbEntity
  8
0
  6
Continuous
 62
     7
370
    25
100
AcDbCircle
 10
156.8051190624
 20
418.3491761693
 30
0.0
 40
26.60000000000004
100
AcDbArc
 50
26.6421673927
 51
33.3881888125
  0
SPLINE
  5
A4
330
1F
100
AcDbEntity
  8
0
  6
Continuous
 62
     7
370
    25
100
AcDbSpline
210
0.0
220
0.0
230
1.0
 70
     8
 71
     3
 72
    13
 73
     9
 74
     0
 42
0.000000001
 43
0.00000001
 40
0.0
 40
0.0
 40
0.0
 40
0.0
 40
0.0505977944556017
 40
0.375287666040311
 40
0.5851220021968484
 40
0.7697355470557914
 40
0.9588292709565965
 40
1.0
 40
1.0
 40
1.0
 40
1.0
 10
179.6828573561677
 20
432.987869207542
 30
0.0
 10
179.7091717055388
 20
432.9878615745296
 30
0.0
 10
179.9043472238611
 20
432.9878049598994
 30
0.0
 10
180.1192550698204
 20
432.9960425379224
 30
0.0
 10
180.5019435163599
 20
433.1144070453046
 30
0.0
 10
180.775105402468
 20
433.4440021616886
 30
0.0
 10
180.8193361100722
 20
433.7079772500323
 30
0.0
 10
180.7993014012087
 20
433.8244589677197
 30
0.0
 10
180.7957192435654
 20
433.8452856180172
 30
0.0
  0
SPLINE
  5
A5
330
1F
100
AcDbEntity
  8
0
  6
Continuous
 62
     7
370
    25
100
AcDbSpline
210
0.0
220
0.0
230
1.0
 70
     8
 71
     3
 72
    13
 73
     9
 74
     0
 42
0.000000001
 43
0.00000001
 40
0.0
 40
0.0
 40
0.0
 40
0.0
 40
0.1240295500247265
 40
0.3125606797804686
 40
0.5084454526182071
 40
0.704011557799668
 40
0.9571226950426196
 40
1.0
 40
1.0
 40
1.0
 40
1.0
 10
132.8189452496852
 20
433.8055635162233
 30
0.0
 10
132.8143362890037
 20
433.7395320812284
 30
0.0
 10
132.8027214771832
 20
433.5731295569531
 30
0.0
 10
132.956729901668
 20
433.2420404311187
 30
0.0
 10
133.2864017809621
 20
433.0386744046892
 30
0.0
 10
133.5929166547429
 20
432.9915893508904
 30
0.0
 10
133.7850569240083
 20
432.9873477629259
 30
0.0
 10
133.9349076143265
 20
432.9874451453122
 30
0.0
 10
133.9566151975655
 20
432.9874592522626
 30
0.0
  0
SPLINE
  5
A6
330
1F
100
AcDbEntity
  8
0
  6
Continuous
 62
     7
370
    25
100
AcDbSpline
210
0.0
220
0.0
230
1.0
 70
     8
 71
     3
 72
    11
 73
     7
 74
     0
 42
0.000000001
 43
0.00000001
 40
0.0
 40
0.0
 40
0.0
 40
0.0
 40
0.3638364715225735
 40
0.7541895610187295
 40
0.9676725141029567
 40
1.0
 40
1.0
 40
1.0
 40
1.0
 10
152.4510531251498
 20
451.3807811243556
 30
0.0
 10
152.4799978232538
 20
451.1017966624976
 30
0.0
 10
152.5399967262377
 20
450.5234951856301
 30
0.0
 10
152.8821764391529
 20
449.8590384095884
 30
0.0
 10
153.1334960021903
 20
449.4449516292547
 30
0.0
 10
153.2538127167983
 20
449.3024125194091
 30
0.0
 10
153.2696360354124
 20
449.2836666472548
 30
0.0
  0
SPLINE
  5
A7
330
1F
100
AcDbEntity
  8
0
  6
Continuous
 62
     7
370
    25
100
AcDbSpline
210
0.0
220
0.0
230
1.0
 70
     8
 71
     3
 72
    10
 73
     6
 74
     0
 42
0.000000001
 43
0.00000001
 40
0.0
 40
0.0
 40
0.0
 40
0.0
 40
0.2464999435449606
 40
0.6382516670763656
 40
1.0
 40
1.0
 40
1.0
 40
1.0
 10
160.3090161697284
 20
449.282307005472
 30
0.0
 10
160.4257718046574
 20
449.4281687961511
 30
0.0
 10
160.7280821320447
 20
449.805842436659
 30
0.0
 10
161.0583852372567
 20
450.509025080814
 30
0.0
 10
161.124310871446
 20
451.082963471335
 30
0.0
 10
161.155961152107
 20
451.3585059270963
 30
0.0
  0
CIRCLE
  5
A8
330
1F
100
AcDbEntity
  8
0
  6
Continuous
 62
     7
370
    25
100
AcDbCircle
 10
156.8051190624
 20
439.9873857118
 30
0.0
 40
3.569682227408606
  0
CIRCLE
  5
A9
330
1F
100
AcDbEntity
  8
0
  6
Continuous
 62
     7
370
    25
100
AcDbCircle
 10
156.8051190624
 20
439.9873857118
 30
0.0
 40
4.0
  0
SPLINE
  5
AA
330
1F
100
AcDbEntity
  8
0
  6
Continuous
 62
     7
370
    25
100
AcDbSpline
210
0.0
220
0.0
230
1.0
 70
    24
 71
     3
 72
    10
 73
     6
 74
     0
 42
0.000000001
 43
0.00000001
 40
0.0
 40
0.0
 40
0.0
 40
0.0
 40
0.5
 40
0.5
 40
1.0
 40
1.0
 40
1.0
 40
1.0
 10
154.6582025225962
 20
459.9873857118207
 30
0.0
 10
155.3738431034929
 20
459.9873857118207
 30
0.0
 10
156.08948362873
 20
459.9873857118208
 30
0.0
 10
157.5207640618056
 20
459.9873857118208
 30
0.0
 10
158.236403968607
 20
459.9873857118207
 30
0.0
 10
158.9520438207518
 20
459.9873857118207
 30
0.0
  0
LINE
  5
AB
330
1F
100
AcDbEntity
  8
0
  6
Continuous
 62
     7
370
    25
100
AcDbLine
 10
179.6594048543
 20
432.9873857118
 30
0.0
 11
133.9508332705
 21
432.9873857118
 31
0.0
  0
LINE
  5
AC
330
1F
100
AcDbEntity
  8
0
  6
Continuous
 62
     7
370
    25
100
AcDbLine
 10
156.8051190624
 20
299.9191978593
 30
0.0
 11
133.1051190624
 21
299.9191978593
 31
0.0
  0
LINE
  5
AD
330
1F
100
AcDbEntity
  8
0
  6
Continuous
 62
     7
370
    25
100
AcDbLine
 10
180.5051190624
 20
299.9191978593
 30
0.0
 11
156.8051190624
 21
299.9191978593
 31
0.0
  0
LINE
  5
AE
330
1F
100
AcDbEntity
  8
0
  6
Continuous
 62
     7
370
    25
100
AcDbLine
 10
158.9520528451
 20
459.9873857118
 30
0.0
 11
179.3051190624
 21
459.9873857118
 31
0.0
  0
LINE
  5
AF
330
1F
100
AcDbEntity
  8
0
  6
Continuous
 62
     7
370
    25
100
AcDbLine
 10
134.3051190624
 20
459.9873857118
 30
0.0
 11
154.6581955841
 21
459.9873857118
 31
0.0
  0
LINE
  5
B0
330
1F
100
AcDbEntity
  8
0
  6
Continuous
 62
     7
370
    25
100
AcDbLine
 10
180.4020848594
 20
429.9873857118
 30
0.0
 11
133.2081533123
 21
429.9873857118
 31
0.0
  0
ELLIPSE
  5
B1
330
1F
100
AcDbEntity
  8
0
  6
Continuous
 62
     8
370
    25
100
AcDbEllipse
 10
156.8051190624
 20
376.6877995796
 30
0.0
 11
13.62225840003609
 21
0.0
 31
0.0
210
0.0
220
0.0
230
1.0
 40
0.6243407052
 41
1.57079632679488
 42
3.143150876235015
  0
ELLIPSE
  5
B2
330
1F
100
AcDbEntity
  8
0
  6
Continuous
 62
     8
370
    18
100
AcDbEllipse
 10
156.8051190624
 20
375.4898463146
 30
0.0
 11
12.12225840003609
 21
0.0
 31
0.0
210
0.0
220
0.0
230
1.0
 40
0.6110989899
 41
1.570796326794897
 42
4.712388980384699
  0
LINE
  5
B3
330
1F
100
AcDbEntity
  8
0
  6
Continuous
 62
     8
370
    18
100
AcDbLine
 10
156.8051190624
 20
368.0819464505
 30
0.0
 11
156.8051190624
 21
367.7798997718
 31
0.0
  0
ELLIPSE
  5
B4
330
1F
100
AcDbEntity
  8
0
  6
Continuous
 62
     8
370
    25
100
AcDbEllipse
 10
156.8051190624
 20
376.6877995796
 30
0.0
 11
13.62225840003609
 21
0.0
 31
0.0
210
0.0
220
0.0
230
1.0
 40
0.6243407052
 41
0.0015582226452132
 42
1.570796326794897
  0
ELLIPSE
  5
B5
330
1F
100
AcDbEntity
  8
0
  6
Continuous
 62
     8
370
    18
100
AcDbEllipse
 10
156.8051190624
 20
375.4898463146
 30
0.0
 11
12.12225840003609
 21
0.0
 31
0.0
210
0.0
220
0.0
230
1.0
 40
0.6110989899
 41
4.712388980384699
 42
7.853981633974483
  0
CIRCLE
  5
B6
330
1F
100
AcDbEntity
  8
0
  6
Continuous
 62
     8
370
    18
100
AcDbCircle
 10
156.8051190624
 20
451.9873857118
 30
0.0
 40
2.828082609483857
  0
CIRCLE
  5
B7
330
1F
100
AcDbEntity
  8
0
  6
Continuous
 62
     8
370
    18
100
AcDbCircle
 10
156.8051190624
 20
451.9873857118
 30
0.0
 40
4.328080324853801
  0
SPLINE
  5
B8
330
1F
100
AcDbEntity
  8
0
  6
Continuous
 62
     8
370
    25
100
AcDbSpline
210
0.0
220
0.0
230
1.0
 70
     8
 71
     3
 72
    21
 73
    17
 74
     0
 42
0.000000001
 43
0.00000001
 40
0.0
 40
0.0
 40
0.0
 40
0.0
 40
0.0939765098689037
 40
0.1302480868700777
 40
0.1593219080329268
 40
0.2438315169679612
 40
0.3234103660624659
 40
0.4030244832436785
 40
0.4447186890409148
 40
0.4876668129965852
 40
0.5532237353425313
 40
0.6465816732636418
 40
0.7360993829726146
 40
0.8156769247592978
 40
0.944768380558175
 40
1.0
 40
1.0
 40
1.0
 40
1.0
 10
160.0603000534259
 20
455.0279456460576
 30
0.0
 10
159.8036919720843
 20
455.2693361724354
 30
0.0
 10
159.4480423345655
 20
455.6038948221779
 30
0.0
 10
158.9326974380847
 20
455.9056323355552
 30
0.0
 10
158.4293636286536
 20
456.1526255548584
 30
0.0
 10
157.732959919491
 20
456.3764184152226
 30
0.0
 10
156.8151734054851
 20
456.4716343961015
 30
0.0
 10
156.0572789855344
 20
456.396355462207
 30
0.0
 10
155.4591207851822
 20
456.2419311904902
 30
0.0
 10
154.931007117533
 20
456.0434525147368
 30
0.0
 10
154.2644026163294
 20
455.6824888272356
 30
0.0
 10
153.5476912019855
 20
455.082624488343
 30
0.0
 10
152.9512438251255
 20
454.2918240009893
 30
0.0
 10
152.4946895745054
 20
453.2739191305176
 30
0.0
 10
152.2661874219756
 20
452.2662901831656
 30
0.0
 10
152.4084305742576
 20
451.5849436827781
 30
0.0
 10
152.4510531251498
 20
451.3807811243556
 30
0.0
  0
SPLINE
  5
B9
330
1F
100
AcDbEntity
  8
0
  6
Continuous
 62
     8
370
    25
100
AcDbSpline
210
0.0
220
0.0
230
1.0
 70
     8
 71
     3
 72
    19
 73
    15
 74
     0
 42
0.000000001
 43
0.00000001
 40
0.0
 40
0.0
 40
0.0
 40
0.0
 40
0.0541672753077675
 40
0.1447716280969878
 40
0.2178230411246984
 40
0.2733130924462815
 40
0.3900187355903103
 40
0.4998817814382825
 40
0.6097993886273289
 40
0.6673642096364076
 40
0.7266605965488262
 40
0.8170301563940486
 40
0.9456947602942075
 40
1.0
 40
1.0
 40
1.0
 40
1.0
 10
153.2696360354124
 20
449.2836666472548
 30
0.0
 10
153.3610568341515
 20
449.1689075194572
 30
0.0
 10
153.6053950955868
 20
448.8621934439223
 30
0.0
 10
154.0491138536007
 20
448.4686819262352
 30
0.0
 10
154.5434807070598
 20
448.1380703084388
 30
0.0
 10
155.1375766271811
 20
447.8367885998279
 30
0.0
 10
155.874197156189
 20
447.5987741528359
 30
0.0
 10
156.7932564475652
 20
447.5031188917572
 30
0.0
 10
157.5521315863875
 20
447.5781573224388
 30
0.0
 10
158.1508057208393
 20
447.7328739284159
 30
0.0
 10
158.6800302075151
 20
447.9308426151264
 30
0.0
 10
159.3408916148759
 20
448.2959733454681
 30
0.0
 10
159.9377075300442
 20
448.7560367463249
 30
0.0
 10
160.2240346183516
 20
449.1618593285642
 30
0.0
 10
160.3090161697284
 20
449.282307005472
 30
0.0
  0
SPLINE
  5
BA
330
1F
100
AcDbEntity
  8
0
  6
Continuous
 62
     8
370
    25
100
AcDbSpline
210
0.0
220
0.0
230
1.0
 70
     8
 71
     3
 72
    11
 73
     7
 74
     0
 42
0.000000001
 43
0.00000001
 40
0.0
 40
0.0
 40
0.0
 40
0.0
 40
0.1575976170138016
 40
0.5230465082666724
 40
0.7476703240373808
 40
1.0
 40
1.0
 40
1.0
 40
1.0
 10
161.155961152107
 20
451.3585059270963
 30
0.0
 10
161.1998477975263
 20
451.5642463492102
 30
0.0
 10
161.3455020090626
 20
452.2470727233333
 30
0.0
 10
161.1179774788588
 20
453.2538735809603
 30
0.0
 10
160.675163481144
 20
454.2805913043115
 30
0.0
 10
160.2730408602206
 20
454.7693634008677
 30
0.0
 10
160.0603000534259
 20
455.0279456460576
 30
0.0
  0
LINE
  5
BB
330
1F
100
AcDbEntity
  8
0
  6
Continuous
 62
     8
370
    18
100
AcDbLine
 10
156.8051190624
 20
411.0132455318
 30
0.0
 11
156.8051190624
 21
410.8690376436
 31
0.0
  0
SPLINE
  5
BC
330
1F
100
AcDbEntity
  8
0
  6
Continuous
 62
     8
370
    25
100
AcDbSpline
210
0.0
220
0.0
230
1.0
 70
     8
 71
     3
 72
    31
 73
    27
 74
     0
 42
0.000000001
 43
0.00000001
 40
0.0
 40
0.0
 40
0.0
 40
0.0
 40
0.0119683623930532
 40
0.1126012675446494
 40
0.2133019645902945
 40
0.2490460128416586
 40
0.2859708026602105
 40
0.324142532681025
 40
0.3401652101292761
 40
0.3571338806411188
 40
0.3750511009758036
 40
0.3939190191763183
 40
0.4137394507841295
 40
0.4345139379388196
 40
0.4356471308548692
 40
0.443839892004146
 40
0.4659462226969096
 40
0.4877834891987149
 40
0.5152988627338916
 40
0.5484908547392463
 40
0.6155788713231004
 40
0.6759842272029801
 40
0.7297459237206875
 40
0.7769188093243926
 40
0.8914251054555562
 40
0.9999999999999999
 40
0.9999999999999999
 40
0.9999999999999999
 40
0.9999999999999999
 10
170.3732932122196
 20
394.3431105899211
 30
0.0
 10
170.401632187455
 20
394.4376126572443
 30
0.0
 10
170.6682521666662
 20
395.3267111167251
 30
0.0
 10
170.7369070048333
 20
397.1736734018912
 30
0.0
 10
170.5797664875699
 20
399.1698012620304
 30
0.0
 10
170.2651430966668
 20
400.5800451063907
 30
0.0
 10
170.0104004428615
 20
401.4585183584484
 30
0.0
 10
169.7552526339045
 20
402.1580599458378
 30
0.0
 10
169.5322894020491
 20
402.6897508683013
 30
0.0
 10
169.3625262096561
 20
403.0638789702874
 30
0.0
 10
169.1720742377342
 20
403.4518064493815
 30
0.0
 10
168.9592999144878
 20
403.8523241650885
 30
0.0
 10
168.722677706004
 20
404.2638752445534
 30
0.0
 10
168.5469622193386
 20
404.5461298752837
 30
0.0
 10
168.4168953070745
 20
404.7465510817812
 30
0.0
 10
168.2796854459012
 20
404.9543106994632
 30
0.0
 10
168.0431256643932
 20
405.2930567823907
 30
0.0
 10
167.7017962373036
 20
405.7446287517636
 30
0.0
 10
167.2856998160289
 20
406.2492795935701
 30
0.0
 10
166.6022099241865
 20
406.9956066796434
 30
0.0
 10
165.6608027962381
 20
407.86155088601
 30
0.0
 10
164.4891961012863
 20
408.7223014040243
 30
0.0
 10
163.3658780153225
 20
409.3878827429269
 30
0.0
 10
161.7780174244133
 20
410.1439558346866
 30
0.0
 10
159.6140985153157
 20
410.8511154432562
 30
0.0
 10
157.7247001027222
 20
410.9601686909365
 30
0.0
 10
156.8051190623911
 20
411.0132455318426
 30
0.0
  0
ARC
  5
BD
330
1F
100
AcDbEntity
  8
0
  6
Continuous
 62
     8
370
    25
100
AcDbCircle
 10
156.7910353373
 20
397.1511841025
 30
0.0
 40
13.8620685837607
100
AcDbArc
 50
89.9417880427
 51
195.1443644027
  0
SPLINE
  5
BE
330
1F
100
AcDbEntity
  8
0
  6
Continuous
 62
     8
370
    18
100
AcDbSpline
210
0.0
220
0.0
230
1.0
 70
     8
 71
     3
 72
    27
 73
    23
 74
     0
 42
0.000000001
 43
0.00000001
 40
0.0
 40
0.0
 40
0.0
 40
0.0
 40
0.0773811681970786
 40
0.1565102552783452
 40
0.2383103591740387
 40
0.2800278344288416
 40
0.3226704278628163
 40
0.3686683628968883
 40
0.4139272415993616
 40
0.4588159325779932
 40
0.5037125049936867
 40
0.5558025610641485
 40
0.6066973811840407
 40
0.6570999324094389
 40
0.70773383595687
 40
0.7583243873556066
 40
0.8086877727418608
 40
0.8425058090432234
 40
0.8767546570775037
 40
0.9116366490283706
 40
0.9717731621265255
 40
1.0
 40
1.0
 40
1.0
 40
1.0
 10
156.8051190623911
 20
415.9716243959141
 30
0.0
 10
157.8623258280421
 20
415.9098862820047
 30
0.0
 10
160.0006199974015
 20
415.7850154872944
 30
0.0
 10
163.0665083350497
 20
414.7737964289603
 30
0.0
 10
165.3999817117811
 20
413.490295261792
 30
0.0
 10
167.0950318381434
 20
412.1807484069262
 30
0.0
 10
168.3076914938726
 20
411.0352045598739
 30
0.0
 10
169.4282005219174
 20
409.7473659790102
 30
0.0
 10
170.4288663093259
 20
408.3256130978477
 30
0.0
 10
171.28117051249
 20
406.812493118631
 30
0.0
 10
172.0306182959789
 20
405.1279944028738
 30
0.0
 10
172.6520317866415
 20
403.2807568129991
 30
0.0
 10
173.110664093154
 20
401.2790836453758
 30
0.0
 10
173.3808212788362
 20
399.2370159289569
 30
0.0
 10
173.469497769202
 20
397.1693509568227
 30
0.0
 10
173.3844176832125
 20
395.1020596396451
 30
0.0
 10
173.1480181874168
 20
393.2895051021054
 30
0.0
 10
172.8207344214935
 20
391.7360487811476
 30
0.0
 10
172.4548077269189
 20
390.4185374387962
 30
0.0
 10
171.8845058189436
 20
388.8213188942242
 30
0.0
 10
171.2453902593631
 20
387.3450990472461
 30
0.0
 10
170.6258000082762
 20
386.4000136945234
 30
0.0
 10
170.4278777546144
 20
386.0981151049547
 30
0.0
  0
SPLINE
  5
BF
330
1F
100
AcDbEntity
  8
0
  6
Continuous
 62
     8
370
    18
100
AcDbSpline
210
0.0
220
0.0
230
1.0
 70
     8
 71
     3
 72
    25
 73
    21
 74
     0
 42
0.000000001
 43
0.00000001
 40
0.0
 40
0.0
 40
0.0
 40
0.0
 40
0.0447751180895418
 40
0.0897080518006823
 40
0.1416225952063253
 40
0.1923516624383574
 40
0.2425942137668937
 40
0.2930695691941289
 40
0.343650576174012
 40
0.394006732149276
 40
0.4278220208087858
 40
0.462070240671133
 40
0.4969540777703918
 40
0.5567758735735104
 40
0.6168173207128335
 40
0.6779677695740083
 40
0.7619216126559919
 40
0.8434464979368783
 40
0.9225957308100412
 40
0.9999999999999999
 40
0.9999999999999999
 40
0.9999999999999999
 40
0.9999999999999999
 10
143.1851033717347
 20
386.0216331436148
 30
0.0
 10
142.8930426586944
 20
386.5174413684494
 30
0.0
 10
142.3078918273339
 20
387.5108053575227
 30
0.0
 10
141.5696750713257
 20
389.202633293023
 30
0.0
 10
140.9490379303779
 20
391.0485668753005
 30
0.0
 10
140.4946635869684
 20
393.0483343215326
 30
0.0
 10
140.227193292374
 20
395.0874561226598
 30
0.0
 10
140.1407588292961
 20
397.1539896247176
 30
0.0
 10
140.2279215455139
 20
399.2219167826232
 30
0.0
 10
140.466882749978
 20
401.0363853269519
 30
0.0
 10
140.7962929993672
 20
402.5916038890456
 30
0.0
 10
141.1658610193336
 20
403.9093682278202
 30
0.0
 10
141.7323498867361
 20
405.5080641128455
 30
0.0
 10
142.5763975676674
 20
407.3351358159715
 30
0.0
 10
143.8153748752144
 20
409.3013195652931
 30
0.0
 10
145.5014468673516
 20
411.3063577424219
 30
0.0
 10
147.7175313476667
 20
413.2181143155663
 30
0.0
 10
150.5366443805902
 20
414.7706636919609
 30
0.0
 10
153.6038343068545
 20
415.784420695425
 30
0.0
 10
155.7459830241049
 20
415.9096885792562
 30
0.0
 10
156.8051190623911
 20
415.9716243959141
 30
0.0
  0
SPLINE
  5
C0
330
1F
100
AcDbEntity
  8
0
  6
Continuous
 62
     8
370
    18
100
AcDbSpline
210
0.0
220
0.0
230
1.0
 70
     8
 71
     3
 72
    16
 73
    12
 74
     0
 42
0.000000001
 43
0.00000001
 40
0.0
 40
0.0
 40
0.0
 40
0.0
 40
0.25
 40
0.25
 40
0.5
 40
0.5
 40
0.75
 40
0.75
 40
0.875
 40
0.875
 40
1.0
 40
1.0
 40
1.0
 40
1.0
 10
159.0931936589472
 20
458.4877482943591
 30
0.0
 10
158.7162955338547
 20
458.5382486645719
 30
0.0
 10
158.3347615334547
 20
458.5792240399394
 30
0.0
 10
157.5737361139359
 20
458.6348456421326
 30
0.0
 10
157.1922558517441
 20
458.6497676389059
 30
0.0
 10
156.4269639799291
 20
458.6499898664412
 30
0.0
 10
156.0421894194566
 20
458.635251187608
 30
0.0
 10
155.4682630978751
 20
458.5934329284834
 30
0.0
 10
155.2774213348756
 20
458.5762499311143
 30
0.0
 10
154.8965282999864
 20
458.5361011208361
 30
0.0
 10
154.7051780181685
 20
458.5129620032993
 30
0.0
 10
154.5167329300077
 20
458.4876936177756
 30
0.0
  0
SPLINE
  5
C1
330
1F
100
AcDbEntity
  8
0
  6
Continuous
 62
     8
370
    18
100
AcDbSpline
210
0.0
220
0.0
230
1.0
 70
     8
 71
     3
 72
    47
 73
    43
 74
     0
 42
0.000000001
 43
0.00000001
 40
0.0
 40
0.0
 40
0.0
 40
0.0
 40
0.0039700704854761
 40
0.007959725298296
 40
0.0426571651295164
 40
0.0776946988046185
 40
0.1128141254573253
 40
0.1480912809529853
 40
0.1838279286960412
 40
0.2196133344379555
 40
0.2550269256577488
 40
0.2909602608925869
 40
0.3264844935631345
 40
0.3613266161778605
 40
0.3962443256588273
 40
0.4308301387524191
 40
0.4656625633434522
 40
0.5002981821745135
 40
0.5349216884633483
 40
0.5697709274705892
 40
0.6043501737550557
 40
0.639285126820605
 40
0.6740964105088231
 40
0.7096212646042636
 40
0.7455517883643898
 40
0.7809924410352292
 40
0.794970760543147
 40
0.8088258535133624
 40
0.8226344250745887
 40
0.8364739535194815
 40
0.8504214006773785
 40
0.8642725198623477
 40
0.8779499691093525
 40
0.8915483313274705
 40
0.9051435675534537
 40
0.9188116901150198
 40
0.9325460856727184
 40
0.9461104911605649
 40
0.9595536248019306
 40
0.9729552017344859
 40
0.9863956761831513
 40
1.0
 40
1.0
 40
1.0
 40
1.0
 10
159.0942607983585
 20
458.4877454524577
 30
0.0
 10
159.1406573907063
 20
458.4692641201057
 30
0.0
 10
159.2336794494373
 20
458.4322102871304
 30
0.0
 10
159.7259900924008
 20
458.2195381799724
 30
0.0
 10
160.5364777146046
 20
457.7585344224998
 30
0.0
 10
161.5244622560818
 20
456.8822688474215
 30
0.0
 10
162.333018629369
 20
455.8289038965822
 30
0.0
 10
162.9258334936356
 20
454.6269401735304
 30
0.0
 10
163.2943077956218
 20
453.3248543041918
 30
0.0
 10
163.4126334274014
 20
451.9714799027987
 30
0.0
 10
163.2847215573998
 20
450.6164290191982
 30
0.0
 10
162.9044438282434
 20
449.3172951272636
 30
0.0
 10
162.3093305802019
 20
448.1144747621477
 30
0.0
 10
161.4990346830052
 20
447.0644869869624
 30
0.0
 10
160.5099544036444
 20
446.1984615830359
 30
0.0
 10
159.3622584500425
 20
445.5507047024145
 30
0.0
 10
158.1065440285777
 20
445.143017788936
 30
0.0
 10
156.7885774961323
 20
445.0117662993415
 30
0.0
 10
155.4711708433338
 20
445.1499339247613
 30
0.0
 10
154.2177266031436
 20
445.5640927536526
 30
0.0
 10
153.0731823029132
 20
446.2178189264379
 30
0.0
 10
152.0886539420145
 20
447.0885781668117
 30
0.0
 10
151.2835848040504
 20
448.1423858756361
 30
0.0
 10
150.6941614408218
 20
449.3477462630121
 30
0.0
 10
150.3196571940005
 20
450.6486731552855
 30
0.0
 10
150.2222276644792
 20
451.7295406724518
 30
0.0
 10
150.251633997003
 20
452.5285975427494
 30
0.0
 10
150.3080018438762
 20
453.0518005806941
 30
0.0
 10
150.4018031824575
 20
453.5673612231994
 30
0.0
 10
150.5330081356884
 20
454.0753122258594
 30
0.0
 10
150.7007282482762
 20
454.5722236464896
 30
0.0
 10
150.9020336457574
 20
455.0535319477498
 30
0.0
 10
151.1354941484149
 20
455.5144416882294
 30
0.0
 10
151.4007146578026
 20
455.9533762528977
 30
0.0
 10
151.6979673021669
 20
456.3705480713037
 30
0.0
 10
152.0268587195721
 20
456.7650580227443
 30
0.0
 10
152.3837167490487
 20
457.1338372793052
 30
0.0
 10
152.7655655396146
 20
457.4726561189045
 30
0.0
 10
153.1696349798205
 20
457.7784141250758
 30
0.0
 10
153.5959955994739
 20
458.0499995828645
 30
0.0
 10
154.0437904275517
 20
458.2909010415098
 30
0.0
 10
154.3578559881682
 20
458.421827663092
 30
0.0
 10
154.5158401426218
 20
458.4876875796188
 30
0.0
  0
LINE
  5
C2
330
1F
100
AcDbEntity
  8
0
  6
Continuous
 62
     8
370
    18
100
AcDbLine
 10
156.8051190624
 20
300.2191978593
 30
0.0
 11
180.8051190624
 21
300.2191978593
 31
0.0
  0
LINE
  5
C3
330
1F
100
AcDbEntity
  8
0
  6
Continuous
 62
     8
370
    18
100
AcDbLine
 10
132.8051190624
 20
300.2191978593
 30
0.0
 11
156.8051190624
 21
300.2191978593
 31
0.0
  0
LINE
  5
C4
330
1F
100
AcDbEntity
  8
0
  6
Continuous
 62
     7
370
    25
100
AcDbLine
 10
143.1828606624
 20
379.0334755749
 30
0.0
 11
143.1811403245
 21
394.376609416
 31
0.0
  0
LINE
  5
C5
330
1F
100
AcDbEntity
  8
0
  6
Continuous
 62
     7
370
    25
100
AcDbLine
 10
170.4273774624
 20
379.0334755749
 30
0.0
 11
170.4291043686
 21
394.4351814553
 31
0.0
  0
ARC
  5
C6
330
1F
100
AcDbEntity
  8
0
  6
Continuous
 62
     7
370
    25
100
AcDbCircle
 10
265.2222818139
 20
458.4873857118
 30
0.0
 40
1.5
100
AcDbArc
 50
90.0
 51
180.0
  0
LINE
  5
C7
330
1F
100
AcDbEntity
  8
0
  6
Continuous
 62
     7
370
    25
100
AcDbLine
 10
311.7222818139
 20
443.9802204175
 30
0.0
 11
311.7222818139
 21
445.0582537961
 31
0.0
  0
LINE
  5
C8
330
1F
100
AcDbEntity
  8
0
  6
Continuous
 62
     7
370
    25
100
AcDbLine
 10
311.7222818139
 20
433.4873857118
 30
0.0
 11
311.7222818139
 21
436.036988081
 31
0.0
  0
LINE
  5
C9
330
1F
100
AcDbEntity
  8
0
  6
Continuous
 62
     7
370
    25
100
AcDbLine
 10
263.7222818139
 20
458.4873857118
 30
0.0
 11
263.7222818139
 21
440.0233836042
 31
0.0
  0
ARC
  5
CA
330
1F
100
AcDbEntity
  8
0
  6
Continuous
 62
     7
370
    25
100
AcDbCircle
 10
264.0222818139
 20
300.2191978593
 30
0.0
 40
0.3000000000000114
100
AcDbArc
 50
180.0
 51
270.0
  0
ARC
  5
CB
330
1F
100
AcDbEntity
  8
0
  6
Continuous
 62
     7
370
    25
100
AcDbCircle
 10
311.4222818139
 20
300.2191978593
 30
0.0
 40
0.2999999999999545
100
AcDbArc
 50
270.0
 51
0.0
  0
ARC
  5
CC
330
1F
100
AcDbEntity
  8
0
  6
Continuous
 62
     7
370
    25
100
AcDbCircle
 10
311.2222818139
 20
429.4873857118
 30
0.0
 40
0.5
100
AcDbArc
 50
0.0
 51
90.0
  0
ARC
  5
CD
330
1F
100
AcDbEntity
  8
0
  6
Continuous
 62
     7
370
    25
100
AcDbCircle
 10
264.2222818139
 20
429.4873857118
 30
0.0
 40
0.5
100
AcDbArc
 50
90.0
 51
180.0
  0
LINE
  5
CE
330
1F
100
AcDbEntity
  8
0
  6
Continuous
 62
     7
370
    25
100
AcDbLine
 10
311.7222818139
 20
415.9716243959
 30
0.0
 11
311.7222818139
 21
429.4873857118
 31
0.0
  0
LINE
  5
CF
330
1F
100
AcDbEntity
  8
0
  6
Continuous
 62
     7
370
    25
100
AcDbLine
 10
311.7222818139
 20
300.2191978593
 30
0.0
 11
311.7222818139
 21
378.3267279426
 31
0.0
  0
LINE
  5
D0
330
1F
100
AcDbEntity
  8
0
  6
Continuous
 62
     7
370
    25
100
AcDbLine
 10
263.7222818139
 20
429.4873857118
 30
0.0
 11
263.7222818139
 21
300.2191978593
 31
0.0
  0
ARC
  5
D1
330
1F
100
AcDbEntity
  8
0
  6
Continuous
 62
     7
370
    25
100
AcDbCircle
 10
311.319247611
 20
430.1873857118
 30
0.0
 40
0.1999999999999978
100
AcDbArc
 50
270.0
 51
26.6421673927
  0
ARC
  5
D2
330
1F
100
AcDbEntity
  8
0
  6
Continuous
 62
     7
370
    25
100
AcDbCircle
 10
264.1253160169
 20
430.1873857118
 30
0.0
 40
0.1999999999999978
100
AcDbArc
 50
153.3578326073
 51
270.0
  0
ARC
  5
D3
330
1F
100
AcDbEntity
  8
0
  6
Continuous
 62
     7
370
    25
100
AcDbCircle
 10
287.7222818139
 20
418.3491761693
 30
0.0
 40
26.60000000000012
100
AcDbArc
 50
132.4746682198
 51
153.3578326073
  0
ARC
  5
D4
330
1F
100
AcDbEntity
  8
0
  6
Continuous
 62
     7
370
    25
100
AcDbCircle
 10
287.7222818139
 20
418.3491761693
 30
0.0
 40
26.59999999999997
100
AcDbArc
 50
26.6421673927
 51
33.3881888125
  0
ARC
  5
D5
330
1F
100
AcDbEntity
  8
0
  6
Continuous
 62
     7
370
    25
100
AcDbCircle
 10
264.2222818139
 20
440.0233836042
 30
0.0
 40
0.4999999999999716
100
AcDbArc
 50
180.2767970601
 51
254.5
  0
ARC
  5
D6
330
1F
100
AcDbEntity
  8
0
  6
Continuous
 62
     7
370
    25
100
AcDbCircle
 10
311.2222818139
 20
433.4873857118
 30
0.0
 40
0.5
100
AcDbArc
 50
270.0
 51
0.0
  0
SPLINE
  5
D7
330
1F
100
AcDbEntity
  8
0
  6
Continuous
 62
     7
370
    25
100
AcDbSpline
210
0.0
220
0.0
230
1.0
 70
     8
 71
     3
 72
    24
 73
    20
 74
     0
 42
0.000000001
 43
0.00000001
 40
0.0
 40
0.0
 40
0.0
 40
0.0
 40
0.0721901646619833
 40
0.1317685823362874
 40
0.1803530417505858
 40
0.2200406501797935
 40
0.2595318033367709
 40
0.3006422092528159
 40
0.4021718008228997
 40
0.5044657697409738
 40
0.5805244123278934
 40
0.6561909917939357
 40
0.7258476863124713
 40
0.7582654588742198
 40
0.7893279997390449
 40
0.8236606894903546
 40
0.8689377294431777
 40
0.9268536314170451
 40
1.0
 40
1.0
 40
1.0
 40
1.0
 10
357.9757318702274
 20
383.4293146949914
 30
0.0
 10
359.072933648576
 20
383.4311696626773
 30
0.0
 10
361.0756541513871
 20
383.4345555319771
 30
0.0
 10
363.8167357791521
 20
383.4109776991978
 30
0.0
 10
366.0635500767877
 20
383.370981533147
 30
0.0
 10
368.0046593662389
 20
383.3168035558925
 30
0.0
 10
369.8315790681418
 20
383.2459561153091
 30
0.0
 10
372.596007238202
 20
383.1014756735395
 30
0.0
 10
376.3080417731309
 20
382.8013685262886
 30
0.0
 10
380.5220247305591
 20
382.1845064551754
 30
0.0
 10
384.2838084016828
 20
381.2960399830854
 30
0.0
 10
387.476838327593
 20
380.2165270162529
 30
0.0
 10
389.9379012726406
 20
379.0908995504359
 30
0.0
 10
391.713432170866
 20
378.1191852828669
 30
0.0
 10
392.9864229791428
 20
377.350546323529
 30
0.0
 10
394.3899865310257
 20
376.4226130888778
 30
0.0
 10
396.0792246221078
 20
375.1903696236054
 30
0.0
 10
398.1675020075149
 20
373.5078956905208
 30
0.0
 10
399.6398790070918
 20
372.1656019050178
 30
0.0
 10
400.4616184004852
 20
371.4164624649343
 30
0.0
  0
SPLINE
  5
D8
330
1F
100
AcDbEntity
  8
0
  6
Continuous
 62
     7
370
    25
100
AcDbSpline
210
0.0
220
0.0
230
1.0
 70
     8
 71
     3
 72
    31
 73
    27
 74
     0
 42
0.000000001
 43
0.00000001
 40
0.0
 40
0.0
 40
0.0
 40
0.0
 40
0.04716465380238
 40
0.0858009206386627
 40
0.1168351969625225
 40
0.143475276182385
 40
0.1619518326568363
 40
0.1751154149679348
 40
0.1896488069514779
 40
0.2058676131191711
 40
0.2237348336206849
 40
0.2432242315215295
 40
0.2643256744253111
 40
0.3430594986734173
 40
0.4209089975787004
 40
0.5004737823050371
 40
0.5902396442522186
 40
0.6784432404167705
 40
0.7629767467910634
 40
0.7895225152888554
 40
0.8148340574056782
 40
0.8387768781100422
 40
0.8650684412348716
 40
0.9000450701257334
 40
0.9446432681215857
 40
1.0
 40
1.0
 40
1.0
 40
1.0
 10
419.0423341788296
 20
391.3418406754928
 30
0.0
 10
418.2771984588799
 20
392.0478534954323
 30
0.0
 10
416.8852800646457
 20
393.3322167855206
 30
0.0
 10
414.9431347776928
 20
395.0293450839152
 30
0.0
 10
413.3134600786851
 20
396.3946073216206
 30
0.0
 10
412.0019810442149
 20
397.4461676561306
 30
0.0
 10
410.9834978504346
 20
398.2320902661625
 30
0.0
 10
410.1678581513283
 20
398.8432424945826
 30
0.0
 10
409.3845793134932
 20
399.4143504261273
 30
0.0
 10
408.5078351303389
 20
400.0333128123538
 30
0.0
 10
407.5296652559252
 20
400.6979867030414
 30
0.0
 10
406.4474941450146
 20
401.4009804192359
 30
0.0
 10
404.2053959636715
 20
402.7831956885724
 30
0.0
 10
400.7392716745563
 20
404.6350713357862
 30
0.0
 10
395.8996715615733
 20
406.5956021194907
 30
0.0
 10
390.6565752528521
 20
408.1329782867292
 30
0.0
 10
385.0752856186908
 20
409.2446367617958
 30
0.0
 10
379.325550378358
 20
409.9846470860943
 30
0.0
 10
374.9399601239979
 20
410.3392773729537
 30
0.0
 10
371.9346483353475
 20
410.5165666932855
 30
0.0
 10
370.2635671258155
 20
410.5996995314285
 30
0.0
 10
368.597500777936
 20
410.6693883796862
 30
0.0
 10
366.717756082379
 20
410.734276889443
 30
0.0
 10
364.3817744728266
 20
410.7958015935019
 30
0.0
 10
361.4038638411176
 20
410.8487612305884
 30
0.0
 10
359.1975987939011
 20
410.8618106527238
 30
0.0
 10
357.9757318702274
 20
410.8690376435608
 30
0.0
  0
SPLINE
  5
D9
330
1F
100
AcDbEntity
  8
0
  6
Continuous
 62
     7
370
    25
100
AcDbSpline
210
0.0
220
0.0
230
1.0
 70
     8
 71
     3
 72
    13
 73
     9
 74
     0
 42
0.000000001
 43
0.00000001
 40
0.0
 40
0.0
 40
0.0
 40
0.0
 40
0.2394809216143732
 40
0.3683761135103907
 40
0.4999999767203056
 40
0.6316238437519359
 40
0.7605190462258734
 40
1.0
 40
1.0
 40
1.0
 40
1.0
 10
311.7222816013991
 20
445.0565568580568
 30
0.0
 10
311.7553010829677
 20
445.3678422287447
 30
0.0
 10
311.8060925539891
 20
445.8466699126941
 30
0.0
 10
312.1143273161956
 20
446.4228697025384
 30
0.0
 10
312.4333337069157
 20
446.8194614215095
 30
0.0
 10
312.8293680519006
 20
447.1391595319271
 30
0.0
 10
313.4050290307562
 20
447.4483995408253
 30
0.0
 10
313.8837673892587
 20
447.5000267182533
 30
0.0
 10
314.1949946952553
 20
447.5335894922857
 30
0.0
  0
SPLINE
  5
DA
330
1F
100
AcDbEntity
  8
0
  6
Continuous
 62
     7
370
    25
100
AcDbSpline
210
0.0
220
0.0
230
1.0
 70
     8
 71
     3
 72
    13
 73
     9
 74
     0
 42
0.000000001
 43
0.00000001
 40
0.0
 40
0.0
 40
0.0
 40
0.0
 40
0.2602922047427424
 40
0.4003885893545569
 40
0.5434507620918207
 40
0.6865129299487127
 40
0.826609301052998
 40
1.0
 40
1.0
 40
1.0
 40
1.0
 10
314.1949946694481
 20
456.4411816755189
 30
0.0
 10
313.8837433504492
 20
456.474737034973
 30
0.0
 10
313.4049680576128
 20
456.5263528067569
 30
0.0
 10
312.8294882774684
 20
456.8356486045307
 30
0.0
 10
312.4328626189077
 20
457.1551645316661
 30
0.0
 10
312.1160716608182
 20
457.5524387146247
 30
0.0
 10
311.8483832219091
 20
458.0338070118484
 30
0.0
 10
311.8045008088666
 20
458.4074409458134
 30
0.0
 10
311.7802293061609
 20
458.6140990671512
 30
0.0
  0
LINE
  5
DB
330
1F
100
AcDbEntity
  8
0
  6
Continuous
 62
     7
370
    25
100
AcDbLine
 10
314.1946893828
 20
447.533588826
 30
0.0
 11
386.2248998065
 21
447.659305387
 31
0.0
  0
LINE
  5
DC
330
1F
100
AcDbEntity
  8
0
  6
Continuous
 62
     7
370
    25
100
AcDbLine
 10
386.2248998065
 20
456.3154660367
 30
0.0
 11
314.1947366645
 21
456.4411825151
 31
0.0
  0
ARC
  5
DD
330
1F
100
AcDbEntity
  8
0
  6
Continuous
 62
     7
370
    25
100
AcDbCircle
 10
386.2222818139
 20
454.8154683213
 30
0.0
 40
1.5
100
AcDbArc
 50
0.0
 51
89.9
  0
ARC
  5
DE
330
1F
100
AcDbEntity
  8
0
  6
Continuous
 62
     7
370
    25
100
AcDbCircle
 10
386.2222818139
 20
449.1593031023
 30
0.0
 40
1.500000000000012
100
AcDbArc
 50
270.1
 51
0.0
  0
LINE
  5
DF
330
1F
100
AcDbEntity
  8
0
  6
Continuous
 62
     7
370
    25
100
AcDbLine
 10
311.7141196016
 20
435.9873857118
 30
0.0
 11
312.0722818139
 21
435.9873857118
 31
0.0
  0
LINE
  5
E0
330
1F
100
AcDbEntity
  8
0
  6
Continuous
 62
     7
370
    25
100
AcDbLine
 10
312.0722818139
 20
443.9873857118
 30
0.0
 11
311.7211439218
 21
443.9873857118
 31
0.0
  0
LINE
  5
E1
330
1F
100
AcDbEntity
  8
0
  6
Continuous
 62
     7
370
    25
100
AcDbLine
 10
312.0722818139
 20
435.9873857118
 30
0.0
 11
312.6728291839
 21
436.2059670787
 31
0.0
  0
LINE
  5
E2
330
1F
100
AcDbEntity
  8
0
  6
Continuous
 62
     7
370
    25
100
AcDbLine
 10
312.6728291839
 20
443.7688043449
 30
0.0
 11
312.0722818139
 21
443.9873857118
 31
0.0
  0
ARC
  5
E3
330
1F
100
AcDbEntity
  8
0
  6
Continuous
 62
     7
370
    25
100
AcDbCircle
 10
312.6044251552
 20
443.5808658207
 30
0.0
 40
0.1999999999999318
100
AcDbArc
 50
0.0
 51
70.0
  0
ARC
  5
E4
330
1F
100
AcDbEntity
  8
0
  6
Continuous
 62
     7
370
    25
100
AcDbCircle
 10
312.6044251552
 20
436.3939056029
 30
0.0
 40
0.1999999999999824
100
AcDbArc
 50
290.0
 51
0.0
  0
LINE
  5
E5
330
1F
100
AcDbEntity
  8
0
  6
Continuous
 62
     7
370
    25
100
AcDbLine
 10
312.8044251552
 20
436.3939056029
 30
0.0
 11
312.8044251552
 21
443.5808658207
 31
0.0
  0
ARC
  5
E6
330
1F
100
AcDbEntity
  8
0
  6
Continuous
 62
     7
370
    25
100
AcDbCircle
 10
310.2452058992
 20
458.4874144141
 30
0.0
 40
1.499970865499342
100
AcDbArc
 50
4.3231668102
 51
91.1834004451
  0
SPLINE
  5
E7
330
1F
100
AcDbEntity
  8
0
  6
Continuous
 62
     7
370
    25
100
AcDbSpline
210
0.0
220
0.0
230
1.0
 70
     8
 71
     3
 72
    16
 73
    12
 74
     0
 42
0.000000001
 43
0.00000001
 40
0.0
 40
0.0
 40
0.0
 40
0.0
 40
0.2500000000000006
 40
0.2500000000000006
 40
0.5000000000000011
 40
0.5000000000000011
 40
0.6250000000000008
 40
0.6250000000000008
 40
0.7500000000000006
 40
0.7500000000000006
 40
1.0
 40
1.0
 40
1.0
 40
1.0
 10
293.1932617026465
 20
432.9873857118207
 30
0.0
 10
292.3006136495495
 20
432.9873857118207
 30
0.0
 10
291.398573040948
 20
432.9894321681624
 30
0.0
 10
289.5779427694493
 20
433.0658761383837
 30
0.0
 10
288.6656775624001
 20
433.1394098108146
 30
0.0
 10
287.3034749552697
 20
433.3249165244996
 30
0.0
 10
286.8498535746106
 20
433.3991305090001
 30
0.0
 10
285.952676049096
 20
433.5681062656661
 30
0.0
 10
285.5079267683863
 20
433.6629310677612
 30
0.0
 10
284.1834246662501
 20
433.9710957715276
 30
0.0
 10
283.313776325508
 20
434.2099724863871
 30
0.0
 10
282.4502789843005
 20
434.4494414928341
 30
0.0
  0
LINE
  5
E8
330
1F
100
AcDbEntity
  8
0
  6
Continuous
 62
     7
370
    25
100
AcDbLine
 10
265.2222818139
 20
459.9873857118
 30
0.0
 11
310.1196191463
 21
459.9873857118
 31
0.0
  0
SPLINE
  5
E9
330
1F
100
AcDbEntity
  8
0
  6
Continuous
 62
     7
370
    25
100
AcDbSpline
210
0.0
220
0.0
230
1.0
 70
     8
 71
     3
 72
    12
 73
     8
 74
     0
 42
0.000000001
 43
0.00000001
 40
0.0
 40
0.0
 40
0.0
 40
0.0
 40
0.2128025405316788
 40
0.4255329846947413
 40
0.640129715950157
 40
0.8559825383508509
 40
0.9999999999999999
 40
0.9999999999999999
 40
0.9999999999999999
 40
0.9999999999999999
 10
311.3866009463435
 20
439.9873857118207
 30
0.0
 10
311.3941443240397
 20
439.5413256564307
 30
0.0
 10
311.4092285237759
 20
438.6493566684244
 30
0.0
 10
311.5149209709093
 20
437.4556321162601
 30
0.0
 10
311.6300308777194
 20
436.5561937320578
 30
0.0
 10
311.7136784467419
 20
436.0384238478663
 30
0.0
 10
311.7139739708568
 20
436.0373984412175
 30
0.0
 10
311.714092237451
 20
436.0369880809592
 30
0.0
  0
SPLINE
  5
EA
330
1F
100
AcDbEntity
  8
0
  6
Continuous
 62
     7
370
    25
100
AcDbSpline
210
0.0
220
0.0
230
1.0
 70
     8
 71
     3
 72
    12
 73
     8
 74
     0
 42
0.000000001
 43
0.00000001
 40
0.0
 40
0.0
 40
0.0
 40
0.0
 40
0.2049887431005318
 40
0.4168858987614342
 40
0.6312332827437961
 40
0.8469892410607789
 40
1.0
 40
1.0
 40
1.0
 40
1.0
 10
311.7211166206808
 20
443.9802204174961
 30
0.0
 10
311.7146801732211
 20
443.9426071279526
 30
0.0
 10
311.7015903608561
 20
443.8661129274442
 30
0.0
 10
311.599923178411
 20
443.2089233784133
 30
0.0
 10
311.483290865896
 20
442.2185962711517
 30
0.0
 10
311.3998490549828
 20
441.0791037943196
 30
0.0
 10
311.3904859418634
 20
440.3075310227468
 30
0.0
 10
311.3866009463435
 20
439.9873857118207
 30
0.0
  0
LINE
  5
EB
330
1F
100
AcDbEntity
  8
0
  6
Continuous
 62
     7
370
    25
100
AcDbLine
 10
311.4222818139
 20
299.9191978593
 30
0.0
 11
264.0222818574
 21
299.9191978593
 31
0.0
  0
LINE
  5
EC
330
1F
100
AcDbEntity
  8
0
  6
Continuous
 62
     7
370
    25
100
AcDbLine
 10
311.319247611
 20
429.9873857118
 30
0.0
 11
264.1253160169
 21
429.9873857118
 31
0.0
  0
LINE
  5
ED
330
1F
100
AcDbEntity
  8
0
  6
Continuous
 62
     7
370
    25
100
AcDbLine
 10
282.4502789843
 20
434.4494414928
 30
0.0
 11
264.0886626605
 21
439.541568368
 31
0.0
  0
LINE
  5
EE
330
1F
100
AcDbEntity
  8
0
  6
Continuous
 62
     7
370
    25
100
AcDbLine
 10
311.2222818139
 20
432.9873857118
 30
0.0
 11
293.1932617026
 21
432.9873857118
 31
0.0
  0
ARC
  5
EF
330
1F
100
AcDbEntity
  8
0
  6
Continuous
 62
     7
370
    25
100
AcDbCircle
 10
316.6806908863
 20
415.9716243959
 30
0.0
 40
4.958409072396648
100
AcDbArc
 50
180.0
 51
269.8
  0
ARC
  5
F0
330
1F
100
AcDbEntity
  8
0
  6
Continuous
 62
     7
370
    25
100
AcDbCircle
 10
316.6806908863
 20
378.3267279426
 30
0.0
 40
4.958409072396648
100
AcDbArc
 50
90.2
 51
180.0
  0
LINE
  5
F1
330
1F
100
AcDbEntity
  8
0
  6
Continuous
 62
     7
370
    25
100
AcDbLine
 10
357.9757318702
 20
383.429314695
 30
0.0
 11
316.6633828087
 21
383.2851068067
 31
0.0
  0
LINE
  5
F2
330
1F
100
AcDbEntity
  8
0
  6
Continuous
 62
     7
370
    25
100
AcDbLine
 10
316.6633828087
 20
411.0132455318
 30
0.0
 11
357.9757318702
 21
410.8690376436
 31
0.0
  0
LINE
  5
F3
330
1F
100
AcDbEntity
  8
0
  6
Continuous
 62
     7
370
    25
100
AcDbLine
 10
419.0423341788
 20
391.3418406755
 30
0.0
 11
425.6364480658
 21
385.1927299961
 31
0.0
  0
LINE
  5
F4
330
1F
100
AcDbEntity
  8
0
  6
Continuous
 62
     7
370
    25
100
AcDbLine
 10
403.9292226783
 20
368.1828691631
 30
0.0
 11
400.4616184005
 21
371.4164624649
 31
0.0
  0
ARC
  5
F5
330
1F
100
AcDbEntity
  8
0
  6
Continuous
 62
     7
370
    25
100
AcDbCircle
 10
424.6134505258
 20
384.0956994437
 30
0.0
 40
1.500000000000081
100
AcDbArc
 50
307.0
 51
47.0
  0
LINE
  5
F6
330
1F
100
AcDbEntity
  8
0
  6
Continuous
 62
     7
370
    25
100
AcDbLine
 10
425.5161730605
 20
382.8977461786
 30
0.0
 11
405.8549427531
 21
368.0819464505
 31
0.0
  0
ARC
  5
F7
330
1F
100
AcDbEntity
  8
0
  6
Continuous
 62
     7
370
    25
100
AcDbCircle
 10
404.9522202184
 20
369.2798997156
 30
0.0
 40
1.500000000000225
100
AcDbArc
 50
227.0
 51
307.0
  0
LINE
  5
F8
330
1F
100
AcDbEntity
  8
0
  6
Continuous
 62
     7
370
    25
100
AcDbLine
 10
387.7222818139
 20
454.8154683213
 30
0.0
 11
387.7222818139
 21
449.1593031023
 31
0.0
  0
LINE
  5
F9
330
1F
100
AcDbEntity
  8
0
  6
Continuous
 62
     7
370
    25
100
AcDbLine
 10
312.0722818139
 20
439.9873857118
 30
0.0
 11
312.0722818139
 21
443.9873857118
 31
0.0
  0
LINE
  5
FA
330
1F
100
AcDbEntity
  8
0
  6
Continuous
 62
     7
370
    25
100
AcDbLine
 10
312.0722818139
 20
435.9873857118
 30
0.0
 11
312.0722818139
 21
439.9873857118
 31
0.0
  0
LINE
  5
FB
330
1F
100
AcDbEntity
  8
0
  6
Continuous
 62
     7
370
    25
100
AcDbLine
 10
310.1195464104
 20
459.9873857118
 30
0.0
 11
310.1195442639
 21
459.9873857118
 31
0.0
  0
SPLINE
  5
FC
330
1F
100
AcDbEntity
  8
0
  6
Continuous
 62
     8
370
    18
100
AcDbSpline
210
0.0
220
0.0
230
1.0
 70
     8
 71
     3
 72
    14
 73
    10
 74
     0
 42
0.000000001
 43
0.00000001
 40
0.0
 40
0.0
 40
0.0
 40
0.0
 40
0.25
 40
0.25
 40
0.5
 40
0.5
 40
0.75
 40
0.75
 40
1.0
 40
1.0
 40
1.0
 40
1.0
 10
310.1195520796206
 20
459.9873857113758
 30
0.0
 10
310.3149858365219
 20
459.9873809302073
 30
0.0
 10
310.5103417965588
 20
459.9483465669243
 30
0.0
 10
310.8714611227261
 20
459.7981005266685
 30
0.0
 10
311.0370824854863
 20
459.68694793112
 30
0.0
 10
311.313492135604
 20
459.4093324970434
 30
0.0
 10
311.4241717300751
 20
459.2429788255536
 30
0.0
 10
311.5738028236325
 20
458.8802463955702
 30
0.0
 10
311.6126954831108
 20
458.6840102747696
 30
0.0
 10
311.6127350062608
 20
458.4876890612824
 30
0.0
  0
SPLINE
  5
FD
330
1F
100
AcDbEntity
  8
0
  6
Continuous
 62
     8
370
    18
100
AcDbSpline
210
0.0
220
0.0
230
1.0
 70
     8
 71
     3
 72
    23
 73
    19
 74
     0
 42
0.000000001
 43
0.00000001
 40
0.0
 40
0.0
 40
0.0
 40
0.0
 40
0.0008788220488084
 40
0.0701454537352496
 40
0.1398636787679848
 40
0.2090417653661427
 40
0.2789314670846209
 40
0.3485737599722589
 40
0.4196435980128082
 40
0.4915250052519172
 40
0.5624263927312594
 40
0.6340044985789957
 40
0.7055600834295339
 40
0.7761527302160612
 40
0.8464368093200155
 40
0.9163274123799519
 40
0.9855525503694105
 40
1.0
 40
1.0
 40
1.0
 40
1.0
 10
311.7218370441116
 20
445.0582537960667
 30
0.0
 10
311.7219851236309
 20
445.0576889148534
 30
0.0
 10
311.7338044732787
 20
445.0126014604986
 30
0.0
 10
311.6914899862401
 20
445.1705636876543
 30
0.0
 10
311.5941075535242
 20
445.5585992027417
 30
0.0
 10
311.4381922220362
 20
446.2193040358287
 30
0.0
 10
311.2602941445777
 20
447.08817642784
 30
0.0
 10
311.082102492277
 20
448.1425105133278
 30
0.0
 10
310.9330155919611
 20
449.3476555128191
 30
0.0
 10
310.8298026120219
 20
450.6489100268789
 30
0.0
 10
310.7946906734207
 20
452.0047770473957
 30
0.0
 10
310.8304786947175
 20
453.3582238032692
 30
0.0
 10
310.9337045912935
 20
454.6588843810393
 30
0.0
 10
311.0850399053185
 20
455.8584026426277
 30
0.0
 10
311.2644083796918
 20
456.907158720127
 30
0.0
 10
311.4425786907892
 20
457.7753159005529
 30
0.0
 10
311.5561386025306
 20
458.255674386586
 30
0.0
 10
311.6044988412663
 20
458.45352535329
 30
0.0
 10
311.6128490325672
 20
458.4876875796191
 30
0.0
  0
LINE
  5
FE
330
1F
100
AcDbEntity
  8
0
  6
Continuous
 62
     8
370
    18
100
AcDbLine
 10
263.7222818139
 20
300.2191978593
 30
0.0
 11
311.7222818139
 21
300.2191978593
 31
0.0
  0
SPLINE
  5
FF
330
1F
100
AcDbEntity
  8
0
  6
Continuous
 62
     8
370
    18
100
AcDbSpline
210
0.0
220
0.0
230
1.0
 70
     8
 71
     3
 72
    51
 73
    47
 74
     0
 42
0.000000001
 43
0.00000001
 40
0.0
 40
0.0
 40
0.0
 40
0.0
 40
0.0064482036383753
 40
0.0128866955155746
 40
0.0193190545306884
 40
0.0257488698236653
 40
0.0321797347935101
 40
0.0386152410809155
 40
0.0450589725655866
 40
0.0515144994282425
 40
0.0579853723260206
 40
0.0644751167278359
 40
0.070987227453226
 40
0.0775251634544343
 40
0.0840923428771047
 40
0.0906921384300634
 40
0.0973278730894656
 40
0.1040028161571731
 40
0.1107201796877892
 40
0.1396060680714518
 40
0.1686975615523642
 40
0.1982250812449015
 40
0.2284090693183358
 40
0.2929123017471919
 40
0.3563652174792993
 40
0.4050673645952662
 40
0.4525692527488639
 40
0.500061899094609
 40
0.5476550113178019
 40
0.5952696513972314
 40
0.6441052932358756
 40
0.7075051657648748
 40
0.7719603215452603
 40
0.8019917678439671
 40
0.831376994877322
 40
0.8603333560519746
 40
0.8890879264642225
 40
0.9017624983118835
 40
0.9142954867813735
 40
0.92670916373511
 40
0.939026448261838
 40
0.9512708007462652
 40
0.9634661024829152
 40
0.9756365235172093
 40
0.9878063821383903
 40
1.0
 40
1.0
 40
1.0
 40
1.0
 10
311.722281813945
 20
378.3267279426381
 30
0.0
 10
311.7217223656076
 20
378.3275762702558
 30
0.0
 10
311.7206043115283
 20
378.329271647809
 30
0.0
 10
311.7115768212751
 20
378.3429399122429
 30
0.0
 10
311.6972127157216
 20
378.3647576832261
 30
0.0
 10
311.677023282417
 20
378.3955200930684
 30
0.0
 10
311.6511903416421
 20
378.4350143117708
 30
0.0
 10
311.6197178072776
 20
378.4832972860042
 30
0.0
 10
311.5826588047873
 20
378.5403536456001
 30
0.0
 10
311.5400547741853
 20
378.6061873717178
 30
0.0
 10
311.4919517631296
 20
378.6807972158005
 30
0.0
 10
311.4383960118574
 20
378.7641832975522
 30
0.0
 10
311.379435108668
 20
378.8563453448531
 30
0.0
 10
311.3151176049281
 20
378.9572831362792
 30
0.0
 10
311.2454932080182
 20
379.0669965146076
 30
0.0
 10
311.1706122032944
 20
379.1854849037316
 30
0.0
 10
311.0905273978543
 20
379.3127492614447
 30
0.0
 10
311.0052866776932
 20
379.4487847139631
 30
0.0
 10
310.8158167822253
 20
379.7525707206132
 30
0.0
 10
310.4881291459695
 20
380.2826085164616
 30
0.0
 10
309.9793549563422
 20
381.1342611968454
 30
0.0
 10
309.4139532836964
 20
382.1260154825205
 30
0.0
 10
308.5793012847499
 20
383.6735828261642
 30
0.0
 10
307.4691272775576
 20
385.930579123319
 30
0.0
 10
306.3564129416665
 20
388.837310251571
 30
0.0
 10
305.5723228350096
 20
391.6908222407847
 30
0.0
 10
305.1209962962711
 20
394.3982008799395
 30
0.0
 10
304.9715435302992
 20
397.1544667902833
 30
0.0
 10
305.1220466643185
 20
399.9128852001767
 30
0.0
 10
305.5762227204107
 20
402.6262013579004
 30
0.0
 10
306.3633019194889
 20
405.4817170416672
 30
0.0
 10
307.4775740260603
 20
408.3866411865725
 30
0.0
 10
308.586077516507
 20
410.6378137288318
 30
0.0
 10
309.4180836510425
 20
412.179653157217
 30
0.0
 10
309.9805465093025
 20
413.1659828149291
 30
0.0
 10
310.4869339728551
 20
414.0136365693012
 30
0.0
 10
310.8436644353362
 20
414.5908636896937
 30
0.0
 10
311.0806499919692
 20
414.970175487765
 30
0.0
 10
311.2293473782703
 20
415.2061097630396
 30
0.0
 10
311.3592484652837
 20
415.4106050799714
 30
0.0
 10
311.4700289450083
 20
415.58365299585
 30
0.0
 10
311.5613149715763
 20
415.725197434943
 30
0.0
 10
311.6329243336984
 20
415.8354382510913
 30
0.0
 10
311.6840455372003
 20
415.9136096999962
 30
0.0
 10
311.7162800327846
 20
415.9625551566205
 30
0.0
 10
311.7202799199961
 20
415.9685993513853
 30
0.0
 10
311.722281813945
 20
415.9716243959143
 30
0.0
  0
SPLINE
  5
100
330
1F
100
AcDbEntity
  8
0
  6
Continuous
 62
     8
370
    18
100
AcDbSpline
210
0.0
220
0.0
230
1.0
 70
     8
 71
     3
 72
    56
 73
    52
 74
     0
 42
0.000000001
 43
0.00000001
 40
0.0
 40
0.0
 40
0.0
 40
0.0
 40
0.0075185816351879
 40
0.0150766593266971
 40
0.022676243276783
 40
0.0303193112536426
 40
0.0380078077851983
 40
0.0457436434597947
 40
0.0535286943313192
 40
0.0613648014257188
 40
0.069253770345428
 40
0.0771973709678036
 40
0.0851973372333591
 40
0.093255367019303
 40
0.1013731220936975
 40
0.1095522281454052
 40
0.1177942748849103
 40
0.1261008162110527
 40
0.1526028766636459
 40
0.1828084344155378
 40
0.2167481389412309
 40
0.2544437825520295
 40
0.2887689702845118
 40
0.3101007041538201
 40
0.3184287784357799
 40
0.33589164216307
 40
0.3521278594400046
 40
0.3671407597055694
 40
0.3809346503139422
 40
0.4432257889556562
 40
0.4999640196397276
 40
0.5565570372284503
 40
0.6186658908294288
 40
0.6475479027400538
 40
0.6813029269508704
 40
0.6992076463737996
 40
0.7451585017223431
 40
0.7708549601595146
 40
0.7948624134375154
 40
0.8171865522108819
 40
0.8378343460240848
 40
0.8568144995965689
 40
0.8741381217943167
 40
0.8906506368398753
 40
0.9069133057258686
 40
0.9229389433476581
 40
0.9387409360217288
 40
0.954333240849473
 40
0.96973037996652
 40
0.9849474291093605
 40
1.0
 40
1.0
 40
1.0
 40
1.0
 10
316.6633828086958
 20
411.0132455318425
 30
0.0
 10
316.6628375219659
 20
411.0124508312076
 30
0.0
 10
316.6617440840462
 20
411.0108572552754
 30
0.0
 10
316.6530210433659
 20
410.9979217346001
 30
0.0
 10
316.6391223223579
 20
410.9771311848162
 30
0.0
 10
316.6195317669881
 20
410.9476138851571
 30
0.0
 10
316.5943889265594
 20
410.9094680688075
 30
0.0
 10
316.5636561753377
 20
410.862536414059
 30
0.0
 10
316.5273437762929
 20
410.8067375285952
 30
0.0
 10
316.4854490495312
 20
410.7419766635086
 30
0.0
 10
316.4379727924825
 20
410.6681701798064
 30
0.0
 10
316.3849149452701
 20
410.5852392477869
 30
0.0
 10
316.3262753586955
 20
410.4931118960517
 30
0.0
 10
316.2620551116374
 20
410.3917227018518
 30
0.0
 10
316.1922503980967
 20
410.281013495171
 30
0.0
 10
316.1168759045132
 20
410.160932370121
 30
0.0
 10
316.0358764838896
 20
410.0314385037393
 30
0.0
 10
315.8865952884055
 20
409.7914001577097
 30
0.0
 10
315.6313539440206
 20
409.3838356212881
 30
0.0
 10
315.2292673447151
 20
408.7199186328136
 30
0.0
 10
314.738652309269
 20
407.8603435741478
 30
0.0
 10
314.1919466152859
 20
406.8465536065049
 30
0.0
 10
313.6987347674395
 20
405.8563659861686
 30
0.0
 10
313.3636896421973
 20
405.1299374448945
 30
0.0
 10
313.1159162760698
 20
404.5784609562505
 30
0.0
 10
312.9061408988682
 20
404.070364848473
 30
0.0
 10
312.6698625678096
 20
403.461650148408
 30
0.0
 10
312.4622233445845
 20
402.8814099526596
 30
0.0
 10
312.0662562755118
 20
401.6775670692387
 30
0.0
 10
311.6137093053043
 20
399.7947751464434
 30
0.0
 10
311.3832428042427
 20
397.1534585032751
 30
0.0
 10
311.6121070161656
 20
394.5144689932058
 30
0.0
 10
312.1135325200864
 20
392.4223472095382
 30
0.0
 10
312.6778001168631
 20
390.7947277706068
 30
0.0
 10
313.0749784502725
 20
389.8029030704317
 30
0.0
 10
313.5894900141745
 20
388.6714033722444
 30
0.0
 10
314.0615006608546
 20
387.7036194806371
 30
0.0
 10
314.5586760866939
 20
386.7717523855438
 30
0.0
 10
314.9168228758273
 20
386.123820458118
 30
0.0
 10
315.2352891212492
 20
385.5722742025339
 30
0.0
 10
315.5133518441674
 20
385.1082592796059
 30
0.0
 10
315.7514003111753
 20
384.7228860777143
 30
0.0
 10
315.9519495478698
 20
384.4019464233608
 30
0.0
 10
316.120532761201
 20
384.1312421090812
 30
0.0
 10
316.2654789358082
 20
383.9010791373532
 30
0.0
 10
316.3880546690336
 20
383.7080405396086
 30
0.0
 10
316.4883699018288
 20
383.5517206205874
 30
0.0
 10
316.566537931019
 20
383.4312934923908
 30
0.0
 10
316.6219958654083
 20
383.3469111264012
 30
0.0
 10
316.6568325958389
 20
383.2947079486713
 30
0.0
 10
316.661207328178
 20
383.2882955728983
 30
0.0
 10
316.6633828086958
 20
383.2851068067098
 30
0.0
  0
LWPOLYLINE
  5
101
330
1F
100
AcDbEntity
  8
0
  6
Continuous
 62
     8
370
    18
100
AcDbPolyline
 90
        5
 70
   128
 43
0.0
 10
311.6966456907
 20
458.5981721855
 10
311.7228928663
 20
458.6327673493
 10
311.6128662055
 20
458.4877015563
 10
311.6128605619
 20
458.4876936178
 10
311.6128605619
 20
458.4876936178
  0
SPLINE
  5
102
330
1F
100
AcDbEntity
  8
0
  6
Continuous
 62
     8
370
    18
100
AcDbSpline
210
0.0
220
0.0
230
1.0
 70
     8
 71
     3
 72
    25
 73
    21
 74
     0
 42
0.000000001
 43
0.00000001
 40
0.0
 40
0.0
 40
0.0
 40
0.0
 40
0.0633616032599674
 40
0.096917120724694
 40
0.1314817921440322
 40
0.1842420356994792
 40
0.2593765503516406
 40
0.3314204474377164
 40
0.3954644924594363
 40
0.4993573599881263
 40
0.6033319905181322
 40
0.6671943451018757
 40
0.7021204784265713
 40
0.7390220937348208
 40
0.7919000785640307
 40
0.8345339188919669
 40
0.8669186995523488
 40
0.9350297674831531
 40
0.999147398621191
 40
0.9999999999999999
 40
0.9999999999999999
 40
0.9999999999999999
 40
0.9999999999999999
 10
314.1947320595951
 20
456.4401870005565
 30
0.0
 10
314.1902891880529
 20
456.4241350709317
 30
0.0
 10
314.1834934269692
 20
456.3995822389124
 30
0.0
 10
314.1431496772112
 20
456.2411251000518
 30
0.0
 10
314.095040290455
 20
456.043796196689
 30
0.0
 10
314.0073532999988
 20
455.6823518203299
 30
0.0
 10
313.8835011374596
 20
455.0825463305367
 30
0.0
 10
313.7579762508616
 20
454.2922334093004
 30
0.0
 10
313.6463090165389
 20
453.2721902212687
 30
0.0
 10
313.5680207998129
 20
451.9950330176691
 30
0.0
 10
313.6446404035409
 20
450.7180302449684
 30
0.0
 10
313.7391750871855
 20
449.8544482706537
 30
0.0
 10
313.8134909224607
 20
449.32715768266
 30
0.0
 10
313.8891635702978
 20
448.8819984656001
 30
0.0
 10
313.971094647227
 20
448.4676812628589
 30
0.0
 10
314.0443144145927
 20
448.1386571550613
 30
0.0
 10
314.1185587923266
 20
447.834933846198
 30
0.0
 10
314.1727723043692
 20
447.6137543893551
 30
0.0
 10
314.2027693096762
 20
447.5041686316269
 30
0.0
 10
314.1947851631135
 20
447.5343834350955
 30
0.0
 10
314.1946803875246
 20
447.5347799425744
 30
0.0
  0
SPLINE
  5
103
330
1F
100
AcDbEntity
  8
0
  6
Continuous
 62
     7
370
    25
100
AcDbSpline
210
0.0
220
0.0
230
1.0
 70
     8
 71
     3
 72
    15
 73
    11
 74
     0
 42
0.000000001
 43
0.00000001
 40
0.0
 40
0.0
 40
0.0
 40
0.0
 40
0.085496879077584
 40
0.1737351285597391
 40
0.2676062367121235
 40
0.3717336966029828
 40
0.4920532588132659
 40
0.6344148041632655
 40
0.8030231240585209
 40
1.0
 40
1.0
 40
1.0
 40
1.0
 10
161.2599579227029
 20
197.9907839033981
 30
0.0
 10
161.2706074928101
 20
198.174742458604
 30
0.0
 10
161.2922481006501
 20
198.548558012846
 30
0.0
 10
161.4544106170158
 20
199.0807779576432
 30
0.0
 10
161.6798407363952
 20
199.5559139361338
 30
0.0
 10
161.9232696869489
 20
199.9432163322996
 30
0.0
 10
162.1083481336464
 20
200.2217953019854
 30
0.0
 10
162.1522073605816
 20
200.3803965937172
 30
0.0
 10
161.9884657935857
 20
200.4202370174433
 30
0.0
 10
161.6506240126654
 20
200.3574235326491
 30
0.0
 10
161.4685952562333
 20
200.3235797005063
 30
0.0
  0
SPLINE
  5
104
330
1F
100
AcDbEntity
  8
0
  6
Continuous
 62
     7
370
    25
100
AcDbSpline
210
0.0
220
0.0
230
1.0
 70
     8
 71
     3
 72
    15
 73
    11
 74
     0
 42
0.000000001
 43
0.00000001
 40
0.0
 40
0.0
 40
0.0
 40
0.0
 40
0.1485097875591863
 40
0.2851199991735395
 40
0.4109976082128751
 40
0.5288707968866034
 40
0.6431210775353641
 40
0.7584585064076564
 40
0.8776319905954122
 40
0.9999999999999999
 40
0.9999999999999999
 40
0.9999999999999999
 40
0.9999999999999999
 10
152.118800401857
 20
200.3281160165012
 30
0.0
 10
151.9465843744834
 20
200.3631961506653
 30
0.0
 10
151.6159513947354
 20
200.4305455690992
 30
0.0
 10
151.3757650190328
 20
200.4645769662141
 30
0.0
 10
151.3356539795475
 20
200.4081408543165
 30
0.0
 10
151.4769863106548
 20
200.2270635155562
 30
0.0
 10
151.7421664563782
 20
199.8915822898373
 30
0.0
 10
152.0419337181969
 20
199.3890768832314
 30
0.0
 10
152.2939202221832
 20
198.7402744942103
 30
0.0
 10
152.3313286939328
 20
198.2428071274148
 30
0.0
 10
152.3502803040879
 20
197.9907837979522
 30
0.0
  0
LINE
  5
105
330
1F
100
AcDbEntity
  8
0
  6
Continuous
 62
     7
370
    25
100
AcDbLine
 10
152.3501050294
 20
198.0911023775
 30
0.0
 11
152.4770387375
 21
125.3635187014
 31
0.0
  0
LINE
  5
106
330
1F
100
AcDbEntity
  8
0
  6
Continuous
 62
     7
370
    25
100
AcDbLine
 10
161.1331993872
 20
125.3635187014
 30
0.0
 11
161.2601330953
 21
198.0911023775
 31
0.0
  0
ARC
  5
107
330
1F
100
AcDbEntity
  8
0
  6
Continuous
 62
     7
370
    25
100
AcDbCircle
 10
159.6332016719
 20
125.3661366939
 30
0.0
 40
1.5
100
AcDbArc
 50
270.0
 51
359.9
  0
ARC
  5
108
330
1F
100
AcDbEntity
  8
0
  6
Continuous
 62
     7
370
    25
100
AcDbCircle
 10
153.9770364529
 20
125.3661366939
 30
0.0
 40
1.5
100
AcDbArc
 50
180.1
 51
270.0
  0
SPLINE
  5
109
330
1F
100
AcDbEntity
  8
0
  6
Continuous
 62
     7
370
    25
100
AcDbSpline
210
0.0
220
0.0
230
1.0
 70
     8
 71
     3
 72
    11
 73
     7
 74
     0
 42
0.000000001
 43
0.00000001
 40
0.0
 40
0.0
 40
0.0
 40
0.0
 40
0.2474737137047239
 40
0.4999996766151232
 40
0.7525258019949979
 40
1.0
 40
1.0
 40
1.0
 40
1.0
 10
170.6873609745996
 20
200.1310350378678
 30
0.0
 10
170.7233074918688
 20
200.7243196548853
 30
0.0
 10
170.7959343852102
 20
201.9230009702005
 30
0.0
 10
171.361241323078
 20
203.6495587387702
 30
0.0
 10
172.2195025494334
 20
205.2507948446449
 30
0.0
 10
173.0362483619749
 20
206.1311503086515
 30
0.0
 10
173.4404951303856
 20
206.5668805516631
 30
0.0
  0
SPLINE
  5
10A
330
1F
100
AcDbEntity
  8
0
  6
Continuous
 62
     7
370
    25
100
AcDbSpline
210
0.0
220
0.0
230
1.0
 70
     8
 71
     3
 72
    11
 73
     7
 74
     0
 42
0.000000001
 43
0.00000001
 40
0.0
 40
0.0
 40
0.0
 40
0.0
 40
0.2474739387952618
 40
0.500000009457835
 40
0.7525260753688782
 40
1.0
 40
1.0
 40
1.0
 40
1.0
 10
140.1697351934383
 20
206.5668880532535
 30
0.0
 10
140.5739833091679
 20
206.1311562507718
 30
0.0
 10
141.3907321865327
 20
205.2507972666199
 30
0.0
 10
142.2489954533547
 20
203.6495594643359
 30
0.0
 10
142.814303644033
 20
201.923000716756
 30
0.0
 10
142.8869306673686
 20
200.7243196337164
 30
0.0
 10
142.9228772570468
 20
200.1310349984924
 30
0.0
  0
LINE
  5
10B
330
1F
100
AcDbEntity
  8
0
  6
Continuous
 62
     7
370
    25
100
AcDbLine
 10
142.9225275313
 20
200.231224575
 30
0.0
 11
143.0853941494
 21
153.5735648595
 31
0.0
  0
LINE
  5
10C
330
1F
100
AcDbEntity
  8
0
  6
Continuous
 62
     7
370
    25
100
AcDbLine
 10
170.5248439754
 20
153.5735648595
 30
0.0
 11
170.6877099319
 21
200.2310350398
 31
0.0
  0
SPLINE
  5
10D
330
1F
100
AcDbEntity
  8
0
  6
Continuous
 62
     7
370
    25
100
AcDbSpline
210
0.0
220
0.0
230
1.0
 70
     8
 71
     3
 72
    18
 73
    14
 74
     0
 42
0.000000001
 43
0.00000001
 40
0.0
 40
0.0
 40
0.0
 40
0.0
 40
0.1200779756991194
 40
0.2275883923705411
 40
0.3240900717199541
 40
0.4112229212141023
 40
0.4907350991278842
 40
0.5645023718815941
 40
0.6687360656631852
 40
0.7715928544716052
 40
0.8428362740292971
 40
0.9184016353977704
 40
1.0
 40
1.0
 40
1.0
 40
1.0
 10
143.0847782114594
 20
153.6126866376661
 30
0.0
 10
143.0924661559293
 20
151.3753577957943
 30
0.0
 10
143.1070374119182
 20
147.1348626395323
 30
0.0
 10
143.1260299772206
 20
141.0986737498362
 30
0.0
 10
143.1416175247404
 20
135.6845283702154
 30
0.0
 10
143.1540543064407
 20
130.8106416481041
 30
0.0
 10
143.1637036569383
 20
126.3954226667185
 30
0.0
 10
143.1720087182111
 20
121.7411406655708
 30
0.0
 10
143.1781781829217
 20
116.8235678102615
 30
0.0
 10
143.1811100803418
 20
112.2637619606236
 30
0.0
 10
143.1821559411829
 20
108.4444897852815
 30
0.0
 10
143.1824040605607
 20
105.1222910856613
 30
0.0
 10
143.182391313949
 20
102.9594006127977
 30
0.0
 10
143.1823846959927
 20
101.8364422182358
 30
0.0
  0
SPLINE
  5
10E
330
1F
100
AcDbEntity
  8
0
  6
Continuous
 62
     7
370
    25
100
AcDbSpline
210
0.0
220
0.0
230
1.0
 70
     8
 71
     3
 72
    18
 73
    14
 74
     0
 42
0.000000001
 43
0.00000001
 40
0.0
 40
0.0
 40
0.0
 40
0.0
 40
0.0815983645883053
 40
0.1571637282130838
 40
0.2284071512316826
 40
0.3312639453624733
 40
0.4354976424424198
 40
0.5092649157134643
 40
0.588777092772373
 40
0.6759099401925428
 40
0.772411616434537
 40
0.8799220291114358
 40
1.0
 40
1.0
 40
1.0
 40
1.0
 10
170.4278534287895
 20
101.8364422182357
 30
0.0
 10
170.4278468108421
 20
102.9594006235594
 30
0.0
 10
170.4278340642474
 20
105.1222911483796
 30
0.0
 10
170.4280821837533
 20
108.4444898581829
 30
0.0
 10
170.4291280447907
 20
112.2637620667875
 30
0.0
 10
170.4320599424301
 20
116.8235679303394
 30
0.0
 10
170.4382294073322
 20
121.7411408505651
 30
0.0
 10
170.4465344687649
 20
126.395422914729
 30
0.0
 10
170.4561838193106
 20
130.8106419163988
 30
0.0
 10
170.4686206009712
 20
135.6845286320349
 30
0.0
 10
170.4842081483309
 20
141.0986739684552
 30
0.0
 10
170.5032007133275
 20
147.1348627719177
 30
0.0
 10
170.5177719690199
 20
151.3753578435292
 30
0.0
 10
170.5254599133229
 20
153.6126866376661
 30
0.0
  0
LINE
  5
10F
330
1F
100
AcDbEntity
  8
0
  6
Continuous
 62
     7
370
    25
100
AcDbLine
 10
170.4273774624
 20
96.8055831358
 30
0.0
 11
170.4273774624
 21
101.8364422182
 31
0.0
  0
LINE
  5
110
330
1F
100
AcDbEntity
  8
0
  6
Continuous
 62
     7
370
    25
100
AcDbLine
 10
143.1828606624
 20
101.8364422182
 30
0.0
 11
143.1828606624
 21
96.8055831358
 31
0.0
  0
SPLINE
  5
111
330
1F
100
AcDbEntity
  8
0
  6
Continuous
 62
     7
370
    25
100
AcDbSpline
210
0.0
220
0.0
230
1.0
 70
     8
 71
     3
 72
    20
 73
    16
 74
     0
 42
0.000000001
 43
0.00000001
 40
0.0
 40
0.0
 40
0.0
 40
0.0
 40
0.0431311776581402
 40
0.1227482080351127
 40
0.2024964753833902
 40
0.2823815811847907
 40
0.3624295279361706
 40
0.4426395538230925
 40
0.5229756189658207
 40
0.6033536276098056
 40
0.683636688355695
 40
0.7636962319112665
 40
0.8434271362653762
 40
0.9227826163758378
 40
1.0
 40
1.0
 40
1.0
 40
1.0
 10
156.8051190623911
 20
85.47496798214304
 30
0.0
 10
157.1103056170792
 20
85.48008401191376
 30
0.0
 10
157.9788444499691
 20
85.49464386213599
 30
0.0
 10
159.403442554631
 20
85.65399162785073
 30
0.0
 10
161.0458592690069
 20
86.00462665572967
 30
0.0
 10
162.6255315413589
 20
86.5248628655708
 30
0.0
 10
164.1178874526163
 20
87.2048614498919
 30
0.0
 10
165.4995636455614
 20
88.03633170006903
 30
0.0
 10
166.7480931176846
 20
89.00735853048347
 30
0.0
 10
167.8425215084837
 20
90.10342154558116
 30
0.0
 10
168.763582039534
 20
91.30700701269676
 30
0.0
 10
169.496995017742
 20
92.59795930451185
 30
0.0
 10
170.0252820328855
 20
93.95426569905338
 30
0.0
 10
170.3588444969257
 20
95.34210764793824
 30
0.0
 10
170.4030141901948
 20
96.27806184358961
 30
0.0
 10
170.4247974549852
 20
96.73964843309432
 30
0.0
  0
SPLINE
  5
112
330
1F
100
AcDbEntity
  8
0
  6
Continuous
 62
     7
370
    25
100
AcDbSpline
210
0.0
220
0.0
230
1.0
 70
     8
 71
     3
 72
    21
 73
    17
 74
     0
 42
0.000000001
 43
0.00000001
 40
0.0
 40
0.0
 40
0.0
 40
0.0
 40
0.0017822936587918
 40
0.0799840619838448
 40
0.1580809530170028
 40
0.2362076717941537
 40
0.3144983942269212
 40
0.3930278766059963
 40
0.4718023445176989
 40
0.5507727273779058
 40
0.6298616023098285
 40
0.7089765397916649
 40
0.7880596174374741
 40
0.8670958410735506
 40
0.946098835749347
 40
1.0
 40
1.0
 40
1.0
 40
1.0
 10
143.185440669797
 20
96.8715178385812
 30
0.0
 10
143.184584590362
 20
96.86081649885325
 30
0.0
 10
143.1461662801951
 20
96.38057205883621
 30
0.0
 10
143.2638451099681
 20
95.42625231312168
 30
0.0
 10
143.5532612399225
 20
94.03811873746825
 30
0.0
 10
144.0707061972228
 20
92.69437335500885
 30
0.0
 10
144.7762883907773
 20
91.41558621231718
 30
0.0
 10
145.6683141504633
 20
90.21986536913312
 30
0.0
 10
146.7315653297843
 20
89.12513548146359
 30
0.0
 10
147.9507909735317
 20
88.14824320690995
 30
0.0
 10
149.3069713408763
 20
87.30448027302492
 30
0.0
 10
150.7787510124552
 20
86.60729484133181
 30
0.0
 10
152.3429287338107
 20
86.06638390867074
 30
0.0
 10
153.9751373623839
 20
85.69318147059587
 30
0.0
 10
155.4734191967687
 20
85.50265289002895
 30
0.0
 10
156.4208678431611
 20
85.48295623826895
 30
0.0
 10
156.8051190623913
 20
85.47496798214304
 30
0.0
  0
ARC
  5
113
330
1F
100
AcDbEntity
  8
0
  6
Continuous
 62
     7
370
    25
100
AcDbCircle
 10
156.8051190624
 20
223.8661366939
 30
0.0
 40
24.00000000000002
100
AcDbArc
 50
275.4730792506
 51
264.5265628847
  0
SPLINE
  5
114
330
1F
100
AcDbEntity
  8
0
  6
Continuous
 62
     7
370
    25
100
AcDbSpline
210
0.0
220
0.0
230
1.0
 70
     8
 71
     3
 72
    16
 73
    12
 74
     0
 42
0.000000001
 43
0.00000001
 40
0.0
 40
0.0
 40
0.0
 40
0.0
 40
0.25
 40
0.25
 40
0.5
 40
0.5
 40
0.75
 40
0.75
 40
0.875
 40
0.875
 40
1.0
 40
1.0
 40
1.0
 40
1.0
 10
159.0931936589472
 20
199.9755504841376
 30
0.0
 10
158.7162955338547
 20
199.9396562577375
 30
0.0
 10
158.3347615334547
 20
199.9079772756122
 30
0.0
 10
157.5737361139359
 20
199.8640957215294
 30
0.0
 10
157.1922558517441
 20
199.8516410804478
 30
0.0
 10
156.4269639799291
 20
199.8514792941917
 30
0.0
 10
156.0421894194566
 20
199.863793763502
 30
0.0
 10
155.4682630978751
 20
199.8967680263134
 30
0.0
 10
155.2774213348756
 20
199.91012978669
 30
0.0
 10
154.8965282999864
 20
199.9404797891879
 30
0.0
 10
154.7051780181685
 20
199.9575947242138
 30
0.0
 10
154.5167329300077
 20
199.9755579459678
 30
0.0
  0
LINE
  5
115
330
1F
100
AcDbEntity
  8
0
  6
Continuous
 62
     7
370
    25
100
AcDbLine
 10
159.6332016719
 20
123.8661366939
 30
0.0
 11
153.9770367936
 21
123.8661366939
 31
0.0
  0
ARC
  5
116
330
1F
100
AcDbEntity
  8
0
  6
Continuous
 62
     8
370
    18
100
AcDbCircle
 10
156.8051190624
 20
223.8661366939
 30
0.0
 40
22.50000000000003
100
AcDbArc
 50
275.4754523714
 51
264.524573989
  0
SPLINE
  5
117
330
1F
100
AcDbEntity
  8
0
  6
Continuous
 62
     8
370
    18
100
AcDbSpline
210
0.0
220
0.0
230
1.0
 70
     8
 71
     3
 72
    10
 73
     6
 74
     0
 42
0.000000001
 43
0.00000001
 40
0.0
 40
0.0
 40
0.0
 40
0.0
 40
0.5
 40
0.5
 40
1.0
 40
1.0
 40
1.0
 40
1.0
 10
154.6582025225962
 20
201.4688720974955
 30
0.0
 10
155.3738431034929
 20
201.4006050816148
 30
0.0
 10
156.08948362873
 20
201.342762040382
 30
0.0
 10
157.5207640618056
 20
201.3427028082835
 30
0.0
 10
158.236403968607
 20
201.4006808336873
 30
0.0
 10
158.9520438207518
 20
201.4688950247927
 30
0.0
  0
ENDSEC
  0
SECTION
  2
OBJECTS
  0
DICTIONARY
  5
C
330
0
100
AcDbDictionary
281
     1
  3
ACAD_GROUP
350
D
  3
ACAD_LAYOUT
350
1A
  3
ACAD_MLINESTYLE
350
17
  3
ACAD_PLOTSETTINGS
350
19
  3
ACAD_PLOTSTYLENAME
350
E
  3
ACAD_SCALELIST
350
47
  0
DICTIONARY
  5
D
102
{ACAD_REACTORS
330
C
102
}
330
C
100
AcDbDictionary
281
     1
  0
DICTIONARY
  5
1A
102
{ACAD_REACTORS
330
C
102
}
330
C
100
AcDbDictionary
281
     1
  3
Layout1
350
1E
  3
Layout2
350
26
  3
Model
350
22
  0
DICTIONARY
  5
17
102
{ACAD_REACTORS
330
C
102
}
330
C
100
AcDbDictionary
281
     1
  3
Standard
350
18
  0
DICTIONARY
  5
19
102
{ACAD_REACTORS
330
C
102
}
330
C
100
AcDbDictionary
281
     1
  0
ACDBDICTIONARYWDFLT
  5
E
102
{ACAD_REACTORS
330
C
102
}
330
C
100
AcDbDictionary
281
     1
  3
Normal
350
F
100
AcDbDictionaryWithDefault
340
F
  0
DICTIONARY
  5
47
102
{ACAD_REACTORS
330
C
102
}
330
C
100
AcDbDictionary
281
     1
  3
A0
350
48
  3
A1
350
49
  3
A2
350
4A
  3
A3
350
4B
  3
A4
350
4C
  3
A5
350
4D
  3
A6
350
4E
  3
A7
350
4F
  3
A8
350
50
  3
A9
350
51
  3
B0
350
52
  3
B1
350
53
  3
B2
350
54
  3
B3
350
55
  3
B4
350
56
  3
B5
350
57
  3
B6
350
58
  3
B7
350
59
  3
B8
350
5A
  3
B9
350
5B
  3
C0
350
5C
  3
C1
350
5D
  3
C2
350
5E
  3
C3
350
5F
  3
C4
350
60
  3
C5
350
61
  3
C6
350
62
  3
C7
350
63
  3
C8
350
64
  3
C9
350
65
  3
D0
350
66
  3
D1
350
67
  3
D2
350
68
  0
LAYOUT
  5
1E
102
{ACAD_REACTORS
330
1A
102
}
330
1A
100
AcDbPlotSettings
  1

  2
none_device
  4

  6

 40
0.0
 41
0.0
 42
0.0
 43
0.0
 44
0.0
 45
0.0
 46
0.0
 47
0.0
 48
0.0
 49
0.0
140
0.0
141
0.0
142
1.0
143
1.0
 70
   688
 72
     1
 73
     0
 74
     5
  7

 75
    16
147
1.0
148
0.0
149
0.0
100
AcDbLayout
  1
Layout1
 70
     1
 71
     1
 10
0.0
 20
0.0
 11
420.0
 21
297.0
 12
0.0
 22
0.0
 32
0.0
 14
1.0000000000E+20
 24
1.0000000000E+20
 34
1.0000000000E+20
 15
-1.0000000000E+20
 25
-1.0000000000E+20
 35
-1.0000000000E+20
146
0.0
 13
0.0
 23
0.0
 33
0.0
 16
1.0
 26
0.0
 36
0.0
 17
0.0
 27
1.0
 37
0.0
 76
     0
330
1B
  0
LAYOUT
  5
26
102
{ACAD_REACTORS
330
1A
102
}
330
1A
100
AcDbPlotSettings
  1

  2
none_device
  4

  6

 40
0.0
 41
0.0
 42
0.0
 43
0.0
 44
0.0
 45
0.0
 46
0.0
 47
0.0
 48
0.0
 49
0.0
140
0.0
141
0.0
142
1.0
143
1.0
 70
   688
 72
     1
 73
     0
 74
     5
  7

 75
    16
147
1.0
148
0.0
149
0.0
100
AcDbLayout
  1
Layout2
 70
     1
 71
     2
 10
0.0
 20
0.0
 11
0.0
 21
0.0
 12
0.0
 22
0.0
 32
0.0
 14
0.0
 24
0.0
 34
0.0
 15
0.0
 25
0.0
 35
0.0
146
0.0
 13
0.0
 23
0.0
 33
0.0
 16
1.0
 26
0.0
 36
0.0
 17
0.0
 27
1.0
 37
0.0
 76
     0
330
23
  0
LAYOUT
  5
22
102
{ACAD_REACTORS
330
1A
102
}
330
1A
100
AcDbPlotSettings
  1

  2
none_device
  4
Letter_(8.50_x_11.00_Inches)
  6

 40
6.35
 41
6.35
 42
6.35000508
 43
6.35000508
 44
215.9
 45
279.4
 46
0.0
 47
0.0
 48
0.0
 49
0.0
140
0.0
141
0.0
142
1.0
143
1.0
 70
  1712
 72
     1
 73
     0
 74
     0
  7

 75
     0
147
1.0
148
0.0
149
0.0
100
AcDbLayout
  1
Model
 70
     1
 71
     0
 10
0.0
 20
0.0
 11
594.0
 21
841.0
 12
0.0
 22
0.0
 32
0.0
 14
0.0
 24
0.0
 34
0.0
 15
594.0
 25
841.0
 35
0.0
146
0.0
 13
0.0
 23
0.0
 33
0.0
 16
1.0
 26
0.0
 36
0.0
 17
0.0
 27
1.0
 37
0.0
 76
     0
330
1F
331
29
  0
MLINESTYLE
  5
18
102
{ACAD_REACTORS
330
17
102
}
330
17
100
AcDbMlineStyle
  2
Standard
 70
     0
  3

 62
   256
 51
90.0
 52
90.0
 71
     2
 49
0.5
 62
   256
  6
BYLAYER
 49
-0.5
 62
   256
  6
BYLAYER
  0
ACDBPLACEHOLDER
  5
F
102
{ACAD_REACTORS
330
E
102
}
330
E
  0
SCALE
  5
48
102
{ACAD_REACTORS
330
47
102
}
330
47
100
AcDbScale
 70
     0
300
1:1
140
1.0
141
1.0
290
     1
  0
SCALE
  5
49
102
{ACAD_REACTORS
330
47
102
}
330
47
100
AcDbScale
 70
     0
300
1:2
140
1.0
141
2.0
290
     0
  0
SCALE
  5
4A
102
{ACAD_REACTORS
330
47
102
}
330
47
100
AcDbScale
 70
     0
300
1:4
140
1.0
141
4.0
290
     0
  0
SCALE
  5
4B
102
{ACAD_REACTORS
330
47
102
}
330
47
100
AcDbScale
 70
     0
300
1:5
140
1.0
141
5.0
290
     0
  0
SCALE
  5
4C
102
{ACAD_REACTORS
330
47
102
}
330
47
100
AcDbScale
 70
     0
300
1:8
140
1.0
141
8.0
290
     0
  0
SCALE
  5
4D
102
{ACAD_REACTORS
330
47
102
}
330
47
100
AcDbScale
 70
     0
300
1:10
140
1.0
141
10.0
290
     0
  0
SCALE
  5
4E
102
{ACAD_REACTORS
330
47
102
}
330
47
100
AcDbScale
 70
     0
300
1:16
140
1.0
141
16.0
290
     0
  0
SCALE
  5
4F
102
{ACAD_REACTORS
330
47
102
}
330
47
100
AcDbScale
 70
     0
300
1:20
140
1.0
141
20.0
290
     0
  0
SCALE
  5
50
102
{ACAD_REACTORS
330
47
102
}
330
47
100
AcDbScale
 70
     0
300
1:30
140
1.0
141
30.0
290
     0
  0
SCALE
  5
51
102
{ACAD_REACTORS
330
47
102
}
330
47
100
AcDbScale
 70
     0
300
1:40
140
1.0
141
40.0
290
     0
  0
SCALE
  5
52
102
{ACAD_REACTORS
330
47
102
}
330
47
100
AcDbScale
 70
     0
300
1:50
140
1.0
141
50.0
290
     0
  0
SCALE
  5
53
102
{ACAD_REACTORS
330
47
102
}
330
47
100
AcDbScale
 70
     0
300
1:100
140
1.0
141
100.0
290
     0
  0
SCALE
  5
54
102
{ACAD_REACTORS
330
47
102
}
330
47
100
AcDbScale
 70
     0
300
2:1
140
2.0
141
1.0
290
     0
  0
SCALE
  5
55
102
{ACAD_REACTORS
330
47
102
}
330
47
100
AcDbScale
 70
     0
300
4:1
140
4.0
141
1.0
290
     0
  0
SCALE
  5
56
102
{ACAD_REACTORS
330
47
102
}
330
47
100
AcDbScale
 70
     0
300
8:1
140
8.0
141
1.0
290
     0
  0
SCALE
  5
57
102
{ACAD_REACTORS
330
47
102
}
330
47
100
AcDbScale
 70
     0
300
10:1
140
10.0
141
1.0
290
     0
  0
SCALE
  5
58
102
{ACAD_REACTORS
330
47
102
}
330
47
100
AcDbScale
 70
     0
300
100:1
140
100.0
141
1.0
290
     0
  0
SCALE
  5
59
102
{ACAD_REACTORS
330
47
102
}
330
47
100
AcDbScale
 70
     0
300
1/128" = 1'-0"
140
0.0078125
141
12.0
290
     0
  0
SCALE
  5
5A
102
{ACAD_REACTORS
330
47
102
}
330
47
100
AcDbScale
 70
     0
300
1/64" = 1'-0"
140
0.015625
141
12.0
290
     0
  0
SCALE
  5
5B
102
{ACAD_REACTORS
330
47
102
}
330
47
100
AcDbScale
 70
     0
300
1/32" = 1'-0"
140
0.03125
141
12.0
290
     0
  0
SCALE
  5
5C
102
{ACAD_REACTORS
330
47
102
}
330
47
100
AcDbScale
 70
     0
300
1/16" = 1'-0"
140
0.0625
141
12.0
290
     0
  0
SCALE
  5
5D
102
{ACAD_REACTORS
330
47
102
}
330
47
100
AcDbScale
 70
     0
300
3/32" = 1'-0"
140
0.09375
141
12.0
290
     0
  0
SCALE
  5
5E
102
{ACAD_REACTORS
330
47
102
}
330
47
100
AcDbScale
 70
     0
300
1/8" = 1'-0"
140
0.125
141
12.0
290
     0
  0
SCALE
  5
5F
102
{ACAD_REACTORS
330
47
102
}
330
47
100
AcDbScale
 70
     0
300
3/16" = 1'-0"
140
0.1875
141
12.0
290
     0
  0
SCALE
  5
60
102
{ACAD_REACTORS
330
47
102
}
330
47
100
AcDbScale
 70
     0
300
1/4" = 1'-0"
140
0.25
141
12.0
290
     0
  0
SCALE
  5
61
102
{ACAD_REACTORS
330
47
102
}
330
47
100
AcDbScale
 70
     0
300
3/8" = 1'-0"
140
0.375
141
12.0
290
     0
  0
SCALE
  5
62
102
{ACAD_REACTORS
330
47
102
}
330
47
100
AcDbScale
 70
     0
300
1/2" = 1'-0"
140
0.5
141
12.0
290
     0
  0
SCALE
  5
63
102
{ACAD_REACTORS
330
47
102
}
330
47
100
AcDbScale
 70
     0
300
3/4" = 1'-0"
140
0.75
141
12.0
290
     0
  0
SCALE
  5
64
102
{ACAD_REACTORS
330
47
102
}
330
47
100
AcDbScale
 70
     0
300
1" = 1'-0"
140
1.0
141
12.0
290
     0
  0
SCALE
  5
65
102
{ACAD_REACTORS
330
47
102
}
330
47
100
AcDbScale
 70
     0
300
1-1/2" = 1'-0"
140
1.5
141
12.0
290
     0
  0
SCALE
  5
66
102
{ACAD_REACTORS
330
47
102
}
330
47
100
AcDbScale
 70
     0
300
3" = 1'-0"
140
3.0
141
12.0
290
     0
  0
SCALE
  5
67
102
{ACAD_REACTORS
330
47
102
}
330
47
100
AcDbScale
 70
     0
300
6" = 1'-0"
140
6.0
141
12.0
290
     0
  0
SCALE
  5
68
102
{ACAD_REACTORS
330
47
102
}
330
47
100
AcDbScale
 70
     0
300
1'-0" = 1'-0"
140
12.0
141
12.0
290
     0
  0
ENDSEC
  0
EOF
