  0
SECTION
  2
HEADER
  9
$ACADVER
  1
AC1015
  9
$ACADMAINTVER
 70
     6
  9
$DWGCODEPAGE
  3
ANSI_1252
  9
$INSBASE
 10
0.0
 20
0.0
 30
0.0
  9
$EXTMIN
 10
0.0
 20
0.0
 30
0.0
  9
$EXTMAX
 10
594.0
 20
841.0
 30
0.0
  9
$LIMMIN
 10
0.0
 20
0.0
  9
$LIMMAX
 10
594.0
 20
841.0
  9
$ORTHOMODE
 70
     0
  9
$REGENMODE
 70
     1
  9
$FILLMODE
 70
     1
  9
$QTEXTMODE
 70
     0
  9
$MIRRTEXT
 70
     1
  9
$LTSCALE
 40
1.0
  9
$ATTMODE
 70
     1
  9
$TEXTSIZE
 40
10.0
  9
$TRACEWID
 40
1.0
  9
$TEXTSTYLE
  7
Standard
  9
$CLAYER
  8
0
  9
$CELTYPE
  6
ByLayer
  9
$CECOLOR
 62
   256
  9
$CELTSCALE
 40
1.0
  9
$DISPSILH
 70
     0
  9
$DIMSCALE
 40
1.0
  9
$DIMASZ
 40
2.5
  9
$DIMEXO
 40
0.0
  9
$DIMDLI
 40
3.75
  9
$DIMRND
 40
0.0
  9
$DIMDLE
 40
0.0
  9
$DIMEXE
 40
1.0
  9
$DIMTP
 40
0.0
  9
$DIMTM
 40
0.0
  9
$DIMTXT
 40
3.5
  9
$DIMCEN
 40
2.5
  9
$DIMTSZ
 40
0.0
  9
$DIMTOL
 70
     0
  9
$DIMLIM
 70
     0
  9
$DIMTIH
 70
     1
  9
$DIMTOH
 70
     1
  9
$DIMSE1
 70
     0
  9
$DIMSE2
 70
     0
  9
$DIMTAD
 70
     1
  9
$DIMZIN
 70
     0
  9
$DIMBLK
  1

  9
$DIMASO
 70
     1
  9
$DIMSHO
 70
     1
  9
$DIMPOST
  1

  9
$DIMAPOST
  1

  9
$DIMALT
 70
     0
  9
$DIMALTD
 70
     3
  9
$DIMALTF
 40
0.0393700787
  9
$DIMLFAC
 40
1.0
  9
$DIMTOFL
 70
     1
  9
$DIMTVP
 40
0.0
  9
$DIMTIX
 70
     0
  9
$DIMSOXD
 70
     0
  9
$DIMSAH
 70
     0
  9
$DIMBLK1
  1

  9
$DIMBLK2
  1

  9
$DIMSTYLE
  2
ISO-25
  9
$DIMCLRD
 70
     0
  9
$DIMCLRE
 70
     0
  9
$DIMCLRT
 70
     0
  9
$DIMTFAC
 40
1.0
  9
$DIMGAP
 40
1.5
  9
$DIMJUST
 70
     0
  9
$DIMSD1
 70
     0
  9
$DIMSD2
 70
     0
  9
$DIMTOLJ
 70
     0
  9
$DIMTZIN
 70
     0
  9
$DIMALTZ
 70
     0
  9
$DIMALTTZ
 70
     0
  9
$DIMUPT
 70
     0
  9
$DIMDEC
 70
     2
  9
$DIMTDEC
 70
     2
  9
$DIMALTU
 70
     2
  9
$DIMALTTD
 70
     3
  9
$DIMTXSTY
  7
Standard
  9
$DIMAUNIT
 70
     0
  9
$DIMADEC
 70
     2
  9
$DIMALTRND
 40
0.0
  9
$DIMAZIN
 70
     0
  9
$DIMDSEP
 70
    44
  9
$DIMATFIT
 70
     3
  9
$DIMFRAC
 70
     0
  9
$DIMLDRBLK
  1

  9
$DIMLUNIT
 70
     2
  9
$DIMLWD
 70
    -2
  9
$DIMLWE
 70
    -2
  9
$DIMTMOVE
 70
     0
  9
$LUNITS
 70
     2
  9
$LUPREC
 70
     2
  9
$SKETCHINC
 40
1.0
  9
$FILLETRAD
 40
10.0
  9
$AUNITS
 70
     0
  9
$AUPREC
 70
     2
  9
$MENU
  1
.
  9
$ELEVATION
 40
0.0
  9
$PELEVATION
 40
0.0
  9
$THICKNESS
 40
0.0
  9
$LIMCHECK
 70
     0
  9
$CHAMFERA
 40
0.0
  9
$CHAMFERB
 40
0.0
  9
$CHAMFERC
 40
0.0
  9
$CHAMFERD
 40
0.0
  9
$SKPOLY
 70
     0
  9
$TDCREATE
 40
2458858.456581158
  9
$TDUCREATE
 40
2458858.414914491
  9
$TDUPDATE
 40
2458858.45658206
  9
$TDUUPDATE
 40
2458858.414915394
  9
$TDINDWG
 40
0.0000000116
  9
$TDUSRTIMER
 40
0.0000000116
  9
$USRTIMER
 70
     1
  9
$ANGBASE
 50
0.0
  9
$ANGDIR
 70
     0
  9
$PDMODE
 70
     0
  9
$PDSIZE
 40
-1.0
  9
$PLINEWID
 40
0.0
  9
$SPLFRAME
 70
     0
  9
$SPLINETYPE
 70
     6
  9
$SPLINESEGS
 70
     8
  9
$HANDSEED
  5
48F
  9
$SURFTAB1
 70
     6
  9
$SURFTAB2
 70
     6
  9
$SURFTYPE
 70
     6
  9
$SURFU
 70
     6
  9
$SURFV
 70
     6
  9
$UCSBASE
  2

  9
$UCSNAME
  2

  9
$UCSORG
 10
0.0
 20
0.0
 30
0.0
  9
$UCSXDIR
 10
1.0
 20
0.0
 30
0.0
  9
$UCSYDIR
 10
0.0
 20
1.0
 30
0.0
  9
$UCSORTHOREF
  2

  9
$UCSORTHOVIEW
 70
     0
  9
$UCSORGTOP
 10
0.0
 20
0.0
 30
0.0
  9
$UCSORGBOTTOM
 10
0.0
 20
0.0
 30
0.0
  9
$UCSORGLEFT
 10
0.0
 20
0.0
 30
0.0
  9
$UCSORGRIGHT
 10
0.0
 20
0.0
 30
0.0
  9
$UCSORGFRONT
 10
0.0
 20
0.0
 30
0.0
  9
$UCSORGBACK
 10
0.0
 20
0.0
 30
0.0
  9
$PUCSBASE
  2

  9
$PUCSNAME
  2

  9
$PUCSORG
 10
0.0
 20
0.0
 30
0.0
  9
$PUCSXDIR
 10
1.0
 20
0.0
 30
0.0
  9
$PUCSYDIR
 10
0.0
 20
1.0
 30
0.0
  9
$PUCSORTHOREF
  2

  9
$PUCSORTHOVIEW
 70
     0
  9
$PUCSORGTOP
 10
0.0
 20
0.0
 30
0.0
  9
$PUCSORGBOTTOM
 10
0.0
 20
0.0
 30
0.0
  9
$PUCSORGLEFT
 10
0.0
 20
0.0
 30
0.0
  9
$PUCSORGRIGHT
 10
0.0
 20
0.0
 30
0.0
  9
$PUCSORGFRONT
 10
0.0
 20
0.0
 30
0.0
  9
$PUCSORGBACK
 10
0.0
 20
0.0
 30
0.0
  9
$USERI1
 70
     0
  9
$USERI2
 70
     0
  9
$USERI3
 70
     0
  9
$USERI4
 70
     0
  9
$USERI5
 70
     0
  9
$USERR1
 40
0.0
  9
$USERR2
 40
0.0
  9
$USERR3
 40
0.0
  9
$USERR4
 40
0.0
  9
$USERR5
 40
0.0
  9
$WORLDVIEW
 70
     1
  9
$SHADEDGE
 70
     3
  9
$SHADEDIF
 70
    70
  9
$TILEMODE
 70
     1
  9
$MAXACTVP
 70
    64
  9
$PINSBASE
 10
0.0
 20
0.0
 30
0.0
  9
$PLIMCHECK
 70
     0
  9
$PEXTMIN
 10
1.0000000000E+20
 20
1.0000000000E+20
 30
1.0000000000E+20
  9
$PEXTMAX
 10
-1.0000000000E+20
 20
-1.0000000000E+20
 30
-1.0000000000E+20
  9
$PLIMMIN
 10
0.0
 20
0.0
  9
$PLIMMAX
 10
420.0
 20
297.0
  9
$UNITMODE
 70
     0
  9
$VISRETAIN
 70
     1
  9
$PLINEGEN
 70
     0
  9
$PSLTSCALE
 70
     1
  9
$TREEDEPTH
 70
  3020
  9
$CMLSTYLE
  2
Standard
  9
$CMLJUST
 70
     0
  9
$CMLSCALE
 40
20.0
  9
$PROXYGRAPHICS
 70
     1
  9
$MEASUREMENT
 70
     1
  9
$CELWEIGHT
370
    -1
  9
$ENDCAPS
280
     0
  9
$JOINSTYLE
280
     0
  9
$LWDISPLAY
290
     1
  9
$INSUNITS
 70
     4
  9
$HYPERLINKBASE
  1

  9
$STYLESHEET
  1

  9
$XEDIT
290
     1
  9
$CEPSNTYPE
380
     0
  9
$PSTYLEMODE
290
     1
  9
$FINGERPRINTGUID
  2
{5bebe203-ff57-4713-b06b-4509bc819be4}
  9
$VERSIONGUID
  2
{FAEB1C32-E019-11D5-929B-00C0DF256EC4}
  9
$EXTNAMES
290
     1
  9
$PSVPSCALE
 40
0.0
  9
$OLESTARTUP
290
     0
  0
ENDSEC
  0
SECTION
  2
CLASSES
  0
CLASS
  1
ACDBDICTIONARYWDFLT
  2
AcDbDictionaryWithDefault
  3
ObjectDBX Classes
 90
        0
280
     0
281
     0
  0
CLASS
  1
VISUALSTYLE
  2
AcDbVisualStyle
  3
ObjectDBX Classes
 90
     4095
280
     0
281
     0
  0
CLASS
  1
MATERIAL
  2
AcDbMaterial
  3
ObjectDBX Classes
 90
     1153
280
     0
281
     0
  0
CLASS
  1
SCALE
  2
AcDbScale
  3
ObjectDBX Classes
 90
     1153
280
     0
281
     0
  0
CLASS
  1
TABLESTYLE
  2
AcDbTableStyle
  3
ObjectDBX Classes
 90
     4095
280
     0
281
     0
  0
CLASS
  1
MLEADERSTYLE
  2
AcDbMLeaderStyle
  3
ACDB_MLEADERSTYLE_CLASS
 90
     4095
280
     0
281
     0
  0
CLASS
  1
SUN
  2
AcDbSun
  3
SCENEOE
 90
     1153
280
     0
281
     0
  0
CLASS
  1
ACDBPLACEHOLDER
  2
AcDbPlaceHolder
  3
ObjectDBX Classes
 90
        0
280
     0
281
     0
  0
CLASS
  1
LAYOUT
  2
AcDbLayout
  3
ObjectDBX Classes
 90
        0
280
     0
281
     0
  0
ENDSEC
  0
SECTION
  2
TABLES
  0
TABLE
  2
VPORT
  5
8
330
0
100
AcDbSymbolTable
 70
     1
  0
VPORT
  5
29
330
8
100
AcDbSymbolTableRecord
100
AcDbViewportTableRecord
  2
*Active
 70
     0
 10
0.0
 20
0.0
 11
1.0
 21
1.0
 12
297.0
 22
420.5
 13
0.0
 23
0.0
 14
10.0
 24
10.0
 15
10.0
 25
10.0
 16
0.0
 26
0.0
 36
1.0
 17
0.0
 27
0.0
 37
0.0
 40
841.0
 41
0.7063020214
 42
50.0
 43
0.0
 44
0.0
 50
0.0
 51
0.0
 71
     0
 72
  2000
 73
     1
 74
     3
 75
     0
 76
     0
 77
     0
 78
     0
281
     0
 65
     1
110
0.0
120
0.0
130
0.0
111
1.0
121
0.0
131
0.0
112
0.0
122
1.0
132
0.0
 79
     0
146
0.0
  0
ENDTAB
  0
TABLE
  2
LTYPE
  5
5
330
0
100
AcDbSymbolTable
 70
     6
  0
LTYPE
  5
14
330
5
100
AcDbSymbolTableRecord
100
AcDbLinetypeTableRecord
  2
ByBlock
 70
     0
  3

 72
    65
 73
     0
 40
0.0
  0
LTYPE
  5
15
330
5
100
AcDbSymbolTableRecord
100
AcDbLinetypeTableRecord
  2
ByLayer
 70
     0
  3

 72
    65
 73
     0
 40
0.0
  0
LTYPE
  5
16
330
5
100
AcDbSymbolTableRecord
100
AcDbLinetypeTableRecord
  2
Continuous
 70
     0
  3
Solid line
 72
    65
 73
     0
 40
0.0
  0
LTYPE
  5
6E
330
5
100
AcDbSymbolTableRecord
100
AcDbLinetypeTableRecord
  2
HIDDEN
 70
     0
  3
Hidden __ __ __ __ __ __ __ __ __ __ __ __ __ __
 72
    65
 73
     2
 40
1.905
 49
1.27
 74
     0
 49
-0.635
 74
     0
  0
LTYPE
  5
6F
330
5
100
AcDbSymbolTableRecord
100
AcDbLinetypeTableRecord
  2
PHANTOM
 70
     0
  3
Phantom ______  __  __  ______  __  __  ______
 72
    65
 73
     6
 40
12.7
 49
6.35
 74
     0
 49
-1.27
 74
     0
 49
1.27
 74
     0
 49
-1.27
 74
     0
 49
1.27
 74
     0
 49
-1.27
 74
     0
  0
LTYPE
  5
70
330
5
100
AcDbSymbolTableRecord
100
AcDbLinetypeTableRecord
  2
CENTER
 70
     0
  3
Center ____ _ ____ _ ____ _ ____ _ ____ _ ____
 72
    65
 73
     4
 40
10.16
 49
6.35
 74
     0
 49
-1.27
 74
     0
 49
1.27
 74
     0
 49
-1.27
 74
     0
  0
LTYPE
  5
71
330
5
100
AcDbSymbolTableRecord
100
AcDbLinetypeTableRecord
  2
CENTERX2
 70
     0
  3
Center (2x) ________  __  ________  __  _____
 72
    65
 73
     4
 40
20.32
 49
12.7
 74
     0
 49
-2.54
 74
     0
 49
2.54
 74
     0
 49
-2.54
 74
     0
  0
LTYPE
  5
72
330
5
100
AcDbSymbolTableRecord
100
AcDbLinetypeTableRecord
  2
DOT2
 70
     0
  3
Dot (.5x) ........................................
 72
    65
 73
     2
 40
0.635
 49
0.0
 74
     0
 49
-0.635
 74
     0
  0
ENDTAB
  0
TABLE
  2
LAYER
  5
2
330
0
100
AcDbSymbolTable
 70
     1
  0
LAYER
  5
10
330
2
100
AcDbSymbolTableRecord
100
AcDbLayerTableRecord
  2
0
 70
     0
 62
     7
  6
Continuous
370
    -3
390
F
  0
ENDTAB
  0
TABLE
  2
STYLE
  5
3
330
0
100
AcDbSymbolTable
 70
     3
  0
STYLE
  5
11
330
3
100
AcDbSymbolTableRecord
100
AcDbTextStyleTableRecord
  2
Standard
 70
     0
 40
0.0
 41
1.0
 50
0.0
 71
     0
 42
10.0
  3
txt
  4

  0
STYLE
  5
76
330
3
100
AcDbSymbolTableRecord
100
AcDbTextStyleTableRecord
  2
SLDTEXTSTYLE0
 70
     0
 40
0.0
 41
0.96
 50
0.0
 71
     0
 42
10.0
  3
ISOCP3
  4

  0
STYLE
  5
8D
330
3
100
AcDbSymbolTableRecord
100
AcDbTextStyleTableRecord
  2
SLDTEXTSTYLE1
 70
     0
 40
0.0
 41
0.605
 50
0.0
 71
     0
 42
10.0
  3
TXT
  4

  0
ENDTAB
  0
TABLE
  2
VIEW
  5
6
330
0
100
AcDbSymbolTable
 70
     0
  0
ENDTAB
  0
TABLE
  2
UCS
  5
7
330
0
100
AcDbSymbolTable
 70
     0
  0
ENDTAB
  0
TABLE
  2
APPID
  5
9
330
0
100
AcDbSymbolTable
 70
     1
  0
APPID
  5
12
330
9
100
AcDbSymbolTableRecord
100
AcDbRegAppTableRecord
  2
ACAD
 70
     0
  0
ENDTAB
  0
TABLE
  2
DIMSTYLE
  5
A
330
0
100
AcDbSymbolTable
 70
     2
100
AcDbDimStyleTable
  0
DIMSTYLE
105
27
330
A
100
AcDbSymbolTableRecord
100
AcDbDimStyleTableRecord
  2
ISO-25
 70
     0
 41
2.5
 42
0.625
 43
3.75
 44
1.25
 73
     0
 74
     0
 77
     1
 78
     8
140
2.5
141
2.5
143
0.0393700787
147
0.625
171
     3
172
     1
178
     0
271
     2
272
     2
274
     3
278
    44
283
     0
284
     8
340
11
  0
DIMSTYLE
105
77
102
{ACAD_REACTORS
330
75
330
82
102
}
330
A
100
AcDbSymbolTableRecord
100
AcDbDimStyleTableRecord
  2
SLDDIMSTYLE0
 70
     0
 41
2.5
 44
0.0
 45
0.000000001
 73
     0
 74
     0
 77
     1
 78
    12
 79
     3
140
6.0
147
1.5
173
     1
178
     0
271
     2
272
     2
276
     2
284
    12
340
76
  0
ENDTAB
  0
TABLE
  2
BLOCK_RECORD
  5
1
330
0
100
AcDbSymbolTable
 70
     3
  0
BLOCK_RECORD
  5
1F
330
1
100
AcDbSymbolTableRecord
100
AcDbBlockTableRecord
  2
*Model_Space
340
22
  0
BLOCK_RECORD
  5
1B
330
1
100
AcDbSymbolTableRecord
100
AcDbBlockTableRecord
  2
*Paper_Space
340
1E
  0
BLOCK_RECORD
  5
23
330
1
100
AcDbSymbolTableRecord
100
AcDbBlockTableRecord
  2
*Paper_Space0
340
26
  0
BLOCK_RECORD
  5
78
330
1
100
AcDbSymbolTableRecord
100
AcDbBlockTableRecord
  2
_D
340
0
  0
BLOCK_RECORD
  5
83
330
1
100
AcDbSymbolTableRecord
100
AcDbBlockTableRecord
  2
_D_1
340
0
  0
ENDTAB
  0
ENDSEC
  0
SECTION
  2
BLOCKS
  0
BLOCK
  5
20
330
1F
100
AcDbEntity
  8
0
100
AcDbBlockBegin
  2
*Model_Space
 70
     0
 10
0.0
 20
0.0
 30
0.0
  3
*Model_Space
  1

  0
ENDBLK
  5
21
330
1F
100
AcDbEntity
  8
0
100
AcDbBlockEnd
  0
BLOCK
  5
1C
330
1B
100
AcDbEntity
 67
     1
  8
0
100
AcDbBlockBegin
  2
*Paper_Space
 70
     0
 10
0.0
 20
0.0
 30
0.0
  3
*Paper_Space
  1

  0
ENDBLK
  5
1D
330
1B
100
AcDbEntity
 67
     1
  8
0
100
AcDbBlockEnd
  0
BLOCK
  5
24
330
23
100
AcDbEntity
  8
0
100
AcDbBlockBegin
  2
*Paper_Space0
 70
     0
 10
0.0
 20
0.0
 30
0.0
  3
*Paper_Space0
  1

  0
ENDBLK
  5
25
330
23
100
AcDbEntity
  8
0
100
AcDbBlockEnd
  0
BLOCK
  5
79
330
78
100
AcDbEntity
  8
0
100
AcDbBlockBegin
  2
_D
 70
     0
 10
0.0
 20
0.0
 30
0.0
  3
_D
  1

  0
SOLID
  5
7B
330
78
100
AcDbEntity
  8
0
  6
Continuous
 62
     7
370
    18
100
AcDbTrace
 10
42.7614395004
 20
152.0299240879
 30
0.0
 11
42.4614395004
 21
149.5299240879
 31
0.0
 12
43.0614395004
 22
149.5299240879
 32
0.0
 13
43.0614395004
 23
149.5299240879
 33
0.0
  0
SOLID
  5
7C
330
78
100
AcDbEntity
  8
0
  6
Continuous
 62
     7
370
    18
100
AcDbTrace
 10
42.7614395004
 20
52.0299240879
 30
0.0
 11
43.0614395004
 21
54.5299240879
 31
0.0
 12
42.4614395004
 22
54.5299240879
 32
0.0
 13
42.4614395004
 23
54.5299240879
 33
0.0
  0
LINE
  5
7D
330
78
100
AcDbEntity
  8
0
  6
Continuous
 62
     7
370
     0
100
AcDbLine
 10
56.6850079902
 20
152.0299240879
 30
0.0
 11
41.7614395004
 21
152.0299240879
 31
0.0
  0
LINE
  5
7E
330
78
100
AcDbEntity
  8
0
  6
Continuous
 62
     7
370
     0
100
AcDbLine
 10
56.6850079902
 20
52.0299240879
 30
0.0
 11
41.7614395004
 21
52.0299240879
 31
0.0
  0
LINE
  5
7F
330
78
100
AcDbEntity
  8
0
  6
Continuous
 62
     7
370
     0
100
AcDbLine
 10
42.7614395004
 20
152.0299240879
 30
0.0
 11
42.7614395004
 21
52.0299240879
 31
0.0
  0
MTEXT
  5
80
330
78
100
AcDbEntity
  8
0
  6
Continuous
 62
     7
370
    18
100
AcDbMText
 10
35.0270332946
 20
94.3680541463
 30
0.0
 40
6.0
 41
0.0
 71
     1
 72
     1
  1
100
  7
SLDTEXTSTYLE0
 11
-7.044195017643634E-15
 21
1.0
 31
0.0
 73
     1
 44
1.0
  0
MTEXT
  5
81
330
78
100
AcDbEntity
  8
0
  6
Continuous
 62
     7
370
    18
100
AcDbMText
 10
35.0270332946
 20
105.7430548466
 30
0.0
 40
6.0
 41
0.0
 71
     1
 72
     1
  1
mm
  7
SLDTEXTSTYLE0
 11
-7.044195017643634E-15
 21
1.0
 31
0.0
 73
     1
 44
1.0
  0
ENDBLK
  5
7A
330
78
100
AcDbEntity
  8
0
100
AcDbBlockEnd
  0
BLOCK
  5
84
330
83
100
AcDbEntity
  8
0
100
AcDbBlockBegin
  2
_D_1
 70
     0
 10
0.0
 20
0.0
 30
0.0
  3
_D_1
  1

  0
SOLID
  5
86
330
83
100
AcDbEntity
  8
0
  6
Continuous
 62
     7
370
    18
100
AcDbTrace
 10
56.6850079902
 20
38.4602342313
 30
0.0
 11
59.1850079902
 21
38.1602342313
 31
0.0
 12
59.1850079902
 22
38.7602342313
 32
0.0
 13
59.1850079902
 23
38.7602342313
 33
0.0
  0
SOLID
  5
87
330
83
100
AcDbEntity
  8
0
  6
Continuous
 62
     7
370
    18
100
AcDbTrace
 10
156.6850079902
 20
38.4602342313
 30
0.0
 11
154.1850079902
 21
38.7602342313
 31
0.0
 12
154.1850079902
 22
38.1602342313
 32
0.0
 13
154.1850079902
 23
38.1602342313
 33
0.0
  0
LINE
  5
88
330
83
100
AcDbEntity
  8
0
  6
Continuous
 62
     7
370
     0
100
AcDbLine
 10
56.6850079902
 20
52.0299240879
 30
0.0
 11
56.6850079902
 21
37.4602342313
 31
0.0
  0
LINE
  5
89
330
83
100
AcDbEntity
  8
0
  6
Continuous
 62
     7
370
     0
100
AcDbLine
 10
156.6850079902
 20
52.0299240879
 30
0.0
 11
156.6850079902
 21
37.4602342313
 31
0.0
  0
LINE
  5
8A
330
83
100
AcDbEntity
  8
0
  6
Continuous
 62
     7
370
     0
100
AcDbLine
 10
56.6850079902
 20
38.4602342313
 30
0.0
 11
156.6850079902
 21
38.4602342313
 31
0.0
  0
MTEXT
  5
8B
330
83
100
AcDbEntity
  8
0
  6
Continuous
 62
     7
370
    18
100
AcDbMText
 10
93.9626484861
 20
46.1946404371
 30
0.0
 40
6.0
 41
0.0
 71
     1
 72
     1
  1
100
  7
SLDTEXTSTYLE0
 73
     1
 44
1.0
  0
MTEXT
  5
8C
330
83
100
AcDbEntity
  8
0
  6
Continuous
 62
     7
370
    18
100
AcDbMText
 10
105.3376491864
 20
46.1946404371
 30
0.0
 40
6.0
 41
0.0
 71
     1
 72
     1
  1
mm
  7
SLDTEXTSTYLE0
 73
     1
 44
1.0
  0
ENDBLK
  5
85
330
83
100
AcDbEntity
  8
0
100
AcDbBlockEnd
  0
ENDSEC
  0
SECTION
  2
ENTITIES
  0
LINE
  5
73
330
1F
100
AcDbEntity
  8
0
  6
Continuous
 62
     7
370
    18
100
AcDbLine
 10
56.6850079902
 20
152.0299240879
 30
0.0
 11
56.6850079902
 21
52.0299240879
 31
0.0
  0
LINE
  5
74
330
1F
100
AcDbEntity
  8
0
  6
Continuous
 62
     7
370
    18
100
AcDbLine
 10
56.6850079902
 20
52.0299240879
 30
0.0
 11
156.6850079902
 21
52.0299240879
 31
0.0
  0
DIMENSION
  5
75
330
1F
100
AcDbEntity
  8
0
  6
Continuous
 62
     7
370
    18
100
AcDbDimension
  2
_D
 10
42.7614395004
 20
52.0299240879
 30
0.0
 11
42.7614395004
 21
105.4472211621
 31
0.0
 70
   160
  1
<>mm
 71
     2
 42
-1.0
  3
SLDDIMSTYLE0
100
AcDbAlignedDimension
 13
56.6850079902
 23
152.0299240879
 33
0.0
 14
56.6850079902
 24
52.0299240879
 34
0.0
 50
90.0
100
AcDbRotatedDimension
  0
DIMENSION
  5
82
330
1F
100
AcDbEntity
  8
0
  6
Continuous
 62
     7
370
    18
100
AcDbDimension
  2
_D_1
 10
156.6850079902
 20
38.4602342313
 30
0.0
 11
105.0418155019
 21
38.4602342313
 31
0.0
 70
   160
  1
<>mm
 71
     2
 42
-1.0
  3
SLDDIMSTYLE0
100
AcDbAlignedDimension
 13
56.6850079902
 23
52.0299240879
 33
0.0
 14
156.6850079902
 24
52.0299240879
 34
0.0
100
AcDbRotatedDimension
  0
MTEXT
  5
8E
330
1F
100
AcDbEntity
  8
0
  6
Continuous
 62
     7
370
     0
100
AcDbMText
 10
412.8252631579
 20
48.4342449499
 30
0.0
 40
10.0
 41
0.0
 71
     1
 72
     1
  1
KLUDI GmbH & Co KG
  7
SLDTEXTSTYLE1
 73
     1
 44
1.0
  0
MTEXT
  5
8F
330
1F
100
AcDbEntity
  8
0
  6
Continuous
 62
     7
370
     0
100
AcDbMText
 10
210.0873490389
 20
48.4342449499
 30
0.0
 40
10.0
 41
0.0
 71
     1
 72
     1
  1
20 850 05 25
  7
SLDTEXTSTYLE1
 73
     1
 44
1.0
  0
LWPOLYLINE
  5
90
330
1F
100
AcDbEntity
  8
0
  6
Continuous
 62
     7
370
    25
100
AcDbPolyline
 90
        3
 70
   128
 43
0.0
 10
160.1607870505
 20
380.4988354777
 10
160.1596862272
 20
380.4975306948
 10
160.1448549152
 20
380.4799212475
  0
ARC
  5
91
330
1F
100
AcDbEntity
  8
0
  6
Continuous
 62
     7
370
    25
100
AcDbCircle
 10
177.5806373478
 20
510.4127959386
 30
0.0
 40
1.185885385163733
100
AcDbArc
 50
219.9164700603
 51
266.3762629104
  0
ARC
  5
92
330
1F
100
AcDbEntity
  8
0
  6
Continuous
 62
     7
370
    25
100
AcDbCircle
 10
163.4498608604
 20
385.8052630281
 30
0.0
 40
0.5
100
AcDbArc
 50
180.000000312
 51
270.0
  0
ARC
  5
93
330
1F
100
AcDbEntity
  8
0
  6
Continuous
 62
     7
370
    25
100
AcDbCircle
 10
187.4498608604
 20
385.8052630281
 30
0.0
 40
0.5
100
AcDbArc
 50
270.0
 51
359.999999688
  0
ARC
  5
94
330
1F
100
AcDbEntity
  8
0
  6
Continuous
 62
     7
370
    25
100
AcDbCircle
 10
163.1498608604
 20
582.6052630281
 30
0.0
 40
0.1999999999999886
100
AcDbArc
 50
90.0
 51
180.0
  0
ARC
  5
95
330
1F
100
AcDbEntity
  8
0
  6
Continuous
 62
     7
370
    25
100
AcDbCircle
 10
187.7498608604
 20
582.6052630281
 30
0.0
 40
0.2000000000000455
100
AcDbArc
 50
0.0
 51
90.0
  0
LINE
  5
96
330
1F
100
AcDbEntity
  8
0
  6
Continuous
 62
     7
370
    25
100
AcDbLine
 10
162.9498606742
 20
582.6052666043
 30
0.0
 11
162.9498606742
 21
385.8052637761
 31
0.0
  0
LINE
  5
97
330
1F
100
AcDbEntity
  8
0
  6
Continuous
 62
     7
370
    25
100
AcDbLine
 10
187.9498610467
 20
385.8052637761
 30
0.0
 11
187.9498610467
 21
582.6052666043
 31
0.0
  0
LINE
  5
98
330
1F
100
AcDbEntity
  8
0
  6
Continuous
 62
     7
370
    25
100
AcDbLine
 10
187.7498604551
 20
582.8052699899
 30
0.0
 11
187.7328954831
 21
584.7493052815
 31
0.0
  0
LINE
  5
99
330
1F
100
AcDbEntity
  8
0
  6
Continuous
 62
     7
370
    25
100
AcDbLine
 10
163.1668262378
 20
584.7493052815
 30
0.0
 11
163.1498612658
 21
582.8052699899
 31
0.0
  0
ARC
  5
9A
330
1F
100
AcDbEntity
  8
0
  6
Continuous
 62
     7
370
    25
100
AcDbCircle
 10
187.232914455
 20
584.7449470761
 30
0.0
 40
0.4999999999999861
100
AcDbArc
 50
0.4999999944
 51
85.5256493744
  0
ARC
  5
9B
330
1F
100
AcDbEntity
  8
0
  6
Continuous
 62
     7
370
    25
100
AcDbCircle
 10
163.6668072659
 20
584.7449470761
 30
0.0
 40
0.5000000000000029
100
AcDbArc
 50
94.4743506256
 51
179.5000000056
  0
ARC
  5
9C
330
1F
100
AcDbEntity
  8
0
  6
Continuous
 62
     7
370
    25
100
AcDbCircle
 10
175.4498608604
 20
434.1652630281
 30
0.0
 40
151.5400000000128
100
AcDbArc
 50
85.5256493734
 51
90.0
  0
ARC
  5
9D
330
1F
100
AcDbEntity
  8
0
  6
Continuous
 62
     7
370
    25
100
AcDbCircle
 10
175.4498608604
 20
434.1652630281
 30
0.0
 40
151.5400000000128
100
AcDbArc
 50
90.0
 51
94.4743506266
  0
LINE
  5
9E
330
1F
100
AcDbEntity
  8
0
  6
Continuous
 62
     7
370
    25
100
AcDbLine
 10
186.9498608828
 20
380.6052632963
 30
0.0
 11
186.6819119275
 21
381.6052634602
 31
0.0
  0
LINE
  5
9F
330
1F
100
AcDbEntity
  8
0
  6
Continuous
 62
     7
370
    25
100
AcDbLine
 10
164.2178097934
 20
381.6052634602
 30
0.0
 11
163.9498608381
 21
380.6052632963
 31
0.0
  0
ARC
  5
A0
330
1F
100
AcDbEntity
  8
0
  6
Continuous
 62
     7
370
    25
100
AcDbCircle
 10
164.4998608604
 20
385.7052630281
 30
0.0
 40
0.5
100
AcDbArc
 50
234.4911699051
 51
270.0
  0
ARC
  5
A1
330
1F
100
AcDbEntity
  8
0
  6
Continuous
 62
     7
370
    25
100
AcDbCircle
 10
186.3998608604
 20
385.7052630281
 30
0.0
 40
0.5000000000000228
100
AcDbArc
 50
270.0
 51
305.278872595
  0
ARC
  5
A2
330
1F
100
AcDbEntity
  8
0
  6
Continuous
 62
     7
370
    25
100
AcDbCircle
 10
185.6583821082
 20
382.1512651869
 30
0.0
 40
0.2634895157660212
100
AcDbArc
 50
295.098746769
 51
65.0089963615
  0
LWPOLYLINE
  5
A3
330
1F
100
AcDbEntity
  8
0
  6
Continuous
 62
     7
370
    25
100
AcDbPolyline
 90
        3
 70
   128
 43
0.0
 10
166.1632504508
 20
382.0219055151
 10
165.6424120263
 20
381.7501716648
 10
165.4666351349
 20
381.6584801634
  0
LWPOLYLINE
  5
A4
330
1F
100
AcDbEntity
  8
0
  6
Continuous
 62
     7
370
    25
100
AcDbPolyline
 90
        3
 70
   128
 43
0.0
 10
185.7801579133
 20
382.3847031553
 10
185.2591257736
 20
382.6564370056
 10
184.7653608963
 20
382.9139942636
  0
ARC
  5
A5
330
1F
100
AcDbEntity
  8
0
  6
Continuous
 62
     7
370
    25
100
AcDbCircle
 10
165.1343608604
 20
384.2052630281
 30
0.0
 40
1.0
100
AcDbArc
 50
0.0
 51
90.0
  0
ARC
  5
A6
330
1F
100
AcDbEntity
  8
0
  6
Continuous
 62
     7
370
    25
100
AcDbCircle
 10
185.7653608604
 20
384.2052630281
 30
0.0
 40
1.0
100
AcDbArc
 50
90.0
 51
180.0
  0
LWPOLYLINE
  5
A7
330
1F
100
AcDbEntity
  8
0
  6
Continuous
 62
     7
370
    25
100
AcDbPolyline
 90
        3
 70
   128
 43
0.0
 10
185.0659284935
 20
381.5453151574
 10
185.2598522053
 20
381.6464595829
 10
185.7815027431
 20
381.9185240527
  0
LINE
  5
A8
330
1F
100
AcDbEntity
  8
0
  6
Continuous
 62
     7
370
    25
100
AcDbLine
 10
175.3253012828
 20
383.4641684179
 30
0.0
 11
175.3253093009
 21
383.4641684179
 31
0.0
  0
LINE
  5
A9
330
1F
100
AcDbEntity
  8
0
  6
Continuous
 62
     7
370
    25
100
AcDbLine
 10
175.5751926209
 20
383.4661018436
 30
0.0
 11
175.5751832059
 21
383.4661018436
 31
0.0
  0
LINE
  5
AA
330
1F
100
AcDbEntity
  8
0
  6
Continuous
 62
     7
370
    25
100
AcDbLine
 10
166.1343608246
 20
384.2052627688
 30
0.0
 11
166.1343608246
 21
382.0068329905
 31
0.0
  0
LINE
  5
AB
330
1F
100
AcDbEntity
  8
0
  6
Continuous
 62
     7
370
    25
100
AcDbLine
 10
184.7653608963
 20
382.9057567154
 30
0.0
 11
184.7653608963
 21
384.2052627688
 31
0.0
  0
LINE
  5
AC
330
1F
100
AcDbEntity
  8
0
  6
Continuous
 62
     7
370
    25
100
AcDbLine
 10
167.4498604805
 20
349.2749609386
 30
0.0
 11
167.4498604805
 21
343.7052626495
 31
0.0
  0
LINE
  5
AD
330
1F
100
AcDbEntity
  8
0
  6
Continuous
 62
     7
370
    25
100
AcDbLine
 10
183.4498612404
 20
343.7052626495
 30
0.0
 11
183.4498612404
 21
349.2749609386
 31
0.0
  0
LINE
  5
AE
330
1F
100
AcDbEntity
  8
0
  6
Continuous
 62
     7
370
    25
100
AcDbLine
 10
168.4498606444
 20
343.7052626495
 30
0.0
 11
168.4498606444
 21
258.7052598928
 31
0.0
  0
LINE
  5
AF
330
1F
100
AcDbEntity
  8
0
  6
Continuous
 62
     7
370
    25
100
AcDbLine
 10
182.4498610765
 20
258.7052598928
 30
0.0
 11
182.4498610765
 21
343.7052626495
 31
0.0
  0
ARC
  5
B0
330
1F
100
AcDbEntity
  8
0
  6
Continuous
 62
     7
370
    25
100
AcDbCircle
 10
175.4498608604
 20
367.605263028
 30
0.0
 40
19.99999999999998
100
AcDbArc
 50
142.4728673939
 51
37.5271326061
  0
ARC
  5
B1
330
1F
100
AcDbEntity
  8
0
  6
Continuous
 62
     7
370
    25
100
AcDbCircle
 10
190.5097413381
 20
380.305263028
 30
0.0
 40
0.3000000000000238
100
AcDbArc
 50
40.1409415161
 51
90.0
  0
ARC
  5
B2
330
1F
100
AcDbEntity
  8
0
  6
Continuous
 62
     7
370
    25
100
AcDbCircle
 10
175.4390764411
 20
367.5965964015
 30
0.0
 40
20.01383168824839
100
AcDbArc
 50
37.5280045301
 51
40.1400046396
  0
LINE
  5
B3
330
1F
100
AcDbEntity
  8
0
  6
Continuous
 62
     7
370
    25
100
AcDbLine
 10
160.3899799481
 20
380.6052632963
 30
0.0
 11
190.5097417727
 21
380.6052632963
 31
0.0
  0
ARC
  5
B4
330
1F
100
AcDbEntity
  8
0
  6
Continuous
 62
     7
370
    25
100
AcDbCircle
 10
175.4525385188
 20
367.60312233
 30
0.0
 40
20.00342731304138
100
AcDbArc
 50
139.8593159533
 51
142.472674877
  0
ARC
  5
B5
330
1F
100
AcDbEntity
  8
0
  6
Continuous
 62
     7
370
    25
100
AcDbCircle
 10
160.3899803828
 20
380.305263028
 30
0.0
 40
0.3000000000000114
100
AcDbArc
 50
90.0
 51
139.8590584839
  0
ARC
  5
B6
330
1F
100
AcDbEntity
  8
0
  6
Continuous
 62
     7
370
    25
100
AcDbCircle
 10
177.6055261993
 20
510.4411960657
 30
0.0
 40
1.224867472637214
100
AcDbArc
 50
220.2391871856
 51
97.0681147369
  0
ARC
  5
B7
330
1F
100
AcDbEntity
  8
0
  6
Continuous
 62
     7
370
    25
100
AcDbCircle
 10
173.2915444517
 20
565.6450106325
 30
0.0
 40
1.22419328022953
100
AcDbArc
 50
98.4967708766
 51
278.7389017765
  0
ARC
  5
B8
330
1F
100
AcDbEntity
  8
0
  6
Continuous
 62
     7
370
    25
100
AcDbCircle
 10
177.6081787772
 20
515.9655083565
 30
0.0
 40
1.22419328345321
100
AcDbArc
 50
278.4966994928
 51
98.7389731603
  0
ARC
  5
B9
330
1F
100
AcDbEntity
  8
0
  6
Continuous
 62
     7
370
    25
100
AcDbCircle
 10
173.2952601696
 20
554.5536137542
 30
0.0
 40
1.22687856977366
100
AcDbArc
 50
285.004047604
 51
105.0708011779
  0
ARC
  5
BA
330
1F
100
AcDbEntity
  8
0
  6
Continuous
 62
     7
370
    25
100
AcDbCircle
 10
177.6193327918
 20
510.5109451395
 30
0.0
 40
1.275116066555483
100
AcDbArc
 50
321.9057478828
 51
223.9311267445
  0
ARC
  5
BB
330
1F
100
AcDbEntity
  8
0
  6
Continuous
 62
     7
370
    25
100
AcDbCircle
 10
177.6101783828
 20
510.4937039831
 30
0.0
 40
1.271828691742316
100
AcDbArc
 50
252.3251029323
 51
322.7714876819
  0
CIRCLE
  5
BC
330
1F
100
AcDbEntity
  8
0
  6
Continuous
 62
     7
370
    25
100
AcDbCircle
 10
173.2845683679
 20
510.4863475611
 30
0.0
 40
1.272818441756445
  0
CIRCLE
  5
BD
330
1F
100
AcDbEntity
  8
0
  6
Continuous
 62
     7
370
    25
100
AcDbCircle
 10
173.2848599909
 20
516.0016356552
 30
0.0
 40
1.272770683452143
  0
CIRCLE
  5
BE
330
1F
100
AcDbEntity
  8
0
  6
Continuous
 62
     7
370
    25
100
AcDbCircle
 10
177.6098899025
 20
516.0182630419
 30
0.0
 40
1.281253209397999
  0
CIRCLE
  5
BF
330
1F
100
AcDbEntity
  8
0
  6
Continuous
 62
     7
370
    25
100
AcDbCircle
 10
173.2846579492
 20
521.5163449525
 30
0.0
 40
1.272984954174264
  0
CIRCLE
  5
C0
330
1F
100
AcDbEntity
  8
0
  6
Continuous
 62
     7
370
    25
100
AcDbCircle
 10
177.6133487949
 20
521.5287076781
 30
0.0
 40
1.279456243117565
  0
CIRCLE
  5
C1
330
1F
100
AcDbEntity
  8
0
  6
Continuous
 62
     7
370
    25
100
AcDbCircle
 10
173.2720246627
 20
560.0966271984
 30
0.0
 40
1.279966526921285
  0
CIRCLE
  5
C2
330
1F
100
AcDbEntity
  8
0
  6
Continuous
 62
     7
370
    25
100
AcDbCircle
 10
177.6166968893
 20
527.0890259657
 30
0.0
 40
1.277962902818387
  0
CIRCLE
  5
C3
330
1F
100
AcDbEntity
  8
0
  6
Continuous
 62
     7
370
    25
100
AcDbCircle
 10
177.6318643629
 20
554.5278729072
 30
0.0
 40
1.274286356217417
  0
CIRCLE
  5
C4
330
1F
100
AcDbEntity
  8
0
  6
Continuous
 62
     7
370
    25
100
AcDbCircle
 10
173.2840498099
 20
527.0805090156
 30
0.0
 40
1.273410371164798
  0
CIRCLE
  5
C5
330
1F
100
AcDbEntity
  8
0
  6
Continuous
 62
     7
370
    25
100
AcDbCircle
 10
173.274885358
 20
554.5350846102
 30
0.0
 40
1.278574041061071
  0
CIRCLE
  5
C6
330
1F
100
AcDbEntity
  8
0
  6
Continuous
 62
     7
370
    25
100
AcDbCircle
 10
173.2774766427
 20
549.1032536588
 30
0.0
 40
1.277313864975772
  0
CIRCLE
  5
C7
330
1F
100
AcDbEntity
  8
0
  6
Continuous
 62
     7
370
    25
100
AcDbCircle
 10
177.6197802006
 20
532.5189885216
 30
0.0
 40
1.276689134495177
  0
CIRCLE
  5
C8
330
1F
100
AcDbEntity
  8
0
  6
Continuous
 62
     7
370
    25
100
AcDbCircle
 10
173.2831136255
 20
532.514269137
 30
0.0
 40
1.274054587546344
  0
CIRCLE
  5
C9
330
1F
100
AcDbEntity
  8
0
  6
Continuous
 62
     7
370
    25
100
AcDbCircle
 10
177.6291397374
 20
549.0983493441
 30
0.0
 40
1.274498898957943
  0
CIRCLE
  5
CA
330
1F
100
AcDbEntity
  8
0
  6
Continuous
 62
     7
370
    25
100
AcDbCircle
 10
173.2817935099
 20
538.0475940023
 30
0.0
 40
1.274906320885242
  0
CIRCLE
  5
CB
330
1F
100
AcDbEntity
  8
0
  6
Continuous
 62
     7
370
    25
100
AcDbCircle
 10
177.6262739743
 20
543.5685347405
 30
0.0
 40
1.274825218467817
  0
CIRCLE
  5
CC
330
1F
100
AcDbEntity
  8
0
  6
Continuous
 62
     7
370
    25
100
AcDbCircle
 10
177.622795032
 20
538.0488477814
 30
0.0
 40
1.275683693203086
  0
CIRCLE
  5
CD
330
1F
100
AcDbEntity
  8
0
  6
Continuous
 62
     7
370
    25
100
AcDbCircle
 10
173.2797031883
 20
543.5709371598
 30
0.0
 40
1.276113961978911
  0
LINE
  5
CE
330
1F
100
AcDbEntity
  8
0
  6
Continuous
 62
     7
370
    25
100
AcDbLine
 10
163.4578449846
 20
385.3052627628
 30
0.0
 11
187.4178728283
 21
385.3052627628
 31
0.0
  0
LINE
  5
CF
330
1F
100
AcDbEntity
  8
0
  6
Continuous
 62
     7
370
    25
100
AcDbLine
 10
163.1498612658
 20
582.8052699899
 30
0.0
 11
187.7498604551
 21
582.8052699899
 31
0.0
  0
CIRCLE
  5
D0
330
1F
100
AcDbEntity
  8
0
  6
Continuous
 62
     7
370
    25
100
AcDbCircle
 10
168.9367541301
 20
538.0501635862
 30
0.0
 40
1.285491453294218
  0
CIRCLE
  5
D1
330
1F
100
AcDbEntity
  8
0
  6
Continuous
 62
     7
370
    25
100
AcDbCircle
 10
168.9260715362
 20
543.5400392528
 30
0.0
 40
1.287104300446032
  0
CIRCLE
  5
D2
330
1F
100
AcDbEntity
  8
0
  6
Continuous
 62
     7
370
    25
100
AcDbCircle
 10
168.9159537875
 20
549.0410866734
 30
0.0
 40
1.285963541263162
  0
LWPOLYLINE
  5
D3
330
1F
100
AcDbEntity
  8
0
  6
Continuous
 62
     7
370
    25
100
AcDbPolyline
 90
       20
 70
   128
 43
0.0
 10
169.4357088961
 20
553.3713490104
 10
169.8105825305
 20
553.6245793437
 10
170.0900202811
 20
554.0100425814
 10
170.2130205192
 20
554.4377953147
 10
170.1932909161
 20
554.8505723809
 10
170.0543292061
 20
555.2182585334
 10
169.8154766307
 20
555.5199921464
 10
169.4919062972
 20
555.736550722
 10
169.0976709321
 20
555.8443606232
 10
168.6541918859
 20
555.8108032082
 10
168.2074196831
 20
555.598714981
 10
167.8476330087
 20
555.2025229071
 10
167.6991303645
 20
554.8462659453
 10
167.6589037486
 20
554.4444263314
 10
167.72529075
 20
554.098749194
 10
167.8734520644
 20
553.7999064063
 10
168.1138832316
 20
553.5362005566
 10
168.4664237507
 20
553.3343047236
 10
168.9270912864
 20
553.2566100692
 10
169.4357088961
 20
553.3713490104
  0
LWPOLYLINE
  5
D4
330
1F
100
AcDbEntity
  8
0
  6
Continuous
 62
     7
370
    25
100
AcDbPolyline
 90
       20
 70
   128
 43
0.0
 10
169.4003270202
 20
558.901780877
 10
169.8457520649
 20
559.2094898557
 10
170.1150072001
 20
559.6175581549
 10
170.2183625855
 20
560.0516140794
 10
170.1796912782
 20
560.4624688958
 10
170.0243476041
 20
560.8213931655
 10
169.7728504621
 20
561.108940873
 10
169.4406425774
 20
561.3073796367
 10
169.0415731825
 20
561.3937020634
 10
168.5975483813
 20
561.3350957965
 10
168.1571422339
 20
561.0949933862
 10
167.8148551107
 20
560.6748998498
 10
167.6850715846
 20
560.3148728942
 10
167.6627054073
 20
559.9179357623
 10
167.7421835445
 20
559.5796346997
 10
167.9025042065
 20
559.288376603
 10
168.1560632967
 20
559.0358168219
 10
168.5213508278
 20
558.8521600102
 10
168.9890419327
 20
558.8009596204
 10
169.4003270202
 20
558.901780877
  0
LWPOLYLINE
  5
D5
330
1F
100
AcDbEntity
  8
0
  6
Continuous
 62
     7
370
    25
100
AcDbPolyline
 90
       21
 70
   128
 43
0.0
 10
170.0137957193
 20
564.9455279445
 10
170.1793560021
 20
565.3304398392
 10
170.217740462
 20
565.7555252646
 10
170.1257271886
 20
566.1486775016
 10
169.9267305628
 20
566.47781435
 10
169.6404550419
 20
566.7261422013
 10
169.2811279752
 20
566.876331005
 10
168.863321767
 20
566.9029891824
 10
168.4152689956
 20
566.7702645396
 10
168.0010548987
 20
566.4477587079
 10
167.7693721101
 20
566.0804152821
 10
167.6684004449
 20
565.7167971467
 10
167.6735106118
 20
565.3294861649
 10
167.7730610788
 20
565.0043428277
 10
167.9531709485
 20
564.7246778344
 10
168.2292354487
 20
564.4890457724
 10
168.6168365375
 20
564.3343270158
 10
169.0961347156
 20
564.3261462783
 10
169.5807828762
 20
564.5123213862
 10
169.9577752695
 20
564.8630649184
 10
170.0137957193
 20
564.9455279445
  0
LWPOLYLINE
  5
D6
330
1F
100
AcDbEntity
  8
0
  6
Continuous
 62
     7
370
    25
100
AcDbPolyline
 90
       21
 70
   128
 43
0.0
 10
169.9551191375
 20
570.3699380492
 10
170.152186063
 20
570.7508266305
 10
170.2212096386
 20
571.1843610143
 10
170.152821225
 20
571.5906709765
 10
169.9725465112
 20
571.9333380793
 10
169.7031577312
 20
572.1958220338
 10
169.3601693221
 20
572.3633855914
 10
168.956498728
 20
572.4143475627
 10
168.514207118
 20
572.3154336547
 10
168.0854336553
 20
572.0311045979
 10
167.8113659107
 20
571.660229597
 10
167.682009396
 20
571.2891161774
 10
167.6642742202
 20
570.8815992211
 10
167.7503912904
 20
570.5433875655
 10
167.9157122232
 20
570.2595353459
 10
168.1715283737
 20
570.0191349124
 10
168.5352890015
 20
569.850572977
 10
168.9982159257
 20
569.8140800332
 10
169.4895439975
 20
569.9657887553
 10
169.8959140301
 20
570.294761691
 10
169.9551191375
 20
570.3699380492
  0
LWPOLYLINE
  5
D7
330
1F
100
AcDbEntity
  8
0
  6
Continuous
 62
     7
370
    25
100
AcDbPolyline
 90
       20
 70
   128
 43
0.0
 10
183.092267365
 20
570.4237461423
 10
183.2129658394
 20
570.7462817763
 10
183.2413595364
 20
571.1023748254
 10
183.1792840928
 20
571.43929008
 10
183.0299856335
 20
571.7631668185
 10
182.7718658567
 20
572.0707416867
 10
182.3808333099
 20
572.3173857068
 10
181.8772341319
 20
572.4152863358
 10
181.3711450629
 20
572.2981483077
 10
180.9893051356
 20
572.0097661351
 10
180.7659222938
 20
571.6427207326
 10
180.6806224592
 20
571.2497026061
 10
180.7171582438
 20
570.8561033343
 10
180.8686723195
 20
570.4850346183
 10
181.129591652
 20
570.1641232108
 10
181.4896935791
 20
569.9265539979
 10
181.9283278853
 20
569.8115319346
 10
182.404257004
 20
569.8621660804
 10
182.8402905919
 20
570.1069772576
 10
183.092267365
 20
570.4237461423
  0
LWPOLYLINE
  5
D8
330
1F
100
AcDbEntity
  8
0
  6
Continuous
 62
     7
370
    25
100
AcDbPolyline
 90
       20
 70
   128
 43
0.0
 10
182.9539128773
 20
564.7333056067
 10
183.1433201403
 20
565.0418788527
 10
183.2372654423
 20
565.415093336
 10
183.2230176039
 20
565.7706648444
 10
183.1225958847
 20
566.0980433558
 10
182.9287615799
 20
566.4121300315
 10
182.6161100723
 20
566.6941941117
 10
182.1724764265
 20
566.8810844754
 10
181.6531527982
 20
566.8840647076
 10
181.188945771
 20
566.678786311
 10
180.8739021615
 20
566.3424074982
 10
180.7123186261
 20
565.9553796386
 10
180.6826238715
 20
565.5570268964
 10
180.7719200112
 20
565.1711762284
 10
180.9730242201
 20
564.8223251437
 10
181.2778544806
 20
564.5391434764
 10
181.6725322239
 20
564.3556505774
 10
182.1304649309
 20
564.3118709658
 10
182.5991199546
 20
564.4482612943
 10
182.9539128773
 20
564.7333056067
  0
LWPOLYLINE
  5
D9
330
1F
100
AcDbEntity
  8
0
  6
Continuous
 62
     7
370
    25
100
AcDbPolyline
 90
       20
 70
   128
 43
0.0
 10
182.9601415627
 20
559.2409909104
 10
183.1476591722
 20
559.5548242663
 10
183.2383075923
 20
559.9323451852
 10
183.219808732
 20
560.2888405656
 10
183.1152584598
 20
560.6137007808
 10
182.9178907171
 20
560.9221399163
 10
182.6031316266
 20
561.1954272126
 10
182.1600190558
 20
561.3714695309
 10
181.6435001053
 20
561.364629898
 10
181.1815059007
 20
561.152109537
 10
180.8677861661
 20
560.8092487191
 10
180.7090524778
 20
560.4167670344
 10
180.6841624163
 20
560.0159705018
 10
180.7787987598
 20
559.6317291592
 10
180.9840445601
 20
559.288287196
 10
181.2906396769
 20
559.0131819581
 10
181.6845146202
 20
558.8388085698
 10
182.1399187863
 20
558.8038057421
 10
182.6058268741
 20
558.9479893779
 10
182.9601415627
 20
559.2409909104
  0
LWPOLYLINE
  5
DA
330
1F
100
AcDbEntity
  8
0
  6
Continuous
 62
     7
370
    25
100
AcDbPolyline
 90
       20
 70
   128
 43
0.0
 10
182.9653797865
 20
553.7173837756
 10
183.1514468611
 20
554.0364772414
 10
183.2391718597
 20
554.4184983109
 10
183.2166594647
 20
554.7759920691
 10
183.1082469978
 20
555.0982892846
 10
182.9077150867
 20
555.4011255835
 10
182.5913042955
 20
555.6658745145
 10
182.149062977
 20
555.8316648339
 10
181.6352998101
 20
555.8157503938
 10
181.1751421735
 20
555.5964500045
 10
180.8623602808
 20
555.247256193
 10
180.7061691031
 20
554.8493206834
 10
180.6858066663
 20
554.4460654591
 10
180.7854749456
 20
554.0633887385
 10
180.9945158854
 20
553.7252515887
 10
181.3025415138
 20
553.4579098557
 10
181.6953682535
 20
553.2922089433
 10
182.1481502809
 20
553.2654613589
 10
182.6114250541
 20
553.4169018601
 10
182.9653797865
 20
553.7173837756
  0
LWPOLYLINE
  5
DB
330
1F
100
AcDbEntity
  8
0
  6
Continuous
 62
     7
370
    25
100
AcDbPolyline
 90
       20
 70
   128
 43
0.0
 10
182.9720811181
 20
548.2355296944
 10
183.1559726231
 20
548.5600471829
 10
183.2400710516
 20
548.9464044904
 10
183.2130762011
 20
549.3046135043
 10
183.1004457742
 20
549.6241689061
 10
182.8963552796
 20
549.9212533568
 10
182.5778038435
 20
550.1772553061
 10
182.1359411076
 20
550.3323167895
 10
181.6247833155
 20
550.3065079783
 10
181.1669474662
 20
550.0795781945
 10
180.8559187882
 20
549.7235745524
 10
180.7030403249
 20
549.3200362061
 10
180.6878620953
 20
548.9143669938
 10
180.7931010805
 20
548.5334486102
 10
181.0063627743
 20
548.2008695935
 10
181.3161714197
 20
547.9416638945
 10
181.7082563609
 20
547.7850973939
 10
182.1586220719
 20
547.7672458028
 10
182.6191736579
 20
547.9268670415
 10
182.9720811181
 20
548.2355296944
  0
CIRCLE
  5
DC
330
1F
100
AcDbEntity
  8
0
  6
Continuous
 62
     7
370
    25
100
AcDbCircle
 10
181.9576628414
 20
543.5334151358
 30
0.0
 40
1.284796282211073
  0
CIRCLE
  5
DD
330
1F
100
AcDbEntity
  8
0
  6
Continuous
 62
     7
370
    25
100
AcDbCircle
 10
181.947463009
 20
538.0540088397
 30
0.0
 40
1.289123447232657
  0
CIRCLE
  5
DE
330
1F
100
AcDbEntity
  8
0
  6
Continuous
 62
     7
370
    25
100
AcDbCircle
 10
181.9389016036
 20
532.557877532
 30
0.0
 40
1.29315824197357
  0
LWPOLYLINE
  5
DF
330
1F
100
AcDbEntity
  8
0
  6
Continuous
 62
     7
370
    25
100
AcDbPolyline
 90
       20
 70
   128
 43
0.0
 10
183.0079090976
 20
526.3387799596
 10
183.1781311155
 20
526.6866326665
 10
183.2426792205
 20
527.0896643733
 10
183.1941982925
 20
527.4481416081
 10
183.0622405939
 20
527.7541518544
 10
182.8417089962
 20
528.0256957148
 10
182.5123868145
 20
528.2437742089
 10
182.0701059148
 20
528.3520162438
 10
181.5689631001
 20
528.2810718154
 10
181.1231762365
 20
528.0174702739
 10
180.8242915392
 20
527.6298910712
 10
180.6902965725
 20
527.2020191287
 10
180.7010272712
 20
526.7870664929
 10
180.8324927658
 20
526.4155656432
 10
181.0650263176
 20
526.1087209319
 10
181.3832243167
 20
525.8856505488
 10
181.773146727
 20
525.769466195
 10
182.2143146962
 20
525.79211596
 10
182.6631847032
 20
525.9910613631
 10
183.0079090976
 20
526.3387799596
  0
LWPOLYLINE
  5
E0
330
1F
100
AcDbEntity
  8
0
  6
Continuous
 62
     7
370
    25
100
AcDbPolyline
 90
       20
 70
   128
 43
0.0
 10
183.0212968596
 20
520.8274066781
 10
183.1853949659
 20
521.1806536053
 10
183.2427770093
 20
521.5861738061
 10
183.1877172187
 20
521.9432056283
 10
183.0500719332
 20
522.2450286483
 10
182.8244138703
 20
522.5097030734
 10
182.491109819
 20
522.7176338767
 10
182.0474673257
 20
522.8128522967
 10
181.5485326767
 20
522.7284670209
 10
181.1072203525
 20
522.4535703992
 10
180.8139240563
 20
522.057065401
 10
180.6871235565
 20
521.623232994
 10
180.7062575788
 20
521.2067306374
 10
180.8455960088
 20
520.8386868571
 10
181.083804109
 20
520.5393672322
 10
181.4047918849
 20
520.3263551329
 10
181.794898697
 20
520.221436057
 10
182.2343688652
 20
520.2559322451
 10
182.6801338427
 20
520.4672009085
 10
183.0212968596
 20
520.8274066781
  0
LWPOLYLINE
  5
E1
330
1F
100
AcDbEntity
  8
0
  6
Continuous
 62
     7
370
    25
100
AcDbPolyline
 90
       20
 70
   128
 43
0.0
 10
183.0302869164
 20
515.3398156499
 10
183.1905069955
 20
515.6984716986
 10
183.2426587314
 20
516.1075532769
 10
183.1822214842
 20
516.4639443492
 10
183.0399987482
 20
516.7619526719
 10
182.8106004939
 20
517.0201450919
 10
182.4749602199
 20
517.2189563845
 10
182.0313098103
 20
517.3031777476
 10
181.5346322216
 20
517.208093438
 10
181.0962889538
 20
516.924017701
 10
180.806481392
 20
516.5195107793
 10
180.6849577658
 20
516.0797626113
 10
180.7108732134
 20
515.6614125108
 10
180.8566424258
 20
515.2962446545
 10
181.0991951459
 20
515.0036007499
 10
181.4217936442
 20
514.7994250392
 10
181.8111637801
 20
514.7041172122
 10
182.2484737456
 20
514.7483587598
 10
182.6915402159
 20
514.9695217942
 10
183.0302869164
 20
515.3398156499
  0
LWPOLYLINE
  5
E2
330
1F
100
AcDbEntity
  8
0
  6
Continuous
 62
     7
370
    25
100
AcDbPolyline
 90
       20
 70
   128
 43
0.0
 10
183.0519145549
 20
509.8837554787
 10
183.2008493327
 20
510.2468222712
 10
183.241562099
 20
510.6551140879
 10
183.1721394517
 20
511.0072881316
 10
183.0222542592
 20
511.2995148038
 10
182.7853951797
 20
511.54931787
 10
182.4431043312
 20
511.7355972861
 10
181.9959693782
 20
511.8029058312
 10
181.5015968129
 20
511.6893142794
 10
181.0708349765
 20
511.3895923232
 10
180.7913813934
 20
510.9741479491
 10
180.6817260765
 20
510.5285436248
 10
180.7198283457
 20
510.1102233266
 10
180.8762039252
 20
509.7508222197
 10
181.1263310917
 20
509.4683260058
 10
181.4531875968
 20
509.2769354914
 10
181.8440059394
 20
509.196096692
 10
182.280386445
 20
509.256371889
 10
182.7195483454
 20
509.4951629971
 10
183.0519145549
 20
509.8837554787
  0
LWPOLYLINE
  5
E3
330
1F
100
AcDbEntity
  8
0
  6
Continuous
 62
     7
370
    25
100
AcDbPolyline
 90
       20
 70
   128
 43
0.0
 10
169.9940055803
 20
509.7067892884
 10
170.1647859261
 20
510.056832466
 10
170.2211709887
 20
510.4499698018
 10
170.1583672509
 20
510.8406633471
 10
169.9817009464
 20
511.2030595874
 10
169.697342553
 20
511.5083396767
 10
169.3172740013
 20
511.7220074271
 10
168.8656435542
 20
511.80353168
 10
168.3904171184
 20
511.7104143237
 10
167.9779967487
 20
511.4239096974
 10
167.770969794
 20
511.1142933701
 10
167.6644926153
 20
510.7308715915
 10
167.6726062976
 20
510.3745401238
 10
167.7672552139
 20
510.0444794034
 10
167.9554699183
 20
509.7245663737
 10
168.2633917041
 20
509.4326526259
 10
168.7051803999
 20
509.2320531939
 10
169.2270493329
 20
509.214961562
 10
169.6957988859
 20
509.4095558261
 10
169.9940055803
 20
509.7067892884
  0
LWPOLYLINE
  5
E4
330
1F
100
AcDbEntity
  8
0
  6
Continuous
 62
     7
370
    25
100
AcDbPolyline
 90
       20
 70
   128
 43
0.0
 10
169.9697991096
 20
515.1868701314
 10
170.1524659254
 20
515.533128414
 10
170.2209875182
 20
515.9273535346
 10
170.1685619735
 20
516.3196564053
 10
170.0022119291
 20
516.6831404303
 10
169.7291723647
 20
516.9905662869
 10
169.3609250903
 20
517.2097474669
 10
168.9189580463
 20
517.3025071954
 10
168.445709274
 20
517.2268987035
 10
168.0205968403
 20
516.9578582381
 10
167.7934402794
 20
516.6480034922
 10
167.6695222229
 20
516.2549406623
 10
167.6687720426
 20
515.8909798001
 10
167.7565175303
 20
515.5609041785
 10
167.9348266878
 20
515.2445972298
 10
168.2279576742
 20
514.9548292493
 10
168.6530803524
 20
514.7478521203
 10
169.1683434144
 20
514.7127747868
 10
169.6492676817
 20
514.8899346923
 10
169.9697991096
 20
515.1868701314
  0
LWPOLYLINE
  5
E5
330
1F
100
AcDbEntity
  8
0
  6
Continuous
 62
     7
370
    25
100
AcDbPolyline
 90
       21
 70
   128
 43
0.0
 10
169.9485994138
 20
520.6822991704
 10
170.1414637462
 20
521.0261881684
 10
170.2201139376
 20
521.4222163295
 10
170.1758290835
 20
521.8164265488
 10
170.0173296228
 20
522.1806258296
 10
169.7531567149
 20
522.4888861512
 10
169.3947120764
 20
522.7111220692
 10
168.9615027242
 20
522.8114068841
 10
168.4914805189
 20
522.7487773036
 10
168.0577798941
 20
522.4939972495
 10
167.8129640602
 20
522.1828610038
 10
167.6871856869
 20
521.848329935
 10
167.6599133022
 20
521.4781254863
 10
167.726559677
 20
521.1421192025
 10
167.8792067066
 20
520.8262145852
 10
168.1374713041
 20
520.5320209597
 10
168.5237853051
 20
520.3013211821
 10
169.0197886162
 20
520.215982232
 10
169.5233184107
 20
520.3397512769
 10
169.9096529007
 20
520.6354797219
 10
169.9485994138
 20
520.6822991704
  0
LWPOLYLINE
  5
E6
330
1F
100
AcDbEntity
  8
0
  6
Continuous
 62
     7
370
    25
100
AcDbPolyline
 90
       21
 70
   128
 43
0.0
 10
169.9275957615
 20
526.2088567351
 10
170.1303991683
 20
526.5510320996
 10
170.2187486187
 20
526.949399743
 10
170.1819027037
 20
527.3459643458
 10
170.0302815259
 20
527.7110576962
 10
169.7739037879
 20
528.0198395585
 10
169.4243528143
 20
528.2442212437
 10
168.9995537706
 20
528.3504963254
 10
168.5335362524
 20
528.2989234065
 10
168.0934816793
 20
528.0572563742
 10
167.8316612922
 20
527.7443468903
 10
167.6947913327
 20
527.4075806474
 10
167.6586723149
 20
527.0300746297
 10
167.7201153905
 20
526.6912371253
 10
167.8663097516
 20
526.3775974845
 10
168.1143251442
 20
526.0867119168
 10
168.4868881673
 20
525.855162773
 10
168.9723600828
 20
525.7596612309
 10
169.4792621963
 20
525.8682310914
 10
169.8811190397
 20
526.1560172175
 10
169.9275957615
 20
526.2088567351
  0
CIRCLE
  5
E7
330
1F
100
AcDbEntity
  8
0
  6
Continuous
 62
     7
370
    25
100
AcDbCircle
 10
168.9452138875
 20
532.5448182357
 30
0.0
 40
1.284398198663145
  0
LINE
  5
E8
330
1F
100
AcDbEntity
  8
0
  6
Continuous
 62
     7
370
    25
100
AcDbLine
 10
175.4498608605
 20
585.2434277867
 30
0.0
 11
175.5545922967
 21
585.2434277867
 31
0.0
  0
ARC
  5
E9
330
1F
100
AcDbEntity
  8
0
  6
Continuous
 62
     7
370
    25
100
AcDbCircle
 10
168.9946200251
 20
521.4619177695
 30
0.0
 40
1.223515785388636
100
AcDbArc
 50
267.8755549177
 51
1.2007855126
  0
ARC
  5
EA
330
1F
100
AcDbEntity
  8
0
  6
Continuous
 62
     7
370
    25
100
AcDbCircle
 10
168.9887152276
 20
521.4653415063
 30
0.0
 40
1.225069979383828
100
AcDbArc
 50
60.8891609976
 51
241.0718472925
  0
CIRCLE
  5
EB
330
1F
100
AcDbEntity
  8
0
  6
Continuous
 62
     7
370
    25
100
AcDbCircle
 10
181.9173376341
 20
560.1628430787
 30
0.0
 40
0.4493838052400759
  0
CIRCLE
  5
EC
330
1F
100
AcDbEntity
  8
0
  6
Continuous
 62
     7
370
    25
100
AcDbCircle
 10
168.9802062654
 20
521.4471403458
 30
0.0
 40
0.4493812649082398
  0
CIRCLE
  5
ED
330
1F
100
AcDbEntity
  8
0
  6
Continuous
 62
     7
370
    25
100
AcDbCircle
 10
168.9820910115
 20
560.1625897938
 30
0.0
 40
0.4496364753988791
  0
CIRCLE
  5
EE
330
1F
100
AcDbEntity
  8
0
  6
Continuous
 62
     7
370
    25
100
AcDbCircle
 10
168.9819350023
 20
554.6017628884
 30
0.0
 40
0.4497521056587441
  0
CIRCLE
  5
EF
330
1F
100
AcDbEntity
  8
0
  6
Continuous
 62
     7
370
    25
100
AcDbCircle
 10
181.9190279543
 20
527.0083365174
 30
0.0
 40
0.4497445680337967
  0
ARC
  5
F0
330
1F
100
AcDbEntity
  8
0
  6
Continuous
 62
     7
370
    25
100
AcDbCircle
 10
168.9901336567
 20
532.5377847175
 30
0.0
 40
1.227011290015377
100
AcDbArc
 50
38.6423095589
 51
218.6960793737
  0
ARC
  5
F1
330
1F
100
AcDbEntity
  8
0
  6
Continuous
 62
     7
370
    25
100
AcDbCircle
 10
181.9085167575
 20
532.5364483629
 30
0.0
 40
1.227009631494421
100
AcDbArc
 50
141.3133556576
 51
321.3659547348
  0
ARC
  5
F2
330
1F
100
AcDbEntity
  8
0
  6
Continuous
 62
     7
370
    25
100
AcDbCircle
 10
181.9085188485
 20
549.0740735848
 30
0.0
 40
1.227010452809451
100
AcDbArc
 50
38.6418413439
 51
218.6957190062
  0
ARC
  5
F3
330
1F
100
AcDbEntity
  8
0
  6
Continuous
 62
     7
370
    25
100
AcDbCircle
 10
168.9901310967
 20
549.0727380859
 30
0.0
 40
1.227009339512444
100
AcDbArc
 50
141.3138957125
 51
321.3662840262
  0
LINE
  5
F4
330
1F
100
AcDbEntity
  8
0
  6
Continuous
 62
     7
370
    25
100
AcDbLine
 10
164.2178097934
 20
381.6052634602
 30
0.0
 11
186.6819119275
 21
381.6052634602
 31
0.0
  0
LWPOLYLINE
  5
F5
330
1F
100
AcDbEntity
  8
0
  6
Continuous
 62
     7
370
    25
100
AcDbPolyline
 90
       32
 70
   128
 43
0.0
 10
185.7692251176
 20
382.3823524972
 10
185.787193124
 20
382.361587729
 10
185.7079692379
 20
382.3346818199
 10
185.5075113669
 20
382.3036846106
 10
185.1501098097
 20
382.268592376
 10
184.5428772465
 20
382.227008823
 10
183.5221942708
 20
382.1762172838
 10
182.7165317916
 20
382.1431758215
 10
181.9007584088
 20
382.112717848
 10
181.1081744925
 20
382.0848442947
 10
180.5060884178
 20
382.0646457707
 10
179.9010416687
 20
382.0453366597
 10
179.2979169365
 20
382.0269206871
 10
178.7009997022
 20
382.0093987842
 10
178.1140187484
 20
381.992768157
 10
177.0340336914
 20
381.9629621093
 10
176.692856239
 20
381.9536060427
 10
176.3284897277
 20
381.9434648712
 10
175.7264845034
 20
381.9262931456
 10
174.8340973243
 20
381.9006063377
 10
173.0903362584
 20
381.8503773173
 10
171.62737378
 20
381.8081334566
 10
170.5847653754
 20
381.7772880529
 10
169.7672038533
 20
381.7511476909
 10
168.8191724204
 20
381.7170184438
 10
168.3463711486
 20
381.698561493
 10
167.9607211806
 20
381.6828975787
 10
167.6536287375
 20
381.6700350826
 10
167.2941740796
 20
381.6545686086
 10
167.0085840121
 20
381.6415757273
 10
166.6710009992
 20
381.6250726913
 10
166.3071733162
 20
381.6052606662
  0
ARC
  5
F6
330
1F
100
AcDbEntity
  8
0
  6
Continuous
 62
     7
370
    25
100
AcDbCircle
 10
179.6203070121
 20
442.0923418864
 30
0.0
 40
60.48730241448796
100
AcDbArc
 50
270.1674910457
 51
275.8418484359
  0
LWPOLYLINE
  5
F7
330
1F
100
AcDbEntity
  8
0
  6
Continuous
 62
     7
370
    25
100
AcDbPolyline
 90
       11
 70
   128
 43
0.0
 10
166.1661869109
 20
382.0155892854
 10
166.8242426783
 20
382.112460803
 10
168.4760852911
 20
382.2075125163
 10
170.9146836035
 20
382.3071612378
 10
173.8653115424
 20
382.4024746527
 10
175.4498722753
 20
382.4535772537
 10
177.9384099607
 20
382.5305976306
 10
180.770672039
 20
382.6285504137
 10
183.0026010245
 20
382.7251863067
 10
184.3821915061
 20
382.8236652871
 10
184.6994130135
 20
382.9057567154
  0
LINE
  5
F8
330
1F
100
AcDbEntity
  8
0
  6
Continuous
 62
     7
370
    25
100
AcDbLine
 10
176.1581943099
 20
384.3052607362
 30
0.0
 11
175.9456972902
 21
384.3052607362
 31
0.0
  0
LINE
  5
F9
330
1F
100
AcDbEntity
  8
0
  6
Continuous
 62
     7
370
    25
100
AcDbLine
 10
175.9456942052
 20
384.3052495604
 30
0.0
 11
175.9456942634
 21
384.2111021613
 31
0.0
  0
LWPOLYLINE
  5
FA
330
1F
100
AcDbEntity
  8
0
  6
Continuous
 62
     7
370
    25
100
AcDbPolyline
 90
        9
 70
   128
 43
0.0
 10
175.9456942634
 20
384.2111021613
 10
175.9456940888
 20
384.2103720044
 10
175.945693856
 20
384.2096418475
 10
175.9456937395
 20
384.2089135532
 10
175.9456936231
 20
384.2081833963
 10
175.9456935067
 20
384.2074532394
 10
175.9456934485
 20
384.2067230825
 10
175.9456933903
 20
384.2059929256
 10
175.9456937395
 20
384.2052627688
  0
LWPOLYLINE
  5
FB
330
1F
100
AcDbEntity
  8
0
  6
Continuous
 62
     7
370
    25
100
AcDbPolyline
 90
        3
 70
   128
 43
0.0
 10
175.1214754729
 20
384.2052627688
 10
175.0953428234
 20
384.2479639088
 10
175.0602776262
 20
384.3052625989
  0
LINE
  5
FC
330
1F
100
AcDbEntity
  8
0
  6
Continuous
 62
     7
370
    25
100
AcDbLine
 10
175.0602776262
 20
384.3052625989
 30
0.0
 11
174.7415275274
 21
384.3052625989
 31
0.0
  0
LWPOLYLINE
  5
FD
330
1F
100
AcDbEntity
  8
0
  6
Continuous
 62
     7
370
    25
100
AcDbPolyline
 90
        4
 70
   128
 43
0.0
 10
175.4498610627
 20
383.2577724342
 10
175.2412471067
 20
383.6034681981
 10
175.0949691593
 20
383.8458653872
 10
174.9487048908
 20
384.0882420873
  0
LINE
  5
FE
330
1F
100
AcDbEntity
  8
0
  6
Continuous
 62
     7
370
    25
100
AcDbLine
 10
175.4498610627
 20
383.2577724342
 30
0.0
 11
175.4498616011
 21
383.2577724342
 31
0.0
  0
LINE
  5
FF
330
1F
100
AcDbEntity
  8
0
  6
Continuous
 62
     7
370
    25
100
AcDbLine
 10
175.4498608424
 20
383.6686682289
 30
0.0
 11
175.4498607863
 21
383.6686682289
 31
0.0
  0
LWPOLYLINE
  5
100
330
1F
100
AcDbEntity
  8
0
  6
Continuous
 62
     7
370
    25
100
AcDbPolyline
 90
        4
 70
   128
 43
0.0
 10
175.9510168883
 20
382.8584548419
 10
175.7372872632
 20
383.2040462976
 10
175.5935919316
 20
383.43634795
 10
175.4498607863
 20
383.6686682289
  0
LWPOLYLINE
  5
101
330
1F
100
AcDbEntity
  8
0
  6
Continuous
 62
     7
370
    25
100
AcDbPolyline
 90
        3
 70
   128
 43
0.0
 10
175.843626286
 20
382.6052626928
 10
175.6350487665
 20
382.9508979206
 10
175.4498610627
 20
383.2577724342
  0
LINE
  5
102
330
1F
100
AcDbEntity
  8
0
  6
Continuous
 62
     7
370
    25
100
AcDbLine
 10
175.839444182
 20
382.6052626928
 30
0.0
 11
175.843626286
 21
382.6052626928
 31
0.0
  0
LWPOLYLINE
  5
103
330
1F
100
AcDbEntity
  8
0
  6
Continuous
 62
     7
370
    25
100
AcDbPolyline
 90
        3
 70
   128
 43
0.0
 10
175.839444182
 20
382.6052626928
 10
175.6324969572
 20
382.951877672
 10
175.5466778302
 20
383.0956152042
  0
LINE
  5
104
330
1F
100
AcDbEntity
  8
0
  6
Continuous
 62
     7
370
    25
100
AcDbLine
 10
175.1214754729
 20
384.2052627688
 30
0.0
 11
175.1179503005
 21
384.2052627688
 31
0.0
  0
LWPOLYLINE
  5
105
330
1F
100
AcDbEntity
  8
0
  6
Continuous
 62
     7
370
    25
100
AcDbPolyline
 90
        4
 70
   128
 43
0.0
 10
175.1214754729
 20
384.2052627688
 10
175.227595955
 20
384.0318579559
 10
175.3387242531
 20
383.850270543
 10
175.3682534288
 20
383.8020187204
  0
LWPOLYLINE
  5
106
330
1F
100
AcDbEntity
  8
0
  6
Continuous
 62
     7
370
    25
100
AcDbPolyline
 90
        4
 70
   128
 43
0.0
 10
175.4498607863
 20
383.6686682289
 10
175.342919774
 20
383.8415943419
 10
175.2304416693
 20
384.0234369372
 10
175.1179503005
 20
384.2052627688
  0
LINE
  5
107
330
1F
100
AcDbEntity
  8
0
  6
Continuous
 62
     7
370
    25
100
AcDbLine
 10
175.9510168301
 20
384.2052627688
 30
0.0
 11
175.9510168883
 21
382.8584548419
 31
0.0
  0
LINE
  5
108
330
1F
100
AcDbEntity
  8
0
  6
Continuous
 62
     7
370
    25
100
AcDbLine
 10
176.1657979766
 20
382.6052626928
 30
0.0
 11
176.1657979766
 21
384.2052627688
 31
0.0
  0
LINE
  5
109
330
1F
100
AcDbEntity
  8
0
  6
Continuous
 62
     7
370
    25
100
AcDbLine
 10
175.843626286
 20
382.6052626928
 30
0.0
 11
176.1657979766
 21
382.6052626928
 31
0.0
  0
LINE
  5
10A
330
1F
100
AcDbEntity
  8
0
  6
Continuous
 62
     7
370
    25
100
AcDbLine
 10
174.9487048908
 20
382.6052626928
 30
0.0
 11
174.9487048908
 21
384.0882420873
 31
0.0
  0
LINE
  5
10B
330
1F
100
AcDbEntity
  8
0
  6
Continuous
 62
     7
370
    25
100
AcDbLine
 10
174.7339237443
 20
382.6052626928
 30
0.0
 11
174.9487048908
 21
382.6052626928
 31
0.0
  0
LINE
  5
10C
330
1F
100
AcDbEntity
  8
0
  6
Continuous
 62
     7
370
    25
100
AcDbLine
 10
174.7339237443
 20
382.6052626928
 30
0.0
 11
174.7339237443
 21
384.2052627688
 31
0.0
  0
LINE
  5
10D
330
1F
100
AcDbEntity
  8
0
  6
Continuous
 62
     7
370
    25
100
AcDbLine
 10
175.056118718
 20
384.2952639197
 30
0.0
 11
174.7339659448
 21
384.2952639197
 31
0.0
  0
LWPOLYLINE
  5
10E
330
1F
100
AcDbEntity
  8
0
  6
Continuous
 62
     7
370
    25
100
AcDbPolyline
 90
        3
 70
   128
 43
0.0
 10
175.1179503005
 20
384.2052627688
 10
175.0870424691
 20
384.2502419238
 10
175.056118718
 20
384.2952639197
  0
LINE
  5
10F
330
1F
100
AcDbEntity
  8
0
  6
Continuous
 62
     7
370
    25
100
AcDbLine
 10
174.7339659448
 20
384.2952639197
 30
0.0
 11
174.7339237443
 21
384.2052627688
 31
0.0
  0
LINE
  5
110
330
1F
100
AcDbEntity
  8
0
  6
Continuous
 62
     7
370
    25
100
AcDbLine
 10
174.7415275274
 20
384.3052625989
 30
0.0
 11
174.7339659448
 21
384.2952639197
 31
0.0
  0
LINE
  5
111
330
1F
100
AcDbEntity
  8
0
  6
Continuous
 62
     7
370
    25
100
AcDbLine
 10
175.056118718
 20
384.2952639197
 30
0.0
 11
175.0602776262
 21
384.3052625989
 31
0.0
  0
LINE
  5
112
330
1F
100
AcDbEntity
  8
0
  6
Continuous
 62
     7
370
    25
100
AcDbLine
 10
175.9456943216
 20
384.3052607362
 30
0.0
 11
175.9509873188
 21
384.2952601944
 31
0.0
  0
LINE
  5
113
330
1F
100
AcDbEntity
  8
0
  6
Continuous
 62
     7
370
    25
100
AcDbLine
 10
175.9509873188
 20
384.2952601944
 30
0.0
 11
175.9510168301
 21
384.2052627688
 31
0.0
  0
LINE
  5
114
330
1F
100
AcDbEntity
  8
0
  6
Continuous
 62
     7
370
    25
100
AcDbLine
 10
176.1657557761
 20
384.2952601944
 30
0.0
 11
175.9509873188
 21
384.2952601944
 31
0.0
  0
LINE
  5
115
330
1F
100
AcDbEntity
  8
0
  6
Continuous
 62
     7
370
    25
100
AcDbLine
 10
176.1657979766
 20
384.2052627688
 30
0.0
 11
176.1657557761
 21
384.2952601944
 31
0.0
  0
LINE
  5
116
330
1F
100
AcDbEntity
  8
0
  6
Continuous
 62
     7
370
    25
100
AcDbLine
 10
176.1657557761
 20
384.2952601944
 30
0.0
 11
176.1581943099
 21
384.3052607362
 31
0.0
  0
LINE
  5
117
330
1F
100
AcDbEntity
  8
0
  6
Continuous
 62
     7
370
    25
100
AcDbLine
 10
174.9540275157
 20
384.0794224625
 30
0.0
 11
174.9540275739
 21
382.6052626928
 31
0.0
  0
LINE
  5
118
330
1F
100
AcDbEntity
  8
0
  6
Continuous
 62
     7
370
    25
100
AcDbLine
 10
174.9540275739
 20
382.6052626928
 30
0.0
 11
174.9487048908
 21
382.6052626928
 31
0.0
  0
LINE
  5
119
330
1F
100
AcDbEntity
  8
0
  6
Continuous
 62
     7
370
    25
100
AcDbLine
 10
175.9456937395
 20
384.2052627688
 30
0.0
 11
175.9456942052
 21
382.8670611938
 31
0.0
  0
LINE
  5
11A
330
1F
100
AcDbEntity
  8
0
  6
Continuous
 62
     7
370
    25
100
AcDbLine
 10
167.4859855518
 20
349.2592364882
 30
0.0
 11
167.6776130878
 21
349.1772372608
 31
0.0
  0
LINE
  5
11B
330
1F
100
AcDbEntity
  8
0
  6
Continuous
 62
     7
370
    25
100
AcDbLine
 10
167.4498604805
 20
343.7052626495
 30
0.0
 11
183.4498612404
 21
343.7052626495
 31
0.0
  0
LINE
  5
11C
330
1F
100
AcDbEntity
  8
0
  6
Continuous
 62
     7
370
    25
100
AcDbLine
 10
168.4498606444
 20
258.7052598928
 30
0.0
 11
182.4498610765
 21
258.7052598928
 31
0.0
  0
ARC
  5
11D
330
1F
100
AcDbEntity
  8
0
  6
Continuous
 62
     7
370
    25
100
AcDbCircle
 10
176.8231391295
 20
368.870626913
 30
0.0
 40
18.02844371992193
100
AcDbArc
 50
40.6091674348
 51
62.8008803806
  0
ARC
  5
11E
330
1F
100
AcDbEntity
  8
0
  6
Continuous
 62
     7
370
    25
100
AcDbCircle
 10
174.1340589012
 20
368.7799118048
 30
0.0
 40
18.13115120900715
100
AcDbArc
 50
117.2021468738
 51
139.2914265428
  0
ARC
  5
11F
330
1F
100
AcDbEntity
  8
0
  6
Continuous
 62
     7
370
    25
100
AcDbCircle
 10
174.3972663291
 20
368.7410266155
 30
0.0
 40
18.46411434536729
100
AcDbArc
 50
118.1673585004
 51
140.4476343806
  0
ARC
  5
120
330
1F
100
AcDbEntity
  8
0
  6
Continuous
 62
     7
370
    25
100
AcDbCircle
 10
176.4881018672
 20
368.7381611019
 30
0.0
 40
18.47700753948884
100
AcDbArc
 50
39.5308742091
 51
61.7960925265
  0
ARC
  5
121
330
1F
100
AcDbEntity
  8
0
  6
Continuous
 62
     7
370
    25
100
AcDbCircle
 10
175.4498608604
 20
367.605263028
 30
0.0
 40
24.90000000000002
100
AcDbArc
 50
120.1329394975
 51
251.259337449
  0
ARC
  5
122
330
1F
100
AcDbEntity
  8
0
  6
Continuous
 62
     7
370
    25
100
AcDbCircle
 10
175.4498608604
 20
367.605263028
 30
0.0
 40
24.90000000000003
100
AcDbArc
 50
288.740662551
 51
59.8670605025
  0
ARC
  5
123
330
1F
100
AcDbEntity
  8
0
  6
Continuous
 62
     7
370
    25
100
AcDbCircle
 10
175.4498608604
 20
367.605263028
 30
0.0
 40
29.99999999999999
100
AcDbArc
 50
114.6243183522
 51
256.5066011784
  0
ARC
  5
124
330
1F
100
AcDbEntity
  8
0
  6
Continuous
 62
     7
370
    25
100
AcDbCircle
 10
175.4498608604
 20
367.605263028
 30
0.0
 40
29.99999999999999
100
AcDbArc
 50
283.4933988216
 51
65.3756816478
  0
ARC
  5
125
330
1F
100
AcDbEntity
  8
0
  6
Continuous
 62
     8
370
    18
100
AcDbCircle
 10
175.4498608604
 20
367.605263028
 30
0.0
 40
19.7
100
AcDbArc
 50
142.4728673939
 51
37.5271326061
  0
LWPOLYLINE
  5
126
330
1F
100
AcDbEntity
  8
0
  6
Continuous
 62
     8
370
    18
100
AcDbPolyline
 90
        9
 70
   128
 43
0.0
 10
191.0732403592
 20
379.6052631323
 10
191.1196574763
 20
379.6409141605
 10
191.1642883167
 20
379.6751952131
 10
191.2054211095
 20
379.7067884688
 10
191.241474469
 20
379.7344804143
 10
191.2710644499
 20
379.7572065477
 10
191.2930492506
 20
379.77409422
 10
191.3065888182
 20
379.7844924365
 10
191.3111597494
 20
379.788004454
  0
LWPOLYLINE
  5
127
330
1F
100
AcDbEntity
  8
0
  6
Continuous
 62
     8
370
    18
100
AcDbPolyline
 90
        9
 70
   128
 43
0.0
 10
159.8264813617
 20
379.6052631323
 10
159.7800642446
 20
379.6409141605
 10
159.7354334042
 20
379.6751952131
 10
159.6943006114
 20
379.7067884688
 10
159.6582472518
 20
379.7344804143
 10
159.628657271
 20
379.7572065477
 10
159.6066724703
 20
379.77409422
 10
159.5931329027
 20
379.7844924365
 10
159.5885619715
 20
379.788004454
  0
ARC
  5
128
330
1F
100
AcDbEntity
  8
0
  6
Continuous
 62
     8
370
    18
100
AcDbCircle
 10
165.8205920696
 20
366.0341992347
 30
0.0
 40
28.66827551410302
100
AcDbArc
 50
28.2540959075
 51
30.5482917831
  0
LINE
  5
129
330
1F
100
AcDbEntity
  8
0
  6
Continuous
 62
     8
370
    18
100
AcDbLine
 10
191.0732403592
 20
379.6052631323
 30
0.0
 11
159.8264813617
 21
379.6052631323
 31
0.0
  0
ARC
  5
12A
330
1F
100
AcDbEntity
  8
0
  6
Continuous
 62
     8
370
    18
100
AcDbCircle
 10
185.0926473313
 20
366.0265820424
 30
0.0
 40
28.68378850404152
100
AcDbArc
 50
149.4523286822
 51
151.7452836273
  0
CIRCLE
  5
12B
330
1F
100
AcDbEntity
  8
0
  6
Continuous
 62
     8
370
    18
100
AcDbCircle
 10
173.2923899484
 20
571.162112981
 30
0.0
 40
1.226321703832357
  0
ARC
  5
12C
330
1F
100
AcDbEntity
  8
0
  6
Continuous
 62
     8
370
    18
100
AcDbCircle
 10
173.2867974158
 20
571.1918465029
 30
0.0
 40
0.9248047360021633
100
AcDbArc
 50
128.5341496324
 51
277.3737431127
  0
LWPOLYLINE
  5
12D
330
1F
100
AcDbEntity
  8
0
  6
Continuous
 62
     8
370
    18
100
AcDbPolyline
 90
        3
 70
   128
 43
0.0
 10
173.8781311976
 20
570.4760045146
 10
173.656308554
 20
570.341536436
 10
173.4054879014
 20
570.2746898269
  0
ARC
  5
12E
330
1F
100
AcDbEntity
  8
0
  6
Continuous
 62
     8
370
    18
100
AcDbCircle
 10
173.2953230882
 20
571.1940642911
 30
0.0
 40
0.9248108644803384
100
AcDbArc
 50
309.0642655226
 51
97.3732136429
  0
LWPOLYLINE
  5
12F
330
1F
100
AcDbEntity
  8
0
  6
Continuous
 62
     8
370
    18
100
AcDbPolyline
 90
        3
 70
   128
 43
0.0
 10
172.7106616561
 20
571.9152629708
 10
172.9297825329
 20
572.045990858
 10
173.1766402915
 20
572.1112281417
  0
CIRCLE
  5
130
330
1F
100
AcDbEntity
  8
0
  6
Continuous
 62
     8
370
    18
100
AcDbCircle
 10
173.2962564732
 20
515.9677377167
 30
0.0
 40
1.226960444129059
  0
ARC
  5
131
330
1F
100
AcDbEntity
  8
0
  6
Continuous
 62
     8
370
    18
100
AcDbCircle
 10
173.2940560522
 20
515.9434786548
 30
0.0
 40
0.9264342131143509
100
AcDbArc
 50
290.7527018392
 51
81.5488902196
  0
LWPOLYLINE
  5
132
330
1F
100
AcDbEntity
  8
0
  6
Continuous
 62
     8
370
    18
100
AcDbPolyline
 90
        3
 70
   128
 43
0.0
 10
173.4302098591
 20
516.8598533009
 10
173.1958599955
 20
516.866141591
 10
172.9676549983
 20
516.8128699397
  0
ARC
  5
133
330
1F
100
AcDbEntity
  8
0
  6
Continuous
 62
     8
370
    18
100
AcDbCircle
 10
173.2880756651
 20
515.9436095628
 30
0.0
 40
0.9264356462032921
100
AcDbArc
 50
110.2345417442
 51
261.5486830308
  0
LWPOLYLINE
  5
134
330
1F
100
AcDbEntity
  8
0
  6
Continuous
 62
     8
370
    18
100
AcDbPolyline
 90
        3
 70
   128
 43
0.0
 10
173.1519183338
 20
515.0272339915
 10
173.3904451792
 20
515.0213480328
 10
173.622324244
 20
515.0771528815
  0
ARC
  5
135
330
1F
100
AcDbEntity
  8
0
  6
Continuous
 62
     8
370
    18
100
AcDbCircle
 10
177.5964043241
 20
510.4428851468
 30
0.0
 40
1.219016518152295
100
AcDbArc
 50
128.4270775594
 51
220.5767509814
  0
LWPOLYLINE
  5
136
330
1F
100
AcDbEntity
  8
0
  6
Continuous
 62
     8
370
    18
100
AcDbPolyline
 90
        3
 70
   128
 43
0.0
 10
177.4548072096
 20
511.6567552422
 10
177.264300404
 20
511.6176694964
 10
176.83876352
 20
511.3978624677
  0
ARC
  5
137
330
1F
100
AcDbEntity
  8
0
  6
Continuous
 62
     8
370
    18
100
AcDbCircle
 10
177.6043982593
 20
510.4164692103
 30
0.0
 40
0.9248107535192
100
AcDbArc
 50
129.0642413021
 51
277.3732378634
  0
LWPOLYLINE
  5
138
330
1F
100
AcDbEntity
  8
0
  6
Continuous
 62
     8
370
    18
100
AcDbPolyline
 90
        3
 70
   128
 43
0.0
 10
178.1890600648
 20
509.6952557896
 10
177.9699391879
 20
509.5645279025
 10
177.7230814293
 20
509.4993055199
  0
ARC
  5
139
330
1F
100
AcDbEntity
  8
0
  6
Continuous
 62
     8
370
    18
100
AcDbCircle
 10
177.6129195697
 20
510.4186785825
 30
0.0
 40
0.9248126336298202
100
AcDbArc
 50
308.5341350075
 51
97.3733839692
  0
LWPOLYLINE
  5
13A
330
1F
100
AcDbEntity
  8
0
  6
Continuous
 62
     8
370
    18
100
AcDbPolyline
 90
        3
 70
   128
 43
0.0
 10
177.0215905233
 20
511.134529147
 10
177.2434131669
 20
511.2689823245
 10
177.4942338195
 20
511.3358438348
  0
ARC
  5
13B
330
1F
100
AcDbEntity
  8
0
  6
Continuous
 62
     8
370
    18
100
AcDbCircle
 10
177.6130560225
 20
571.192977356
 30
0.0
 40
0.9248189528634653
100
AcDbArc
 50
291.7075697147
 51
83.1673568742
  0
LWPOLYLINE
  5
13C
330
1F
100
AcDbEntity
  8
0
  6
Continuous
 62
     8
370
    18
100
AcDbPolyline
 90
        3
 70
   128
 43
0.0
 10
177.4942338195
 20
570.2746898269
 10
177.7285408423
 20
570.274615321
 10
177.9551183533
 20
570.3337431287
  0
ARC
  5
13D
330
1F
100
AcDbEntity
  8
0
  6
Continuous
 62
     8
370
    18
100
AcDbCircle
 10
177.6042480147
 20
571.192930413
 30
0.0
 40
0.9248074919500412
100
AcDbArc
 50
112.1931215346
 51
263.1679713721
  0
LWPOLYLINE
  5
13E
330
1F
100
AcDbEntity
  8
0
  6
Continuous
 62
     8
370
    18
100
AcDbPolyline
 90
        3
 70
   128
 43
0.0
 10
177.7230814293
 20
572.1112281417
 10
177.4848747261
 20
572.1108258103
 10
177.2549208215
 20
572.0492244099
  0
ARC
  5
13F
330
1F
100
AcDbEntity
  8
0
  6
Continuous
 62
     8
370
    18
100
AcDbCircle
 10
173.2866589109
 20
510.4175482164
 30
0.0
 40
0.9248101135516297
100
AcDbArc
 50
111.7073351145
 51
263.1677147801
  0
LWPOLYLINE
  5
140
330
1F
100
AcDbEntity
  8
0
  6
Continuous
 62
     8
370
    18
100
AcDbPolyline
 90
        3
 70
   128
 43
0.0
 10
173.4054879014
 20
511.3358438348
 10
173.1711808786
 20
511.3359183406
 10
172.9446033676
 20
511.2767756318
  0
ARC
  5
141
330
1F
100
AcDbEntity
  8
0
  6
Continuous
 62
     8
370
    18
100
AcDbCircle
 10
173.2954612674
 20
510.4175943807
 30
0.0
 40
0.9248177767176208
100
AcDbArc
 50
292.1936938824
 51
83.1672715746
  0
LWPOLYLINE
  5
142
330
1F
100
AcDbEntity
  8
0
  6
Continuous
 62
     8
370
    18
100
AcDbPolyline
 90
        3
 70
   128
 43
0.0
 10
173.1766402915
 20
509.4993055199
 10
173.4148469948
 20
509.4997078513
 10
173.6448008994
 20
509.5612943505
  0
CIRCLE
  5
143
330
1F
100
AcDbEntity
  8
0
  6
Continuous
 62
     8
370
    18
100
AcDbCircle
 10
177.6081262394
 20
571.1707141993
 30
0.0
 40
1.226351734018167
  0
CIRCLE
  5
144
330
1F
100
AcDbEntity
  8
0
  6
Continuous
 62
     8
370
    18
100
AcDbCircle
 10
173.2915962324
 20
510.439815597
 30
0.0
 40
1.226355595782526
  0
ARC
  5
145
330
1F
100
AcDbEntity
  8
0
  6
Continuous
 62
     8
370
    18
100
AcDbCircle
 10
177.6116530054
 20
565.6669099148
 30
0.0
 40
0.9264339154849193
100
AcDbArc
 50
290.2341231253
 51
81.5491016496
  0
LWPOLYLINE
  5
146
330
1F
100
AcDbEntity
  8
0
  6
Continuous
 62
     8
370
    18
100
AcDbPolyline
 90
        3
 70
   128
 43
0.0
 10
177.4695118618
 20
564.7506654595
 10
177.7038617254
 20
564.7443920707
 10
177.9320667226
 20
564.7976488208
  0
ARC
  5
147
330
1F
100
AcDbEntity
  8
0
  6
Continuous
 62
     8
370
    18
100
AcDbCircle
 10
177.6056615746
 20
565.6670396644
 30
0.0
 40
0.9264331750055019
100
AcDbArc
 50
110.7524553939
 51
261.549136665
  0
LWPOLYLINE
  5
148
330
1F
100
AcDbEntity
  8
0
  6
Continuous
 62
     8
370
    18
100
AcDbPolyline
 90
        3
 70
   128
 43
0.0
 10
177.7478033871
 20
566.5832847689
 10
177.5092765417
 20
566.5891707276
 10
177.2773974769
 20
566.5333658789
  0
ARC
  5
149
330
1F
100
AcDbEntity
  8
0
  6
Continuous
 62
     8
370
    18
100
AcDbCircle
 10
173.2974293882
 20
565.6462097365
 30
0.0
 40
1.223891553491073
100
AcDbArc
 50
310.1574449046
 51
98.7775422928
  0
LWPOLYLINE
  5
14A
330
1F
100
AcDbEntity
  8
0
  6
Continuous
 62
     8
370
    18
100
AcDbPolyline
 90
        3
 70
   128
 43
0.0
 10
173.4775385082
 20
564.4350290631
 10
173.6673009543
 20
564.4793451165
 10
174.0867050792
 20
564.7108197545
  0
ARC
  5
14B
330
1F
100
AcDbEntity
  8
0
  6
Continuous
 62
     8
370
    18
100
AcDbCircle
 10
173.2939484746
 20
565.6678090128
 30
0.0
 40
0.9264277743393654
100
AcDbArc
 50
310.6871358829
 51
98.8187635598
  0
LWPOLYLINE
  5
14C
330
1F
100
AcDbEntity
  8
0
  6
Continuous
 62
     8
370
    18
100
AcDbPolyline
 90
        3
 70
   128
 43
0.0
 10
172.6911727999
 20
566.3745642041
 10
172.9067788653
 20
566.511371765
 10
173.1519183338
 20
566.5832847689
  0
ARC
  5
14D
330
1F
100
AcDbEntity
  8
0
  6
Continuous
 62
     8
370
    18
100
AcDbCircle
 10
173.2881948084
 20
565.6661517688
 30
0.0
 40
0.9264358893693972
100
AcDbArc
 50
130.1228655924
 51
278.8177412832
  0
LWPOLYLINE
  5
14E
330
1F
100
AcDbEntity
  8
0
  6
Continuous
 62
     8
370
    18
100
AcDbPolyline
 90
        3
 70
   128
 43
0.0
 10
173.8979128383
 20
564.9653166865
 10
173.6795332943
 20
564.8244411086
 10
173.4302098591
 20
564.7506654595
  0
ARC
  5
14F
330
1F
100
AcDbEntity
  8
0
  6
Continuous
 62
     8
370
    18
100
AcDbCircle
 10
177.6022922937
 20
515.9643090063
 30
0.0
 40
1.223891541916162
100
AcDbArc
 50
130.1574429755
 51
278.7775442219
  0
LWPOLYLINE
  5
150
330
1F
100
AcDbEntity
  8
0
  6
Continuous
 62
     8
370
    18
100
AcDbPolyline
 90
        3
 70
   128
 43
0.0
 10
177.4221832127
 20
517.1754896973
 10
177.232420883
 20
517.1311885451
 10
176.8130166417
 20
516.899699006
  0
ARC
  5
151
330
1F
100
AcDbEntity
  8
0
  6
Continuous
 62
     8
370
    18
100
AcDbCircle
 10
177.6057808254
 20
515.9427132422
 30
0.0
 40
0.9264300656179714
100
AcDbArc
 50
130.6876322136
 51
278.8182672292
  0
LWPOLYLINE
  5
152
330
1F
100
AcDbEntity
  8
0
  6
Continuous
 62
     8
370
    18
100
AcDbPolyline
 90
        3
 70
   128
 43
0.0
 10
178.2085486882
 20
515.2359545564
 10
177.9929428555
 20
515.0991469954
 10
177.7478033871
 20
515.0272339915
  0
ARC
  5
153
330
1F
100
AcDbEntity
  8
0
  6
Continuous
 62
     8
370
    18
100
AcDbCircle
 10
177.6115370932
 20
515.9443717105
 30
0.0
 40
0.9264327869839388
100
AcDbArc
 50
310.1221850554
 51
98.8184082093
  0
LWPOLYLINE
  5
154
330
1F
100
AcDbEntity
  8
0
  6
Continuous
 62
     8
370
    18
100
AcDbPolyline
 90
        3
 70
   128
 43
0.0
 10
177.0018088825
 20
516.6452020739
 10
177.2201884266
 20
516.786092553
 10
177.4695118618
 20
516.8598533009
  0
CIRCLE
  5
155
330
1F
100
AcDbEntity
  8
0
  6
Continuous
 62
     8
370
    18
100
AcDbCircle
 10
177.6073579544
 20
565.6480977706
 30
0.0
 40
1.226959733652853
  0
ARC
  5
156
330
1F
100
AcDbEntity
  8
0
  6
Continuous
 62
     8
370
    18
100
AcDbCircle
 10
177.6105163607
 20
560.1410807363
 30
0.0
 40
0.9277356257973789
100
AcDbArc
 50
287.9256735575
 51
79.1241068103
  0
LWPOLYLINE
  5
157
330
1F
100
AcDbEntity
  8
0
  6
Continuous
 62
     8
370
    18
100
AcDbPolyline
 90
        3
 70
   128
 43
0.0
 10
177.4317516208
 20
559.230232272
 10
177.6657485132
 20
559.2143774365
 10
177.8960576009
 20
559.2583805655
  0
ARC
  5
158
330
1F
100
AcDbEntity
  8
0
  6
Continuous
 62
     8
370
    18
100
AcDbCircle
 10
177.6067950562
 20
560.141304539
 30
0.0
 40
0.9277353501689742
100
AcDbArc
 50
108.4824714018
 51
259.1243445232
  0
LWPOLYLINE
  5
159
330
1F
100
AcDbEntity
  8
0
  6
Continuous
 62
     8
370
    18
100
AcDbPolyline
 90
        3
 70
   128
 43
0.0
 10
177.785563628
 20
561.0521525477
 10
177.5470591344
 20
561.0677689647
 10
177.3126894802
 20
561.0211879348
  0
ARC
  5
15A
330
1F
100
AcDbEntity
  8
0
  6
Continuous
 62
     8
370
    18
100
AcDbCircle
 10
173.2891992664
 20
521.4694525129
 30
0.0
 40
0.9277340709859279
100
AcDbArc
 50
107.9252939563
 51
259.1244715938
  0
LWPOLYLINE
  5
15B
330
1F
100
AcDbEntity
  8
0
  6
Continuous
 62
     8
370
    18
100
AcDbPolyline
 90
        3
 70
   128
 43
0.0
 10
173.4679701001
 20
522.3802864884
 10
173.2339732077
 20
522.3961562251
 10
173.0036643528
 20
522.3521530961
  0
ARC
  5
15C
330
1F
100
AcDbEntity
  8
0
  6
Continuous
 62
     8
370
    18
100
AcDbCircle
 10
173.2929219696
 20
521.4692139093
 30
0.0
 40
0.9277365425484674
100
AcDbArc
 50
288.4827525158
 51
79.1240634092
  0
LWPOLYLINE
  5
15D
330
1F
100
AcDbEntity
  8
0
  6
Continuous
 62
     8
370
    18
100
AcDbPolyline
 90
        3
 70
   128
 43
0.0
 10
173.1141580928
 20
520.5583811139
 10
173.3526625865
 20
520.5427497958
 10
173.5870322407
 20
520.5893308257
  0
ARC
  5
15E
330
1F
100
AcDbEntity
  8
0
  6
Continuous
 62
     8
370
    18
100
AcDbCircle
 10
173.2933390711
 20
554.5529936908
 30
0.0
 40
1.226778650464551
100
AcDbArc
 50
137.2442668151
 51
285.0982094945
  0
LWPOLYLINE
  5
15F
330
1F
100
AcDbEntity
  8
0
  6
Continuous
 62
     8
370
    18
100
AcDbPolyline
 90
        3
 70
   128
 43
0.0
 10
172.9762564607
 20
555.7382941579
 10
172.7802784842
 20
555.6673944329
 10
172.3925712247
 20
555.385822091
  0
ARC
  5
160
330
1F
100
AcDbEntity
  8
0
  6
Continuous
 62
     8
370
    18
100
AcDbCircle
 10
173.2901397001
 20
554.5651707142
 30
0.0
 40
0.9287263862169974
100
AcDbArc
 50
136.6243870167
 51
285.1204873165
  0
LWPOLYLINE
  5
161
330
1F
100
AcDbEntity
  8
0
  6
Continuous
 62
     8
370
    18
100
AcDbPolyline
 90
        3
 70
   128
 43
0.0
 10
173.9737818677
 20
553.9353132581
 10
173.7723366784
 20
553.7701487874
 10
173.5323977152
 20
553.6685973738
  0
ARC
  5
162
330
1F
100
AcDbEntity
  8
0
  6
Continuous
 62
     8
370
    18
100
AcDbCircle
 10
173.291992472
 20
554.5659367257
 30
0.0
 40
0.9287210227736878
100
AcDbArc
 50
317.2326113297
 51
105.1208235732
  0
LWPOLYLINE
  5
163
330
1F
100
AcDbEntity
  8
0
  6
Continuous
 62
     8
370
    18
100
AcDbPolyline
 90
        3
 70
   128
 43
0.0
 10
172.6150790889
 20
555.2029997443
 10
172.8140501034
 20
555.363455448
 10
173.0497305941
 20
555.4625034665
  0
LWPOLYLINE
  5
164
330
1F
100
AcDbEntity
  8
0
  6
Continuous
 62
     8
370
    18
100
AcDbPolyline
 90
        3
 70
   128
 43
0.0
 10
172.6622575622
 20
560.8243584966
 10
172.8720947828
 20
560.9701365565
 10
173.1141580928
 20
561.0521525477
  0
ARC
  5
165
330
1F
100
AcDbEntity
  8
0
  6
Continuous
 62
     8
370
    18
100
AcDbCircle
 10
173.2928285531
 20
560.1417829524
 30
0.0
 40
0.9277369958233617
100
AcDbArc
 50
313.1300494948
 51
101.1038208301
  0
LWPOLYLINE
  5
166
330
1F
100
AcDbEntity
  8
0
  6
Continuous
 62
     8
370
    18
100
AcDbPolyline
 90
        3
 70
   128
 43
0.0
 10
173.9270820942
 20
559.4647169446
 10
173.7144478791
 20
559.3144387339
 10
173.4679701001
 20
559.230232272
  0
ARC
  5
167
330
1F
100
AcDbEntity
  8
0
  6
Continuous
 62
     8
370
    18
100
AcDbCircle
 10
173.2892988602
 20
560.1406042841
 30
0.0
 40
0.9277395175206922
100
AcDbArc
 50
132.5225843294
 51
281.1038393332
  0
LWPOLYLINE
  5
168
330
1F
100
AcDbEntity
  8
0
  6
Continuous
 62
     8
370
    18
100
AcDbPolyline
 90
        3
 70
   128
 43
0.0
 10
178.2374643915
 20
520.7861751651
 10
178.0276271709
 20
520.6403971051
 10
177.785563628
 20
520.5583811139
  0
ARC
  5
169
330
1F
100
AcDbEntity
  8
0
  6
Continuous
 62
     8
370
    18
100
AcDbCircle
 10
177.6068918433
 20
521.4687500309
 30
0.0
 40
0.9277365853144649
100
AcDbArc
 50
133.1299611563
 51
281.1039091687
  0
LWPOLYLINE
  5
16A
330
1F
100
AcDbEntity
  8
0
  6
Continuous
 62
     8
370
    18
100
AcDbPolyline
 90
        3
 70
   128
 43
0.0
 10
176.9726396267
 20
522.145816717
 10
177.1852738418
 20
522.2960949277
 10
177.4317516208
 20
522.3802864884
  0
ARC
  5
16B
330
1F
100
AcDbEntity
  8
0
  6
Continuous
 62
     8
370
    18
100
AcDbCircle
 10
177.610428655
 20
521.4699237048
 30
0.0
 40
0.9277315777621097
100
AcDbArc
 50
312.5225679736
 51
101.1043002508
  0
CIRCLE
  5
16C
330
1F
100
AcDbEntity
  8
0
  6
Continuous
 62
     8
370
    18
100
AcDbCircle
 10
177.6047204122
 20
521.4842107234
 30
0.0
 40
1.227427085816913
  0
CIRCLE
  5
16D
330
1F
100
AcDbEntity
  8
0
  6
Continuous
 62
     8
370
    18
100
AcDbCircle
 10
173.2950267906
 20
560.126335167
 30
0.0
 40
1.227429846149092
  0
CIRCLE
  5
16E
330
1F
100
AcDbEntity
  8
0
  6
Continuous
 62
     8
370
    18
100
AcDbCircle
 10
177.6066586445
 20
560.1259163621
 30
0.0
 40
1.227440210709012
  0
CIRCLE
  5
16F
330
1F
100
AcDbEntity
  8
0
  6
Continuous
 62
     8
370
    18
100
AcDbCircle
 10
173.2930626041
 20
521.4846061086
 30
0.0
 40
1.227436542540094
  0
ARC
  5
170
330
1F
100
AcDbEntity
  8
0
  6
Continuous
 62
     8
370
    18
100
AcDbCircle
 10
177.6096457463
 20
554.5654133101
 30
0.0
 40
0.9287285128489067
100
AcDbArc
 50
283.8904094714
 51
75.00174019
  0
LWPOLYLINE
  5
171
330
1F
100
AcDbEntity
  8
0
  6
Continuous
 62
     8
370
    18
100
AcDbPolyline
 90
        3
 70
   128
 43
0.0
 10
177.3673240057
 20
553.6685973738
 10
177.5996723406
 20
553.6361873483
 10
177.8326014717
 20
553.6638439034
  0
ARC
  5
172
330
1F
100
AcDbEntity
  8
0
  6
Continuous
 62
     8
370
    18
100
AcDbCircle
 10
177.6076640049
 20
554.5656841753
 30
0.0
 40
0.9287238795876613
100
AcDbArc
 50
104.4480036317
 51
255.0020073033
  0
LWPOLYLINE
  5
173
330
1F
100
AcDbEntity
  8
0
  6
Continuous
 62
     8
370
    18
100
AcDbPolyline
 90
        3
 70
   128
 43
0.0
 10
177.8499911268
 20
555.4625034665
 10
177.6131185431
 20
555.4949879979
 10
177.3759461901
 20
555.4650366639
  0
ARC
  5
174
330
1F
100
AcDbEntity
  8
0
  6
Continuous
 62
     8
370
    18
100
AcDbCircle
 10
173.2900582327
 20
527.0451128519
 30
0.0
 40
0.9287166774277983
100
AcDbArc
 50
103.8893589333
 51
255.0026777248
  0
LWPOLYLINE
  5
175
330
1F
100
AcDbEntity
  8
0
  6
Continuous
 62
     8
370
    18
100
AcDbPolyline
 90
        3
 70
   128
 43
0.0
 10
173.5323977152
 20
527.9419362878
 10
173.3000500787
 20
527.9743314122
 10
173.067121879
 20
527.946674857
  0
ARC
  5
176
330
1F
100
AcDbEntity
  8
0
  6
Continuous
 62
     8
370
    18
100
AcDbCircle
 10
173.2920633917
 20
527.0448494591
 30
0.0
 40
0.928722437120585
100
AcDbArc
 50
284.447664971
 51
75.0023459641
  0
LWPOLYLINE
  5
177
330
1F
100
AcDbEntity
  8
0
  6
Continuous
 62
     8
370
    18
100
AcDbPolyline
 90
        3
 70
   128
 43
0.0
 10
173.0497305941
 20
526.1480301951
 10
173.2866031777
 20
526.1155456637
 10
173.5237755308
 20
526.1454969977
  0
LWPOLYLINE
  5
178
330
1F
100
AcDbEntity
  8
0
  6
Continuous
 62
     8
370
    18
100
AcDbPolyline
 90
        3
 70
   128
 43
0.0
 10
178.2846435633
 20
526.4075339173
 10
178.085672316
 20
526.2470782136
 10
177.8499911268
 20
526.1480301951
  0
ARC
  5
179
330
1F
100
AcDbEntity
  8
0
  6
Continuous
 62
     8
370
    18
100
AcDbCircle
 10
177.607718662
 20
527.0445905301
 30
0.0
 40
0.9287176004933635
100
AcDbArc
 50
137.2318777096
 51
285.1215571933
  0
LWPOLYLINE
  5
17A
330
1F
100
AcDbEntity
  8
0
  6
Continuous
 62
     8
370
    18
100
AcDbPolyline
 90
        3
 70
   128
 43
0.0
 10
176.9259398532
 20
527.6752204036
 10
177.1273850425
 20
527.8403848742
 10
177.3673240057
 20
527.9419362878
  0
ARC
  5
17B
330
1F
100
AcDbEntity
  8
0
  6
Continuous
 62
     8
370
    18
100
AcDbCircle
 10
177.6095794581
 20
527.0453610057
 30
0.0
 40
0.9287275923131378
100
AcDbArc
 50
316.624622129
 51
105.1203034436
  0
CIRCLE
  5
17C
330
1F
100
AcDbEntity
  8
0
  6
Continuous
 62
     8
370
    18
100
AcDbCircle
 10
177.6051066379
 20
527.0560756148
 30
0.0
 40
1.227794877351912
  0
CIRCLE
  5
17D
330
1F
100
AcDbEntity
  8
0
  6
Continuous
 62
     8
370
    18
100
AcDbCircle
 10
177.6061370149
 20
554.5541734292
 30
0.0
 40
1.227806518193665
  0
CIRCLE
  5
17E
330
1F
100
AcDbEntity
  8
0
  6
Continuous
 62
     8
370
    18
100
AcDbCircle
 10
173.293621754
 20
527.0563598994
 30
0.0
 40
1.227801664351315
  0
CIRCLE
  5
17F
330
1F
100
AcDbEntity
  8
0
  6
Continuous
 62
     8
370
    18
100
AcDbCircle
 10
173.2947292286
 20
532.498308423
 30
0.0
 40
1.22805769356621
  0
ARC
  5
180
330
1F
100
AcDbEntity
  8
0
  6
Continuous
 62
     8
370
    18
100
AcDbCircle
 10
173.2914836607
 20
532.4903951909
 30
0.0
 40
0.9293832645886425
100
AcDbArc
 50
275.7968695193
 51
66.4015589953
  0
LWPOLYLINE
  5
181
330
1F
100
AcDbEntity
  8
0
  6
Continuous
 62
     8
370
    18
100
AcDbPolyline
 90
        3
 70
   128
 43
0.0
 10
173.6635381783
 20
533.3420574998
 10
173.4385442648
 20
533.4087103938
 10
173.2040141903
 20
533.4159821605
  0
ARC
  5
182
330
1F
100
AcDbEntity
  8
0
  6
Continuous
 62
     8
370
    18
100
AcDbCircle
 10
173.2906582733
 20
532.4906387639
 30
0.0
 40
0.9293909826975958
100
AcDbArc
 50
95.3492659929
 51
246.400850261
  0
LWPOLYLINE
  5
183
330
1F
100
AcDbEntity
  8
0
  6
Continuous
 62
     8
370
    18
100
AcDbPolyline
 90
        3
 70
   128
 43
0.0
 10
172.9185901311
 20
531.6389739846
 10
173.1471730125
 20
531.5717250441
 10
173.385353173
 20
531.5657645797
  0
LWPOLYLINE
  5
184
330
1F
100
AcDbEntity
  8
0
  6
Continuous
 62
     8
370
    18
100
AcDbPolyline
 90
        3
 70
   128
 43
0.0
 10
172.5274015878
 20
549.6500224208
 10
172.7002508667
 20
549.8384476041
 10
172.9185901311
 20
549.971559677
  0
ARC
  5
185
330
1F
100
AcDbEntity
  8
0
  6
Continuous
 62
     8
370
    18
100
AcDbCircle
 10
173.2914216186
 20
549.1202233186
 30
0.0
 40
0.9293959937626683
100
AcDbArc
 50
325.7030416389
 51
113.6503785957
  0
LWPOLYLINE
  5
186
330
1F
100
AcDbEntity
  8
0
  6
Continuous
 62
     8
370
    18
100
AcDbPolyline
 90
        3
 70
   128
 43
0.0
 10
174.0592218664
 20
548.5965252255
 10
173.8849651263
 20
548.4040618275
 10
173.6635381783
 20
548.2684612607
  0
ARC
  5
187
330
1F
100
AcDbEntity
  8
0
  6
Continuous
 62
     8
370
    18
100
AcDbCircle
 10
173.2906996088
 20
549.1197903864
 30
0.0
 40
0.9293922095679522
100
AcDbArc
 50
145.2138660868
 51
293.650957385
  0
LWPOLYLINE
  5
188
330
1F
100
AcDbEntity
  8
0
  6
Continuous
 62
     8
370
    18
100
AcDbPolyline
 90
        3
 70
   128
 43
0.0
 10
178.3723201331
 20
531.9605112408
 10
178.1994708542
 20
531.7720711564
 10
177.9811315898
 20
531.6389739846
  0
ARC
  5
189
330
1F
100
AcDbEntity
  8
0
  6
Continuous
 62
     8
370
    18
100
AcDbCircle
 10
177.6082898227
 20
532.4902961404
 30
0.0
 40
0.9293871078902826
100
AcDbArc
 50
145.7027201263
 51
293.6513103343
  0
LWPOLYLINE
  5
18A
330
1F
100
AcDbEntity
  8
0
  6
Continuous
 62
     8
370
    18
100
AcDbPolyline
 90
        3
 70
   128
 43
0.0
 10
176.8404998545
 20
533.0139935349
 10
177.0147565946
 20
533.2064569329
 10
177.2361835426
 20
533.3420574998
  0
ARC
  5
18B
330
1F
100
AcDbEntity
  8
0
  6
Continuous
 62
     8
370
    18
100
AcDbCircle
 10
177.6090249753
 20
532.4907364476
 30
0.0
 40
0.9293859627790982
100
AcDbArc
 50
325.2141110729
 51
113.6513187463
  0
ARC
  5
18C
330
1F
100
AcDbEntity
  8
0
  6
Continuous
 62
     8
370
    18
100
AcDbCircle
 10
177.6090658015
 20
549.1198945083
 30
0.0
 40
0.9293903972142928
100
AcDbArc
 50
275.3491380382
 51
66.4009928523
  0
LWPOLYLINE
  5
18D
330
1F
100
AcDbEntity
  8
0
  6
Continuous
 62
     8
370
    18
100
AcDbPolyline
 90
        3
 70
   128
 43
0.0
 10
177.2361835426
 20
548.2684612607
 10
177.461177456
 20
548.2018232678
 10
177.6957077634
 20
548.1945515012
  0
ARC
  5
18E
330
1F
100
AcDbEntity
  8
0
  6
Continuous
 62
     8
370
    18
100
AcDbCircle
 10
177.6082559765
 20
549.1201285204
 30
0.0
 40
0.9293949738114352
100
AcDbArc
 50
95.797906428
 51
246.4006690301
  0
LWPOLYLINE
  5
18F
330
1F
100
AcDbEntity
  8
0
  6
Continuous
 62
     8
370
    18
100
AcDbPolyline
 90
        3
 70
   128
 43
0.0
 10
177.9811315898
 20
549.971559677
 10
177.7525487084
 20
550.0388086175
 10
177.5143685479
 20
550.044769082
  0
CIRCLE
  5
190
330
1F
100
AcDbEntity
  8
0
  6
Continuous
 62
     8
370
    18
100
AcDbCircle
 10
173.2944001913
 20
549.1129875226
 30
0.0
 40
1.228051839110234
  0
CIRCLE
  5
191
330
1F
100
AcDbEntity
  8
0
  6
Continuous
 62
     8
370
    18
100
AcDbCircle
 10
177.6053217279
 20
532.4975310323
 30
0.0
 40
1.228052119187044
  0
CIRCLE
  5
192
330
1F
100
AcDbEntity
  8
0
  6
Continuous
 62
     8
370
    18
100
AcDbCircle
 10
177.6057381508
 20
549.1128042033
 30
0.0
 40
1.228054289960593
  0
CIRCLE
  5
193
330
1F
100
AcDbEntity
  8
0
  6
Continuous
 62
     8
370
    18
100
AcDbCircle
 10
173.2943901962
 20
543.5715931736
 30
0.0
 40
1.228184606233714
  0
ARC
  5
194
330
1F
100
AcDbEntity
  8
0
  6
Continuous
 62
     8
370
    18
100
AcDbCircle
 10
173.2909998814
 20
543.5744345049
 30
0.0
 40
0.9297428262555392
100
AcDbArc
 50
171.0007126255
 51
319.4062885769
  0
LWPOLYLINE
  5
195
330
1F
100
AcDbEntity
  8
0
  6
Continuous
 62
     8
370
    18
100
AcDbPolyline
 90
        3
 70
   128
 43
0.0
 10
174.209953049
 20
543.4325576161
 10
174.13646611
 20
543.1858390902
 10
173.9969933367
 20
542.9694593285
  0
ARC
  5
196
330
1F
100
AcDbEntity
  8
0
  6
Continuous
 62
     8
370
    18
100
AcDbCircle
 10
173.2911257788
 20
543.5746290937
 30
0.0
 40
0.9297461251587902
100
AcDbArc
 50
351.2103833486
 51
139.4058004441
  0
LWPOLYLINE
  5
197
330
1F
100
AcDbEntity
  8
0
  6
Continuous
 62
     8
370
    18
100
AcDbPolyline
 90
        3
 70
   128
 43
0.0
 10
172.3727019232
 20
543.7198669051
 10
172.4463925891
 20
543.9647674893
 10
172.5851349727
 20
544.1796124314
  0
CIRCLE
  5
198
330
1F
100
AcDbEntity
  8
0
  6
Continuous
 62
     8
370
    18
100
AcDbCircle
 10
177.6053311125
 20
538.0389195265
 30
0.0
 40
1.22818181099293
  0
ARC
  5
199
330
1F
100
AcDbEntity
  8
0
  6
Continuous
 62
     8
370
    18
100
AcDbCircle
 10
177.6087263056
 20
538.0360939226
 30
0.0
 40
0.9297399273293999
100
AcDbArc
 50
351.0000811671
 51
139.4069200353
  0
LWPOLYLINE
  5
19A
330
1F
100
AcDbEntity
  8
0
  6
Continuous
 62
     8
370
    18
100
AcDbPolyline
 90
        3
 70
   128
 43
0.0
 10
176.6897686718
 20
538.1779611443
 10
176.7632556109
 20
538.4246796702
 10
176.9027283842
 20
538.6410594319
  0
ARC
  5
19B
330
1F
100
AcDbEntity
  8
0
  6
Continuous
 62
     8
370
    18
100
AcDbCircle
 10
177.6085878564
 20
538.0358841477
 30
0.0
 40
0.9297389778078169
100
AcDbArc
 50
171.2099710906
 51
319.4070802302
  0
LWPOLYLINE
  5
19C
330
1F
100
AcDbEntity
  8
0
  6
Continuous
 62
     8
370
    18
100
AcDbPolyline
 90
        3
 70
   128
 43
0.0
 10
178.5270197977
 20
537.8906518554
 10
178.4533291318
 20
537.6457661723
 10
178.3145867482
 20
537.4309212302
  0
ARC
  5
19D
330
1F
100
AcDbEntity
  8
0
  6
Continuous
 62
     8
370
    18
100
AcDbCircle
 10
177.6087384393
 20
543.574458258
 30
0.0
 40
0.929749110674999
100
AcDbArc
 50
249.5885099383
 51
40.6079076989
  0
LWPOLYLINE
  5
19E
330
1F
100
AcDbEntity
  8
0
  6
Continuous
 62
     8
370
    18
100
AcDbPolyline
 90
        3
 70
   128
 43
0.0
 10
176.9027283842
 20
542.9694593285
 10
177.0763912898
 20
542.811611328
 10
177.2844791374
 20
542.703086171
  0
ARC
  5
19F
330
1F
100
AcDbEntity
  8
0
  6
Continuous
 62
     8
370
    18
100
AcDbCircle
 10
177.6085651368
 20
543.5746145567
 30
0.0
 40
0.9297410238916712
100
AcDbArc
 50
69.7801013617
 51
220.6084205725
  0
LWPOLYLINE
  5
1A0
330
1F
100
AcDbEntity
  8
0
  6
Continuous
 62
     8
370
    18
100
AcDbPolyline
 90
        3
 70
   128
 43
0.0
 10
178.3145867482
 20
544.1796124314
 10
178.1396489784
 20
544.3383694028
 10
177.9299060542
 20
544.4470584725
  0
ARC
  5
1A1
330
1F
100
AcDbEntity
  8
0
  6
Continuous
 62
     8
370
    18
100
AcDbCircle
 10
173.2909767393
 20
538.036071174
 30
0.0
 40
0.9297413909423259
100
AcDbArc
 50
69.587902728
 51
220.607972227
  0
LWPOLYLINE
  5
1A2
330
1F
100
AcDbEntity
  8
0
  6
Continuous
 62
     8
370
    18
100
AcDbPolyline
 90
        3
 70
   128
 43
0.0
 10
173.9969933367
 20
538.6410594319
 10
173.8233304311
 20
538.7989223336
 10
173.6152425835
 20
538.9074325894
  0
ARC
  5
1A3
330
1F
100
AcDbEntity
  8
0
  6
Continuous
 62
     8
370
    18
100
AcDbCircle
 10
173.2911493715
 20
538.0359092177
 30
0.0
 40
0.9297432360248373
100
AcDbArc
 50
249.7806252374
 51
40.6078966968
  0
LWPOLYLINE
  5
1A4
330
1F
100
AcDbEntity
  8
0
  6
Continuous
 62
     8
370
    18
100
AcDbPolyline
 90
        3
 70
   128
 43
0.0
 10
172.5851349727
 20
537.4309212302
 10
172.7600727424
 20
537.2721642588
 10
172.9698156666
 20
537.1634602879
  0
CIRCLE
  5
1A5
330
1F
100
AcDbEntity
  8
0
  6
Continuous
 62
     8
370
    18
100
AcDbCircle
 10
177.6055148975
 20
543.5717423657
 30
0.0
 40
1.228187107753808
  0
CIRCLE
  5
1A6
330
1F
100
AcDbEntity
  8
0
  6
Continuous
 62
     8
370
    18
100
AcDbCircle
 10
173.2942362515
 20
538.0387707295
 30
0.0
 40
1.228182253881538
  0
LINE
  5
1A7
330
1F
100
AcDbEntity
  8
0
  6
Continuous
 62
     8
370
    18
100
AcDbLine
 10
162.9498606742
 20
385.8052637761
 30
0.0
 11
187.9498610467
 21
385.8052637761
 31
0.0
  0
LINE
  5
1A8
330
1F
100
AcDbEntity
  8
0
  6
Continuous
 62
     8
370
    18
100
AcDbLine
 10
175.4498608604
 20
582.6052666043
 30
0.0
 11
162.9498606742
 21
582.6052666043
 31
0.0
  0
LINE
  5
1A9
330
1F
100
AcDbEntity
  8
0
  6
Continuous
 62
     8
370
    18
100
AcDbLine
 10
187.9498610467
 20
582.6052666043
 30
0.0
 11
175.4498608604
 21
582.6052666043
 31
0.0
  0
LINE
  5
1AA
330
1F
100
AcDbEntity
  8
0
  6
Continuous
 62
     8
370
    18
100
AcDbLine
 10
175.5586760589
 20
584.7493052815
 30
0.0
 11
187.7328954831
 21
584.7493052815
 31
0.0
  0
LINE
  5
1AB
330
1F
100
AcDbEntity
  8
0
  6
Continuous
 62
     8
370
    18
100
AcDbLine
 10
163.1668262378
 20
584.7493052815
 30
0.0
 11
175.5586760589
 21
584.7493052815
 31
0.0
  0
LINE
  5
1AC
330
1F
100
AcDbEntity
  8
0
  6
Continuous
 62
     8
370
    18
100
AcDbLine
 10
163.6278011099
 20
585.2434277867
 30
0.0
 11
175.4498608605
 21
585.2434277867
 31
0.0
  0
LINE
  5
1AD
330
1F
100
AcDbEntity
  8
0
  6
Continuous
 62
     8
370
    18
100
AcDbLine
 10
175.5545922967
 20
585.2434277867
 30
0.0
 11
187.271920611
 21
585.2434277867
 31
0.0
  0
CIRCLE
  5
1AE
330
1F
100
AcDbEntity
  8
0
  6
Continuous
 62
     8
370
    18
100
AcDbCircle
 10
181.9054587641
 20
571.1858017703
 30
0.0
 40
1.22617923939694
  0
ARC
  5
1AF
330
1F
100
AcDbEntity
  8
0
  6
Continuous
 62
     8
370
    18
100
AcDbCircle
 10
181.9136547697
 20
571.2167150261
 30
0.0
 40
0.924263080639365
100
AcDbArc
 50
98.494883923
 51
250.6966788051
  0
LWPOLYLINE
  5
1B0
330
1F
100
AcDbEntity
  8
0
  6
Continuous
 62
     8
370
    18
100
AcDbPolyline
 90
        3
 70
   128
 43
0.0
 10
181.6081219547
 20
570.3444123601
 10
181.8210004092
 20
570.2953130339
 10
182.039329429
 20
570.2976972197
  0
ARC
  5
1B1
330
1F
100
AcDbEntity
  8
0
  6
Continuous
 62
     8
370
    18
100
AcDbCircle
 10
181.9231917089
 20
571.2146438276
 30
0.0
 40
0.924272174004855
100
AcDbArc
 50
277.2184765473
 51
70.6965052197
  0
LWPOLYLINE
  5
1B2
330
1F
100
AcDbEntity
  8
0
  6
Continuous
 62
     8
370
    18
100
AcDbPolyline
 90
        3
 70
   128
 43
0.0
 10
182.2287301727
 20
572.0869541501
 10
182.005601582
 20
572.1371859645
 10
181.7771216117
 20
572.1308380698
  0
CIRCLE
  5
1B3
330
1F
100
AcDbEntity
  8
0
  6
Continuous
 62
     8
370
    18
100
AcDbCircle
 10
168.9942631299
 20
510.4247194956
 30
0.0
 40
1.226181702395712
  0
ARC
  5
1B4
330
1F
100
AcDbEntity
  8
0
  6
Continuous
 62
     8
370
    18
100
AcDbCircle
 10
168.9860554385
 20
510.3938120996
 30
0.0
 40
0.9242730548736313
100
AcDbArc
 50
278.495513165
 51
70.6961391853
  0
LWPOLYLINE
  5
1B5
330
1F
100
AcDbEntity
  8
0
  6
Continuous
 62
     8
370
    18
100
AcDbPolyline
 90
        3
 70
   128
 43
0.0
 10
169.2915997662
 20
511.2661213015
 10
169.0787213117
 20
511.3152206277
 10
168.8603922919
 20
511.3128364419
  0
ARC
  5
1B6
330
1F
100
AcDbEntity
  8
0
  6
Continuous
 62
     8
370
    18
100
AcDbCircle
 10
168.9765475681
 20
510.395880711
 30
0.0
 40
0.9242834309158143
100
AcDbArc
 50
97.2194851544
 51
250.6955965127
  0
LWPOLYLINE
  5
1B7
330
1F
100
AcDbEntity
  8
0
  6
Continuous
 62
     8
370
    18
100
AcDbPolyline
 90
        3
 70
   128
 43
0.0
 10
168.6709915482
 20
509.5235646104
 10
168.8941201389
 20
509.4733476971
 10
169.1226001092
 20
509.4796806907
  0
CIRCLE
  5
1B8
330
1F
100
AcDbEntity
  8
0
  6
Continuous
 62
     8
370
    18
100
AcDbCircle
 10
168.9897680125
 20
571.1840961558
 30
0.0
 40
1.226135927213705
  0
ARC
  5
1B9
330
1F
100
AcDbEntity
  8
0
  6
Continuous
 62
     8
370
    18
100
AcDbCircle
 10
168.9769452708
 20
571.2134613795
 30
0.0
 40
0.9242584322436824
100
AcDbArc
 50
138.8695993987
 51
289.9036805222
  0
LWPOLYLINE
  5
1BA
330
1F
100
AcDbEntity
  8
0
  6
Continuous
 62
     8
370
    18
100
AcDbPolyline
 90
        3
 70
   128
 43
0.0
 10
169.6963674583
 20
570.6270277833
 10
169.5134314902
 20
570.4580337142
 10
169.2915997662
 20
570.3444123601
  0
ARC
  5
1BB
330
1F
100
AcDbEntity
  8
0
  6
Continuous
 62
     8
370
    18
100
AcDbCircle
 10
168.985645886
 20
571.2179025132
 30
0.0
 40
0.924260839714882
100
AcDbArc
 50
320.2607791666
 51
109.9036160959
  0
LWPOLYLINE
  5
1BC
330
1F
100
AcDbEntity
  8
0
  6
Continuous
 62
     8
370
    18
100
AcDbPolyline
 90
        3
 70
   128
 43
0.0
 10
168.2807804279
 20
571.8214154576
 10
168.4584758439
 20
571.9796359872
 10
168.6709915482
 20
572.0869541501
  0
CIRCLE
  5
1BD
330
1F
100
AcDbEntity
  8
0
  6
Continuous
 62
     8
370
    18
100
AcDbCircle
 10
181.9099755782
 20
510.4264492119
 30
0.0
 40
1.226136085447552
  0
ARC
  5
1BE
330
1F
100
AcDbEntity
  8
0
  6
Continuous
 62
     8
370
    18
100
AcDbCircle
 10
181.9227729656
 20
510.3970637639
 30
0.0
 40
0.9242652553768563
100
AcDbArc
 50
318.8694434476
 51
109.9032976498
  0
LWPOLYLINE
  5
1BF
330
1F
100
AcDbEntity
  8
0
  6
Continuous
 62
     8
370
    18
100
AcDbPolyline
 90
        3
 70
   128
 43
0.0
 10
181.2033542626
 20
510.9834909772
 10
181.3862902306
 20
511.1524999474
 10
181.6081219547
 20
511.2661213015
  0
ARC
  5
1C0
330
1F
100
AcDbEntity
  8
0
  6
Continuous
 62
     8
370
    18
100
AcDbCircle
 10
181.9140859404
 20
510.3926233448
 30
0.0
 40
0.9242640731029995
100
AcDbArc
 50
140.2615179823
 51
289.9028772802
  0
LWPOLYLINE
  5
1C1
330
1F
100
AcDbEntity
  8
0
  6
Continuous
 62
     8
370
    18
100
AcDbPolyline
 90
        3
 70
   128
 43
0.0
 10
182.6189412929
 20
509.7891033028
 10
182.441245877
 20
509.6308976744
 10
182.2287301727
 20
509.5235646104
  0
CIRCLE
  5
1C2
330
1F
100
AcDbEntity
  8
0
  6
Continuous
 62
     8
370
    18
100
AcDbCircle
 10
181.9063092627
 20
565.6703709812
 30
0.0
 40
1.226771503040418
  0
ARC
  5
1C3
330
1F
100
AcDbEntity
  8
0
  6
Continuous
 62
     8
370
    18
100
AcDbCircle
 10
181.9150905963
 20
565.6953030645
 30
0.0
 40
0.9258839536655596
100
AcDbArc
 50
94.5355340624
 51
246.7510419745
  0
LWPOLYLINE
  5
1C4
330
1F
100
AcDbEntity
  8
0
  6
Continuous
 62
     8
370
    18
100
AcDbPolyline
 90
        3
 70
   128
 43
0.0
 10
181.5496190645
 20
564.8446023797
 10
181.7589584932
 20
564.7812724446
 10
181.9772386186
 20
564.7691428994
  0
ARC
  5
1C5
330
1F
100
AcDbEntity
  8
0
  6
Continuous
 62
     8
370
    18
100
AcDbCircle
 10
181.9217553152
 20
565.6933719834
 30
0.0
 40
0.9258929726145481
100
AcDbArc
 50
273.4354561982
 51
66.7508630998
  0
LWPOLYLINE
  5
1C6
330
1F
100
AcDbEntity
  8
0
  6
Continuous
 62
     8
370
    18
100
AcDbPolyline
 90
        3
 70
   128
 43
0.0
 10
182.2872330629
 20
566.5440798138
 10
182.0691317514
 20
566.6089743708
 10
181.841874142
 20
566.6182875966
  0
CIRCLE
  5
1C7
330
1F
100
AcDbEntity
  8
0
  6
Continuous
 62
     8
370
    18
100
AcDbCircle
 10
168.9933747377
 20
515.940153032
 30
0.0
 40
1.226764176644876
  0
ARC
  5
1C8
330
1F
100
AcDbEntity
  8
0
  6
Continuous
 62
     8
370
    18
100
AcDbCircle
 10
168.9846344917
 20
515.9152300423
 30
0.0
 40
0.9258831343544441
100
AcDbArc
 50
274.5353290693
 51
66.7512469676
  0
LWPOLYLINE
  5
1C9
330
1F
100
AcDbEntity
  8
0
  6
Continuous
 62
     8
370
    18
100
AcDbPolyline
 90
        3
 70
   128
 43
0.0
 10
169.3501026564
 20
516.7659312819
 10
169.1407632277
 20
516.8292463158
 10
168.9224831023
 20
516.8413758611
  0
ARC
  5
1CA
330
1F
100
AcDbEntity
  8
0
  6
Continuous
 62
     8
370
    18
100
AcDbCircle
 10
168.9779596788
 20
515.9171550938
 30
0.0
 40
0.9258842676573514
100
AcDbArc
 50
93.4350715141
 51
246.7510847361
  0
LWPOLYLINE
  5
1CB
330
1F
100
AcDbEntity
  8
0
  6
Continuous
 62
     8
370
    18
100
AcDbPolyline
 90
        3
 70
   128
 43
0.0
 10
168.612488658
 20
515.0664538478
 10
168.8305899695
 20
515.0015592908
 10
169.0578475789
 20
514.992246065
  0
CIRCLE
  5
1CC
330
1F
100
AcDbEntity
  8
0
  6
Continuous
 62
     8
370
    18
100
AcDbCircle
 10
168.9902929848
 20
565.6689428979
 30
0.0
 40
1.226741873417191
  0
ARC
  5
1CD
330
1F
100
AcDbEntity
  8
0
  6
Continuous
 62
     8
370
    18
100
AcDbCircle
 10
168.9783136935
 20
565.6925544521
 30
0.0
 40
0.925877826705955
100
AcDbArc
 50
142.8030446273
 51
293.6752961767
  0
LWPOLYLINE
  5
1CE
330
1F
100
AcDbEntity
  8
0
  6
Continuous
 62
     8
370
    18
100
AcDbPolyline
 90
        3
 70
   128
 43
0.0
 10
169.7333507434
 20
565.1519388293
 10
169.5627575934
 20
564.9721414183
 10
169.3501026564
 20
564.8446023797
  0
ARC
  5
1CF
330
1F
100
AcDbEntity
  8
0
  6
Continuous
 62
     8
370
    18
100
AcDbCircle
 10
168.9842729686
 20
565.6961231463
 30
0.0
 40
0.9258801669714521
100
AcDbArc
 50
324.0026305216
 51
113.674918326
  0
LWPOLYLINE
  5
1D0
330
1F
100
AcDbEntity
  8
0
  6
Continuous
 62
     8
370
    18
100
AcDbPolyline
 90
        3
 70
   128
 43
0.0
 10
168.2407945589
 20
566.2523001765
 10
168.4074919865
 20
566.4224863385
 10
168.612488658
 20
566.5440798138
  0
CIRCLE
  5
1D1
330
1F
100
AcDbEntity
  8
0
  6
Continuous
 62
     8
370
    18
100
AcDbCircle
 10
181.9094312409
 20
515.9415731562
 30
0.0
 40
1.226738256770697
  0
ARC
  5
1D2
330
1F
100
AcDbEntity
  8
0
  6
Continuous
 62
     8
370
    18
100
AcDbCircle
 10
181.9214048938
 20
515.917970815
 30
0.0
 40
0.9258842564254542
100
AcDbArc
 50
322.8028411247
 51
113.674909991
  0
LWPOLYLINE
  5
1D3
330
1F
100
AcDbEntity
  8
0
  6
Continuous
 62
     8
370
    18
100
AcDbPolyline
 90
        3
 70
   128
 43
0.0
 10
181.1663709775
 20
516.4585948323
 10
181.3369641275
 20
516.6383773421
 10
181.5496190645
 20
516.7659312819
  0
ARC
  5
1D4
330
1F
100
AcDbEntity
  8
0
  6
Continuous
 62
     8
370
    18
100
AcDbCircle
 10
181.9154384247
 20
515.9144022001
 30
0.0
 40
0.9258766987525775
100
AcDbArc
 50
144.001838584
 51
293.6757102636
  0
LWPOLYLINE
  5
1D5
330
1F
100
AcDbEntity
  8
0
  6
Continuous
 62
     8
370
    18
100
AcDbPolyline
 90
        3
 70
   128
 43
0.0
 10
182.658927162
 20
515.3582185839
 10
182.4922297344
 20
515.188032422
 10
182.2872330629
 20
515.0664538478
  0
ARC
  5
1D6
330
1F
100
AcDbEntity
  8
0
  6
Continuous
 62
     8
370
    18
100
AcDbCircle
 10
168.9893579191
 20
521.4607152206
 30
0.0
 40
1.228802421793099
100
AcDbArc
 50
1.2517031041
 51
61.0202864029
  0
LWPOLYLINE
  5
1D7
330
1F
100
AcDbEntity
  8
0
  6
Continuous
 62
     8
370
    18
100
AcDbPolyline
 90
        3
 70
   128
 43
0.0
 10
168.3961335764
 20
520.3931272363
 10
168.4829416879
 20
520.3493476247
 10
168.9492642142
 20
520.2392429446
  0
ARC
  5
1D8
330
1F
100
AcDbEntity
  8
0
  6
Continuous
 62
     8
370
    18
100
AcDbCircle
 10
168.9834707896
 20
521.4465452053
 30
0.0
 40
0.9271860795219397
100
AcDbArc
 50
268.7967115354
 51
61.1110698224
  0
LWPOLYLINE
  5
1D9
330
1F
100
AcDbEntity
  8
0
  6
Continuous
 62
     8
370
    18
100
AcDbPolyline
 90
        3
 70
   128
 43
0.0
 10
169.4314066515
 20
522.2583502864
 10
169.2289757736
 20
522.3417222832
 10
169.0126304709
 20
522.3748624657
  0
ARC
  5
1DA
330
1F
100
AcDbEntity
  8
0
  6
Continuous
 62
     8
370
    18
100
AcDbCircle
 10
168.9791187769
 20
521.4482831074
 30
0.0
 40
0.9271851708049992
100
AcDbArc
 50
87.9286802835
 51
241.1111622042
  0
LWPOLYLINE
  5
1DB
330
1F
100
AcDbEntity
  8
0
  6
Continuous
 62
     8
370
    18
100
AcDbPolyline
 90
        3
 70
   128
 43
0.0
 10
168.5311846629
 20
520.6364780997
 10
168.7403806679
 20
520.5511987542
 10
168.9640000657
 20
520.519563589
  0
CIRCLE
  5
1DC
330
1F
100
AcDbEntity
  8
0
  6
Continuous
 62
     8
370
    18
100
AcDbCircle
 10
168.9906770349
 20
560.143652383
 30
0.0
 40
1.227226094377744
  0
ARC
  5
1DD
330
1F
100
AcDbEntity
  8
0
  6
Continuous
 62
     8
370
    18
100
AcDbCircle
 10
168.9794115807
 20
560.1617167653
 30
0.0
 40
0.9271828189435026
100
AcDbArc
 50
148.437199064
 51
299.1759320307
  0
LWPOLYLINE
  5
1DE
330
1F
100
AcDbEntity
  8
0
  6
Continuous
 62
     8
370
    18
100
AcDbPolyline
 90
        3
 70
   128
 43
0.0
 10
169.7811057054
 20
559.6923023795
 10
169.6293536768
 20
559.4985574817
 10
169.4314066515
 20
559.3521684741
  0
ARC
  5
1DF
330
1F
100
AcDbEntity
  8
0
  6
Continuous
 62
     8
370
    18
100
AcDbCircle
 10
168.9831768027
 20
560.164506232
 30
0.0
 40
0.9271822970723912
100
AcDbArc
 50
329.3835102846
 51
119.1757426008
  0
LWPOLYLINE
  5
1E0
330
1F
100
AcDbEntity
  8
0
  6
Continuous
 62
     8
370
    18
100
AcDbPolyline
 90
        3
 70
   128
 43
0.0
 10
168.1893897437
 20
560.6470346783
 10
168.3388018243
 20
560.8329415654
 10
168.5311846629
 20
560.9740555619
  0
CIRCLE
  5
1E1
330
1F
100
AcDbEntity
  8
0
  6
Continuous
 62
     8
370
    18
100
AcDbCircle
 10
181.9090433171
 20
521.4668825044
 30
0.0
 40
1.227227896511469
  0
ARC
  5
1E2
330
1F
100
AcDbEntity
  8
0
  6
Continuous
 62
     8
370
    18
100
AcDbCircle
 10
181.9203134555
 20
521.4488051752
 30
0.0
 40
0.9271816585883089
100
AcDbArc
 50
328.4369243843
 51
119.1762067104
  0
LWPOLYLINE
  5
1E3
330
1F
100
AcDbEntity
  8
0
  6
Continuous
 62
     8
370
    18
100
AcDbPolyline
 90
        3
 70
   128
 43
0.0
 10
181.1186160155
 20
521.9182312821
 10
181.2703680441
 20
522.11197618
 10
181.4683150694
 20
522.2583502864
  0
ARC
  5
1E4
330
1F
100
AcDbEntity
  8
0
  6
Continuous
 62
     8
370
    18
100
AcDbCircle
 10
181.916537533
 20
521.4460202279
 30
0.0
 40
0.9271796092774458
100
AcDbArc
 50
149.3828948651
 51
299.1763580203
  0
LWPOLYLINE
  5
1E5
330
1F
100
AcDbEntity
  8
0
  6
Continuous
 62
     8
370
    18
100
AcDbPolyline
 90
        3
 70
   128
 43
0.0
 10
182.7103319772
 20
520.9634840821
 10
182.5609198965
 20
520.7775771951
 10
182.368537058
 20
520.6364780997
  0
ARC
  5
1E6
330
1F
100
AcDbEntity
  8
0
  6
Continuous
 62
     8
370
    18
100
AcDbCircle
 10
181.920602944
 20
560.1622505542
 30
0.0
 40
0.9271851708049992
100
AcDbArc
 50
267.9286802835
 51
61.1111622042
  0
LWPOLYLINE
  5
1E7
330
1F
100
AcDbEntity
  8
0
  6
Continuous
 62
     8
370
    18
100
AcDbPolyline
 90
        3
 70
   128
 43
0.0
 10
181.4683150694
 20
559.3521684741
 10
181.6707459472
 20
559.2687964772
 10
181.88709125
 20
559.2356711959
  0
ARC
  5
1E8
330
1F
100
AcDbEntity
  8
0
  6
Continuous
 62
     8
370
    18
100
AcDbCircle
 10
181.9162492895
 20
560.1639739965
 30
0.0
 40
0.9271856727579547
100
AcDbArc
 50
88.7966095282
 51
241.1111718296
  0
LWPOLYLINE
  5
1E9
330
1F
100
AcDbEntity
  8
0
  6
Continuous
 62
     8
370
    18
100
AcDbPolyline
 90
        3
 70
   128
 43
0.0
 10
182.368537058
 20
560.9740555619
 10
182.159341053
 20
561.0593349074
 10
181.9357216552
 20
561.0909551715
  0
CIRCLE
  5
1EA
330
1F
100
AcDbEntity
  8
0
  6
Continuous
 62
     8
370
    18
100
AcDbCircle
 10
168.992065037
 20
527.0214451248
 30
0.0
 40
1.227606282199754
  0
ARC
  5
1EB
330
1F
100
AcDbEntity
  8
0
  6
Continuous
 62
     8
370
    18
100
AcDbCircle
 10
168.9825860736
 20
527.007800828
 30
0.0
 40
0.9281663829700377
100
AcDbArc
 50
259.9911919526
 51
52.5305705052
  0
LWPOLYLINE
  5
1EC
330
1F
100
AcDbEntity
  8
0
  6
Continuous
 62
     8
370
    18
100
AcDbPolyline
 90
        3
 70
   128
 43
0.0
 10
169.5472249955
 20
527.7444660996
 10
169.359197487
 20
527.856999669
 10
169.1498990365
 20
527.9217899178
  0
ARC
  5
1ED
330
1F
100
AcDbEntity
  8
0
  6
Continuous
 62
     8
370
    18
100
AcDbCircle
 10
168.9800127881
 20
527.0092988849
 30
0.0
 40
0.9281709015625174
100
AcDbArc
 50
79.4535048478
 51
232.5301972914
  0
LWPOLYLINE
  5
1EE
330
1F
100
AcDbEntity
  8
0
  6
Continuous
 62
     8
370
    18
100
AcDbPolyline
 90
        3
 70
   128
 43
0.0
 10
168.4153663189
 20
526.272633705
 10
168.6073691778
 20
526.1582970952
 10
168.8212711558
 20
526.0937601661
  0
CIRCLE
  5
1EF
330
1F
100
AcDbEntity
  8
0
  6
Continuous
 62
     8
370
    18
100
AcDbCircle
 10
168.9909292507
 20
554.5881760353
 30
0.0
 40
1.227593348425643
  0
ARC
  5
1F0
330
1F
100
AcDbEntity
  8
0
  6
Continuous
 62
     8
370
    18
100
AcDbCircle
 10
168.9802386904
 20
554.6009256737
 30
0.0
 40
0.9281648100124364
100
AcDbArc
 50
157.0183729105
 51
307.6523011758
  0
LWPOLYLINE
  5
1F1
330
1F
100
AcDbEntity
  8
0
  6
Continuous
 62
     8
370
    18
100
AcDbPolyline
 90
        3
 70
   128
 43
0.0
 10
169.8405143068
 20
554.2494148349
 10
169.7196086131
 20
554.0380716657
 10
169.5472249955
 20
553.866067562
  0
ARC
  5
1F2
330
1F
100
AcDbEntity
  8
0
  6
Continuous
 62
     8
370
    18
100
AcDbCircle
 10
168.9823538034
 20
554.6030316654
 30
0.0
 40
0.9281617921570262
100
AcDbArc
 50
337.6052167045
 51
127.6525368687
  0
LWPOLYLINE
  5
1F3
330
1F
100
AcDbEntity
  8
0
  6
Continuous
 62
     8
370
    18
100
AcDbPolyline
 90
        3
 70
   128
 43
0.0
 10
168.1257422276
 20
554.9633145665
 10
168.245916833
 20
555.1696211432
 10
168.4153663189
 20
555.3378850554
  0
CIRCLE
  5
1F4
330
1F
100
AcDbEntity
  8
0
  6
Continuous
 62
     8
370
    18
100
AcDbCircle
 10
181.9087924702
 20
527.0223427251
 30
0.0
 40
1.227593348425669
  0
ARC
  5
1F5
330
1F
100
AcDbEntity
  8
0
  6
Continuous
 62
     8
370
    18
100
AcDbCircle
 10
181.9194773918
 20
527.009600683
 30
0.0
 40
0.9281671490938969
100
AcDbArc
 50
337.0189239529
 51
127.6517501334
  0
LWPOLYLINE
  5
1F6
330
1F
100
AcDbEntity
  8
0
  6
Continuous
 62
     8
370
    18
100
AcDbPolyline
 90
        3
 70
   128
 43
0.0
 10
181.0592074141
 20
527.3611188268
 10
181.1801131077
 20
527.5724470948
 10
181.3524967254
 20
527.7444660996
  0
ARC
  5
1F7
330
1F
100
AcDbEntity
  8
0
  6
Continuous
 62
     8
370
    18
100
AcDbCircle
 10
181.9173756113
 20
527.0075020096
 30
0.0
 40
0.9281689006222894
100
AcDbArc
 50
157.6053984118
 51
307.6515984337
  0
LWPOLYLINE
  5
1F8
330
1F
100
AcDbEntity
  8
0
  6
Continuous
 62
     8
370
    18
100
AcDbPolyline
 90
        3
 70
   128
 43
0.0
 10
182.7739794933
 20
526.6472190951
 10
182.6538048879
 20
526.4409125184
 10
182.484355402
 20
526.272633705
  0
CIRCLE
  5
1F9
330
1F
100
AcDbEntity
  8
0
  6
Continuous
 62
     8
370
    18
100
AcDbCircle
 10
181.9111156166
 20
560.1476903656
 30
0.0
 40
1.227237469897673
  0
ARC
  5
1FA
330
1F
100
AcDbEntity
  8
0
  6
Continuous
 62
     8
370
    18
100
AcDbCircle
 10
181.9197157117
 20
554.6012251011
 30
0.0
 40
0.9281626302553241
100
AcDbArc
 50
259.4529841333
 51
52.5303331759
  0
LWPOLYLINE
  5
1FB
330
1F
100
AcDbEntity
  8
0
  6
Continuous
 62
     8
370
    18
100
AcDbPolyline
 90
        3
 70
   128
 43
0.0
 10
181.3524967254
 20
553.866067562
 10
181.5405242339
 20
553.7535190915
 10
181.7498226844
 20
553.6887437438
  0
ARC
  5
1FC
330
1F
100
AcDbEntity
  8
0
  6
Continuous
 62
     8
370
    18
100
AcDbCircle
 10
181.9171429466
 20
554.6027296234
 30
0.0
 40
0.9281682756632608
100
AcDbArc
 50
79.9916701249
 51
232.5300923329
  0
LWPOLYLINE
  5
1FD
330
1F
100
AcDbEntity
  8
0
  6
Continuous
 62
     8
370
    18
100
AcDbPolyline
 90
        3
 70
   128
 43
0.0
 10
182.484355402
 20
555.3378850554
 10
182.2923525431
 20
555.4522216653
 10
182.0784505651
 20
555.5167734956
  0
ARC
  5
1FE
330
1F
100
AcDbEntity
  8
0
  6
Continuous
 62
     8
370
    18
100
AcDbCircle
 10
168.9913824154
 20
532.5364009573
 30
0.0
 40
1.226901443971775
100
AcDbArc
 50
245.7203661358
 51
38.7291985768
  0
LWPOLYLINE
  5
1FF
330
1F
100
AcDbEntity
  8
0
  6
Continuous
 62
     8
370
    18
100
AcDbPolyline
 90
        3
 70
   128
 43
0.0
 10
168.0324842416
 20
531.7706704472
 10
168.0968842663
 20
531.6964477633
 10
168.4868923582
 20
531.4180195664
  0
ARC
  5
200
330
1F
100
AcDbEntity
  8
0
  6
Continuous
 62
     8
370
    18
100
AcDbCircle
 10
168.9819532358
 20
532.5289892074
 30
0.0
 40
0.9288337021630427
100
AcDbArc
 50
245.7635887793
 51
38.7116079513
  0
LWPOLYLINE
  5
201
330
1F
100
AcDbEntity
  8
0
  6
Continuous
 62
     8
370
    18
100
AcDbPolyline
 90
        3
 70
   128
 43
0.0
 10
169.706725628
 20
533.1098825072
 10
169.5507649526
 20
533.2640797232
 10
169.3626964659
 20
533.3768815135
  0
ARC
  5
202
330
1F
100
AcDbEntity
  8
0
  6
Continuous
 62
     8
370
    18
100
AcDbCircle
 10
168.9806515231
 20
532.5302505485
 30
0.0
 40
0.9288392375754801
100
AcDbArc
 50
65.7125706011
 51
218.7107078991
  0
LWPOLYLINE
  5
203
330
1F
100
AcDbEntity
  8
0
  6
Continuous
 62
     8
370
    18
100
AcDbPolyline
 90
        3
 70
   128
 43
0.0
 10
168.2558656864
 20
531.9493651723
 10
168.4121583782
 20
531.7948997353
 10
168.6006645866
 20
531.6820234393
  0
ARC
  5
204
330
1F
100
AcDbEntity
  8
0
  6
Continuous
 62
     8
370
    18
100
AcDbCircle
 10
181.9095866061
 20
532.5379417687
 30
0.0
 40
1.22691263187459
100
AcDbArc
 50
350.9116341226
 51
141.3990223574
  0
LWPOLYLINE
  5
205
330
1F
100
AcDbEntity
  8
0
  6
Continuous
 62
     8
370
    18
100
AcDbPolyline
 90
        3
 70
   128
 43
0.0
 10
182.8669948697
 20
531.770372424
 10
182.9545508333
 20
531.8948269223
 10
183.1210964553
 20
532.3441416358
  0
ARC
  5
206
330
1F
100
AcDbEntity
  8
0
  6
Continuous
 62
     8
370
    18
100
AcDbCircle
 10
181.9188933174
 20
532.5303907928
 30
0.0
 40
0.928836598961133
100
AcDbArc
 50
350.8455605625
 51
141.3992492422
  0
LWPOLYLINE
  5
207
330
1F
100
AcDbEntity
  8
0
  6
Continuous
 62
     8
370
    18
100
AcDbPolyline
 90
        3
 70
   128
 43
0.0
 10
181.0008069694
 20
532.6757222747
 10
181.0682580069
 20
532.905468378
 10
181.1929960929
 20
533.1098825072
  0
ARC
  5
208
330
1F
100
AcDbEntity
  8
0
  6
Continuous
 62
     8
370
    18
100
AcDbCircle
 10
181.9179545089
 20
532.5288468223
 30
0.0
 40
0.9288336813310287
100
AcDbArc
 50
170.9016922039
 51
321.3998999563
  0
LWPOLYLINE
  5
209
330
1F
100
AcDbEntity
  8
0
  6
Continuous
 62
     8
370
    18
100
AcDbPolyline
 90
        3
 70
   128
 43
0.0
 10
182.835899406
 20
532.382616434
 10
182.768403665
 20
532.153362069
 10
182.6438560345
 20
531.9493651723
  0
CIRCLE
  5
20A
330
1F
100
AcDbEntity
  8
0
  6
Continuous
 62
     8
370
    18
100
AcDbCircle
 10
181.9104937511
 20
554.5905049112
 30
0.0
 40
1.227608205486639
  0
CIRCLE
  5
20B
330
1F
100
AcDbEntity
  8
0
  6
Continuous
 62
     8
370
    18
100
AcDbCircle
 10
168.9911441939
 20
543.5565914484
 30
0.0
 40
1.227977066080209
  0
ARC
  5
20C
330
1F
100
AcDbEntity
  8
0
  6
Continuous
 62
     8
370
    18
100
AcDbCircle
 10
168.9811967693
 20
543.5592704371
 30
0.0
 40
0.9291812972910004
100
AcDbArc
 50
192.8392092006
 51
343.3443010887
  0
LWPOLYLINE
  5
20D
330
1F
100
AcDbEntity
  8
0
  6
Continuous
 62
     8
370
    18
100
AcDbPolyline
 90
        3
 70
   128
 43
0.0
 10
169.8872536615
 20
543.7673420047
 10
169.9106154226
 20
543.5291171407
 10
169.8713937037
 20
543.2929486369
  0
ARC
  5
20E
330
1F
100
AcDbEntity
  8
0
  6
Continuous
 62
     8
370
    18
100
AcDbCircle
 10
168.9813937313
 20
543.5604809686
 30
0.0
 40
0.9291790470283786
100
AcDbArc
 50
12.8634201505
 51
163.3445898167
  0
LWPOLYLINE
  5
20F
330
1F
100
AcDbEntity
  8
0
  6
Continuous
 62
     8
370
    18
100
AcDbPolyline
 90
        3
 70
   128
 43
0.0
 10
168.0752473146
 20
543.3527917002
 10
168.0519842737
 20
543.5908377503
 10
168.0911976107
 20
543.8267976378
  0
CIRCLE
  5
210
330
1F
100
AcDbEntity
  8
0
  6
Continuous
 62
     8
370
    18
100
AcDbCircle
 10
181.908577527
 20
538.053927312
 30
0.0
 40
1.227977066080156
  0
ARC
  5
211
330
1F
100
AcDbEntity
  8
0
  6
Continuous
 62
     8
370
    18
100
AcDbCircle
 10
181.9185228463
 20
538.05125145
 30
0.0
 40
0.9291826551962631
100
AcDbArc
 50
12.8389923781
 51
163.343568293
  0
LWPOLYLINE
  5
212
330
1F
100
AcDbEntity
  8
0
  6
Continuous
 62
     8
370
    18
100
AcDbPolyline
 90
        3
 70
   128
 43
0.0
 10
181.0124680594
 20
537.8431767558
 10
180.9891062983
 20
538.081416521
 10
181.0283280172
 20
538.3175850247
  0
ARC
  5
213
330
1F
100
AcDbEntity
  8
0
  6
Continuous
 62
     8
370
    18
100
AcDbCircle
 10
181.9183286942
 20
538.0500590776
 30
0.0
 40
0.9291844729921828
100
AcDbArc
 50
192.8646900663
 51
343.3433199009
  0
LWPOLYLINE
  5
214
330
1F
100
AcDbEntity
  8
0
  6
Continuous
 62
     8
370
    18
100
AcDbPolyline
 90
        3
 70
   128
 43
0.0
 10
182.8244744063
 20
538.2577270602
 10
182.8477374472
 20
538.0196810101
 10
182.8085241102
 20
537.7837211226
  0
CIRCLE
  5
215
330
1F
100
AcDbEntity
  8
0
  6
Continuous
 62
     8
370
    18
100
AcDbCircle
 10
181.9084142874
 20
543.557161122
 30
0.0
 40
1.227981412908774
  0
ARC
  5
216
330
1F
100
AcDbEntity
  8
0
  6
Continuous
 62
     8
370
    18
100
AcDbCircle
 10
181.9181853697
 20
543.5604236636
 30
0.0
 40
0.9291872780426861
100
AcDbArc
 50
43.8041868524
 51
196.7298276319
  0
LWPOLYLINE
  5
217
330
1F
100
AcDbEntity
  8
0
  6
Continuous
 62
     8
370
    18
100
AcDbPolyline
 90
        3
 70
   128
 43
0.0
 10
181.0283280172
 20
543.2929486369
 10
181.1153927081
 20
543.0914551352
 10
181.2478062891
 20
542.9164111947
  0
ARC
  5
218
330
1F
100
AcDbEntity
  8
0
  6
Continuous
 62
     8
370
    18
100
AcDbCircle
 10
181.9186657086
 20
543.5593244865
 30
0.0
 40
0.9291877429116248
100
AcDbArc
 50
223.7814073804
 51
16.7296982656
  0
LWPOLYLINE
  5
219
330
1F
100
AcDbEntity
  8
0
  6
Continuous
 62
     8
370
    18
100
AcDbPolyline
 90
        3
 70
   128
 43
0.0
 10
182.8085241102
 20
543.8267976378
 10
182.7213667527
 20
544.0284550523
 10
182.5887887933
 20
544.2036033009
  0
CIRCLE
  5
21A
330
1F
100
AcDbEntity
  8
0
  6
Continuous
 62
     8
370
    18
100
AcDbCircle
 10
168.9912921139
 20
538.05337921
 30
0.0
 40
1.227974970596299
  0
ARC
  5
21B
330
1F
100
AcDbEntity
  8
0
  6
Continuous
 62
     8
370
    18
100
AcDbCircle
 10
168.9815436698
 20
538.0500974572
 30
0.0
 40
0.9291838793324574
100
AcDbArc
 50
223.8033163798
 51
16.7306981046
  0
LWPOLYLINE
  5
21C
330
1F
100
AcDbEntity
  8
0
  6
Continuous
 62
     8
370
    18
100
AcDbPolyline
 90
        3
 70
   128
 43
0.0
 10
169.8713937037
 20
538.3175850247
 10
169.7843290128
 20
538.5190785264
 10
169.6519154318
 20
538.6941075658
  0
ARC
  5
21D
330
1F
100
AcDbEntity
  8
0
  6
Continuous
 62
     8
370
    18
100
AcDbCircle
 10
168.9810498545
 20
538.0512048304
 30
0.0
 40
0.9291848846443976
100
AcDbArc
 50
43.7806746933
 51
196.7304309527
  0
LWPOLYLINE
  5
21E
330
1F
100
AcDbEntity
  8
0
  6
Continuous
 62
     8
370
    18
100
AcDbPolyline
 90
        3
 70
   128
 43
0.0
 10
168.0911976107
 20
537.7837211226
 10
168.1783549682
 20
537.5820786094
 10
168.3109329276
 20
537.4069303607
  0
LWPOLYLINE
  5
21F
330
1F
100
AcDbEntity
  8
0
  6
Continuous
 62
     8
370
    18
100
AcDbPolyline
 90
        3
 70
   128
 43
0.0
 10
168.0638223149
 20
549.2279172276
 10
168.1313180559
 20
549.4571715926
 10
168.2558656864
 20
549.6611684893
  0
ARC
  5
220
330
1F
100
AcDbEntity
  8
0
  6
Continuous
 62
     8
370
    18
100
AcDbCircle
 10
168.981767212
 20
549.0816868393
 30
0.0
 40
0.9288336813310287
100
AcDbArc
 50
350.9016922039
 51
141.3998999563
  0
LWPOLYLINE
  5
221
330
1F
100
AcDbEntity
  8
0
  6
Continuous
 62
     8
370
    18
100
AcDbPolyline
 90
        3
 70
   128
 43
0.0
 10
169.8989147514
 20
548.9348113869
 10
169.831463714
 20
548.7050652837
 10
169.706725628
 20
548.5006511544
  0
ARC
  5
222
330
1F
100
AcDbEntity
  8
0
  6
Continuous
 62
     8
370
    18
100
AcDbCircle
 10
168.9808205252
 20
549.0801250717
 30
0.0
 40
0.9288316526775476
100
AcDbArc
 50
170.8443993977
 51
321.4004104071
  0
ARC
  5
223
330
1F
100
AcDbEntity
  8
0
  6
Continuous
 62
     8
370
    18
100
AcDbCircle
 10
181.919080238
 20
549.0802753285
 30
0.0
 40
0.9288362716428473
100
AcDbArc
 50
245.7118085713
 51
38.7114699289
  0
LWPOLYLINE
  5
224
330
1F
100
AcDbEntity
  8
0
  6
Continuous
 62
     8
370
    18
100
AcDbPolyline
 90
        3
 70
   128
 43
0.0
 10
181.1929960929
 20
548.5006511544
 10
181.3489567682
 20
548.3464390372
 10
181.537025255
 20
548.2336521481
  0
ARC
  5
225
330
1F
100
AcDbEntity
  8
0
  6
Continuous
 62
     8
370
    18
100
AcDbCircle
 10
181.9177784767
 20
549.0815367145
 30
0.0
 40
0.9288366582451862
100
AcDbArc
 50
65.7643467754
 51
218.7108499551
  0
LWPOLYLINE
  5
226
330
1F
100
AcDbEntity
  8
0
  6
Continuous
 62
     8
370
    18
100
AcDbPolyline
 90
        3
 70
   128
 43
0.0
 10
182.6438560345
 20
549.6611684893
 10
182.4875633426
 20
549.8156339263
 10
182.2990571343
 20
549.9285102223
  0
ARC
  5
227
330
1F
100
AcDbEntity
  8
0
  6
Continuous
 62
     8
370
    18
100
AcDbCircle
 10
181.9097696602
 20
549.0726896036
 30
0.0
 40
1.226899128275034
100
AcDbArc
 50
245.7723524874
 51
38.7287984134
  0
LWPOLYLINE
  5
228
330
1F
100
AcDbEntity
  8
0
  6
Continuous
 62
     8
370
    18
100
AcDbPolyline
 90
        3
 70
   128
 43
0.0
 10
180.950865262
 20
548.3069658612
 10
181.0160354905
 20
548.2319236134
 10
181.4062955052
 20
547.9538530444
  0
ARC
  5
229
330
1F
100
AcDbEntity
  8
0
  6
Continuous
 62
     8
370
    18
100
AcDbCircle
 10
168.9912034799
 20
549.074238657
 30
0.0
 40
1.226909867744892
100
AcDbArc
 50
350.8544568335
 51
141.3998978212
  0
LWPOLYLINE
  5
22A
330
1F
100
AcDbEntity
  8
0
  6
Continuous
 62
     8
370
    18
100
AcDbPolyline
 90
        3
 70
   128
 43
0.0
 10
169.9486133837
 20
548.306667838
 10
170.0355267346
 20
548.430079255
 10
170.2025165975
 20
548.8792300557
  0
LINE
  5
22B
330
1F
100
AcDbEntity
  8
0
  6
Continuous
 62
     8
370
    18
100
AcDbLine
 10
175.9456937395
 20
384.2052627688
 30
0.0
 11
175.1214754729
 21
384.2052627688
 31
0.0
  0
LINE
  5
22C
330
1F
100
AcDbEntity
  8
0
  6
Continuous
 62
     8
370
    18
100
AcDbLine
 10
174.7415275274
 20
384.2052627688
 30
0.0
 11
166.1343608246
 21
384.2052627688
 31
0.0
  0
LINE
  5
22D
330
1F
100
AcDbEntity
  8
0
  6
Continuous
 62
     8
370
    18
100
AcDbLine
 10
184.7653608963
 20
384.2052627688
 30
0.0
 11
176.1581941935
 21
384.2052627688
 31
0.0
  0
LINE
  5
22E
330
1F
100
AcDbEntity
  8
0
  6
Continuous
 62
     8
370
    18
100
AcDbLine
 10
176.1657979766
 20
384.2052627688
 30
0.0
 11
175.9510168301
 21
384.2052627688
 31
0.0
  0
LINE
  5
22F
330
1F
100
AcDbEntity
  8
0
  6
Continuous
 62
     8
370
    18
100
AcDbLine
 10
175.1179503005
 20
384.2052627688
 30
0.0
 11
174.7339237443
 21
384.2052627688
 31
0.0
  0
LINE
  5
230
330
1F
100
AcDbEntity
  8
0
  6
Continuous
 62
     8
370
    18
100
AcDbLine
 10
175.9510168301
 20
384.2052627688
 30
0.0
 11
175.9456937395
 21
384.2052627688
 31
0.0
  0
ARC
  5
231
330
1F
100
AcDbEntity
  8
0
  6
Continuous
 62
     8
370
    18
100
AcDbCircle
 10
175.4498608604
 20
367.605263028
 30
0.0
 40
24.5
100
AcDbArc
 50
289.0583324829
 51
59.3225755274
  0
ARC
  5
232
330
1F
100
AcDbEntity
  8
0
  6
Continuous
 62
     8
370
    18
100
AcDbCircle
 10
175.4498608604
 20
367.605263028
 30
0.0
 40
24.5
100
AcDbArc
 50
120.6774244726
 51
250.9416675171
  0
ARC
  5
233
330
1F
100
AcDbEntity
  8
0
  6
Continuous
 62
     8
370
    18
100
AcDbCircle
 10
175.4498608604
 20
367.605263028
 30
0.0
 40
25.30000000000002
100
AcDbArc
 50
119.6085193042
 51
253.9378531832
  0
ARC
  5
234
330
1F
100
AcDbEntity
  8
0
  6
Continuous
 62
     8
370
    18
100
AcDbCircle
 10
175.4498608604
 20
367.605263028
 30
0.0
 40
25.30000000000002
100
AcDbArc
 50
286.0621468168
 51
60.3914806958
  0
ARC
  5
235
330
1F
100
AcDbEntity
  8
0
  6
Continuous
 62
     8
370
    18
100
AcDbCircle
 10
175.4498608604
 20
367.605263028
 30
0.0
 40
29.39999999999999
100
AcDbArc
 50
283.774146998
 51
64.8385713625
  0
ARC
  5
236
330
1F
100
AcDbEntity
  8
0
  6
Continuous
 62
     8
370
    18
100
AcDbCircle
 10
175.4498608604
 20
367.605263028
 30
0.0
 40
29.39999999999999
100
AcDbArc
 50
115.1614286375
 51
256.225853002
  0
ARC
  5
237
330
1F
100
AcDbEntity
  8
0
  6
Continuous
 62
     7
370
    25
100
AcDbCircle
 10
401.9800764404
 20
338.205263028
 30
0.0
 40
0.6000000000000796
100
AcDbArc
 50
270.0
 51
0.0
  0
ARC
  5
238
330
1F
100
AcDbEntity
  8
0
  6
Continuous
 62
     7
370
    25
100
AcDbCircle
 10
401.9800764404
 20
397.005263028
 30
0.0
 40
0.5999999999999659
100
AcDbArc
 50
0.0
 51
90.0
  0
LINE
  5
239
330
1F
100
AcDbEntity
  8
0
  6
Continuous
 62
     7
370
    25
100
AcDbLine
 10
393.3800767056
 20
337.6052636986
 30
0.0
 11
401.9800760664
 21
337.6052636986
 31
0.0
  0
LINE
  5
23A
330
1F
100
AcDbEntity
  8
0
  6
Continuous
 62
     7
370
    25
100
AcDbLine
 10
401.9800760664
 20
397.6052623575
 30
0.0
 11
393.3800767056
 21
397.6052623575
 31
0.0
  0
ARC
  5
23B
330
1F
100
AcDbEntity
  8
0
  6
Continuous
 62
     7
370
    25
100
AcDbCircle
 10
402.9800764404
 20
342.305263028
 30
0.0
 40
0.4000000000000341
100
AcDbArc
 50
90.0
 51
180.0
  0
ARC
  5
23C
330
1F
100
AcDbEntity
  8
0
  6
Continuous
 62
     7
370
    25
100
AcDbCircle
 10
402.9800764404
 20
392.905263028
 30
0.0
 40
0.4000000000000341
100
AcDbArc
 50
180.0
 51
270.0
  0
ARC
  5
23D
330
1F
100
AcDbEntity
  8
0
  6
Continuous
 62
     7
370
    25
100
AcDbCircle
 10
410.6800764404
 20
343.105263028
 30
0.0
 40
0.3999999999999773
100
AcDbArc
 50
270.0
 51
0.0
  0
ARC
  5
23E
330
1F
100
AcDbEntity
  8
0
  6
Continuous
 62
     7
370
    25
100
AcDbCircle
 10
410.6800764404
 20
392.105263028
 30
0.0
 40
0.3999999999999773
100
AcDbArc
 50
0.0
 51
90.0
  0
LINE
  5
23F
330
1F
100
AcDbEntity
  8
0
  6
Continuous
 62
     7
370
    25
100
AcDbLine
 10
402.9800762303
 20
342.7052624856
 30
0.0
 11
410.6800764505
 21
342.7052624856
 31
0.0
  0
LINE
  5
240
330
1F
100
AcDbEntity
  8
0
  6
Continuous
 62
     7
370
    25
100
AcDbLine
 10
410.6800764505
 20
392.5052635704
 30
0.0
 11
402.9800762303
 21
392.5052635704
 31
0.0
  0
LINE
  5
241
330
1F
100
AcDbEntity
  8
0
  6
Continuous
 62
     7
370
    25
100
AcDbLine
 10
459.3210807882
 20
347.6052634751
 30
0.0
 11
464.7800764881
 21
347.6052634751
 31
0.0
  0
LINE
  5
242
330
1F
100
AcDbEntity
  8
0
  6
Continuous
 62
     7
370
    25
100
AcDbLine
 10
411.0800764404
 20
347.6052634751
 30
0.0
 11
436.8164419077
 21
347.6052634751
 31
0.0
  0
LINE
  5
243
330
1F
100
AcDbEntity
  8
0
  6
Continuous
 62
     7
370
    25
100
AcDbLine
 10
425.8838920734
 20
387.605262581
 30
0.0
 11
411.0800764404
 21
387.605262581
 31
0.0
  0
ARC
  5
244
330
1F
100
AcDbEntity
  8
0
  6
Continuous
 62
     7
370
    25
100
AcDbCircle
 10
464.7800764404
 20
347.905263028
 30
0.0
 40
0.3000000000000114
100
AcDbArc
 50
270.0
 51
0.0
  0
ARC
  5
245
330
1F
100
AcDbEntity
  8
0
  6
Continuous
 62
     7
370
    25
100
AcDbCircle
 10
460.0800764404
 20
385.8052630281
 30
0.0
 40
0.5
100
AcDbArc
 50
270.0
 51
359.999999688
  0
ARC
  5
246
330
1F
100
AcDbEntity
  8
0
  6
Continuous
 62
     7
370
    25
100
AcDbCircle
 10
435.7800764404
 20
582.6052630281
 30
0.0
 40
0.2000000000000455
100
AcDbArc
 50
90.0
 51
180.0
  0
ARC
  5
247
330
1F
100
AcDbEntity
  8
0
  6
Continuous
 62
     7
370
    25
100
AcDbCircle
 10
460.3800764404
 20
582.6052630281
 30
0.0
 40
0.1999999999999318
100
AcDbArc
 50
0.0
 51
90.0
  0
LINE
  5
248
330
1F
100
AcDbEntity
  8
0
  6
Continuous
 62
     7
370
    25
100
AcDbLine
 10
435.5800757996
 20
582.6052666043
 30
0.0
 11
435.5800757996
 21
388.5552637612
 31
0.0
  0
LINE
  5
249
330
1F
100
AcDbEntity
  8
0
  6
Continuous
 62
     7
370
    25
100
AcDbLine
 10
460.5800761721
 20
385.8052637761
 30
0.0
 11
460.5800761721
 21
509.2206240033
 31
0.0
  0
LINE
  5
24A
330
1F
100
AcDbEntity
  8
0
  6
Continuous
 62
     7
370
    25
100
AcDbLine
 10
460.5800761721
 20
511.7385179137
 30
0.0
 11
460.5800761721
 21
514.7375405167
 31
0.0
  0
LINE
  5
24B
330
1F
100
AcDbEntity
  8
0
  6
Continuous
 62
     7
370
    25
100
AcDbLine
 10
460.5800761721
 20
517.251262102
 30
0.0
 11
460.5800761721
 21
520.2539056872
 31
0.0
  0
LINE
  5
24C
330
1F
100
AcDbEntity
  8
0
  6
Continuous
 62
     7
370
    25
100
AcDbLine
 10
460.5800761721
 20
522.7642894124
 30
0.0
 11
460.5800761721
 21
525.8197427129
 31
0.0
  0
LINE
  5
24D
330
1F
100
AcDbEntity
  8
0
  6
Continuous
 62
     7
370
    25
100
AcDbLine
 10
460.5800761721
 20
528.3275932406
 30
0.0
 11
460.5800761721
 21
531.2550902699
 31
0.0
  0
LINE
  5
24E
330
1F
100
AcDbEntity
  8
0
  6
Continuous
 62
     7
370
    25
100
AcDbLine
 10
460.5800761721
 20
533.7612420653
 30
0.0
 11
460.5800761721
 21
536.7899775838
 31
0.0
  0
LINE
  5
24F
330
1F
100
AcDbEntity
  8
0
  6
Continuous
 62
     7
370
    25
100
AcDbLine
 10
460.5800761721
 20
539.2952353095
 30
0.0
 11
460.5800761721
 21
542.315283451
 31
0.0
  0
LINE
  5
250
330
1F
100
AcDbEntity
  8
0
  6
Continuous
 62
     7
370
    25
100
AcDbLine
 10
460.5800761721
 20
544.8205560778
 30
0.0
 11
460.5800761721
 21
547.8492915963
 31
0.0
  0
LINE
  5
251
330
1F
100
AcDbEntity
  8
0
  6
Continuous
 62
     7
370
    25
100
AcDbLine
 10
460.5800761721
 20
550.3554433917
 30
0.0
 11
460.5800761721
 21
553.2829255198
 31
0.0
  0
LINE
  5
252
330
1F
100
AcDbEntity
  8
0
  6
Continuous
 62
     7
370
    25
100
AcDbLine
 10
460.5800761721
 20
555.7907909488
 30
0.0
 11
460.5800761721
 21
558.8462442492
 31
0.0
  0
LINE
  5
253
330
1F
100
AcDbEntity
  8
0
  6
Continuous
 62
     7
370
    25
100
AcDbLine
 10
460.5800761721
 20
561.3566279744
 30
0.0
 11
460.5800761721
 21
564.3592566584
 31
0.0
  0
LINE
  5
254
330
1F
100
AcDbEntity
  8
0
  6
Continuous
 62
     7
370
    25
100
AcDbLine
 10
460.5800761721
 20
566.8729931449
 30
0.0
 11
460.5800761721
 21
569.8720008467
 31
0.0
  0
LINE
  5
255
330
1F
100
AcDbEntity
  8
0
  6
Continuous
 62
     7
370
    25
100
AcDbLine
 10
460.5800761721
 20
572.3899096583
 30
0.0
 11
460.5800761721
 21
582.6052666043
 31
0.0
  0
LINE
  5
256
330
1F
100
AcDbEntity
  8
0
  6
Continuous
 62
     7
370
    25
100
AcDbLine
 10
460.3800765119
 20
582.8052699899
 30
0.0
 11
460.3631115399
 21
584.7493052815
 31
0.0
  0
LINE
  5
257
330
1F
100
AcDbEntity
  8
0
  6
Continuous
 62
     7
370
    25
100
AcDbLine
 10
435.7970422945
 20
584.7493052815
 30
0.0
 11
435.7800773225
 21
582.8052699899
 31
0.0
  0
ARC
  5
258
330
1F
100
AcDbEntity
  8
0
  6
Continuous
 62
     7
370
    25
100
AcDbCircle
 10
459.8631300349
 20
584.7449470761
 30
0.0
 40
0.5000000000000029
100
AcDbArc
 50
0.4999999944
 51
90.0
  0
ARC
  5
259
330
1F
100
AcDbEntity
  8
0
  6
Continuous
 62
     7
370
    25
100
AcDbCircle
 10
436.2970228458
 20
584.7449470761
 30
0.0
 40
0.5000000000000994
100
AcDbArc
 50
94.4743506256
 51
179.5000000056
  0
ARC
  5
25A
330
1F
100
AcDbEntity
  8
0
  6
Continuous
 62
     7
370
    25
100
AcDbCircle
 10
448.0800764404
 20
434.1652630281
 30
0.0
 40
151.5400000000129
100
AcDbArc
 50
85.5260318422
 51
94.4743506266
  0
LINE
  5
25B
330
1F
100
AcDbEntity
  8
0
  6
Continuous
 62
     7
370
    25
100
AcDbLine
 10
459.5800778709
 20
380.6052632963
 30
0.0
 11
459.3121289156
 21
381.6052634602
 31
0.0
  0
LINE
  5
25C
330
1F
100
AcDbEntity
  8
0
  6
Continuous
 62
     7
370
    25
100
AcDbLine
 10
436.8480249188
 20
381.6052634602
 30
0.0
 11
436.5800759635
 21
380.6052632963
 31
0.0
  0
ARC
  5
25D
330
1F
100
AcDbEntity
  8
0
  6
Continuous
 62
     7
370
    25
100
AcDbCircle
 10
459.0300764404
 20
385.7052630281
 30
0.0
 40
0.5000000000000556
100
AcDbArc
 50
270.0
 51
305.278872595
  0
LWPOLYLINE
  5
25E
330
1F
100
AcDbEntity
  8
0
  6
Continuous
 62
     7
370
    25
100
AcDbPolyline
 90
        3
 70
   128
 43
0.0
 10
458.413004025
 20
381.9321232249
 10
457.8919029675
 20
382.2038216849
 10
457.3955750904
 20
382.4626464729
  0
ARC
  5
25F
330
1F
100
AcDbEntity
  8
0
  6
Continuous
 62
     7
370
    25
100
AcDbCircle
 10
437.7645764404
 20
384.2052630281
 30
0.0
 40
1.0
100
AcDbArc
 50
0.0
 51
90.0
  0
ARC
  5
260
330
1F
100
AcDbEntity
  8
0
  6
Continuous
 62
     7
370
    25
100
AcDbCircle
 10
458.3955764404
 20
384.2052630281
 30
0.0
 40
1.000000000000011
100
AcDbArc
 50
90.0
 51
174.3366973385
  0
ARC
  5
261
330
1F
100
AcDbEntity
  8
0
  6
Continuous
 62
     7
370
    25
100
AcDbCircle
 10
458.2856467434
 20
381.6990350862
 30
0.0
 40
0.2655769444013101
100
AcDbArc
 50
296.0926871337
 51
63.8374896441
  0
ARC
  5
262
330
1F
100
AcDbEntity
  8
0
  6
Continuous
 62
     7
370
    25
100
AcDbCircle
 10
437.8633132769
 20
382.5974302685
 30
0.0
 40
0.2523101124362714
100
AcDbArc
 50
170.734940084
 51
245.9657001251
  0
LINE
  5
263
330
1F
100
AcDbEntity
  8
0
  6
Continuous
 62
     7
370
    25
100
AcDbLine
 10
438.7645768813
 20
381.849594075
 30
0.0
 11
438.7645768813
 21
381.6052634602
 31
0.0
  0
LINE
  5
264
330
1F
100
AcDbEntity
  8
0
  6
Continuous
 62
     7
370
    25
100
AcDbLine
 10
438.7645768813
 20
384.2052627688
 30
0.0
 11
438.7645768813
 21
383.3591841494
 31
0.0
  0
LINE
  5
265
330
1F
100
AcDbEntity
  8
0
  6
Continuous
 62
     7
370
    25
100
AcDbLine
 10
457.3955750904
 20
382.4535772537
 30
0.0
 11
457.3955750904
 21
382.6052626928
 31
0.0
  0
LINE
  5
266
330
1F
100
AcDbEntity
  8
0
  6
Continuous
 62
     7
370
    25
100
AcDbLine
 10
457.7667890928
 20
347.6052634751
 30
0.0
 11
459.2724284969
 21
347.6052634751
 31
0.0
  0
LINE
  5
267
330
1F
100
AcDbEntity
  8
0
  6
Continuous
 62
     7
370
    25
100
AcDbLine
 10
436.9227747313
 20
347.6052634751
 30
0.0
 11
438.3457871966
 21
347.6052634751
 31
0.0
  0
LINE
  5
268
330
1F
100
AcDbEntity
  8
0
  6
Continuous
 62
     7
370
    25
100
AcDbLine
 10
440.0800756059
 20
349.5251123195
 30
0.0
 11
440.0800756059
 21
343.7052626495
 31
0.0
  0
LINE
  5
269
330
1F
100
AcDbEntity
  8
0
  6
Continuous
 62
     7
370
    25
100
AcDbLine
 10
456.0800782285
 20
343.7052626495
 30
0.0
 11
456.0800782285
 21
349.5328087692
 31
0.0
  0
LINE
  5
26A
330
1F
100
AcDbEntity
  8
0
  6
Continuous
 62
     7
370
    25
100
AcDbLine
 10
458.7977110289
 20
553.2614678477
 30
0.0
 11
459.4677491925
 21
553.3628404473
 31
0.0
  0
LINE
  5
26B
330
1F
100
AcDbEntity
  8
0
  6
Continuous
 62
     7
370
    25
100
AcDbLine
 10
459.3563145838
 20
555.8167636727
 30
0.0
 11
458.79599367
 21
555.8500975703
 31
0.0
  0
LINE
  5
26C
330
1F
100
AcDbEntity
  8
0
  6
Continuous
 62
     7
370
    25
100
AcDbLine
 10
458.7974800609
 20
547.7590650653
 30
0.0
 11
459.4461536847
 21
547.8456706141
 31
0.0
  0
LINE
  5
26D
330
1F
100
AcDbEntity
  8
0
  6
Continuous
 62
     7
370
    25
100
AcDbLine
 10
459.377567365
 20
550.3011584615
 30
0.0
 11
458.7968728385
 21
550.3458768462
 31
0.0
  0
LINE
  5
26E
330
1F
100
AcDbEntity
  8
0
  6
Continuous
 62
     7
370
    25
100
AcDbLine
 10
458.7990484081
 20
558.8036567305
 30
0.0
 11
459.489404305
 21
558.9204669331
 31
0.0
  0
LINE
  5
26F
330
1F
100
AcDbEntity
  8
0
  6
Continuous
 62
     7
370
    25
100
AcDbLine
 10
459.3351623855
 20
561.3720655774
 30
0.0
 11
458.7958409331
 21
561.3947004412
 31
0.0
  0
LINE
  5
270
330
1F
100
AcDbEntity
  8
0
  6
Continuous
 62
     7
370
    25
100
AcDbLine
 10
458.795967593
 20
520.2158183192
 30
0.0
 11
459.3351623855
 21
520.2384531831
 31
0.0
  0
LINE
  5
271
330
1F
100
AcDbEntity
  8
0
  6
Continuous
 62
     7
370
    25
100
AcDbLine
 10
459.489404305
 20
522.6900667285
 30
0.0
 11
458.7988472424
 21
522.8069067334
 31
0.0
  0
LINE
  5
272
330
1F
100
AcDbEntity
  8
0
  6
Continuous
 62
     7
370
    25
100
AcDbLine
 10
458.7949580393
 20
525.7603764867
 30
0.0
 11
459.3563145838
 21
525.7937550877
 31
0.0
  0
LINE
  5
273
330
1F
100
AcDbEntity
  8
0
  6
Continuous
 62
     7
370
    25
100
AcDbLine
 10
459.4677491925
 20
528.2476783131
 30
0.0
 11
458.7985976479
 21
528.3489317035
 31
0.0
  0
LINE
  5
274
330
1F
100
AcDbEntity
  8
0
  6
Continuous
 62
     7
370
    25
100
AcDbLine
 10
458.7950362704
 20
531.2645078038
 30
0.0
 11
459.377567365
 21
531.309360299
 31
0.0
  0
LINE
  5
275
330
1F
100
AcDbEntity
  8
0
  6
Continuous
 62
     7
370
    25
100
AcDbLine
 10
459.4461536847
 20
533.7648630475
 30
0.0
 11
458.7984002076
 21
533.8513344859
 31
0.0
  0
LINE
  5
276
330
1F
100
AcDbEntity
  8
0
  6
Continuous
 62
     7
370
    25
100
AcDbLine
 10
458.795505657
 20
536.7682218884
 30
0.0
 11
459.3989095531
 21
536.825308237
 31
0.0
  0
LINE
  5
277
330
1F
100
AcDbEntity
  8
0
  6
Continuous
 62
     7
370
    25
100
AcDbLine
 10
459.4246326826
 20
539.2816156482
 30
0.0
 11
458.7980388544
 21
539.354169402
 31
0.0
  0
LINE
  5
278
330
1F
100
AcDbEntity
  8
0
  6
Continuous
 62
     7
370
    25
100
AcDbLine
 10
458.7916537068
 20
509.1951281165
 30
0.0
 11
459.2931783638
 21
509.1986596917
 31
0.0
  0
LINE
  5
279
330
1F
100
AcDbEntity
  8
0
  6
Continuous
 62
     7
370
    25
100
AcDbLine
 10
459.5328858934
 20
511.6433889006
 30
0.0
 11
458.800523623
 21
511.7937714194
 31
0.0
  0
LINE
  5
27A
330
1F
100
AcDbEntity
  8
0
  6
Continuous
 62
     7
370
    25
100
AcDbLine
 10
458.7961873851
 20
542.2561556433
 30
0.0
 11
459.4246326826
 21
542.3289031123
 31
0.0
  0
LINE
  5
27B
330
1F
100
AcDbEntity
  8
0
  6
Continuous
 62
     7
370
    25
100
AcDbLine
 10
459.3989095531
 20
544.7852254247
 30
0.0
 11
458.7974837861
 21
544.8421180581
 31
0.0
  0
LINE
  5
27C
330
1F
100
AcDbEntity
  8
0
  6
Continuous
 62
     7
370
    25
100
AcDbLine
 10
458.7935759566
 20
514.7006750439
 30
0.0
 11
459.3141144953
 21
514.7134304379
 31
0.0
  0
LINE
  5
27D
330
1F
100
AcDbEntity
  8
0
  6
Continuous
 62
     7
370
    25
100
AcDbLine
 10
459.5111190222
 20
517.1619743441
 30
0.0
 11
458.799484267
 21
517.2952056264
 31
0.0
  0
LINE
  5
27E
330
1F
100
AcDbEntity
  8
0
  6
Continuous
 62
     7
370
    25
100
AcDbLine
 10
458.8000728629
 20
569.8166579341
 30
0.0
 11
459.5328858934
 21
569.9671298598
 31
0.0
  0
LINE
  5
27F
330
1F
100
AcDbEntity
  8
0
  6
Continuous
 62
     7
370
    25
100
AcDbLine
 10
459.2931783638
 20
572.4118590688
 30
0.0
 11
458.7933971427
 21
572.415390644
 31
0.0
  0
LINE
  5
280
330
1F
100
AcDbEntity
  8
0
  6
Continuous
 62
     7
370
    25
100
AcDbLine
 10
458.8009296797
 20
564.3155962561
 30
0.0
 11
459.5111190222
 21
564.4485444163
 31
0.0
  0
LINE
  5
281
330
1F
100
AcDbEntity
  8
0
  6
Continuous
 62
     7
370
    25
100
AcDbLine
 10
459.3141144953
 20
566.8970883225
 30
0.0
 11
458.7929873608
 21
566.9098586177
 31
0.0
  0
LINE
  5
282
330
1F
100
AcDbEntity
  8
0
  6
Continuous
 62
     7
370
    25
100
AcDbLine
 10
459.6979535065
 20
549.4797766541
 30
0.0
 11
459.6949211202
 21
549.5480239724
 31
0.0
  0
LWPOLYLINE
  5
283
330
1F
100
AcDbEntity
  8
0
  6
Continuous
 62
     7
370
    25
100
AcDbPolyline
 90
        4
 70
   128
 43
0.0
 10
459.6518493138
 20
549.99392632
 10
459.5753914557
 20
550.1926035022
 10
459.4871095262
 20
550.2680629824
 10
459.377567365
 20
550.3011584615
  0
LWPOLYLINE
  5
284
330
1F
100
AcDbEntity
  8
0
  6
Continuous
 62
     7
370
    25
100
AcDbPolyline
 90
        3
 70
   128
 43
0.0
 10
459.7097440503
 20
549.1665542458
 10
459.7042827747
 20
549.3372321461
 10
459.6979535065
 20
549.4797766541
  0
LWPOLYLINE
  5
285
330
1F
100
AcDbEntity
  8
0
  6
Continuous
 62
     7
370
    25
100
AcDbPolyline
 90
       10
 70
   128
 43
0.0
 10
459.4461536847
 20
547.8456706141
 10
459.4918592713
 20
547.8556245898
 10
459.535396739
 20
547.8726566171
 10
459.5560236714
 20
547.8835344647
 10
459.5757341824
 20
547.8957981204
 10
459.5944276891
 20
547.9094028806
 10
459.6120222352
 20
547.9243338441
 10
459.643638774
 20
547.9588449334
 10
459.704774513
 20
548.1199413871
 10
459.7144416414
 20
548.3361870383
  0
LWPOLYLINE
  5
286
330
1F
100
AcDbEntity
  8
0
  6
Continuous
 62
     7
370
    25
100
AcDbPolyline
 90
        4
 70
   128
 43
0.0
 10
459.6675029836
 20
544.4743126963
 10
459.5937347851
 20
544.6740031575
 10
459.5070882581
 20
544.7504908179
 10
459.3989095531
 20
544.7852254247
  0
LWPOLYLINE
  5
287
330
1F
100
AcDbEntity
  8
0
  6
Continuous
 62
     7
370
    25
100
AcDbPolyline
 90
        3
 70
   128
 43
0.0
 10
459.704428061
 20
543.9769715403
 10
459.7013360701
 20
544.0898031329
 10
459.6942468427
 20
544.2051679229
  0
ARC
  5
288
330
1F
100
AcDbEntity
  8
0
  6
Continuous
 62
     7
370
    25
100
AcDbCircle
 10
459.3859219211
 20
542.6315844357
 30
0.0
 40
0.3051466968335904
100
AcDbArc
 50
277.2881530405
 51
1.4114102739
  0
ARC
  5
289
330
1F
100
AcDbEntity
  8
0
  6
Continuous
 62
     7
370
    25
100
AcDbCircle
 10
459.337289053
 20
538.9218387784
 30
0.0
 40
0.3702273702210562
100
AcDbArc
 50
350.5769482242
 51
76.3542057259
  0
LWPOLYLINE
  5
28A
330
1F
100
AcDbEntity
  8
0
  6
Continuous
 62
     7
370
    25
100
AcDbPolyline
 90
       13
 70
   128
 43
0.0
 10
459.3989095531
 20
536.825308237
 10
459.4569570265
 20
536.8371844624
 10
459.5107092402
 20
536.8605196809
 10
459.5575920186
 20
536.8924975728
 10
459.5960109375
 20
536.9295269584
 10
459.6255264125
 20
536.9682103728
 10
459.6467940948
 20
537.0062828397
 10
459.6712878785
 20
537.0832771395
 10
459.685101255
 20
537.1978968715
 10
459.6966906331
 20
537.3976171349
 10
459.7057319126
 20
537.6626640891
 10
459.7115023873
 20
537.9524320697
 10
459.7124635122
 20
538.0672455167
  0
LWPOLYLINE
  5
28B
330
1F
100
AcDbEntity
  8
0
  6
Continuous
 62
     7
370
    25
100
AcDbPolyline
 90
        8
 70
   128
 43
0.0
 10
459.6199347518
 20
571.9871163701
 10
459.6006936274
 20
572.1191406583
 10
459.5674305103
 20
572.2276956176
 10
459.5070174775
 20
572.3192334508
 10
459.4636886261
 20
572.3568439816
 10
459.4121864877
 20
572.3862141703
 10
459.3544035099
 20
572.4050790404
 10
459.2931783638
 20
572.4118590688
  0
ARC
  5
28C
330
1F
100
AcDbEntity
  8
0
  6
Continuous
 62
     7
370
    25
100
AcDbCircle
 10
443.772707447
 20
569.6709210383
 30
0.0
 40
16.01559783662459
100
AcDbArc
 50
4.5395340767
 51
8.3153456205
  0
ARC
  5
28D
330
1F
100
AcDbEntity
  8
0
  6
Continuous
 62
     7
370
    25
100
AcDbCircle
 10
459.4691394505
 20
570.2659672122
 30
0.0
 40
0.3055615275808312
100
AcDbArc
 50
282.0422449981
 51
335.6258849094
  0
LWPOLYLINE
  5
28E
330
1F
100
AcDbEntity
  8
0
  6
Continuous
 62
     7
370
    25
100
AcDbPolyline
 90
        9
 70
   128
 43
0.0
 10
459.6297657929
 20
566.4938778018
 10
459.6142462335
 20
566.6119248008
 10
459.5839521728
 20
566.7136699294
 10
459.5593578062
 20
566.7595506047
 10
459.5261431179
 20
566.8021381234
 10
459.4837642155
 20
566.8396145438
 10
459.4328804753
 20
566.869491372
 10
459.375373169
 20
566.8892503117
 10
459.3141144953
 20
566.8970883225
  0
ARC
  5
28F
330
1F
100
AcDbEntity
  8
0
  6
Continuous
 62
     7
370
    25
100
AcDbCircle
 10
444.7162639424
 20
564.5267864419
 30
0.0
 40
15.04267216496185
100
AcDbArc
 50
3.618223741
 51
7.5139405556
  0
ARC
  5
290
330
1F
100
AcDbEntity
  8
0
  6
Continuous
 62
     7
370
    25
100
AcDbCircle
 10
459.4605001899
 20
564.7380457066
 30
0.0
 40
0.2938939271451448
100
AcDbArc
 50
279.9185317674
 51
340.9386672553
  0
LWPOLYLINE
  5
291
330
1F
100
AcDbEntity
  8
0
  6
Continuous
 62
     7
370
    25
100
AcDbPolyline
 90
        7
 70
   128
 43
0.0
 10
459.7035488925
 20
560.29711071
 10
459.6970221839
 20
560.3959799146
 10
459.6754341267
 20
560.6709212397
 10
459.6351041339
 20
561.0379815434
 10
459.5388277314
 20
561.2691730593
 10
459.4473420523
 20
561.3423675631
 10
459.3351623855
 20
561.3720655774
  0
LWPOLYLINE
  5
292
330
1F
100
AcDbEntity
  8
0
  6
Continuous
 62
     7
370
    25
100
AcDbPolyline
 90
        3
 70
   128
 43
0.0
 10
459.727141156
 20
559.9071175193
 10
459.7170232675
 20
560.0929648017
 10
459.7035488925
 20
560.29711071
  0
ARC
  5
293
330
1F
100
AcDbEntity
  8
0
  6
Continuous
 62
     7
370
    25
100
AcDbCircle
 10
459.4353399364
 20
559.2199223968
 30
0.0
 40
0.3042967805660076
100
AcDbArc
 50
280.2340654757
 51
355.0695411486
  0
LWPOLYLINE
  5
294
330
1F
100
AcDbEntity
  8
0
  6
Continuous
 62
     7
370
    25
100
AcDbPolyline
 90
        6
 70
   128
 43
0.0
 10
459.6833056651
 20
555.1207304334
 10
459.6502586148
 20
555.4903239344
 10
459.6212311528
 20
555.6102931832
 10
459.564308717
 20
555.7106972073
 10
459.4728789173
 20
555.784621868
 10
459.3563145838
 20
555.8167636727
  0
ARC
  5
295
330
1F
100
AcDbEntity
  8
0
  6
Continuous
 62
     7
370
    25
100
AcDbCircle
 10
443.9926764891
 20
553.9556381716
 30
0.0
 40
15.73382610541472
100
AcDbArc
 50
1.9534882762
 51
4.2466484304
  0
ARC
  5
296
330
1F
100
AcDbEntity
  8
0
  6
Continuous
 62
     7
370
    25
100
AcDbCircle
 10
459.4045123772
 20
553.6854127783
 30
0.0
 40
0.328712341613184
100
AcDbArc
 50
281.0915573346
 51
6.7963473345
  0
ARC
  5
297
330
1F
100
AcDbEntity
  8
0
  6
Continuous
 62
     7
370
    25
100
AcDbCircle
 10
459.4622756767
 20
522.43987062
 30
0.0
 40
0.2516625819692743
100
AcDbArc
 50
24.5026453159
 51
83.8116262657
  0
LWPOLYLINE
  5
298
330
1F
100
AcDbEntity
  8
0
  6
Continuous
 62
     7
370
    25
100
AcDbPolyline
 90
        3
 70
   128
 43
0.0
 10
459.7309446774
 20
522.4465072488
 10
459.7300841353
 20
522.4531978701
 10
459.691274061
 20
522.544243965
  0
ARC
  5
299
330
1F
100
AcDbEntity
  8
0
  6
Continuous
 62
     7
370
    25
100
AcDbCircle
 10
459.3260044682
 20
520.5140788512
 30
0.0
 40
0.2757777663189188
100
AcDbArc
 50
271.903005108
 51
308.8315386294
  0
ARC
  5
29A
330
1F
100
AcDbEntity
  8
0
  6
Continuous
 62
     7
370
    25
100
AcDbCircle
 10
459.4835564874
 20
511.37127413
 30
0.0
 40
0.2765498846559477
100
AcDbArc
 50
38.30340661
 51
79.724915385
  0
LINE
  5
29B
330
1F
100
AcDbEntity
  8
0
  6
Continuous
 62
     7
370
    25
100
AcDbLine
 10
459.2931820891
 20
509.1986596917
 30
0.0
 11
459.3257895551
 21
509.202295575
 31
0.0
  0
LWPOLYLINE
  5
29C
330
1F
100
AcDbEntity
  8
0
  6
Continuous
 62
     7
370
    25
100
AcDbPolyline
 90
        3
 70
   128
 43
0.0
 10
459.6969737552
 20
517.0404106711
 10
459.6234737776
 20
517.1156019305
 10
459.5111190222
 20
517.1619743441
  0
LWPOLYLINE
  5
29D
330
1F
100
AcDbEntity
  8
0
  6
Continuous
 62
     7
370
    25
100
AcDbPolyline
 90
        3
 70
   128
 43
0.0
 10
459.707058116
 20
517.0272976493
 10
459.7049719534
 20
517.0322299336
 10
459.6969737552
 20
517.0404106711
  0
LINE
  5
29E
330
1F
100
AcDbEntity
  8
0
  6
Continuous
 62
     7
370
    25
100
AcDbLine
 10
459.3141144953
 20
514.7134304379
 30
0.0
 11
459.3654527209
 21
514.7201508616
 31
0.0
  0
LWPOLYLINE
  5
29F
330
1F
100
AcDbEntity
  8
0
  6
Continuous
 62
     7
370
    25
100
AcDbPolyline
 90
        5
 70
   128
 43
0.0
 10
459.7170865975
 20
527.9272139405
 10
459.6797405622
 20
528.0460805033
 10
459.6542819283
 20
528.1271130179
 10
459.5725304327
 20
528.2074898814
 10
459.4677491925
 20
528.2476783131
  0
ARC
  5
2A0
330
1F
100
AcDbEntity
  8
0
  6
Continuous
 62
     7
370
    25
100
AcDbCircle
 10
459.3257197751
 20
526.1084041482
 30
0.0
 40
0.3161329997741123
100
AcDbArc
 50
275.5536795788
 51
356.7608606182
  0
LWPOLYLINE
  5
2A1
330
1F
100
AcDbEntity
  8
0
  6
Continuous
 62
     7
370
    25
100
AcDbPolyline
 90
        3
 70
   128
 43
0.0
 10
459.6799566291
 20
526.4455467795
 10
459.6815361522
 20
526.4600605105
 10
459.693904116
 20
526.6550124024
  0
ARC
  5
2A2
330
1F
100
AcDbEntity
  8
0
  6
Continuous
 62
     7
370
    25
100
AcDbCircle
 10
459.4183089971
 20
533.4983104338
 30
0.0
 40
0.2680030270483222
100
AcDbArc
 50
19.8701478233
 51
84.0363831879
  0
ARC
  5
2A3
330
1F
100
AcDbEntity
  8
0
  6
Continuous
 62
     7
370
    25
100
AcDbCircle
 10
439.2795757762
 20
533.084961901
 30
0.0
 40
20.44099971145361
100
AcDbArc
 50
356.844667658
 51
359.4448731861
  0
LWPOLYLINE
  5
2A4
330
1F
100
AcDbEntity
  8
0
  6
Continuous
 62
     7
370
    25
100
AcDbPolyline
 90
       12
 70
   128
 43
0.0
 10
459.377567365
 20
531.309360299
 10
459.4354956291
 20
531.320178542
 10
459.489378228
 20
531.342455778
 10
459.5366372607
 20
531.373420391
 10
459.575626149
 20
531.4095259045
 10
459.5918125353
 20
531.4283907746
 10
459.6058308027
 20
531.4473450517
 10
459.6278584442
 20
531.4846575593
 10
459.6540025316
 20
531.5606385802
 10
459.6700697086
 20
531.6754073237
 10
459.6852204643
 20
531.8753511046
 10
459.6895865045
 20
531.9598257874
  0
LINE
  5
2A5
330
1F
100
AcDbEntity
  8
0
  6
Continuous
 62
     7
370
    25
100
AcDbLine
 10
441.0800757698
 20
343.7052626495
 30
0.0
 11
441.0800757698
 21
258.7052598928
 31
0.0
  0
LINE
  5
2A6
330
1F
100
AcDbEntity
  8
0
  6
Continuous
 62
     7
370
    25
100
AcDbLine
 10
455.080076202
 20
258.7052598928
 30
0.0
 11
455.080076202
 21
343.7052626495
 31
0.0
  0
LWPOLYLINE
  5
2A7
330
1F
100
AcDbEntity
  8
0
  6
Continuous
 62
     7
370
    25
100
AcDbPolyline
 90
        3
 70
   128
 43
0.0
 10
437.76031126
 20
382.8421101307
 10
437.6529670201
 20
382.7553416004
 10
437.6046425543
 20
382.6268805524
  0
LINE
  5
2A8
330
1F
100
AcDbEntity
  8
0
  6
Continuous
 62
     7
370
    25
100
AcDbLine
 10
438.8145386122
 20
383.391972292
 30
0.0
 11
437.7301233701
 21
382.8270757904
 31
0.0
  0
LINE
  5
2A9
330
1F
100
AcDbEntity
  8
0
  6
Continuous
 62
     7
370
    25
100
AcDbLine
 10
460.3951862893
 20
569.8340475892
 30
0.0
 11
460.932611569
 21
569.9443757867
 31
0.0
  0
LINE
  5
2AA
330
1F
100
AcDbEntity
  8
0
  6
Continuous
 62
     7
370
    25
100
AcDbLine
 10
460.6929003141
 20
572.3891198968
 30
0.0
 11
460.3921911559
 21
572.3912209605
 31
0.0
  0
LINE
  5
2AB
330
1F
100
AcDbEntity
  8
0
  6
Continuous
 62
     7
370
    25
100
AcDbLine
 10
460.3952533446
 20
564.3246710633
 30
0.0
 11
460.9108409725
 21
564.421156082
 31
0.0
  0
LINE
  5
2AC
330
1F
100
AcDbEntity
  8
0
  6
Continuous
 62
     7
370
    25
100
AcDbLine
 10
460.7138364456
 20
566.8697148894
 30
0.0
 11
460.3926307402
 21
566.8775678014
 31
0.0
  0
LINE
  5
2AD
330
1F
100
AcDbEntity
  8
0
  6
Continuous
 62
     7
370
    25
100
AcDbLine
 10
460.3951751135
 20
558.8149667119
 30
0.0
 11
460.8891262553
 21
558.8985175227
 31
0.0
  0
LINE
  5
2AE
330
1F
100
AcDbEntity
  8
0
  6
Continuous
 62
     7
370
    25
100
AcDbLine
 10
460.7348843358
 20
561.3501310681
 30
0.0
 11
460.3930628739
 21
561.3644659852
 31
0.0
  0
LINE
  5
2AF
330
1F
100
AcDbEntity
  8
0
  6
Continuous
 62
     7
370
    25
100
AcDbLine
 10
460.3949776731
 20
553.2549262379
 30
0.0
 11
460.8674674175
 21
553.326392207
 31
0.0
  0
LINE
  5
2B0
330
1F
100
AcDbEntity
  8
0
  6
Continuous
 62
     7
370
    25
100
AcDbLine
 10
460.7560328088
 20
555.7803303336
 30
0.0
 11
460.3934763811
 21
555.8018774127
 31
0.0
  0
LINE
  5
2B1
330
1F
100
AcDbEntity
  8
0
  6
Continuous
 62
     7
370
    25
100
AcDbLine
 10
460.3936738215
 20
509.2193127011
 30
0.0
 11
460.6929003141
 21
509.2214137648
 31
0.0
  0
LINE
  5
2B2
330
1F
100
AcDbEntity
  8
0
  6
Continuous
 62
     7
370
    25
100
AcDbLine
 10
460.932611569
 20
511.6661578749
 30
0.0
 11
460.3959313474
 21
511.7763221597
 31
0.0
  0
LINE
  5
2B3
330
1F
100
AcDbEntity
  8
0
  6
Continuous
 62
     7
370
    25
100
AcDbLine
 10
460.3946535728
 20
547.8245407676
 30
0.0
 11
460.8458719097
 21
547.8847563599
 31
0.0
  0
LINE
  5
2B4
330
1F
100
AcDbEntity
  8
0
  6
Continuous
 62
     7
370
    25
100
AcDbLine
 10
460.77728559
 20
550.3402591084
 30
0.0
 11
460.3938377343
 21
550.3697783088
 31
0.0
  0
LINE
  5
2B5
330
1F
100
AcDbEntity
  8
0
  6
Continuous
 62
     7
370
    25
100
AcDbLine
 10
460.3931336544
 20
514.7329658603
 30
0.0
 11
460.7138364456
 21
514.740803871
 31
0.0
  0
LINE
  5
2B6
330
1F
100
AcDbEntity
  8
0
  6
Continuous
 62
     7
370
    25
100
AcDbLine
 10
460.9108409725
 20
517.1893626784
 30
0.0
 11
460.3953725539
 21
517.285832796
 31
0.0
  0
LINE
  5
2B7
330
1F
100
AcDbEntity
  8
0
  6
Continuous
 62
     7
370
    25
100
AcDbLine
 10
460.3941879115
 20
542.2937810754
 30
0.0
 11
460.8243509076
 21
542.3435509538
 31
0.0
  0
LINE
  5
2B8
330
1F
100
AcDbEntity
  8
0
  6
Continuous
 62
     7
370
    25
100
AcDbLine
 10
460.7986277781
 20
544.7998881673
 30
0.0
 11
460.3940053723
 21
544.8381394481
 31
0.0
  0
LINE
  5
2B9
330
1F
100
AcDbEntity
  8
0
  6
Continuous
 62
     7
370
    25
100
AcDbLine
 10
460.3929697416
 20
520.2460527753
 30
0.0
 11
460.7348843358
 21
520.2603876923
 31
0.0
  0
LINE
  5
2BA
330
1F
100
AcDbEntity
  8
0
  6
Continuous
 62
     7
370
    25
100
AcDbLine
 10
460.8891262553
 20
522.7120161389
 30
0.0
 11
460.3948808155
 21
522.7956116532
 31
0.0
  0
LINE
  5
2BB
330
1F
100
AcDbEntity
  8
0
  6
Continuous
 62
     7
370
    25
100
AcDbLine
 10
460.393655195
 20
536.7723495101
 30
0.0
 11
460.7986277781
 21
536.8106305932
 31
0.0
  0
LINE
  5
2BC
330
1F
100
AcDbEntity
  8
0
  6
Continuous
 62
     7
370
    25
100
AcDbLine
 10
460.8243509076
 20
539.2669678067
 30
0.0
 11
460.3939792953
 21
539.3167674874
 31
0.0
  0
LINE
  5
2BD
330
1F
100
AcDbEntity
  8
0
  6
Continuous
 62
     7
370
    25
100
AcDbLine
 10
460.3930665992
 20
525.8086264466
 30
0.0
 11
460.7560328088
 21
525.8301884269
 31
0.0
  0
LINE
  5
2BE
330
1F
100
AcDbEntity
  8
0
  6
Continuous
 62
     7
370
    25
100
AcDbLine
 10
460.8674674175
 20
528.2841265534
 30
0.0
 11
460.3944822095
 21
528.3556670283
 31
0.0
  0
LINE
  5
2BF
330
1F
100
AcDbEntity
  8
0
  6
Continuous
 62
     7
370
    25
100
AcDbLine
 10
460.3932938419
 20
531.2407106494
 30
0.0
 11
460.77728559
 21
531.270259652
 31
0.0
  0
LINE
  5
2C0
330
1F
100
AcDbEntity
  8
0
  6
Continuous
 62
     7
370
    25
100
AcDbLine
 10
460.8458719097
 20
533.7257773017
 30
0.0
 11
460.3941581092
 21
533.7860524987
 31
0.0
  0
LWPOLYLINE
  5
2C1
330
1F
100
AcDbEntity
  8
0
  6
Continuous
 62
     7
370
    25
100
AcDbPolyline
 90
        7
 70
   128
 43
0.0
 10
461.0722168229
 20
565.8993512725
 10
461.0533854804
 20
566.1200523709
 10
461.0139719091
 20
566.5245741938
 10
460.9839944981
 20
566.6554063891
 10
460.9254590116
 20
566.7630821799
 10
460.8319244228
 20
566.8396443461
 10
460.7138364456
 20
566.8697148894
  0
ARC
  5
2C2
330
1F
100
AcDbEntity
  8
0
  6
Continuous
 62
     7
370
    25
100
AcDbCircle
 10
410.3263504154
 20
561.544838143
 30
0.0
 40
50.93235457003378
100
AcDbArc
 50
4.0724938143
 51
4.9045480186
  0
ARC
  5
2C3
330
1F
100
AcDbEntity
  8
0
  6
Continuous
 62
     7
370
    25
100
AcDbCircle
 10
460.8371061824
 20
564.7334075071
 30
0.0
 40
0.320839168021683
100
AcDbArc
 50
283.2863888422
 51
340.4729191813
  0
LWPOLYLINE
  5
2C4
330
1F
100
AcDbEntity
  8
0
  6
Continuous
 62
     7
370
    25
100
AcDbPolyline
 90
        3
 70
   128
 43
0.0
 10
460.8606799386
 20
561.3121331071
 10
460.8533746443
 20
561.318227682
 10
460.7348843358
 20
561.3501310681
  0
LWPOLYLINE
  5
2C5
330
1F
100
AcDbEntity
  8
0
  6
Continuous
 62
     7
370
    25
100
AcDbPolyline
 90
        5
 70
   128
 43
0.0
 10
461.0597184739
 20
560.6165618037
 10
461.0284260354
 20
561.008641157
 10
461.0016747258
 20
561.1354053353
 10
460.9457096897
 20
561.241218481
 10
460.8606799386
 20
561.3121331071
  0
ARC
  5
2C6
330
1F
100
AcDbEntity
  8
0
  6
Continuous
 62
     7
370
    25
100
AcDbCircle
 10
419.213552189
 20
557.5605150572
 30
0.0
 40
41.95761020920096
100
AcDbArc
 50
3.3233829987
 51
4.1769245549
  0
LINE
  5
2C7
330
1F
100
AcDbEntity
  8
0
  6
Continuous
 62
     7
370
    25
100
AcDbLine
 10
460.8891262553
 20
558.8985175227
 30
0.0
 11
460.9096749566
 21
558.9045375918
 31
0.0
  0
ARC
  5
2C8
330
1F
100
AcDbEntity
  8
0
  6
Continuous
 62
     7
370
    25
100
AcDbCircle
 10
460.7366483473
 20
550.0124122421
 30
0.0
 40
0.3303557979190416
100
AcDbArc
 50
348.8304750559
 51
82.9341189831
  0
ARC
  5
2C9
330
1F
100
AcDbEntity
  8
0
  6
Continuous
 62
     7
370
    25
100
AcDbCircle
 10
460.8125947023
 20
548.1718029185
 30
0.0
 40
0.2889690282407353
100
AcDbArc
 50
276.6127606825
 51
340.9192793335
  0
ARC
  5
2CA
330
1F
100
AcDbEntity
  8
0
  6
Continuous
 62
     7
370
    25
100
AcDbCircle
 10
460.809164549
 20
539.038672608
 30
0.0
 40
0.2287997448175353
100
AcDbArc
 50
41.6318562646
 51
86.1942509637
  0
ARC
  5
2CB
330
1F
100
AcDbEntity
  8
0
  6
Continuous
 62
     7
370
    25
100
AcDbCircle
 10
423.5994114477
 20
538.3998092927
 30
0.0
 40
37.49439725017827
100
AcDbArc
 50
358.0823040648
 51
359.88013547
  0
ARC
  5
2CC
330
1F
100
AcDbEntity
  8
0
  6
Continuous
 62
     7
370
    25
100
AcDbCircle
 10
460.7635753533
 20
537.1189798058
 30
0.0
 40
0.310335156535607
100
AcDbArc
 50
276.4854110658
 51
4.8285468806
  0
LWPOLYLINE
  5
2CD
330
1F
100
AcDbEntity
  8
0
  6
Continuous
 62
     7
370
    25
100
AcDbPolyline
 90
        7
 70
   128
 43
0.0
 10
461.0807924412
 20
571.3001579379
 10
461.0768771611
 20
571.3401377534
 10
461.0460019551
 20
571.6403663491
 10
460.9992719136
 20
572.0459610556
 10
460.9057522259
 20
572.2856611346
 10
460.8109920166
 20
572.3610312079
 10
460.6929003141
 20
572.3891198968
  0
ARC
  5
2CE
330
1F
100
AcDbEntity
  8
0
  6
Continuous
 62
     7
370
    25
100
AcDbCircle
 10
410.481241076
 20
566.1826902932
 30
0.0
 40
50.85767467600946
100
AcDbArc
 50
5.0598567645
 51
5.775064648
  0
ARC
  5
2CF
330
1F
100
AcDbEntity
  8
0
  6
Continuous
 62
     7
370
    25
100
AcDbCircle
 10
460.8540462192
 20
570.2534639421
 30
0.0
 40
0.3189169202155677
100
AcDbArc
 50
284.2616594344
 51
338.3398180049
  0
LWPOLYLINE
  5
2D0
330
1F
100
AcDbEntity
  8
0
  6
Continuous
 62
     7
370
    25
100
AcDbPolyline
 90
        7
 70
   128
 43
0.0
 10
461.0497048936
 20
555.3385705088
 10
461.0425448857
 20
555.4523706769
 10
461.019515141
 20
555.5695385073
 10
460.9665489636
 20
555.6703895663
 10
460.8753985606
 20
555.7467431163
 10
460.8178949795
 20
555.7698846196
 10
460.7560328088
 20
555.7803303336
  0
LWPOLYLINE
  5
2D1
330
1F
100
AcDbEntity
  8
0
  6
Continuous
 62
     7
370
    25
100
AcDbPolyline
 90
        3
 70
   128
 43
0.0
 10
461.079533293
 20
554.8167020415
 10
461.0663643918
 20
555.0738811826
 10
461.0497048936
 20
555.3385705088
  0
ARC
  5
2D2
330
1F
100
AcDbEntity
  8
0
  6
Continuous
 62
     7
370
    25
100
AcDbCircle
 10
460.827749283
 20
553.6119375851
 30
0.0
 40
0.2882944556302773
100
AcDbArc
 50
277.9187875761
 51
328.5528243653
  0
LINE
  5
2D3
330
1F
100
AcDbEntity
  8
0
  6
Continuous
 62
     7
370
    25
100
AcDbLine
 10
461.0886788807
 20
543.7945813273
 30
0.0
 11
461.0866746745
 21
543.9257413482
 31
0.0
  0
LWPOLYLINE
  5
2D4
330
1F
100
AcDbEntity
  8
0
  6
Continuous
 62
     7
370
    25
100
AcDbPolyline
 90
        4
 70
   128
 43
0.0
 10
461.0674410007
 20
544.448116455
 10
460.9983927451
 20
544.6788460349
 10
460.9113289855
 20
544.7620690202
 10
460.7986277781
 20
544.7998881673
  0
LWPOLYLINE
  5
2D5
330
1F
100
AcDbEntity
  8
0
  6
Continuous
 62
     7
370
    25
100
AcDbPolyline
 90
        3
 70
   128
 43
0.0
 10
461.0901913486
 20
543.6787844037
 10
461.0896027527
 20
543.7342465257
 10
461.0886788807
 20
543.7945813273
  0
LWPOLYLINE
  5
2D6
330
1F
100
AcDbEntity
  8
0
  6
Continuous
 62
     7
370
    25
100
AcDbPolyline
 90
       12
 70
   128
 43
0.0
 10
460.8243509076
 20
542.3435509538
 10
460.932868614
 20
542.3818320369
 10
460.978283628
 20
542.4151957368
 10
460.997968062
 20
542.4336433743
 10
461.0154843769
 20
542.4525231456
 10
461.0308139465
 20
542.4713582133
 10
461.0439828477
 20
542.4897462462
 10
461.0550842128
 20
542.5074190234
 10
461.0642596028
 20
542.5243169402
 10
461.0856725715
 20
542.590671811
 10
461.0929778657
 20
542.698645625
 10
461.0941066287
 20
542.8070664738
  0
LINE
  5
2D7
330
1F
100
AcDbEntity
  8
0
  6
Continuous
 62
     7
370
    25
100
AcDbLine
 10
460.9457059644
 20
517.1743870114
 30
0.0
 11
460.9108409725
 21
517.1893626784
 31
0.0
  0
LWPOLYLINE
  5
2D8
330
1F
100
AcDbEntity
  8
0
  6
Continuous
 62
     7
370
    25
100
AcDbPolyline
 90
        3
 70
   128
 43
0.0
 10
460.9715967319
 20
514.90479115
 10
460.9821951828
 20
514.9240583514
 10
460.9896159611
 20
514.9481684302
  0
ARC
  5
2D9
330
1F
100
AcDbEntity
  8
0
  6
Continuous
 62
     7
370
    25
100
AcDbCircle
 10
460.7007529473
 20
515.0459403611
 30
0.0
 40
0.3054168552607088
100
AcDbArc
 50
272.455197501
 51
332.4738980214
  0
ARC
  5
2DA
330
1F
100
AcDbEntity
  8
0
  6
Continuous
 62
     7
370
    25
100
AcDbCircle
 10
460.8230090918
 20
533.464413803
 30
0.0
 40
0.2623615575186775
100
AcDbArc
 50
26.1431033411
 51
85.0007669502
  0
LINE
  5
2DB
330
1F
100
AcDbEntity
  8
0
  6
Continuous
 62
     7
370
    25
100
AcDbLine
 10
460.77728559
 20
531.270259652
 30
0.0
 11
460.8228309892
 21
531.2788427209
 31
0.0
  0
ARC
  5
2DC
330
1F
100
AcDbEntity
  8
0
  6
Continuous
 62
     7
370
    25
100
AcDbCircle
 10
436.0981232828
 20
388.1391337016
 30
0.0
 40
0.2063818698481922
100
AcDbArc
 50
134.3621095169
 51
175.5182459978
  0
ARC
  5
2DD
330
1F
100
AcDbEntity
  8
0
  6
Continuous
 62
     7
370
    25
100
AcDbCircle
 10
435.7800764404
 20
388.5552630281
 30
0.0
 40
0.1999999999999886
100
AcDbArc
 50
180.0
 51
270.0
  0
ARC
  5
2DE
330
1F
100
AcDbEntity
  8
0
  6
Continuous
 62
     7
370
    25
100
AcDbCircle
 10
436.0800764404
 20
385.7052630281
 30
0.0
 40
0.5
100
AcDbArc
 50
180.0000066578
 51
270.0
  0
LINE
  5
2DF
330
1F
100
AcDbEntity
  8
0
  6
Continuous
 62
     7
370
    25
100
AcDbLine
 10
435.5800757996
 20
388.0052637641
 30
0.0
 11
435.5800757996
 21
385.7052620833
 31
0.0
  0
ARC
  5
2E0
330
1F
100
AcDbEntity
  8
0
  6
Continuous
 62
     7
370
    25
100
AcDbCircle
 10
435.7800764404
 20
388.0052630281
 30
0.0
 40
0.1999999999999886
100
AcDbArc
 50
90.0
 51
180.000003008
  0
LINE
  5
2E1
330
1F
100
AcDbEntity
  8
0
  6
Continuous
 62
     7
370
    25
100
AcDbLine
 10
457.4955767832
 20
383.2577742969
 30
0.0
 11
457.4955767832
 21
383.6689159607
 31
0.0
  0
LWPOLYLINE
  5
2E2
330
1F
100
AcDbEntity
  8
0
  6
Continuous
 62
     7
370
    25
100
AcDbPolyline
 90
        3
 70
   128
 43
0.0
 10
437.7501877836
 20
382.3723305349
 10
438.2704264365
 20
382.1009999474
 10
438.7645768813
 20
381.8432312791
  0
LINE
  5
2E3
330
1F
100
AcDbEntity
  8
0
  6
Continuous
 62
     7
370
    25
100
AcDbLine
 10
460.9798296235
 20
511.6510778998
 30
0.0
 11
460.932611569
 21
511.6661578749
 31
0.0
  0
ARC
  5
2E4
330
1F
100
AcDbEntity
  8
0
  6
Continuous
 62
     7
370
    25
100
AcDbCircle
 10
417.2619261767
 20
514.7663228151
 30
0.0
 40
44.04478121680042
100
AcDbArc
 50
354.2499775472
 51
354.8902846987
  0
ARC
  5
2E5
330
1F
100
AcDbEntity
  8
0
  6
Continuous
 62
     7
370
    25
100
AcDbCircle
 10
460.6813696426
 20
509.5403122433
 30
0.0
 40
0.3191068723372839
100
AcDbArc
 50
272.070787946
 51
4.3816324517
  0
LINE
  5
2E6
330
1F
100
AcDbEntity
  8
0
  6
Continuous
 62
     7
370
    25
100
AcDbLine
 10
460.9108409725
 20
564.421156082
 30
0.0
 11
460.9399019621
 21
564.4300818776
 31
0.0
  0
ARC
  5
2E7
330
1F
100
AcDbEntity
  8
0
  6
Continuous
 62
     7
370
    25
100
AcDbCircle
 10
460.6975636962
 20
515.0574857728
 30
0.0
 40
0.3170997150785506
100
AcDbArc
 50
272.9415654631
 51
4.5275806388
  0
LINE
  5
2E8
330
1F
100
AcDbEntity
  8
0
  6
Continuous
 62
     7
370
    25
100
AcDbLine
 10
460.916365578
 20
522.7043122386
 30
0.0
 11
460.8891262553
 21
522.7120161389
 31
0.0
  0
SPLINE
  5
2E9
330
1F
100
AcDbEntity
  8
0
  6
Continuous
 62
     7
370
    25
100
AcDbSpline
210
0.0
220
0.0
230
1.0
 70
     8
 71
     3
 72
    11
 73
     7
 74
     0
 42
0.000000001
 43
0.00000001
 40
0.0
 40
0.0
 40
0.0
 40
0.0
 40
0.0264537855034659
 40
0.4061547764541988
 40
0.787375637632411
 40
0.9999999999999999
 40
0.9999999999999999
 40
0.9999999999999999
 40
0.9999999999999999
 10
461.0645427248837
 20
521.0607439612204
 30
0.0
 10
461.0649547853857
 20
521.0664684246082
 30
0.0
 10
461.0712813030427
 20
521.1543582333178
 30
0.0
 10
461.085529323284
 20
521.3759043890674
 30
0.0
 10
461.1026071038756
 20
521.6447530727604
 30
0.0
 10
461.1106312100153
 20
521.7878213701874
 30
0.0
 10
461.1135042152764
 20
521.8390465115363
 30
0.0
  0
SPLINE
  5
2EA
330
1F
100
AcDbEntity
  8
0
  6
Continuous
 62
     7
370
    25
100
AcDbSpline
210
0.0
220
0.0
230
1.0
 70
     8
 71
     3
 72
    15
 73
    11
 74
     0
 42
0.000000001
 43
0.00000001
 40
0.0
 40
0.0
 40
0.0
 40
0.0
 40
0.1024052196352661
 40
0.2006859959573001
 40
0.2922509292967187
 40
0.3773541851697933
 40
0.4605774873666879
 40
0.5507057352121374
 40
0.7916178910138426
 40
1.0
 40
1.0
 40
1.0
 40
1.0
 10
460.7348843357922
 20
520.2603876923376
 30
0.0
 10
460.7562611079823
 20
520.2626685600162
 30
0.0
 10
460.7981536876047
 20
520.2671384317998
 30
0.0
 10
460.8571214640182
 20
520.2907989732109
 30
0.0
 10
460.9089438143722
 20
520.324223318016
 30
0.0
 10
460.9515903069658
 20
520.3654749154447
 30
0.0
 10
460.9835201377264
 20
520.4101406418201
 30
0.0
 10
461.0136603315774
 20
520.4745224985077
 30
0.0
 10
461.0219095017108
 20
520.5211001029038
 30
0.0
 10
461.0259133873
 20
520.573494315867
 30
0.0
 10
461.0277703843475
 20
520.5977946852499
 30
0.0
  0
LINE
  5
2EB
330
1F
100
AcDbEntity
  8
0
  6
Continuous
 62
     7
370
    25
100
AcDbLine
 10
460.8804165266
 20
528.2791048621
 30
0.0
 11
460.8674674175
 21
528.2841265534
 31
0.0
  0
ARC
  5
2EC
330
1F
100
AcDbEntity
  8
0
  6
Continuous
 62
     7
370
    25
100
AcDbCircle
 10
416.8782263851
 20
528.9909536335
 30
0.0
 40
44.2566469571102
100
AcDbArc
 50
356.587232681
 51
357.8817174782
  0
ARC
  5
2ED
330
1F
100
AcDbEntity
  8
0
  6
Continuous
 62
     7
370
    25
100
AcDbCircle
 10
460.7281691644
 20
526.1429550307
 30
0.0
 40
0.3140053043104904
100
AcDbArc
 50
275.0909070498
 51
3.0265114264
  0
LWPOLYLINE
  5
2EE
330
1F
100
AcDbEntity
  8
0
  6
Continuous
 62
     7
370
    25
100
AcDbPolyline
 90
       11
 70
   128
 43
0.0
 10
460.77728559
 20
531.270259652
 10
460.8731633864
 20
531.2955022191
 10
460.9158626638
 20
531.318882141
 10
460.9353012286
 20
531.3323527907
 10
460.9533092819
 20
531.3467026089
 10
460.9698123179
 20
531.3618272876
 10
460.9847730837
 20
531.3777417277
 10
461.0439493201
 20
531.5102428531
 10
461.0614321075
 20
531.6649318074
 10
461.0714270614
 20
531.8750828837
 10
461.0720305584
 20
531.8920404052
  0
ARC
  5
2EF
330
1F
100
AcDbEntity
  8
0
  6
Continuous
 62
     7
370
    25
100
AcDbCircle
 10
460.7693934952
 20
538.9390383649
 30
0.0
 40
0.3325026856557382
100
AcDbArc
 50
346.4208814469
 51
80.4862602687
  0
LINE
  5
2F0
330
1F
100
AcDbEntity
  8
0
  6
Continuous
 62
     7
370
    25
100
AcDbLine
 10
402.5800759784
 20
397.0052633767
 30
0.0
 11
402.5800759784
 21
338.2052626793
 31
0.0
  0
LINE
  5
2F1
330
1F
100
AcDbEntity
  8
0
  6
Continuous
 62
     7
370
    25
100
AcDbLine
 10
393.3800767056
 20
337.6052636986
 30
0.0
 11
393.3800767056
 21
397.6052623575
 31
0.0
  0
LINE
  5
2F2
330
1F
100
AcDbEntity
  8
0
  6
Continuous
 62
     7
370
    25
100
AcDbLine
 10
411.0800764404
 20
392.1052623873
 30
0.0
 11
411.0800764404
 21
343.1052636688
 31
0.0
  0
LWPOLYLINE
  5
2F3
330
1F
100
AcDbEntity
  8
0
  6
Continuous
 62
     7
370
    25
100
AcDbPolyline
 90
       11
 70
   128
 43
0.0
 10
456.5660125456
 20
373.3491298144
 10
456.5449870072
 20
370.9033172445
 10
456.5221249006
 20
368.2436808694
 10
456.4991659365
 20
365.5726435927
 10
456.4765198968
 20
362.9379045551
 10
456.4545853875
 20
360.3865151626
 10
456.43376474
 20
357.964036647
 10
456.4144193075
 20
355.71373127
 10
456.3969029925
 20
353.6757823412
 10
456.3815212689
 20
351.8865850155
 10
456.3700026713
 20
350.5464844738
  0
LWPOLYLINE
  5
2F4
330
1F
100
AcDbEntity
  8
0
  6
Continuous
 62
     7
370
    25
100
AcDbPolyline
 90
       10
 70
   128
 43
0.0
 10
434.0800764851
 20
380.4986641144
 10
431.8984291396
 20
380.7949615975
 10
429.971416562
 20
381.603516299
 10
428.4213772855
 20
382.7605970537
 10
426.9949710808
 20
384.5358804201
 10
426.4349435336
 20
385.6444504445
 10
426.1163073472
 20
386.550992388
 10
425.9313979066
 20
387.3233661388
 10
425.8825593508
 20
387.6049869095
 10
425.8838920734
 20
387.5971768384
  0
LWPOLYLINE
  5
2F5
330
1F
100
AcDbEntity
  8
0
  6
Continuous
 62
     7
370
    25
100
AcDbPolyline
 90
       13
 70
   128
 43
0.0
 10
439.7905255548
 20
350.5028967147
 10
439.7786307029
 20
351.8865850155
 10
439.7632508419
 20
353.6757823412
 10
439.7457326643
 20
355.71373127
 10
439.7263890944
 20
357.964036647
 10
439.7055665843
 20
360.3865151626
 10
439.6836339376
 20
362.9379045551
 10
439.6609860353
 20
365.5726435927
 10
439.6380270712
 20
368.2436808694
 10
439.6151649646
 20
370.9033172445
 10
439.5928076349
 20
373.5040571873
 10
439.5713574133
 20
375.9994577949
 10
439.5551170103
 20
377.8887750914
  0
LINE
  5
2F6
330
1F
100
AcDbEntity
  8
0
  6
Continuous
 62
     7
370
    25
100
AcDbLine
 10
465.0800778411
 20
379.6052631323
 30
0.0
 11
465.0800778411
 21
347.9052629654
 31
0.0
  0
ARC
  5
2F7
330
1F
100
AcDbEntity
  8
0
  6
Continuous
 62
     7
370
    25
100
AcDbCircle
 10
456.603805752
 20
349.665688557
 30
0.0
 40
0.5439369405554194
100
AcDbArc
 50
181.1404608229
 51
218.9242213255
  0
LWPOLYLINE
  5
2F8
330
1F
100
AcDbEntity
  8
0
  6
Continuous
 62
     7
370
    25
100
AcDbPolyline
 90
       15
 70
   128
 43
0.0
 10
456.0599765621
 20
349.6548623179
 10
456.0706495188
 20
350.8778248315
 10
456.0838593982
 20
352.3915751239
 10
456.0993789575
 20
354.1698051949
 10
456.1169362507
 20
356.1816063111
 10
456.1362258039
 20
358.3920101036
 10
456.1569123409
 20
360.7625981194
 10
456.1786382339
 20
363.2521658537
 10
456.2010235033
 20
365.8174413822
 10
456.2236844442
 20
368.4138369381
 10
456.2462187252
 20
370.9962241219
 10
456.2682426415
 20
373.5197173764
 10
456.2893687628
 20
375.9404557158
 10
456.3092282853
 20
378.216362219
 10
456.3274822078
 20
380.3078808223
  0
LWPOLYLINE
  5
2F9
330
1F
100
AcDbEntity
  8
0
  6
Continuous
 62
     7
370
    25
100
AcDbPolyline
 90
        3
 70
   128
 43
0.0
 10
456.1806349895
 20
349.3252691214
 10
456.2590188227
 20
349.2422249501
 10
456.3582307539
 20
349.1772372608
  0
LWPOLYLINE
  5
2FA
330
1F
100
AcDbEntity
  8
0
  6
Continuous
 62
     7
370
    25
100
AcDbPolyline
 90
       15
 70
   128
 43
0.0
 10
439.8326716266
 20
380.3078808223
 10
439.8509236864
 20
378.216362219
 10
439.8707850716
 20
375.9404557158
 10
439.8919111929
 20
373.5197173764
 10
439.9139332465
 20
370.9962241219
 10
439.9364693902
 20
368.4138369381
 10
439.9591284684
 20
365.8174413822
 10
439.9815137378
 20
363.2521658537
 10
440.0032414935
 20
360.7625981194
 10
440.0239280305
 20
358.3920101036
 10
440.0432175837
 20
356.1816063111
 10
440.0607748769
 20
354.1698051949
 10
440.0762944363
 20
352.3915751239
 10
440.0895043157
 20
350.8778248315
 10
440.1001772724
 20
349.6548623179
  0
ARC
  5
2FB
330
1F
100
AcDbEntity
  8
0
  6
Continuous
 62
     7
370
    25
100
AcDbCircle
 10
439.5411840853
 20
349.6712199632
 30
0.0
 40
0.5592324702419743
100
AcDbArc
 50
321.6108989491
 51
358.3238495969
  0
LWPOLYLINE
  5
2FC
330
1F
100
AcDbEntity
  8
0
  6
Continuous
 62
     7
370
    25
100
AcDbPolyline
 90
        3
 70
   128
 43
0.0
 10
439.8019212178
 20
349.1772372608
 10
439.9488615684
 20
349.2886830454
 10
439.9795169822
 20
349.3252691214
  0
ARC
  5
2FD
330
1F
100
AcDbEntity
  8
0
  6
Continuous
 62
     7
370
    25
100
AcDbCircle
 10
434.0800752553
 20
388.6052616227
 30
0.0
 40
7.999998326421581
100
AcDbArc
 50
189.0130289692
 51
270.0000088077
  0
ARC
  5
2FE
330
1F
100
AcDbEntity
  8
0
  6
Continuous
 62
     7
370
    25
100
AcDbCircle
 10
464.0800710314
 20
379.6052564866
 30
0.0
 40
1.000006809654521
100
AcDbArc
 50
0.0003807697
 51
89.9997259519
  0
LINE
  5
2FF
330
1F
100
AcDbEntity
  8
0
  6
Continuous
 62
     7
370
    25
100
AcDbLine
 10
434.0800764851
 20
380.6052632963
 30
0.0
 11
439.5326833121
 21
380.6052632963
 31
0.0
  0
LINE
  5
300
330
1F
100
AcDbEntity
  8
0
  6
Continuous
 62
     7
370
    25
100
AcDbLine
 10
456.6274686597
 20
380.6052632963
 30
0.0
 11
464.0800758145
 21
380.6052632963
 31
0.0
  0
ARC
  5
301
330
1F
100
AcDbEntity
  8
0
  6
Continuous
 62
     7
370
    25
100
AcDbCircle
 10
439.5326830772
 20
380.305263028
 30
0.0
 40
0.3000000000000114
100
AcDbArc
 50
0.5
 51
90.0
  0
ARC
  5
302
330
1F
100
AcDbEntity
  8
0
  6
Continuous
 62
     7
370
    25
100
AcDbCircle
 10
456.6274698035
 20
380.305263028
 30
0.0
 40
0.3000000000000528
100
AcDbArc
 50
90.0
 51
179.5
  0
LINE
  5
303
330
1F
100
AcDbEntity
  8
0
  6
Continuous
 62
     7
370
    25
100
AcDbLine
 10
448.5177500985
 20
385.3052627628
 30
0.0
 11
460.0480898164
 21
385.3052627628
 31
0.0
  0
LINE
  5
304
330
1F
100
AcDbEntity
  8
0
  6
Continuous
 62
     7
370
    25
100
AcDbLine
 10
436.3877708904
 20
385.3052627628
 30
0.0
 11
448.5177500985
 21
385.3052627628
 31
0.0
  0
ARC
  5
305
330
1F
100
AcDbEntity
  8
0
  6
Continuous
 62
     7
370
    25
100
AcDbCircle
 10
436.3863947541
 20
385.8067022716
 30
0.0
 40
0.5014413971321545
100
AcDbArc
 50
180.16436584
 51
270.1572405091
  0
LINE
  5
306
330
1F
100
AcDbEntity
  8
0
  6
Continuous
 62
     7
370
    25
100
AcDbLine
 10
448.0800769172
 20
582.8052699899
 30
0.0
 11
460.3800765119
 21
582.8052699899
 31
0.0
  0
LINE
  5
307
330
1F
100
AcDbEntity
  8
0
  6
Continuous
 62
     7
370
    25
100
AcDbLine
 10
435.7800773225
 20
582.8052699899
 30
0.0
 11
448.0800769172
 21
582.8052699899
 31
0.0
  0
LINE
  5
308
330
1F
100
AcDbEntity
  8
0
  6
Continuous
 62
     7
370
    25
100
AcDbLine
 10
435.8849554203
 20
388.155262578
 30
0.0
 11
435.8849554203
 21
385.8052637761
 31
0.0
  0
LWPOLYLINE
  5
309
330
1F
100
AcDbEntity
  8
0
  6
Continuous
 62
     7
370
    25
100
AcDbPolyline
 90
       12
 70
   128
 43
0.0
 10
460.3934987328
 20
539.3126845692
 10
460.3893897376
 20
539.3170208072
 10
460.3068857334
 20
539.2446607684
 10
460.2197735451
 20
539.0320360993
 10
460.1455210588
 20
538.7011111115
 10
460.1020804487
 20
538.2986009454
 10
460.0980571351
 20
537.8808468913
 10
460.1312010429
 20
537.489602003
 10
460.1941957019
 20
537.1537745332
 10
460.27636443
 20
536.9054019784
 10
460.3627092085
 20
536.7811411952
 10
460.3919341109
 20
536.7904991244
  0
LWPOLYLINE
  5
30A
330
1F
100
AcDbEntity
  8
0
  6
Continuous
 62
     7
370
    25
100
AcDbPolyline
 90
       12
 70
   128
 43
0.0
 10
460.3929436646
 20
533.7770372962
 10
460.3827289186
 20
533.7859481906
 10
460.2990104697
 20
533.7019503449
 10
460.212162777
 20
533.4784478282
 10
460.1401603661
 20
533.1405043935
 10
460.1001693747
 20
532.7368170356
 10
460.0994205914
 20
532.3215812777
 10
460.1352169059
 20
531.9334954356
 10
460.2003536067
 20
531.6014677619
 10
460.2838373623
 20
531.359651718
 10
460.3700480304
 20
531.2458664511
 10
460.3920421443
 20
531.2567741011
  0
LWPOLYLINE
  5
30B
330
1F
100
AcDbEntity
  8
0
  6
Continuous
 62
     7
370
    25
100
AcDbPolyline
 90
       12
 70
   128
 43
0.0
 10
460.3926270149
 20
528.3434927796
 10
460.3773682258
 20
528.3547729586
 10
460.292725905
 20
528.2617599105
 10
460.2062283895
 20
528.0300170516
 10
460.1361594043
 20
527.6873201464
 10
460.0988953255
 20
527.2834390734
 10
460.1006015084
 20
526.870274577
 10
460.1383945785
 20
526.484140787
 10
460.2052262864
 20
526.1543631886
 10
460.2897605739
 20
525.9172559117
 10
460.3758185051
 20
525.8116364812
 10
460.3922507606
 20
525.8221119975
  0
LWPOLYLINE
  5
30C
330
1F
100
AcDbEntity
  8
0
  6
Continuous
 62
     7
370
    25
100
AcDbPolyline
 90
       12
 70
   128
 43
0.0
 10
460.3924519263
 20
522.7813363408
 10
460.3728755257
 20
522.7937490081
 10
460.287503048
 20
522.6934641932
 10
460.2014078639
 20
522.4552840327
 10
460.133037611
 20
522.1092641686
 10
460.0979900799
 20
521.70569602
 10
460.1016073368
 20
521.294140849
 10
460.1409911058
 20
520.9090352391
 10
460.2092309735
 20
520.5804199313
 10
460.2946705065
 20
520.3467548226
 10
460.3805682502
 20
520.2477366065
 10
460.3925040803
 20
520.2567965125
  0
LWPOLYLINE
  5
30D
330
1F
100
AcDbEntity
  8
0
  6
Continuous
 62
     7
370
    25
100
AcDbPolyline
 90
       12
 70
   128
 43
0.0
 10
460.3923066399
 20
517.2695309256
 10
460.3670119188
 20
517.2821522092
 10
460.2808645807
 20
517.1722561454
 10
460.1954362235
 20
516.9258356427
 10
460.129263892
 20
516.5755242442
 10
460.0969879768
 20
516.1718517875
 10
460.1030602
 20
515.7617420291
 10
460.1445487581
 20
515.3778881167
 10
460.2146028421
 20
515.0514632796
 10
460.3010519288
 20
514.8232519959
 10
460.3865547917
 20
514.7334724997
 10
460.3929660163
 20
514.7393882607
  0
LWPOLYLINE
  5
30E
330
1F
100
AcDbEntity
  8
0
  6
Continuous
 62
     7
370
    25
100
AcDbPolyline
 90
       11
 70
   128
 43
0.0
 10
460.3922656618
 20
511.7584854697
 10
460.3587231479
 20
511.7688864802
 10
460.27174507
 20
511.6453409528
 10
460.1874790035
 20
511.3876104688
 10
460.1243986628
 20
511.0312939023
 10
460.0958852909
 20
510.6268763875
 10
460.1053922317
 20
510.2181822394
 10
460.1498945496
 20
509.836354885
 10
460.2224110506
 20
509.5142364835
 10
460.3099926255
 20
509.2952639197
 10
460.3936700962
 20
509.2202216719
  0
LWPOLYLINE
  5
30F
330
1F
100
AcDbEntity
  8
0
  6
Continuous
 62
     7
370
    25
100
AcDbPolyline
 90
       11
 70
   128
 43
0.0
 10
460.3938004814
 20
544.8359340762
 10
460.3153309665
 20
544.7778046464
 10
460.2281927011
 20
544.5771456097
 10
460.1517124913
 20
544.2543268536
 10
460.1045130632
 20
543.8533366059
 10
460.0968389652
 20
543.4323937033
 10
460.1270920477
 20
543.0372000073
 10
460.187780752
 20
542.697259817
 10
460.2684407375
 20
542.4423456525
 10
460.3547221861
 20
542.3074007367
 10
460.3920011661
 20
542.3126906489
  0
LWPOLYLINE
  5
310
330
1F
100
AcDbEntity
  8
0
  6
Continuous
 62
     7
370
    25
100
AcDbPolyline
 90
       11
 70
   128
 43
0.0
 10
460.3931522808
 20
550.3606886004
 10
460.3257878564
 20
550.3232568835
 10
460.2388433061
 20
550.1383334731
 10
460.1599491082
 20
549.8273313378
 10
460.1081787489
 20
549.4303942059
 10
460.0956654988
 20
549.0065604781
 10
460.1219921253
 20
548.6058533524
 10
460.1796745203
 20
548.2593715524
 10
460.2584420584
 20
547.9950398539
 10
460.3445819459
 20
547.8461325501
 10
460.3922842882
 20
547.8423625563
  0
LWPOLYLINE
  5
311
330
1F
100
AcDbEntity
  8
0
  6
Continuous
 62
     7
370
    25
100
AcDbPolyline
 90
       11
 70
   128
 43
0.0
 10
460.3927350483
 20
555.7891965245
 10
460.3330857001
 20
555.76373044
 10
460.2465472064
 20
555.5898338889
 10
460.1661666177
 20
555.2874446248
 10
460.111170157
 20
554.893383417
 10
460.0951402328
 20
554.4668823813
 10
460.1186877928
 20
554.0616602038
 10
460.1742728494
 20
553.7107229565
 10
460.2515987001
 20
553.4406394099
 10
460.3374070368
 20
553.2828659152
 10
460.3926232896
 20
553.2705724572
  0
LWPOLYLINE
  5
312
330
1F
100
AcDbEntity
  8
0
  6
Continuous
 62
     7
370
    25
100
AcDbPolyline
 90
       11
 70
   128
 43
0.0
 10
460.3924631021
 20
561.3498181437
 10
460.3384165905
 20
561.3317132329
 10
460.2523623846
 20
561.1658335065
 10
460.1710281215
 20
560.869881544
 10
460.113621398
 20
560.4777872895
 10
460.0949018143
 20
560.0485891436
 10
460.1164116404
 20
559.6393287515
 10
460.1704991303
 20
559.2850387429
 10
460.2467222951
 20
559.0112746095
 10
460.3321469269
 20
558.8477492665
 10
460.3929436646
 20
558.8282436465
  0
LWPOLYLINE
  5
313
330
1F
100
AcDbEntity
  8
0
  6
Continuous
 62
     7
370
    25
100
AcDbPolyline
 90
       11
 70
   128
 43
0.0
 10
460.3922507606
 20
566.8616682624
 10
460.3430396757
 20
566.8491065835
 10
460.2575405381
 20
566.6902304028
 10
460.175487294
 20
566.4000898932
 10
460.1159720562
 20
566.0097986792
 10
460.0947975061
 20
565.5778438186
 10
460.1144819401
 20
565.1644260024
 10
460.16728793
 20
564.8068875407
 10
460.2425499699
 20
564.530053768
 10
460.3275573693
 20
564.3618494605
 10
460.3932603143
 20
564.3353849982
  0
LWPOLYLINE
  5
314
330
1F
100
AcDbEntity
  8
0
  6
Continuous
 62
     7
370
    25
100
AcDbPolyline
 90
       11
 70
   128
 43
0.0
 10
460.3920793972
 20
572.3745167588
 10
460.3474615953
 20
572.3666042422
 10
460.2625845812
 20
572.2144782876
 10
460.1799539171
 20
571.9301939343
 10
460.1184344731
 20
571.5419292783
 10
460.0948012314
 20
571.1072177028
 10
460.1126528225
 20
570.6892848347
 10
460.1642257414
 20
570.3281849955
 10
460.2385676346
 20
570.0482666825
 10
460.3231429003
 20
569.8756665324
 10
460.3935881398
 20
569.8418856
  0
LWPOLYLINE
  5
315
330
1F
100
AcDbEntity
  8
0
  6
Continuous
 62
     7
370
    25
100
AcDbPolyline
 90
       12
 70
   128
 43
0.0
 10
458.797815337
 20
539.3521279429
 10
458.516794338
 20
539.3054575061
 10
458.2108325205
 20
539.0709728335
 10
458.0024099789
 20
538.7492865657
 10
457.888252183
 20
538.4054422711
 10
457.8546612404
 20
538.0164921616
 10
457.902277901
 20
537.6740336751
 10
458.0136193774
 20
537.3656839465
 10
458.1930330835
 20
537.084424529
 10
458.4449372135
 20
536.8614137505
 10
458.7482764266
 20
536.7664039468
 10
458.7941049478
 20
536.7822587823
  0
LWPOLYLINE
  5
316
330
1F
100
AcDbEntity
  8
0
  6
Continuous
 62
     7
370
    25
100
AcDbPolyline
 90
       12
 70
   128
 43
0.0
 10
458.7969920478
 20
544.8366195296
 10
458.5336363755
 20
544.7953433131
 10
458.2282408021
 20
544.5667445992
 10
458.0111718617
 20
544.2397684192
 10
457.8916645489
 20
543.8910663461
 10
457.8543967448
 20
543.4940696095
 10
457.9011789403
 20
543.1483626698
 10
458.0113134227
 20
542.842575941
 10
458.1877096436
 20
542.5665617322
 10
458.4348789297
 20
542.3482746218
 10
458.7342693351
 20
542.2533989285
 10
458.794145926
 20
542.2731578683
  0
LWPOLYLINE
  5
317
330
1F
100
AcDbEntity
  8
0
  6
Continuous
 62
     7
370
    25
100
AcDbPolyline
 90
       12
 70
   128
 43
0.0
 10
458.7963289461
 20
550.3382921552
 10
458.545423194
 20
550.2998620604
 10
458.2408769868
 20
550.0748396252
 10
457.9843087933
 20
549.6706754302
 10
457.8796579383
 20
549.3190229272
 10
457.8566803477
 20
548.9283293818
 10
457.9136623881
 20
548.5890597438
 10
458.0328269742
 20
548.2901126479
 10
458.2179254732
 20
548.0247527694
 10
458.4717891059
 20
547.8245407676
 10
458.7721257351
 20
547.7564573621
 10
458.7963326714
 20
547.7672756051
  0
LWPOLYLINE
  5
318
330
1F
100
AcDbEntity
  8
0
  6
Continuous
 62
     7
370
    25
100
AcDbPolyline
 90
       12
 70
   128
 43
0.0
 10
458.7953342936
 20
555.8381915425
 10
458.571448072
 20
555.8108032082
 10
458.2681610129
 20
555.598714981
 10
458.0025813423
 20
555.2025229071
 10
457.8870228372
 20
554.8462659453
 10
457.855093374
 20
554.4444263314
 10
457.907642319
 20
554.098749194
 10
458.0223104797
 20
553.7999064063
 10
458.2010163806
 20
553.5362005566
 10
458.4474108062
 20
553.3343047236
 10
458.7432584606
 20
553.2566100692
 10
458.7953082166
 20
553.2768607472
  0
LWPOLYLINE
  5
319
330
1F
100
AcDbEntity
  8
0
  6
Continuous
 62
     7
370
    25
100
AcDbPolyline
 90
       12
 70
   128
 43
0.0
 10
458.7956732951
 20
561.3901704882
 10
458.534541621
 20
561.3350957965
 10
458.232230588
 20
561.0949933862
 10
457.9773834787
 20
560.6748998498
 10
457.8758953951
 20
560.3148728942
 10
457.8581220351
 20
559.9179357623
 10
457.9208931766
 20
559.5796346997
 10
458.0443828247
 20
559.288376603
 10
458.2314557276
 20
559.0358168219
 10
458.4841980479
 20
558.8521600102
 10
458.7809099696
 20
558.8009596204
 10
458.7982362948
 20
558.8083058928
  0
LWPOLYLINE
  5
31A
330
1F
100
AcDbEntity
  8
0
  6
Continuous
 62
     7
370
    25
100
AcDbPolyline
 90
       12
 70
   128
 43
0.0
 10
458.7925589524
 20
566.8934673404
 10
458.7039864502
 20
566.9029891824
 10
458.4127693317
 20
566.7702645396
 10
458.1182665072
 20
566.4477587079
 10
457.9421310566
 20
566.0804152821
 10
457.8626557134
 20
565.7167971467
 10
457.8667200051
 20
565.3294861649
 10
457.9449995301
 20
565.0043428277
 10
458.0825595997
 20
564.7246778344
 10
458.2836321435
 20
564.4890457724
 10
458.547155454
 20
564.3343270158
 10
458.7987727366
 20
564.327412877
  0
LWPOLYLINE
  5
31B
330
1F
100
AcDbEntity
  8
0
  6
Continuous
 62
     7
370
    25
100
AcDbPolyline
 90
       13
 70
   128
 43
0.0
 10
458.7933077357
 20
572.4073887204
 10
458.7611920081
 20
572.4143475627
 10
458.4794371269
 20
572.3154336547
 10
458.1803335688
 20
572.0311045979
 10
457.9746900938
 20
571.660229597
 10
457.8734665058
 20
571.2891161774
 10
457.8593737326
 20
570.8815992211
 10
457.9273193024
 20
570.5433875655
 10
458.0543740533
 20
570.2595353459
 10
458.2425496421
 20
570.0191349124
 10
458.4934665702
 20
569.850572977
 10
458.7864420257
 20
569.8140800332
 10
458.7991638921
 20
569.8209345673
  0
LWPOLYLINE
  5
31C
330
1F
100
AcDbEntity
  8
0
  6
Continuous
 62
     7
370
    25
100
AcDbPolyline
 90
       12
 70
   128
 43
0.0
 10
458.7967610798
 20
511.7756367062
 10
458.7054281376
 20
511.80353168
 10
458.3958043597
 20
511.7104143237
 10
458.1011152707
 20
511.4239096974
 10
457.9433753035
 20
511.1142933701
 10
457.859545096
 20
510.7308715915
 10
457.866001024
 20
510.3745401238
 10
457.940480753
 20
510.0444794034
 10
458.0842806838
 20
509.7245663737
 10
458.3077198706
 20
509.4326526259
 10
458.6043014071
 20
509.2320531939
 10
458.7915009699
 20
509.2219502066
  0
LWPOLYLINE
  5
31D
330
1F
100
AcDbEntity
  8
0
  6
Continuous
 62
     7
370
    25
100
AcDbPolyline
 90
       12
 70
   128
 43
0.0
 10
458.7968691132
 20
517.2814816569
 10
458.7382814727
 20
517.3025071954
 10
458.4334260664
 20
517.2268987035
 10
458.13273926
 20
516.9578582381
 10
457.9608282886
 20
516.6480034922
 10
457.863549783
 20
516.2549406623
 10
457.8629537366
 20
515.8909798001
 10
457.9321063004
 20
515.5609041785
 10
458.0687834762
 20
515.2445972298
 10
458.282726898
 20
514.9548292493
 10
458.570729091
 20
514.7478521203
 10
458.7930879436
 20
514.7232055997
  0
LWPOLYLINE
  5
31E
330
1F
100
AcDbEntity
  8
0
  6
Continuous
 62
     7
370
    25
100
AcDbPolyline
 90
       12
 70
   128
 43
0.0
 10
458.7973347745
 20
522.7981895541
 10
458.7642318449
 20
522.8114068841
 10
458.4642453931
 20
522.7487773036
 10
458.1601126931
 20
522.4939972495
 10
457.9759231649
 20
522.1828610038
 10
457.8775680504
 20
521.848329935
 10
457.8558980368
 20
521.4781254863
 10
457.9086369715
 20
521.1421192025
 10
458.0266951464
 20
520.8262145852
 10
458.2180707596
 20
520.5320209597
 10
458.4858185492
 20
520.3013211821
 10
458.7959266148
 20
520.2169359063
  0
LWPOLYLINE
  5
31F
330
1F
100
AcDbEntity
  8
0
  6
Continuous
 62
     7
370
    25
100
AcDbPolyline
 90
       13
 70
   128
 43
0.0
 10
458.7981021843
 20
528.3457726573
 10
458.7872504137
 20
528.3504963254
 10
458.4923042796
 20
528.2989234065
 10
458.1861971758
 20
528.0572563742
 10
457.9903251372
 20
527.7443468903
 10
457.8835918448
 20
527.4075806474
 10
457.8549108348
 20
527.0300746297
 10
457.9035705767
 20
526.6912371253
 10
458.0168641053
 20
526.3775974845
 10
458.2013367556
 20
526.0867119168
 10
458.461164578
 20
525.855162773
 10
458.7708181582
 20
525.7596612309
 10
458.7944253228
 20
525.7684678172
  0
LWPOLYLINE
  5
320
330
1F
100
AcDbEntity
  8
0
  6
Continuous
 62
     7
370
    25
100
AcDbPolyline
 90
       13
 70
   128
 43
0.0
 10
458.7983964823
 20
533.8513046836
 10
458.7982921741
 20
533.8513493871
 10
458.5070266269
 20
533.8030547236
 10
458.2007034562
 20
533.5664689874
 10
457.997727289
 20
533.2496703004
 10
457.8865571759
 20
532.9096258019
 10
457.8546984933
 20
532.5262040232
 10
457.9022741757
 20
532.1854144667
 10
458.0140030823
 20
531.8743974303
 10
458.1952682577
 20
531.5881312226
 10
458.4504916213
 20
531.3601434563
 10
458.7568073414
 20
531.2633306121
 10
458.7940527938
 20
531.2764585351
  0
LINE
  5
321
330
1F
100
AcDbEntity
  8
0
  6
Continuous
 62
     7
370
    25
100
AcDbLine
 10
436.2584809653
 20
585.2434277867
 30
0.0
 11
459.9021366678
 21
585.2434277867
 31
0.0
  0
LINE
  5
322
330
1F
100
AcDbEntity
  8
0
  6
Continuous
 62
     7
370
    25
100
AcDbLine
 10
439.7062147848
 20
380.6052632963
 30
0.0
 11
456.453937187
 21
380.6052632963
 31
0.0
  0
LINE
  5
323
330
1F
100
AcDbEntity
  8
0
  6
Continuous
 62
     7
370
    25
100
AcDbLine
 10
436.8480249188
 20
381.6052634602
 30
0.0
 11
459.3121289156
 21
381.6052634602
 31
0.0
  0
LINE
  5
324
330
1F
100
AcDbEntity
  8
0
  6
Continuous
 62
     7
370
    25
100
AcDbLine
 10
440.0877478413
 20
351.0790948157
 30
0.0
 11
456.0724041305
 21
351.0790948157
 31
0.0
  0
LINE
  5
325
330
1F
100
AcDbEntity
  8
0
  6
Continuous
 62
     7
370
    25
100
AcDbLine
 10
439.7184169731
 20
380.6052632963
 30
0.0
 11
439.5326833121
 21
380.6052632963
 31
0.0
  0
LINE
  5
326
330
1F
100
AcDbEntity
  8
0
  6
Continuous
 62
     7
370
    25
100
AcDbLine
 10
456.6274686597
 20
380.6052632963
 30
0.0
 11
456.4417368613
 21
380.6052632963
 31
0.0
  0
LINE
  5
327
330
1F
100
AcDbEntity
  8
0
  6
Continuous
 62
     7
370
    25
100
AcDbLine
 10
439.7190279208
 20
380.5354206224
 30
0.0
 11
439.7184169731
 21
380.6052632963
 31
0.0
  0
LINE
  5
328
330
1F
100
AcDbEntity
  8
0
  6
Continuous
 62
     7
370
    25
100
AcDbLine
 10
456.4417368613
 20
380.6052632963
 30
0.0
 11
456.4411110125
 21
380.5339575146
 31
0.0
  0
LWPOLYLINE
  5
329
330
1F
100
AcDbEntity
  8
0
  6
Continuous
 62
     7
370
    25
100
AcDbPolyline
 90
       15
 70
   128
 43
0.0
 10
458.4038770638
 20
381.9345344191
 10
458.420048549
 20
381.9262931456
 10
458.4048307381
 20
381.9006063377
 10
458.1495477698
 20
381.8503773173
 10
457.6908676765
 20
381.8081334566
 10
457.2078726135
 20
381.7772880529
 10
456.7225641451
 20
381.7511476909
 10
456.018514081
 20
381.7170184438
 10
455.5983981929
 20
381.698561493
 10
455.2141270481
 20
381.6828975787
 10
454.8768094621
 20
381.6700350826
 10
454.4399558447
 20
381.6545686086
 10
454.0552190385
 20
381.6415757273
 10
453.547361388
 20
381.6250726913
 10
452.9159656606
 20
381.6052606662
  0
LWPOLYLINE
  5
32A
330
1F
100
AcDbEntity
  8
0
  6
Continuous
 62
     7
370
    25
100
AcDbPolyline
 90
       11
 70
   128
 43
0.0
 10
438.9653476767
 20
381.6052634602
 10
439.1031331263
 20
381.6229315807
 10
440.433769568
 20
381.7228131329
 10
442.6274179361
 20
381.8177437742
 10
445.4360931061
 20
381.9176839997
 10
448.5434695027
 20
382.0126025339
 10
451.5982075475
 20
382.112460803
 10
454.2562394283
 20
382.2075125163
 10
456.2170720539
 20
382.3071612378
 10
457.2598217867
 20
382.4024746527
 10
457.3955750904
 20
382.4535772537
  0
LINE
  5
32B
330
1F
100
AcDbEntity
  8
0
  6
Continuous
 62
     7
370
    25
100
AcDbLine
 10
457.3924421213
 20
384.3052625989
 30
0.0
 11
457.3736331306
 21
384.3052625989
 31
0.0
  0
LINE
  5
32C
330
1F
100
AcDbEntity
  8
0
  6
Continuous
 62
     7
370
    25
100
AcDbLine
 10
457.3736331306
 20
384.3052625989
 30
0.0
 11
457.368607714
 21
384.2052627688
 31
0.0
  0
LINE
  5
32D
330
1F
100
AcDbEntity
  8
0
  6
Continuous
 62
     7
370
    25
100
AcDbLine
 10
440.0800756059
 20
350.6052621042
 30
0.0
 11
456.0800782285
 21
350.6052621042
 31
0.0
  0
ARC
  5
32E
330
1F
100
AcDbEntity
  8
0
  6
Continuous
 62
     7
370
    25
100
AcDbCircle
 10
437.8452838189
 20
382.5980142226
 30
0.0
 40
0.2376253390752154
100
AcDbArc
 50
170.1887589321
 51
242.9289807039
  0
LWPOLYLINE
  5
32F
330
1F
100
AcDbEntity
  8
0
  6
Continuous
 62
     7
370
    25
100
AcDbPolyline
 90
        5
 70
   128
 43
0.0
 10
439.9630381606
 20
382.70158473
 10
439.8778240077
 20
382.5884569769
 10
439.5318190447
 20
382.3031835591
 10
438.8553473047
 20
381.9200830867
 10
438.7645768813
 20
381.8495950063
  0
ARC
  5
330
330
1F
100
AcDbEntity
  8
0
  6
Continuous
 62
     7
370
    25
100
AcDbCircle
 10
439.9010909744
 20
382.7372758865
 30
0.0
 40
0.0712589865955571
100
AcDbArc
 50
330.201946837
 51
29.8462375691
  0
ARC
  5
331
330
1F
100
AcDbEntity
  8
0
  6
Continuous
 62
     7
370
    25
100
AcDbCircle
 10
438.6139368608
 20
381.5155961139
 30
0.0
 40
1.844261654428444
100
AcDbArc
 50
42.9878919021
 51
83.7613607689
  0
LINE
  5
332
330
1F
100
AcDbEntity
  8
0
  6
Continuous
 62
     7
370
    25
100
AcDbLine
 10
457.368607714
 20
382.6052626928
 30
0.0
 11
457.368607714
 21
384.2052627688
 31
0.0
  0
LINE
  5
333
330
1F
100
AcDbEntity
  8
0
  6
Continuous
 62
     7
370
    25
100
AcDbLine
 10
439.8019212178
 20
349.1772372608
 30
0.0
 11
439.9800757758
 21
349.2592364882
 31
0.0
  0
LWPOLYLINE
  5
334
330
1F
100
AcDbEntity
  8
0
  6
Continuous
 62
     7
370
    25
100
AcDbPolyline
 90
        4
 70
   128
 43
0.0
 10
439.9800757758
 20
348.3869299625
 10
438.9694939248
 20
347.9276426469
 10
438.3127923004
 20
347.6068970149
 10
438.3457871966
 20
347.6231821214
  0
LWPOLYLINE
  5
335
330
1F
100
AcDbEntity
  8
0
  6
Continuous
 62
     7
370
    25
100
AcDbPolyline
 90
        4
 70
   128
 43
0.0
 10
457.7667890928
 20
347.6468116378
 10
457.8312291644
 20
347.6149790322
 10
457.1888587318
 20
347.9284994637
 10
456.180076196
 20
348.3869299625
  0
LINE
  5
336
330
1F
100
AcDbEntity
  8
0
  6
Continuous
 62
     7
370
    25
100
AcDbLine
 10
456.180076196
 20
349.2592364882
 30
0.0
 11
456.3582307539
 21
349.1772372608
 31
0.0
  0
SPLINE
  5
337
330
1F
100
AcDbEntity
  8
0
  6
Continuous
 62
     7
370
    25
100
AcDbSpline
210
0.0
220
0.0
230
1.0
 70
    24
 71
     3
 72
    10
 73
     6
 74
     0
 42
0.000000001
 43
0.00000001
 40
0.0
 40
0.0
 40
0.0
 40
0.0
 40
0.2506147618294354
 40
0.5012293881146688
 40
1.0
 40
1.0
 40
1.0
 40
1.0
 10
439.9800757757784
 20
348.3869299625212
 30
0.0
 10
439.9800757757784
 20
348.4486486417471
 30
0.0
 10
439.9800757757784
 20
348.5720859668185
 30
0.0
 10
439.9800757757784
 20
348.8495723885786
 30
0.0
 10
439.9800757757784
 20
349.0955322411661
 30
0.0
 10
439.9800757757784
 20
349.2592364882285
 30
0.0
  0
LINE
  5
338
330
1F
100
AcDbEntity
  8
0
  6
Continuous
 62
     7
370
    25
100
AcDbLine
 10
456.180076196
 20
349.2592364882
 30
0.0
 11
456.180076196
 21
348.3869299625
 31
0.0
  0
LINE
  5
339
330
1F
100
AcDbEntity
  8
0
  6
Continuous
 62
     7
370
    25
100
AcDbLine
 10
440.0800756059
 20
343.7052626495
 30
0.0
 11
456.0800782285
 21
343.7052626495
 31
0.0
  0
LINE
  5
33A
330
1F
100
AcDbEntity
  8
0
  6
Continuous
 62
     7
370
    25
100
AcDbLine
 10
456.1806349895
 20
349.3252691214
 30
0.0
 11
456.180076196
 21
349.2592364882
 31
0.0
  0
LINE
  5
33B
330
1F
100
AcDbEntity
  8
0
  6
Continuous
 62
     7
370
    25
100
AcDbLine
 10
439.9800757758
 20
349.2592364882
 30
0.0
 11
439.9795169822
 21
349.3252691214
 31
0.0
  0
LINE
  5
33C
330
1F
100
AcDbEntity
  8
0
  6
Continuous
 62
     7
370
    25
100
AcDbLine
 10
459.3336089394
 20
520.2392429446
 30
0.0
 11
459.3351623855
 21
520.2384531831
 31
0.0
  0
ARC
  5
33D
330
1F
100
AcDbEntity
  8
0
  6
Continuous
 62
     7
370
    25
100
AcDbCircle
 10
444.3844127284
 20
511.8663500008
 30
0.0
 40
15.15011389010792
100
AcDbArc
 50
349.896101843
 51
359.1567593943
  0
ARC
  5
33E
330
1F
100
AcDbEntity
  8
0
  6
Continuous
 62
     7
370
    25
100
AcDbCircle
 10
441.1437609951
 20
517.4742208706
 30
0.0
 40
18.38126227413618
100
AcDbArc
 50
351.3688140069
 51
358.6011939274
  0
LWPOLYLINE
  5
33F
330
1F
100
AcDbEntity
  8
0
  6
Continuous
 62
     7
370
    25
100
AcDbPolyline
 90
        3
 70
   128
 43
0.0
 10
459.7161999784
 20
548.9348113869
 10
459.7202642701
 20
548.7050652837
 10
459.7216165505
 20
548.5006511544
  0
LWPOLYLINE
  5
340
330
1F
100
AcDbEntity
  8
0
  6
Continuous
 62
     7
370
    25
100
AcDbPolyline
 90
        3
 70
   128
 43
0.0
 10
459.7095391593
 20
543.7673420047
 10
459.7128509424
 20
543.5291171407
 10
459.7139536283
 20
543.2929486369
  0
LWPOLYLINE
  5
341
330
1F
100
AcDbEntity
  8
0
  6
Continuous
 62
     7
370
    25
100
AcDbPolyline
 90
        3
 70
   128
 43
0.0
 10
459.7139536283
 20
538.3175850247
 10
459.7130260311
 20
538.5190785264
 10
459.7102320633
 20
538.6941075658
  0
LWPOLYLINE
  5
342
330
1F
100
AcDbEntity
  8
0
  6
Continuous
 62
     7
370
    25
100
AcDbPolyline
 90
        3
 70
   128
 43
0.0
 10
459.7627661071
 20
570.6270277833
 10
459.7729473255
 20
570.4580337142
 10
459.776341065
 20
570.3444123601
  0
LWPOLYLINE
  5
343
330
1F
100
AcDbEntity
  8
0
  6
Continuous
 62
     7
370
    25
100
AcDbPolyline
 90
        3
 70
   128
 43
0.0
 10
459.7499809108
 20
565.1519388293
 10
459.7584894739
 20
564.9721414183
 10
459.7613244198
 20
564.8446023797
  0
LWPOLYLINE
  5
344
330
1F
100
AcDbEntity
  8
0
  6
Continuous
 62
     7
370
    25
100
AcDbPolyline
 90
        3
 70
   128
 43
0.0
 10
459.7376278482
 20
559.6923023795
 10
459.7445196352
 20
559.4985574817
 10
459.7468144141
 20
559.3521684741
  0
LWPOLYLINE
  5
345
330
1F
100
AcDbEntity
  8
0
  6
Continuous
 62
     7
370
    25
100
AcDbPolyline
 90
        3
 70
   128
 43
0.0
 10
459.7260906241
 20
554.2494148349
 10
459.731466218
 20
554.0380716657
 10
459.7332580827
 20
553.866067562
  0
ARC
  5
346
330
1F
100
AcDbEntity
  8
0
  6
Continuous
 62
     7
370
    25
100
AcDbCircle
 10
447.0340719022
 20
522.3035660437
 30
0.0
 40
12.71282292167117
100
AcDbArc
 50
351.9330029434
 51
359.7962154005
  0
ARC
  5
347
330
1F
100
AcDbEntity
  8
0
  6
Continuous
 62
     7
370
    25
100
AcDbCircle
 10
445.270274598
 20
511.8339820168
 30
0.0
 40
14.51717707183182
100
AcDbArc
 50
350.6669238506
 51
357.758219445
  0
ARC
  5
348
330
1F
100
AcDbEntity
  8
0
  6
Continuous
 62
     7
370
    25
100
AcDbCircle
 10
445.8105173954
 20
517.0752167225
 30
0.0
 40
13.95423498850682
100
AcDbArc
 50
351.4152842709
 51
358.729976839
  0
ARC
  5
349
330
1F
100
AcDbEntity
  8
0
  6
Continuous
 62
     7
370
    25
100
AcDbCircle
 10
438.9539748213
 20
527.9492059633
 30
0.0
 40
20.78029189567332
100
AcDbArc
 50
356.4293163161
 51
359.4354785801
  0
LWPOLYLINE
  5
34A
330
1F
100
AcDbEntity
  8
0
  6
Continuous
 62
     7
370
    25
100
AcDbPolyline
 90
        3
 70
   128
 43
0.0
 10
459.7216165505
 20
533.1098825072
 10
459.7204766117
 20
533.2640797232
 10
459.7170605204
 20
533.3768815135
  0
LWPOLYLINE
  5
34B
330
1F
100
AcDbEntity
  8
0
  6
Continuous
 62
     7
370
    25
100
AcDbPolyline
 90
       17
 70
   128
 43
0.0
 10
459.6596612475
 20
555.0515145396
 10
459.6672161363
 20
555.0175696944
 10
459.6767230771
 20
554.9203545188
 10
459.686744108
 20
554.7746658658
 10
459.6957481346
 20
554.6026915644
 10
459.7023679755
 20
554.4305980538
 10
459.7055940769
 20
554.2846113776
 10
459.7049347005
 20
554.186934266
 10
459.7004904292
 20
554.1524380778
 10
459.6929392658
 20
554.186382923
 10
459.6834285996
 20
554.2835980986
 10
459.6734075687
 20
554.4292867516
 10
459.6644035421
 20
554.601261053
 10
459.6577837012
 20
554.7733545636
 10
459.6545613251
 20
554.9193412398
 10
459.6552207015
 20
555.0170183514
 10
459.6596612475
 20
555.0515145396
  0
LWPOLYLINE
  5
34C
330
1F
100
AcDbEntity
  8
0
  6
Continuous
 62
     7
370
    25
100
AcDbPolyline
 90
       17
 70
   128
 43
0.0
 10
459.6518195114
 20
560.6122255658
 10
459.6599592708
 20
560.578414831
 10
459.6711574934
 20
560.4813784694
 10
459.683715447
 20
560.3358835315
 10
459.6957183323
 20
560.1641029452
 10
459.7053407572
 20
559.9921584462
 10
459.7111186824
 20
559.8462313746
 10
459.7121692143
 20
559.7485691642
 10
459.7083321653
 20
559.7139984702
 10
459.7001961313
 20
559.7478092049
 10
459.6889941833
 20
559.8448455666
 10
459.6764362297
 20
559.9903405045
 10
459.6644333444
 20
560.1621210908
 10
459.6548109196
 20
560.3340655898
 10
459.6490367196
 20
560.4799926614
 10
459.6479861877
 20
560.5776548718
 10
459.6518195114
 20
560.6122255658
  0
LWPOLYLINE
  5
34D
330
1F
100
AcDbEntity
  8
0
  6
Continuous
 62
     7
370
    25
100
AcDbPolyline
 90
       17
 70
   128
 43
0.0
 10
459.7083321653
 20
521.8965202903
 10
459.7121692143
 20
521.8619644975
 10
459.7111186824
 20
521.7642873858
 10
459.7053407572
 20
521.6183752154
 10
459.6957183323
 20
521.4464307164
 10
459.683715447
 20
521.274635229
 10
459.6711574934
 20
521.1291402911
 10
459.6599592708
 20
521.0321188306
 10
459.6518195114
 20
520.9983080958
 10
459.6479861877
 20
521.0328638886
 10
459.6490367196
 20
521.1305410003
 10
459.6548109196
 20
521.2764531707
 10
459.6644333444
 20
521.4483976697
 10
459.6764362297
 20
521.6201931571
 10
459.6889941833
 20
521.7656731938
 10
459.7001961313
 20
521.8627095555
 10
459.7083321653
 20
521.8965202903
  0
LINE
  5
34E
330
1F
100
AcDbEntity
  8
0
  6
Continuous
 62
     7
370
    25
100
AcDbLine
 10
441.0800757698
 20
258.7052598928
 30
0.0
 11
455.080076202
 21
258.7052598928
 31
0.0
  0
LWPOLYLINE
  5
34F
330
1F
100
AcDbEntity
  8
0
  6
Continuous
 62
     7
370
    25
100
AcDbPolyline
 90
        8
 70
   128
 43
0.0
 10
437.7363688193
 20
382.3849639257
 10
437.8541848503
 20
382.4252017175
 10
437.9064599864
 20
382.4347775762
 10
438.0297168038
 20
382.4544992631
 10
438.5369225285
 20
382.5149970462
 10
439.0548216991
 20
382.5747870241
 10
439.7749016873
 20
382.6703695913
 10
439.9630754135
 20
382.7018203546
  0
LWPOLYLINE
  5
350
330
1F
100
AcDbEntity
  8
0
  6
Continuous
 62
     7
370
    25
100
AcDbPolyline
 90
       10
 70
   128
 43
0.0
 10
460.6929003141
 20
509.2214137648
 10
460.7075481556
 20
509.3127727841
 10
460.7382668994
 20
509.576314721
 10
460.7803179763
 20
509.9719256495
 10
460.8273087881
 20
510.439360175
 10
460.8720793269
 20
510.9074801539
 10
460.9078160367
 20
511.3049984311
 10
460.9290762685
 20
511.5714162921
 10
460.9326264701
 20
511.6661578749
 10
460.932611569
 20
511.6661578749
  0
ARC
  5
351
330
1F
100
AcDbEntity
  8
0
  6
Continuous
 62
     7
370
    25
100
AcDbCircle
 10
426.4001410037
 20
523.6511922958
 30
0.0
 40
34.5017703246725
100
AcDbArc
 50
354.3599152151
 51
358.4401531501
  0
ARC
  5
352
330
1F
100
AcDbEntity
  8
0
  6
Continuous
 62
     7
370
    25
100
AcDbCircle
 10
425.9420486124
 20
528.6406088005
 30
0.0
 40
34.92723805716708
100
AcDbArc
 50
355.3847052889
 51
359.4152047514
  0
ARC
  5
353
330
1F
100
AcDbEntity
  8
0
  6
Continuous
 62
     7
370
    25
100
AcDbCircle
 10
418.4196132365
 20
533.6608162069
 30
0.0
 40
42.42630840577522
100
AcDbArc
 50
356.7771320339
 51
0.0877285382
  0
ARC
  5
354
330
1F
100
AcDbEntity
  8
0
  6
Continuous
 62
     7
370
    25
100
AcDbCircle
 10
420.1640579667
 20
514.3934993257
 30
0.0
 40
41.12128934795903
100
AcDbArc
 50
353.2515214142
 51
355.7357223522
  0
ARC
  5
355
330
1F
100
AcDbEntity
  8
0
  6
Continuous
 62
     7
370
    25
100
AcDbCircle
 10
432.0134469404
 20
563.2724259362
 30
0.0
 40
29.17964551760829
100
AcDbArc
 50
3.3259482239
 51
6.5150774507
  0
LWPOLYLINE
  5
356
330
1F
100
AcDbEntity
  8
0
  6
Continuous
 62
     7
370
    25
100
AcDbPolyline
 90
        3
 70
   128
 43
0.0
 10
461.1439435623
 20
564.9653166865
 10
461.1526123128
 20
564.8244411086
 10
461.1554994128
 20
564.7506654595
  0
LWPOLYLINE
  5
357
330
1F
100
AcDbEntity
  8
0
  6
Continuous
 62
     7
370
    25
100
AcDbPolyline
 90
        9
 70
   128
 43
0.0
 10
461.0206029258
 20
561.0521525477
 10
461.0235086522
 20
561.0623747443
 10
461.0325499318
 20
560.9757393931
 10
461.0467507384
 20
560.7984602784
 10
461.0635890506
 20
560.5640650128
 10
461.0820366881
 20
560.2883637284
 10
461.1012517355
 20
559.9825173949
 10
461.1181682787
 20
559.6939117049
 10
461.1304058574
 20
559.4647169446
  0
LWPOLYLINE
  5
358
330
1F
100
AcDbEntity
  8
0
  6
Continuous
 62
     7
370
    25
100
AcDbPolyline
 90
        3
 70
   128
 43
0.0
 10
461.0294132374
 20
560.8243584966
 10
461.0228045724
 20
560.9701365565
 10
461.0206029258
 20
561.0521525477
  0
LWPOLYLINE
  5
359
330
1F
100
AcDbEntity
  8
0
  6
Continuous
 62
     7
370
    25
100
AcDbPolyline
 90
        3
 70
   128
 43
0.0
 10
461.1304058574
 20
559.4647169446
 10
461.1372641168
 20
559.3144387339
 10
461.139551445
 20
559.230232272
  0
LWPOLYLINE
  5
35A
330
1F
100
AcDbEntity
  8
0
  6
Continuous
 62
     7
370
    25
100
AcDbPolyline
 90
        9
 70
   128
 43
0.0
 10
461.0517389021
 20
549.971559677
 10
461.0531247101
 20
550.0450224017
 10
461.0574385963
 20
550.0244289969
 10
461.0642148993
 20
549.9054730271
 10
461.0722428999
 20
549.7135013675
 10
461.0810420356
 20
549.4634598826
 10
461.0901987992
 20
549.1638273333
 10
461.0982603274
 20
548.8594264125
 10
461.1040829561
 20
548.5965252255
  0
LWPOLYLINE
  5
35B
330
1F
100
AcDbEntity
  8
0
  6
Continuous
 62
     7
370
    25
100
AcDbPolyline
 90
        9
 70
   128
 43
0.0
 10
461.1084117434
 20
548.2684612607
 10
461.1070184849
 20
548.194909129
 10
461.1026785217
 20
548.2160389756
 10
461.0958612404
 20
548.3361870383
 10
461.0877922616
 20
548.5295743083
 10
461.0789633236
 20
548.7810910081
 10
461.0697842083
 20
549.0821242665
 10
461.0617301307
 20
549.3873298501
 10
461.0559410296
 20
549.6500224208
  0
LWPOLYLINE
  5
35C
330
1F
100
AcDbEntity
  8
0
  6
Continuous
 62
     7
370
    25
100
AcDbPolyline
 90
        3
 70
   128
 43
0.0
 10
461.1040829561
 20
548.5965252255
 10
461.1073314093
 20
548.4040618275
 10
461.1084117434
 20
548.2684612607
  0
LWPOLYLINE
  5
35D
330
1F
100
AcDbEntity
  8
0
  6
Continuous
 62
     7
370
    25
100
AcDbPolyline
 90
        9
 70
   128
 43
0.0
 10
461.0931641302
 20
538.9074325894
 10
461.0902137003
 20
538.9652192925
 10
461.0859854958
 20
538.9235556458
 10
461.0810830138
 20
538.7810856437
 10
461.0763332687
 20
538.5680884455
 10
461.0719635032
 20
538.30097023
 10
461.0682456634
 20
537.9898488854
 10
461.0658763788
 20
537.6839578484
 10
461.0651164196
 20
537.4309212302
  0
ARC
  5
35E
330
1F
100
AcDbEntity
  8
0
  6
Continuous
 62
     7
370
    25
100
AcDbCircle
 10
415.7786217186
 20
538.536266421
 30
0.0
 40
45.31653739804669
100
AcDbArc
 50
358.2407917641
 51
0.1324947347
  0
LWPOLYLINE
  5
35F
330
1F
100
AcDbEntity
  8
0
  6
Continuous
 62
     7
370
    25
100
AcDbPolyline
 90
        3
 70
   128
 43
0.0
 10
461.0950379513
 20
538.6410594319
 10
461.0945685647
 20
538.7989223336
 10
461.0931641302
 20
538.9074325894
  0
LWPOLYLINE
  5
360
330
1F
100
AcDbEntity
  8
0
  6
Continuous
 62
     7
370
    25
100
AcDbPolyline
 90
        3
 70
   128
 43
0.0
 10
461.1575483225
 20
570.4760045146
 10
461.1680201135
 20
570.341536436
 10
461.1715107105
 20
570.2746898269
  0
ARC
  5
361
330
1F
100
AcDbEntity
  8
0
  6
Continuous
 62
     7
370
    25
100
AcDbCircle
 10
430.4452916179
 20
568.1299556234
 30
0.0
 40
30.80173140079093
100
AcDbArc
 50
4.3682287034
 51
7.4265338553
  0
LWPOLYLINE
  5
362
330
1F
100
AcDbEntity
  8
0
  6
Continuous
 62
     7
370
    25
100
AcDbPolyline
 90
        9
 70
   128
 43
0.0
 10
461.1237562142
 20
553.6685973738
 10
461.1216067217
 20
553.6378860806
 10
461.114912375
 20
553.7044346665
 10
461.1044070564
 20
553.8652927016
 10
461.0919683121
 20
554.0888995265
 10
461.0783561013
 20
554.359430108
 10
461.0642074488
 20
554.6663493251
 10
461.0517947815
 20
554.9622416829
 10
461.0428727112
 20
555.2029997443
  0
LWPOLYLINE
  5
363
330
1F
100
AcDbEntity
  8
0
  6
Continuous
 62
     7
370
    25
100
AcDbPolyline
 90
        3
 70
   128
 43
0.0
 10
461.1170357905
 20
553.9353132581
 10
461.1220761083
 20
553.7701487874
 10
461.1237562142
 20
553.6685973738
  0
LWPOLYLINE
  5
364
330
1F
100
AcDbEntity
  8
0
  6
Continuous
 62
     7
370
    25
100
AcDbPolyline
 90
        9
 70
   128
 43
0.0
 10
461.0363981567
 20
555.4625034665
 10
461.038532748
 20
555.4932743644
 10
461.0451712153
 20
555.4275900458
 10
461.0555983029
 20
555.2682966327
 10
461.0679625414
 20
555.0464183425
 10
461.0815114222
 20
554.7775715922
 10
461.0956228218
 20
554.4720977877
 10
461.108046665
 20
554.176771674
 10
461.1170357905
 20
553.9353132581
  0
LWPOLYLINE
  5
365
330
1F
100
AcDbEntity
  8
0
  6
Continuous
 62
     7
370
    25
100
AcDbPolyline
 90
        9
 70
   128
 43
0.0
 10
461.0950379513
 20
542.9694593285
 10
461.0943003438
 20
542.7804828023
 10
461.0920092903
 20
542.6660567855
 10
461.0884106598
 20
542.6511407231
 10
461.0841489277
 20
542.7304298018
 10
461.0794885896
 20
542.8927928542
 10
461.0746419869
 20
543.1364864444
 10
461.0703914307
 20
543.4281468724
 10
461.0673329673
 20
543.7198669051
  0
LWPOLYLINE
  5
366
330
1F
100
AcDbEntity
  8
0
  6
Continuous
 62
     7
370
    25
100
AcDbPolyline
 90
        3
 70
   128
 43
0.0
 10
461.0927916012
 20
543.4325576161
 10
461.0944754324
 20
543.1858390902
 10
461.0950379513
 20
542.9694593285
  0
LWPOLYLINE
  5
367
330
1F
100
AcDbEntity
  8
0
  6
Continuous
 62
     7
370
    25
100
AcDbPolyline
 90
        9
 70
   128
 43
0.0
 10
461.0651164196
 20
544.1796124314
 10
461.0658503018
 20
544.3683952426
 10
461.0681339047
 20
544.4828212594
 10
461.0717250846
 20
544.4980800484
 10
461.0759756408
 20
544.4193572139
 10
461.0806285284
 20
544.2576945161
 10
461.0854714058
 20
544.0148353909
 10
461.0897256873
 20
543.7238902186
 10
461.0927916012
 20
543.4325576161
  0
ARC
  5
368
330
1F
100
AcDbEntity
  8
0
  6
Continuous
 62
     7
370
    25
100
AcDbCircle
 10
419.611672557
 20
519.2507286949
 30
0.0
 40
41.61256823332764
100
AcDbArc
 50
354.243781967
 51
356.7062222668
  0
LWPOLYLINE
  5
369
330
1F
100
AcDbEntity
  8
0
  6
Continuous
 62
     7
370
    25
100
AcDbPolyline
 90
        3
 70
   128
 43
0.0
 10
461.1554994128
 20
516.8598533009
 10
461.1531413041
 20
516.866141591
 10
461.1460707031
 20
516.8128699397
  0
LWPOLYLINE
  5
36A
330
1F
100
AcDbEntity
  8
0
  6
Continuous
 62
     7
370
    25
100
AcDbPolyline
 90
        3
 70
   128
 43
0.0
 10
461.0046512328
 20
515.0272339915
 10
461.0070912979
 20
515.0213480328
 10
461.0144152186
 20
515.0771528815
  0
ARC
  5
36B
330
1F
100
AcDbEntity
  8
0
  6
Continuous
 62
     7
370
    25
100
AcDbCircle
 10
420.7068441546
 20
533.6589307178
 30
0.0
 40
40.4028102026336
100
AcDbArc
 50
357.0303229267
 51
359.5506331348
  0
LWPOLYLINE
  5
36C
330
1F
100
AcDbEntity
  8
0
  6
Continuous
 62
     7
370
    25
100
AcDbPolyline
 90
        3
 70
   128
 43
0.0
 10
461.1084117434
 20
533.3420574998
 10
461.1075251243
 20
533.4087103938
 10
461.1048615418
 20
533.4159821605
  0
LINE
  5
36D
330
1F
100
AcDbEntity
  8
0
  6
Continuous
 62
     7
370
    25
100
AcDbLine
 10
436.2395732544
 20
385.2052629327
 30
0.0
 11
436.7354745857
 21
385.2052629327
 31
0.0
  0
ARC
  5
36E
330
1F
100
AcDbEntity
  8
0
  6
Continuous
 62
     7
370
    25
100
AcDbCircle
 10
436.2719627485
 20
385.6855445555
 30
0.0
 40
0.481372534090715
100
AcDbArc
 50
177.6522256533
 51
266.1418977073
  0
LINE
  5
36F
330
1F
100
AcDbEntity
  8
0
  6
Continuous
 62
     7
370
    25
100
AcDbLine
 10
457.4918552182
 20
384.2952639197
 30
0.0
 11
457.4728450618
 21
384.2952639197
 31
0.0
  0
LWPOLYLINE
  5
370
330
1F
100
AcDbEntity
  8
0
  6
Continuous
 62
     7
370
    25
100
AcDbPolyline
 90
        3
 70
   128
 43
0.0
 10
457.4897243522
 20
384.2052627688
 10
457.489709451
 20
384.2502419238
 10
457.4918552182
 20
384.2952639197
  0
LINE
  5
371
330
1F
100
AcDbEntity
  8
0
  6
Continuous
 62
     7
370
    25
100
AcDbLine
 10
457.4728450618
 20
384.2952639197
 30
0.0
 11
457.4683188341
 21
384.2052627688
 31
0.0
  0
LINE
  5
372
330
1F
100
AcDbEntity
  8
0
  6
Continuous
 62
     7
370
    25
100
AcDbLine
 10
457.3736331306
 20
384.3052625989
 30
0.0
 11
457.4728450618
 21
384.2952639197
 31
0.0
  0
LINE
  5
373
330
1F
100
AcDbEntity
  8
0
  6
Continuous
 62
     7
370
    25
100
AcDbLine
 10
457.4918552182
 20
384.2952639197
 30
0.0
 11
457.3924421213
 21
384.3052625989
 31
0.0
  0
LWPOLYLINE
  5
374
330
1F
100
AcDbEntity
  8
0
  6
Continuous
 62
     7
370
    25
100
AcDbPolyline
 90
        3
 70
   128
 43
0.0
 10
457.4873401664
 20
382.6052626928
 10
457.4937551163
 20
382.9508979206
 10
457.4955767832
 20
383.2577724342
  0
ARC
  5
375
330
1F
100
AcDbEntity
  8
0
  6
Continuous
 62
     7
370
    25
100
AcDbCircle
 10
431.6588911302
 20
383.2578546561
 30
0.0
 40
25.83668565312545
100
AcDbArc
 50
359.9998176636
 51
1.8417954482
  0
LINE
  5
376
330
1F
100
AcDbEntity
  8
0
  6
Continuous
 62
     7
370
    25
100
AcDbLine
 10
457.4822290681
 20
382.6052626928
 30
0.0
 11
457.4822290681
 21
384.0882420873
 31
0.0
  0
LINE
  5
377
330
1F
100
AcDbEntity
  8
0
  6
Continuous
 62
     7
370
    25
100
AcDbLine
 10
457.4683188341
 20
382.6052626928
 30
0.0
 11
457.4822290681
 21
382.6052626928
 31
0.0
  0
LINE
  5
378
330
1F
100
AcDbEntity
  8
0
  6
Continuous
 62
     7
370
    25
100
AcDbLine
 10
457.4683188341
 20
382.6052626928
 30
0.0
 11
457.4683188341
 21
384.2052627688
 31
0.0
  0
ARC
  5
379
330
1F
100
AcDbEntity
  8
0
  6
Continuous
 62
     7
370
    25
100
AcDbCircle
 10
432.9213566836
 20
383.6689758105
 30
0.0
 40
24.57422010149153
100
AcDbArc
 50
359.9992828611
 51
1.2504738162
  0
LINE
  5
37A
330
1F
100
AcDbEntity
  8
0
  6
Continuous
 62
     7
370
    25
100
AcDbLine
 10
457.368607714
 20
382.6052626928
 30
0.0
 11
457.4683188341
 21
382.6052626928
 31
0.0
  0
LINE
  5
37B
330
1F
100
AcDbEntity
  8
0
  6
Continuous
 62
     7
370
    25
100
AcDbLine
 10
457.4822290681
 20
382.6052626928
 30
0.0
 11
457.4873401664
 21
382.6052626928
 31
0.0
  0
LWPOLYLINE
  5
37C
330
1F
100
AcDbEntity
  8
0
  6
Continuous
 62
     7
370
    25
100
AcDbPolyline
 90
        3
 70
   128
 43
0.0
 10
460.9886399351
 20
572.1112281417
 10
460.991590365
 20
572.1108258103
 10
461.0004416547
 20
572.0492244099
  0
ARC
  5
37D
330
1F
100
AcDbEntity
  8
0
  6
Continuous
 62
     7
370
    25
100
AcDbCircle
 10
427.8699506812
 20
568.1229331242
 30
0.0
 40
33.36233198398099
100
AcDbArc
 50
5.5574658281
 51
6.7585943556
  0
ARC
  5
37E
330
1F
100
AcDbEntity
  8
0
  6
Continuous
 62
     7
370
    25
100
AcDbCircle
 10
440.6930693045
 20
512.0713132825
 30
0.0
 40
20.46150155495738
100
AcDbArc
 50
352.9630520085
 51
354.3469300913
  0
LWPOLYLINE
  5
37F
330
1F
100
AcDbEntity
  8
0
  6
Continuous
 62
     7
370
    25
100
AcDbPolyline
 90
        3
 70
   128
 43
0.0
 10
461.1226200006
 20
510.7447296714
 10
461.1387542329
 20
510.918670926
 10
461.1575483225
 20
511.134529147
  0
LWPOLYLINE
  5
380
330
1F
100
AcDbEntity
  8
0
  6
Continuous
 62
     7
370
    25
100
AcDbPolyline
 90
        3
 70
   128
 43
0.0
 10
461.1575483225
 20
511.134529147
 10
461.1680201135
 20
511.2689823245
 10
461.1715107105
 20
511.3358438348
  0
ARC
  5
381
330
1F
100
AcDbEntity
  8
0
  6
Continuous
 62
     7
370
    25
100
AcDbCircle
 10
429.0092244856
 20
563.2807167805
 30
0.0
 40
32.17004756005849
100
AcDbArc
 50
4.5257862534
 51
5.8029774785
  0
ARC
  5
382
330
1F
100
AcDbEntity
  8
0
  6
Continuous
 62
     7
370
    25
100
AcDbCircle
 10
503.0072999878
 20
562.7617997828
 30
0.0
 40
42.02149002411816
100
AcDbArc
 50
182.3317263386
 51
184.782419879
  0
LINE
  5
383
330
1F
100
AcDbEntity
  8
0
  6
Continuous
 62
     7
370
    25
100
AcDbLine
 10
461.0206029258
 20
561.0521525477
 30
0.0
 11
461.0222457788
 21
561.0654294823
 31
0.0
  0
ARC
  5
384
330
1F
100
AcDbEntity
  8
0
  6
Continuous
 62
     7
370
    25
100
AcDbCircle
 10
428.099063928
 20
558.2318144619
 30
0.0
 40
33.04719525566308
100
AcDbArc
 50
3.4054452247
 51
4.84185435
  0
ARC
  5
385
330
1F
100
AcDbEntity
  8
0
  6
Continuous
 62
     7
370
    25
100
AcDbCircle
 10
413.7810010567
 20
524.4797122411
 30
0.0
 40
47.40688982940254
100
AcDbArc
 50
355.302998561
 51
357.1781224182
  0
LWPOLYLINE
  5
386
330
1F
100
AcDbEntity
  8
0
  6
Continuous
 62
     7
370
    25
100
AcDbPolyline
 90
        3
 70
   128
 43
0.0
 10
461.1304058574
 20
522.145816717
 10
461.1372641168
 20
522.2960949277
 10
461.139551445
 20
522.3802864884
  0
ARC
  5
387
330
1F
100
AcDbEntity
  8
0
  6
Continuous
 62
     7
370
    25
100
AcDbCircle
 10
415.8385962503
 20
529.1331580016
 30
0.0
 40
45.30190580129484
100
AcDbArc
 50
356.2363146409
 51
358.1557487246
  0
LWPOLYLINE
  5
388
330
1F
100
AcDbEntity
  8
0
  6
Continuous
 62
     7
370
    25
100
AcDbPolyline
 90
        3
 70
   128
 43
0.0
 10
461.1170357905
 20
527.6752204036
 10
461.1220761083
 20
527.8403848742
 10
461.1237562142
 20
527.9419362878
  0
ARC
  5
389
330
1F
100
AcDbEntity
  8
0
  6
Continuous
 62
     7
370
    25
100
AcDbCircle
 10
503.3953347394
 20
556.487922674
 30
0.0
 40
42.3712655604819
100
AcDbArc
 50
181.9279509689
 51
183.8216426422
  0
ARC
  5
38A
330
1F
100
AcDbEntity
  8
0
  6
Continuous
 62
     7
370
    25
100
AcDbCircle
 10
433.1543341784
 20
553.5088113752
 30
0.0
 40
27.95626823002937
100
AcDbArc
 50
2.3865380511
 51
4.0125213462
  0
ARC
  5
38B
330
1F
100
AcDbEntity
  8
0
  6
Continuous
 62
     7
370
    25
100
AcDbCircle
 10
423.9199379206
 20
552.7022477902
 30
0.0
 40
37.21740335354757
100
AcDbArc
 50
1.7349234661
 51
2.5890054918
  0
ARC
  5
38C
330
1F
100
AcDbEntity
  8
0
  6
Continuous
 62
     7
370
    25
100
AcDbCircle
 10
400.5070972818
 20
542.9575958068
 30
0.0
 40
60.58750345534626
100
AcDbArc
 50
0.3448814873
 51
1.0338587569
  0
LINE
  5
38D
330
1F
100
AcDbEntity
  8
0
  6
Continuous
 62
     8
370
    18
100
AcDbLine
 10
401.9800760664
 20
337.6052636986
 30
0.0
 11
401.9800760664
 21
397.6052623575
 31
0.0
  0
LINE
  5
38E
330
1F
100
AcDbEntity
  8
0
  6
Continuous
 62
     8
370
    18
100
AcDbLine
 10
402.9800762303
 20
392.5052635704
 30
0.0
 11
402.9800762303
 21
342.7052624856
 31
0.0
  0
LINE
  5
38F
330
1F
100
AcDbEntity
  8
0
  6
Continuous
 62
     8
370
    18
100
AcDbLine
 10
410.6800764505
 20
342.7052624856
 30
0.0
 11
410.6800764505
 21
392.5052635704
 31
0.0
  0
LWPOLYLINE
  5
390
330
1F
100
AcDbEntity
  8
0
  6
Continuous
 62
     8
370
    18
100
AcDbPolyline
 90
        5
 70
   128
 43
0.0
 10
456.6274686597
 20
380.4986641144
 10
456.6089576922
 20
378.3449545835
 10
456.5887964211
 20
375.9994577949
 10
456.5673461995
 20
373.5040571873
 10
456.5660125456
 20
373.3491298144
  0
LWPOLYLINE
  5
391
330
1F
100
AcDbEntity
  8
0
  6
Continuous
 62
     8
370
    18
100
AcDbPolyline
 90
        3
 70
   128
 43
0.0
 10
456.3700026713
 20
350.5464844738
 10
456.3685535334
 20
350.3780901765
 10
456.3582307539
 20
349.1772372608
  0
LINE
  5
392
330
1F
100
AcDbEntity
  8
0
  6
Continuous
 62
     8
370
    18
100
AcDbLine
 10
464.0800758145
 20
380.4986641144
 30
0.0
 11
456.6274686597
 21
380.4986641144
 31
0.0
  0
ARC
  5
393
330
1F
100
AcDbEntity
  8
0
  6
Continuous
 62
     8
370
    18
100
AcDbCircle
 10
464.0753696621
 20
379.7939479391
 30
0.0
 40
0.7047318891047406
100
AcDbArc
 50
359.516779846
 51
89.617379775
  0
LINE
  5
394
330
1F
100
AcDbEntity
  8
0
  6
Continuous
 62
     8
370
    18
100
AcDbLine
 10
464.7800764881
 20
347.6052634751
 30
0.0
 11
464.7800764881
 21
379.788004454
 31
0.0
  0
LINE
  5
395
330
1F
100
AcDbEntity
  8
0
  6
Continuous
 62
     8
370
    18
100
AcDbLine
 10
439.5326833121
 20
380.4986641144
 30
0.0
 11
434.0800764851
 21
380.4986641144
 31
0.0
  0
LWPOLYLINE
  5
396
330
1F
100
AcDbEntity
  8
0
  6
Continuous
 62
     8
370
    18
100
AcDbPolyline
 90
        3
 70
   128
 43
0.0
 10
439.8019212178
 20
349.1772372608
 10
439.7915984384
 20
350.3780901765
 10
439.7905255548
 20
350.5028967147
  0
LWPOLYLINE
  5
397
330
1F
100
AcDbEntity
  8
0
  6
Continuous
 62
     8
370
    18
100
AcDbPolyline
 90
        3
 70
   128
 43
0.0
 10
439.5551170103
 20
377.8887750914
 10
439.5511961422
 20
378.3449545835
 10
439.5326833121
 20
380.4986641144
  0
ARC
  5
398
330
1F
100
AcDbEntity
  8
0
  6
Continuous
 62
     8
370
    18
100
AcDbCircle
 10
455.7933482235
 20
315.0781605321
 30
0.0
 40
37.66261769218455
100
AcDbArc
 50
115.1251449288
 51
120.2560928759
  0
ARC
  5
399
330
1F
100
AcDbEntity
  8
0
  6
Continuous
 62
     8
370
    18
100
AcDbCircle
 10
440.4957918377
 20
315.3295014561
 30
0.0
 40
37.38029143110106
100
AcDbArc
 50
59.760520016
 51
64.8902825258
  0
LWPOLYLINE
  5
39A
330
1F
100
AcDbEntity
  8
0
  6
Continuous
 62
     8
370
    18
100
AcDbPolyline
 90
        9
 70
   128
 43
0.0
 10
465.0800778411
 20
379.6052631323
 10
465.0743110917
 20
379.6409141605
 10
465.0572418115
 20
379.6751952131
 10
465.0295182011
 20
379.7067884688
 10
464.9922094188
 20
379.7344804143
 10
464.946745976
 20
379.7572065477
 10
464.8948824845
 20
379.77409422
 10
464.8386045239
 20
379.7844924365
 10
464.7800764881
 20
379.788004454
  0
LWPOLYLINE
  5
39B
330
1F
100
AcDbEntity
  8
0
  6
Continuous
 62
     8
370
    18
100
AcDbPolyline
 90
        9
 70
   128
 43
0.0
 10
456.3274822078
 20
380.3078808223
 10
456.3335320793
 20
380.3454261606
 10
456.3507987998
 20
380.3814385419
 10
456.378622993
 20
380.4145451968
 10
456.4159392259
 20
380.4434813892
 10
456.4613281629
 20
380.4671435018
 10
456.513057544
 20
380.4846300145
 10
456.5691492401
 20
380.4952722375
 10
456.6274686597
 20
380.4986641144
  0
LWPOLYLINE
  5
39C
330
1F
100
AcDbEntity
  8
0
  6
Continuous
 62
     8
370
    18
100
AcDbPolyline
 90
        9
 70
   128
 43
0.0
 10
439.5326833121
 20
380.4986641144
 10
439.5910027317
 20
380.4952722375
 10
439.6470962904
 20
380.4846300145
 10
439.6988238088
 20
380.4671435018
 10
439.7442127458
 20
380.4434813892
 10
439.7815308414
 20
380.4145451968
 10
439.809353172
 20
380.3814385419
 10
439.8266198925
 20
380.3454261606
 10
439.8326716266
 20
380.3078808223
  0
LINE
  5
39D
330
1F
100
AcDbEntity
  8
0
  6
Continuous
 62
     8
370
    18
100
AcDbLine
 10
434.0800764851
 20
380.6052632963
 30
0.0
 11
434.0800764851
 21
380.4986641144
 31
0.0
  0
LINE
  5
39E
330
1F
100
AcDbEntity
  8
0
  6
Continuous
 62
     8
370
    18
100
AcDbLine
 10
464.0800758145
 20
380.6052632963
 30
0.0
 11
464.0800758145
 21
380.4986641144
 31
0.0
  0
LINE
  5
39F
330
1F
100
AcDbEntity
  8
0
  6
Continuous
 62
     8
370
    18
100
AcDbLine
 10
439.5326833121
 20
380.4986641144
 30
0.0
 11
439.5326833121
 21
380.6052632963
 31
0.0
  0
LINE
  5
3A0
330
1F
100
AcDbEntity
  8
0
  6
Continuous
 62
     8
370
    18
100
AcDbLine
 10
456.6274686597
 20
380.6052632963
 30
0.0
 11
456.6274686597
 21
380.4986641144
 31
0.0
  0
LINE
  5
3A1
330
1F
100
AcDbEntity
  8
0
  6
Continuous
 62
     8
370
    18
100
AcDbLine
 10
435.8849554203
 20
385.8052637761
 30
0.0
 11
460.5800761721
 21
385.8052637761
 31
0.0
  0
LINE
  5
3A2
330
1F
100
AcDbEntity
  8
0
  6
Continuous
 62
     8
370
    18
100
AcDbLine
 10
460.5800761721
 20
582.6052666043
 30
0.0
 11
435.5800757996
 21
582.6052666043
 31
0.0
  0
ARC
  5
3A3
330
1F
100
AcDbEntity
  8
0
  6
Continuous
 62
     8
370
    18
100
AcDbCircle
 10
435.3274375914
 20
388.2465356262
 30
0.0
 40
0.5649397302928981
100
AcDbArc
 50
350.7024018234
 51
33.1258441809
  0
LINE
  5
3A4
330
1F
100
AcDbEntity
  8
0
  6
Continuous
 62
     8
370
    18
100
AcDbLine
 10
435.5800757996
 20
388.5552637612
 30
0.0
 11
435.8005589686
 21
388.5552637612
 31
0.0
  0
LINE
  5
3A5
330
1F
100
AcDbEntity
  8
0
  6
Continuous
 62
     8
370
    18
100
AcDbLine
 10
435.7970422945
 20
584.7493052815
 30
0.0
 11
460.3626272521
 21
584.7493052815
 31
0.0
  0
LINE
  5
3A6
330
1F
100
AcDbEntity
  8
0
  6
Continuous
 62
     8
370
    18
100
AcDbLine
 10
436.2580171667
 20
585.2434277867
 30
0.0
 11
436.2584809653
 21
585.2434277867
 31
0.0
  0
ARC
  5
3A7
330
1F
100
AcDbEntity
  8
0
  6
Continuous
 62
     8
370
    18
100
AcDbCircle
 10
437.4179341264
 20
385.6842502155
 30
0.0
 40
0.4789879671538678
100
AcDbArc
 50
233.8663343536
 51
269.903151245
  0
LINE
  5
3A8
330
1F
100
AcDbEntity
  8
0
  6
Continuous
 62
     8
370
    18
100
AcDbLine
 10
457.368607714
 20
384.2052627688
 30
0.0
 11
438.7645768813
 21
384.2052627688
 31
0.0
  0
SPLINE
  5
3A9
330
1F
100
AcDbEntity
  8
0
  6
Continuous
 62
     8
370
    18
100
AcDbSpline
210
0.0
220
0.0
230
1.0
 70
     8
 71
     3
 72
    11
 73
     7
 74
     0
 42
0.000000001
 43
0.00000001
 40
0.0
 40
0.0
 40
0.0
 40
0.0
 40
0.4107012542591333
 40
0.6411195166813755
 40
0.8801563304747221
 40
1.0
 40
1.0
 40
1.0
 40
1.0
 10
439.801932393706
 20
349.1759315465742
 30
0.0
 10
439.0992636249027
 20
348.8285819448176
 30
0.0
 10
438.0023722549096
 20
348.2863566496956
 30
0.0
 10
437.1880987055361
 20
347.8229577170645
 30
0.0
 10
436.7815525432575
 20
347.5894192226985
 30
0.0
 10
436.8874212085506
 20
347.6502880072957
 30
0.0
 10
436.9227747313143
 20
347.6706143801266
 30
0.0
  0
SPLINE
  5
3AA
330
1F
100
AcDbEntity
  8
0
  6
Continuous
 62
     8
370
    18
100
AcDbSpline
210
0.0
220
0.0
230
1.0
 70
     8
 71
     3
 72
    10
 73
     6
 74
     0
 42
0.000000001
 43
0.00000001
 40
0.0
 40
0.0
 40
0.0
 40
0.0
 40
0.3337438570897336
 40
0.7270823329599839
 40
1.0
 40
1.0
 40
1.0
 40
1.0
 10
459.2724284968735
 20
347.6502649818713
 30
0.0
 10
459.2314953127146
 20
347.6739117831316
 30
0.0
 10
459.1423197536697
 20
347.7254278517038
 30
0.0
 10
457.9805097802938
 20
348.3901138751192
 30
0.0
 10
456.8296463284305
 20
348.9475781541136
 30
0.0
 10
456.3582195780636
 20
349.1759315465742
 30
0.0
  0
LINE
  5
3AB
330
1F
100
AcDbEntity
  8
0
  6
Continuous
 62
     8
370
    18
100
AcDbLine
 10
456.3582307539
 20
349.1772372608
 30
0.0
 11
456.3582195781
 21
349.1759315466
 31
0.0
  0
LINE
  5
3AC
330
1F
100
AcDbEntity
  8
0
  6
Continuous
 62
     8
370
    18
100
AcDbLine
 10
439.8019323937
 20
349.1759315466
 30
0.0
 11
439.8019212178
 21
349.1772372608
 31
0.0
  0
LWPOLYLINE
  5
3AD
330
1F
100
AcDbEntity
  8
0
  6
Continuous
 62
     8
370
    18
100
AcDbPolyline
 90
        7
 70
   128
 43
0.0
 10
459.3510954521
 20
555.0554782485
 10
459.369200363
 20
554.5856297349
 10
459.3937984548
 20
554.11640707
 10
459.4211495362
 20
553.7192464207
 10
459.4470887325
 20
553.4546316003
 10
459.4676672361
 20
553.3628255462
 10
459.4677491925
 20
553.3628404473
  0
ARC
  5
3AE
330
1F
100
AcDbEntity
  8
0
  6
Continuous
 62
     8
370
    18
100
AcDbCircle
 10
462.3355835246
 20
555.4156781462
 30
0.0
 40
3.00614587493032
100
AcDbArc
 50
172.3326273213
 51
186.8817815579
  0
ARC
  5
3AF
330
1F
100
AcDbEntity
  8
0
  6
Continuous
 62
     8
370
    18
100
AcDbCircle
 10
471.5520423728
 20
549.4125122833
 30
0.0
 40
12.2068642060894
100
AcDbArc
 50
175.8252377511
 51
187.3746845473
  0
ARC
  5
3B0
330
1F
100
AcDbEntity
  8
0
  6
Continuous
 62
     8
370
    18
100
AcDbCircle
 10
471.8027451009
 20
560.8722374097
 30
0.0
 40
12.4670673997224
100
AcDbArc
 50
180.4784298296
 51
189.0069399026
  0
ARC
  5
3B1
330
1F
100
AcDbEntity
  8
0
  6
Continuous
 62
     8
370
    18
100
AcDbCircle
 10
462.0407917114
 20
561.0743560629
 30
0.0
 40
2.721959037898076
100
AcDbArc
 50
173.7208123771
 51
186.459434011
  0
ARC
  5
3B2
330
1F
100
AcDbEntity
  8
0
  6
Continuous
 62
     8
370
    18
100
AcDbCircle
 10
473.7984727338
 20
520.5500959606
 30
0.0
 40
14.4682035577118
100
AcDbArc
 50
171.4942575996
 51
181.2311090562
  0
LINE
  5
3B3
330
1F
100
AcDbEntity
  8
0
  6
Continuous
 62
     8
370
    18
100
AcDbLine
 10
459.3493222139
 20
525.8144677018
 30
0.0
 11
459.3563145838
 21
525.7937550877
 31
0.0
  0
ARC
  5
3B4
330
1F
100
AcDbEntity
  8
0
  6
Continuous
 62
     8
370
    18
100
AcDbCircle
 10
474.5232457228
 20
526.2954238074
 30
0.0
 40
15.1815438421198
100
AcDbArc
 50
172.6116510797
 51
181.8154521617
  0
LWPOLYLINE
  5
3B5
330
1F
100
AcDbEntity
  8
0
  6
Continuous
 62
     8
370
    18
100
AcDbPolyline
 90
        3
 70
   128
 43
0.0
 10
459.3628524683
 20
531.4180195664
 10
459.3761294029
 20
531.3099563454
 10
459.377567365
 20
531.309360299
  0
ARC
  5
3B6
330
1F
100
AcDbEntity
  8
0
  6
Continuous
 62
     8
370
    18
100
AcDbCircle
 10
476.3998877413
 20
531.9881900776
 30
0.0
 40
17.0465734182642
100
AcDbArc
 50
174.0175034236
 51
181.9167757342
  0
ARC
  5
3B7
330
1F
100
AcDbEntity
  8
0
  6
Continuous
 62
     8
370
    18
100
AcDbCircle
 10
460.2247953685
 20
537.0746377613
 30
0.0
 40
0.8627007544620946
100
AcDbArc
 50
171.4055550369
 51
196.7987217647
  0
ARC
  5
3B8
330
1F
100
AcDbEntity
  8
0
  6
Continuous
 62
     8
370
    18
100
AcDbCircle
 10
474.6037194275
 20
537.8558694474
 30
0.0
 40
15.24589868249357
100
AcDbArc
 50
174.634046844
 51
182.4522024618
  0
ARC
  5
3B9
330
1F
100
AcDbEntity
  8
0
  6
Continuous
 62
     8
370
    18
100
AcDbCircle
 10
471.6533393181
 20
509.2208530107
 30
0.0
 40
12.36018087885376
100
AcDbArc
 50
168.6971348382
 51
180.1028774748
  0
ARC
  5
3BA
330
1F
100
AcDbEntity
  8
0
  6
Continuous
 62
     8
370
    18
100
AcDbCircle
 10
464.5022285676
 20
543.0837753787
 30
0.0
 40
5.133401611989208
100
AcDbArc
 50
177.7757154986
 51
188.4560709602
  0
ARC
  5
3BB
330
1F
100
AcDbEntity
  8
0
  6
Continuous
 62
     8
370
    18
100
AcDbCircle
 10
470.5026096769
 20
543.8401203137
 30
0.0
 40
11.14384942963619
100
AcDbArc
 50
175.1349253379
 51
182.8655632944
  0
ARC
  5
3BC
330
1F
100
AcDbEntity
  8
0
  6
Continuous
 62
     8
370
    18
100
AcDbCircle
 10
471.6473866616
 20
514.9533193666
 30
0.0
 40
12.33560493146305
100
AcDbArc
 50
169.6857357495
 51
181.1142939251
  0
ARC
  5
3BD
330
1F
100
AcDbEntity
  8
0
  6
Continuous
 62
     8
370
    18
100
AcDbCircle
 10
473.8291906491
 20
572.6188673791
 30
0.0
 40
14.54015273436052
100
AcDbArc
 50
182.5695592419
 51
190.5080359824
  0
ARC
  5
3BE
330
1F
100
AcDbEntity
  8
0
  6
Continuous
 62
     8
370
    18
100
AcDbCircle
 10
460.5965444038
 20
572.2200085005
 30
0.0
 40
1.317410214981429
100
AcDbArc
 50
171.6264078375
 51
191.0724470241
  0
ARC
  5
3BF
330
1F
100
AcDbEntity
  8
0
  6
Continuous
 62
     8
370
    18
100
AcDbCircle
 10
473.0452471044
 20
566.7602133873
 30
0.0
 40
13.73012878229923
100
AcDbArc
 50
181.5482513536
 51
189.6927526759
  0
ARC
  5
3C0
330
1F
100
AcDbEntity
  8
0
  6
Continuous
 62
     8
370
    18
100
AcDbCircle
 10
461.1216152838
 20
566.6645425065
 30
0.0
 40
1.822398599902172
100
AcDbArc
 50
172.6688267705
 51
188.6886503488
  0
LWPOLYLINE
  5
3C1
330
1F
100
AcDbEntity
  8
0
  6
Continuous
 62
     8
370
    18
100
AcDbPolyline
 90
        9
 70
   128
 43
0.0
 10
459.6385351262
 20
549.6611684893
 10
459.6406324647
 20
549.8596668576
 10
459.6471666239
 20
549.9837190245
 10
459.6574074469
 20
550.0060558652
 10
459.6694699369
 20
549.9311477279
 10
459.6826053105
 20
549.7703940009
 10
459.6961802683
 20
549.5252997016
 10
459.7079447351
 20
549.2301375006
 10
459.7161999784
 20
548.9348113869
  0
LWPOLYLINE
  5
3C2
330
1F
100
AcDbEntity
  8
0
  6
Continuous
 62
     8
370
    18
100
AcDbPolyline
 90
        3
 70
   128
 43
0.0
 10
459.6439330719
 20
549.2279172276
 10
459.6398836813
 20
549.4571715926
 10
459.6385351262
 20
549.6611684893
  0
LWPOLYLINE
  5
3C3
330
1F
100
AcDbEntity
  8
0
  6
Continuous
 62
     8
370
    18
100
AcDbPolyline
 90
        9
 70
   128
 43
0.0
 10
459.7216165505
 20
548.5006511544
 10
459.719519212
 20
548.3020931815
 10
459.7129813276
 20
548.1780410146
 10
459.702733054
 20
548.1557786797
 10
459.6906631134
 20
548.2308507298
 10
459.6775240145
 20
548.3917981719
 10
459.6639416061
 20
548.6371159886
 10
459.6521808646
 20
548.9324719046
 10
459.6439330719
 20
549.2279172276
  0
LWPOLYLINE
  5
3C4
330
1F
100
AcDbEntity
  8
0
  6
Continuous
 62
     8
370
    18
100
AcDbPolyline
 90
        9
 70
   128
 43
0.0
 10
459.7139536283
 20
543.2929486369
 10
459.7122437201
 20
543.0269629096
 10
459.7069128297
 20
542.8048163985
 10
459.6985570035
 20
542.667770419
 10
459.6887147866
 20
542.6305622195
 10
459.6780008517
 20
542.6872015332
 10
459.6669292889
 20
542.8425908421
 10
459.6573366664
 20
543.0788338517
 10
459.6506050668
 20
543.3527917002
  0
LWPOLYLINE
  5
3C5
330
1F
100
AcDbEntity
  8
0
  6
Continuous
 62
     8
370
    18
100
AcDbPolyline
 90
        9
 70
   128
 43
0.0
 10
459.6461980484
 20
543.8267976378
 10
459.6479079566
 20
544.0927386617
 10
459.6532388471
 20
544.3148702716
 10
459.6615909479
 20
544.4519311522
 10
459.6714294396
 20
544.4891989564
 10
459.6821433745
 20
544.4326341485
 10
459.6932149372
 20
544.2773491477
 10
459.7028075598
 20
544.0412104462
 10
459.7095391593
 20
543.7673420047
  0
LWPOLYLINE
  5
3C6
330
1F
100
AcDbEntity
  8
0
  6
Continuous
 62
     8
370
    18
100
AcDbPolyline
 90
        3
 70
   128
 43
0.0
 10
459.6506050668
 20
543.3527917002
 10
459.6473007343
 20
543.5908377503
 10
459.6461980484
 20
543.8267976378
  0
LWPOLYLINE
  5
3C7
330
1F
100
AcDbEntity
  8
0
  6
Continuous
 62
     8
370
    18
100
AcDbPolyline
 90
        9
 70
   128
 43
0.0
 10
459.649927064
 20
537.4069303607
 10
459.6564127944
 20
537.2268200253
 10
459.6659458123
 20
537.1297985648
 10
459.6771254084
 20
537.1400952672
 10
459.6880218826
 20
537.2474134301
 10
459.6980913422
 20
537.4383122062
 10
459.7066930375
 20
537.7093494271
 10
459.712191566
 20
538.0201578473
 10
459.7139536283
 20
538.3175850247
  0
LWPOLYLINE
  5
3C8
330
1F
100
AcDbEntity
  8
0
  6
Continuous
 62
     8
370
    18
100
AcDbPolyline
 90
        9
 70
   128
 43
0.0
 10
459.7102320633
 20
538.6941075658
 10
459.7037500582
 20
538.8743222092
 10
459.6942170403
 20
538.9714628791
 10
459.6830374442
 20
538.9612555836
 10
459.6721372447
 20
538.8539821242
 10
459.6620640598
 20
538.6630982493
 10
459.6534623645
 20
538.3920461272
 10
459.6479601107
 20
538.0811930035
 10
459.6461980484
 20
537.7837211226
  0
LWPOLYLINE
  5
3C9
330
1F
100
AcDbEntity
  8
0
  6
Continuous
 62
     8
370
    18
100
AcDbPolyline
 90
        3
 70
   128
 43
0.0
 10
459.6461980484
 20
537.7837211226
 10
459.647129371
 20
537.5820786094
 10
459.649927064
 20
537.4069303607
  0
LWPOLYLINE
  5
3CA
330
1F
100
AcDbEntity
  8
0
  6
Continuous
 62
     8
370
    18
100
AcDbPolyline
 90
        9
 70
   128
 43
0.0
 10
459.776341065
 20
570.3444123601
 10
459.7714721105
 20
570.29051486
 10
459.7562990032
 20
570.3352630471
 10
459.7325167499
 20
570.4794168805
 10
459.704517468
 20
570.692727003
 10
459.6740408681
 20
570.9589362477
 10
459.6425547145
 20
571.2679565285
 10
459.6153079412
 20
571.5710759496
 10
459.5962195537
 20
571.8214154576
  0
LWPOLYLINE
  5
3CB
330
1F
100
AcDbEntity
  8
0
  6
Continuous
 62
     8
370
    18
100
AcDbPolyline
 90
        9
 70
   128
 43
0.0
 10
459.5838106118
 20
572.0869541501
 10
459.5885976098
 20
572.1407920455
 10
459.603498771
 20
572.0978170966
 10
459.6268861435
 20
571.9571352338
 10
459.6545128963
 20
571.7478335236
 10
459.6846840225
 20
571.4856028889
 10
459.7159839116
 20
571.180173788
 10
459.7433051906
 20
570.8786636924
 10
459.7627661071
 20
570.6270277833
  0
LWPOLYLINE
  5
3CC
330
1F
100
AcDbEntity
  8
0
  6
Continuous
 62
     8
370
    18
100
AcDbPolyline
 90
        3
 70
   128
 43
0.0
 10
459.5962195537
 20
571.8214154576
 10
459.5869137786
 20
571.9796359872
 10
459.5838106118
 20
572.0869541501
  0
LWPOLYLINE
  5
3CD
330
1F
100
AcDbEntity
  8
0
  6
Continuous
 62
     8
370
    18
100
AcDbPolyline
 90
        9
 70
   128
 43
0.0
 10
459.7613244198
 20
564.8446023797
 10
459.7572154246
 20
564.7713333701
 10
459.7444153271
 20
564.7953689431
 10
459.7243509136
 20
564.9208665227
 10
459.7007251225
 20
565.1203185653
 10
459.6750094436
 20
565.3778255318
 10
459.6484406731
 20
565.684193406
 10
459.6254407308
 20
565.9917235707
 10
459.609325125
 20
566.2523001765
  0
LWPOLYLINE
  5
3CE
330
1F
100
AcDbEntity
  8
0
  6
Continuous
 62
     8
370
    18
100
AcDbPolyline
 90
        9
 70
   128
 43
0.0
 10
459.598827257
 20
566.5440798138
 10
459.6028766475
 20
566.6171402072
 10
459.6154793046
 20
566.594475541
 10
459.6352531455
 20
566.471898589
 10
459.6586107157
 20
566.275918517
 10
459.6841028772
 20
566.0220027303
 10
459.7105375371
 20
565.7189876174
 10
459.7335896335
 20
565.4132157897
 10
459.7499809108
 20
565.1519388293
  0
LWPOLYLINE
  5
3CF
330
1F
100
AcDbEntity
  8
0
  6
Continuous
 62
     8
370
    18
100
AcDbPolyline
 90
        3
 70
   128
 43
0.0
 10
459.609325125
 20
566.2523001765
 10
459.6014535866
 20
566.4224863385
 10
459.598827257
 20
566.5440798138
  0
LWPOLYLINE
  5
3D0
330
1F
100
AcDbEntity
  8
0
  6
Continuous
 62
     8
370
    18
100
AcDbPolyline
 90
        9
 70
   128
 43
0.0
 10
459.7468144141
 20
559.3521684741
 10
459.7434430263
 20
559.2515111302
 10
459.7329302571
 20
559.2453420495
 10
459.7164570234
 20
559.342736039
 10
459.6970557115
 20
559.5203876828
 10
459.6759370408
 20
559.7630083894
 10
459.6541142903
 20
560.0628495549
 10
459.6352196179
 20
560.3740007018
 10
459.6219762109
 20
560.6470346783
  0
LWPOLYLINE
  5
3D1
330
1F
100
AcDbEntity
  8
0
  6
Continuous
 62
     8
370
    18
100
AcDbPolyline
 90
        9
 70
   128
 43
0.0
 10
459.6133372627
 20
560.9740555619
 10
459.6166713975
 20
561.0743850802
 10
459.6270537815
 20
561.0814333295
 10
459.6433407507
 20
560.9862298106
 10
459.662566974
 20
560.8113348817
 10
459.6835403583
 20
560.571664605
 10
459.7052774272
 20
560.2747589682
 10
459.7242056272
 20
559.965425763
 10
459.7376278482
 20
559.6923023795
  0
LWPOLYLINE
  5
3D2
330
1F
100
AcDbEntity
  8
0
  6
Continuous
 62
     8
370
    18
100
AcDbPolyline
 90
        3
 70
   128
 43
0.0
 10
459.6219762109
 20
560.6470346783
 10
459.615497931
 20
560.8329415654
 10
459.6133372627
 20
560.9740555619
  0
LWPOLYLINE
  5
3D3
330
1F
100
AcDbEntity
  8
0
  6
Continuous
 62
     8
370
    18
100
AcDbPolyline
 90
        9
 70
   128
 43
0.0
 10
459.7332580827
 20
553.866067562
 10
459.7305684231
 20
553.7253409957
 10
459.7221976958
 20
553.673052821
 10
459.709073498
 20
553.7255347108
 10
459.6936172686
 20
553.8664251899
 10
459.6767938576
 20
554.081642661
 10
459.6594042025
 20
554.3657332991
 10
459.6443503044
 20
554.6764672135
 10
459.6337928317
 20
554.9633145665
  0
LWPOLYLINE
  5
3D4
330
1F
100
AcDbEntity
  8
0
  6
Continuous
 62
     8
370
    18
100
AcDbPolyline
 90
        9
 70
   128
 43
0.0
 10
459.6268973194
 20
555.3378850554
 10
459.6295646272
 20
555.4782539939
 10
459.6378720246
 20
555.5308997964
 10
459.65090309
 20
555.4796249007
 10
459.6662736378
 20
555.3404182528
 10
459.6830262683
 20
555.1271379327
 10
459.7003712199
 20
554.8451036547
 10
459.7154437445
 20
554.5358747577
 10
459.7260906241
 20
554.2494148349
  0
LWPOLYLINE
  5
3D5
330
1F
100
AcDbEntity
  8
0
  6
Continuous
 62
     8
370
    18
100
AcDbPolyline
 90
        3
 70
   128
 43
0.0
 10
459.6337928317
 20
554.9633145665
 10
459.6286184035
 20
555.1696211432
 10
459.6268973194
 20
555.3378850554
  0
LWPOLYLINE
  5
3D6
330
1F
100
AcDbEntity
  8
0
  6
Continuous
 62
     8
370
    18
100
AcDbPolyline
 90
        3
 70
   128
 43
0.0
 10
459.7468144141
 20
522.2583502864
 10
459.7449927471
 20
522.3417222832
 10
459.7395202957
 20
522.3748624657
  0
ARC
  5
3D7
330
1F
100
AcDbEntity
  8
0
  6
Continuous
 62
     8
370
    18
100
AcDbCircle
 10
472.1038583774
 20
520.6036081211
 30
0.0
 40
12.49056436490959
100
AcDbArc
 50
171.8475543049
 51
179.8492211268
  0
LWPOLYLINE
  5
3D8
330
1F
100
AcDbEntity
  8
0
  6
Continuous
 62
     8
370
    18
100
AcDbPolyline
 90
        3
 70
   128
 43
0.0
 10
459.6133372627
 20
520.6364780997
 10
459.6152781389
 20
520.5511987542
 10
459.6210970424
 20
520.519563589
  0
LWPOLYLINE
  5
3D9
330
1F
100
AcDbEntity
  8
0
  6
Continuous
 62
     8
370
    18
100
AcDbPolyline
 90
        3
 70
   128
 43
0.0
 10
459.776341065
 20
511.2661213015
 10
459.7737221859
 20
511.3152206277
 10
459.7658618234
 20
511.3128364419
  0
ARC
  5
3DA
330
1F
100
AcDbEntity
  8
0
  6
Continuous
 62
     8
370
    18
100
AcDbCircle
 10
473.8546210514
 20
508.9754644568
 30
0.0
 40
14.28133202404997
100
AcDbArc
 50
170.5802373104
 51
177.8005174945
  0
LWPOLYLINE
  5
3DB
330
1F
100
AcDbEntity
  8
0
  6
Continuous
 62
     8
370
    18
100
AcDbPolyline
 90
        3
 70
   128
 43
0.0
 10
459.5838106118
 20
509.5235646104
 10
459.5866790853
 20
509.4733476971
 10
459.5952770553
 20
509.4796806907
  0
LWPOLYLINE
  5
3DC
330
1F
100
AcDbEntity
  8
0
  6
Continuous
 62
     8
370
    18
100
AcDbPolyline
 90
        3
 70
   128
 43
0.0
 10
459.7613244198
 20
516.7659312819
 10
459.759107872
 20
516.8292463158
 10
459.7524619542
 20
516.8413758611
  0
ARC
  5
3DD
330
1F
100
AcDbEntity
  8
0
  6
Continuous
 62
     8
370
    18
100
AcDbCircle
 10
473.3099904822
 20
514.773745481
 30
0.0
 40
13.71428726465863
100
AcDbArc
 50
171.3287554747
 51
178.7770252088
  0
LWPOLYLINE
  5
3DE
330
1F
100
AcDbEntity
  8
0
  6
Continuous
 62
     8
370
    18
100
AcDbPolyline
 90
        3
 70
   128
 43
0.0
 10
459.598827257
 20
515.0664538478
 10
459.6012263439
 20
515.0015592908
 10
459.6084124289
 20
514.992246065
  0
LWPOLYLINE
  5
3DF
330
1F
100
AcDbEntity
  8
0
  6
Continuous
 62
     8
370
    18
100
AcDbPolyline
 90
        6
 70
   128
 43
0.0
 10
459.6329471908
 20
526.0937601661
 10
459.6432066403
 20
526.0898411607
 10
459.6581934832
 20
526.1890679931
 10
459.6757097981
 20
526.3832003211
 10
459.6927604518
 20
526.6335994338
 10
459.6939264677
 20
526.6550124024
  0
LWPOLYLINE
  5
3E0
330
1F
100
AcDbEntity
  8
0
  6
Continuous
 62
     8
370
    18
100
AcDbPolyline
 90
        3
 70
   128
 43
0.0
 10
459.7332580827
 20
527.7444660996
 10
459.7318014942
 20
527.856999669
 10
459.7274354539
 20
527.9217899178
  0
LWPOLYLINE
  5
3E1
330
1F
100
AcDbEntity
  8
0
  6
Continuous
 62
     8
370
    18
100
AcDbPolyline
 90
        9
 70
   128
 43
0.0
 10
459.7274354539
 20
527.9217899178
 10
459.7172616861
 20
527.9283762311
 10
459.7023009203
 20
527.8310865496
 10
459.6847473524
 20
527.6378482913
 10
459.6676333688
 20
527.3874789809
 10
459.6518157862
 20
527.0976662968
 10
459.6383041582
 20
526.7813146447
 10
459.62966521
 20
526.4914721583
 10
459.6268973194
 20
526.272633705
  0
LWPOLYLINE
  5
3E2
330
1F
100
AcDbEntity
  8
0
  6
Continuous
 62
     8
370
    18
100
AcDbPolyline
 90
        3
 70
   128
 43
0.0
 10
459.6268973194
 20
526.272633705
 10
459.6284097872
 20
526.1582970952
 10
459.6329471908
 20
526.0937601661
  0
LWPOLYLINE
  5
3E3
330
1F
100
AcDbEntity
  8
0
  6
Continuous
 62
     8
370
    18
100
AcDbPolyline
 90
        9
 70
   128
 43
0.0
 10
459.6431097827
 20
531.6820234393
 10
459.6510632775
 20
531.6046566104
 10
459.6627532385
 20
531.6276342009
 10
459.6764623068
 20
531.7557245826
 10
459.6898211978
 20
531.9598704909
 10
459.7021705351
 20
532.2232932185
 10
459.7127131067
 20
532.5363070105
 10
459.7194558821
 20
532.8485459422
 10
459.7216165505
 20
533.1098825072
  0
LWPOLYLINE
  5
3E4
330
1F
100
AcDbEntity
  8
0
  6
Continuous
 62
     8
370
    18
100
AcDbPolyline
 90
        9
 70
   128
 43
0.0
 10
459.7170605204
 20
533.3768815135
 10
459.7091144762
 20
533.4545165633
 10
459.6974245153
 20
533.431747589
 10
459.683715447
 20
533.303806219
 10
459.6703491054
 20
533.0997050141
 10
459.6579960428
 20
532.8362524842
 10
459.6474460206
 20
532.5231492852
 10
459.6406995199
 20
532.2107911443
 10
459.6385351262
 20
531.9493651723
  0
LWPOLYLINE
  5
3E5
330
1F
100
AcDbEntity
  8
0
  6
Continuous
 62
     8
370
    18
100
AcDbPolyline
 90
        3
 70
   128
 43
0.0
 10
459.6385351262
 20
531.9493651723
 10
459.6396787904
 20
531.7948997353
 10
459.6431097827
 20
531.6820234393
  0
ARC
  5
3E6
330
1F
100
AcDbEntity
  8
0
  6
Continuous
 62
     8
370
    18
100
AcDbCircle
 10
438.5353560448
 20
369.5604130939
 30
0.0
 40
13.28925343067989
100
AcDbArc
 50
83.833051199
 51
93.4470227482
  0
LWPOLYLINE
  5
3E7
330
1F
100
AcDbEntity
  8
0
  6
Continuous
 62
     8
370
    18
100
AcDbPolyline
 90
        3
 70
   128
 43
0.0
 10
438.7651543013
 20
381.8510515948
 10
438.2394692741
 20
382.1245298122
 10
437.7371194653
 20
382.3864065443
  0
ARC
  5
3E8
330
1F
100
AcDbEntity
  8
0
  6
Continuous
 62
     8
370
    18
100
AcDbCircle
 10
496.3978111518
 20
574.6730567605
 30
0.0
 40
35.77905539836484
100
AcDbArc
 50
184.1019493874
 51
187.5946238382
  0
LWPOLYLINE
  5
3E9
330
1F
100
AcDbEntity
  8
0
  6
Continuous
 62
     8
370
    18
100
AcDbPolyline
 90
        3
 70
   128
 43
0.0
 10
460.6929003141
 20
572.3891198968
 10
460.6936490975
 20
572.3374277686
 10
460.7104091785
 20
572.1137315368
  0
ARC
  5
3EA
330
1F
100
AcDbEntity
  8
0
  6
Continuous
 62
     8
370
    18
100
AcDbCircle
 10
495.2101443694
 20
568.4129914082
 30
0.0
 40
34.53081178869726
100
AcDbArc
 50
182.5615584967
 51
186.6383560809
  0
ARC
  5
3EB
330
1F
100
AcDbEntity
  8
0
  6
Continuous
 62
     8
370
    18
100
AcDbCircle
 10
494.8758522962
 20
562.2674325179
 30
0.0
 40
34.15328879074761
100
AcDbArc
 50
181.5390559575
 51
185.6609193242
  0
ARC
  5
3EC
330
1F
100
AcDbEntity
  8
0
  6
Continuous
 62
     8
370
    18
100
AcDbCircle
 10
503.8103520911
 20
556.5389034956
 30
0.0
 40
43.06287929138082
100
AcDbArc
 50
181.5343747661
 51
184.2782669509
  0
ARC
  5
3ED
330
1F
100
AcDbEntity
  8
0
  6
Continuous
 62
     8
370
    18
100
AcDbCircle
 10
463.4536397084
 20
555.6300651235
 30
0.0
 40
2.701788781130672
100
AcDbArc
 50
176.8117392545
 51
185.1866474586
  0
LWPOLYLINE
  5
3EE
330
1F
100
AcDbEntity
  8
0
  6
Continuous
 62
     8
370
    18
100
AcDbPolyline
 90
       10
 70
   128
 43
0.0
 10
460.932611569
 20
511.6661578749
 10
460.9179264746
 20
511.5747988557
 10
460.8872077308
 20
511.3112569188
 10
460.8451529286
 20
510.9156459903
 10
460.7981658421
 20
510.4482114648
 10
460.7533953033
 20
509.9800914859
 10
460.7176585935
 20
509.5825732087
 10
460.6963946364
 20
509.3161553477
 10
460.6928481601
 20
509.2214137648
 10
460.6929003141
 20
509.2214137648
  0
ARC
  5
3EF
330
1F
100
AcDbEntity
  8
0
  6
Continuous
 62
     8
370
    18
100
AcDbCircle
 10
495.8483431066
 20
550.0911434626
 30
0.0
 40
35.07194226067813
100
AcDbArc
 50
179.5930252441
 51
183.6068776457
  0
ARC
  5
3F0
330
1F
100
AcDbEntity
  8
0
  6
Continuous
 62
     8
370
    18
100
AcDbCircle
 10
494.8389100196
 20
513.2273958803
 30
0.0
 40
34.15861604594848
100
AcDbArc
 50
173.3394237899
 51
177.4606616325
  0
ARC
  5
3F1
330
1F
100
AcDbEntity
  8
0
  6
Continuous
 62
     8
370
    18
100
AcDbCircle
 10
484.2602117349
 20
543.5429704662
 30
0.0
 40
23.46653318845353
100
AcDbArc
 50
179.4719237625
 51
182.9297737482
  0
ARC
  5
3F2
330
1F
100
AcDbEntity
  8
0
  6
Continuous
 62
     8
370
    18
100
AcDbCircle
 10
478.5083571914
 20
544.212297098
 30
0.0
 40
17.71947457342982
100
AcDbArc
 50
178.0996805853
 51
181.4650816452
  0
ARC
  5
3F3
330
1F
100
AcDbEntity
  8
0
  6
Continuous
 62
     8
370
    18
100
AcDbCircle
 10
495.0867455819
 20
519.3298385645
 30
0.0
 40
34.36446264310046
100
AcDbArc
 50
174.3517601869
 51
178.4483081783
  0
ARC
  5
3F4
330
1F
100
AcDbEntity
  8
0
  6
Continuous
 62
     8
370
    18
100
AcDbCircle
 10
495.8708481689
 20
537.6716523674
 30
0.0
 40
35.0827878258849
100
AcDbArc
 50
177.3936970927
 51
181.4063268812
  0
ARC
  5
3F5
330
1F
100
AcDbEntity
  8
0
  6
Continuous
 62
     8
370
    18
100
AcDbCircle
 10
495.5546621542
 20
525.4794637552
 30
0.0
 40
34.80039672344909
100
AcDbArc
 50
175.3773570105
 51
179.4225530298
  0
ARC
  5
3F6
330
1F
100
AcDbEntity
  8
0
  6
Continuous
 62
     8
370
    18
100
AcDbCircle
 10
495.9448240535
 20
531.5166938285
 30
0.0
 40
35.16840188845909
100
AcDbArc
 50
176.3986267425
 51
180.4014897759
  0
ARC
  5
3F7
330
1F
100
AcDbEntity
  8
0
  6
Continuous
 62
     8
370
    18
100
AcDbCircle
 10
501.9097141201
 20
506.4491944235
 30
0.0
 40
41.03458894829232
100
AcDbArc
 50
173.2436975633
 51
175.7372591808
  0
LWPOLYLINE
  5
3F8
330
1F
100
AcDbEntity
  8
0
  6
Continuous
 62
     8
370
    18
100
AcDbPolyline
 90
        3
 70
   128
 43
0.0
 10
460.9886399351
 20
509.4993055199
 10
460.991590365
 20
509.4997078513
 10
461.0004416547
 20
509.5612943505
  0
LWPOLYLINE
  5
3F9
330
1F
100
AcDbEntity
  8
0
  6
Continuous
 62
     8
370
    18
100
AcDbPolyline
 90
        3
 70
   128
 43
0.0
 10
461.1715107105
 20
511.3358438348
 10
461.1686571381
 20
511.3359183406
 10
461.1600889705
 20
511.2767756318
  0
LWPOLYLINE
  5
3FA
330
1F
100
AcDbEntity
  8
0
  6
Continuous
 62
     8
370
    18
100
AcDbPolyline
 90
        3
 70
   128
 43
0.0
 10
461.0158159278
 20
566.3745642041
 10
461.0074414752
 20
566.511371765
 10
461.0046512328
 20
566.5832847689
  0
ARC
  5
3FB
330
1F
100
AcDbEntity
  8
0
  6
Continuous
 62
     8
370
    18
100
AcDbCircle
 10
490.2579907817
 20
568.0719419491
 30
0.0
 40
29.29139603017059
100
AcDbArc
 50
183.3220366788
 51
186.5106239452
  0
ARC
  5
3FC
330
1F
100
AcDbEntity
  8
0
  6
Continuous
 62
     8
370
    18
100
AcDbCircle
 10
503.0086477745
 20
518.848650097
 30
0.0
 40
42.02284010349435
100
AcDbArc
 50
175.217619494
 51
177.6682342884
  0
LWPOLYLINE
  5
3FD
330
1F
100
AcDbEntity
  8
0
  6
Continuous
 62
     8
370
    18
100
AcDbPolyline
 90
        3
 70
   128
 43
0.0
 10
461.0206029258
 20
520.5583811139
 10
461.0225326262
 20
520.5427497958
 10
461.0283291779
 20
520.5893308257
  0
ARC
  5
3FE
330
1F
100
AcDbEntity
  8
0
  6
Continuous
 62
     8
370
    18
100
AcDbCircle
 10
418.9719329076
 20
524.1000565022
 30
0.0
 40
42.20267363589534
100
AcDbArc
 50
355.2282054841
 51
357.6645352883
  0
LWPOLYLINE
  5
3FF
330
1F
100
AcDbEntity
  8
0
  6
Continuous
 62
     8
370
    18
100
AcDbPolyline
 90
        3
 70
   128
 43
0.0
 10
461.139551445
 20
522.3802864884
 10
461.1376887999
 20
522.3961562251
 10
461.132108315
 20
522.3521530961
  0
LWPOLYLINE
  5
400
330
1F
100
AcDbEntity
  8
0
  6
Continuous
 62
     8
370
    18
100
AcDbPolyline
 90
        9
 70
   128
 43
0.0
 10
461.139551445
 20
559.230232272
 10
461.1366233669
 20
559.2201441859
 10
461.1275113068
 20
559.3077183102
 10
461.1131987415
 20
559.4866067504
 10
461.0962635718
 20
559.7226858472
 10
461.0777302525
 20
559.9999815558
 10
461.0584630511
 20
560.3071093892
 10
461.041561409
 20
560.5960727071
 10
461.0294132374
 20
560.8243584966
  0
ARC
  5
401
330
1F
100
AcDbEntity
  8
0
  6
Continuous
 62
     8
370
    18
100
AcDbCircle
 10
503.3291199575
 20
525.1236986489
 30
0.0
 40
42.30512465925133
100
AcDbArc
 50
176.1738701959
 51
178.6125650011
  0
LWPOLYLINE
  5
402
330
1F
100
AcDbEntity
  8
0
  6
Continuous
 62
     8
370
    18
100
AcDbPolyline
 90
        3
 70
   128
 43
0.0
 10
461.0363981567
 20
526.1480301951
 10
461.0378174923
 20
526.1155456637
 10
461.0420754991
 20
526.1454969977
  0
ARC
  5
403
330
1F
100
AcDbEntity
  8
0
  6
Continuous
 62
     8
370
    18
100
AcDbCircle
 10
418.5952862856
 20
528.9755492323
 30
0.0
 40
42.54102855104733
100
AcDbArc
 50
356.1855673152
 51
358.6077560952
  0
LWPOLYLINE
  5
404
330
1F
100
AcDbEntity
  8
0
  6
Continuous
 62
     8
370
    18
100
AcDbPolyline
 90
        3
 70
   128
 43
0.0
 10
461.1237562142
 20
527.9419362878
 10
461.1223890326
 20
527.9743314122
 10
461.118287488
 20
527.946674857
  0
LWPOLYLINE
  5
405
330
1F
100
AcDbEntity
  8
0
  6
Continuous
 62
     8
370
    18
100
AcDbPolyline
 90
        3
 70
   128
 43
0.0
 10
461.0559410296
 20
549.6500224208
 10
461.052789434
 20
549.8384476041
 10
461.0517389021
 20
549.971559677
  0
LWPOLYLINE
  5
406
330
1F
100
AcDbEntity
  8
0
  6
Continuous
 62
     8
370
    18
100
AcDbPolyline
 90
        3
 70
   128
 43
0.0
 10
461.0651164196
 20
537.4309212302
 10
461.0655895315
 20
537.2721642588
 10
461.0670125924
 20
537.1634602879
  0
LWPOLYLINE
  5
407
330
1F
100
AcDbEntity
  8
0
  6
Continuous
 62
     8
370
    18
100
AcDbPolyline
 90
        3
 70
   128
 43
0.0
 10
461.0670125924
 20
537.1634602879
 10
461.0699704728
 20
537.1066719626
 10
461.0738000713
 20
537.1450871562
  0
ARC
  5
408
330
1F
100
AcDbEntity
  8
0
  6
Continuous
 62
     8
370
    18
100
AcDbCircle
 10
491.7961993401
 20
574.2649467775
 30
0.0
 40
30.88355070568848
100
AcDbArc
 50
184.3633967791
 51
187.423557039
  0
LWPOLYLINE
  5
409
330
1F
100
AcDbEntity
  8
0
  6
Continuous
 62
     8
370
    18
100
AcDbPolyline
 90
        3
 70
   128
 43
0.0
 10
461.0021627388
 20
571.9152629708
 10
460.9920224986
 20
572.045990858
 10
460.9886399351
 20
572.1112281417
  0
LWPOLYLINE
  5
40A
330
1F
100
AcDbEntity
  8
0
  6
Continuous
 62
     8
370
    18
100
AcDbPolyline
 90
        3
 70
   128
 43
0.0
 10
461.0428727112
 20
555.2029997443
 10
461.0380149327
 20
555.363455448
 10
461.0363981567
 20
555.4625034665
  0
LWPOLYLINE
  5
40B
330
1F
100
AcDbEntity
  8
0
  6
Continuous
 62
     8
370
    18
100
AcDbPolyline
 90
        3
 70
   128
 43
0.0
 10
461.0673329673
 20
543.7198669051
 10
461.0656714878
 20
543.9647674893
 10
461.0651164196
 20
544.1796124314
  0
ARC
  5
40C
330
1F
100
AcDbEntity
  8
0
  6
Continuous
 62
     8
370
    18
100
AcDbCircle
 10
502.4307997989
 20
512.6447682999
 30
0.0
 40
41.49460118855543
100
AcDbArc
 50
174.2349590329
 51
176.7084792305
  0
ARC
  5
40D
330
1F
100
AcDbEntity
  8
0
  6
Continuous
 62
     8
370
    18
100
AcDbCircle
 10
501.1974405146
 20
531.3281393964
 30
0.0
 40
40.14690493794952
100
AcDbArc
 50
177.018984006
 51
179.5563870242
  0
LWPOLYLINE
  5
40E
330
1F
100
AcDbEntity
  8
0
  6
Continuous
 62
     8
370
    18
100
AcDbPolyline
 90
        3
 70
   128
 43
0.0
 10
461.0517389021
 20
531.6389739846
 10
461.0526553235
 20
531.5717250441
 10
461.0553971372
 20
531.5657645797
  0
ARC
  5
40F
330
1F
100
AcDbEntity
  8
0
  6
Continuous
 62
     8
370
    18
100
AcDbCircle
 10
435.9988117003
 20
388.5535146865
 30
0.0
 40
0.1982604471342017
100
AcDbArc
 50
179.4945239972
 51
269.4853201806
  0
LWPOLYLINE
  5
410
330
1F
100
AcDbEntity
  8
0
  6
Continuous
 62
     8
370
    18
100
AcDbPolyline
 90
        9
 70
   128
 43
0.0
 10
435.8597854964
 20
388.0052619015
 10
435.8469500087
 20
388.0052619015
 10
435.8351706407
 20
388.0052619015
 10
435.8245367996
 20
388.0052619015
 10
435.8151267163
 20
388.0052619015
 10
435.8070111714
 20
388.0052619015
 10
435.8002516321
 20
388.0052619015
 10
435.7949002526
 20
388.0052619015
 10
435.7909942857
 20
388.0052637641
  0
ARC
  5
411
330
1F
100
AcDbEntity
  8
0
  6
Continuous
 62
     8
370
    18
100
AcDbCircle
 10
435.9912357334
 20
388.0060607292
 30
0.0
 40
0.2002430336140634
100
AcDbArc
 50
117.3340983435
 51
180.2280371679
  0
LINE
  5
412
330
1F
100
AcDbEntity
  8
0
  6
Continuous
 62
     8
370
    18
100
AcDbLine
 10
435.8849554203
 20
388.0052637641
 30
0.0
 11
435.8597854964
 21
388.0052637641
 31
0.0
  0
LINE
  5
413
330
1F
100
AcDbEntity
  8
0
  6
Continuous
 62
     8
370
    18
100
AcDbLine
 10
435.987618833
 20
385.7052639459
 30
0.0
 11
435.7909942857
 21
385.7052639459
 31
0.0
  0
LINE
  5
414
330
1F
100
AcDbEntity
  8
0
  6
Continuous
 62
     8
370
    18
100
AcDbLine
 10
435.7909942857
 20
385.7052620833
 30
0.0
 11
435.7909942857
 21
388.0052637641
 31
0.0
  0
ARC
  5
415
330
1F
100
AcDbEntity
  8
0
  6
Continuous
 62
     8
370
    18
100
AcDbCircle
 10
436.3370193578
 20
385.5111904943
 30
0.0
 40
0.3210722909733674
100
AcDbArc
 50
187.1552321566
 51
252.3319327459
  0
LINE
  5
416
330
1F
100
AcDbEntity
  8
0
  6
Continuous
 62
     8
370
    18
100
AcDbLine
 10
435.7909942857
 20
385.7052620833
 30
0.0
 11
435.5800757996
 21
385.7052620833
 31
0.0
  0
LINE
  5
417
330
1F
100
AcDbEntity
  8
0
  6
Continuous
 62
     8
370
    18
100
AcDbLine
 10
435.7909942857
 20
388.0052637641
 30
0.0
 11
435.5800757996
 21
388.0052637641
 31
0.0
  0
LINE
  5
418
330
1F
100
AcDbEntity
  8
0
  6
Continuous
 62
     8
370
    18
100
AcDbLine
 10
457.4897243522
 20
384.2052627688
 30
0.0
 11
457.4683188341
 21
384.2052627688
 31
0.0
  0
LINE
  5
419
330
1F
100
AcDbEntity
  8
0
  6
Continuous
 62
     8
370
    18
100
AcDbLine
 10
457.4683188341
 20
384.2052627688
 30
0.0
 11
457.368607714
 21
384.2052627688
 31
0.0
  0
LINE
  5
41A
330
1F
100
AcDbEntity
  8
0
  6
Continuous
 62
     8
370
    18
100
AcDbLine
 10
457.4955767832
 20
383.2577724342
 30
0.0
 11
457.4822290681
 21
383.2577724342
 31
0.0
  0
LINE
  5
41B
330
1F
100
AcDbEntity
  8
0
  6
Continuous
 62
     7
370
    25
100
AcDbLine
 10
180.6784757607
 20
92.3340731996
 30
0.0
 11
180.6817162976
 21
92.3110993343
 31
0.0
  0
LINE
  5
41C
330
1F
100
AcDbEntity
  8
0
  6
Continuous
 62
     7
370
    25
100
AcDbLine
 10
183.136560601
 20
92.3968257147
 30
0.0
 11
183.2430051834
 21
93.9081201094
 31
0.0
  0
LINE
  5
41D
330
1F
100
AcDbEntity
  8
0
  6
Continuous
 62
     7
370
    25
100
AcDbLine
 10
167.6570946545
 20
93.9027556914
 30
0.0
 11
167.7631611199
 21
92.3968257147
 31
0.0
  0
LINE
  5
41E
330
1F
100
AcDbEntity
  8
0
  6
Continuous
 62
     7
370
    25
100
AcDbLine
 10
170.2180054233
 20
92.3110993343
 30
0.0
 11
170.2212459602
 21
92.3340731996
 31
0.0
  0
LINE
  5
41F
330
1F
100
AcDbEntity
  8
0
  6
Continuous
 62
     7
370
    25
100
AcDbLine
 10
172.0006781359
 20
91.6719587284
 30
0.0
 11
172.0662369587
 21
90.9691082078
 31
0.0
  0
LINE
  5
420
330
1F
100
AcDbEntity
  8
0
  6
Continuous
 62
     7
370
    25
100
AcDbLine
 10
174.5223938449
 20
90.9390972691
 30
0.0
 11
174.5554534098
 21
91.2193024295
 31
0.0
  0
LINE
  5
421
330
1F
100
AcDbEntity
  8
0
  6
Continuous
 62
     7
370
    25
100
AcDbLine
 10
176.3442048648
 20
91.2198388713
 30
0.0
 11
176.377327876
 21
90.9390972691
 31
0.0
  0
LINE
  5
422
330
1F
100
AcDbEntity
  8
0
  6
Continuous
 62
     7
370
    25
100
AcDbLine
 10
178.8334847622
 20
90.9691082078
 30
0.0
 11
178.8986582503
 21
91.6678273815
 31
0.0
  0
LWPOLYLINE
  5
423
330
1F
100
AcDbEntity
  8
0
  6
Continuous
 62
     7
370
    25
100
AcDbPolyline
 90
        5
 70
   128
 43
0.0
 10
178.1917872101
 20
90.65371023
 10
178.3527341865
 20
90.6824322182
 10
178.5697723933
 20
90.7458962637
 10
178.7497551374
 20
90.8411407607
 10
178.8334842965
 20
90.9691007572
  0
LWPOLYLINE
  5
424
330
1F
100
AcDbEntity
  8
0
  6
Continuous
 62
     7
370
    25
100
AcDbPolyline
 90
        6
 70
   128
 43
0.0
 10
176.3773292148
 20
90.9390860933
 10
176.4471060558
 20
90.8046031135
 10
176.582772048
 20
90.7144138354
 10
176.8944768662
 20
90.6337389487
 10
177.1810847529
 20
90.6151832777
 10
177.2783867743
 20
90.61354415
  0
LWPOLYLINE
  5
425
330
1F
100
AcDbEntity
  8
0
  6
Continuous
 62
     7
370
    25
100
AcDbPolyline
 90
        3
 70
   128
 43
0.0
 10
169.9931296714
 20
92.1126195925
 10
170.1393733926
 20
92.1905265885
 10
170.2179956444
 20
92.3110360044
  0
LWPOLYLINE
  5
426
330
1F
100
AcDbEntity
  8
0
  6
Continuous
 62
     7
370
    25
100
AcDbPolyline
 90
        7
 70
   128
 43
0.0
 10
167.7631578602
 20
92.3968778687
 10
167.8382424832
 20
92.2536702591
 10
167.9939586863
 20
92.1537877756
 10
168.3457648576
 20
92.057522549
 10
168.6486528449
 20
92.0280033487
 10
168.9582715005
 20
92.0116418737
 10
169.1194908888
 20
92.008065595
  0
LWPOLYLINE
  5
427
330
1F
100
AcDbEntity
  8
0
  6
Continuous
 62
     7
370
    25
100
AcDbPolyline
 90
       10
 70
   128
 43
0.0
 10
181.9216409892
 20
91.9959397751
 10
182.2961285904
 20
92.0164549488
 10
182.4218184881
 20
92.0271465319
 10
182.5984046989
 20
92.0467452842
 10
182.73793405
 20
92.0681880551
 10
182.8543121189
 20
92.0943619448
 10
182.9843573466
 20
92.149198218
 10
183.0606382534
 20
92.2141859072
 10
183.1115853235
 20
92.2949800032
 10
183.1336441644
 20
92.3905001717
  0
LINE
  5
428
330
1F
100
AcDbEntity
  8
0
  6
Continuous
 62
     7
370
    25
100
AcDbLine
 10
181.7096463599
 20
91.9924417275
 30
0.0
 11
181.9216409892
 21
91.9959397751
 31
0.0
  0
LWPOLYLINE
  5
429
330
1F
100
AcDbEntity
  8
0
  6
Continuous
 62
     7
370
    25
100
AcDbPolyline
 90
       10
 70
   128
 43
0.0
 10
180.6880236797
 20
92.3088529843
 10
180.6973019809
 20
92.2486150402
 10
180.7615124815
 20
92.1432675558
 10
180.8376853548
 20
92.0820610362
 10
180.9804356851
 20
92.0298957961
 10
181.0901301176
 20
92.0124651628
 10
181.2266117156
 20
92.0004324752
 10
181.3787865647
 20
91.9933357972
 10
181.5715167866
 20
91.9901618498
 10
181.7096463599
 20
91.9924417275
  0
ARC
  5
42A
330
1F
100
AcDbEntity
  8
0
  6
Continuous
 62
     7
370
    25
100
AcDbCircle
 10
174.0961405854
 20
91.1973451396
 30
0.0
 40
0.498359238652116
100
AcDbArc
 50
276.2824809408
 51
328.7956758994
  0
LWPOLYLINE
  5
42B
330
1F
100
AcDbEntity
  8
0
  6
Continuous
 62
     7
370
    25
100
AcDbPolyline
 90
        7
 70
   128
 43
0.0
 10
172.0662434779
 20
90.9690411526
 10
172.1224627652
 20
90.8385330575
 10
172.2343469698
 20
90.7481239873
 10
172.5027168829
 20
90.6601624328
 10
172.7698537249
 20
90.6317906218
 10
173.06459101
 20
90.6161481279
 10
173.2140068159
 20
90.6131380933
  0
LWPOLYLINE
  5
42C
330
1F
100
AcDbEntity
  8
0
  6
Continuous
 62
     7
370
    25
100
AcDbPolyline
 90
        6
 70
   128
 43
0.0
 10
176.3772994707
 20
90.9398944813
 10
176.4446371196
 20
90.8096583324
 10
176.5753814213
 20
90.7231421905
 10
176.8766329585
 20
90.6475299734
 10
177.157310183
 20
90.6316267091
 10
177.2540934578
 20
90.6302558022
  0
LINE
  5
42D
330
1F
100
AcDbEntity
  8
0
  6
Continuous
 62
     7
370
    25
100
AcDbLine
 10
167.6569293447
 20
93.905098899
 30
0.0
 11
167.6570946545
 21
93.9027556914
 31
0.0
  0
LINE
  5
42E
330
1F
100
AcDbEntity
  8
0
  6
Continuous
 62
     7
370
    25
100
AcDbLine
 10
174.5554534098
 20
91.2193024295
 30
0.0
 11
174.5555295454
 21
91.2199469047
 31
0.0
  0
LINE
  5
42F
330
1F
100
AcDbEntity
  8
0
  6
Continuous
 62
     7
370
    25
100
AcDbLine
 10
178.8986582503
 20
91.6678273815
 30
0.0
 11
178.8991134342
 21
91.6727075118
 31
0.0
  0
ARC
  5
430
330
1F
100
AcDbEntity
  8
0
  6
Continuous
 62
     7
370
    25
100
AcDbCircle
 10
169.8589885522
 20
92.3845131597
 30
0.0
 40
0.3644577010386289
100
AcDbArc
 50
269.5907657159
 51
347.418491127
  0
LINE
  5
431
330
1F
100
AcDbEntity
  8
0
  6
Continuous
 62
     7
370
    25
100
AcDbLine
 10
145.449861531
 20
158.3879982817
 30
0.0
 11
145.449861531
 21
149.7879989209
 31
0.0
  0
LINE
  5
432
330
1F
100
AcDbEntity
  8
0
  6
Continuous
 62
     7
370
    25
100
AcDbLine
 10
205.4498601899
 20
149.7879989209
 30
0.0
 11
205.4498601899
 21
158.3879982817
 31
0.0
  0
ARC
  5
433
330
1F
100
AcDbEntity
  8
0
  6
Continuous
 62
     7
370
    25
100
AcDbCircle
 10
146.0498608604
 20
149.7879985469
 30
0.0
 40
0.6000000000000227
100
AcDbArc
 50
180.0
 51
270.0
  0
ARC
  5
434
330
1F
100
AcDbEntity
  8
0
  6
Continuous
 62
     7
370
    25
100
AcDbCircle
 10
204.8498608604
 20
149.7879985469
 30
0.0
 40
0.6000000000000227
100
AcDbArc
 50
270.0
 51
0.0
  0
ARC
  5
435
330
1F
100
AcDbEntity
  8
0
  6
Continuous
 62
     7
370
    25
100
AcDbCircle
 10
150.1498608604
 20
148.7879985469
 30
0.0
 40
0.3999999999999773
100
AcDbArc
 50
0.0
 51
90.0
  0
ARC
  5
436
330
1F
100
AcDbEntity
  8
0
  6
Continuous
 62
     7
370
    25
100
AcDbCircle
 10
200.7498608604
 20
148.7879985469
 30
0.0
 40
0.3999999999999773
100
AcDbArc
 50
90.0
 51
180.0
  0
LINE
  5
437
330
1F
100
AcDbEntity
  8
0
  6
Continuous
 62
     7
370
    25
100
AcDbLine
 10
150.549860318
 20
148.787998757
 30
0.0
 11
150.549860318
 21
141.0879985368
 31
0.0
  0
LINE
  5
438
330
1F
100
AcDbEntity
  8
0
  6
Continuous
 62
     7
370
    25
100
AcDbLine
 10
200.3498614028
 20
141.0879985368
 30
0.0
 11
200.3498614028
 21
148.787998757
 31
0.0
  0
ARC
  5
439
330
1F
100
AcDbEntity
  8
0
  6
Continuous
 62
     7
370
    25
100
AcDbCircle
 10
150.9498608604
 20
141.0879985469
 30
0.0
 40
0.4000000000000057
100
AcDbArc
 50
180.0
 51
270.0
  0
ARC
  5
43A
330
1F
100
AcDbEntity
  8
0
  6
Continuous
 62
     7
370
    25
100
AcDbCircle
 10
199.9498608604
 20
141.0879985469
 30
0.0
 40
0.4000000000000057
100
AcDbArc
 50
270.0
 51
0.0
  0
LWPOLYLINE
  5
43B
330
1F
100
AcDbEntity
  8
0
  6
Continuous
 62
     7
370
    25
100
AcDbPolyline
 90
        3
 70
   128
 43
0.0
 10
173.1162389003
 20
115.9682275492
 10
172.9618421484
 20
115.9378850597
 10
172.8290585995
 20
115.9101614493
  0
LINE
  5
43C
330
1F
100
AcDbEntity
  8
0
  6
Continuous
 62
     7
370
    25
100
AcDbLine
 10
155.4498613075
 20
95.2514374393
 30
0.0
 11
155.4498613075
 21
86.9879984992
 31
0.0
  0
LINE
  5
43D
330
1F
100
AcDbEntity
  8
0
  6
Continuous
 62
     7
370
    25
100
AcDbLine
 10
155.4498613075
 20
140.6879985469
 30
0.0
 11
155.4498613075
 21
112.1245605635
 31
0.0
  0
LINE
  5
43E
330
1F
100
AcDbEntity
  8
0
  6
Continuous
 62
     7
370
    25
100
AcDbLine
 10
195.4498604134
 20
86.9879984992
 30
0.0
 11
195.4498604134
 21
140.6879985469
 31
0.0
  0
ARC
  5
43F
330
1F
100
AcDbEntity
  8
0
  6
Continuous
 62
     7
370
    25
100
AcDbCircle
 10
155.7498608604
 20
86.9879985469
 30
0.0
 40
0.3000000000000114
100
AcDbArc
 50
180.0
 51
270.0
  0
ARC
  5
440
330
1F
100
AcDbEntity
  8
0
  6
Continuous
 62
     7
370
    25
100
AcDbCircle
 10
195.1498608604
 20
86.9879985469
 30
0.0
 40
0.3000000000000114
100
AcDbArc
 50
270.0
 51
0.0
  0
ARC
  5
441
330
1F
100
AcDbEntity
  8
0
  6
Continuous
 62
     7
370
    25
100
AcDbCircle
 10
175.4498608604
 20
103.6879977344
 30
0.0
 40
12.29999959468842
100
AcDbArc
 50
179.9999984364
 51
0.0000015636
  0
ARC
  5
442
330
1F
100
AcDbEntity
  8
0
  6
Continuous
 62
     7
370
    25
100
AcDbCircle
 10
175.4498608604
 20
103.6879996475
 30
0.0
 40
12.29999959468852
100
AcDbArc
 50
359.9999926521
 51
180.0000073479
  0
CIRCLE
  5
443
330
1F
100
AcDbEntity
  8
0
  6
Continuous
 62
     7
370
    25
100
AcDbCircle
 10
175.4498608604
 20
103.6879985469
 30
0.0
 40
12.5
  0
LINE
  5
444
330
1F
100
AcDbEntity
  8
0
  6
Continuous
 62
     7
370
    25
100
AcDbLine
 10
167.7631611199
 20
92.3968257147
 30
0.0
 11
167.7636272468
 21
92.3942329126
 31
0.0
  0
LINE
  5
445
330
1F
100
AcDbEntity
  8
0
  6
Continuous
 62
     7
370
    25
100
AcDbLine
 10
170.216672235
 20
92.3069679874
 30
0.0
 11
170.2180054233
 21
92.3110993343
 31
0.0
  0
LWPOLYLINE
  5
446
330
1F
100
AcDbEntity
  8
0
  6
Continuous
 62
     7
370
    25
100
AcDbPolyline
 90
        9
 70
   128
 43
0.0
 10
177.9551183533
 20
90.6079860168
 10
178.2092057363
 20
90.6259903448
 10
178.4109639664
 20
90.6518438595
 10
178.5215361704
 20
90.6818063694
 10
178.53071482
 20
90.7108487326
 10
178.4460724991
 20
90.7375665146
 10
178.2642063879
 20
90.7602833348
 10
178.007834005
 20
90.7747821647
 10
177.7230814293
 20
90.7794350522
  0
LWPOLYLINE
  5
447
330
1F
100
AcDbEntity
  8
0
  6
Continuous
 62
     7
370
    25
100
AcDbPolyline
 90
        3
 70
   128
 43
0.0
 10
177.4942338195
 20
90.5965642768
 10
177.7285408423
 20
90.5994178492
 10
177.9551183533
 20
90.6079860168
  0
LWPOLYLINE
  5
448
330
1F
100
AcDbEntity
  8
0
  6
Continuous
 62
     7
370
    25
100
AcDbPolyline
 90
        9
 70
   128
 43
0.0
 10
169.2915997662
 20
91.9917339223
 10
169.0008329422
 20
91.9966028768
 10
168.691954688
 20
92.0117759841
 10
168.4157486268
 20
92.0355582374
 10
168.2127943457
 20
92.0635575193
 10
168.0875845448
 20
92.0940341192
 10
168.0536457532
 20
92.1255202728
 10
168.1244565368
 20
92.1527670461
 10
168.2807804279
 20
92.1718554336
  0
LWPOLYLINE
  5
449
330
1F
100
AcDbEntity
  8
0
  6
Continuous
 62
     7
370
    25
100
AcDbPolyline
 90
        3
 70
   128
 43
0.0
 10
169.6963674583
 20
92.0053088802
 10
169.5134314902
 20
91.9951276618
 10
169.2915997662
 20
91.9917339223
  0
LWPOLYLINE
  5
44A
330
1F
100
AcDbEntity
  8
0
  6
Continuous
 62
     7
370
    25
100
AcDbPolyline
 90
        9
 70
   128
 43
0.0
 10
173.4054879014
 20
90.5965642768
 10
173.113852619
 20
90.6010644275
 10
172.825565907
 20
90.6150826949
 10
172.5882930875
 20
90.6370879846
 10
172.4342008781
 20
90.6631352144
 10
172.3645025593
 20
90.6916336852
 10
172.3899204478
 20
90.7212609189
 10
172.5140943852
 20
90.7472448188
 10
172.7106616561
 20
90.7659122485
  0
LWPOLYLINE
  5
44B
330
1F
100
AcDbEntity
  8
0
  6
Continuous
 62
     7
370
    25
100
AcDbPolyline
 90
        3
 70
   128
 43
0.0
 10
173.8781311976
 20
90.6105266648
 10
173.656308554
 20
90.6000548738
 10
173.4054879014
 20
90.5965642768
  0
LINE
  5
44C
330
1F
100
AcDbEntity
  8
0
  6
Continuous
 62
     7
370
    25
100
AcDbLine
 10
145.449861531
 20
158.3879982817
 30
0.0
 11
205.4498601899
 21
158.3879982817
 31
0.0
  0
LINE
  5
44D
330
1F
100
AcDbEntity
  8
0
  6
Continuous
 62
     7
370
    25
100
AcDbLine
 10
204.8498612091
 20
149.1879990089
 30
0.0
 11
146.0498605118
 21
149.1879990089
 31
0.0
  0
LINE
  5
44E
330
1F
100
AcDbEntity
  8
0
  6
Continuous
 62
     7
370
    25
100
AcDbLine
 10
199.9498602197
 20
140.6879985469
 30
0.0
 11
150.9498615012
 21
140.6879985469
 31
0.0
  0
ELLIPSE
  5
44F
330
1F
100
AcDbEntity
  8
0
  6
Continuous
 62
     7
370
    25
100
AcDbEllipse
 10
175.4498608604
 20
95.2514364047
 30
0.0
 11
20.0
 21
0.0
 31
0.0
210
0.0
220
0.0
230
1.0
 40
0.0085959648
 41
2.177927372507849
 42
3.752089066832285
  0
ELLIPSE
  5
450
330
1F
100
AcDbEntity
  8
0
  6
Continuous
 62
     7
370
    25
100
AcDbEllipse
 10
175.4498608604
 20
112.1245606892
 30
0.0
 11
20.0
 21
0.0
 31
0.0
210
0.0
220
0.0
230
1.0
 40
0.0085959648
 41
2.598960102400596
 42
4.106713341440575
  0
ARC
  5
451
330
1F
100
AcDbEntity
  8
0
  6
Continuous
 62
     7
370
    25
100
AcDbCircle
 10
175.4498608604
 20
103.6879985469
 30
0.0
 40
14.0
100
AcDbArc
 50
217.6276976449
 51
90.0
  0
ARC
  5
452
330
1F
100
AcDbEntity
  8
0
  6
Continuous
 62
     7
370
    25
100
AcDbCircle
 10
175.4498608604
 20
103.6879985469
 30
0.0
 40
13.99999999999999
100
AcDbArc
 50
90.0
 51
142.3723023551
  0
LINE
  5
453
330
1F
100
AcDbEntity
  8
0
  6
Continuous
 62
     7
370
    25
100
AcDbLine
 10
164.1370222167
 20
111.9354033607
 30
0.0
 11
160.3899799481
 21
111.9354033607
 31
0.0
  0
ARC
  5
454
330
1F
100
AcDbEntity
  8
0
  6
Continuous
 62
     7
370
    25
100
AcDbCircle
 10
175.4762822402
 20
103.6681708511
 30
0.0
 40
14.03303072216648
100
AcDbArc
 50
142.3740485332
 51
143.9049422364
  0
LINE
  5
455
330
1F
100
AcDbEntity
  8
0
  6
Continuous
 62
     7
370
    25
100
AcDbLine
 10
160.3899799481
 20
95.4405927795
 30
0.0
 11
164.1370222167
 21
95.4405927795
 31
0.0
  0
ARC
  5
456
330
1F
100
AcDbEntity
  8
0
  6
Continuous
 62
     7
370
    25
100
AcDbCircle
 10
175.4308297948
 20
103.6738005796
 30
0.0
 40
13.97625845113519
100
AcDbArc
 50
216.0921220943
 51
217.6292286276
  0
LINE
  5
457
330
1F
100
AcDbEntity
  8
0
  6
Continuous
 62
     7
370
    25
100
AcDbLine
 10
191.0732403592
 20
86.6879971462
 30
0.0
 11
159.8264813617
 21
86.6879971462
 31
0.0
  0
LINE
  5
458
330
1F
100
AcDbEntity
  8
0
  6
Continuous
 62
     7
370
    25
100
AcDbLine
 10
166.3955511719
 20
95.318574621
 30
0.0
 11
164.3461385936
 21
95.326338126
 31
0.0
  0
LINE
  5
459
330
1F
100
AcDbEntity
  8
0
  6
Continuous
 62
     7
370
    25
100
AcDbLine
 10
164.3461385936
 20
112.0496580141
 30
0.0
 11
166.1827812165
 21
112.0566168564
 31
0.0
  0
ARC
  5
45A
330
1F
100
AcDbEntity
  8
0
  6
Continuous
 62
     7
370
    25
100
AcDbCircle
 10
175.4498608604
 20
103.6879985469
 30
0.0
 40
13.90000000000005
100
AcDbArc
 50
216.9815820663
 51
143.0184179337
  0
LINE
  5
45B
330
1F
100
AcDbEntity
  8
0
  6
Continuous
 62
     7
370
    25
100
AcDbLine
 10
165.5889159263
 20
112.041276111
 30
0.0
 11
164.3362647117
 21
112.0365300911
 31
0.0
  0
LINE
  5
45C
330
1F
100
AcDbEntity
  8
0
  6
Continuous
 62
     7
370
    25
100
AcDbLine
 10
166.1258029014
 20
111.9688825446
 30
0.0
 11
165.5916223497
 21
112.0412854242
 31
0.0
  0
LINE
  5
45D
330
1F
100
AcDbEntity
  8
0
  6
Continuous
 62
     7
370
    25
100
AcDbLine
 10
165.5916223497
 20
112.0412854242
 30
0.0
 11
165.5889159263
 21
112.041276111
 31
0.0
  0
LINE
  5
45E
330
1F
100
AcDbEntity
  8
0
  6
Continuous
 62
     7
370
    25
100
AcDbLine
 10
164.3362647117
 20
112.0365300911
 30
0.0
 11
164.3461385936
 21
112.0496580141
 31
0.0
  0
LINE
  5
45F
330
1F
100
AcDbEntity
  8
0
  6
Continuous
 62
     7
370
    25
100
AcDbLine
 10
165.5916223497
 20
95.3347125786
 30
0.0
 11
166.2924519003
 21
95.43033333
 31
0.0
  0
LINE
  5
460
330
1F
100
AcDbEntity
  8
0
  6
Continuous
 62
     7
370
    25
100
AcDbLine
 10
164.3362647117
 20
95.339466049
 30
0.0
 11
165.5889159263
 21
95.3347200292
 31
0.0
  0
LINE
  5
461
330
1F
100
AcDbEntity
  8
0
  6
Continuous
 62
     7
370
    25
100
AcDbLine
 10
165.5889159263
 20
95.3347200292
 30
0.0
 11
165.5916223497
 21
95.3347125786
 31
0.0
  0
LWPOLYLINE
  5
462
330
1F
100
AcDbEntity
  8
0
  6
Continuous
 62
     7
370
    25
100
AcDbPolyline
 90
        3
 70
   128
 43
0.0
 10
164.3461385936
 20
95.326338126
 10
164.3411765069
 20
95.3329318899
 10
164.3362647117
 20
95.339466049
  0
ELLIPSE
  5
463
330
1F
100
AcDbEntity
  8
0
  6
Continuous
 62
     7
370
    25
100
AcDbEllipse
 10
175.4498608604
 20
111.8245721122
 30
0.0
 11
19.69999999999999
 21
0.0
 31
0.0
210
0.0
220
0.0
230
1.0
 40
0.0087268678
 41
2.441001059283788
 42
4.202458694329919
  0
ELLIPSE
  5
464
330
1F
100
AcDbEntity
  8
0
  6
Continuous
 62
     7
370
    25
100
AcDbEllipse
 10
175.4498608604
 20
95.5514249816
 30
0.0
 11
19.69999999999999
 21
0.0
 31
0.0
210
0.0
220
0.0
230
1.0
 40
0.0087268678
 41
2.080726612850268
 42
3.842184247896774
  0
LINE
  5
465
330
1F
100
AcDbEntity
  8
0
  6
Continuous
 62
     7
370
    25
100
AcDbLine
 10
165.494179
 20
111.9249073553
 30
0.0
 11
164.1293788523
 21
111.9249073553
 31
0.0
  0
LINE
  5
466
330
1F
100
AcDbEntity
  8
0
  6
Continuous
 62
     7
370
    25
100
AcDbLine
 10
166.0462483958
 20
111.8463856864
 30
0.0
 11
165.494179
 21
111.9249073553
 31
0.0
  0
LINE
  5
467
330
1F
100
AcDbEntity
  8
0
  6
Continuous
 62
     7
370
    25
100
AcDbLine
 10
164.1370223885
 20
111.9354033332
 30
0.0
 11
164.1293785994
 21
111.9249082452
 31
0.0
  0
LINE
  5
468
330
1F
100
AcDbEntity
  8
0
  6
Continuous
 62
     7
370
    25
100
AcDbLine
 10
164.1293788523
 20
95.4510906475
 30
0.0
 11
165.494179
 21
95.4510906475
 31
0.0
  0
LINE
  5
469
330
1F
100
AcDbEntity
  8
0
  6
Continuous
 62
     7
370
    25
100
AcDbLine
 10
165.494179
 20
95.4510906475
 30
0.0
 11
166.1841307029
 21
95.5477544802
 31
0.0
  0
LINE
  5
46A
330
1F
100
AcDbEntity
  8
0
  6
Continuous
 62
     7
370
    25
100
AcDbLine
 10
164.1293785994
 20
95.4510888486
 30
0.0
 11
164.1370223885
 21
95.4405937607
 31
0.0
  0
LINE
  5
46B
330
1F
100
AcDbEntity
  8
0
  6
Continuous
 62
     7
370
    25
100
AcDbLine
 10
159.8264813617
 20
86.6879971462
 30
0.0
 11
155.7498607979
 21
86.6879971462
 31
0.0
  0
LINE
  5
46C
330
1F
100
AcDbEntity
  8
0
  6
Continuous
 62
     7
370
    25
100
AcDbLine
 10
195.149860923
 20
86.6879971462
 30
0.0
 11
191.0732403592
 21
86.6879971462
 31
0.0
  0
ARC
  5
46D
330
1F
100
AcDbEntity
  8
0
  6
Continuous
 62
     7
370
    25
100
AcDbCircle
 10
175.4498608604
 20
103.6879985469
 30
0.0
 40
12.92138833107544
100
AcDbArc
 50
139.7240316541
 51
140.3970834125
  0
ARC
  5
46E
330
1F
100
AcDbEntity
  8
0
  6
Continuous
 62
     7
370
    25
100
AcDbCircle
 10
175.4498608604
 20
103.6879985469
 30
0.0
 40
12.92138833107604
100
AcDbArc
 50
219.6029165875
 51
220.2759683459
  0
ARC
  5
46F
330
1F
100
AcDbEntity
  8
0
  6
Continuous
 62
     8
370
    18
100
AcDbCircle
 10
175.4498608604
 20
103.6879985469
 30
0.0
 40
11.82205999548644
100
AcDbArc
 50
270.5075890006
 51
90.0
  0
LINE
  5
470
330
1F
100
AcDbEntity
  8
0
  6
Continuous
 62
     8
370
    18
100
AcDbLine
 10
175.4498608605
 20
91.8659383195
 30
0.0
 11
175.5545922967
 21
91.8664039808
 31
0.0
  0
ARC
  5
471
330
1F
100
AcDbEntity
  8
0
  6
Continuous
 62
     8
370
    18
100
AcDbCircle
 10
175.4498608604
 20
103.6879985469
 30
0.0
 40
11.82205999548646
100
AcDbArc
 50
90.5075890006
 51
270.0000000001
  0
LINE
  5
472
330
1F
100
AcDbEntity
  8
0
  6
Continuous
 62
     8
370
    18
100
AcDbLine
 10
175.4498608604
 20
115.5100578206
 30
0.0
 11
175.3451294241
 21
115.509594022
 31
0.0
  0
CIRCLE
  5
473
330
1F
100
AcDbEntity
  8
0
  6
Continuous
 62
     8
370
    18
100
AcDbCircle
 10
175.4498608604
 20
103.6879985469
 30
0.0
 40
12.28303455609253
  0
ARC
  5
474
330
1F
100
AcDbEntity
  8
0
  6
Continuous
 62
     8
370
    18
100
AcDbCircle
 10
181.5624452395
 20
90.0369064448
 30
0.0
 40
2.438777720049507
100
AcDbArc
 50
85.6034519305
 51
111.16994056
  0
ARC
  5
475
330
1F
100
AcDbEntity
  8
0
  6
Continuous
 62
     8
370
    18
100
AcDbCircle
 10
182.2679785119
 20
89.0461100996
 30
0.0
 40
3.46146356021102
100
AcDbArc
 50
75.4674990409
 51
98.6162048626
  0
LWPOLYLINE
  5
476
330
1F
100
AcDbEntity
  8
0
  6
Continuous
 62
     8
370
    18
100
AcDbPolyline
 90
        3
 70
   128
 43
0.0
 10
168.0461202011
 20
92.4644173819
 10
167.8179941334
 20
92.4311877924
 10
167.7631611199
 20
92.3968257147
  0
ARC
  5
477
330
1F
100
AcDbEntity
  8
0
  6
Continuous
 62
     8
370
    18
100
AcDbCircle
 10
168.7267227406
 20
86.645759124
 30
0.0
 40
5.858327725440203
100
AcDbArc
 50
75.2526190739
 51
96.671513309
  0
LWPOLYLINE
  5
478
330
1F
100
AcDbEntity
  8
0
  6
Continuous
 62
     8
370
    18
100
AcDbPolyline
 90
        4
 70
   128
 43
0.0
 10
172.5188997768
 20
91.0576658088
 10
172.2134620611
 20
91.0253265637
 10
172.0725769371
 20
90.9823329883
 10
172.0662369587
 20
90.9691082078
  0
ARC
  5
479
330
1F
100
AcDbEntity
  8
0
  6
Continuous
 62
     8
370
    18
100
AcDbCircle
 10
173.219732084
 20
85.9137201932
 30
0.0
 40
5.191468233419513
100
AcDbArc
 50
75.467828772
 51
97.7584427383
  0
ARC
  5
47A
330
1F
100
AcDbEntity
  8
0
  6
Continuous
 62
     8
370
    18
100
AcDbCircle
 10
177.6494248905
 20
87.3515324085
 30
0.0
 40
3.806422525594929
100
AcDbArc
 50
71.8763376019
 51
109.5237476855
  0
LWPOLYLINE
  5
47B
330
1F
100
AcDbEntity
  8
0
  6
Continuous
 62
     8
370
    18
100
AcDbPolyline
 90
        3
 70
   128
 43
0.0
 10
177.7230814293
 20
90.7794350522
 10
177.4848747261
 20
90.7764846223
 10
177.2549208215
 20
90.7676333326
  0
LWPOLYLINE
  5
47C
330
1F
100
AcDbEntity
  8
0
  6
Continuous
 62
     8
370
    18
100
AcDbPolyline
 90
        9
 70
   128
 43
0.0
 10
177.2549208215
 20
90.7676333326
 10
177.0028161079
 20
90.7495023447
 10
176.8033901424
 20
90.7236190277
 10
176.6948746479
 20
90.6937161225
 10
176.6871145189
 20
90.6647743421
 10
176.7725633651
 20
90.6381794947
 10
176.954502818
 20
90.6155967849
 10
177.210292775
 20
90.601187362
 10
177.4942338195
 20
90.5965642768
  0
LWPOLYLINE
  5
47D
330
1F
100
AcDbEntity
  8
0
  6
Continuous
 62
     8
370
    18
100
AcDbPolyline
 90
        9
 70
   128
 43
0.0
 10
168.6709915482
 20
92.1842643755
 10
168.9591865249
 20
92.1794773775
 10
169.2652940944
 20
92.1645762163
 10
169.5399462439
 20
92.1411888438
 10
169.7434248597
 20
92.113562091
 10
169.8711231545
 20
92.0833909648
 10
169.9098019123
 20
92.0520910757
 10
169.8456398405
 20
92.0247697967
 10
169.6963674583
 20
92.0053088802
  0
LWPOLYLINE
  5
47E
330
1F
100
AcDbEntity
  8
0
  6
Continuous
 62
     8
370
    18
100
AcDbPolyline
 90
        3
 70
   128
 43
0.0
 10
168.2807804279
 20
92.1718554336
 10
168.4584758439
 20
92.1811612087
 10
168.6709915482
 20
92.1842643755
  0
LWPOLYLINE
  5
47F
330
1F
100
AcDbEntity
  8
0
  6
Continuous
 62
     8
370
    18
100
AcDbPolyline
 90
        9
 70
   128
 43
0.0
 10
181.7771216117
 20
92.172797932
 10
181.4939241119
 20
92.1540373701
 10
181.2422840119
 20
92.1268613773
 10
181.0682314642
 20
92.0952299374
 10
180.993202255
 20
92.064503743
 10
181.0131246418
 20
92.0361915368
 10
181.1351446629
 20
92.0120740074
 10
181.3470452287
 20
91.9966736573
 10
181.6081219547
 20
91.9917339223
  0
LWPOLYLINE
  5
480
330
1F
100
AcDbEntity
  8
0
  6
Continuous
 62
     8
370
    18
100
AcDbPolyline
 90
        3
 70
   128
 43
0.0
 10
181.6081219547
 20
91.9917339223
 10
181.8210004092
 20
91.9943528014
 10
182.039329429
 20
92.0022131639
  0
LWPOLYLINE
  5
481
330
1F
100
AcDbEntity
  8
0
  6
Continuous
 62
     8
370
    18
100
AcDbPolyline
 90
        9
 70
   128
 43
0.0
 10
182.039329429
 20
92.0022131639
 10
182.3266079843
 20
92.0205974716
 10
182.5838718757
 20
92.0476766067
 10
182.7634317994
 20
92.0794607836
 10
182.8426268146
 20
92.1104551989
 10
182.8254900135
 20
92.1391101318
 10
182.7044679046
 20
92.1635927397
 10
182.4916602306
 20
92.1792464095
 10
182.2287301727
 20
92.1842643755
  0
LWPOLYLINE
  5
482
330
1F
100
AcDbEntity
  8
0
  6
Continuous
 62
     8
370
    18
100
AcDbPolyline
 90
        3
 70
   128
 43
0.0
 10
182.2287301727
 20
92.1842643755
 10
182.005601582
 20
92.181395902
 10
181.7771216117
 20
92.172797932
  0
LWPOLYLINE
  5
483
330
1F
100
AcDbEntity
  8
0
  6
Continuous
 62
     8
370
    18
100
AcDbPolyline
 90
        9
 70
   128
 43
0.0
 10
173.1766402915
 20
90.7794350522
 10
173.4673109565
 20
90.7749609786
 10
173.7547080227
 20
90.761043294
 10
173.991671061
 20
90.73917584
 10
174.1462561729
 20
90.713266446
 10
174.2171712647
 20
90.6848797339
 10
174.1937684089
 20
90.6553232807
 10
174.0721714411
 20
90.6293207544
 10
173.8781311976
 20
90.6105266648
  0
LWPOLYLINE
  5
484
330
1F
100
AcDbEntity
  8
0
  6
Continuous
 62
     8
370
    18
100
AcDbPolyline
 90
        3
 70
   128
 43
0.0
 10
172.7106616561
 20
90.7659122485
 10
172.9297825329
 20
90.7760524887
 10
173.1766402915
 20
90.7794350522
  0
LINE
  5
485
330
1F
100
AcDbEntity
  8
0
  6
Continuous
 62
     8
370
    18
100
AcDbLine
 10
145.449861531
 20
149.7879989209
 30
0.0
 11
205.4498601899
 21
149.7879989209
 31
0.0
  0
LINE
  5
486
330
1F
100
AcDbEntity
  8
0
  6
Continuous
 62
     8
370
    18
100
AcDbLine
 10
200.3498614028
 20
148.787998757
 30
0.0
 11
150.549860318
 21
148.787998757
 31
0.0
  0
LINE
  5
487
330
1F
100
AcDbEntity
  8
0
  6
Continuous
 62
     8
370
    18
100
AcDbLine
 10
150.549860318
 20
141.0879985368
 30
0.0
 11
200.3498614028
 21
141.0879985368
 31
0.0
  0
LINE
  5
488
330
1F
100
AcDbEntity
  8
0
  6
Continuous
 62
     8
370
    18
100
AcDbLine
 10
190.5097417727
 20
117.6879985022
 30
0.0
 11
190.7390799567
 21
117.6879985022
 31
0.0
  0
ELLIPSE
  5
489
330
1F
100
AcDbEntity
  8
0
  6
Continuous
 62
     8
370
    18
100
AcDbEllipse
 10
175.4498608604
 20
95.2514364047
 30
0.0
 11
20.0
 21
0.0
 31
0.0
210
0.0
220
0.0
230
1.0
 40
0.0085959648
 41
3.752089066832285
 42
3.842184247896761
  0
ELLIPSE
  5
48A
330
1F
100
AcDbEntity
  8
0
  6
Continuous
 62
     8
370
    18
100
AcDbEllipse
 10
175.4498608604
 20
112.1245606892
 30
0.0
 11
20.0
 21
0.0
 31
0.0
210
0.0
220
0.0
230
1.0
 40
0.0085959648
 41
2.441001059283775
 42
2.598960102400596
  0
LINE
  5
48B
330
1F
100
AcDbEntity
  8
0
  6
Continuous
 62
     8
370
    18
100
AcDbLine
 10
164.3619366184
 20
95.1406063276
 30
0.0
 11
160.3899799481
 21
95.1406063276
 31
0.0
  0
LINE
  5
48C
330
1F
100
AcDbEntity
  8
0
  6
Continuous
 62
     8
370
    18
100
AcDbLine
 10
160.3899799481
 20
112.2353916752
 30
0.0
 11
164.3619366184
 21
112.2353916752
 31
0.0
  0
LINE
  5
48D
330
1F
100
AcDbEntity
  8
0
  6
Continuous
 62
     8
370
    18
100
AcDbLine
 10
160.1606417641
 20
112.2353916752
 30
0.0
 11
160.3899799481
 21
112.2353916752
 31
0.0
  0
LINE
  5
48E
330
1F
100
AcDbEntity
  8
0
  6
Continuous
 62
     8
370
    18
100
AcDbLine
 10
160.3899799481
 20
95.1406063276
 30
0.0
 11
160.1606417641
 21
95.1406063276
 31
0.0
  0
ENDSEC
  0
SECTION
  2
OBJECTS
  0
DICTIONARY
  5
C
330
0
100
AcDbDictionary
281
     1
  3
ACAD_GROUP
350
D
  3
ACAD_LAYOUT
350
1A
  3
ACAD_MLINESTYLE
350
17
  3
ACAD_PLOTSETTINGS
350
19
  3
ACAD_PLOTSTYLENAME
350
E
  3
ACAD_SCALELIST
350
47
  0
DICTIONARY
  5
D
102
{ACAD_REACTORS
330
C
102
}
330
C
100
AcDbDictionary
281
     1
  0
DICTIONARY
  5
1A
102
{ACAD_REACTORS
330
C
102
}
330
C
100
AcDbDictionary
281
     1
  3
Layout1
350
1E
  3
Layout2
350
26
  3
Model
350
22
  0
DICTIONARY
  5
17
102
{ACAD_REACTORS
330
C
102
}
330
C
100
AcDbDictionary
281
     1
  3
Standard
350
18
  0
DICTIONARY
  5
19
102
{ACAD_REACTORS
330
C
102
}
330
C
100
AcDbDictionary
281
     1
  0
ACDBDICTIONARYWDFLT
  5
E
102
{ACAD_REACTORS
330
C
102
}
330
C
100
AcDbDictionary
281
     1
  3
Normal
350
F
100
AcDbDictionaryWithDefault
340
F
  0
DICTIONARY
  5
47
102
{ACAD_REACTORS
330
C
102
}
330
C
100
AcDbDictionary
281
     1
  3
A0
350
48
  3
A1
350
49
  3
A2
350
4A
  3
A3
350
4B
  3
A4
350
4C
  3
A5
350
4D
  3
A6
350
4E
  3
A7
350
4F
  3
A8
350
50
  3
A9
350
51
  3
B0
350
52
  3
B1
350
53
  3
B2
350
54
  3
B3
350
55
  3
B4
350
56
  3
B5
350
57
  3
B6
350
58
  3
B7
350
59
  3
B8
350
5A
  3
B9
350
5B
  3
C0
350
5C
  3
C1
350
5D
  3
C2
350
5E
  3
C3
350
5F
  3
C4
350
60
  3
C5
350
61
  3
C6
350
62
  3
C7
350
63
  3
C8
350
64
  3
C9
350
65
  3
D0
350
66
  3
D1
350
67
  3
D2
350
68
  0
LAYOUT
  5
1E
102
{ACAD_REACTORS
330
1A
102
}
330
1A
100
AcDbPlotSettings
  1

  2
none_device
  4

  6

 40
0.0
 41
0.0
 42
0.0
 43
0.0
 44
0.0
 45
0.0
 46
0.0
 47
0.0
 48
0.0
 49
0.0
140
0.0
141
0.0
142
1.0
143
1.0
 70
   688
 72
     1
 73
     0
 74
     5
  7

 75
    16
147
1.0
148
0.0
149
0.0
100
AcDbLayout
  1
Layout1
 70
     1
 71
     1
 10
0.0
 20
0.0
 11
420.0
 21
297.0
 12
0.0
 22
0.0
 32
0.0
 14
1.0000000000E+20
 24
1.0000000000E+20
 34
1.0000000000E+20
 15
-1.0000000000E+20
 25
-1.0000000000E+20
 35
-1.0000000000E+20
146
0.0
 13
0.0
 23
0.0
 33
0.0
 16
1.0
 26
0.0
 36
0.0
 17
0.0
 27
1.0
 37
0.0
 76
     0
330
1B
  0
LAYOUT
  5
26
102
{ACAD_REACTORS
330
1A
102
}
330
1A
100
AcDbPlotSettings
  1

  2
none_device
  4

  6

 40
0.0
 41
0.0
 42
0.0
 43
0.0
 44
0.0
 45
0.0
 46
0.0
 47
0.0
 48
0.0
 49
0.0
140
0.0
141
0.0
142
1.0
143
1.0
 70
   688
 72
     1
 73
     0
 74
     5
  7

 75
    16
147
1.0
148
0.0
149
0.0
100
AcDbLayout
  1
Layout2
 70
     1
 71
     2
 10
0.0
 20
0.0
 11
0.0
 21
0.0
 12
0.0
 22
0.0
 32
0.0
 14
0.0
 24
0.0
 34
0.0
 15
0.0
 25
0.0
 35
0.0
146
0.0
 13
0.0
 23
0.0
 33
0.0
 16
1.0
 26
0.0
 36
0.0
 17
0.0
 27
1.0
 37
0.0
 76
     0
330
23
  0
LAYOUT
  5
22
102
{ACAD_REACTORS
330
1A
102
}
330
1A
100
AcDbPlotSettings
  1

  2
none_device
  4
Letter_(8.50_x_11.00_Inches)
  6

 40
6.35
 41
6.35
 42
6.35000508
 43
6.35000508
 44
215.9
 45
279.4
 46
0.0
 47
0.0
 48
0.0
 49
0.0
140
0.0
141
0.0
142
1.0
143
1.0
 70
  1712
 72
     1
 73
     0
 74
     0
  7

 75
     0
147
1.0
148
0.0
149
0.0
100
AcDbLayout
  1
Model
 70
     1
 71
     0
 10
0.0
 20
0.0
 11
594.0
 21
841.0
 12
0.0
 22
0.0
 32
0.0
 14
0.0
 24
0.0
 34
0.0
 15
594.0
 25
841.0
 35
0.0
146
0.0
 13
0.0
 23
0.0
 33
0.0
 16
1.0
 26
0.0
 36
0.0
 17
0.0
 27
1.0
 37
0.0
 76
     0
330
1F
331
29
  0
MLINESTYLE
  5
18
102
{ACAD_REACTORS
330
17
102
}
330
17
100
AcDbMlineStyle
  2
Standard
 70
     0
  3

 62
   256
 51
90.0
 52
90.0
 71
     2
 49
0.5
 62
   256
  6
BYLAYER
 49
-0.5
 62
   256
  6
BYLAYER
  0
ACDBPLACEHOLDER
  5
F
102
{ACAD_REACTORS
330
E
102
}
330
E
  0
SCALE
  5
48
102
{ACAD_REACTORS
330
47
102
}
330
47
100
AcDbScale
 70
     0
300
1:1
140
1.0
141
1.0
290
     1
  0
SCALE
  5
49
102
{ACAD_REACTORS
330
47
102
}
330
47
100
AcDbScale
 70
     0
300
1:2
140
1.0
141
2.0
290
     0
  0
SCALE
  5
4A
102
{ACAD_REACTORS
330
47
102
}
330
47
100
AcDbScale
 70
     0
300
1:4
140
1.0
141
4.0
290
     0
  0
SCALE
  5
4B
102
{ACAD_REACTORS
330
47
102
}
330
47
100
AcDbScale
 70
     0
300
1:5
140
1.0
141
5.0
290
     0
  0
SCALE
  5
4C
102
{ACAD_REACTORS
330
47
102
}
330
47
100
AcDbScale
 70
     0
300
1:8
140
1.0
141
8.0
290
     0
  0
SCALE
  5
4D
102
{ACAD_REACTORS
330
47
102
}
330
47
100
AcDbScale
 70
     0
300
1:10
140
1.0
141
10.0
290
     0
  0
SCALE
  5
4E
102
{ACAD_REACTORS
330
47
102
}
330
47
100
AcDbScale
 70
     0
300
1:16
140
1.0
141
16.0
290
     0
  0
SCALE
  5
4F
102
{ACAD_REACTORS
330
47
102
}
330
47
100
AcDbScale
 70
     0
300
1:20
140
1.0
141
20.0
290
     0
  0
SCALE
  5
50
102
{ACAD_REACTORS
330
47
102
}
330
47
100
AcDbScale
 70
     0
300
1:30
140
1.0
141
30.0
290
     0
  0
SCALE
  5
51
102
{ACAD_REACTORS
330
47
102
}
330
47
100
AcDbScale
 70
     0
300
1:40
140
1.0
141
40.0
290
     0
  0
SCALE
  5
52
102
{ACAD_REACTORS
330
47
102
}
330
47
100
AcDbScale
 70
     0
300
1:50
140
1.0
141
50.0
290
     0
  0
SCALE
  5
53
102
{ACAD_REACTORS
330
47
102
}
330
47
100
AcDbScale
 70
     0
300
1:100
140
1.0
141
100.0
290
     0
  0
SCALE
  5
54
102
{ACAD_REACTORS
330
47
102
}
330
47
100
AcDbScale
 70
     0
300
2:1
140
2.0
141
1.0
290
     0
  0
SCALE
  5
55
102
{ACAD_REACTORS
330
47
102
}
330
47
100
AcDbScale
 70
     0
300
4:1
140
4.0
141
1.0
290
     0
  0
SCALE
  5
56
102
{ACAD_REACTORS
330
47
102
}
330
47
100
AcDbScale
 70
     0
300
8:1
140
8.0
141
1.0
290
     0
  0
SCALE
  5
57
102
{ACAD_REACTORS
330
47
102
}
330
47
100
AcDbScale
 70
     0
300
10:1
140
10.0
141
1.0
290
     0
  0
SCALE
  5
58
102
{ACAD_REACTORS
330
47
102
}
330
47
100
AcDbScale
 70
     0
300
100:1
140
100.0
141
1.0
290
     0
  0
SCALE
  5
59
102
{ACAD_REACTORS
330
47
102
}
330
47
100
AcDbScale
 70
     0
300
1/128" = 1'-0"
140
0.0078125
141
12.0
290
     0
  0
SCALE
  5
5A
102
{ACAD_REACTORS
330
47
102
}
330
47
100
AcDbScale
 70
     0
300
1/64" = 1'-0"
140
0.015625
141
12.0
290
     0
  0
SCALE
  5
5B
102
{ACAD_REACTORS
330
47
102
}
330
47
100
AcDbScale
 70
     0
300
1/32" = 1'-0"
140
0.03125
141
12.0
290
     0
  0
SCALE
  5
5C
102
{ACAD_REACTORS
330
47
102
}
330
47
100
AcDbScale
 70
     0
300
1/16" = 1'-0"
140
0.0625
141
12.0
290
     0
  0
SCALE
  5
5D
102
{ACAD_REACTORS
330
47
102
}
330
47
100
AcDbScale
 70
     0
300
3/32" = 1'-0"
140
0.09375
141
12.0
290
     0
  0
SCALE
  5
5E
102
{ACAD_REACTORS
330
47
102
}
330
47
100
AcDbScale
 70
     0
300
1/8" = 1'-0"
140
0.125
141
12.0
290
     0
  0
SCALE
  5
5F
102
{ACAD_REACTORS
330
47
102
}
330
47
100
AcDbScale
 70
     0
300
3/16" = 1'-0"
140
0.1875
141
12.0
290
     0
  0
SCALE
  5
60
102
{ACAD_REACTORS
330
47
102
}
330
47
100
AcDbScale
 70
     0
300
1/4" = 1'-0"
140
0.25
141
12.0
290
     0
  0
SCALE
  5
61
102
{ACAD_REACTORS
330
47
102
}
330
47
100
AcDbScale
 70
     0
300
3/8" = 1'-0"
140
0.375
141
12.0
290
     0
  0
SCALE
  5
62
102
{ACAD_REACTORS
330
47
102
}
330
47
100
AcDbScale
 70
     0
300
1/2" = 1'-0"
140
0.5
141
12.0
290
     0
  0
SCALE
  5
63
102
{ACAD_REACTORS
330
47
102
}
330
47
100
AcDbScale
 70
     0
300
3/4" = 1'-0"
140
0.75
141
12.0
290
     0
  0
SCALE
  5
64
102
{ACAD_REACTORS
330
47
102
}
330
47
100
AcDbScale
 70
     0
300
1" = 1'-0"
140
1.0
141
12.0
290
     0
  0
SCALE
  5
65
102
{ACAD_REACTORS
330
47
102
}
330
47
100
AcDbScale
 70
     0
300
1-1/2" = 1'-0"
140
1.5
141
12.0
290
     0
  0
SCALE
  5
66
102
{ACAD_REACTORS
330
47
102
}
330
47
100
AcDbScale
 70
     0
300
3" = 1'-0"
140
3.0
141
12.0
290
     0
  0
SCALE
  5
67
102
{ACAD_REACTORS
330
47
102
}
330
47
100
AcDbScale
 70
     0
300
6" = 1'-0"
140
6.0
141
12.0
290
     0
  0
SCALE
  5
68
102
{ACAD_REACTORS
330
47
102
}
330
47
100
AcDbScale
 70
     0
300
1'-0" = 1'-0"
140
12.0
141
12.0
290
     0
  0
ENDSEC
  0
EOF
