  0
SECTION
  2
HEADER
  9
$ACADVER
  1
AC1024
  9
$ACADMAINTVER
 70
     6
  9
$DWGCODEPAGE
  3
ANSI_1252
  9
$INSBASE
 10
0.0
 20
0.0
 30
0.0
  9
$EXTMIN
 10
0.0
 20
0.0
 30
0.0
  9
$EXTMAX
 10
594.0
 20
841.0
 30
0.0
  9
$LIMMIN
 10
0.0
 20
0.0
  9
$LIMMAX
 10
594.0
 20
841.0
  9
$ORTHOMODE
 70
     0
  9
$REGENMODE
 70
     1
  9
$FILLMODE
 70
     1
  9
$QTEXTMODE
 70
     0
  9
$MIRRTEXT
 70
     1
  9
$LTSCALE
 40
1.0
  9
$ATTMODE
 70
     1
  9
$TEXTSIZE
 40
10.0
  9
$TRACEWID
 40
1.0
  9
$TEXTSTYLE
  7
Standard
  9
$CLAYER
  8
0
  9
$CELTYPE
  6
ByLayer
  9
$CECOLOR
 62
   256
  9
$CELTSCALE
 40
1.0
  9
$DISPSILH
 70
     0
  9
$DIMSCALE
 40
1.0
  9
$DIMASZ
 40
2.5
  9
$DIMEXO
 40
0.0
  9
$DIMDLI
 40
3.75
  9
$DIMRND
 40
0.0
  9
$DIMDLE
 40
0.0
  9
$DIMEXE
 40
1.0
  9
$DIMTP
 40
0.0
  9
$DIMTM
 40
0.0
  9
$DIMTXT
 40
3.5
  9
$DIMCEN
 40
2.5
  9
$DIMTSZ
 40
0.0
  9
$DIMTOL
 70
     0
  9
$DIMLIM
 70
     0
  9
$DIMTIH
 70
     1
  9
$DIMTOH
 70
     1
  9
$DIMSE1
 70
     0
  9
$DIMSE2
 70
     0
  9
$DIMTAD
 70
     1
  9
$DIMZIN
 70
     0
  9
$DIMBLK
  1

  9
$DIMASO
 70
     1
  9
$DIMSHO
 70
     1
  9
$DIMPOST
  1

  9
$DIMAPOST
  1

  9
$DIMALT
 70
     0
  9
$DIMALTD
 70
     3
  9
$DIMALTF
 40
0.0393700787
  9
$DIMLFAC
 40
1.0
  9
$DIMTOFL
 70
     1
  9
$DIMTVP
 40
0.0
  9
$DIMTIX
 70
     0
  9
$DIMSOXD
 70
     0
  9
$DIMSAH
 70
     0
  9
$DIMBLK1
  1

  9
$DIMBLK2
  1

  9
$DIMSTYLE
  2
ISO-25
  9
$DIMCLRD
 70
     0
  9
$DIMCLRE
 70
     0
  9
$DIMCLRT
 70
     0
  9
$DIMTFAC
 40
1.0
  9
$DIMGAP
 40
1.5
  9
$DIMJUST
 70
     0
  9
$DIMSD1
 70
     0
  9
$DIMSD2
 70
     0
  9
$DIMTOLJ
 70
     0
  9
$DIMTZIN
 70
     0
  9
$DIMALTZ
 70
     0
  9
$DIMALTTZ
 70
     0
  9
$DIMUPT
 70
     0
  9
$DIMDEC
 70
     2
  9
$DIMTDEC
 70
     2
  9
$DIMALTU
 70
     2
  9
$DIMALTTD
 70
     3
  9
$DIMTXSTY
  7
Standard
  9
$DIMAUNIT
 70
     0
  9
$DIMADEC
 70
     2
  9
$DIMALTRND
 40
0.0
  9
$DIMAZIN
 70
     0
  9
$DIMDSEP
 70
    44
  9
$DIMATFIT
 70
     3
  9
$DIMFRAC
 70
     0
  9
$DIMLDRBLK
  1

  9
$DIMLUNIT
 70
     2
  9
$DIMLWD
 70
    -2
  9
$DIMLWE
 70
    -2
  9
$DIMTMOVE
 70
     0
  9
$DIMFXL
 40
1.0
  9
$DIMFXLON
 70
     0
  9
$DIMJOGANG
 40
0.7853981634
  9
$DIMTFILL
 70
     0
  9
$DIMTFILLCLR
 70
     0
  9
$DIMARCSYM
 70
     0
  9
$DIMLTYPE
  6

  9
$DIMLTEX1
  6

  9
$DIMLTEX2
  6

  9
$DIMTXTDIRECTION
 70
     0
  9
$LUNITS
 70
     2
  9
$LUPREC
 70
     2
  9
$SKETCHINC
 40
1.0
  9
$FILLETRAD
 40
10.0
  9
$AUNITS
 70
     0
  9
$AUPREC
 70
     2
  9
$MENU
  1
.
  9
$ELEVATION
 40
0.0
  9
$PELEVATION
 40
0.0
  9
$THICKNESS
 40
0.0
  9
$LIMCHECK
 70
     0
  9
$CHAMFERA
 40
0.0
  9
$CHAMFERB
 40
0.0
  9
$CHAMFERC
 40
0.0
  9
$CHAMFERD
 40
0.0
  9
$SKPOLY
 70
     0
  9
$TDCREATE
 40
2458136.656746134
  9
$TDUCREATE
 40
2458136.615079468
  9
$TDUPDATE
 40
2458136.656747396
  9
$TDUUPDATE
 40
2458136.615080729
  9
$TDINDWG
 40
0.0000000116
  9
$TDUSRTIMER
 40
0.0000000116
  9
$USRTIMER
 70
     1
  9
$ANGBASE
 50
0.0
  9
$ANGDIR
 70
     0
  9
$PDMODE
 70
     0
  9
$PDSIZE
 40
-1.0
  9
$PLINEWID
 40
0.0
  9
$SPLFRAME
 70
     0
  9
$SPLINETYPE
 70
     6
  9
$SPLINESEGS
 70
     8
  9
$HANDSEED
  5
201
  9
$SURFTAB1
 70
     6
  9
$SURFTAB2
 70
     6
  9
$SURFTYPE
 70
     6
  9
$SURFU
 70
     6
  9
$SURFV
 70
     6
  9
$UCSBASE
  2

  9
$UCSNAME
  2

  9
$UCSORG
 10
0.0
 20
0.0
 30
0.0
  9
$UCSXDIR
 10
1.0
 20
0.0
 30
0.0
  9
$UCSYDIR
 10
0.0
 20
1.0
 30
0.0
  9
$UCSORTHOREF
  2

  9
$UCSORTHOVIEW
 70
     0
  9
$UCSORGTOP
 10
0.0
 20
0.0
 30
0.0
  9
$UCSORGBOTTOM
 10
0.0
 20
0.0
 30
0.0
  9
$UCSORGLEFT
 10
0.0
 20
0.0
 30
0.0
  9
$UCSORGRIGHT
 10
0.0
 20
0.0
 30
0.0
  9
$UCSORGFRONT
 10
0.0
 20
0.0
 30
0.0
  9
$UCSORGBACK
 10
0.0
 20
0.0
 30
0.0
  9
$PUCSBASE
  2

  9
$PUCSNAME
  2

  9
$PUCSORG
 10
0.0
 20
0.0
 30
0.0
  9
$PUCSXDIR
 10
1.0
 20
0.0
 30
0.0
  9
$PUCSYDIR
 10
0.0
 20
1.0
 30
0.0
  9
$PUCSORTHOREF
  2

  9
$PUCSORTHOVIEW
 70
     0
  9
$PUCSORGTOP
 10
0.0
 20
0.0
 30
0.0
  9
$PUCSORGBOTTOM
 10
0.0
 20
0.0
 30
0.0
  9
$PUCSORGLEFT
 10
0.0
 20
0.0
 30
0.0
  9
$PUCSORGRIGHT
 10
0.0
 20
0.0
 30
0.0
  9
$PUCSORGFRONT
 10
0.0
 20
0.0
 30
0.0
  9
$PUCSORGBACK
 10
0.0
 20
0.0
 30
0.0
  9
$USERI1
 70
     0
  9
$USERI2
 70
     0
  9
$USERI3
 70
     0
  9
$USERI4
 70
     0
  9
$USERI5
 70
     0
  9
$USERR1
 40
0.0
  9
$USERR2
 40
0.0
  9
$USERR3
 40
0.0
  9
$USERR4
 40
0.0
  9
$USERR5
 40
0.0
  9
$WORLDVIEW
 70
     1
  9
$SHADEDGE
 70
     3
  9
$SHADEDIF
 70
    70
  9
$TILEMODE
 70
     1
  9
$MAXACTVP
 70
    64
  9
$PINSBASE
 10
0.0
 20
0.0
 30
0.0
  9
$PLIMCHECK
 70
     0
  9
$PEXTMIN
 10
1.0000000000E+20
 20
1.0000000000E+20
 30
1.0000000000E+20
  9
$PEXTMAX
 10
-1.0000000000E+20
 20
-1.0000000000E+20
 30
-1.0000000000E+20
  9
$PLIMMIN
 10
0.0
 20
0.0
  9
$PLIMMAX
 10
420.0
 20
297.0
  9
$UNITMODE
 70
     0
  9
$VISRETAIN
 70
     1
  9
$PLINEGEN
 70
     0
  9
$PSLTSCALE
 70
     1
  9
$TREEDEPTH
 70
  3020
  9
$CMLSTYLE
  2
Standard
  9
$CMLJUST
 70
     0
  9
$CMLSCALE
 40
20.0
  9
$PROXYGRAPHICS
 70
     1
  9
$MEASUREMENT
 70
     1
  9
$CELWEIGHT
370
    -1
  9
$ENDCAPS
280
     0
  9
$JOINSTYLE
280
     0
  9
$LWDISPLAY
290
     1
  9
$INSUNITS
 70
     4
  9
$HYPERLINKBASE
  1

  9
$STYLESHEET
  1

  9
$XEDIT
290
     1
  9
$CEPSNTYPE
380
     0
  9
$PSTYLEMODE
290
     1
  9
$FINGERPRINTGUID
  2
{735B8BE2-F421-4303-9810-19E3D8FCD2AD}
  9
$VERSIONGUID
  2
{FAEB1C32-E019-11D5-929B-00C0DF256EC4}
  9
$EXTNAMES
290
     1
  9
$PSVPSCALE
 40
0.0
  9
$OLESTARTUP
290
     0
  9
$SORTENTS
280
   127
  9
$INDEXCTL
280
     0
  9
$HIDETEXT
280
     1
  9
$XCLIPFRAME
280
     2
  9
$HALOGAP
280
     0
  9
$OBSCOLOR
 70
   257
  9
$OBSLTYPE
280
     0
  9
$INTERSECTIONDISPLAY
280
     0
  9
$INTERSECTIONCOLOR
 70
   257
  9
$DIMASSOC
280
     2
  9
$PROJECTNAME
  1

  9
$CAMERADISPLAY
290
     0
  9
$LENSLENGTH
 40
50.0
  9
$CAMERAHEIGHT
 40
0.0
  9
$STEPSPERSEC
 40
2.0
  9
$STEPSIZE
 40
6.0
  9
$3DDWFPREC
 40
2.0
  9
$PSOLWIDTH
 40
5.0
  9
$PSOLHEIGHT
 40
80.0
  9
$LOFTANG1
 40
1.5707963268
  9
$LOFTANG2
 40
1.5707963268
  9
$LOFTMAG1
 40
0.0
  9
$LOFTMAG2
 40
0.0
  9
$LOFTPARAM
 70
     7
  9
$LOFTNORMALS
280
     1
  9
$LATITUDE
 40
37.795
  9
$LONGITUDE
 40
-122.394
  9
$NORTHDIRECTION
 40
0.0
  9
$TIMEZONE
 70
 -8000
  9
$LIGHTGLYPHDISPLAY
280
     1
  9
$TILEMODELIGHTSYNCH
280
     1
  9
$CMATERIAL
347
44
  9
$SOLIDHIST
280
     0
  9
$SHOWHIST
280
     1
  9
$DWFFRAME
280
     2
  9
$DGNFRAME
280
     2
  9
$REALWORLDSCALE
290
     1
  9
$INTERFERECOLOR
 62
   256
  9
$CSHADOW
280
     0
  9
$SHADOWPLANELOCATION
 40
0.0
  0
ENDSEC
  0
SECTION
  2
CLASSES
  0
CLASS
  1
ACDBDICTIONARYWDFLT
  2
AcDbDictionaryWithDefault
  3
ObjectDBX Classes
 90
        0
 91
        4
280
     0
281
     0
  0
CLASS
  1
VISUALSTYLE
  2
AcDbVisualStyle
  3
ObjectDBX Classes
 90
     4095
 91
        4
280
     0
281
     0
  0
CLASS
  1
MATERIAL
  2
AcDbMaterial
  3
ObjectDBX Classes
 90
     1153
 91
        4
280
     0
281
     0
  0
CLASS
  1
SCALE
  2
AcDbScale
  3
ObjectDBX Classes
 90
     1153
 91
        4
280
     0
281
     0
  0
CLASS
  1
TABLESTYLE
  2
AcDbTableStyle
  3
ObjectDBX Classes
 90
     4095
 91
        4
280
     0
281
     0
  0
CLASS
  1
MLEADERSTYLE
  2
AcDbMLeaderStyle
  3
ACDB_MLEADERSTYLE_CLASS
 90
     4095
 91
        4
280
     0
281
     0
  0
CLASS
  1
SUN
  2
AcDbSun
  3
SCENEOE
 90
     1153
 91
        4
280
     0
281
     0
  0
CLASS
  1
DICTIONARYVAR
  2
AcDbDictionaryVar
  3
ObjectDBX Classes
 90
        0
 91
        4
280
     0
281
     0
  0
CLASS
  1
CELLSTYLEMAP
  2
AcDbCellStyleMap
  3
ObjectDBX Classes
 90
     1152
 91
        4
280
     0
281
     0
  0
ENDSEC
  0
SECTION
  2
TABLES
  0
TABLE
  2
VPORT
  5
8
330
0
100
AcDbSymbolTable
 70
     1
  0
VPORT
  5
29
330
8
100
AcDbSymbolTableRecord
100
AcDbViewportTableRecord
  2
*Active
 70
     0
 10
0.0
 20
0.0
 11
1.0
 21
1.0
 12
297.0
 22
420.5
 13
0.0
 23
0.0
 14
10.0
 24
10.0
 15
10.0
 25
10.0
 16
0.0
 26
0.0
 36
1.0
 17
0.0
 27
0.0
 37
0.0
 40
841.0
 41
0.7063020214
 42
50.0
 43
0.0
 44
0.0
 50
0.0
 51
0.0
 71
     0
 72
  2000
 73
     1
 74
     3
 75
     0
 76
     0
 77
     0
 78
     0
281
     0
 65
     1
110
0.0
120
0.0
130
0.0
111
1.0
121
0.0
131
0.0
112
0.0
122
1.0
132
0.0
 79
     0
146
0.0
348
2F
 60
     3
 61
     5
292
     1
282
     1
141
0.0
142
0.0
 63
   250
361
6D
  0
ENDTAB
  0
TABLE
  2
LTYPE
  5
5
330
0
100
AcDbSymbolTable
 70
     6
  0
LTYPE
  5
14
330
5
100
AcDbSymbolTableRecord
100
AcDbLinetypeTableRecord
  2
ByBlock
 70
     0
  3

 72
    65
 73
     0
 40
0.0
  0
LTYPE
  5
15
330
5
100
AcDbSymbolTableRecord
100
AcDbLinetypeTableRecord
  2
ByLayer
 70
     0
  3

 72
    65
 73
     0
 40
0.0
  0
LTYPE
  5
16
330
5
100
AcDbSymbolTableRecord
100
AcDbLinetypeTableRecord
  2
Continuous
 70
     0
  3
Solid line
 72
    65
 73
     0
 40
0.0
  0
LTYPE
  5
6E
330
5
100
AcDbSymbolTableRecord
100
AcDbLinetypeTableRecord
  2
HIDDEN
 70
     0
  3
Hidden __ __ __ __ __ __ __ __ __ __ __ __ __ __
 72
    65
 73
     2
 40
1.905
 49
1.27
 74
     0
 49
-0.635
 74
     0
  0
LTYPE
  5
6F
330
5
100
AcDbSymbolTableRecord
100
AcDbLinetypeTableRecord
  2
PHANTOM
 70
     0
  3
Phantom ______  __  __  ______  __  __  ______
 72
    65
 73
     6
 40
12.7
 49
6.35
 74
     0
 49
-1.27
 74
     0
 49
1.27
 74
     0
 49
-1.27
 74
     0
 49
1.27
 74
     0
 49
-1.27
 74
     0
  0
LTYPE
  5
70
330
5
100
AcDbSymbolTableRecord
100
AcDbLinetypeTableRecord
  2
CENTER
 70
     0
  3
Center ____ _ ____ _ ____ _ ____ _ ____ _ ____
 72
    65
 73
     4
 40
10.16
 49
6.35
 74
     0
 49
-1.27
 74
     0
 49
1.27
 74
     0
 49
-1.27
 74
     0
  0
LTYPE
  5
71
330
5
100
AcDbSymbolTableRecord
100
AcDbLinetypeTableRecord
  2
CENTERX2
 70
     0
  3
Center (2x) ________  __  ________  __  _____
 72
    65
 73
     4
 40
20.32
 49
12.7
 74
     0
 49
-2.54
 74
     0
 49
2.54
 74
     0
 49
-2.54
 74
     0
  0
LTYPE
  5
72
330
5
100
AcDbSymbolTableRecord
100
AcDbLinetypeTableRecord
  2
DOT2
 70
     0
  3
Dot (.5x) ........................................
 72
    65
 73
     2
 40
0.635
 49
0.0
 74
     0
 49
-0.635
 74
     0
  0
ENDTAB
  0
TABLE
  2
LAYER
  5
2
330
0
100
AcDbSymbolTable
 70
     1
  0
LAYER
  5
10
330
2
100
AcDbSymbolTableRecord
100
AcDbLayerTableRecord
  2
0
 70
     0
 62
     7
  6
Continuous
370
    -3
390
F
347
46
  0
ENDTAB
  0
TABLE
  2
STYLE
  5
3
330
0
100
AcDbSymbolTable
 70
     3
  0
STYLE
  5
11
330
3
100
AcDbSymbolTableRecord
100
AcDbTextStyleTableRecord
  2
Standard
 70
     0
 40
0.0
 41
1.0
 50
0.0
 71
     0
 42
10.0
  3
txt
  4

  0
STYLE
  5
76
330
3
100
AcDbSymbolTableRecord
100
AcDbTextStyleTableRecord
  2
SLDTEXTSTYLE0
 70
     0
 40
0.0
 41
0.96
 50
0.0
 71
     0
 42
10.0
  3
ISOCP3
  4

  0
STYLE
  5
8D
330
3
100
AcDbSymbolTableRecord
100
AcDbTextStyleTableRecord
  2
SLDTEXTSTYLE1
 70
     0
 40
0.0
 41
0.605
 50
0.0
 71
     0
 42
10.0
  3
TXT
  4

  0
ENDTAB
  0
TABLE
  2
VIEW
  5
6
330
0
100
AcDbSymbolTable
 70
     0
  0
ENDTAB
  0
TABLE
  2
UCS
  5
7
330
0
100
AcDbSymbolTable
 70
     0
  0
ENDTAB
  0
TABLE
  2
APPID
  5
9
330
0
100
AcDbSymbolTable
 70
     1
  0
APPID
  5
12
330
9
100
AcDbSymbolTableRecord
100
AcDbRegAppTableRecord
  2
ACAD
 70
     0
  0
ENDTAB
  0
TABLE
  2
DIMSTYLE
  5
A
330
0
100
AcDbSymbolTable
 70
     2
100
AcDbDimStyleTable
  0
DIMSTYLE
105
27
330
A
100
AcDbSymbolTableRecord
100
AcDbDimStyleTableRecord
  2
ISO-25
 70
     0
 41
2.5
 42
0.625
 43
3.75
 44
1.25
 73
     0
 74
     0
 77
     1
 78
     8
140
2.5
141
2.5
143
0.0393700787
147
0.625
171
     3
172
     1
178
     0
271
     2
272
     2
274
     3
278
    44
283
     0
284
     8
340
11
  0
DIMSTYLE
105
77
102
{ACAD_REACTORS
330
75
330
82
102
}
330
A
100
AcDbSymbolTableRecord
100
AcDbDimStyleTableRecord
  2
SLDDIMSTYLE0
 70
     0
 41
2.5
 44
0.0
 45
0.000000001
 73
     0
 74
     0
 77
     1
 78
    12
 79
     3
140
6.0
147
1.5
173
     1
178
     0
271
     2
272
     2
276
     2
284
    12
340
76
  0
ENDTAB
  0
TABLE
  2
BLOCK_RECORD
  5
1
330
0
100
AcDbSymbolTable
 70
     3
  0
BLOCK_RECORD
  5
1F
330
1
100
AcDbSymbolTableRecord
100
AcDbBlockTableRecord
  2
*Model_Space
340
22
 70
     0
280
     1
281
     0
  0
BLOCK_RECORD
  5
1B
330
1
100
AcDbSymbolTableRecord
100
AcDbBlockTableRecord
  2
*Paper_Space
340
1E
 70
     0
280
     1
281
     0
  0
BLOCK_RECORD
  5
23
330
1
100
AcDbSymbolTableRecord
100
AcDbBlockTableRecord
  2
*Paper_Space0
340
26
 70
     0
280
     1
281
     0
  0
BLOCK_RECORD
  5
78
330
1
100
AcDbSymbolTableRecord
100
AcDbBlockTableRecord
  2
_D
340
0
 70
     0
280
     1
281
     0
  0
BLOCK_RECORD
  5
83
330
1
100
AcDbSymbolTableRecord
100
AcDbBlockTableRecord
  2
_D_1
340
0
 70
     0
280
     1
281
     0
  0
ENDTAB
  0
ENDSEC
  0
SECTION
  2
BLOCKS
  0
BLOCK
  5
20
330
1F
100
AcDbEntity
  8
0
100
AcDbBlockBegin
  2
*Model_Space
 70
     0
 10
0.0
 20
0.0
 30
0.0
  3
*Model_Space
  1

  0
ENDBLK
  5
21
330
1F
100
AcDbEntity
  8
0
100
AcDbBlockEnd
  0
BLOCK
  5
1C
330
1B
100
AcDbEntity
 67
     1
  8
0
100
AcDbBlockBegin
  2
*Paper_Space
 70
     0
 10
0.0
 20
0.0
 30
0.0
  3
*Paper_Space
  1

  0
ENDBLK
  5
1D
330
1B
100
AcDbEntity
 67
     1
  8
0
100
AcDbBlockEnd
  0
BLOCK
  5
24
330
23
100
AcDbEntity
  8
0
100
AcDbBlockBegin
  2
*Paper_Space0
 70
     0
 10
0.0
 20
0.0
 30
0.0
  3
*Paper_Space0
  1

  0
ENDBLK
  5
25
330
23
100
AcDbEntity
  8
0
100
AcDbBlockEnd
  0
BLOCK
  5
79
330
78
100
AcDbEntity
  8
0
100
AcDbBlockBegin
  2
_D
 70
     0
 10
0.0
 20
0.0
 30
0.0
  3
_D
  1

  0
SOLID
  5
7B
330
78
100
AcDbEntity
  8
0
  6
Continuous
 62
     7
370
    18
100
AcDbTrace
 10
42.7614395004
 20
152.0299240879
 30
0.0
 11
42.4614395004
 21
149.5299240879
 31
0.0
 12
43.0614395004
 22
149.5299240879
 32
0.0
 13
43.0614395004
 23
149.5299240879
 33
0.0
  0
SOLID
  5
7C
330
78
100
AcDbEntity
  8
0
  6
Continuous
 62
     7
370
    18
100
AcDbTrace
 10
42.7614395004
 20
52.0299240879
 30
0.0
 11
43.0614395004
 21
54.5299240879
 31
0.0
 12
42.4614395004
 22
54.5299240879
 32
0.0
 13
42.4614395004
 23
54.5299240879
 33
0.0
  0
LINE
  5
7D
330
78
100
AcDbEntity
  8
0
  6
Continuous
 62
     7
370
    18
100
AcDbLine
 10
56.6850079902
 20
152.0299240879
 30
0.0
 11
41.7614395004
 21
152.0299240879
 31
0.0
  0
LINE
  5
7E
330
78
100
AcDbEntity
  8
0
  6
Continuous
 62
     7
370
    18
100
AcDbLine
 10
56.6850079902
 20
52.0299240879
 30
0.0
 11
41.7614395004
 21
52.0299240879
 31
0.0
  0
LINE
  5
7F
330
78
100
AcDbEntity
  8
0
  6
Continuous
 62
     7
370
    18
100
AcDbLine
 10
42.7614395004
 20
152.0299240879
 30
0.0
 11
42.7614395004
 21
52.0299240879
 31
0.0
  0
MTEXT
  5
80
330
78
100
AcDbEntity
  8
0
  6
Continuous
 62
     7
370
    18
100
AcDbMText
 10
35.0270332946
 20
94.3680541463
 30
0.0
 40
6.0
 41
0.0
 46
0.0
 71
     1
 72
     1
  1
100
  7
SLDTEXTSTYLE0
 11
-7.044195017643634E-15
 21
1.0
 31
0.0
 73
     1
 44
1.0
  0
MTEXT
  5
81
330
78
100
AcDbEntity
  8
0
  6
Continuous
 62
     7
370
    18
100
AcDbMText
 10
35.0270332946
 20
105.7430548466
 30
0.0
 40
6.0
 41
0.0
 46
0.0
 71
     1
 72
     1
  1
mm
  7
SLDTEXTSTYLE0
 11
-7.044195017643634E-15
 21
1.0
 31
0.0
 73
     1
 44
1.0
  0
ENDBLK
  5
7A
330
78
100
AcDbEntity
  8
0
100
AcDbBlockEnd
  0
BLOCK
  5
84
330
83
100
AcDbEntity
  8
0
100
AcDbBlockBegin
  2
_D_1
 70
     0
 10
0.0
 20
0.0
 30
0.0
  3
_D_1
  1

  0
SOLID
  5
86
330
83
100
AcDbEntity
  8
0
  6
Continuous
 62
     7
370
    18
100
AcDbTrace
 10
56.6850079902
 20
38.4602342313
 30
0.0
 11
59.1850079902
 21
38.1602342313
 31
0.0
 12
59.1850079902
 22
38.7602342313
 32
0.0
 13
59.1850079902
 23
38.7602342313
 33
0.0
  0
SOLID
  5
87
330
83
100
AcDbEntity
  8
0
  6
Continuous
 62
     7
370
    18
100
AcDbTrace
 10
156.6850079902
 20
38.4602342313
 30
0.0
 11
154.1850079902
 21
38.7602342313
 31
0.0
 12
154.1850079902
 22
38.1602342313
 32
0.0
 13
154.1850079902
 23
38.1602342313
 33
0.0
  0
LINE
  5
88
330
83
100
AcDbEntity
  8
0
  6
Continuous
 62
     7
370
    18
100
AcDbLine
 10
56.6850079902
 20
52.0299240879
 30
0.0
 11
56.6850079902
 21
37.4602342313
 31
0.0
  0
LINE
  5
89
330
83
100
AcDbEntity
  8
0
  6
Continuous
 62
     7
370
    18
100
AcDbLine
 10
156.6850079902
 20
52.0299240879
 30
0.0
 11
156.6850079902
 21
37.4602342313
 31
0.0
  0
LINE
  5
8A
330
83
100
AcDbEntity
  8
0
  6
Continuous
 62
     7
370
    18
100
AcDbLine
 10
56.6850079902
 20
38.4602342313
 30
0.0
 11
156.6850079902
 21
38.4602342313
 31
0.0
  0
MTEXT
  5
8B
330
83
100
AcDbEntity
  8
0
  6
Continuous
 62
     7
370
    18
100
AcDbMText
 10
93.9626484861
 20
46.1946404371
 30
0.0
 40
6.0
 41
0.0
 46
0.0
 71
     1
 72
     1
  1
100
  7
SLDTEXTSTYLE0
 73
     1
 44
1.0
  0
MTEXT
  5
8C
330
83
100
AcDbEntity
  8
0
  6
Continuous
 62
     7
370
    18
100
AcDbMText
 10
105.3376491864
 20
46.1946404371
 30
0.0
 40
6.0
 41
0.0
 46
0.0
 71
     1
 72
     1
  1
mm
  7
SLDTEXTSTYLE0
 73
     1
 44
1.0
  0
ENDBLK
  5
85
330
83
100
AcDbEntity
  8
0
100
AcDbBlockEnd
  0
ENDSEC
  0
SECTION
  2
ENTITIES
  0
LINE
  5
73
330
1F
100
AcDbEntity
  8
0
  6
Continuous
 62
     7
370
    18
100
AcDbLine
 10
56.6850079902
 20
152.0299240879
 30
0.0
 11
56.6850079902
 21
52.0299240879
 31
0.0
  0
LINE
  5
74
330
1F
100
AcDbEntity
  8
0
  6
Continuous
 62
     7
370
    18
100
AcDbLine
 10
56.6850079902
 20
52.0299240879
 30
0.0
 11
156.6850079902
 21
52.0299240879
 31
0.0
  0
DIMENSION
  5
75
330
1F
100
AcDbEntity
  8
0
  6
Continuous
 62
     7
370
    18
100
AcDbDimension
280
     0
  2
_D
 10
42.7614395004
 20
52.0299240879
 30
0.0
 11
42.7614395004
 21
105.4472211621
 31
0.0
 70
   160
  1
<>mm
 71
     2
 42
-1.0
 73
     0
 74
     0
 75
     0
  3
SLDDIMSTYLE0
100
AcDbAlignedDimension
 13
56.6850079902
 23
152.0299240879
 33
0.0
 14
56.6850079902
 24
52.0299240879
 34
0.0
 50
90.0
100
AcDbRotatedDimension
  0
DIMENSION
  5
82
330
1F
100
AcDbEntity
  8
0
  6
Continuous
 62
     7
370
    18
100
AcDbDimension
280
     0
  2
_D_1
 10
156.6850079902
 20
38.4602342313
 30
0.0
 11
105.0418155019
 21
38.4602342313
 31
0.0
 70
   160
  1
<>mm
 71
     2
 42
-1.0
 73
     0
 74
     0
 75
     0
  3
SLDDIMSTYLE0
100
AcDbAlignedDimension
 13
56.6850079902
 23
52.0299240879
 33
0.0
 14
156.6850079902
 24
52.0299240879
 34
0.0
100
AcDbRotatedDimension
  0
MTEXT
  5
8E
330
1F
100
AcDbEntity
  8
0
  6
Continuous
 62
     7
370
     0
100
AcDbMText
 10
412.8252631579
 20
48.4342449499
 30
0.0
 40
10.0
 41
0.0
 46
0.0
 71
     1
 72
     1
  1
KLUDI GmbH & Co KG
  7
SLDTEXTSTYLE1
 73
     1
 44
1.0
  0
MTEXT
  5
8F
330
1F
100
AcDbEntity
  8
0
  6
Continuous
 62
     7
370
     0
100
AcDbMText
 10
210.0873490389
 20
48.4342449499
 30
0.0
 40
10.0
 41
0.0
 46
0.0
 71
     1
 72
     1
  1
-x-
  7
SLDTEXTSTYLE1
 73
     1
 44
1.0
  0
SPLINE
  5
90
330
1F
100
AcDbEntity
  8
0
  6
Continuous
 62
     7
370
    25
100
AcDbSpline
210
0.0
220
0.0
230
1.0
 70
     8
 71
     3
 72
    19
 73
    15
 74
     0
 42
0.000000001
 43
0.00000001
 40
0.0
 40
0.0
 40
0.0
 40
0.0
 40
0.1478191778644465
 40
0.273707059478647
 40
0.3436137124818609
 40
0.4002565335031123
 40
0.4485158028135426
 40
0.4929424400023602
 40
0.5457799779053115
 40
0.60649419346188
 40
0.6740787520559246
 40
0.7740341238713602
 40
0.8826632080518836
 40
1.0
 40
1.0
 40
1.0
 40
1.0
 10
179.8922357387202
 20
228.0310047999451
 30
0.0
 10
179.9098318835616
 20
226.9781185486981
 30
0.0
 10
179.9424135088439
 20
225.028558255117
 30
0.0
 10
180.3326554399326
 20
222.5974061306833
 30
0.0
 10
180.9274938881084
 20
220.8948941866796
 30
0.0
 10
181.4948091511665
 20
219.7830330602733
 30
0.0
 10
182.0934387640392
 20
218.9012770567126
 30
0.0
 10
182.7728373924196
 20
218.1156157702563
 30
0.0
 10
183.6208715540924
 20
217.3704680353449
 30
0.0
 10
184.7064185932485
 20
216.6651200246151
 30
0.0
 10
186.1920908939851
 20
215.9907391523034
 30
0.0
 10
188.1081918485722
 20
215.4990224577344
 30
0.0
 10
190.4243436663453
 20
215.2760221010621
 30
0.0
 10
192.0339029696476
 20
215.2743758007908
 30
0.0
 10
192.8696952066676
 20
215.2735209301541
 30
0.0
  0
SPLINE
  5
91
330
1F
100
AcDbEntity
  8
0
  6
Continuous
 62
     7
370
    25
100
AcDbSpline
210
0.0
220
0.0
230
1.0
 70
     8
 71
     3
 72
    19
 73
    15
 74
     0
 42
0.000000001
 43
0.00000001
 40
0.0
 40
0.0
 40
0.0
 40
0.0
 40
0.1483682047769706
 40
0.2741039794462322
 40
0.3440956726174064
 40
0.4009016570782868
 40
0.449274568795494
 40
0.4937153524937807
 40
0.5464491078090251
 40
0.6069892487442596
 40
0.6744970924258445
 40
0.7746320414260397
 40
0.8831029017673205
 40
1.0
 40
1.0
 40
1.0
 40
1.0
 10
210.1031619361894
 20
215.2735209301541
 30
0.0
 10
211.1601680181111
 20
215.2755626462479
 30
0.0
 10
213.1129420224142
 20
215.2793346303267
 30
0.0
 10
215.5536336776531
 20
215.6297919989891
 30
0.0
 10
217.2665724579761
 20
216.1965461292413
 30
0.0
 10
218.3901148890225
 20
216.7464479665032
 30
0.0
 10
219.2832760175775
 20
217.3317878119315
 30
0.0
 10
220.080374221725
 20
217.997993195829
 30
0.0
 10
220.8385116634437
 20
218.8318975655353
 30
0.0
 10
221.5603819117058
 20
219.9034066425529
 30
0.0
 10
222.2597112160706
 20
221.3768691843086
 30
0.0
 10
222.7818967484775
 20
223.2844137537279
 30
0.0
 10
223.0426565733076
 20
225.5934664483236
 30
0.0
 10
223.0676549079358
 20
227.1984887295231
 30
0.0
 10
223.0806214041369
 20
228.0310047999451
 30
0.0
  0
SPLINE
  5
92
330
1F
100
AcDbEntity
  8
0
  6
Continuous
 62
     7
370
    25
100
AcDbSpline
210
0.0
220
0.0
230
1.0
 70
     8
 71
     3
 72
    21
 73
    17
 74
     0
 42
0.000000001
 43
0.00000001
 40
0.0
 40
0.0
 40
0.0
 40
0.0
 40
0.0776654498259122
 40
0.1533223514691217
 40
0.2212171947694208
 40
0.2813501103969904
 40
0.3337209619142655
 40
0.3783296822728754
 40
0.4151763343451514
 40
0.4492523415819215
 40
0.5063921760602264
 40
0.5773773868019251
 40
0.6622080110158293
 40
0.7608845618639815
 40
0.8734728262288243
 40
0.9999999999999999
 40
0.9999999999999999
 40
0.9999999999999999
 40
0.9999999999999999
 10
223.0808672732966
 20
228.0474333301613
 30
0.0
 10
223.1025101579126
 20
229.5066271023515
 30
0.0
 10
223.1452362088057
 20
232.3872776477714
 30
0.0
 10
223.2068896606462
 20
236.5435491123107
 30
0.0
 10
223.2636647387189
 20
240.3704156747048
 30
0.0
 10
223.3139472455182
 20
243.759779029176
 30
0.0
 10
223.3577447803028
 20
246.7116382209599
 30
0.0
 10
223.3950494237364
 20
249.2259905221019
 30
0.0
 10
223.4272552614188
 20
251.3966159153852
 30
0.0
 10
223.462950709683
 20
253.8026785181623
 30
0.0
 10
223.5081591910244
 20
256.8501430563342
 30
0.0
 10
223.5675165113323
 20
260.8511946410102
 30
0.0
 10
223.6384520131009
 20
265.6326476693697
 30
0.0
 10
223.7210108047746
 20
271.1957371565962
 30
0.0
 10
223.8148959103027
 20
277.5422719313124
 30
0.0
 10
223.8479530138763
 20
282.0352088957816
 30
0.0
 10
223.8654450751202
 20
284.4126322042798
 30
0.0
  0
SPLINE
  5
93
330
1F
100
AcDbEntity
  8
0
  6
Continuous
 62
     7
370
    25
100
AcDbSpline
210
0.0
220
0.0
230
1.0
 70
     8
 71
     3
 72
     9
 73
     5
 74
     0
 42
0.000000001
 43
0.00000001
 40
0.0
 40
0.0
 40
0.0
 40
0.0
 40
0.4544415542264365
 40
0.9999999999999999
 40
0.9999999999999999
 40
0.9999999999999999
 40
0.9999999999999999
 10
179.1074120677368
 20
284.4126322042798
 30
0.0
 10
179.2131710061563
 20
275.8604512318847
 30
0.0
 10
179.445893866634
 20
257.0413514095701
 30
0.0
 10
179.7353961475687
 20
238.2230350970133
 30
0.0
 10
179.8933365620034
 20
227.9565436974594
 30
0.0
  0
LINE
  5
94
330
1F
100
AcDbEntity
  8
0
  6
Continuous
 62
     7
370
    25
100
AcDbLine
 10
223.0951500363
 20
228.0287025705
 30
0.0
 11
223.0956007964
 21
228.0591940716
 31
0.0
  0
LINE
  5
95
330
1F
100
AcDbEntity
  8
0
  6
Continuous
 62
     7
370
    25
100
AcDbLine
 10
179.8772563464
 20
228.0591940716
 30
0.0
 11
179.8777071066
 21
228.0287025705
 31
0.0
  0
SPLINE
  5
96
330
1F
100
AcDbEntity
  8
0
  6
Continuous
 62
     7
370
    25
100
AcDbSpline
210
0.0
220
0.0
230
1.0
 70
     8
 71
     3
 72
    16
 73
    12
 74
     0
 42
0.000000001
 43
0.00000001
 40
0.0
 40
0.0
 40
0.0
 40
0.0
 40
0.0512668408006739
 40
0.1127059906441695
 40
0.1701713544889615
 40
0.2266652929232453
 40
0.2855184770618504
 40
0.4212708520927441
 40
0.638646589110209
 40
0.8468596633424132
 40
1.0
 40
1.0
 40
1.0
 40
1.0
 10
179.1929726726668
 20
298.375419361932
 30
0.0
 10
179.1856647191605
 20
298.3932332126034
 30
0.0
 10
179.1695987762108
 20
298.4323955182137
 30
0.0
 10
179.1664538643623
 20
298.2343033599407
 30
0.0
 10
179.1651327210902
 20
297.8995938077439
 30
0.0
 10
179.1670678501265
 20
297.3921062611167
 30
0.0
 10
179.1699933703367
 20
296.466397381626
 30
0.0
 10
179.1775924289889
 20
294.6404918373691
 30
0.0
 10
179.2272053861385
 20
292.1109058215765
 30
0.0
 10
179.1435525906441
 20
289.5414306288841
 30
0.0
 10
179.1084427367575
 20
288.0722781090998
 30
0.0
 10
179.0935633010523
 20
287.4496563081125
 30
0.0
  0
LINE
  5
97
330
1F
100
AcDbEntity
  8
0
  6
Continuous
 62
     7
370
    25
100
AcDbLine
 10
223.8807392544
 20
287.1944438875
 30
0.0
 11
223.8687009788
 21
287.4907080759
 31
0.0
  0
LINE
  5
98
330
1F
100
AcDbEntity
  8
0
  6
Continuous
 62
     7
370
    25
100
AcDbLine
 10
192.8702297858
 20
215.2583142952
 30
0.0
 11
192.8697007946
 21
215.2952021197
 31
0.0
  0
LINE
  5
99
330
1F
100
AcDbEntity
  8
0
  6
Continuous
 62
     7
370
    25
100
AcDbLine
 10
179.8793592728
 20
228.0276781157
 30
0.0
 11
179.9144198424
 21
228.0312916473
 31
0.0
  0
LINE
  5
9A
330
1F
100
AcDbEntity
  8
0
  6
Continuous
 62
     7
370
    25
100
AcDbLine
 10
210.0972741149
 20
215.2583142952
 30
0.0
 11
210.0977807544
 21
215.2952840761
 31
0.0
  0
LINE
  5
9B
330
1F
100
AcDbEntity
  8
0
  6
Continuous
 62
     7
370
    25
100
AcDbLine
 10
223.0934978701
 20
228.0276855663
 30
0.0
 11
223.0584391631
 21
228.0312990979
 31
0.0
  0
LINE
  5
9C
330
1F
100
AcDbEntity
  8
0
  6
Continuous
 62
     7
370
    25
100
AcDbLine
 10
201.4864220077
 20
215.2581429318
 30
0.0
 11
192.875583028
 21
215.2583142952
 31
0.0
  0
SPLINE
  5
9D
330
1F
100
AcDbEntity
  8
0
  6
Continuous
 62
     7
370
    25
100
AcDbSpline
210
0.0
220
0.0
230
1.0
 70
     8
 71
     3
 72
     8
 73
     4
 74
     0
 42
0.000000001
 43
0.00000001
 40
0.0
 40
0.0
 40
0.0
 40
0.0
 40
1.0
 40
1.0
 40
1.0
 40
1.0
 10
210.0972743188737
 20
215.258312837341
 30
0.0
 10
207.2269911125115
 20
215.2581986193057
 30
0.0
 10
204.3567132341942
 20
215.2581448947643
 30
0.0
 10
201.4864351351685
 20
215.2581451865205
 30
0.0
  0
SPLINE
  5
9E
330
1F
100
AcDbEntity
  8
0
  6
Continuous
 62
     7
370
    25
100
AcDbSpline
210
0.0
220
0.0
230
1.0
 70
     8
 71
     3
 72
    10
 73
     6
 74
     0
 42
0.000000001
 43
0.00000001
 40
0.0
 40
0.0
 40
0.0
 40
0.0
 40
0.432944210209134
 40
0.8658882089316543
 40
0.9999999999999999
 40
0.9999999999999999
 40
0.9999999999999999
 40
0.9999999999999999
 10
223.0939449048893
 20
228.0581696168015
 30
0.0
 10
223.1854113167692
 20
234.3179488811373
 30
0.0
 10
223.3683440958491
 20
246.8375043520026
 30
0.0
 10
223.6045464002931
 20
261.29578634644
 30
0.0
 10
223.7010749934383
 20
269.4949429458221
 30
0.0
 10
223.7239045328753
 20
271.4340882584879
 30
0.0
  0
LINE
  5
9F
330
1F
100
AcDbEntity
  8
0
  6
Continuous
 62
     7
370
    25
100
AcDbLine
 10
223.8255826063
 20
279.8142545134
 30
0.0
 11
223.8813371635
 21
284.4095588161
 31
0.0
  0
LINE
  5
A0
330
1F
100
AcDbEntity
  8
0
  6
Continuous
 62
     7
370
    25
100
AcDbLine
 10
179.877295462
 20
228.058698608
 30
0.0
 11
179.8784987307
 21
228.0596932605
 31
0.0
  0
LINE
  5
A1
330
1F
100
AcDbEntity
  8
0
  6
Continuous
 62
     7
370
    25
100
AcDbLine
 10
179.0916932053
 20
284.409622288
 30
0.0
 11
179.1293316759
 21
284.4126798363
 31
0.0
  0
LINE
  5
A2
330
1F
100
AcDbEntity
  8
0
  6
Continuous
 62
     7
370
    25
100
AcDbLine
 10
179.0917155571
 20
284.4095754344
 30
0.0
 11
179.1323528863
 21
294.4731312082
 31
0.0
  0
SPLINE
  5
A3
330
1F
100
AcDbEntity
  8
0
  6
Continuous
 62
     7
370
    25
100
AcDbSpline
210
0.0
220
0.0
230
1.0
 70
     8
 71
     3
 72
    10
 73
     6
 74
     0
 42
0.000000001
 43
0.00000001
 40
0.0
 40
0.0
 40
0.0
 40
0.0
 40
0.5
 40
0.5
 40
1.0
 40
1.0
 40
1.0
 40
1.0
 10
223.8051330978607
 20
303.2328893977294
 30
0.0
 10
223.8416890213738
 20
300.0945645349053
 30
0.0
 10
223.8643267534344
 20
296.9588299483332
 30
0.0
 10
223.8969628580626
 20
290.6862504275113
 30
0.0
 10
223.8914424619414
 20
287.5435700326262
 30
0.0
 10
223.8811417991576
 20
284.4095754342405
 30
0.0
  0
SPLINE
  5
A4
330
1F
100
AcDbEntity
  8
0
  6
Continuous
 62
     7
370
    25
100
AcDbSpline
210
0.0
220
0.0
230
1.0
 70
     8
 71
     3
 72
    11
 73
     7
 74
     0
 42
0.000000001
 43
0.00000001
 40
0.0
 40
0.0
 40
0.0
 40
0.0
 40
0.2493859448368388
 40
0.4992838800676278
 40
0.7495493797131333
 40
0.9999999999999999
 40
0.9999999999999999
 40
0.9999999999999999
 40
0.9999999999999999
 10
224.269217519548
 20
303.2320937147783
 30
0.0
 10
224.2341660603801
 20
303.2321511837908
 30
0.0
 10
224.1639911812513
 20
303.2322662397997
 30
0.0
 10
224.0486510418457
 20
303.2324536025887
 30
0.0
 10
223.9283747039699
 20
303.2326936246312
 30
0.0
 10
223.8462267377755
 20
303.2328241139756
 30
0.0
 10
223.8051375691435
 20
303.2328893827695
 30
0.0
  0
SPLINE
  5
A5
330
1F
100
AcDbEntity
  8
0
  6
Continuous
 62
     7
370
    25
100
AcDbSpline
210
0.0
220
0.0
230
1.0
 70
     8
 71
     3
 72
     9
 73
     5
 74
     0
 42
0.000000001
 43
0.00000001
 40
0.0
 40
0.0
 40
0.0
 40
0.0
 40
0.9487424585480778
 40
1.0
 40
1.0
 40
1.0
 40
1.0
 10
224.2691044933455
 20
303.2321231648752
 30
0.0
 10
224.2573355660288
 20
301.790420574413
 30
0.0
 10
224.2449308009519
 20
300.270827372409
 30
0.0
 10
223.8438056744199
 20
298.8216707359211
 30
0.0
 10
223.8232449866192
 20
298.747390529556
 30
0.0
  0
SPLINE
  5
A6
330
1F
100
AcDbEntity
  8
0
  6
Continuous
 62
     7
370
    25
100
AcDbSpline
210
0.0
220
0.0
230
1.0
 70
     8
 71
     3
 72
    34
 73
    30
 74
     0
 42
0.000000001
 43
0.00000001
 40
0.0
 40
0.0
 40
0.0
 40
0.0
 40
0.1250000000000002
 40
0.1250000000000002
 40
0.2500000000000004
 40
0.2500000000000004
 40
0.2812500000000004
 40
0.2812500000000004
 40
0.3125000000000005
 40
0.3125000000000005
 40
0.3750000000000004
 40
0.3750000000000004
 40
0.4375000000000004
 40
0.4375000000000004
 40
0.5000000000000004
 40
0.5000000000000004
 40
0.6250000000000004
 40
0.6250000000000004
 40
0.6562500000000003
 40
0.6562500000000003
 40
0.6875000000000003
 40
0.6875000000000003
 40
0.7500000000000002
 40
0.7500000000000002
 40
0.8125000000000002
 40
0.8125000000000002
 40
0.8750000000000002
 40
0.8750000000000002
 40
1.0
 40
1.0
 40
1.0
 40
1.0
 10
178.2909397087469
 20
303.2314868126488
 30
0.0
 10
178.2767429694861
 20
304.7271372555023
 30
0.0
 10
178.3755476747243
 20
306.2049865827855
 30
0.0
 10
178.7732074754319
 20
309.1291713027107
 30
0.0
 10
179.0743380431425
 20
310.5751482402963
 30
0.0
 10
179.6245451570143
 20
312.3552416615203
 30
0.0
 10
179.7434174815983
 20
312.7098692139542
 30
0.0
 10
180.0004789023718
 20
313.4160813481218
 30
0.0
 10
180.139074352382
 20
313.7686124030332
 30
0.0
 10
180.58367674729
 20
314.8141532935721
 30
0.0
 10
180.9166965004299
 20
315.4915371299759
 30
0.0
 10
181.6630015995058
 20
316.8032471718826
 30
0.0
 10
182.0761850498556
 20
317.4376280381983
 30
0.0
 10
182.9926858432374
 20
318.6580383945105
 30
0.0
 10
183.4998621868667
 20
319.2474725338777
 30
0.0
 10
185.1230839406952
 20
320.884507096398
 30
0.0
 10
186.3494072585982
 20
321.81555207665
 30
0.0
 10
188.065454359785
 20
322.7757182519726
 30
0.0
 10
188.4177465684996
 20
322.9574714746869
 30
0.0
 10
189.1282383402485
 20
323.2957907441448
 30
0.0
 10
189.4878917227753
 20
323.4531910327659
 30
0.0
 10
190.5790994463212
 20
323.8927149629176
 30
0.0
 10
191.3228069008656
 20
324.142413697635
 30
0.0
 10
192.8358151723031
 20
324.5735272341118
 30
0.0
 10
193.6044147908058
 20
324.7568128562517
 30
0.0
 10
195.1620929170763
 20
325.0687457500646
 30
0.0
 10
195.9483339289789
 20
325.1950569580773
 30
0.0
 10
198.3091988317617
 20
325.4902056163926
 30
0.0
 10
199.8936424357335
 20
325.5771517124633
 30
0.0
 10
201.4864285714285
 20
325.5771220215719
 30
0.0
  0
SPLINE
  5
A7
330
1F
100
AcDbEntity
  8
0
  6
Continuous
 62
     7
370
    25
100
AcDbSpline
210
0.0
220
0.0
230
1.0
 70
     8
 71
     3
 72
    34
 73
    30
 74
     0
 42
0.000000001
 43
0.00000001
 40
0.0
 40
0.0
 40
0.0
 40
0.0
 40
0.1250000000000011
 40
0.1250000000000011
 40
0.2500000000000022
 40
0.2500000000000022
 40
0.2812500000000023
 40
0.2812500000000023
 40
0.3125000000000024
 40
0.3125000000000024
 40
0.3750000000000025
 40
0.3750000000000025
 40
0.4375000000000026
 40
0.4375000000000026
 40
0.5000000000000026
 40
0.5000000000000026
 40
0.6250000000000022
 40
0.6250000000000022
 40
0.656250000000002
 40
0.656250000000002
 40
0.6875000000000019
 40
0.6875000000000019
 40
0.7500000000000016
 40
0.7500000000000016
 40
0.8125000000000012
 40
0.8125000000000012
 40
0.8750000000000009
 40
0.8750000000000009
 40
1.0
 40
1.0
 40
1.0
 40
1.0
 10
224.6819174341101
 20
303.2314868126488
 30
0.0
 10
224.6961141733709
 20
304.7271372555023
 30
0.0
 10
224.5973094681327
 20
306.2049865827855
 30
0.0
 10
224.1996496674251
 20
309.1291713027107
 30
0.0
 10
223.8985190997145
 20
310.5751482402963
 30
0.0
 10
223.3483119858427
 20
312.3552416615203
 30
0.0
 10
223.2294396612587
 20
312.7098692139542
 30
0.0
 10
222.9723782404852
 20
313.4160813481218
 30
0.0
 10
222.8337827904751
 20
313.7686124030332
 30
0.0
 10
222.3891803955669
 20
314.8141532935721
 30
0.0
 10
222.0561606424271
 20
315.4915371299759
 30
0.0
 10
221.3098555433512
 20
316.8032471718827
 30
0.0
 10
220.8966720930014
 20
317.4376280381983
 30
0.0
 10
219.9801712996196
 20
318.6580383945106
 30
0.0
 10
219.4729949559903
 20
319.2474725338777
 30
0.0
 10
217.8497732021618
 20
320.8845070963981
 30
0.0
 10
216.6234498842588
 20
321.81555207665
 30
0.0
 10
214.907402783072
 20
322.7757182519726
 30
0.0
 10
214.5551105743574
 20
322.9574714746869
 30
0.0
 10
213.8446188026085
 20
323.2957907441448
 30
0.0
 10
213.4849654200817
 20
323.4531910327659
 30
0.0
 10
212.3937576965358
 20
323.8927149629176
 30
0.0
 10
211.6500502419914
 20
324.142413697635
 30
0.0
 10
210.1370419705539
 20
324.5735272341118
 30
0.0
 10
209.3684423520512
 20
324.7568128562517
 30
0.0
 10
207.8107642257807
 20
325.0687457500646
 30
0.0
 10
207.0245232138782
 20
325.1950569580773
 30
0.0
 10
204.6636583110953
 20
325.4902056163926
 30
0.0
 10
203.0792147071235
 20
325.5771517124633
 30
0.0
 10
201.4864285714285
 20
325.5771220215719
 30
0.0
  0
SPLINE
  5
A8
330
1F
100
AcDbEntity
  8
0
  6
Continuous
 62
     7
370
    25
100
AcDbSpline
210
0.0
220
0.0
230
1.0
 70
     8
 71
     3
 72
    10
 73
     6
 74
     0
 42
0.000000001
 43
0.00000001
 40
0.0
 40
0.0
 40
0.0
 40
0.0
 40
0.4705128208245416
 40
0.9476552614227728
 40
1.0
 40
1.0
 40
1.0
 40
1.0
 10
178.3552126265423
 20
301.6994046256373
 30
0.0
 10
178.4329737673319
 20
300.9858432680545
 30
0.0
 10
178.5895917189414
 20
299.5486663306093
 30
0.0
 10
178.8693404639465
 20
298.0008382332154
 30
0.0
 10
179.1410548706429
 20
297.2014445488729
 30
0.0
 10
179.1679163701193
 20
297.1224170387218
 30
0.0
  0
SPLINE
  5
A9
330
1F
100
AcDbEntity
  8
0
  6
Continuous
 62
     7
370
    25
100
AcDbSpline
210
0.0
220
0.0
230
1.0
 70
     8
 71
     3
 72
     8
 73
     4
 74
     0
 42
0.000000001
 43
0.00000001
 40
0.0
 40
0.0
 40
0.0
 40
0.0
 40
1.0
 40
1.0
 40
1.0
 40
1.0
 10
178.2909397087453
 20
303.231486812623
 30
0.0
 10
178.295810860601
 20
302.720179344061
 30
0.0
 10
178.3171764370887
 20
302.2094828951114
 30
0.0
 10
178.3552127144615
 20
301.6994039958147
 30
0.0
  0
SPLINE
  5
AA
330
1F
100
AcDbEntity
  8
0
  6
Continuous
 62
     7
370
    25
100
AcDbSpline
210
0.0
220
0.0
230
1.0
 70
     8
 71
     3
 72
     8
 73
     4
 74
     0
 42
0.000000001
 43
0.00000001
 40
0.0
 40
0.0
 40
0.0
 40
0.0
 40
1.0
 40
1.0
 40
1.0
 40
1.0
 10
224.6819174341117
 20
303.231486812623
 30
0.0
 10
224.677046282256
 20
302.720179344061
 30
0.0
 10
224.6556807057683
 20
302.2094828951114
 30
0.0
 10
224.6176444283955
 20
301.6994039958147
 30
0.0
  0
SPLINE
  5
AB
330
1F
100
AcDbEntity
  8
0
  6
Continuous
 62
     7
370
    25
100
AcDbSpline
210
0.0
220
0.0
230
1.0
 70
     8
 71
     3
 72
    10
 73
     6
 74
     0
 42
0.000000001
 43
0.00000001
 40
0.0
 40
0.0
 40
0.0
 40
0.0
 40
0.4782619597139336
 40
0.9632627261187596
 40
0.9999999999999999
 40
0.9999999999999999
 40
0.9999999999999999
 40
0.9999999999999999
 10
224.6176445163147
 20
301.6994046256373
 30
0.0
 10
224.5395906177398
 20
300.9858908856802
 30
0.0
 10
224.382383025544
 20
299.5488098544283
 30
0.0
 10
224.1102534854097
 20
298.0255587356351
 30
0.0
 10
223.8479785564579
 20
297.2504423957283
 30
0.0
 10
223.8295109249013
 20
297.1958639309237
 30
0.0
  0
ARC
  5
AC
330
1F
100
AcDbEntity
  8
0
  6
Continuous
 62
     7
370
    25
100
AcDbCircle
 10
201.4864285714
 20
303.2382142857
 30
0.0
 40
22.55000000000001
100
AcDbArc
 50
78.7387821057
 51
98.2740141468
  0
LWPOLYLINE
  5
AD
330
1F
100
AcDbEntity
  8
0
  6
Continuous
 62
     7
370
    25
100
AcDbPolyline
 90
        3
 70
   128
 43
0.0
 10
224.0364284492
 20
303.232458441
 10
223.9833151228
 20
301.6914045647
 10
223.9265603251
 20
301.0149235115
  0
ELLIPSE
  5
AE
330
1F
100
AcDbEntity
  8
0
  6
Continuous
 62
     7
370
    25
100
AcDbEllipse
 10
256.4795727216
 20
339.4313584359
 30
0.0
 11
14.15182959886709
 21
14.15182959886709
 31
0.0
210
0.0
220
0.0
230
1.0
 40
0.999315002
 41
5.49812976012032
 42
7.068240854238866
  0
ELLIPSE
  5
AF
330
1F
100
AcDbEntity
  8
0
  6
Continuous
 62
     7
370
    25
100
AcDbEllipse
 10
256.4795727216
 20
229.4450701355
 30
0.0
 11
14.15182959886709
 21
-14.15182959886712
 31
0.0
210
0.0
220
0.0
230
1.0
 40
0.999315002
 41
5.498129760120322
 42
7.068240854238867
  0
ELLIPSE
  5
B0
330
1F
100
AcDbEntity
  8
0
  6
Continuous
 62
     7
370
    25
100
AcDbEllipse
 10
146.4932844212
 20
339.4313584359
 30
0.0
 11
-14.15182959886712
 21
14.15182959886709
 31
0.0
210
0.0
220
0.0
230
1.0
 40
0.999315002
 41
5.498129760120321
 42
7.068240854238865
  0
ELLIPSE
  5
B1
330
1F
100
AcDbEntity
  8
0
  6
Continuous
 62
     7
370
    25
100
AcDbEllipse
 10
146.4932844212
 20
229.4450701355
 30
0.0
 11
-14.15182959886709
 21
-14.15182959886712
 31
0.0
210
0.0
220
0.0
230
1.0
 40
0.999315002
 41
5.49812976012032
 42
7.068240854238865
  0
LINE
  5
B2
330
1F
100
AcDbEntity
  8
0
  6
Continuous
 62
     7
370
    25
100
AcDbLine
 10
276.4864315517
 20
339.4450685218
 30
0.0
 11
276.4864315517
 21
229.4313600496
 31
0.0
  0
LINE
  5
B3
330
1F
100
AcDbEntity
  8
0
  6
Continuous
 62
     7
370
    25
100
AcDbLine
 10
146.4795743353
 20
359.4382172659
 30
0.0
 11
256.4932828076
 21
359.4382172659
 31
0.0
  0
LINE
  5
B4
330
1F
100
AcDbEntity
  8
0
  6
Continuous
 62
     7
370
    25
100
AcDbLine
 10
126.4864255912
 20
229.4313600496
 30
0.0
 11
126.4864255912
 21
339.4450685218
 31
0.0
  0
LINE
  5
B5
330
1F
100
AcDbEntity
  8
0
  6
Continuous
 62
     7
370
    25
100
AcDbLine
 10
256.4932828076
 20
209.4382113055
 30
0.0
 11
146.4795743353
 21
209.4382113055
 31
0.0
  0
SPLINE
  5
B6
330
1F
100
AcDbEntity
  8
0
  6
Continuous
 62
     8
370
    18
100
AcDbSpline
210
0.0
220
0.0
230
1.0
 70
     8
 71
     3
 72
     9
 73
     5
 74
     0
 42
0.000000001
 43
0.00000001
 40
0.0939914351362415
 40
0.0939914351362415
 40
0.0939914351362415
 40
0.0939914351362415
 40
0.9689914351362415
 40
1.0
 40
1.0
 40
1.0
 40
1.0
 10
210.1068946616426
 20
228.061623707505
 30
0.0
 10
210.0868036535499
 20
224.3266690628166
 30
0.0
 10
210.0915721834375
 20
220.4569047795121
 30
0.0
 10
210.0996504312564
 20
216.590827792811
 30
0.0
 10
210.0999298282457
 20
216.458513765016
 30
0.0
  0
SPLINE
  5
B7
330
1F
100
AcDbEntity
  8
0
  6
Continuous
 62
     8
370
    18
100
AcDbSpline
210
0.0
220
0.0
230
1.0
 70
    24
 71
     3
 72
     9
 73
     5
 74
     0
 42
0.000000001
 43
0.00000001
 40
0.1056634864831682
 40
0.1056634864831682
 40
0.1056634864831682
 40
0.1056634864831682
 40
0.125
 40
1.0
 40
1.0
 40
1.0
 40
1.0
 10
221.8892238072319
 20
228.061623707505
 30
0.0
 10
221.8141380296648
 20
228.061623707505
 30
0.0
 10
218.3315026760023
 20
228.061623707505
 30
0.0
 10
214.3942298788964
 20
228.061623707505
 30
0.0
 10
210.1068946616426
 20
228.061623707505
 30
0.0
  0
SPLINE
  5
B8
330
1F
100
AcDbEntity
  8
0
  6
Continuous
 62
     8
370
    18
100
AcDbSpline
210
0.0
220
0.0
230
1.0
 70
     8
 71
     3
 72
    18
 73
    14
 74
     0
 42
0.000000001
 43
0.00000001
 40
0.0
 40
0.0
 40
0.0
 40
0.0
 40
0.2500000000000004
 40
0.2500000000000004
 40
0.3750000000000006
 40
0.3750000000000006
 40
0.5000000000000004
 40
0.5000000000000004
 40
0.6250000000000003
 40
0.6250000000000003
 40
0.7500000000000002
 40
0.7500000000000002
 40
1.0
 40
1.0
 40
1.0
 40
1.0
 10
210.1056269815338
 20
216.4585241428646
 30
0.0
 10
211.7214783409214
 20
216.4614672918939
 30
0.0
 10
213.3634780704297
 20
216.4709581340277
 30
0.0
 10
215.7533650164301
 20
216.9411894145424
 30
0.0
 10
216.5475646101762
 20
217.1871965386684
 30
0.0
 10
218.0245162797787
 20
217.8929743840465
 30
0.0
 10
218.7210208937356
 20
218.3627591612515
 30
0.0
 10
219.8796933264162
 20
219.5073575525744
 30
0.0
 10
220.3549426511341
 20
220.1936778451795
 30
0.0
 10
221.0777562354048
 20
221.6583604957912
 30
0.0
 10
221.3325071471922
 20
222.4444895965347
 30
0.0
 10
221.8336523394349
 20
224.834791193199
 30
0.0
 10
221.8633002643244
 20
226.4497044843719
 30
0.0
 10
221.8892238866343
 20
228.0616237075052
 30
0.0
  0
SPLINE
  5
B9
330
1F
100
AcDbEntity
  8
0
  6
Continuous
 62
     8
370
    18
100
AcDbSpline
210
0.0
220
0.0
230
1.0
 70
    24
 71
     3
 72
     8
 73
     4
 74
     0
 42
0.000000001
 43
0.00000001
 40
0.3553390613026225
 40
0.3553390613026225
 40
0.3553390613026225
 40
0.3553390613026225
 40
0.9318828776177226
 40
0.9318828776177226
 40
0.9318828776177226
 40
0.9318828776177226
 10
192.8659624812144
 20
228.061623707505
 30
0.0
 10
188.4838819892411
 20
228.061623707505
 30
0.0
 10
184.5564389407114
 20
228.061623707505
 30
0.0
 10
181.0836333356251
 20
228.061623707505
 30
0.0
  0
SPLINE
  5
BA
330
1F
100
AcDbEntity
  8
0
  6
Continuous
 62
     8
370
    18
100
AcDbSpline
210
0.0
220
0.0
230
1.0
 70
     8
 71
     3
 72
    10
 73
     6
 74
     0
 42
0.000000001
 43
0.00000001
 40
0.0
 40
0.0
 40
0.0
 40
0.0
 40
0.0310084500490471
 40
0.5778834500490471
 40
0.9060084500490471
 40
0.9060084500490471
 40
0.9060084500490471
 40
0.9060084500490471
 10
192.8729273177149
 20
216.4585136967198
 30
0.0
 10
192.8732067136481
 20
216.5908262224088
 30
0.0
 10
192.8783592979156
 20
219.0567119271798
 30
0.0
 10
192.8843264925325
 20
222.924489803604
 30
0.0
 10
192.8734966092492
 20
226.6610157157469
 30
0.0
 10
192.8659624812144
 20
228.061623707505
 30
0.0
  0
SPLINE
  5
BB
330
1F
100
AcDbEntity
  8
0
  6
Continuous
 62
     8
370
    18
100
AcDbSpline
210
0.0
220
0.0
230
1.0
 70
     8
 71
     3
 72
    20
 73
    16
 74
     0
 42
0.000000001
 43
0.00000001
 40
0.0
 40
0.0
 40
0.0
 40
0.0
 40
0.1267557496989269
 40
0.2480422159502777
 40
0.2769658398526441
 40
0.329481508794259
 40
0.4038779971290479
 40
0.4989766244601465
 40
0.5856537817228831
 40
0.6678863137857555
 40
0.7459793329011583
 40
0.8193283703007672
 40
0.8868756965814198
 40
0.9474060964124992
 40
1.0
 40
1.0
 40
1.0
 40
1.0
 10
181.0836332562227
 20
228.061623707505
 30
0.0
 10
181.0974072836369
 20
227.2370176924643
 30
0.0
 10
181.1243610138662
 20
225.6233859342014
 30
0.0
 10
181.331464469958
 20
223.8255649636556
 30
0.0
 10
181.6336969857657
 20
222.5411749347846
 30
0.0
 10
181.9375321805143
 20
221.5719566951355
 30
0.0
 10
182.5541434707544
 20
220.2584671256321
 30
0.0
 10
183.577766549884
 20
218.916955981847
 30
0.0
 10
184.9568340010052
 20
217.8644901941615
 30
0.0
 10
186.4200205529857
 20
217.1772061302524
 30
0.0
 10
187.89100999545
 20
216.7698043848392
 30
0.0
 10
189.3046987989229
 20
216.571840090299
 30
0.0
 10
190.6133392802211
 20
216.4884755621558
 30
0.0
 10
191.788869262631
 20
216.461889628922
 30
0.0
 10
192.5249913080132
 20
216.4595922454734
 30
0.0
 10
192.8672301613232
 20
216.4585241428646
 30
0.0
  0
SPLINE
  5
BC
330
1F
100
AcDbEntity
  8
0
  6
Continuous
 62
     8
370
    18
100
AcDbSpline
210
0.0
220
0.0
230
1.0
 70
    24
 71
     3
 72
     9
 73
     5
 74
     0
 42
0.000000001
 43
0.00000001
 40
0.0
 40
0.0
 40
0.0
 40
0.0
 40
0.5
 40
1.0
 40
1.0
 40
1.0
 40
1.0
 10
201.4864285714285
 20
228.061623707505
 30
0.0
 10
199.9633353906137
 20
228.061623707505
 30
0.0
 10
197.0034978614298
 20
228.061623707505
 30
0.0
 10
194.2163579971376
 20
228.061623707505
 30
0.0
 10
192.8659624812144
 20
228.061623707505
 30
0.0
  0
SPLINE
  5
BD
330
1F
100
AcDbEntity
  8
0
  6
Continuous
 62
     8
370
    18
100
AcDbSpline
210
0.0
220
0.0
230
1.0
 70
    24
 71
     3
 72
    10
 73
     6
 74
     0
 42
0.000000001
 43
0.00000001
 40
0.0
 40
0.0
 40
0.0
 40
0.0
 40
0.328125
 40
0.875
 40
0.9063474602971325
 40
0.9063474602971325
 40
0.9063474602971325
 40
0.9063474602971325
 10
201.4864285714285
 20
228.061623707505
 30
0.0
 10
201.4864285714285
 20
226.6609089484656
 30
0.0
 10
201.4864285714285
 20
222.9242384556295
 30
0.0
 10
201.4864285714285
 20
219.0551236383425
 30
0.0
 10
201.4864285714285
 20
216.5878827676864
 30
0.0
 10
201.4864285714285
 20
216.454128736301
 30
0.0
  0
SPLINE
  5
BE
330
1F
100
AcDbEntity
  8
0
  6
Continuous
 62
     8
370
    18
100
AcDbSpline
210
0.0
220
0.0
230
1.0
 70
     8
 71
     3
 72
     8
 73
     4
 74
     0
 42
0.000000001
 43
0.00000001
 40
0.0
 40
0.0
 40
0.0
 40
0.0
 40
1.0
 40
1.0
 40
1.0
 40
1.0
 10
192.8729273199966
 20
216.4585147772877
 30
0.0
 10
195.7198185541222
 20
216.4570168328054
 30
0.0
 10
198.5910726924958
 20
216.4555549462757
 30
0.0
 10
201.4864285714285
 20
216.454128736301
 30
0.0
  0
SPLINE
  5
BF
330
1F
100
AcDbEntity
  8
0
  6
Continuous
 62
     8
370
    18
100
AcDbSpline
210
0.0
220
0.0
230
1.0
 70
    24
 71
     3
 72
     8
 73
     4
 74
     0
 42
0.000000001
 43
0.00000001
 40
0.0
 40
0.0
 40
0.0
 40
0.0
 40
0.3553390613026225
 40
0.3553390613026225
 40
0.3553390613026225
 40
0.3553390613026225
 10
210.1068946616426
 20
228.061623707505
 30
0.0
 10
207.4061036297962
 20
228.061623707505
 30
0.0
 10
204.5326149330582
 20
228.061623707505
 30
0.0
 10
201.4864285714285
 20
228.061623707505
 30
0.0
  0
SPLINE
  5
C0
330
1F
100
AcDbEntity
  8
0
  6
Continuous
 62
     8
370
    18
100
AcDbSpline
210
0.0
220
0.0
230
1.0
 70
     8
 71
     3
 72
     8
 73
     4
 74
     0
 42
0.000000001
 43
0.00000001
 40
0.0
 40
0.0
 40
0.0
 40
0.0
 40
1.0
 40
1.0
 40
1.0
 40
1.0
 10
201.4864285714285
 20
216.454128736301
 30
0.0
 10
204.3575835791609
 20
216.4541218803395
 30
0.0
 10
207.2287254831542
 20
216.455531381017
 30
0.0
 10
210.0999298228604
 20
216.4585147772877
 30
0.0
  0
LINE
  5
C1
330
1F
100
AcDbEntity
  8
0
  6
Continuous
 62
     8
370
    18
100
AcDbLine
 10
201.4864285714
 20
228.0616229609
 30
0.0
 11
201.4864285714
 21
303.2329222396
 31
0.0
  0
SPLINE
  5
C2
330
1F
100
AcDbEntity
  8
0
  6
Continuous
 62
     8
370
    18
100
AcDbSpline
210
0.0
220
0.0
230
1.0
 70
    24
 71
     3
 72
     8
 73
     4
 74
     0
 42
0.000000001
 43
0.00000001
 40
0.0
 40
0.0
 40
0.0
 40
0.0
 40
0.9317398741990044
 40
0.9317398741990044
 40
0.9317398741990044
 40
0.9317398741990044
 10
201.4864285714285
 20
303.2329228041593
 30
0.0
 10
209.7384420326046
 20
303.2329228041593
 30
0.0
 10
216.7576941145585
 20
303.2329228041593
 30
0.0
 10
222.5441848172903
 20
303.2329228041593
 30
0.0
  0
SPLINE
  5
C3
330
1F
100
AcDbEntity
  8
0
  6
Continuous
 62
     8
370
    18
100
AcDbSpline
210
0.0
220
0.0
230
1.0
 70
     8
 71
     3
 72
    10
 73
     6
 74
     0
 42
0.000000001
 43
0.00000001
 40
0.0
 40
0.0
 40
0.0
 40
0.0
 40
0.5
 40
0.5
 40
1.0
 40
1.0
 40
1.0
 40
1.0
 10
222.6699164189882
 20
284.4293577334944
 30
0.0
 10
222.6746321425336
 20
287.5648880911497
 30
0.0
 10
222.6776712062272
 20
290.6976500916364
 30
0.0
 10
222.6224255124807
 20
296.9655341505037
 30
0.0
 10
222.5817538304035
 20
300.0994076696443
 30
0.0
 10
222.5440071924323
 20
303.2329228041615
 30
0.0
  0
SPLINE
  5
C4
330
1F
100
AcDbEntity
  8
0
  6
Continuous
 62
     8
370
    18
100
AcDbSpline
210
0.0
220
0.0
230
1.0
 70
     8
 71
     3
 72
    12
 73
     8
 74
     0
 42
0.000000001
 43
0.00000001
 40
0.0
 40
0.0
 40
0.0
 40
0.0
 40
0.4999999999999999
 40
0.4999999999999999
 40
0.7499999999999999
 40
0.7499999999999999
 40
1.0
 40
1.0
 40
1.0
 40
1.0
 10
221.8897114203799
 20
228.092192717141
 30
0.0
 10
222.0278271291655
 20
237.4818263992011
 30
0.0
 10
222.1662340511193
 20
246.8714553519709
 30
0.0
 10
222.3741357357752
 20
260.9558940102013
 30
0.0
 10
222.443464343766
 20
265.6507064250028
 30
0.0
 10
222.5822516655302
 20
275.040329127054
 30
0.0
 10
222.647827172974
 20
279.7355107900942
 30
0.0
 10
222.6694445749154
 20
284.4312594534996
 30
0.0
  0
SPLINE
  5
C5
330
1F
100
AcDbEntity
  8
0
  6
Continuous
 62
     8
370
    18
100
AcDbSpline
210
0.0
220
0.0
230
1.0
 70
     8
 71
     3
 72
    10
 73
     6
 74
     0
 42
0.000000001
 43
0.00000001
 40
0.0
 40
0.0
 40
0.0
 40
0.0
 40
0.5
 40
0.5
 40
1.0
 40
1.0
 40
1.0
 40
1.0
 10
180.4288499504247
 20
303.2329228041593
 30
0.0
 10
180.3887801464417
 20
300.0990862282952
 30
0.0
 10
180.3487086380074
 20
296.9652496372844
 30
0.0
 10
180.3015243428368
 20
290.6973768972152
 30
0.0
 10
180.294585548085
 20
287.56333821161
 30
0.0
 10
180.3029407238689
 20
284.4293577334944
 30
0.0
  0
SPLINE
  5
C6
330
1F
100
AcDbEntity
  8
0
  6
Continuous
 62
     8
370
    18
100
AcDbSpline
210
0.0
220
0.0
230
1.0
 70
    24
 71
     3
 72
     8
 73
     4
 74
     0
 42
0.000000001
 43
0.00000001
 40
0.0
 40
0.0
 40
0.0
 40
0.0
 40
0.9317398741990044
 40
0.9317398741990044
 40
0.9317398741990044
 40
0.9317398741990044
 10
201.4864285714285
 20
303.2329228041593
 30
0.0
 10
193.2344151102525
 20
303.2329228041593
 30
0.0
 10
186.2151630282985
 20
303.2329228041593
 30
0.0
 10
180.4286723255668
 20
303.2329228041593
 30
0.0
  0
SPLINE
  5
C7
330
1F
100
AcDbEntity
  8
0
  6
Continuous
 62
     8
370
    18
100
AcDbSpline
210
0.0
220
0.0
230
1.0
 70
     8
 71
     3
 72
    13
 73
     9
 74
     0
 42
0.000000001
 43
0.00000001
 40
0.0
 40
0.0
 40
0.0
 40
0.0
 40
0.125
 40
0.125
 40
0.25
 40
0.25
 40
0.5
 40
1.0
 40
1.0
 40
1.0
 40
1.0
 10
180.3034125679416
 20
284.4312594534996
 30
0.0
 10
180.3144529602597
 20
282.0835859652736
 30
0.0
 10
180.3340637274841
 20
279.7359451956839
 30
0.0
 10
180.3892630536008
 20
275.0408641165716
 30
0.0
 10
180.4262149517208
 20
272.6934572574344
 30
0.0
 10
180.5300085121199
 20
265.6511457546169
 30
0.0
 10
180.7375480246827
 20
251.5665297175141
 30
0.0
 10
180.944944720124
 20
237.4819275597324
 30
0.0
 10
181.0831457224771
 20
228.092192717141
 30
0.0
  0
SPLINE
  5
C8
330
1F
100
AcDbEntity
  8
0
  6
Continuous
 62
     8
370
    18
100
AcDbSpline
210
0.0
220
0.0
230
1.0
 70
     8
 71
     3
 72
    11
 73
     7
 74
     0
 42
0.000000001
 43
0.00000001
 40
0.0
 40
0.0
 40
0.0
 40
0.0
 40
0.1301250152745715
 40
0.4272767526499271
 40
0.7244266316497736
 40
1.0
 40
1.0
 40
1.0
 40
1.0
 10
192.8697007946031
 20
215.2952021196911
 30
0.0
 10
192.8695411614522
 20
215.3025304260937
 30
0.0
 10
192.8690169921815
 20
215.3265935545822
 30
0.0
 10
192.8682340875587
 20
215.5687246098832
 30
0.0
 10
192.8675331839771
 20
215.9715917145407
 30
0.0
 10
192.86738696433
 20
216.3003395176827
 30
0.0
 10
192.8673166088121
 20
216.4585208729336
 30
0.0
  0
SPLINE
  5
C9
330
1F
100
AcDbEntity
  8
0
  6
Continuous
 62
     8
370
    18
100
AcDbSpline
210
0.0
220
0.0
230
1.0
 70
     8
 71
     3
 72
    13
 73
     9
 74
     0
 42
0.000000001
 43
0.00000001
 40
0.0
 40
0.0
 40
0.0
 40
0.0
 40
0.1254306771605832
 40
0.2736659030624519
 40
0.4250535842067025
 40
0.5764445250689217
 40
0.7246776305199474
 40
1.0
 40
1.0
 40
1.0
 40
1.0
 10
179.9144198424475
 20
228.0312916472981
 30
0.0
 10
179.919912323821
 20
228.0322493569248
 30
0.0
 10
179.9318958744893
 20
228.0343388973452
 30
0.0
 10
180.0455984100614
 20
228.0387067400845
 30
0.0
 10
180.1966556484821
 20
228.0435068057951
 30
0.0
 10
180.3923655625728
 20
228.0485072351505
 30
0.0
 10
180.6798960941624
 20
228.0548629162222
 30
0.0
 10
180.9245816937105
 20
228.058959846695
 30
0.0
 10
181.0836338675873
 20
228.0616229609082
 30
0.0
  0
SPLINE
  5
CA
330
1F
100
AcDbEntity
  8
0
  6
Continuous
 62
     8
370
    18
100
AcDbSpline
210
0.0
220
0.0
230
1.0
 70
     8
 71
     3
 72
    11
 73
     7
 74
     0
 42
0.000000001
 43
0.00000001
 40
0.0
 40
0.0
 40
0.0
 40
0.0
 40
0.1298289393145405
 40
0.427082809530414
 40
0.7243332979405108
 40
1.0
 40
1.0
 40
1.0
 40
1.0
 10
210.0977807543533
 20
215.2952840760777
 30
0.0
 10
210.0979336851033
 20
215.3026015413616
 30
0.0
 10
210.0984367631901
 20
215.3266729359873
 30
0.0
 10
210.0991596634834
 20
215.5687255150477
 30
0.0
 10
210.0997849480772
 20
215.9715822177795
 30
0.0
 10
210.099883045824
 20
216.3003313964197
 30
0.0
 10
210.0999302468555
 20
216.458513422353
 30
0.0
  0
SPLINE
  5
CB
330
1F
100
AcDbEntity
  8
0
  6
Continuous
 62
     8
370
    18
100
AcDbSpline
210
0.0
220
0.0
230
1.0
 70
     8
 71
     3
 72
    13
 73
     9
 74
     0
 42
0.000000001
 43
0.00000001
 40
0.0
 40
0.0
 40
0.0
 40
0.0
 40
0.1254345974620159
 40
0.2736692484450522
 40
0.4250563799167027
 40
0.5764438898345453
 40
0.7246786301862449
 40
1.0
 40
1.0
 40
1.0
 40
1.0
 10
223.0584391630547
 20
228.0312990978787
 30
0.0
 10
223.0529462491835
 20
228.0322555752746
 30
0.0
 10
223.0409619829498
 20
228.034342387489
 30
0.0
 10
222.9272584187459
 20
228.0387057140315
 30
0.0
 10
222.7762041634354
 20
228.0435070137895
 30
0.0
 10
222.5804868340663
 20
228.048507276477
 30
0.0
 10
222.2929650489057
 20
228.0548628655211
 30
0.0
 10
222.0482765304581
 20
228.0589598350022
 30
0.0
 10
221.8892232752697
 20
228.0616229609082
 30
0.0
  0
LWPOLYLINE
  5
CC
330
1F
100
AcDbEntity
  8
0
  6
Continuous
 62
     8
370
    18
100
AcDbPolyline
 90
        9
 70
   128
 43
0.0
 10
201.4864351352
 20
215.2581429318
 10
201.48643389
 20
215.2728652791
 10
201.4864326899
 20
215.334243162
 10
201.4864315784
 20
215.4400488571
 10
201.4864305959
 20
215.5864453152
 10
201.4864297779
 20
215.7681277231
 10
201.486429154
 20
215.978517218
 10
201.4864287469
 20
216.2099769548
 10
201.4864285714
 20
216.4541250304
  0
LINE
  5
CD
330
1F
100
AcDbEntity
  8
0
  6
Continuous
 62
     8
370
    18
100
AcDbLine
 10
223.0939449049
 20
228.0581696168
 30
0.0
 11
223.0955616809
 21
228.058698608
 31
0.0
  0
ARC
  5
CE
330
1F
100
AcDbEntity
  8
0
  6
Continuous
 62
     8
370
    18
100
AcDbCircle
 10
221.8046596195
 20
202.3314374414
 30
0.0
 40
25.76056036791202
100
AcDbArc
 50
87.1302952772
 51
89.8108388559
  0
SPLINE
  5
CF
330
1F
100
AcDbEntity
  8
0
  6
Continuous
 62
     8
370
    18
100
AcDbSpline
210
0.0
220
0.0
230
1.0
 70
     8
 71
     3
 72
    14
 73
    10
 74
     0
 42
0.000000001
 43
0.00000001
 40
0.0
 40
0.0
 40
0.0
 40
0.0
 40
0.25
 40
0.25
 40
0.5
 40
0.5
 40
0.75
 40
0.75
 40
1.0
 40
1.0
 40
1.0
 40
1.0
 10
222.6694445749154
 20
284.4312594534996
 30
0.0
 10
222.8191730760246
 20
284.4304454197637
 30
0.0
 10
222.9786934454226
 20
284.4292538025207
 30
0.0
 10
223.2836724182447
 20
284.4261306194627
 30
0.0
 10
223.4282044816569
 20
284.4241994727375
 30
0.0
 10
223.6635600486457
 20
284.4199851011079
 30
0.0
 10
223.7536428334456
 20
284.4177151398123
 30
0.0
 10
223.8648387458505
 20
284.4133861276591
 30
0.0
 10
223.8863657889455
 20
284.4113358369726
 30
0.0
 10
223.8813371878292
 20
284.409558815986
 30
0.0
  0
LINE
  5
D0
330
1F
100
AcDbEntity
  8
0
  6
Continuous
 62
     8
370
    18
100
AcDbLine
 10
179.878912238
 20
228.0581696168
 30
0.0
 11
179.877295462
 21
228.058698608
 31
0.0
  0
ARC
  5
D1
330
1F
100
AcDbEntity
  8
0
  6
Continuous
 62
     8
370
    18
100
AcDbCircle
 10
181.1681975234
 20
202.3314374414
 30
0.0
 40
25.76056036791202
100
AcDbArc
 50
90.1891611441
 51
92.8697047228
  0
SPLINE
  5
D2
330
1F
100
AcDbEntity
  8
0
  6
Continuous
 62
     8
370
    18
100
AcDbSpline
210
0.0
220
0.0
230
1.0
 70
     8
 71
     3
 72
    13
 73
     9
 74
     0
 42
0.000000001
 43
0.00000001
 40
0.0
 40
0.0
 40
0.0
 40
0.0
 40
0.1307450581368571
 40
0.2780161613835312
 40
0.4282941363546223
 40
0.5785656801206901
 40
0.725814633916915
 40
1.0
 40
1.0
 40
1.0
 40
1.0
 10
179.129331675853
 20
284.4126798363363
 30
0.0
 10
179.1362651733554
 20
284.4136080739173
 30
0.0
 10
179.1510085555378
 20
284.4155818773849
 30
0.0
 10
179.2676545696874
 20
284.4186270413912
 30
0.0
 10
179.4197048534072
 20
284.4216281056551
 30
0.0
 10
179.6149493778217
 20
284.4243199692063
 30
0.0
 10
179.9013211078907
 20
284.427309682747
 30
0.0
 10
180.1449255143609
 20
284.4285753615521
 30
0.0
 10
180.3034146554129
 20
284.4293988127761
 30
0.0
  0
SPLINE
  5
D3
330
1F
100
AcDbEntity
  8
0
  6
Continuous
 62
     8
370
    18
100
AcDbSpline
210
0.0
220
0.0
230
1.0
 70
    24
 71
     3
 72
     9
 73
     5
 74
     0
 42
0.000000001
 43
0.00000001
 40
0.0874042921558733
 40
0.0874042921558733
 40
0.0874042921558733
 40
0.0874042921558733
 40
0.5
 40
1.0
 40
1.0
 40
1.0
 40
1.0
 10
201.4864285714285
 20
320.8290395402285
 30
0.0
 10
201.4864285714285
 20
318.6799664883587
 30
0.0
 10
201.4864285714285
 20
313.1724601849901
 30
0.0
 10
201.4864285714285
 20
306.7511047318109
 30
0.0
 10
201.4864285714285
 20
303.2329228041593
 30
0.0
  0
SPLINE
  5
D4
330
1F
100
AcDbEntity
  8
0
  6
Continuous
 62
     8
370
    18
100
AcDbSpline
210
0.0
220
0.0
230
1.0
 70
     8
 71
     3
 72
    33
 73
    29
 74
     0
 42
0.000000001
 43
0.00000001
 40
0.0
 40
0.0
 40
0.0
 40
0.0
 40
0.0276231462130128
 40
0.0554520794259835
 40
0.0838629983869838
 40
0.1132319972175816
 40
0.1439380808902595
 40
0.176600528644873
 40
0.2113900882170392
 40
0.2465559312201351
 40
0.2585643083332576
 40
0.2769767851650252
 40
0.3018826216836388
 40
0.3333559023255198
 40
0.3714843564310658
 40
0.4363493443700539
 40
0.4978807582362795
 40
0.559514101534135
 40
0.6223555785326536
 40
0.6862136136296716
 40
0.7510439403306958
 40
0.792859587452528
 40
0.8346824395571483
 40
0.8763533741721
 40
0.9074778803509733
 40
0.9382058085357327
 40
0.9691978846356859
 40
1.0
 40
1.0
 40
1.0
 40
1.0
 10
201.4864282680693
 20
320.8290395425308
 30
0.0
 10
201.1823149496779
 20
320.8290431924418
 30
0.0
 10
200.5718227285566
 20
320.8290505194548
 30
0.0
 10
199.6485445297768
 20
320.8286192671027
 30
0.0
 10
198.706046124848
 20
320.8272525255631
 30
0.0
 10
197.7318767581237
 20
320.82436862938
 30
0.0
 10
196.7109015518577
 20
320.819844380465
 30
0.0
 10
195.6302878055081
 20
320.8116214349464
 30
0.0
 10
194.5005093516112
 20
320.803153209489
 30
0.0
 10
193.5985981515902
 20
320.7692302594523
 30
0.0
 10
192.8777091254067
 20
320.7280824499054
 30
0.0
 10
192.2700118957982
 20
320.6856656352234
 30
0.0
 10
191.4512531730269
 20
320.5953633397509
 30
0.0
 10
190.4244804510012
 20
320.4219202251043
 30
0.0
 10
188.9881253317634
 20
320.0553511665622
 30
0.0
 10
187.30116526317
 20
319.3683561252482
 30
0.0
 10
185.5390923383792
 20
318.2641906137337
 30
0.0
 10
183.9976797668792
 20
316.9024309309435
 30
0.0
 10
182.6794581064816
 20
315.2903440161169
 30
0.0
 10
181.6256447470674
 20
313.4520549637772
 30
0.0
 10
180.9949992599392
 20
311.6725262213437
 30
0.0
 10
180.6739615104434
 20
310.0673288883993
 30
0.0
 10
180.5296324507461
 20
308.6936715341758
 30
0.0
 10
180.4899679978245
 20
307.431988135112
 30
0.0
 10
180.4799072546428
 20
306.2924200113114
 30
0.0
 10
180.4554877236555
 20
305.2705874773429
 30
0.0
 10
180.4312891528752
 20
304.2522935116456
 30
0.0
 10
180.4294242737271
 20
303.5720159624763
 30
0.0
 10
180.4284947005536
 20
303.2329228041593
 30
0.0
  0
SPLINE
  5
D5
330
1F
100
AcDbEntity
  8
0
  6
Continuous
 62
     8
370
    18
100
AcDbSpline
210
0.0
220
0.0
230
1.0
 70
     8
 71
     3
 72
    22
 73
    18
 74
     0
 42
0.000000001
 43
0.00000001
 40
0.0
 40
0.0
 40
0.0
 40
0.0
 40
0.125
 40
0.125
 40
0.25
 40
0.25
 40
0.3749999999999999
 40
0.3749999999999999
 40
0.4999999999999999
 40
0.4999999999999999
 40
0.625
 40
0.625
 40
0.75
 40
0.75
 40
0.875
 40
0.875
 40
1.0
 40
1.0
 40
1.0
 40
1.0
 10
222.5443624423035
 20
303.2329228041594
 30
0.0
 10
222.5243345097662
 20
304.5947174270316
 30
0.0
 10
222.5134618298715
 20
305.9516675068488
 30
0.0
 10
222.4477424972623
 20
308.680118411787
 30
0.0
 10
222.3542209602536
 20
310.0527597878935
 30
0.0
 10
221.650644479662
 20
312.7823474809791
 30
0.0
 10
221.0730771902375
 20
314.0474069691567
 30
0.0
 10
219.4890241851968
 20
316.3737356804504
 30
0.0
 10
218.5257168115167
 20
317.3790523472481
 30
0.0
 10
216.2732354614716
 20
319.061456042576
 30
0.0
 10
215.0335694780687
 20
319.6923055923243
 30
0.0
 10
212.3526100118289
 20
320.5232482607979
 30
0.0
 10
210.988535456493
 20
320.6932407853521
 30
0.0
 10
208.268972320923
 20
320.8148573890044
 30
0.0
 10
206.9130868111132
 20
320.808997421524
 30
0.0
 10
204.2005823506235
 20
320.8258370121156
 30
0.0
 10
202.843706215645
 20
320.8290350525512
 30
0.0
 10
201.4864288747878
 20
320.8290395425308
 30
0.0
  0
SPLINE
  5
D6
330
1F
100
AcDbEntity
  8
0
  6
Continuous
 62
     8
370
    18
100
AcDbSpline
210
0.0
220
0.0
230
1.0
 70
     8
 71
     3
 72
     9
 73
     5
 74
     0
 42
0.000000001
 43
0.00000001
 40
0.0
 40
0.0
 40
0.0
 40
0.0
 40
0.8819228390096178
 40
1.0
 40
1.0
 40
1.0
 40
1.0
 10
178.7037526495116
 20
303.2321231648752
 30
0.0
 10
178.7237390927198
 20
301.7919098280469
 30
0.0
 10
178.7464014417647
 20
300.1588720234634
 30
0.0
 10
179.1872233109683
 20
298.6016043037722
 30
0.0
 10
179.2392743057864
 20
298.4177265525291
 30
0.0
  0
SPLINE
  5
D7
330
1F
100
AcDbEntity
  8
0
  6
Continuous
 62
     8
370
    18
100
AcDbSpline
210
0.0
220
0.0
230
1.0
 70
    24
 71
     3
 72
     8
 73
     4
 74
     0
 42
0.000000001
 43
0.00000001
 40
0.0065254188427282
 40
0.0065254188427282
 40
0.0065254188427282
 40
0.0065254188427282
 40
0.3602140803069239
 40
0.3602140803069239
 40
0.3602140803069239
 40
0.3602140803069239
 10
178.703751908351
 20
303.2321239146937
 30
0.0
 10
178.8444883703401
 20
303.232341116352
 30
0.0
 10
179.005828593502
 20
303.2325901162452
 30
0.0
 10
179.1675420618499
 20
303.2328396921759
 30
0.0
  0
LINE
  5
D8
330
1F
100
AcDbEntity
  8
0
  6
Continuous
 62
     8
370
    18
100
AcDbLine
 10
179.1323528863
 20
294.4731312082
 30
0.0
 11
179.1677245177
 21
303.232888712
 31
0.0
  0
SPLINE
  5
D9
330
1F
100
AcDbEntity
  8
0
  6
Continuous
 62
     8
370
    18
100
AcDbSpline
210
0.0
220
0.0
230
1.0
 70
     8
 71
     3
 72
    14
 73
    10
 74
     0
 42
0.000000001
 43
0.00000001
 40
0.0
 40
0.0
 40
0.0
 40
0.0
 40
0.25
 40
0.25
 40
0.5
 40
0.5
 40
0.75
 40
0.75
 40
1.0
 40
1.0
 40
1.0
 40
1.0
 10
179.1675681358263
 20
303.2350344784447
 30
0.0
 10
179.1742655313384
 20
303.2367618391871
 30
0.0
 10
179.2071407865267
 20
303.2382364681937
 30
0.0
 10
179.3356763239106
 20
303.2401702393988
 30
0.0
 10
179.4315915953101
 20
303.2406169118869
 30
0.0
 10
179.6725754296618
 20
303.2402570736054
 30
0.0
 10
179.8170408101739
 20
303.2394514635109
 30
0.0
 10
180.1205282564375
 20
303.2368725933996
 30
0.0
 10
180.278810351919
 20
303.2351125272692
 30
0.0
 10
180.4284980661289
 20
303.2331516514892
 30
0.0
  0
SPLINE
  5
DA
330
1F
100
AcDbEntity
  8
0
  6
Continuous
 62
     8
370
    18
100
AcDbSpline
210
0.0
220
0.0
230
1.0
 70
     8
 71
     3
 72
    14
 73
    10
 74
     0
 42
0.000000001
 43
0.00000001
 40
0.0
 40
0.0
 40
0.0
 40
0.0
 40
0.25
 40
0.25
 40
0.5
 40
0.5
 40
0.75
 40
0.75
 40
1.0
 40
1.0
 40
1.0
 40
1.0
 10
222.5439994548762
 20
303.2335651362608
 30
0.0
 10
222.693691470619
 20
303.2351928924787
 30
0.0
 10
222.8519748239032
 20
303.2366059412426
 30
0.0
 10
223.1554682987662
 20
303.2385329092175
 30
0.0
 10
223.2999389666996
 20
303.2390353486138
 30
0.0
 10
223.5409499835571
 20
303.2389062104915
 30
0.0
 10
223.6368875254391
 20
303.238274955968
 30
0.0
 10
223.76548368427
 20
303.2361164664441
 30
0.0
 10
223.7983968655302
 20
303.2346009710711
 30
0.0
 10
223.8051330978607
 20
303.2328893977294
 30
0.0
  0
SPLINE
  5
DB
330
1F
100
AcDbEntity
  8
0
  6
Continuous
 62
     8
370
    18
100
AcDbSpline
210
0.0
220
0.0
230
1.0
 70
     8
 71
     3
 72
    22
 73
    18
 74
     0
 42
0.000000001
 43
0.00000001
 40
0.0
 40
0.0
 40
0.0
 40
0.0
 40
0.1249999999999999
 40
0.1249999999999999
 40
0.2499999999999998
 40
0.2499999999999998
 40
0.3749999999999997
 40
0.3749999999999997
 40
0.4999999999999996
 40
0.4999999999999996
 40
0.6249999999999996
 40
0.6249999999999996
 40
0.7499999999999997
 40
0.7499999999999997
 40
0.8749999999999998
 40
0.8749999999999998
 40
1.0
 40
1.0
 40
1.0
 40
1.0
 10
201.4864285714285
 20
322.1562732277553
 30
0.0
 10
202.8499760546545
 20
322.1562725378951
 30
0.0
 10
204.2131089104786
 20
322.148031092713
 30
0.0
 10
206.9383241855475
 20
322.1129788582638
 30
0.0
 10
208.2795530390217
 20
322.1071465831232
 30
0.0
 10
211.109494702182
 20
321.9604250093449
 30
0.0
 10
212.5940408630345
 20
321.7732395405151
 30
0.0
 10
215.5466210897247
 20
320.8450330363147
 30
0.0
 10
216.9148494444064
 20
320.142063164622
 30
0.0
 10
219.3882931684256
 20
318.2814724230282
 30
0.0
 10
220.4402838132584
 20
317.1765375223567
 30
0.0
 10
222.1775954108554
 20
314.6149171611507
 30
0.0
 10
222.8153177197166
 20
313.214795049022
 30
0.0
 10
223.593378730527
 20
310.2169436659197
 30
0.0
 10
223.6960689441966
 20
308.7330672975512
 30
0.0
 10
223.7731384188646
 20
305.9400057911367
 30
0.0
 10
223.7861557814684
 20
304.6111208943304
 30
0.0
 10
223.8052922228211
 20
303.2348031909356
 30
0.0
  0
LINE
  5
DC
330
1F
100
AcDbEntity
  8
0
  6
Continuous
 62
     8
370
    18
100
AcDbLine
 10
201.4864285714
 20
322.1562719182
 30
0.0
 11
201.4864282681
 21
320.8290403918
 31
0.0
  0
SPLINE
  5
DD
330
1F
100
AcDbEntity
  8
0
  6
Continuous
 62
     8
370
    18
100
AcDbSpline
210
0.0
220
0.0
230
1.0
 70
     8
 71
     3
 72
    28
 73
    24
 74
     0
 42
0.000000001
 43
0.00000001
 40
0.0
 40
0.0
 40
0.0
 40
0.0
 40
0.0475393791192114
 40
0.0958739345024919
 40
0.1448884176432619
 40
0.1941528612788802
 40
0.2436048527785361
 40
0.287347955972203
 40
0.3458543959143122
 40
0.4190222496649628
 40
0.5065386964114621
 40
0.5507289377390897
 40
0.5945520021992052
 40
0.6379554827151823
 40
0.6809018257435897
 40
0.7233915777693432
 40
0.7653489397508634
 40
0.8184571590114589
 40
0.8645491007165953
 40
0.9043895313060267
 40
0.9396898171674462
 40
0.9713787532793527
 40
1.0
 40
1.0
 40
1.0
 40
1.0
 10
179.167564920036
 20
303.2348031909356
 30
0.0
 10
179.1757187883111
 20
303.7891254172607
 30
0.0
 10
179.1921629120552
 20
304.9070418436973
 30
0.0
 10
179.2201089191634
 20
306.5963475877349
 30
0.0
 10
179.2585835338196
 20
308.3058309572944
 30
0.0
 10
179.4049526023464
 20
310.0243731131429
 30
0.0
 10
179.7204175863571
 20
311.6595056746838
 30
0.0
 10
180.2612874676921
 20
313.3477484124957
 30
0.0
 10
181.1467592801856
 20
315.2010378286176
 30
0.0
 10
182.6285855032171
 20
317.3009657565612
 30
0.0
 10
184.3831836363575
 20
318.9542041764481
 30
0.0
 10
186.0888366191793
 20
320.0927752411503
 30
0.0
 10
187.45587239784
 20
320.7932931370443
 30
0.0
 10
188.8789467813362
 20
321.331060188063
 30
0.0
 10
190.3373044398679
 20
321.7038428737039
 30
0.0
 10
191.8069117335541
 20
321.9344351759973
 30
0.0
 10
193.4076678368294
 20
322.0548526495517
 30
0.0
 10
195.0536207637444
 20
322.0922464219557
 30
0.0
 10
196.6747605024919
 20
322.1221707778647
 30
0.0
 10
198.0884674686363
 20
322.1400175932436
 30
0.0
 10
199.3342737954698
 20
322.1502545431132
 30
0.0
 10
200.4492882885288
 20
322.1554422562372
 30
0.0
 10
201.1526405274273
 20
322.1560057920359
 30
0.0
 10
201.4864285714285
 20
322.1562732277553
 30
0.0
  0
SPLINE
  5
DE
330
1F
100
AcDbEntity
  8
0
  6
Continuous
 62
     8
370
    18
100
AcDbSpline
210
0.0
220
0.0
230
1.0
 70
    24
 71
     3
 72
     8
 73
     4
 74
     0
 42
0.000000001
 43
0.00000001
 40
0.0000024790398112
 40
0.0000024790398112
 40
0.0000024790398112
 40
0.0000024790398112
 40
0.7671742739455352
 40
0.7671742739455352
 40
0.7671742739455352
 40
0.7671742739455352
 10
178.7037500150272
 20
303.2321239117717
 30
0.0
 10
178.5084455254042
 20
303.2318224940835
 30
0.0
 10
178.3528200391813
 20
303.2315823138688
 30
0.0
 10
178.2909397087457
 20
303.2314868126021
 30
0.0
  0
SPLINE
  5
DF
330
1F
100
AcDbEntity
  8
0
  6
Continuous
 62
     8
370
    18
100
AcDbSpline
210
0.0
220
0.0
230
1.0
 70
    24
 71
     3
 72
     8
 73
     4
 74
     0
 42
0.000000001
 43
0.00000001
 40
0.0013999840203585
 40
0.0013999840203585
 40
0.0013999840203585
 40
0.0013999840203585
 40
0.6262686277567391
 40
0.6262686277567391
 40
0.6262686277567391
 40
0.6262686277567391
 10
201.4864285714285
 20
322.1562732277553
 30
0.0
 10
201.4864285714285
 20
323.4684948077011
 30
0.0
 10
201.4864285714285
 20
324.7795684459333
 30
0.0
 10
201.4864285714285
 20
325.5771220215719
 30
0.0
  0
SPLINE
  5
E0
330
1F
100
AcDbEntity
  8
0
  6
Continuous
 62
     8
370
    18
100
AcDbSpline
210
0.0
220
0.0
230
1.0
 70
    24
 71
     3
 72
     8
 73
     4
 74
     0
 42
0.000000001
 43
0.00000001
 40
0.0000024790398112
 40
0.0000024790398112
 40
0.0000024790398112
 40
0.0000024790398112
 40
0.7671742739455352
 40
0.7671742739455352
 40
0.7671742739455352
 40
0.7671742739455352
 10
224.2691071278298
 20
303.2321239117717
 30
0.0
 10
224.4644116174528
 20
303.2318224940835
 30
0.0
 10
224.6200371036757
 20
303.2315823138688
 30
0.0
 10
224.6819174341114
 20
303.2314868126021
 30
0.0
  0
SPLINE
  5
E1
330
1F
100
AcDbEntity
  8
0
  6
Continuous
 62
     8
370
    18
100
AcDbSpline
210
0.0
220
0.0
230
1.0
 70
     8
 71
     3
 72
    29
 73
    25
 74
     0
 42
0.000000001
 43
0.00000001
 40
0.0
 40
0.0
 40
0.0
 40
0.0
 40
0.1250000000000012
 40
0.1250000000000012
 40
0.1875000000000017
 40
0.1875000000000017
 40
0.2500000000000023
 40
0.3125000000000029
 40
0.3125000000000029
 40
0.3750000000000035
 40
0.3750000000000035
 40
0.5000000000000039
 40
0.5000000000000039
 40
0.5625000000000036
 40
0.5625000000000036
 40
0.6250000000000032
 40
0.6250000000000032
 40
0.7500000000000027
 40
0.7500000000000027
 40
0.812500000000002
 40
0.812500000000002
 40
0.8750000000000013
 40
0.8750000000000013
 40
1.0
 40
1.0
 40
1.0
 40
1.0
 10
256.1713874076844
 20
211.2556488047327
 30
0.0
 10
257.3928293935144
 20
211.2553994012318
 30
0.0
 10
258.6009784928933
 20
211.3748569470569
 30
0.0
 10
260.3933946628808
 20
211.7324163788753
 30
0.0
 10
260.9858834476182
 20
211.881533152907
 30
0.0
 10
262.1430132328339
 20
212.23379010907
 30
0.0
 10
263.2775397273941
 20
212.6410262358002
 30
0.0
 10
264.3674515987623
 20
213.1567808549072
 30
0.0
 10
265.4347066791757
 20
213.7276447780566
 30
0.0
 10
265.959805901432
 20
214.042617534439
 30
0.0
 10
267.4751217601191
 20
215.0569015467302
 30
0.0
 10
268.4056128399359
 20
215.8226341691576
 30
0.0
 10
269.6845178319878
 20
217.1024618263941
 30
0.0
 10
270.0912086238581
 20
217.551098554388
 30
0.0
 10
270.8641000236976
 20
218.4938517769022
 30
0.0
 10
271.2265041944997
 20
218.9836778291584
 30
0.0
 10
272.2319996356896
 20
220.4914916086302
 30
0.0
 10
272.7993510367521
 20
221.5537374831638
 30
0.0
 10
273.4945453305061
 20
223.23341706363
 30
0.0
 10
273.7008379722164
 20
223.8108259421315
 30
0.0
 10
274.0522230316537
 20
224.972500733892
 30
0.0
 10
274.1983161862701
 20
225.5583687015644
 30
0.0
 10
274.5497991741211
 20
227.330724130024
 30
0.0
 10
274.6692434548835
 20
228.5318184971852
 30
0.0
 10
274.6689940524103
 20
229.7532554494585
 30
0.0
  0
ARC
  5
E2
330
1F
100
AcDbEntity
  8
0
  6
Continuous
 62
     8
370
    18
100
AcDbCircle
 10
275.0138237545
 20
280.2629393852
 30
0.0
 40
50.51086149741371
100
AcDbArc
 50
269.6088504974
 51
271.2921581455
  0
SPLINE
  5
E3
330
1F
100
AcDbEntity
  8
0
  6
Continuous
 62
     8
370
    18
100
AcDbSpline
210
0.0
220
0.0
230
1.0
 70
     8
 71
     3
 72
    29
 73
    25
 74
     0
 42
0.000000001
 43
0.00000001
 40
0.0
 40
0.0
 40
0.0
 40
0.0
 40
0.1249999999999999
 40
0.1249999999999999
 40
0.1874999999999998
 40
0.1874999999999998
 40
0.2499999999999998
 40
0.2499999999999998
 40
0.3749999999999997
 40
0.3749999999999997
 40
0.4374999999999993
 40
0.4374999999999993
 40
0.4999999999999989
 40
0.4999999999999989
 40
0.6249999999999981
 40
0.6249999999999981
 40
0.6874999999999983
 40
0.6874999999999983
 40
0.7499999999999984
 40
0.8124999999999987
 40
0.8124999999999987
 40
0.8749999999999988
 40
0.8749999999999988
 40
1.0
 40
1.0
 40
1.0
 40
1.0
 10
276.1528678518404
 20
229.7649215048138
 30
0.0
 10
276.1530488644318
 20
228.4447496391392
 30
0.0
 10
276.0238556604002
 20
227.1465781955647
 30
0.0
 10
275.643830021525
 20
225.2309909147963
 30
0.0
 10
275.4858855259374
 20
224.5977792435264
 30
0.0
 10
275.1060185520836
 20
223.3422355217958
 30
0.0
 10
274.883015046609
 20
222.7181736971496
 30
0.0
 10
274.1315323297038
 20
220.9027815496031
 30
0.0
 10
273.5182735957756
 20
219.7547107839336
 30
0.0
 10
272.4314626446502
 20
218.1250694030263
 30
0.0
 10
272.0397569875853
 20
217.5956663805811
 30
0.0
 10
271.2043878349332
 20
216.5767379005088
 30
0.0
 10
270.7648254236066
 20
216.0918469158582
 30
0.0
 10
269.3825603340688
 20
214.7085848159376
 30
0.0
 10
268.3768803392473
 20
213.8809500274079
 30
0.0
 10
266.7391350316594
 20
212.7846441388077
 30
0.0
 10
266.1716118932501
 20
212.4441944039396
 30
0.0
 10
265.0181273112833
 20
211.8271410174941
 30
0.0
 10
263.8401537208798
 20
211.2696414836268
 30
0.0
 10
262.6139560197636
 20
210.8294162591751
 30
0.0
 10
261.3633255556747
 20
210.448608104911
 30
0.0
 10
260.7229605162937
 20
210.2873959560065
 30
0.0
 10
258.7856935594664
 20
209.9008020046325
 30
0.0
 10
257.4798978710137
 20
209.7715939920732
 30
0.0
 10
256.1597213523292
 20
209.7717750053026
 30
0.0
  0
ARC
  5
E4
330
1F
100
AcDbEntity
  8
0
  6
Continuous
 62
     8
370
    18
100
AcDbCircle
 10
205.6617034719
 20
210.9108191027
 30
0.0
 40
50.51086149741376
100
AcDbArc
 50
358.7078418545
 51
0.3911495026
  0
SPLINE
  5
E5
330
1F
100
AcDbEntity
  8
0
  6
Continuous
 62
     8
370
    18
100
AcDbSpline
210
0.0
220
0.0
230
1.0
 70
     8
 71
     3
 72
     8
 73
     4
 74
     0
 42
0.000000001
 43
0.00000001
 40
0.0
 40
0.0
 40
0.0
 40
0.0
 40
1.0
 40
1.0
 40
1.0
 40
1.0
 10
146.8014697351726
 20
211.2556488047326
 30
0.0
 10
183.2578046071241
 20
211.2630927420251
 30
0.0
 10
219.7150517684463
 20
211.2630927421818
 30
0.0
 10
256.1713874076844
 20
211.2556488047327
 30
0.0
  0
SPLINE
  5
E6
330
1F
100
AcDbEntity
  8
0
  6
Continuous
 62
     8
370
    18
100
AcDbSpline
210
0.0
220
0.0
230
1.0
 70
     8
 71
     3
 72
    29
 73
    25
 74
     0
 42
0.000000001
 43
0.00000001
 40
0.0
 40
0.0
 40
0.0
 40
0.0
 40
0.1249999999999991
 40
0.1249999999999991
 40
0.1874999999999987
 40
0.1874999999999987
 40
0.2499999999999982
 40
0.3124999999999978
 40
0.3124999999999978
 40
0.3749999999999973
 40
0.3749999999999973
 40
0.4999999999999972
 40
0.4999999999999972
 40
0.5624999999999977
 40
0.5624999999999977
 40
0.6249999999999981
 40
0.6249999999999981
 40
0.7499999999999991
 40
0.7499999999999991
 40
0.8124999999999992
 40
0.8124999999999992
 40
0.8749999999999993
 40
0.8749999999999993
 40
1.0
 40
1.0
 40
1.0
 40
1.0
 10
128.3038630904468
 20
229.7532554494585
 30
0.0
 10
128.3036136869459
 20
228.5318134636286
 30
0.0
 10
128.4230712327711
 20
227.3236643642496
 30
0.0
 10
128.7806306645895
 20
225.5312481942621
 30
0.0
 10
128.9297474386212
 20
224.9387594095248
 30
0.0
 10
129.2820043947842
 20
223.7816296243089
 30
0.0
 10
129.6892405215143
 20
222.6471031297488
 30
0.0
 10
130.2049951406213
 20
221.5571912583806
 30
0.0
 10
130.7758590637708
 20
220.4899361779672
 30
0.0
 10
131.0908318201532
 20
219.9648369557109
 30
0.0
 10
132.1051158324443
 20
218.4495210970239
 30
0.0
 10
132.8708484548717
 20
217.5190300172071
 30
0.0
 10
134.1506761121082
 20
216.2401250251551
 30
0.0
 10
134.5993128401021
 20
215.8334342332848
 30
0.0
 10
135.5420660626163
 20
215.0605428334453
 30
0.0
 10
136.0318921148726
 20
214.6981386626433
 30
0.0
 10
137.5397058943443
 20
213.6926432214533
 30
0.0
 10
138.6019517688779
 20
213.1252918203908
 30
0.0
 10
140.2816313493441
 20
212.4300975266368
 30
0.0
 10
140.8590402278456
 20
212.2238048849265
 30
0.0
 10
142.0207150196061
 20
211.8724198254893
 30
0.0
 10
142.6065829872785
 20
211.7263266708728
 30
0.0
 10
144.3789384157382
 20
211.3748436830219
 30
0.0
 10
145.5800327828994
 20
211.2553994022595
 30
0.0
 10
146.8014697351726
 20
211.2556488047326
 30
0.0
  0
SPLINE
  5
E7
330
1F
100
AcDbEntity
  8
0
  6
Continuous
 62
     8
370
    18
100
AcDbSpline
210
0.0
220
0.0
230
1.0
 70
     8
 71
     3
 72
     8
 73
     4
 74
     0
 42
0.000000001
 43
0.00000001
 40
0.0
 40
0.0
 40
0.0
 40
0.0
 40
1.0
 40
1.0
 40
1.0
 40
1.0
 10
128.3038630904468
 20
339.1231731219702
 30
0.0
 10
128.3113070277392
 20
302.6668382500187
 30
0.0
 10
128.3113070278959
 20
266.2095910886966
 30
0.0
 10
128.3038630904468
 20
229.7532554494585
 30
0.0
  0
SPLINE
  5
E8
330
1F
100
AcDbEntity
  8
0
  6
Continuous
 62
     8
370
    18
100
AcDbSpline
210
0.0
220
0.0
230
1.0
 70
     8
 71
     3
 72
    29
 73
    25
 74
     0
 42
0.000000001
 43
0.00000001
 40
0.0
 40
0.0
 40
0.0
 40
0.0
 40
0.1250000000000006
 40
0.1250000000000006
 40
0.1875000000000009
 40
0.1875000000000009
 40
0.2500000000000012
 40
0.3125000000000014
 40
0.3125000000000014
 40
0.3750000000000018
 40
0.3750000000000018
 40
0.5000000000000016
 40
0.5000000000000016
 40
0.562500000000001
 40
0.562500000000001
 40
0.6250000000000003
 40
0.6250000000000003
 40
0.7499999999999999
 40
0.7499999999999999
 40
0.8125
 40
0.8125
 40
0.8750000000000001
 40
0.8750000000000001
 40
1.0
 40
1.0
 40
1.0
 40
1.0
 10
146.8014697351726
 20
357.620779766696
 30
0.0
 10
145.5800277493427
 20
357.621029170197
 30
0.0
 10
144.3718786499637
 20
357.5015716243719
 30
0.0
 10
142.5794624799762
 20
357.1440121925534
 30
0.0
 10
141.9869736952389
 20
356.9948954185218
 30
0.0
 10
140.829843910023
 20
356.6426384623588
 30
0.0
 10
139.6953172878532
 20
356.2354026460223
 30
0.0
 10
138.6054055440947
 20
355.7196477165215
 30
0.0
 10
137.5381504636813
 20
355.1487837933722
 30
0.0
 10
137.013051241425
 20
354.8338110369897
 30
0.0
 10
135.497735382738
 20
353.8195270246985
 30
0.0
 10
134.5672443029212
 20
353.0537944022711
 30
0.0
 10
133.2883393108692
 20
351.7739667450346
 30
0.0
 10
132.881648518999
 20
351.3253300170408
 30
0.0
 10
132.1087571191594
 20
350.3825767945266
 30
0.0
 10
131.7463529483574
 20
349.8927507422703
 30
0.0
 10
130.7408575071674
 20
348.3849369627986
 30
0.0
 10
130.173506106105
 20
347.3226910882649
 30
0.0
 10
129.4783118123509
 20
345.6430115077988
 30
0.0
 10
129.2720191706406
 20
345.0656026292973
 30
0.0
 10
128.9206341112034
 20
343.9039278375368
 30
0.0
 10
128.7745409565869
 20
343.3180598698644
 30
0.0
 10
128.423057968736
 20
341.5457044414047
 30
0.0
 10
128.3036136879736
 20
340.3446100742435
 30
0.0
 10
128.3038630904468
 20
339.1231731219702
 30
0.0
  0
SPLINE
  5
E9
330
1F
100
AcDbEntity
  8
0
  6
Continuous
 62
     8
370
    18
100
AcDbSpline
210
0.0
220
0.0
230
1.0
 70
     8
 71
     3
 72
     8
 73
     4
 74
     0
 42
0.000000001
 43
0.00000001
 40
0.0
 40
0.0
 40
0.0
 40
0.0
 40
1.0
 40
1.0
 40
1.0
 40
1.0
 10
256.1713874076844
 20
357.6207797666962
 30
0.0
 10
219.7150525357329
 20
357.6133358294037
 30
0.0
 10
183.2578053744107
 20
357.613335829247
 30
0.0
 10
146.8014697351726
 20
357.620779766696
 30
0.0
  0
SPLINE
  5
EA
330
1F
100
AcDbEntity
  8
0
  6
Continuous
 62
     8
370
    18
100
AcDbSpline
210
0.0
220
0.0
230
1.0
 70
     8
 71
     3
 72
    29
 73
    25
 74
     0
 42
0.000000001
 43
0.00000001
 40
0.0
 40
0.0
 40
0.0
 40
0.0
 40
0.1249999999999997
 40
0.1249999999999997
 40
0.1874999999999995
 40
0.1874999999999995
 40
0.2499999999999993
 40
0.3124999999999992
 40
0.3124999999999992
 40
0.374999999999999
 40
0.374999999999999
 40
0.4999999999999994
 40
0.4999999999999994
 40
0.5624999999999991
 40
0.5624999999999991
 40
0.6249999999999989
 40
0.6249999999999989
 40
0.7499999999999991
 40
0.7499999999999991
 40
0.8124999999999992
 40
0.8124999999999992
 40
0.8749999999999994
 40
0.8749999999999994
 40
1.0
 40
1.0
 40
1.0
 40
1.0
 10
274.6689940524102
 20
339.1231731219703
 30
0.0
 10
274.6692434559112
 20
340.3446151078002
 30
0.0
 10
274.549785910086
 20
341.5527642071792
 30
0.0
 10
274.1922264782675
 20
343.3451803771667
 30
0.0
 10
274.0431097042359
 20
343.937669161904
 30
0.0
 10
273.6908527480729
 20
345.0947989471198
 30
0.0
 10
273.2836169317364
 20
346.2293255692896
 30
0.0
 10
272.7678620022357
 20
347.3192373130482
 30
0.0
 10
272.1969980790863
 20
348.3864923934615
 30
0.0
 10
271.8820253227038
 20
348.9115916157178
 30
0.0
 10
270.8677413104127
 20
350.4269074744049
 30
0.0
 10
270.1020086879853
 20
351.3573985542217
 30
0.0
 10
268.8221810307488
 20
352.6363035462737
 30
0.0
 10
268.3735443027549
 20
353.042994338144
 30
0.0
 10
267.4307910802407
 20
353.8158857379834
 30
0.0
 10
266.9409650279844
 20
354.1782899087855
 30
0.0
 10
265.4331512485127
 20
355.1837853499755
 30
0.0
 10
264.3709053739791
 20
355.751136751038
 30
0.0
 10
262.6912257935129
 20
356.446331044792
 30
0.0
 10
262.1138169150114
 20
356.6526236865023
 30
0.0
 10
260.9521421232509
 20
357.0040087459395
 30
0.0
 10
260.3662741555785
 20
357.150101900556
 30
0.0
 10
258.5939187271189
 20
357.5015848884069
 30
0.0
 10
257.3928243599577
 20
357.6210291691693
 30
0.0
 10
256.1713874076843
 20
357.6207797666962
 30
0.0
  0
SPLINE
  5
EB
330
1F
100
AcDbEntity
  8
0
  6
Continuous
 62
     8
370
    18
100
AcDbSpline
210
0.0
220
0.0
230
1.0
 70
     8
 71
     3
 72
     8
 73
     4
 74
     0
 42
0.000000001
 43
0.00000001
 40
0.0
 40
0.0
 40
0.0
 40
0.0
 40
1.0
 40
1.0
 40
1.0
 40
1.0
 10
274.6689940524103
 20
229.7532554494585
 30
0.0
 10
274.6615501151178
 20
266.20959032141
 30
0.0
 10
274.6615501149611
 20
302.6668374827322
 30
0.0
 10
274.6689940524102
 20
339.1231731219703
 30
0.0
  0
ARC
  5
EC
330
1F
100
AcDbEntity
  8
0
  6
Continuous
 62
     8
370
    18
100
AcDbCircle
 10
197.3111536709
 20
210.9108191027
 30
0.0
 40
50.51086149741376
100
AcDbArc
 50
179.6088504974
 51
181.2921581455
  0
SPLINE
  5
ED
330
1F
100
AcDbEntity
  8
0
  6
Continuous
 62
     8
370
    18
100
AcDbSpline
210
0.0
220
0.0
230
1.0
 70
     8
 71
     3
 72
    29
 73
    25
 74
     0
 42
0.000000001
 43
0.00000001
 40
0.0
 40
0.0
 40
0.0
 40
0.0
 40
0.1249999999999989
 40
0.1249999999999989
 40
0.1874999999999984
 40
0.1874999999999984
 40
0.2499999999999978
 40
0.2499999999999978
 40
0.3749999999999968
 40
0.3749999999999968
 40
0.4374999999999966
 40
0.4374999999999966
 40
0.4999999999999964
 40
0.4999999999999964
 40
0.624999999999997
 40
0.624999999999997
 40
0.6874999999999978
 40
0.6874999999999978
 40
0.7499999999999986
 40
0.8124999999999989
 40
0.8124999999999989
 40
0.8749999999999991
 40
0.8749999999999991
 40
1.0
 40
1.0
 40
1.0
 40
1.0
 10
146.8131357905279
 20
209.7717750053025
 30
0.0
 10
145.4929639248534
 20
209.7715939927111
 30
0.0
 10
144.1947924812788
 20
209.9007871967427
 30
0.0
 10
142.2792052005105
 20
210.2808128356178
 30
0.0
 10
141.6459935292405
 20
210.4387573312055
 30
0.0
 10
140.3904498075099
 20
210.8186243050592
 30
0.0
 10
139.7663879828637
 20
211.0416278105339
 30
0.0
 10
137.9509958353172
 20
211.7931105274391
 30
0.0
 10
136.8029250696477
 20
212.4063692613673
 30
0.0
 10
135.1732836887404
 20
213.4931802124927
 30
0.0
 10
134.6438806662953
 20
213.8848858695576
 30
0.0
 10
133.6249521862229
 20
214.7202550222098
 30
0.0
 10
133.1400612015723
 20
215.1598174335363
 30
0.0
 10
131.7567991016518
 20
216.5420825230741
 30
0.0
 10
130.929164313122
 20
217.5477625178956
 30
0.0
 10
129.8328584245218
 20
219.1855078254835
 30
0.0
 10
129.4924086896535
 20
219.7530309638926
 30
0.0
 10
128.875355303208
 20
220.9065155458595
 30
0.0
 10
128.3178557693411
 20
222.0844891362632
 30
0.0
 10
127.8776305448893
 20
223.3106868373793
 30
0.0
 10
127.4968223906251
 20
224.5613173014682
 30
0.0
 10
127.3356102417206
 20
225.2016823408492
 30
0.0
 10
126.9490162903466
 20
227.1389492976765
 30
0.0
 10
126.8198082777873
 20
228.4447449861293
 30
0.0
 10
126.8199892910167
 20
229.7649215048138
 30
0.0
  0
ARC
  5
EE
330
1F
100
AcDbEntity
  8
0
  6
Continuous
 62
     8
370
    18
100
AcDbCircle
 10
127.9590333884
 20
280.2629393852
 30
0.0
 40
50.51086149741456
100
AcDbArc
 50
268.7078418545
 51
270.3911495026
  0
ARC
  5
EF
330
1F
100
AcDbEntity
  8
0
  6
Continuous
 62
     8
370
    18
100
AcDbCircle
 10
205.6617034719
 20
357.9656094688
 30
0.0
 40
50.51086149741376
100
AcDbArc
 50
359.6088504974
 51
1.2921581455
  0
SPLINE
  5
F0
330
1F
100
AcDbEntity
  8
0
  6
Continuous
 62
     8
370
    18
100
AcDbSpline
210
0.0
220
0.0
230
1.0
 70
     8
 71
     3
 72
    29
 73
    25
 74
     0
 42
0.000000001
 43
0.00000001
 40
0.0
 40
0.0
 40
0.0
 40
0.0
 40
0.1249999999999999
 40
0.1249999999999999
 40
0.1874999999999998
 40
0.1874999999999998
 40
0.2499999999999998
 40
0.2499999999999998
 40
0.3749999999999997
 40
0.3749999999999997
 40
0.4374999999999993
 40
0.4374999999999993
 40
0.4999999999999989
 40
0.4999999999999989
 40
0.6249999999999981
 40
0.6249999999999981
 40
0.6874999999999983
 40
0.6874999999999983
 40
0.7499999999999984
 40
0.8124999999999987
 40
0.8124999999999987
 40
0.8749999999999988
 40
0.8749999999999988
 40
1.0
 40
1.0
 40
1.0
 40
1.0
 10
256.1597213523291
 20
359.1046535661262
 30
0.0
 10
257.4798932180037
 20
359.1048345787177
 30
0.0
 10
258.7780646615782
 20
358.9756413746861
 30
0.0
 10
260.6936519423466
 20
358.5956157358109
 30
0.0
 10
261.3268636136165
 20
358.4376712402233
 30
0.0
 10
262.5824073353471
 20
358.0578042663695
 30
0.0
 10
263.2064691599933
 20
357.8348007608948
 30
0.0
 10
265.0218613075398
 20
357.0833180439897
 30
0.0
 10
266.1699320732093
 20
356.4700593100615
 30
0.0
 10
267.7995734541166
 20
355.383248358936
 30
0.0
 10
268.3289764765618
 20
354.9915427018711
 30
0.0
 10
269.3479049566341
 20
354.156173549219
 30
0.0
 10
269.8327959412848
 20
353.7166111378925
 30
0.0
 10
271.2160580412053
 20
352.3343460483547
 30
0.0
 10
272.043692829735
 20
351.3286660535331
 30
0.0
 10
273.1399987183352
 20
349.6909207459453
 30
0.0
 10
273.4804484532033
 20
349.123397607536
 30
0.0
 10
274.0975018396488
 20
347.9699130255692
 30
0.0
 10
274.6550013735162
 20
346.7919394351657
 30
0.0
 10
275.0952265979678
 20
345.5657417340494
 30
0.0
 10
275.4760347522319
 20
344.3151112699605
 30
0.0
 10
275.6372469011364
 20
343.6747462305796
 30
0.0
 10
276.0238408525104
 20
341.7374792737522
 30
0.0
 10
276.1530488650698
 20
340.4316835852995
 30
0.0
 10
276.1528678518403
 20
339.111507066615
 30
0.0
  0
ARC
  5
F1
330
1F
100
AcDbEntity
  8
0
  6
Continuous
 62
     8
370
    18
100
AcDbCircle
 10
275.0138237545
 20
288.6134891862
 30
0.0
 40
50.51086149741371
100
AcDbArc
 50
88.7078418545
 51
90.3911495026
  0
SPLINE
  5
F2
330
1F
100
AcDbEntity
  8
0
  6
Continuous
 62
     8
370
    18
100
AcDbSpline
210
0.0
220
0.0
230
1.0
 70
     8
 71
     3
 72
    29
 73
    25
 74
     0
 42
0.000000001
 43
0.00000001
 40
0.0
 40
0.0
 40
0.0
 40
0.0
 40
0.1250000000000008
 40
0.1250000000000008
 40
0.1875000000000012
 40
0.1875000000000012
 40
0.2500000000000017
 40
0.2500000000000017
 40
0.3750000000000025
 40
0.3750000000000025
 40
0.4375000000000026
 40
0.4375000000000026
 40
0.5000000000000027
 40
0.5000000000000027
 40
0.6250000000000037
 40
0.6250000000000037
 40
0.6875000000000037
 40
0.6875000000000037
 40
0.7500000000000037
 40
0.812500000000003
 40
0.812500000000003
 40
0.8750000000000022
 40
0.8750000000000022
 40
1.0
 40
1.0
 40
1.0
 40
1.0
 10
126.8199892910167
 20
339.111507066615
 30
0.0
 10
126.8198082784253
 20
340.4316789322895
 30
0.0
 10
126.9490014824568
 20
341.7298503758641
 30
0.0
 10
127.329027121332
 20
343.6454376566325
 30
0.0
 10
127.4869716169196
 20
344.2786493279024
 30
0.0
 10
127.8668385907734
 20
345.534193049633
 30
0.0
 10
128.0898420962481
 20
346.1582548742792
 30
0.0
 10
128.8413248131532
 20
347.9736470218257
 30
0.0
 10
129.4545835470815
 20
349.1217177874952
 30
0.0
 10
130.5413944982069
 20
350.7513591684024
 30
0.0
 10
130.9331001552718
 20
351.2807621908477
 30
0.0
 10
131.7684693079239
 20
352.29969067092
 30
0.0
 10
132.2080317192505
 20
352.7845816555706
 30
0.0
 10
133.5902968087883
 20
354.1678437554912
 30
0.0
 10
134.5959768036098
 20
354.9954785440209
 30
0.0
 10
136.2337221111976
 20
356.091784432621
 30
0.0
 10
136.8012452496068
 20
356.4322341674894
 30
0.0
 10
137.9547298315736
 20
357.0492875539348
 30
0.0
 10
139.1327034219773
 20
357.6067870878018
 30
0.0
 10
140.3589011230934
 20
358.0470123122537
 30
0.0
 10
141.6095315871824
 20
358.4278204665178
 30
0.0
 10
142.2498966265634
 20
358.5890326154222
 30
0.0
 10
144.1871635833907
 20
358.9756265667963
 30
0.0
 10
145.4929592718434
 20
359.1048345793556
 30
0.0
 10
146.8131357905278
 20
359.1046535661262
 30
0.0
  0
ARC
  5
F3
330
1F
100
AcDbEntity
  8
0
  6
Continuous
 62
     8
370
    18
100
AcDbCircle
 10
197.3111536709
 20
357.9656094688
 30
0.0
 40
50.51086149741376
100
AcDbArc
 50
178.7078418545
 51
180.3911495026
  0
ARC
  5
F4
330
1F
100
AcDbEntity
  8
0
  6
Continuous
 62
     8
370
    18
100
AcDbCircle
 10
127.9590333884
 20
288.6134891862
 30
0.0
 40
50.51086149741456
100
AcDbArc
 50
89.6088504974
 51
91.2921581455
  0
SPLINE
  5
F5
330
1F
100
AcDbEntity
  8
0
  6
Continuous
 62
     8
370
    18
100
AcDbSpline
210
0.0
220
0.0
230
1.0
 70
     8
 71
     3
 72
     8
 73
     4
 74
     0
 42
0.000000001
 43
0.00000001
 40
0.0
 40
0.0
 40
0.0
 40
0.0
 40
1.0
 40
1.0
 40
1.0
 40
1.0
 10
126.8199892910167
 20
229.7649215048137
 30
0.0
 10
126.8274149678434
 20
266.2134798401726
 30
0.0
 10
126.8274149676869
 20
302.6629494997848
 30
0.0
 10
126.8199892910167
 20
339.111507066615
 30
0.0
  0
SPLINE
  5
F6
330
1F
100
AcDbEntity
  8
0
  6
Continuous
 62
     8
370
    18
100
AcDbSpline
210
0.0
220
0.0
230
1.0
 70
     8
 71
     3
 72
     8
 73
     4
 74
     0
 42
0.000000001
 43
0.00000001
 40
0.0
 40
0.0
 40
0.0
 40
0.0
 40
1.0
 40
1.0
 40
1.0
 40
1.0
 10
256.1597213523292
 20
209.7717750053026
 30
0.0
 10
219.7111630169703
 20
209.7792006821293
 30
0.0
 10
183.2616933573581
 20
209.7792006819727
 30
0.0
 10
146.8131357905279
 20
209.7717750053025
 30
0.0
  0
SPLINE
  5
F7
330
1F
100
AcDbEntity
  8
0
  6
Continuous
 62
     8
370
    18
100
AcDbSpline
210
0.0
220
0.0
230
1.0
 70
     8
 71
     3
 72
     8
 73
     4
 74
     0
 42
0.000000001
 43
0.00000001
 40
0.0
 40
0.0
 40
0.0
 40
0.0
 40
1.0
 40
1.0
 40
1.0
 40
1.0
 10
276.1528678518403
 20
339.111507066615
 30
0.0
 10
276.1454421750136
 20
302.6629487312562
 30
0.0
 10
276.1454421751702
 20
266.213479071644
 30
0.0
 10
276.1528678518404
 20
229.7649215048138
 30
0.0
  0
SPLINE
  5
F8
330
1F
100
AcDbEntity
  8
0
  6
Continuous
 62
     8
370
    18
100
AcDbSpline
210
0.0
220
0.0
230
1.0
 70
     8
 71
     3
 72
     8
 73
     4
 74
     0
 42
0.000000001
 43
0.00000001
 40
0.0
 40
0.0
 40
0.0
 40
0.0
 40
1.0
 40
1.0
 40
1.0
 40
1.0
 10
146.8131357905278
 20
359.1046535661262
 30
0.0
 10
183.2616941258867
 20
359.0972278892994
 30
0.0
 10
219.7111637854989
 20
359.097227889456
 30
0.0
 10
256.1597213523291
 20
359.1046535661262
 30
0.0
  0
LINE
  5
F9
330
1F
100
AcDbEntity
  8
0
  6
Continuous
 62
     8
370
    18
100
AcDbLine
 10
276.4864315517
 20
339.4450685218
 30
0.0
 11
276.1528690583
 21
339.1115060285
 31
0.0
  0
LINE
  5
FA
330
1F
100
AcDbEntity
  8
0
  6
Continuous
 62
     8
370
    18
100
AcDbLine
 10
256.1597203142
 20
359.1046547726
 30
0.0
 11
256.4932828076
 21
359.4382172659
 31
0.0
  0
LINE
  5
FB
330
1F
100
AcDbEntity
  8
0
  6
Continuous
 62
     8
370
    18
100
AcDbLine
 10
256.4932828076
 20
209.4382113055
 30
0.0
 11
256.1597203142
 21
209.7717737988
 31
0.0
  0
LINE
  5
FC
330
1F
100
AcDbEntity
  8
0
  6
Continuous
 62
     8
370
    18
100
AcDbLine
 10
276.1528690583
 20
229.7649225429
 30
0.0
 11
276.4864315517
 21
229.4313600496
 31
0.0
  0
LINE
  5
FD
330
1F
100
AcDbEntity
  8
0
  6
Continuous
 62
     8
370
    18
100
AcDbLine
 10
146.4795743353
 20
359.4382172659
 30
0.0
 11
146.8131368286
 21
359.1046547726
 31
0.0
  0
LINE
  5
FE
330
1F
100
AcDbEntity
  8
0
  6
Continuous
 62
     8
370
    18
100
AcDbLine
 10
126.8199880845
 20
339.1115060285
 30
0.0
 11
126.4864255912
 21
339.4450685218
 31
0.0
  0
LINE
  5
FF
330
1F
100
AcDbEntity
  8
0
  6
Continuous
 62
     8
370
    18
100
AcDbLine
 10
126.4864255912
 20
229.4313600496
 30
0.0
 11
126.8199880845
 21
229.7649225429
 31
0.0
  0
LINE
  5
100
330
1F
100
AcDbEntity
  8
0
  6
Continuous
 62
     8
370
    18
100
AcDbLine
 10
146.8131368286
 20
209.7717737988
 30
0.0
 11
146.4795743353
 21
209.4382113055
 31
0.0
  0
ARC
  5
101
330
1F
100
AcDbEntity
  8
0
  6
Continuous
 62
     7
370
    25
100
AcDbCircle
 10
201.0798572345
 20
7135.4439530004
 30
0.0
 40
6999.999999999999
100
AcDbArc
 50
269.4043482097
 51
269.8187532682
  0
ARC
  5
102
330
1F
100
AcDbEntity
  8
0
  6
Continuous
 62
     7
370
    25
100
AcDbCircle
 10
201.8929999083
 20
7135.4439530004
 30
0.0
 40
6999.999999999999
100
AcDbArc
 50
270.1812467318
 51
270.5956512281
  0
ARC
  5
103
330
1F
100
AcDbEntity
  8
0
  6
Continuous
 62
     7
370
    25
100
AcDbCircle
 10
274.6478153973
 20
137.322134484
 30
0.0
 40
1.500000000000012
100
AcDbArc
 50
270.718238125
 51
358.498107046
  0
ARC
  5
104
330
1F
100
AcDbEntity
  8
0
  6
Continuous
 62
     7
370
    25
100
AcDbCircle
 10
128.3250417456
 20
137.322134484
 30
0.0
 40
1.500000000000016
100
AcDbArc
 50
181.501892954
 51
269.2000304704
  0
LINE
  5
105
330
1F
100
AcDbEntity
  8
0
  6
Continuous
 62
     7
370
    25
100
AcDbLine
 10
178.6541857994
 20
93.4075997546
 30
0.0
 11
178.7161522783
 21
91.4629982188
 31
0.0
  0
SPLINE
  5
106
330
1F
100
AcDbEntity
  8
0
  6
Continuous
 62
     7
370
    25
100
AcDbSpline
210
0.0
220
0.0
230
1.0
 70
     8
 71
     3
 72
     9
 73
     5
 74
     0
 42
0.000000001
 43
0.00000001
 40
0.0
 40
0.0
 40
0.0
 40
0.0
 40
0.578299517248124
 40
0.9999999999999999
 40
0.9999999999999999
 40
0.9999999999999999
 40
0.9999999999999999
 10
178.2924154079811
 20
108.7268949820936
 30
0.0
 10
178.3322755546771
 20
105.7715989486909
 30
0.0
 10
178.4012020287741
 20
100.6612781801978
 30
0.0
 10
178.5791465211201
 20
95.55916383640053
 30
0.0
 10
178.6541857994454
 20
93.40759975456595
 30
0.0
  0
SPLINE
  5
107
330
1F
100
AcDbEntity
  8
0
  6
Continuous
 62
     7
370
    25
100
AcDbSpline
210
0.0
220
0.0
230
1.0
 70
     8
 71
     3
 72
     9
 73
     5
 74
     0
 42
0.000000001
 43
0.00000001
 40
0.0
 40
0.0
 40
0.0
 40
0.0
 40
0.4209206682090822
 40
0.9999999999999999
 40
0.9999999999999999
 40
0.9999999999999999
 40
0.9999999999999999
 10
224.3192655272143
 20
93.42616660141348
 30
0.0
 10
224.3940667494303
 20
95.57118306989793
 30
0.0
 10
224.5717753483791
 20
100.6671943387458
 30
0.0
 10
224.6405916417148
 20
105.771270783341
 30
0.0
 10
224.6804417348759
 20
108.7269359602869
 30
0.0
  0
LINE
  5
108
330
1F
100
AcDbEntity
  8
0
  6
Continuous
 62
     7
370
    25
100
AcDbLine
 10
224.2567048646
 20
91.4629982188
 30
0.0
 11
224.3192655272
 21
93.4261666014
 31
0.0
  0
LINE
  5
109
330
1F
100
AcDbEntity
  8
0
  6
Continuous
 62
     7
370
    25
100
AcDbLine
 10
178.9364286936
 20
135.5038318186
 30
0.0
 11
178.9364286936
 21
115.4116862788
 31
0.0
  0
LINE
  5
10A
330
1F
100
AcDbEntity
  8
0
  6
Continuous
 62
     7
370
    25
100
AcDbLine
 10
224.0364284492
 20
115.4116862788
 30
0.0
 11
224.0364284492
 21
135.5038252994
 31
0.0
  0
ARC
  5
10B
330
1F
100
AcDbEntity
  8
0
  6
Continuous
 62
     7
370
    25
100
AcDbCircle
 10
179.6364285714
 20
115.4116877512
 30
0.0
 40
0.6999999999999886
100
AcDbArc
 50
180.0
 51
229.0
  0
ARC
  5
10C
330
1F
100
AcDbEntity
  8
0
  6
Continuous
 62
     7
370
    25
100
AcDbCircle
 10
223.3364285714
 20
115.4116877512
 30
0.0
 40
0.700000000000017
100
AcDbArc
 50
311.0
 51
0.0
  0
LINE
  5
10D
330
1F
100
AcDbEntity
  8
0
  6
Continuous
 62
     7
370
    25
100
AcDbLine
 10
179.177186755
 20
114.8833916857
 30
0.0
 11
179.2586923815
 21
114.8125403895
 31
0.0
  0
LINE
  5
10E
330
1F
100
AcDbEntity
  8
0
  6
Continuous
 62
     7
370
    25
100
AcDbLine
 10
223.7141647614
 20
114.8125403895
 30
0.0
 11
223.7956703878
 21
114.8833916857
 31
0.0
  0
ARC
  5
10F
330
1F
100
AcDbEntity
  8
0
  6
Continuous
 62
     7
370
    25
100
AcDbCircle
 10
178.7994508902
 20
114.2842431586
 30
0.0
 40
0.6999999999999972
100
AcDbArc
 50
2.7443153111
 51
49.0
  0
ARC
  5
110
330
1F
100
AcDbEntity
  8
0
  6
Continuous
 62
     7
370
    25
100
AcDbCircle
 10
224.1734062526
 20
114.2842431586
 30
0.0
 40
0.6999999999999972
100
AcDbArc
 50
131.0
 51
177.2556846889
  0
ARC
  5
111
330
1F
100
AcDbEntity
  8
0
  6
Continuous
 62
     7
370
    25
100
AcDbCircle
 10
201.4734172089
 20
115.3710970489
 30
0.0
 40
22.00000000000002
100
AcDbArc
 50
182.7443153111
 51
197.204380411
  0
ARC
  5
112
330
1F
100
AcDbEntity
  8
0
  6
Continuous
 62
     7
370
    25
100
AcDbCircle
 10
201.4994399339
 20
115.3710970489
 30
0.0
 40
22.0
100
AcDbArc
 50
342.7552268684
 51
357.2556846889
  0
SPLINE
  5
113
330
1F
100
AcDbEntity
  8
0
  6
Continuous
 62
     7
370
    25
100
AcDbSpline
210
0.0
220
0.0
230
1.0
 70
     8
 71
     3
 72
    18
 73
    14
 74
     0
 42
0.000000001
 43
0.00000001
 40
0.0
 40
0.0
 40
0.0
 40
0.0
 40
0.0006812423744969
 40
0.111113671972806
 40
0.2278431187628266
 40
0.3512072101511341
 40
0.4713022657691596
 40
0.5413527806630088
 40
0.6088313682684827
 40
0.6794757331231173
 40
0.7610392185704862
 40
0.8846695994074513
 40
1.0
 40
1.0
 40
1.0
 40
1.0
 10
223.891253886308
 20
80.62211660289168
 30
0.0
 10
223.8912465062006
 20
80.62298115369063
 30
0.0
 10
223.8900427777611
 20
80.76399324788228
 30
0.0
 10
223.8760413843447
 20
81.00675718260675
 30
0.0
 10
223.8658647455059
 20
81.30483271132813
 30
0.0
 10
223.8630595105992
 20
81.49795051551136
 30
0.0
 10
223.8637511389144
 20
81.83158921865686
 30
0.0
 10
223.8840333303919
 20
82.4422450389608
 30
0.0
 10
223.9187644453854
 20
83.24972313191122
 30
0.0
 10
223.9712294274676
 20
84.45203490179065
 30
0.0
 10
224.0442412232035
 20
86.17243331380581
 30
0.0
 10
224.129715425439
 20
88.20548532203998
 30
0.0
 10
224.1892405137245
 20
89.722287174535
 30
0.0
 10
224.2179692960636
 20
90.45434606813788
 30
0.0
  0
SPLINE
  5
114
330
1F
100
AcDbEntity
  8
0
  6
Continuous
 62
     7
370
    25
100
AcDbSpline
210
0.0
220
0.0
230
1.0
 70
     8
 71
     3
 72
    14
 73
    10
 74
     0
 42
0.000000001
 43
0.00000001
 40
0.0
 40
0.0
 40
0.0
 40
0.0
 40
0.2113353599276389
 40
0.3804287511022497
 40
0.5416970961810569
 40
0.6933939136965825
 40
0.8358919500593559
 40
0.9742320919438577
 40
1.0
 40
1.0
 40
1.0
 40
1.0
 10
178.853725386347
 20
87.98121152066588
 30
0.0
 10
178.8809642441623
 20
87.31924900918992
 30
0.0
 10
178.9299974237668
 20
86.12763785806246
 30
0.0
 10
178.9993844808359
 20
84.53812284806625
 30
0.0
 10
179.0570525495182
 20
83.24711869515966
 30
0.0
 10
179.098367736464
 20
82.17249725891438
 30
0.0
 10
179.117422075613
 20
81.35333365389508
 30
0.0
 10
179.121447294942
 20
80.87615321603927
 30
0.0
 10
179.1207065866572
 20
80.71692951995654
 30
0.0
 10
179.1205902821677
 20
80.69192854308486
 30
0.0
  0
LINE
  5
115
330
1F
100
AcDbEntity
  8
0
  6
Continuous
 62
     7
370
    25
100
AcDbLine
 10
179.0834491379
 20
80.6053825989
 30
0.0
 11
179.1365419752
 21
80.1791572347
 31
0.0
  0
LINE
  5
116
330
1F
100
AcDbEntity
  8
0
  6
Continuous
 62
     7
370
    25
100
AcDbLine
 10
223.8363151676
 20
80.1791572347
 30
0.0
 11
223.889408005
 21
80.6053825989
 31
0.0
  0
SPLINE
  5
117
330
1F
100
AcDbEntity
  8
0
  6
Continuous
 62
     7
370
    25
100
AcDbSpline
210
0.0
220
0.0
230
1.0
 70
     8
 71
     3
 72
    21
 73
    17
 74
     0
 42
0.000000001
 43
0.00000001
 40
0.0
 40
0.0
 40
0.0
 40
0.0
 40
0.1021272328875327
 40
0.1925268492359315
 40
0.2712205198356342
 40
0.3394685006574297
 40
0.4045339027310397
 40
0.4676339461133215
 40
0.5136691298348036
 40
0.5585989074739758
 40
0.607991491170618
 40
0.6674540526750818
 40
0.7369863279726379
 40
0.8165881762498814
 40
0.90625952609338
 40
1.0
 40
1.0
 40
1.0
 40
1.0
 10
179.1727722860234
 20
80.06713030480742
 30
0.0
 10
179.2299491167903
 20
79.94899032111493
 30
0.0
 10
179.3377369689197
 20
79.72627676875483
 30
0.0
 10
179.546907025508
 20
79.50315163271937
 30
0.0
 10
179.7034869129707
 20
79.36499482935125
 30
0.0
 10
179.7746422626932
 20
79.3071810437528
 30
0.0
 10
179.8398210627241
 20
79.25337450193845
 30
0.0
 10
179.8942767141173
 20
79.20882466865548
 30
0.0
 10
179.9402772430998
 20
79.17114147646845
 30
0.0
 10
179.9799262943446
 20
79.1386906221491
 30
0.0
 10
180.022234946569
 20
79.10402286952734
 30
0.0
 10
180.0716762400966
 20
79.0635366106601
 30
0.0
 10
180.1293479502122
 20
79.01626930321912
 30
0.0
 10
180.1953852091537
 20
78.9621527945677
 30
0.0
 10
180.2680618773056
 20
78.90256617850824
 30
0.0
 10
180.3187001275944
 20
78.86102669604836
 30
0.0
 10
180.344580975856
 20
78.83979616307616
 30
0.0
  0
SPLINE
  5
118
330
1F
100
AcDbEntity
  8
0
  6
Continuous
 62
     7
370
    25
100
AcDbSpline
210
0.0
220
0.0
230
1.0
 70
     8
 71
     3
 72
    20
 73
    16
 74
     0
 42
0.000000001
 43
0.00000001
 40
0.0
 40
0.0
 40
0.0
 40
0.0
 40
0.1071671522336871
 40
0.2071827129470236
 40
0.2940462308654453
 40
0.3677575665586036
 40
0.4283164502584121
 40
0.4798446480011949
 40
0.5323660533748351
 40
0.5954660968261823
 40
0.6605314989710088
 40
0.7287794798675044
 40
0.8074731505533405
 40
0.8978727670006851
 40
1.0
 40
1.0
 40
1.0
 40
1.0
 10
222.628276167001
 20
78.83979616307616
 30
0.0
 10
222.6578644220576
 20
78.86406451512093
 30
0.0
 10
222.7150664175032
 20
78.91098171792594
 30
0.0
 10
222.796337693358
 20
78.9776196717607
 30
0.0
 10
222.8683900931962
 20
79.03666109772648
 30
0.0
 10
222.9295983070573
 20
79.08680797590331
 30
0.0
 10
222.9809184372498
 20
79.12885003090051
 30
0.0
 10
223.026764672325
 20
79.16638141009503
 30
0.0
 10
223.0765594802148
 20
79.20716973097596
 30
0.0
 10
223.1330340958524
 20
79.25337335862156
 30
0.0
 10
223.1982154452797
 20
79.3071813693653
 30
0.0
 10
223.2693700498055
 20
79.36499472559103
 30
0.0
 10
223.4259501764698
 20
79.50315166678398
 30
0.0
 10
223.6351201559415
 20
79.72627675838586
 30
0.0
 10
223.7429080198293
 20
79.9489903175211
 30
0.0
 10
223.8000848568337
 20
80.06713030480742
 30
0.0
  0
SPLINE
  5
119
330
1F
100
AcDbEntity
  8
0
  6
Continuous
 62
     7
370
    25
100
AcDbSpline
210
0.0
220
0.0
230
1.0
 70
     8
 71
     3
 72
    11
 73
     7
 74
     0
 42
0.000000001
 43
0.00000001
 40
0.0
 40
0.0
 40
0.0
 40
0.0
 40
0.3028667444236868
 40
0.6567309574555286
 40
0.8934826158847026
 40
1.0
 40
1.0
 40
1.0
 40
1.0
 10
221.5179906464474
 20
78.49297908686995
 30
0.0
 10
221.6312443149329
 20
78.50114854656007
 30
0.0
 10
221.8768215911087
 20
78.51886306022973
 30
0.0
 10
222.0156063867848
 20
78.55194966066101
 30
0.0
 10
222.1153870034863
 20
78.57823139323206
 30
0.0
 10
222.2036833702156
 20
78.61065171905479
 30
0.0
 10
222.2310819900887
 20
78.62071184062361
 30
0.0
  0
LINE
  5
11A
330
1F
100
AcDbEntity
  8
0
  6
Continuous
 62
     7
370
    25
100
AcDbLine
 10
180.499953521
 20
78.7566029801
 30
0.0
 11
180.7476331718
 21
78.6360078826
 31
0.0
  0
SPLINE
  5
11B
330
1F
100
AcDbEntity
  8
0
  6
Continuous
 62
     7
370
    25
100
AcDbSpline
210
0.0
220
0.0
230
1.0
 70
     8
 71
     3
 72
    17
 73
    13
 74
     0
 42
0.000000001
 43
0.00000001
 40
0.0
 40
0.0
 40
0.0
 40
0.0
 40
0.1314121912574033
 40
0.2621747368560149
 40
0.3638089644615006
 40
0.4331792412784273
 40
0.4721313965216934
 40
0.5358046834637913
 40
0.6255142491959531
 40
0.8025391688571123
 40
0.9024077220769176
 40
1.0
 40
1.0
 40
1.0
 40
1.0
 10
181.6895355708258
 20
78.47627488517165
 30
0.0
 10
182.1712986473157
 20
78.45023895106101
 30
0.0
 10
183.1324431697313
 20
78.39829579336043
 30
0.0
 10
184.5485708076936
 20
78.33849810006224
 30
0.0
 10
185.7042281744252
 20
78.29622213063428
 30
0.0
 10
186.5117750836061
 20
78.2702509640237
 30
0.0
 10
187.172284741523
 20
78.25059306498144
 30
0.0
 10
187.9114165873974
 20
78.23047882810214
 30
0.0
 10
189.186570350432
 20
78.19999805403569
 30
0.0
 10
190.5756889520329
 20
78.17442744884659
 30
0.0
 10
191.9191902924017
 20
78.1561366120157
 30
0.0
 10
192.5618751362475
 20
78.1497005653558
 30
0.0
 10
192.8795132092492
 20
78.1465196385324
 30
0.0
  0
SPLINE
  5
11C
330
1F
100
AcDbEntity
  8
0
  6
Continuous
 62
     7
370
    25
100
AcDbSpline
210
0.0
220
0.0
230
1.0
 70
     8
 71
     3
 72
    17
 73
    13
 74
     0
 42
0.000000001
 43
0.00000001
 40
0.0
 40
0.0
 40
0.0
 40
0.0
 40
0.0975922779230825
 40
0.1974608311428877
 40
0.3744857508040468
 40
0.4641953165362087
 40
0.5278686034783066
 40
0.5668207587215727
 40
0.6361910355384993
 40
0.737825263143985
 40
0.8685878087425967
 40
1.0
 40
1.0
 40
1.0
 40
1.0
 10
210.0933439336078
 20
78.1465196385324
 30
0.0
 10
210.4109820066096
 20
78.14970056535583
 30
0.0
 10
211.0536668504554
 20
78.1561366120157
 30
0.0
 10
212.3971681908241
 20
78.17442744884653
 30
0.0
 10
213.786286792425
 20
78.19999805403572
 30
0.0
 10
215.0614405554597
 20
78.23047882810214
 30
0.0
 10
215.800572401334
 20
78.2505930649815
 30
0.0
 10
216.4610820592509
 20
78.27025096402367
 30
0.0
 10
217.2686289684318
 20
78.29622213063428
 30
0.0
 10
218.4242863351635
 20
78.33849810006221
 30
0.0
 10
219.8404139731257
 20
78.39829579336046
 30
0.0
 10
220.8015584955413
 20
78.45023895106101
 30
0.0
 10
221.2833215720312
 20
78.47627488517165
 30
0.0
  0
SPLINE
  5
11D
330
1F
100
AcDbEntity
  8
0
  6
Continuous
 62
     7
370
    25
100
AcDbSpline
210
0.0
220
0.0
230
1.0
 70
     8
 71
     3
 72
     9
 73
     5
 74
     0
 42
0.000000001
 43
0.00000001
 40
0.0
 40
0.0
 40
0.0
 40
0.0
 40
0.4882248417551118
 40
1.0
 40
1.0
 40
1.0
 40
1.0
 10
192.8797814301507
 20
78.14612475776076
 30
0.0
 10
194.2710732999747
 20
78.1307993756453
 30
0.0
 10
197.1207682577781
 20
78.09940936677073
 30
0.0
 10
200.0085391606409
 20
78.09517606656696
 30
0.0
 10
201.4864285714285
 20
78.09300956868529
 30
0.0
  0
SPLINE
  5
11E
330
1F
100
AcDbEntity
  8
0
  6
Continuous
 62
     7
370
    25
100
AcDbSpline
210
0.0
220
0.0
230
1.0
 70
     8
 71
     3
 72
     9
 73
     5
 74
     0
 42
0.000000001
 43
0.00000001
 40
0.0
 40
0.0
 40
0.0
 40
0.0
 40
0.5117751582448893
 40
1.0
 40
1.0
 40
1.0
 40
1.0
 10
201.4864285714285
 20
78.09300956868529
 30
0.0
 10
202.9643179822161
 20
78.09517606656696
 30
0.0
 10
205.852088885079
 20
78.09940936677073
 30
0.0
 10
208.7017838428824
 20
78.1307993756453
 30
0.0
 10
210.0930757127063
 20
78.14612475776076
 30
0.0
  0
LINE
  5
11F
330
1F
100
AcDbEntity
  8
0
  6
Continuous
 62
     7
370
    25
100
AcDbLine
 10
256.4932828076
 20
150.2336138263
 30
0.0
 11
276.4864315517
 21
150.2336138263
 31
0.0
  0
LINE
  5
120
330
1F
100
AcDbEntity
  8
0
  6
Continuous
 62
     7
370
    25
100
AcDbLine
 10
276.4864315517
 20
150.2336138263
 30
0.0
 11
276.1528690583
 21
137.495443724
 31
0.0
  0
LINE
  5
121
330
1F
100
AcDbEntity
  8
0
  6
Continuous
 62
     7
370
    25
100
AcDbLine
 10
126.4864255912
 20
150.2336138263
 30
0.0
 11
146.4795743353
 21
150.2336138263
 31
0.0
  0
LINE
  5
122
330
1F
100
AcDbEntity
  8
0
  6
Continuous
 62
     7
370
    25
100
AcDbLine
 10
126.8199880845
 20
137.495443724
 30
0.0
 11
126.4864255912
 21
150.2336138263
 31
0.0
  0
SPLINE
  5
123
330
1F
100
AcDbEntity
  8
0
  6
Continuous
 62
     7
370
    25
100
AcDbSpline
210
0.0
220
0.0
230
1.0
 70
     8
 71
     3
 72
    17
 73
    13
 74
     0
 42
0.000000001
 43
0.00000001
 40
0.0
 40
0.0
 40
0.0
 40
0.0
 40
0.0397523057608333
 40
0.1131695485857937
 40
0.2223843625559368
 40
0.334762642115984
 40
0.444004770552523
 40
0.5564167348159053
 40
0.665727216995514
 40
0.7782121586913346
 40
0.887521692612815
 40
1.0
 40
1.0
 40
1.0
 40
1.0
 10
274.6184815890448
 20
136.0415960996687
 30
0.0
 10
274.6042400542689
 20
136.044382166162
 30
0.0
 10
274.5636962913119
 20
136.052313728403
 30
0.0
 10
274.188494333516
 20
136.0653997182858
 30
0.0
 10
273.3695938282094
 20
136.0796487620793
 30
0.0
 10
271.9458494075506
 20
136.0901406478987
 30
0.0
 10
270.0648390853241
 20
136.0950994045572
 30
0.0
 10
267.8062956767171
 20
136.0942291487375
 30
0.0
 10
265.1952246637983
 20
136.087574707932
 30
0.0
 10
262.352068563967
 20
136.0753381089314
 30
0.0
 10
259.3069205785806
 20
136.0580282872637
 30
0.0
 10
257.2264735406482
 20
136.0426398023438
 30
0.0
 10
256.171387923445
 20
136.0348356290996
 30
0.0
  0
SPLINE
  5
124
330
1F
100
AcDbEntity
  8
0
  6
Continuous
 62
     7
370
    25
100
AcDbSpline
210
0.0
220
0.0
230
1.0
 70
     8
 71
     3
 72
    17
 73
    13
 74
     0
 42
0.000000001
 43
0.00000001
 40
0.0
 40
0.0
 40
0.0
 40
0.0
 40
0.0722131216363836
 40
0.1453211556970071
 40
0.254075993558329
 40
0.365980973555167
 40
0.474763010843528
 40
0.586701533675046
 40
0.6955516368234723
 40
0.807562829730998
 40
0.9164119886150407
 40
1.0
 40
1.0
 40
1.0
 40
1.0
 10
146.8014692194121
 20
136.0348356290996
 30
0.0
 10
146.1217019636145
 20
136.0399556715497
 30
0.0
 10
144.7537433297958
 20
136.0502592073782
 30
0.0
 10
142.3915504217792
 20
136.0654525992106
 30
0.0
 10
139.7420331364104
 20
136.0796318296638
 30
0.0
 10
136.9697220326002
 20
136.0901448926824
 30
0.0
 10
134.4512703950798
 20
136.0950989722164
 30
0.0
 10
132.3050347586003
 20
136.094226467073
 30
0.0
 10
130.5475445247586
 20
136.0875856040331
 30
0.0
 10
129.2829339995573
 20
136.0752962816381
 30
0.0
 10
128.5126311377943
 20
136.0596423853444
 30
0.0
 10
128.4147193611802
 20
136.0463117274147
 30
0.0
 10
128.3721898920195
 20
136.0405213534176
 30
0.0
  0
LINE
  5
125
330
1F
100
AcDbEntity
  8
0
  6
Continuous
 62
     7
370
    25
100
AcDbLine
 10
146.4795743353
 20
150.2336138263
 30
0.0
 11
256.4932828076
 21
150.2336138263
 31
0.0
  0
SPLINE
  5
126
330
1F
100
AcDbEntity
  8
0
  6
Continuous
 62
     7
370
    25
100
AcDbSpline
210
0.0
220
0.0
230
1.0
 70
     8
 71
     3
 72
    21
 73
    17
 74
     0
 42
0.000000001
 43
0.00000001
 40
0.0
 40
0.0
 40
0.0
 40
0.0
 40
0.0705694906114434
 40
0.1431854855042097
 40
0.2137549682825616
 40
0.2863709877352931
 40
0.3569403169719885
 40
0.4295561602122029
 40
0.5001254284021283
 40
0.5727412090403783
 40
0.6433105750490702
 40
0.7159264911328725
 40
0.7864960679282818
 40
0.8591122088079147
 40
0.9296820415873652
 40
1.0
 40
1.0
 40
1.0
 40
1.0
 10
185.5418582684653
 20
135.5461390092313
 30
0.0
 10
186.4681836859376
 20
135.5483737929881
 30
0.0
 10
188.3476978143017
 20
135.5529081688841
 30
0.0
 10
191.6452251991934
 20
135.5579788463692
 30
0.0
 10
195.2208073436422
 20
135.5616351747778
 30
0.0
 10
198.9497331275236
 20
135.5635989423838
 30
0.0
 10
202.7826030186899
 20
135.5638807038427
 30
0.0
 10
206.5448682142029
 20
135.5624590898215
 30
0.0
 10
210.1969916922607
 20
135.5593487703304
 30
0.0
 10
213.569993072918
 20
135.5546965200153
 30
0.0
 10
216.6293813948095
 20
135.5485494973545
 30
0.0
 10
219.2322953132351
 20
135.5411967458137
 30
0.0
 10
221.3564571340517
 20
135.532710999191
 30
0.0
 10
222.8865530212964
 20
135.5234918266937
 30
0.0
 10
223.8597606016747
 20
135.5137381279761
 30
0.0
 10
223.9708762669351
 20
135.5071256350467
 30
0.0
 10
224.0263347751753
 20
135.5038252993762
 30
0.0
  0
SPLINE
  5
127
330
1F
100
AcDbEntity
  8
0
  6
Continuous
 62
     7
370
    25
100
AcDbSpline
210
0.0
220
0.0
230
1.0
 70
     8
 71
     3
 72
    13
 73
     9
 74
     0
 42
0.000000001
 43
0.00000001
 40
0.0
 40
0.0
 40
0.0
 40
0.0
 40
0.0845347517010038
 40
0.3023327833266092
 40
0.513992790932402
 40
0.731791028960136
 40
0.8651510599230526
 40
1.0
 40
1.0
 40
1.0
 40
1.0
 10
179.0111505664246
 20
135.5038318186343
 30
0.0
 10
178.9925731415338
 20
135.5051528521314
 30
0.0
 10
178.926132246384
 20
135.5098774384821
 30
0.0
 10
179.4816218254498
 20
135.517862131322
 30
0.0
 10
180.657582739299
 20
135.5275223587095
 30
0.0
 10
182.2387687659471
 20
135.5353286596586
 30
0.0
 10
183.9113438761081
 20
135.5415334803099
 30
0.0
 10
184.9963457465045
 20
135.5445981619327
 30
0.0
 10
185.5418582684653
 20
135.5461390092313
 30
0.0
  0
SPLINE
  5
128
330
1F
100
AcDbEntity
  8
0
  6
Continuous
 62
     7
370
    25
100
AcDbSpline
210
0.0
220
0.0
230
1.0
 70
     8
 71
     3
 72
     9
 73
     5
 74
     0
 42
0.000000001
 43
0.00000001
 40
0.0
 40
0.0
 40
0.0
 40
0.0
 40
0.8388711009676304
 40
0.9999999999999999
 40
0.9999999999999999
 40
0.9999999999999999
 40
0.9999999999999999
 10
276.1528690583365
 20
137.4954437240303
 30
0.0
 10
276.1499754179314
 20
137.3850311450623
 30
0.0
 10
276.1465259721207
 20
137.2534107103607
 30
0.0
 10
276.1477153314927
 20
137.2986024883978
 30
0.0
 10
276.1479069716589
 20
137.3058841898382
 30
0.0
  0
SPLINE
  5
129
330
1F
100
AcDbEntity
  8
0
  6
Continuous
 62
     7
370
    25
100
AcDbSpline
210
0.0
220
0.0
230
1.0
 70
     8
 71
     3
 72
     9
 73
     5
 74
     0
 42
0.000000001
 43
0.00000001
 40
0.0
 40
0.0
 40
0.0
 40
0.0
 40
0.6707413782245192
 40
1.0
 40
1.0
 40
1.0
 40
1.0
 10
126.8249427206175
 20
137.3063274993837
 30
0.0
 10
126.8247977023531
 20
137.311799162095
 30
0.0
 10
126.8245814964217
 20
137.3199567961532
 30
0.0
 10
126.8211258770066
 20
137.4519754454982
 30
0.0
 10
126.8199880845205
 20
137.4954437240303
 30
0.0
  0
SPLINE
  5
12A
330
1F
100
AcDbEntity
  8
0
  6
Continuous
 62
     7
370
    25
100
AcDbSpline
210
0.0
220
0.0
230
1.0
 70
     8
 71
     3
 72
     8
 73
     4
 74
     0
 42
0.000000001
 43
0.00000001
 40
0.0
 40
0.0
 40
0.0
 40
0.0
 40
1.0
 40
1.0
 40
1.0
 40
1.0
 10
224.6819174341117
 20
108.8667599080321
 30
0.0
 10
224.677046282256
 20
109.0528606071467
 30
0.0
 10
224.6556807057683
 20
109.2387389133749
 30
0.0
 10
224.6176444283955
 20
109.4243924498462
 30
0.0
  0
SPLINE
  5
12B
330
1F
100
AcDbEntity
  8
0
  6
Continuous
 62
     7
370
    25
100
AcDbSpline
210
0.0
220
0.0
230
1.0
 70
     8
 71
     3
 72
    18
 73
    14
 74
     0
 42
0.000000001
 43
0.00000001
 40
0.0
 40
0.0
 40
0.0
 40
0.0
 40
0.0916979562024141
 40
0.1945445631903832
 40
0.2968351701680212
 40
0.3799620074002201
 40
0.4629951152540558
 40
0.5466957182108195
 40
0.6303876885647167
 40
0.7250761062611358
 40
0.8200183336812538
 40
0.9099862325349616
 40
1.0
 40
1.0
 40
1.0
 40
1.0
 10
224.663841841306
 20
108.7272339835107
 30
0.0
 10
224.6387652884137
 20
108.3341509760706
 30
0.0
 10
224.5855633716994
 20
107.500193872259
 30
0.0
 10
223.9736731855974
 20
106.2413889433953
 30
0.0
 10
222.9482064706337
 20
105.0533139794957
 30
0.0
 10
221.5190270194055
 20
104.0079910697268
 30
0.0
 10
219.7647371535636
 20
103.1152981198515
 30
0.0
 10
217.5528973318225
 20
102.3459443774791
 30
0.0
 10
214.8465234904323
 20
101.698771326368
 30
0.0
 10
211.6838323162217
 20
101.231684629818
 30
0.0
 10
208.2850742786337
 20
100.9321328081904
 30
0.0
 10
204.8695388076371
 20
100.7613162684592
 30
0.0
 10
202.6143235652177
 20
100.7428497212225
 30
0.0
 10
201.4864285714285
 20
100.7336140944898
 30
0.0
  0
SPLINE
  5
12C
330
1F
100
AcDbEntity
  8
0
  6
Continuous
 62
     7
370
    25
100
AcDbSpline
210
0.0
220
0.0
230
1.0
 70
     8
 71
     3
 72
    34
 73
    30
 74
     0
 42
0.000000001
 43
0.00000001
 40
0.0
 40
0.0
 40
0.0
 40
0.0
 40
0.1250000000000002
 40
0.1250000000000002
 40
0.2500000000000004
 40
0.2500000000000004
 40
0.2812500000000004
 40
0.2812500000000004
 40
0.3125000000000005
 40
0.3125000000000005
 40
0.3750000000000004
 40
0.3750000000000004
 40
0.4375000000000004
 40
0.4375000000000004
 40
0.5000000000000004
 40
0.5000000000000004
 40
0.6250000000000004
 40
0.6250000000000004
 40
0.6562500000000003
 40
0.6562500000000003
 40
0.6875000000000003
 40
0.6875000000000003
 40
0.7500000000000002
 40
0.7500000000000002
 40
0.8125000000000002
 40
0.8125000000000002
 40
0.8750000000000002
 40
0.8750000000000002
 40
1.0
 40
1.0
 40
1.0
 40
1.0
 10
178.2909397087469
 20
108.8667599079425
 30
0.0
 10
178.2767429694861
 20
108.3223876658768
 30
0.0
 10
178.3755476747243
 20
107.7844945001607
 30
0.0
 10
178.7732074754319
 20
106.7201783026119
 30
0.0
 10
179.0743380431425
 20
106.1938857378952
 30
0.0
 10
179.6245451570143
 20
105.5459847183566
 30
0.0
 10
179.7434174815983
 20
105.41691084502
 30
0.0
 10
180.0004789023718
 20
105.1598706491054
 30
0.0
 10
180.139074352382
 20
105.0315598384632
 30
0.0
 10
180.58367674729
 20
104.6510140755989
 30
0.0
 10
180.9166965004299
 20
104.4044665219748
 30
0.0
 10
181.6630015995058
 20
103.9270431107327
 30
0.0
 10
182.0761850498556
 20
103.6961473582058
 30
0.0
 10
182.9926858432374
 20
103.2519543149179
 30
0.0
 10
183.4998621868667
 20
103.037417833128
 30
0.0
 10
185.1230839406952
 20
102.4415859799056
 30
0.0
 10
186.3494072585982
 20
102.1027133203309
 30
0.0
 10
188.065454359785
 20
101.7532414125643
 30
0.0
 10
188.4177465684996
 20
101.6870886495143
 30
0.0
 10
189.1282383402485
 20
101.563950505753
 30
0.0
 10
189.4878917227753
 20
101.5066614858299
 30
0.0
 10
190.5790994463212
 20
101.346687858007
 30
0.0
 10
191.3228069008656
 20
101.255804951036
 30
0.0
 10
192.8358151723031
 20
101.0988924561692
 30
0.0
 10
193.6044147908058
 20
101.0321819453413
 30
0.0
 10
195.1620929170763
 20
100.9186476569049
 30
0.0
 10
195.9483339289789
 20
100.872674136934
 30
0.0
 10
198.3091988317617
 20
100.7652488106236
 30
0.0
 10
199.8936424357335
 20
100.7336030196683
 30
0.0
 10
201.4864285714285
 20
100.7336138262689
 30
0.0
  0
SPLINE
  5
12D
330
1F
100
AcDbEntity
  8
0
  6
Continuous
 62
     7
370
    25
100
AcDbSpline
210
0.0
220
0.0
230
1.0
 70
     8
 71
     3
 72
     8
 73
     4
 74
     0
 42
0.000000001
 43
0.00000001
 40
0.0
 40
0.0
 40
0.0
 40
0.0
 40
1.0
 40
1.0
 40
1.0
 40
1.0
 10
178.2909397087453
 20
108.8667599080321
 30
0.0
 10
178.295810860601
 20
109.0528606071467
 30
0.0
 10
178.3171764370887
 20
109.2387389133749
 30
0.0
 10
178.3552127144615
 20
109.4243924498462
 30
0.0
  0
SPLINE
  5
12E
330
1F
100
AcDbEntity
  8
0
  6
Continuous
 62
     7
370
    25
100
AcDbSpline
210
0.0
220
0.0
230
1.0
 70
     8
 71
     3
 72
    26
 73
    22
 74
     0
 42
0.000000001
 43
0.00000001
 40
0.0
 40
0.0
 40
0.0
 40
0.0
 40
0.0236637822005665
 40
0.0750610841597653
 40
0.1317965974823887
 40
0.1901773807774665
 40
0.2469136855920642
 40
0.3052952927000483
 40
0.362033777547683
 40
0.4204175478955146
 40
0.4771586621937209
 40
0.5355451749930755
 40
0.5922878274091816
 40
0.6506760472435561
 40
0.7074179836552356
 40
0.7658055633147124
 40
0.822545142740242
 40
0.8809302918295595
 40
0.9376673729790039
 40
0.9960499063347075
 40
1.0
 40
1.0
 40
1.0
 40
1.0
 10
222.4577156133311
 20
108.8641458525598
 30
0.0
 10
222.4180538916704
 20
108.6975361937632
 30
0.0
 10
222.2922476362605
 20
108.169053404547
 30
0.0
 10
221.5515489510411
 20
107.2669652840618
 30
0.0
 10
220.2025580610426
 20
106.1829610669531
 30
0.0
 10
218.2506717351976
 20
105.1622122436777
 30
0.0
 10
215.811266164093
 20
104.2591135351677
 30
0.0
 10
212.9869156891511
 20
103.5158790884534
 30
0.0
 10
209.8094970447574
 20
102.9400772472518
 30
0.0
 10
206.4253310465635
 20
102.558385518791
 30
0.0
 10
202.8695202448926
 20
102.3747507889188
 30
0.0
 10
199.3066058746995
 20
102.397679712301
 30
0.0
 10
195.7733919595633
 20
102.6269500267846
 30
0.0
 10
192.4334315633365
 20
103.0519551571458
 30
0.0
 10
189.3214040935337
 20
103.6683087953424
 30
0.0
 10
186.580647205333
 20
104.4474498408047
 30
0.0
 10
184.2424074852645
 20
105.3814129209841
 30
0.0
 10
182.4037641771058
 20
106.4266823184658
 30
0.0
 10
181.1255365262946
 20
107.5734048429018
 30
0.0
 10
180.5610198316843
 20
108.3990444346627
 30
0.0
 10
180.4723819961296
 20
108.8378786686783
 30
0.0
 10
180.4667649097102
 20
108.8656881227434
 30
0.0
  0
LINE
  5
12F
330
1F
100
AcDbEntity
  8
0
  6
Continuous
 62
     7
370
    25
100
AcDbLine
 10
178.7037526495
 20
91.7950519695
 30
0.0
 11
178.8568583555
 21
87.9813381805
 31
0.0
  0
SPLINE
  5
130
330
1F
100
AcDbEntity
  8
0
  6
Continuous
 62
     7
370
    25
100
AcDbSpline
210
0.0
220
0.0
230
1.0
 70
     8
 71
     3
 72
     9
 73
     5
 74
     0
 42
0.000000001
 43
0.00000001
 40
0.0
 40
0.0
 40
0.0
 40
0.0
 40
0.6319515537862955
 40
0.9999999999999999
 40
0.9999999999999999
 40
0.9999999999999999
 40
0.9999999999999999
 10
178.7037507868664
 20
91.79510412358641
 30
0.0
 10
178.6493032793011
 20
93.29353410178113
 30
0.0
 10
178.5631455552809
 20
95.66464937037566
 30
0.0
 10
178.5015386503937
 20
98.03651831622278
 30
0.0
 10
178.478864324774
 20
98.90948099636435
 30
0.0
  0
SPLINE
  5
131
330
1F
100
AcDbEntity
  8
0
  6
Continuous
 62
     7
370
    25
100
AcDbSpline
210
0.0
220
0.0
230
1.0
 70
     8
 71
     3
 72
     9
 73
     5
 74
     0
 42
0.000000001
 43
0.00000001
 40
0.0
 40
0.0
 40
0.0
 40
0.0
 40
0.6321243097616218
 40
1.0
 40
1.0
 40
1.0
 40
1.0
 10
224.2691063559906
 20
91.79510412358641
 30
0.0
 10
224.3235546074851
 20
93.2935340784278
 30
0.0
 10
224.4096899619615
 20
95.6640012977734
 30
0.0
 10
224.4712823293518
 20
98.03522195781008
 30
0.0
 10
224.4939406640189
 20
98.90753639482855
 30
0.0
  0
LINE
  5
132
330
1F
100
AcDbEntity
  8
0
  6
Continuous
 62
     7
370
    25
100
AcDbLine
 10
224.255978433
 20
91.4680981412
 30
0.0
 11
224.2152852244
 21
90.4544541016
 31
0.0
  0
SPLINE
  5
133
330
1F
100
AcDbEntity
  8
0
  6
Continuous
 62
     7
370
    25
100
AcDbSpline
210
0.0
220
0.0
230
1.0
 70
     8
 71
     3
 72
     9
 73
     5
 74
     0
 42
0.000000001
 43
0.00000001
 40
0.0
 40
0.0
 40
0.0
 40
0.0
 40
0.7714621860791343
 40
1.0
 40
1.0
 40
1.0
 40
1.0
 10
179.1500219381707
 20
80.18122104548812
 30
0.0
 10
179.1514074943387
 20
80.1506168776844
 30
0.0
 10
179.1532035074072
 20
80.11094653692635
 30
0.0
 10
179.1708589114129
 20
80.07608171225853
 30
0.0
 10
179.1748938388483
 20
80.06811378144621
 30
0.0
  0
SPLINE
  5
134
330
1F
100
AcDbEntity
  8
0
  6
Continuous
 62
     7
370
    25
100
AcDbSpline
210
0.0
220
0.0
230
1.0
 70
     8
 71
     3
 72
     9
 73
     5
 74
     0
 42
0.000000001
 43
0.00000001
 40
0.0
 40
0.0
 40
0.0
 40
0.0
 40
0.770738261753608
 40
0.9999999999999999
 40
0.9999999999999999
 40
0.9999999999999999
 40
0.9999999999999999
 10
223.8228575564282
 20
80.18122849606871
 30
0.0
 10
223.8214564642953
 20
80.15065581439603
 30
0.0
 10
223.8196386070505
 20
80.11098906474865
 30
0.0
 10
223.8019755209321
 20
80.07612835915
 30
0.0
 10
223.7979260511057
 20
80.068136133188
 30
0.0
  0
SPLINE
  5
135
330
1F
100
AcDbEntity
  8
0
  6
Continuous
 62
     7
370
    25
100
AcDbSpline
210
0.0
220
0.0
230
1.0
 70
     8
 71
     3
 72
    10
 73
     6
 74
     0
 42
0.000000001
 43
0.00000001
 40
0.0
 40
0.0
 40
0.0
 40
0.0
 40
0.3055485349837626
 40
0.6154023099518477
 40
1.0
 40
1.0
 40
1.0
 40
1.0
 10
224.6176445163147
 20
109.4243922605455
 30
0.0
 10
224.5442639987351
 20
109.6659532679261
 30
0.0
 10
224.3964690174029
 20
110.1524789256068
 30
0.0
 10
223.8933945753521
 20
110.7242752115963
 30
0.0
 10
223.3095617133879
 20
110.9304332587286
 30
0.0
 10
222.9862262732642
 20
111.0446066930234
 30
0.0
  0
SPLINE
  5
136
330
1F
100
AcDbEntity
  8
0
  6
Continuous
 62
     7
370
    25
100
AcDbSpline
210
0.0
220
0.0
230
1.0
 70
     8
 71
     3
 72
    10
 73
     6
 74
     0
 42
0.000000001
 43
0.00000001
 40
0.0
 40
0.0
 40
0.0
 40
0.0
 40
0.3044354627184195
 40
0.6131604820102676
 40
1.0
 40
1.0
 40
1.0
 40
1.0
 10
178.3552126265423
 20
109.4243922605455
 30
0.0
 10
178.4285720245913
 20
109.6659705012269
 30
0.0
 10
178.5763244692836
 20
110.1525308683298
 30
0.0
 10
179.081588040655
 20
110.7261323172809
 30
0.0
 10
179.6686651839723
 20
110.9332387567349
 30
0.0
 10
179.995169234957
 20
111.0484213902891
 30
0.0
  0
ARC
  5
137
330
1F
100
AcDbEntity
  8
0
  6
Continuous
 62
     7
370
    25
100
AcDbCircle
 10
181.1484251684
 20
79.8247952842
 30
0.0
 40
1.271377515723688
100
AcDbArc
 50
230.7610915396
 51
267.0570025202
  0
LINE
  5
138
330
1F
100
AcDbEntity
  8
0
  6
Continuous
 62
     7
370
    25
100
AcDbLine
 10
222.628648696
 20
78.8400941863
 30
0.0
 11
222.6039909995
 21
78.8204619064
 31
0.0
  0
SPLINE
  5
139
330
1F
100
AcDbEntity
  8
0
  6
Continuous
 62
     7
370
    25
100
AcDbSpline
210
0.0
220
0.0
230
1.0
 70
     8
 71
     3
 72
     9
 73
     5
 74
     0
 42
0.000000001
 43
0.00000001
 40
0.0
 40
0.0
 40
0.0
 40
0.0
 40
0.6652657186825747
 40
1.0
 40
1.0
 40
1.0
 40
1.0
 10
222.5740601546423
 20
78.79790899896025
 30
0.0
 10
222.5032934198273
 20
78.74702453012655
 30
0.0
 10
222.396919781704
 20
78.67053709449785
 30
0.0
 10
222.2696074299187
 20
78.64571121432007
 30
0.0
 10
222.226991621341
 20
78.63740114116072
 30
0.0
  0
SPLINE
  5
13A
330
1F
100
AcDbEntity
  8
0
  6
Continuous
 62
     7
370
    25
100
AcDbSpline
210
0.0
220
0.0
230
1.0
 70
     8
 71
     3
 72
     9
 73
     5
 74
     0
 42
0.000000001
 43
0.00000001
 40
0.0
 40
0.0
 40
0.0
 40
0.0
 40
0.176651475500708
 40
1.0
 40
1.0
 40
1.0
 40
1.0
 10
221.518109855737
 20
78.49023727321028
 30
0.0
 10
221.5127455581276
 20
78.48954040449355
 30
0.0
 10
221.4823789982438
 20
78.4855955253764
 30
0.0
 10
221.3731514594492
 20
78.48155428587152
 30
0.0
 10
221.283219126548
 20
78.47822693728804
 30
0.0
  0
SPLINE
  5
13B
330
1F
100
AcDbEntity
  8
0
  6
Continuous
 62
     7
370
    25
100
AcDbSpline
210
0.0
220
0.0
230
1.0
 70
     8
 71
     3
 72
    10
 73
     6
 74
     0
 42
0.000000001
 43
0.00000001
 40
0.0
 40
0.0
 40
0.0
 40
0.0
 40
0.4383655561288554
 40
0.8776231060583332
 40
1.0
 40
1.0
 40
1.0
 40
1.0
 10
181.0836338675873
 20
78.55472949885726
 30
0.0
 10
181.1055725737712
 20
78.54448127382763
 30
0.0
 10
181.1494946273971
 20
78.52396397050315
 30
0.0
 10
181.260979256947
 20
78.4966889360266
 30
0.0
 10
181.6129464110217
 20
78.48152998496677
 30
0.0
 10
181.689638016309
 20
78.47822693728804
 30
0.0
  0
LINE
  5
13C
330
1F
100
AcDbEntity
  8
0
  6
Continuous
 62
     7
370
    25
100
AcDbLine
 10
210.0960131041
 20
78.1583139076
 30
0.0
 11
210.0953723542
 21
78.1568237915
 31
0.0
  0
SPLINE
  5
13D
330
1F
100
AcDbEntity
  8
0
  6
Continuous
 62
     8
370
    18
100
AcDbSpline
210
0.0
220
0.0
230
1.0
 70
     8
 71
     3
 72
    29
 73
    25
 74
     0
 42
0.000000001
 43
0.00000001
 40
0.0
 40
0.0
 40
0.0
 40
0.0
 40
0.1249999999999999
 40
0.1249999999999999
 40
0.1874999999999998
 40
0.1874999999999998
 40
0.2499999999999998
 40
0.2499999999999998
 40
0.3749999999999997
 40
0.3749999999999997
 40
0.4374999999999993
 40
0.4374999999999993
 40
0.4999999999999989
 40
0.4999999999999989
 40
0.6249999999999981
 40
0.6249999999999981
 40
0.6874999999999983
 40
0.6874999999999983
 40
0.7499999999999984
 40
0.8124999999999987
 40
0.8124999999999987
 40
0.8749999999999988
 40
0.8749999999999988
 40
1.0
 40
1.0
 40
1.0
 40
1.0
 10
256.1597213523291
 20
137.495443863188
 30
0.0
 10
257.4798932180037
 20
137.5023564551693
 30
0.0
 10
258.7780646615782
 20
137.5084773987443
 30
0.0
 10
260.6936519423466
 20
137.5165184746327
 30
0.0
 10
261.3268636136165
 20
137.5190073709675
 30
0.0
 10
262.5824073353471
 20
137.523593314557
 30
0.0
 10
263.2064691599933
 20
137.5256937603345
 30
0.0
 10
265.0218613075398
 20
137.5312658868042
 30
0.0
 10
266.1699320732093
 20
137.5340671379039
 30
0.0
 10
267.7995734541166
 20
137.536910434805
 30
0.0
 10
268.3289764765618
 20
137.5376316956713
 30
0.0
 10
269.3479049566341
 20
137.5385931862821
 30
0.0
 10
269.8327959412848
 20
137.5388306219535
 30
0.0
 10
271.2160580412053
 20
137.5388358443736
 30
0.0
 10
272.043692829735
 20
137.5379032139905
 30
0.0
 10
273.1399987183352
 20
137.5350672014754
 30
0.0
 10
273.4804484532033
 20
137.5338778253804
 30
0.0
 10
274.0975018396488
 20
137.5310681585797
 30
0.0
 10
274.6550013735162
 20
137.527818366217
 30
0.0
 10
275.0952265979678
 20
137.523702021512
 30
0.0
 10
275.4760347522319
 20
137.5191467312027
 30
0.0
 10
275.6372469011364
 20
137.5166374810675
 30
0.0
 10
276.0238408525104
 20
137.5085172645904
 30
0.0
 10
276.1530488650698
 20
137.5023564795337
 30
0.0
 10
276.1528678518403
 20
137.4954438631886
 30
0.0
  0
LINE
  5
13E
330
1F
100
AcDbEntity
  8
0
  6
Continuous
 62
     8
370
    18
100
AcDbLine
 10
256.1597203142
 20
137.495443724
 30
0.0
 11
256.4932828076
 21
150.2336138263
 31
0.0
  0
LINE
  5
13F
330
1F
100
AcDbEntity
  8
0
  6
Continuous
 62
     8
370
    18
100
AcDbLine
 10
146.4795743353
 20
150.2336138263
 30
0.0
 11
146.8131368286
 21
137.495443724
 31
0.0
  0
SPLINE
  5
140
330
1F
100
AcDbEntity
  8
0
  6
Continuous
 62
     8
370
    18
100
AcDbSpline
210
0.0
220
0.0
230
1.0
 70
     8
 71
     3
 72
    29
 73
    25
 74
     0
 42
0.000000001
 43
0.00000001
 40
0.0
 40
0.0
 40
0.0
 40
0.0
 40
0.1250000000000008
 40
0.1250000000000008
 40
0.1875000000000012
 40
0.1875000000000012
 40
0.2500000000000017
 40
0.2500000000000017
 40
0.3750000000000025
 40
0.3750000000000025
 40
0.4375000000000026
 40
0.4375000000000026
 40
0.5000000000000027
 40
0.5000000000000027
 40
0.6250000000000037
 40
0.6250000000000037
 40
0.6875000000000037
 40
0.6875000000000037
 40
0.7500000000000037
 40
0.812500000000003
 40
0.812500000000003
 40
0.8750000000000022
 40
0.8750000000000022
 40
1.0
 40
1.0
 40
1.0
 40
1.0
 10
126.8199892910167
 20
137.4954438631881
 30
0.0
 10
126.8198082784253
 20
137.5023564551695
 30
0.0
 10
126.9490014824568
 20
137.5084773987444
 30
0.0
 10
127.329027121332
 20
137.5165184746328
 30
0.0
 10
127.4869716169196
 20
137.5190073709676
 30
0.0
 10
127.8668385907734
 20
137.5235933145571
 30
0.0
 10
128.0898420962481
 20
137.5256937603347
 30
0.0
 10
128.8413248131532
 20
137.5312658868044
 30
0.0
 10
129.4545835470815
 20
137.534067137904
 30
0.0
 10
130.5413944982069
 20
137.5369104348052
 30
0.0
 10
130.9331001552718
 20
137.5376316956706
 30
0.0
 10
131.7684693079239
 20
137.5385931862813
 30
0.0
 10
132.2080317192505
 20
137.5388306219519
 30
0.0
 10
133.5902968087883
 20
137.5388358443719
 30
0.0
 10
134.5959768036098
 20
137.5379032139906
 30
0.0
 10
136.2337221111976
 20
137.5350672014756
 30
0.0
 10
136.8012452496068
 20
137.5338778253805
 30
0.0
 10
137.9547298315736
 20
137.5310681585799
 30
0.0
 10
139.1327034219773
 20
137.5278183662171
 30
0.0
 10
140.3589011230934
 20
137.5237020215122
 30
0.0
 10
141.6095315871824
 20
137.5191467312028
 30
0.0
 10
142.2498966265634
 20
137.5166374810676
 30
0.0
 10
144.1871635833907
 20
137.5085172645905
 30
0.0
 10
145.4929592718434
 20
137.5023564795338
 30
0.0
 10
146.8131357905278
 20
137.4954438631887
 30
0.0
  0
LINE
  5
141
330
1F
100
AcDbEntity
  8
0
  6
Continuous
 62
     8
370
    18
100
AcDbLine
 10
274.6689965255
 20
136.0348356291
 30
0.0
 11
274.618481589
 21
136.0415960997
 31
0.0
  0
LWPOLYLINE
  5
142
330
1F
100
AcDbEntity
  8
0
  6
Continuous
 62
     8
370
    18
100
AcDbPolyline
 90
        9
 70
   128
 43
0.0
 10
256.1597203142
 20
137.495443724
 10
256.1619480378
 20
137.2103658839
 10
256.1640900798
 20
136.9371810331
 10
256.1660719342
 20
136.6859036832
 10
256.1678228206
 20
136.4657492711
 10
256.1692756838
 20
136.284787707
 10
256.1703783698
 20
136.1496565267
 10
256.1710936255
 20
136.0653075724
 10
256.1713879234
 20
136.0348356291
  0
ARC
  5
143
330
1F
100
AcDbEntity
  8
0
  6
Continuous
 62
     8
370
    18
100
AcDbCircle
 10
274.6534088324
 20
137.5347294114
 30
0.0
 40
1.499974777870268
100
AcDbArc
 50
270.5954267449
 51
358.4992004321
  0
LWPOLYLINE
  5
144
330
1F
100
AcDbEntity
  8
0
  6
Continuous
 62
     8
370
    18
100
AcDbPolyline
 90
        9
 70
   128
 43
0.0
 10
146.8131368286
 20
137.495443724
 10
146.810909105
 20
137.2103658839
 10
146.8087670631
 20
136.9371810331
 10
146.8067852087
 20
136.6859036832
 10
146.8050343222
 20
136.4657492711
 10
146.803581459
 20
136.284787707
 10
146.8024787731
 20
136.1496565267
 10
146.8017635173
 20
136.0653075724
 10
146.8014692194
 20
136.0348356291
  0
LINE
  5
145
330
1F
100
AcDbEntity
  8
0
  6
Continuous
 62
     8
370
    18
100
AcDbLine
 10
128.372189892
 20
136.0405213534
 30
0.0
 11
128.3038606174
 21
136.0348356291
 31
0.0
  0
ARC
  5
146
330
1F
100
AcDbEntity
  8
0
  6
Continuous
 62
     8
370
    18
100
AcDbCircle
 10
128.3194483104
 20
137.5347294114
 30
0.0
 40
1.49997477787027
100
AcDbArc
 50
181.5007995679
 51
269.4045732551
  0
SPLINE
  5
147
330
1F
100
AcDbEntity
  8
0
  6
Continuous
 62
     8
370
    18
100
AcDbSpline
210
0.0
220
0.0
230
1.0
 70
     8
 71
     3
 72
     8
 73
     4
 74
     0
 42
0.000000001
 43
0.00000001
 40
0.0
 40
0.0
 40
0.0
 40
0.0
 40
1.0
 40
1.0
 40
1.0
 40
1.0
 10
146.8131357905278
 20
137.4954438631881
 30
0.0
 10
183.2616941258867
 20
137.2118687059378
 30
0.0
 10
219.7111637854989
 20
137.2118687119176
 30
0.0
 10
256.1597213523291
 20
137.4954438631886
 30
0.0
  0
SPLINE
  5
148
330
1F
100
AcDbEntity
  8
0
  6
Continuous
 62
     8
370
    18
100
AcDbSpline
210
0.0
220
0.0
230
1.0
 70
     8
 71
     3
 72
     8
 73
     4
 74
     0
 42
0.000000001
 43
0.00000001
 40
0.0
 40
0.0
 40
0.0
 40
0.0
 40
1.0
 40
1.0
 40
1.0
 40
1.0
 10
256.1713874076844
 20
136.0348359034156
 30
0.0
 10
219.7150525357329
 20
135.751200069982
 30
0.0
 10
183.2578053744107
 20
135.7512000640124
 30
0.0
 10
146.8014697351726
 20
136.0348359034155
 30
0.0
  0
SPLINE
  5
149
330
1F
100
AcDbEntity
  8
0
  6
Continuous
 62
     8
370
    18
100
AcDbSpline
210
0.0
220
0.0
230
1.0
 70
     8
 71
     3
 72
     9
 73
     5
 74
     0
 42
0.000000001
 43
0.00000001
 40
0.0
 40
0.0
 40
0.0
 40
0.0
 40
0.3292921390624599
 40
1.0
 40
1.0
 40
1.0
 40
1.0
 10
128.3038606173651
 20
136.0348356290996
 30
0.0
 10
128.3050041988892
 20
135.9913580655457
 30
0.0
 10
128.3084770468209
 20
135.8593246569207
 30
0.0
 10
128.3086883990331
 20
135.8511606255411
 30
0.0
 10
128.3088301546233
 20
135.8456849455178
 30
0.0
  0
SPLINE
  5
14A
330
1F
100
AcDbEntity
  8
0
  6
Continuous
 62
     8
370
    18
100
AcDbSpline
210
0.0
220
0.0
230
1.0
 70
     8
 71
     3
 72
     9
 73
     5
 74
     0
 42
0.000000001
 43
0.00000001
 40
0.0
 40
0.0
 40
0.0
 40
0.0
 40
0.1646284883405701
 40
1.0
 40
1.0
 40
1.0
 40
1.0
 10
274.6640269882338
 20
135.8456840141952
 30
0.0
 10
274.6638282371758
 20
135.8381765232402
 30
0.0
 10
274.6626209670367
 20
135.7925738998383
 30
0.0
 10
274.6660946825295
 20
135.9245699168421
 30
0.0
 10
274.6689965254919
 20
136.0348356290996
 30
0.0
  0
LINE
  5
14B
330
1F
100
AcDbEntity
  8
0
  6
Continuous
 62
     8
370
    18
100
AcDbLine
 10
178.3552126265
 20
109.4243922605
 30
0.0
 11
180.2923710323
 21
109.4243922605
 31
0.0
  0
LINE
  5
14C
330
1F
100
AcDbEntity
  8
0
  6
Continuous
 62
     8
370
    18
100
AcDbLine
 10
222.6804861105
 20
109.4243922605
 30
0.0
 11
224.6176445163
 21
109.4243922605
 31
0.0
  0
SPLINE
  5
14D
330
1F
100
AcDbEntity
  8
0
  6
Continuous
 62
     8
370
    18
100
AcDbSpline
210
0.0
220
0.0
230
1.0
 70
     8
 71
     3
 72
    28
 73
    24
 74
     0
 42
0.000000001
 43
0.00000001
 40
0.0
 40
0.0
 40
0.0
 40
0.0
 40
0.0475393791192114
 40
0.0958739345024919
 40
0.1448884176432619
 40
0.1941528612788802
 40
0.2436048527785361
 40
0.287347955972203
 40
0.3458543959143122
 40
0.4190222496649628
 40
0.5065386964114621
 40
0.5507289377390897
 40
0.5945520021992052
 40
0.6379554827151823
 40
0.6809018257435897
 40
0.7233915777693432
 40
0.7653489397508634
 40
0.8184571590114589
 40
0.8645491007165953
 40
0.9043895313060267
 40
0.9396898171674462
 40
0.9713787532793527
 40
1.0
 40
1.0
 40
1.0
 40
1.0
 10
179.167564920036
 20
80.74009556170824
 30
0.0
 10
179.1757187883111
 20
80.74650920952844
 30
0.0
 10
179.1921629120552
 20
80.75944378424165
 30
0.0
 10
179.2201089191634
 20
80.78084844744416
 30
0.0
 10
179.2585835338196
 20
80.80396851353628
 30
0.0
 10
179.4049526023464
 20
80.82816978812951
 30
0.0
 10
179.7204175863571
 20
80.85446435013715
 30
0.0
 10
180.2612874676921
 20
80.87622221815244
 30
0.0
 10
181.1467592801856
 20
80.8918369090733
 30
0.0
 10
182.6285855032171
 20
80.90461832002416
 30
0.0
 10
184.3831836363575
 20
80.90937109339116
 30
0.0
 10
186.0888366191793
 20
80.90873560684119
 30
0.0
 10
187.45587239784
 20
80.90568630752973
 30
0.0
 10
188.8789467813362
 20
80.90004089329092
 30
0.0
 10
190.3373044398679
 20
80.8917319925344
 30
0.0
 10
191.8069117335541
 20
80.88118521385759
 30
0.0
 10
193.4076678368294
 20
80.86700304521554
 30
0.0
 10
195.0536207637444
 20
80.8519891631411
 30
0.0
 10
196.6747605024919
 20
80.83796737569257
 30
0.0
 10
198.0884674686363
 20
80.82675968741471
 30
0.0
 10
199.3342737954698
 20
80.8188630038403
 30
0.0
 10
200.4492882885288
 20
80.81380132608406
 30
0.0
 10
201.1526405274273
 20
80.81310365747416
 30
0.0
 10
201.4864285714285
 20
80.8127725666952
 30
0.0
  0
SPLINE
  5
14E
330
1F
100
AcDbEntity
  8
0
  6
Continuous
 62
     8
370
    18
100
AcDbSpline
210
0.0
220
0.0
230
1.0
 70
     8
 71
     3
 72
     9
 73
     5
 74
     0
 42
0.000000001
 43
0.00000001
 40
0.0
 40
0.0
 40
0.0
 40
0.0
 40
0.2588167448246714
 40
1.0
 40
1.0
 40
1.0
 40
1.0
 10
178.856858355488
 20
87.98133818053603
 30
0.0
 10
178.881641713063
 20
87.35652484561868
 30
0.0
 10
178.9773981046818
 20
84.94241004272754
 30
0.0
 10
179.0866019309863
 20
82.52886012322183
 30
0.0
 10
179.1675419784443
 20
80.73997733735442
 30
0.0
  0
SPLINE
  5
14F
330
1F
100
AcDbEntity
  8
0
  6
Continuous
 62
     8
370
    18
100
AcDbSpline
210
0.0
220
0.0
230
1.0
 70
    24
 71
     3
 72
     8
 73
     4
 74
     0
 42
0.000000001
 43
0.00000001
 40
0.0013999840203585
 40
0.0013999840203585
 40
0.0013999840203585
 40
0.0013999840203585
 40
0.6262686277567391
 40
0.6262686277567391
 40
0.6262686277567391
 40
0.6262686277567391
 10
201.4864285714285
 20
80.8127725666952
 30
0.0
 10
201.4864285714285
 20
87.16705886286985
 30
0.0
 10
201.4864285714285
 20
93.52325458770977
 30
0.0
 10
201.4864285714285
 20
100.7336138262689
 30
0.0
  0
SPLINE
  5
150
330
1F
100
AcDbEntity
  8
0
  6
Continuous
 62
     8
370
    18
100
AcDbSpline
210
0.0
220
0.0
230
1.0
 70
     8
 71
     3
 72
     9
 73
     5
 74
     0
 42
0.000000001
 43
0.00000001
 40
0.0
 40
0.0
 40
0.0
 40
0.0
 40
0.44749125065724
 40
1.0
 40
1.0
 40
1.0
 40
1.0
 10
224.2152852244036
 20
90.45445410155654
 30
0.0
 10
224.1583103105246
 20
89.00523082217993
 30
0.0
 10
224.030989577895
 20
85.76667972816837
 30
0.0
 10
223.8856284560476
 20
82.52888645135629
 30
0.0
 10
223.8053151644127
 20
80.73997733735442
 30
0.0
  0
SPLINE
  5
151
330
1F
100
AcDbEntity
  8
0
  6
Continuous
 62
     8
370
    18
100
AcDbSpline
210
0.0
220
0.0
230
1.0
 70
     8
 71
     3
 72
    22
 73
    18
 74
     0
 42
0.000000001
 43
0.00000001
 40
0.0
 40
0.0
 40
0.0
 40
0.0
 40
0.1249999999999999
 40
0.1249999999999999
 40
0.2499999999999998
 40
0.2499999999999998
 40
0.3749999999999997
 40
0.3749999999999997
 40
0.4999999999999996
 40
0.4999999999999996
 40
0.6249999999999996
 40
0.6249999999999996
 40
0.7499999999999997
 40
0.7499999999999997
 40
0.8749999999999998
 40
0.8749999999999998
 40
1.0
 40
1.0
 40
1.0
 40
1.0
 10
201.4864285714285
 20
80.8127725666952
 30
0.0
 10
202.8499760546545
 20
80.81276789631126
 30
0.0
 10
204.2131089104786
 20
80.81902867424579
 30
0.0
 10
206.9383241855475
 20
80.84061924524167
 30
0.0
 10
208.2795530390217
 20
80.85504465912679
 30
0.0
 10
211.109494702182
 20
80.88113999668784
 30
0.0
 10
212.5940408630345
 20
80.89241791568679
 30
0.0
 10
215.5466210897247
 20
80.90660994180304
 30
0.0
 10
216.9148494444064
 20
80.90953375617732
 30
0.0
 10
219.3882931684256
 20
80.9080994440465
 30
0.0
 10
220.4402838132584
 20
80.9038189534488
 30
0.0
 10
222.1775954108554
 20
80.88586560024305
 30
0.0
 10
222.8153177197166
 20
80.87251380703096
 30
0.0
 10
223.593378730527
 20
80.83636272358002
 30
0.0
 10
223.6960689441966
 20
80.81396302117113
 30
0.0
 10
223.7731384188646
 20
80.7734826504975
 30
0.0
 10
223.7861557814684
 20
80.75565999846876
 30
0.0
 10
223.8052922228211
 20
80.74009556170827
 30
0.0
  0
LINE
  5
152
330
1F
100
AcDbEntity
  8
0
  6
Continuous
 62
     8
370
    18
100
AcDbLine
 10
178.9364286936
 20
115.4116862788
 30
0.0
 11
224.0364284492
 21
115.4116862788
 31
0.0
  0
LINE
  5
153
330
1F
100
AcDbEntity
  8
0
  6
Continuous
 62
     8
370
    18
100
AcDbLine
 10
179.177186755
 20
114.8833916857
 30
0.0
 11
223.7956703878
 21
114.8833916857
 31
0.0
  0
LINE
  5
154
330
1F
100
AcDbEntity
  8
0
  6
Continuous
 62
     8
370
    18
100
AcDbLine
 10
179.2586923815
 20
114.8125403895
 30
0.0
 11
223.7141647614
 21
114.8125403895
 31
0.0
  0
LINE
  5
155
330
1F
100
AcDbEntity
  8
0
  6
Continuous
 62
     8
370
    18
100
AcDbLine
 10
179.4986476428
 20
114.317758508
 30
0.0
 11
223.4742095
 21
114.317758508
 31
0.0
  0
SPLINE
  5
156
330
1F
100
AcDbEntity
  8
0
  6
Continuous
 62
     8
370
    18
100
AcDbSpline
210
0.0
220
0.0
230
1.0
 70
     8
 71
     3
 72
    33
 73
    29
 74
     0
 42
0.000000001
 43
0.00000001
 40
0.0
 40
0.0
 40
0.0
 40
0.0
 40
0.0276231462130128
 40
0.0554520794259835
 40
0.0838629983869838
 40
0.1132319972175816
 40
0.1439380808902595
 40
0.176600528644873
 40
0.2113900882170392
 40
0.2465559312201351
 40
0.2585643083332576
 40
0.2769767851650252
 40
0.3018826216836388
 40
0.3333559023255198
 40
0.3714843564310658
 40
0.4363493443700539
 40
0.4978807582362795
 40
0.559514101534135
 40
0.6223555785326536
 40
0.6862136136296716
 40
0.7510439403306958
 40
0.792859587452528
 40
0.8346824395571483
 40
0.8763533741721
 40
0.9074778803509733
 40
0.9382058085357327
 40
0.9691978846356859
 40
1.0
 40
1.0
 40
1.0
 40
1.0
 10
201.4864282680693
 20
79.59685696731935
 30
0.0
 10
201.1823149496779
 20
79.59688754207006
 30
0.0
 10
200.5718227285566
 20
79.5969489193473
 30
0.0
 10
199.6485445297768
 20
79.59741726989556
 30
0.0
 10
198.706046124848
 20
79.59812186247723
 30
0.0
 10
197.7318767581237
 20
79.59905589642393
 30
0.0
 10
196.7109015518577
 20
79.60020426265096
 30
0.0
 10
195.6302878055081
 20
79.60145415625114
 30
0.0
 10
194.5005093516112
 20
79.6029953170329
 30
0.0
 10
193.5985981515902
 20
79.60347300183601
 30
0.0
 10
192.8777091254067
 20
79.60481744042066
 30
0.0
 10
192.2700118957982
 20
79.60666202805164
 30
0.0
 10
191.4512531730269
 20
79.60900249978306
 30
0.0
 10
190.4244804510012
 20
79.61156276177583
 30
0.0
 10
188.9881253317634
 20
79.6140283991821
 30
0.0
 10
187.30116526317
 20
79.61391386476782
 30
0.0
 10
185.5390923383792
 20
79.60905171379731
 30
0.0
 10
183.9976797668792
 20
79.59988627417214
 30
0.0
 10
182.6794581064816
 20
79.5864740631482
 30
0.0
 10
181.6256447470674
 20
79.56920494011113
 30
0.0
 10
180.9949992599392
 20
79.5509832435109
 30
0.0
 10
180.6739615104434
 20
79.533683029966
 30
0.0
 10
180.5296324507461
 20
79.51845874257214
 30
0.0
 10
180.4899679978245
 20
79.5039152567495
 30
0.0
 10
180.4799072546428
 20
79.49078524349201
 30
0.0
 10
180.4554877236555
 20
79.47980698676344
 30
0.0
 10
180.4312891528752
 20
79.46855830014226
 30
0.0
 10
180.4294242737271
 20
79.4598784377458
 30
0.0
 10
180.4284947005536
 20
79.45555184787464
 30
0.0
  0
SPLINE
  5
157
330
1F
100
AcDbEntity
  8
0
  6
Continuous
 62
     8
370
    18
100
AcDbSpline
210
0.0
220
0.0
230
1.0
 70
     8
 71
     3
 72
    14
 73
    10
 74
     0
 42
0.000000001
 43
0.00000001
 40
0.0
 40
0.0
 40
0.0
 40
0.0
 40
0.25
 40
0.25
 40
0.5
 40
0.5
 40
0.75
 40
0.75
 40
1.0
 40
1.0
 40
1.0
 40
1.0
 10
179.1675681358263
 20
80.74009817730787
 30
0.0
 10
179.1742655313384
 20
80.59025772384629
 30
0.0
 10
179.2071407865267
 20
80.4313360113074
 30
0.0
 10
179.3356763239106
 20
80.12540803816142
 30
0.0
 10
179.4315915953101
 20
79.97913716267333
 30
0.0
 10
179.6725754296618
 20
79.73364038651142
 30
0.0
 10
179.8170408101739
 20
79.63502896416918
 30
0.0
 10
180.1205282564375
 20
79.50084339194541
 30
0.0
 10
180.278810351919
 20
79.46502792032692
 30
0.0
 10
180.4284980661289
 20
79.45555461575246
 30
0.0
  0
LWPOLYLINE
  5
158
330
1F
100
AcDbEntity
  8
0
  6
Continuous
 62
     8
370
    18
100
AcDbPolyline
 90
        9
 70
   128
 43
0.0
 10
201.4864285714
 20
80.8127695098
 10
201.4864285521
 20
80.5821218862
 10
201.4864285258
 20
80.3646841421
 10
201.4864284932
 20
80.1657685413
 10
201.4864284551
 20
79.9902254119
 10
201.4864284125
 20
79.8423462882
 10
201.4864283664
 20
79.7257298007
 10
201.4864283178
 20
79.6432295217
 10
201.4864282681
 20
79.5968571081
  0
SPLINE
  5
159
330
1F
100
AcDbEntity
  8
0
  6
Continuous
 62
     8
370
    18
100
AcDbSpline
210
0.0
220
0.0
230
1.0
 70
     8
 71
     3
 72
    14
 73
    10
 74
     0
 42
0.000000001
 43
0.00000001
 40
0.0
 40
0.0
 40
0.0
 40
0.0
 40
0.25
 40
0.25
 40
0.5
 40
0.5
 40
0.75
 40
0.75
 40
1.0
 40
1.0
 40
1.0
 40
1.0
 10
222.5439994548762
 20
79.45553708223399
 30
0.0
 10
222.693691470619
 20
79.4650054945906
 30
0.0
 10
222.8519748239032
 20
79.50081179576715
 30
0.0
 10
223.1554682987662
 20
79.63496572946453
 30
0.0
 10
223.2999389666996
 20
79.73355447588406
 30
0.0
 10
223.5409499835571
 20
79.97900129253769
 30
0.0
 10
223.6368875254391
 20
80.1252454610861
 30
0.0
 10
223.76548368427
 20
80.43113375650346
 30
0.0
 10
223.7983968655302
 20
80.59004295576766
 30
0.0
 10
223.8051330978607
 20
80.73988184821782
 30
0.0
  0
SPLINE
  5
15A
330
1F
100
AcDbEntity
  8
0
  6
Continuous
 62
     8
370
    18
100
AcDbSpline
210
0.0
220
0.0
230
1.0
 70
     8
 71
     3
 72
    22
 73
    18
 74
     0
 42
0.000000001
 43
0.00000001
 40
0.0
 40
0.0
 40
0.0
 40
0.0
 40
0.125
 40
0.125
 40
0.25
 40
0.25
 40
0.3749999999999999
 40
0.3749999999999999
 40
0.4999999999999999
 40
0.4999999999999999
 40
0.625
 40
0.625
 40
0.75
 40
0.75
 40
0.875
 40
0.875
 40
1.0
 40
1.0
 40
1.0
 40
1.0
 10
222.5443624423035
 20
79.45555184787467
 30
0.0
 10
222.5243345097662
 20
79.47202263326878
 30
0.0
 10
222.5134618298715
 20
79.48733348483606
 30
0.0
 10
222.4477424972623
 20
79.51782325230813
 30
0.0
 10
222.3542209602536
 20
79.53370266648157
 30
0.0
 10
221.650644479662
 20
79.56258369509261
 30
0.0
 10
221.0730771902375
 20
79.57526030333797
 30
0.0
 10
219.4890241851968
 20
79.59602352345449
 30
0.0
 10
218.5257168115167
 20
79.6035841901607
 30
0.0
 10
216.2732354614716
 20
79.61308485148605
 30
0.0
 10
215.0335694780687
 20
79.61477470994768
 30
0.0
 10
212.3526100118289
 20
79.61176428498528
 30
0.0
 10
210.988535456493
 20
79.60720389700748
 30
0.0
 10
208.268972320923
 20
79.60078118996225
 30
0.0
 10
206.9130868111132
 20
79.59996971065273
 30
0.0
 10
204.2005823506235
 20
79.59761077730363
 30
0.0
 10
202.843706215645
 20
79.59685644356223
 30
0.0
 10
201.4864288747878
 20
79.59685696731941
 30
0.0
  0
SPLINE
  5
15B
330
1F
100
AcDbEntity
  8
0
  6
Continuous
 62
     8
370
    18
100
AcDbSpline
210
0.0
220
0.0
230
1.0
 70
     8
 71
     3
 72
     8
 73
     4
 74
     0
 42
0.000000001
 43
0.00000001
 40
0.0
 40
0.0
 40
0.0
 40
0.0
 40
0.9317398741990044
 40
0.9317398741990044
 40
0.9317398741990044
 40
0.9317398741990044
 10
201.4864285714285
 20
78.90771430573665
 30
0.0
 10
209.7384420326046
 20
78.90771430573665
 30
0.0
 10
216.7576941145585
 20
79.09032308278846
 30
0.0
 10
222.5441848172903
 20
79.45554063689211
 30
0.0
  0
SPLINE
  5
15C
330
1F
100
AcDbEntity
  8
0
  6
Continuous
 62
     8
370
    18
100
AcDbSpline
210
0.0
220
0.0
230
1.0
 70
    24
 71
     3
 72
     9
 73
     5
 74
     0
 42
0.000000001
 43
0.00000001
 40
0.0874042921558733
 40
0.0874042921558733
 40
0.0874042921558733
 40
0.0874042921558733
 40
0.5
 40
1.0
 40
1.0
 40
1.0
 40
1.0
 10
201.4864285714285
 20
79.59685696705074
 30
0.0
 10
201.4864285714285
 20
79.34609326791609
 30
0.0
 10
201.4864285714285
 20
79.01180470274663
 30
0.0
 10
201.4864285714285
 20
78.94455796752605
 30
0.0
 10
201.4864285714285
 20
78.90771430573665
 30
0.0
  0
SPLINE
  5
15D
330
1F
100
AcDbEntity
  8
0
  6
Continuous
 62
     8
370
    18
100
AcDbSpline
210
0.0
220
0.0
230
1.0
 70
     8
 71
     3
 72
     8
 73
     4
 74
     0
 42
0.000000001
 43
0.00000001
 40
0.0
 40
0.0
 40
0.0
 40
0.0
 40
0.9317398741990044
 40
0.9317398741990044
 40
0.9317398741990044
 40
0.9317398741990044
 10
201.4864285714285
 20
78.90771430573665
 30
0.0
 10
193.2344151102525
 20
78.90771430573665
 30
0.0
 10
186.2151630282985
 20
79.09032308278846
 30
0.0
 10
180.4286723255668
 20
79.45554063689211
 30
0.0
  0
LINE
  5
15E
330
1F
100
AcDbEntity
  8
0
  6
Continuous
 62
     8
370
    18
100
AcDbLine
 10
223.86069533
 20
80.6109556332
 30
0.0
 11
223.8051326252
 21
80.7398804798
 31
0.0
  0
LINE
  5
15F
330
1F
100
AcDbEntity
  8
0
  6
Continuous
 62
     8
370
    18
100
AcDbLine
 10
179.1121618129
 20
80.6109556332
 30
0.0
 11
179.1677245177
 21
80.7398804798
 31
0.0
  0
SPLINE
  5
160
330
1F
100
AcDbEntity
  8
0
  6
Continuous
 62
     8
370
    18
100
AcDbSpline
210
0.0
220
0.0
230
1.0
 70
     8
 71
     3
 72
    10
 73
     6
 74
     0
 42
0.000000001
 43
0.00000001
 40
0.0
 40
0.0
 40
0.0
 40
0.0
 40
0.5
 40
0.5
 40
1.0
 40
1.0
 40
1.0
 40
1.0
 10
180.4288499504247
 20
79.45552942608298
 30
0.0
 10
180.3887801464417
 20
79.41832267163113
 30
0.0
 10
180.3487086380074
 20
79.38110485277106
 30
0.0
 10
180.3015243428368
 20
79.30664305841836
 30
0.0
 10
180.294585548085
 20
79.26939909237507
 30
0.0
 10
180.3029407238689
 20
79.23213818905553
 30
0.0
  0
LINE
  5
161
330
1F
100
AcDbEntity
  8
0
  6
Continuous
 62
     8
370
    18
100
AcDbLine
 10
201.4864285714
 20
78.1204947605
 30
0.0
 11
201.4864285714
 21
78.9077156558
 31
0.0
  0
SPLINE
  5
162
330
1F
100
AcDbEntity
  8
0
  6
Continuous
 62
     8
370
    18
100
AcDbSpline
210
0.0
220
0.0
230
1.0
 70
     8
 71
     3
 72
     9
 73
     5
 74
     0
 42
0.000000001
 43
0.00000001
 40
0.0
 40
0.0
 40
0.0
 40
0.0
 40
0.5
 40
1.0
 40
1.0
 40
1.0
 40
1.0
 10
201.4864285714285
 20
78.12049352604333
 30
0.0
 10
199.9633353906137
 20
78.12049352604333
 30
0.0
 10
197.0034978614298
 20
78.13101646541448
 30
0.0
 10
194.2163579971376
 20
78.16258528352799
 30
0.0
 10
192.8659624812144
 20
78.18363116227032
 30
0.0
  0
SPLINE
  5
163
330
1F
100
AcDbEntity
  8
0
  6
Continuous
 62
     8
370
    18
100
AcDbSpline
210
0.0
220
0.0
230
1.0
 70
     8
 71
     3
 72
     8
 73
     4
 74
     0
 42
0.000000001
 43
0.00000001
 40
0.3553390613026225
 40
0.3553390613026225
 40
0.3553390613026225
 40
0.3553390613026225
 40
0.9318828776177226
 40
0.9318828776177226
 40
0.9318828776177226
 40
0.9318828776177226
 10
192.8659624812144
 20
78.18363116227026
 30
0.0
 10
188.4838819892411
 20
78.25192577194994
 30
0.0
 10
184.5564389407114
 20
78.37562497851533
 30
0.0
 10
181.0836333356251
 20
78.55472878196643
 30
0.0
  0
SPLINE
  5
164
330
1F
100
AcDbEntity
  8
0
  6
Continuous
 62
     8
370
    18
100
AcDbSpline
210
0.0
220
0.0
230
1.0
 70
     8
 71
     3
 72
    13
 73
     9
 74
     0
 42
0.000000001
 43
0.00000001
 40
0.0
 40
0.0
 40
0.0
 40
0.0
 40
0.125
 40
0.125
 40
0.25
 40
0.25
 40
0.5
 40
1.0
 40
1.0
 40
1.0
 40
1.0
 10
180.3034125679416
 20
79.2321321523764
 30
0.0
 10
180.3144529602597
 20
79.20393259482137
 30
0.0
 10
180.3340637274841
 20
79.17572943206397
 30
0.0
 10
180.3892630536008
 20
79.11931259008215
 30
0.0
 10
180.4262149517208
 20
79.09109748936463
 30
0.0
 10
180.5300085121199
 20
79.00645850982313
 30
0.0
 10
180.7375480246827
 20
78.83718538825532
 30
0.0
 10
180.944944720124
 20
78.66792805852427
 30
0.0
 10
181.0831457224771
 20
78.55509805252994
 30
0.0
  0
SPLINE
  5
165
330
1F
100
AcDbEntity
  8
0
  6
Continuous
 62
     8
370
    18
100
AcDbSpline
210
0.0
220
0.0
230
1.0
 70
     8
 71
     3
 72
     9
 73
     5
 74
     0
 42
0.000000001
 43
0.00000001
 40
0.1056634864831682
 40
0.1056634864831682
 40
0.1056634864831682
 40
0.1056634864831682
 40
0.125
 40
1.0
 40
1.0
 40
1.0
 40
1.0
 10
221.8892238072319
 20
78.55472878196643
 30
0.0
 10
221.8141380296648
 20
78.55085636586354
 30
0.0
 10
218.3315026760023
 20
78.37295046915152
 30
0.0
 10
214.3942298788964
 20
78.25044916932528
 30
0.0
 10
210.1068946616426
 20
78.18363116227026
 30
0.0
  0
SPLINE
  5
166
330
1F
100
AcDbEntity
  8
0
  6
Continuous
 62
     8
370
    18
100
AcDbSpline
210
0.0
220
0.0
230
1.0
 70
     8
 71
     3
 72
     8
 73
     4
 74
     0
 42
0.000000001
 43
0.00000001
 40
0.0
 40
0.0
 40
0.0
 40
0.0
 40
0.3553390613026225
 40
0.3553390613026225
 40
0.3553390613026225
 40
0.3553390613026225
 10
210.1068946616426
 20
78.18363116227026
 30
0.0
 10
207.4061036297962
 20
78.14153940478563
 30
0.0
 10
204.5326149330582
 20
78.12049352604333
 30
0.0
 10
201.4864285714285
 20
78.12049352604333
 30
0.0
  0
SPLINE
  5
167
330
1F
100
AcDbEntity
  8
0
  6
Continuous
 62
     8
370
    18
100
AcDbSpline
210
0.0
220
0.0
230
1.0
 70
     8
 71
     3
 72
    10
 73
     6
 74
     0
 42
0.000000001
 43
0.00000001
 40
0.0
 40
0.0
 40
0.0
 40
0.0
 40
0.5
 40
0.5
 40
1.0
 40
1.0
 40
1.0
 40
1.0
 10
222.6699164189882
 20
79.23213818905553
 30
0.0
 10
222.6746321425336
 20
79.26919865559029
 30
0.0
 10
222.6776712062272
 20
79.3070353112296
 30
0.0
 10
222.6224255124807
 20
79.38100353654934
 30
0.0
 10
222.5817538304035
 20
79.41818012119519
 30
0.0
 10
222.5440071924323
 20
79.45552942608295
 30
0.0
  0
SPLINE
  5
168
330
1F
100
AcDbEntity
  8
0
  6
Continuous
 62
     8
370
    18
100
AcDbSpline
210
0.0
220
0.0
230
1.0
 70
     8
 71
     3
 72
    12
 73
     8
 74
     0
 42
0.000000001
 43
0.00000001
 40
0.0
 40
0.0
 40
0.0
 40
0.0
 40
0.4999999999999999
 40
0.4999999999999999
 40
0.7499999999999999
 40
0.7499999999999999
 40
1.0
 40
1.0
 40
1.0
 40
1.0
 10
221.8897114203799
 20
78.55509805252994
 30
0.0
 10
222.0278271291655
 20
78.66792252046915
 30
0.0
 10
222.1662340511193
 20
78.78076668130063
 30
0.0
 10
222.3741357357752
 20
78.95005618163792
 30
0.0
 10
222.443464343766
 20
79.00648869071408
 30
0.0
 10
222.5822516655302
 20
79.119363333033
 30
0.0
 10
222.647827172974
 20
79.17575615937622
 30
0.0
 10
222.6694445749154
 20
79.2321321523764
 30
0.0
  0
SPLINE
  5
169
330
1F
100
AcDbEntity
  8
0
  6
Continuous
 62
     8
370
    18
100
AcDbSpline
210
0.0
220
0.0
230
1.0
 70
     8
 71
     3
 72
    12
 73
     8
 74
     0
 42
0.000000001
 43
0.00000001
 40
0.0
 40
0.0
 40
0.0
 40
0.0
 40
0.1544839228850998
 40
0.3304746266629251
 40
0.5064577988493884
 40
0.6789012125574266
 40
1.0
 40
1.0
 40
1.0
 40
1.0
 10
179.1748938388483
 20
80.06811378144621
 30
0.0
 10
179.2045012592095
 20
79.99752716364222
 30
0.0
 10
179.267837954754
 20
79.84652707424442
 30
0.0
 10
179.4211247398571
 20
79.64510589557902
 30
0.0
 10
179.6145866370458
 20
79.4716441837074
 30
0.0
 10
179.9015054405819
 20
79.29855818464132
 30
0.0
 10
180.1449981709108
 20
79.25829907803733
 30
0.0
 10
180.3034146554129
 20
79.23210648440718
 30
0.0
  0
SPLINE
  5
16A
330
1F
100
AcDbEntity
  8
0
  6
Continuous
 62
     8
370
    18
100
AcDbSpline
210
0.0
220
0.0
230
1.0
 70
     8
 71
     3
 72
    12
 73
     8
 74
     0
 42
0.000000001
 43
0.00000001
 40
0.0
 40
0.0
 40
0.0
 40
0.0
 40
0.1544120825738589
 40
0.330393895388141
 40
0.506375891116717
 40
0.678830322762963
 40
1.0
 40
1.0
 40
1.0
 40
1.0
 10
223.7979260511057
 20
80.068136133188
 30
0.0
 10
223.7683172307285
 20
79.99759606227968
 30
0.0
 10
223.7049635517986
 20
79.84666222070544
 30
0.0
 10
223.5517080611744
 20
79.64530038615408
 30
0.0
 10
223.358270179742
 20
79.47184571806044
 30
0.0
 10
223.0713696910514
 20
79.29871671922228
 30
0.0
 10
222.8278724508297
 20
79.2583759790198
 30
0.0
 10
222.6694443500893
 20
79.23212883614897
 30
0.0
  0
ARC
  5
16B
330
1F
100
AcDbEntity
  8
0
  6
Continuous
 62
     8
370
    18
100
AcDbCircle
 10
181.1484853797
 20
79.8247495561
 30
0.0
 40
1.271380187841778
100
AcDbArc
 50
176.9448258228
 51
230.7576863611
  0
ARC
  5
16C
330
1F
100
AcDbEntity
  8
0
  6
Continuous
 62
     8
370
    18
100
AcDbCircle
 10
221.8244274609
 20
79.824801818
 30
0.0
 40
1.271384272631623
100
AcDbArc
 50
272.9431854986
 51
307.8184328264
  0
SPLINE
  5
16D
330
1F
100
AcDbEntity
  8
0
  6
Continuous
 62
     8
370
    18
100
AcDbSpline
210
0.0
220
0.0
230
1.0
 70
     8
 71
     3
 72
    10
 73
     6
 74
     0
 42
0.000000001
 43
0.00000001
 40
0.0
 40
0.0
 40
0.0
 40
0.0
 40
0.0561881814992313
 40
0.3864971140906803
 40
1.0
 40
1.0
 40
1.0
 40
1.0
 10
180.3663776493923
 20
78.82717487954497
 30
0.0
 10
180.3770677739901
 20
78.81728222200502
 30
0.0
 10
180.4506010722047
 20
78.74923439614814
 30
0.0
 10
180.6835775070912
 20
78.62270809115046
 30
0.0
 10
180.926031983398
 20
78.5815096110811
 30
0.0
 10
181.0836338675873
 20
78.55472949885726
 30
0.0
  0
SPLINE
  5
16E
330
1F
100
AcDbEntity
  8
0
  6
Continuous
 62
     8
370
    18
100
AcDbSpline
210
0.0
220
0.0
230
1.0
 70
     8
 71
     3
 72
     9
 73
     5
 74
     0
 42
0.000000001
 43
0.00000001
 40
0.0
 40
0.0
 40
0.0
 40
0.0
 40
0.514896207056871
 40
1.0
 40
1.0
 40
1.0
 40
1.0
 10
221.8892232752697
 20
78.55472949885726
 30
0.0
 10
221.882580986475
 20
78.54448147796361
 30
0.0
 10
221.8696807384179
 20
78.52457839700632
 30
0.0
 10
221.6329492154418
 20
78.5014546773315
 30
0.0
 10
221.518109855737
 20
78.49023727321028
 30
0.0
  0
LINE
  5
16F
330
1F
100
AcDbEntity
  8
0
  6
Continuous
 62
     8
370
    18
100
AcDbLine
 10
192.8659624658
 20
78.1836309805
 30
0.0
 11
192.8774838574
 21
78.1566822305
 31
0.0
  0
LINE
  5
170
330
1F
100
AcDbEntity
  8
0
  6
Continuous
 62
     8
370
    18
100
AcDbLine
 10
210.1068946771
 20
78.1836309805
 30
0.0
 11
210.0960131041
 21
78.1583139076
 31
0.0
  0
LINE
  5
171
330
1F
100
AcDbEntity
  8
0
  6
Continuous
 62
     8
370
    18
100
AcDbLine
 10
201.4864285714
 20
78.102561213
 30
0.0
 11
201.4864285714
 21
78.1204947605
 31
0.0
  0
ARC
  5
172
330
1F
100
AcDbEntity
  8
0
  6
Continuous
 62
     7
370
    25
100
AcDbCircle
 10
-6628.7946672861
 20
284.0316429488
 30
0.0
 40
6999.999999999999
100
AcDbArc
 50
359.7762126927
 51
359.9731899452
  0
ARC
  5
173
330
1F
100
AcDbEntity
  8
0
  6
Continuous
 62
     7
370
    25
100
AcDbCircle
 10
-6628.7946672861
 20
284.0316429488
 30
0.0
 40
6999.999999999999
100
AcDbArc
 50
359.4043482097
 51
359.7111507525
  0
ARC
  5
174
330
1F
100
AcDbEntity
  8
0
  6
Continuous
 62
     7
370
    25
100
AcDbCircle
 10
-6628.7946672861
 20
284.8447856226
 30
0.0
 40
6999.999999999999
100
AcDbArc
 50
0.3345605236
 51
0.5956512281
  0
ARC
  5
175
330
1F
100
AcDbEntity
  8
0
  6
Continuous
 62
     7
370
    25
100
AcDbCircle
 10
369.3271512303
 20
357.5996011116
 30
0.0
 40
1.500000000000038
100
AcDbArc
 50
0.7182381263
 51
88.498107046
  0
ARC
  5
176
330
1F
100
AcDbEntity
  8
0
  6
Continuous
 62
     7
370
    25
100
AcDbCircle
 10
369.3271512303
 20
211.2768274598
 30
0.0
 40
1.500000000000016
100
AcDbArc
 50
271.501892954
 51
359.2000304693
  0
SPLINE
  5
177
330
1F
100
AcDbEntity
  8
0
  6
Continuous
 62
     7
370
    25
100
AcDbSpline
210
0.0
220
0.0
230
1.0
 70
     8
 71
     3
 72
    19
 73
    15
 74
     0
 42
0.000000001
 43
0.00000001
 40
0.0
 40
0.0
 40
0.0
 40
0.0
 40
0.1473620918536292
 40
0.2810987580382704
 40
0.3361021422004652
 40
0.3811302681902217
 40
0.4011801200703738
 40
0.4211290112404659
 40
0.4648334922257775
 40
0.5174244746040052
 40
0.5795234287092187
 40
0.7272517970316767
 40
0.8931278725127002
 40
1.0
 40
1.0
 40
1.0
 40
1.0
 10
425.879222932481
 20
322.1474541560242
 30
0.0
 10
425.6559733533565
 20
322.1920461255987
 30
0.0
 10
425.2301163460686
 20
322.2771069923943
 30
0.0
 10
424.6214858404435
 20
322.3629253139235
 30
0.0
 10
423.9949348842042
 20
322.4401528146078
 30
0.0
 10
423.5377918523128
 20
322.4995493184182
 30
0.0
 10
423.1257591798854
 20
322.5616109137783
 30
0.0
 10
422.6932296934379
 20
322.6327544776263
 30
0.0
 10
422.09848551008
 20
322.7436906167374
 30
0.0
 10
421.3827813875857
 20
322.8955813579587
 30
0.0
 10
420.3012229878261
 20
323.1458713643809
 30
0.0
 10
418.8948770786058
 20
323.4920289459749
 30
0.0
 10
417.4022134049459
 20
323.8370281283121
 30
0.0
 10
416.3218682258848
 20
324.0311528716846
 30
0.0
 10
415.8985518247119
 20
324.1072176233361
 30
0.0
  0
LINE
  5
178
330
1F
100
AcDbEntity
  8
0
  6
Continuous
 62
     7
370
    25
100
AcDbLine
 10
371.204370293
 20
280.6882143695
 30
0.0
 11
391.2375994355
 21
280.6882143695
 31
0.0
  0
LINE
  5
179
330
1F
100
AcDbEntity
  8
0
  6
Continuous
 62
     7
370
    25
100
AcDbLine
 10
391.2375994355
 20
325.7882138923
 30
0.0
 11
371.0857756764
 21
325.7882138923
 31
0.0
  0
ARC
  5
17A
330
1F
100
AcDbEntity
  8
0
  6
Continuous
 62
     7
370
    25
100
AcDbCircle
 10
391.2375979631
 20
281.3882142857
 30
0.0
 40
0.7000000000000247
100
AcDbArc
 50
270.0
 51
319.0
  0
ARC
  5
17B
330
1F
100
AcDbEntity
  8
0
  6
Continuous
 62
     7
370
    25
100
AcDbCircle
 10
391.2375979631
 20
325.0882142857
 30
0.0
 40
0.6999999999999886
100
AcDbArc
 50
41.0
 51
90.0
  0
SPLINE
  5
17C
330
1F
100
AcDbEntity
  8
0
  6
Continuous
 62
     7
370
    25
100
AcDbSpline
210
0.0
220
0.0
230
1.0
 70
     8
 71
     3
 72
    20
 73
    16
 74
     0
 42
0.000000001
 43
0.00000001
 40
0.0
 40
0.0
 40
0.0
 40
0.0
 40
0.4598309237532945
 40
0.6140878653520849
 40
0.6605236495412374
 40
0.6873846841937825
 40
0.6916047474000161
 40
0.6950933889972886
 40
0.6981174271916748
 40
0.7010327960790077
 40
0.7041976282778143
 40
0.707866872311804
 40
0.7171925443576963
 40
0.7825055931247168
 40
1.0
 40
1.0
 40
1.0
 40
1.0
 10
427.0524286061756
 20
320.8290403917858
 30
0.0
 10
427.0269274908761
 20
320.9633683773815
 30
0.0
 10
426.9928716572001
 20
321.1427586307776
 30
0.0
 10
426.8572369483194
 20
321.3967636631434
 30
0.0
 10
426.743286302869
 20
321.5349957574877
 30
0.0
 10
426.678397738795
 20
321.6045888198666
 30
0.0
 10
426.6187518630803
 20
321.6616815961873
 30
0.0
 10
426.5955086450022
 20
321.6833411299677
 30
0.0
 10
426.5710615409663
 20
321.7055196021953
 30
0.0
 10
426.5459920431152
 20
321.727669491004
 30
0.0
 10
426.521305907229
 20
321.748921041268
 30
0.0
 10
426.485946677157
 20
321.7785825895082
 30
0.0
 10
426.3544278132424
 20
321.8838096520239
 30
0.0
 10
426.1148817673782
 20
322.034357171804
 30
0.0
 10
425.9467894290962
 20
322.0870134176695
 30
0.0
 10
425.8175172239772
 20
322.1275089517662
 30
0.0
  0
LINE
  5
17D
330
1F
100
AcDbEntity
  8
0
  6
Continuous
 62
     7
370
    25
100
AcDbLine
 10
391.7658940286
 20
280.9289728966
 30
0.0
 11
391.8367453248
 21
281.0104778246
 31
0.0
  0
LINE
  5
17E
330
1F
100
AcDbEntity
  8
0
  6
Continuous
 62
     7
370
    25
100
AcDbLine
 10
391.8367453248
 20
325.4659502045
 30
0.0
 11
391.7658940286
 21
325.5474558309
 31
0.0
  0
ARC
  5
17F
330
1F
100
AcDbEntity
  8
0
  6
Continuous
 62
     7
370
    25
100
AcDbCircle
 10
392.3650425557
 20
280.5512366045
 30
0.0
 40
0.7000000000000247
100
AcDbArc
 50
92.7443153111
 51
139.0
  0
ARC
  5
180
330
1F
100
AcDbEntity
  8
0
  6
Continuous
 62
     7
370
    25
100
AcDbCircle
 10
392.3650425557
 20
325.9251919669
 30
0.0
 40
0.6999999999999874
100
AcDbArc
 50
221.0
 51
267.2556846889
  0
ARC
  5
181
330
1F
100
AcDbEntity
  8
0
  6
Continuous
 62
     7
370
    25
100
AcDbCircle
 10
391.2781886654
 20
303.2252029232
 30
0.0
 40
22.00000000000004
100
AcDbArc
 50
272.7443153111
 51
280.840022429
  0
ARC
  5
182
330
1F
100
AcDbEntity
  8
0
  6
Continuous
 62
     7
370
    25
100
AcDbCircle
 10
391.2781886654
 20
303.2512256482
 30
0.0
 40
22.00000000000002
100
AcDbArc
 50
53.7955594609
 51
87.2556846889
  0
SPLINE
  5
183
330
1F
100
AcDbEntity
  8
0
  6
Continuous
 62
     7
370
    25
100
AcDbSpline
210
0.0
220
0.0
230
1.0
 70
     8
 71
     3
 72
     9
 73
     5
 74
     0
 42
0.000000001
 43
0.00000001
 40
0.0
 40
0.0
 40
0.0
 40
0.0
 40
0.4984631524992117
 40
1.0
 40
1.0
 40
1.0
 40
1.0
 10
426.945192399644
 20
215.2583068445751
 30
0.0
 10
426.962262955137
 20
215.257842320769
 30
0.0
 10
426.9965093290311
 20
215.2569104087435
 30
0.0
 10
427.0312200862975
 20
215.2580488158492
 30
0.0
 10
427.0486288100711
 20
215.2586197689602
 30
0.0
  0
SPLINE
  5
184
330
1F
100
AcDbEntity
  8
0
  6
Continuous
 62
     7
370
    25
100
AcDbSpline
210
0.0
220
0.0
230
1.0
 70
     8
 71
     3
 72
    13
 73
     9
 74
     0
 42
0.000000001
 43
0.00000001
 40
0.0
 40
0.0
 40
0.0
 40
0.0
 40
0.2961537959035911
 40
0.553017184900065
 40
0.6682050774863947
 40
0.7775658402201495
 40
0.8860874574248937
 40
1.0
 40
1.0
 40
1.0
 40
1.0
 10
423.4327726394168
 20
218.6622163489887
 30
0.0
 10
423.5591332942098
 20
218.1718485458293
 30
0.0
 10
423.7950904710627
 20
217.2561695107472
 30
0.0
 10
424.4300619063428
 20
216.3522400913441
 30
0.0
 10
425.0959265833142
 20
215.8303678244507
 30
0.0
 10
425.6609126583069
 20
215.552968252203
 30
0.0
 10
426.306063614311
 20
215.372558171577
 30
0.0
 10
426.76305805416
 20
215.3418537615616
 30
0.0
 10
426.9970931440823
 20
215.3261294797489
 30
0.0
  0
SPLINE
  5
185
330
1F
100
AcDbEntity
  8
0
  6
Continuous
 62
     7
370
    25
100
AcDbSpline
210
0.0
220
0.0
230
1.0
 70
     8
 71
     3
 72
    10
 73
     6
 74
     0
 42
0.000000001
 43
0.00000001
 40
0.0
 40
0.0
 40
0.0
 40
0.0
 40
0.3084529236286747
 40
0.6928438775972795
 40
1.0
 40
1.0
 40
1.0
 40
1.0
 10
427.4834446937076
 20
315.0721239135096
 30
0.0
 10
427.4529627777314
 20
315.7023396116165
 30
0.0
 10
427.3844946023834
 20
317.1179238209098
 30
0.0
 10
427.2426824129669
 20
319.0629192467983
 30
0.0
 10
427.1063814481831
 20
320.280018372934
 30
0.0
 10
427.0458422929279
 20
320.8206026092598
 30
0.0
  0
SPLINE
  5
186
330
1F
100
AcDbEntity
  8
0
  6
Continuous
 62
     7
370
    25
100
AcDbSpline
210
0.0
220
0.0
230
1.0
 70
     8
 71
     3
 72
    15
 73
    11
 74
     0
 42
0.000000001
 43
0.00000001
 40
0.0
 40
0.0
 40
0.0
 40
0.0
 40
0.0006749141657713
 40
0.003002134905736
 40
0.0113665592991872
 40
0.0990862808298662
 40
0.2598292196740615
 40
0.4736050655562236
 40
0.8038378049832835
 40
0.9999999999999999
 40
0.9999999999999999
 40
0.9999999999999999
 40
0.9999999999999999
 10
427.7415551573268
 20
303.2341515854428
 30
0.0
 10
427.7415429780028
 20
303.2355122322861
 30
0.0
 10
427.7414888022635
 20
303.2415646247085
 30
0.0
 10
427.7412301260929
 20
303.264274105868
 30
0.0
 10
427.7392574773575
 20
303.4593552742606
 30
0.0
 10
427.7338285020692
 20
303.9611363394436
 30
0.0
 10
427.7235985878171
 20
304.8998494092907
 30
0.0
 10
427.7061415092522
 20
306.377366305018
 30
0.0
 10
427.6870167880293
 20
307.9152714985412
 30
0.0
 10
427.6665809354568
 20
308.9804085191022
 30
0.0
 10
427.6589654714099
 20
309.3773341015408
 30
0.0
  0
LINE
  5
187
330
1F
100
AcDbEntity
  8
0
  6
Continuous
 62
     7
370
    25
100
AcDbLine
 10
411.4974715144
 20
279.9474531994
 30
0.0
 11
414.6592222482
 21
279.9474531994
 31
0.0
  0
LINE
  5
188
330
1F
100
AcDbEntity
  8
0
  6
Continuous
 62
     7
370
    25
100
AcDbLine
 10
395.4156726927
 20
279.9474531994
 30
0.0
 11
403.5338700146
 21
279.9474531994
 31
0.0
  0
SPLINE
  5
189
330
1F
100
AcDbEntity
  8
0
  6
Continuous
 62
     7
370
    25
100
AcDbSpline
210
0.0
220
0.0
230
1.0
 70
     8
 71
     3
 72
    15
 73
    11
 74
     0
 42
0.000000001
 43
0.00000001
 40
0.0
 40
0.0
 40
0.0
 40
0.0
 40
0.1440437409973381
 40
0.277310934719175
 40
0.4023231560964076
 40
0.5230935259113384
 40
0.6417754646121794
 40
0.7601228126169401
 40
0.8793595921260733
 40
0.9999999999999999
 40
0.9999999999999999
 40
0.9999999999999999
 40
0.9999999999999999
 10
414.6592222482196
 20
279.9475821875462
 30
0.0
 10
415.1645934373316
 20
279.9476335372723
 30
0.0
 10
416.1375267689878
 20
279.9477323950251
 30
0.0
 10
417.5479655757042
 20
279.7775284405654
 30
0.0
 10
418.8020742809449
 20
279.2877935998251
 30
0.0
 10
419.841997819698
 20
278.5208271329413
 30
0.0
 10
420.654400762572
 20
277.5485486965991
 30
0.0
 10
421.2259909164287
 20
276.4277612866213
 30
0.0
 10
421.5801841292964
 20
275.2115272627231
 30
0.0
 10
421.6408239501257
 20
274.3702007208478
 30
0.0
 10
421.6713212758533
 20
273.9470759615729
 30
0.0
  0
SPLINE
  5
18A
330
1F
100
AcDbEntity
  8
0
  6
Continuous
 62
     7
370
    25
100
AcDbSpline
210
0.0
220
0.0
230
1.0
 70
     8
 71
     3
 72
    16
 73
    12
 74
     0
 42
0.000000001
 43
0.00000001
 40
0.0
 40
0.0
 40
0.0
 40
0.0
 40
0.1624399976732701
 40
0.2991875805876155
 40
0.409970877840072
 40
0.495714836793584
 40
0.5795450877158802
 40
0.6859249905390624
 40
0.8216397094752164
 40
0.9043856791856106
 40
0.9999999999999999
 40
0.9999999999999999
 40
0.9999999999999999
 40
0.9999999999999999
 10
406.624691221141
 20
264.8140108421871
 30
0.0
 10
405.9955857259383
 20
264.6448318868397
 30
0.0
 10
404.8368775645241
 20
264.3332322619826
 30
0.0
 10
403.3497972117499
 20
263.6169722901758
 30
0.0
 10
402.246125653171
 20
262.858825984973
 30
0.0
 10
401.4256324835564
 20
262.0876510913511
 30
0.0
 10
400.7330273370646
 20
261.2225332769929
 30
0.0
 10
400.0911825279052
 20
260.07802366929
 30
0.0
 10
399.6944332789191
 20
258.8294976465232
 30
0.0
 10
399.4926033740488
 20
257.585700197024
 30
0.0
 10
399.4727585582644
 20
256.8712255666173
 30
0.0
 10
399.4621202677719
 20
256.488214267833
 30
0.0
  0
SPLINE
  5
18B
330
1F
100
AcDbEntity
  8
0
  6
Continuous
 62
     7
370
    25
100
AcDbSpline
210
0.0
220
0.0
230
1.0
 70
     8
 71
     3
 72
    16
 73
    12
 74
     0
 42
0.000000001
 43
0.00000001
 40
0.0
 40
0.0
 40
0.0
 40
0.0
 40
0.0956143214730125
 40
0.1783602916562096
 40
0.3140750113473567
 40
0.4204549149436412
 40
0.5042852878064843
 40
0.5900291411313172
 40
0.7008123505660473
 40
0.8375600013974784
 40
0.9999999999999999
 40
0.9999999999999999
 40
0.9999999999999999
 40
0.9999999999999999
 10
399.4621202677719
 20
248.9882139698097
 30
0.0
 10
399.4727585553491
 20
248.6052026687606
 30
0.0
 10
399.4926033656846
 20
247.8907280345182
 30
0.0
 10
399.6944333143001
 20
246.6469306203031
 30
0.0
 10
400.091182318148
 20
245.3984043945237
 30
0.0
 10
400.7330281153475
 20
244.2538949767049
 30
0.0
 10
401.4256312873374
 20
243.3887754541362
 30
0.0
 10
402.2461260033093
 20
242.6176023684461
 30
0.0
 10
403.3497981649746
 20
241.8594583129116
 30
0.0
 10
404.836876935763
 20
241.1431952944094
 30
0.0
 10
405.9955855961776
 20
240.8315960864772
 30
0.0
 10
406.624691221141
 20
240.6624173954556
 30
0.0
  0
SPLINE
  5
18C
330
1F
100
AcDbEntity
  8
0
  6
Continuous
 62
     7
370
    25
100
AcDbSpline
210
0.0
220
0.0
230
1.0
 70
     8
 71
     3
 72
    16
 73
    12
 74
     0
 42
0.000000001
 43
0.00000001
 40
0.0
 40
0.0
 40
0.0
 40
0.0
 40
0.1305469785031787
 40
0.2406810156968351
 40
0.3307780047860021
 40
0.4009713453371762
 40
0.4562506468093049
 40
0.5471686351876446
 40
0.6692925703573003
 40
0.8227390335030932
 40
1.0
 40
1.0
 40
1.0
 40
1.0
 10
408.4310099810592
 20
241.7927673295567
 30
0.0
 10
408.5454296598329
 20
242.7329810046304
 30
0.0
 10
408.756377816724
 20
244.4663921098387
 30
0.0
 10
408.9039616707024
 20
246.8622295192005
 30
0.0
 10
408.9733501186657
 20
248.8225665506544
 30
0.0
 10
409.0027641243806
 20
250.3860125328624
 30
0.0
 10
409.0177694255446
 20
251.9555510427416
 30
0.0
 10
409.0186504553524
 20
253.9019583581439
 30
0.0
 10
408.9817096148548
 20
256.5598256123348
 30
0.0
 10
408.8685898522178
 20
259.8447623540959
 30
0.0
 10
408.5952429018548
 20
262.2289773240174
 30
0.0
 10
408.4487274617188
 20
263.5069294110367
 30
0.0
  0
SPLINE
  5
18D
330
1F
100
AcDbEntity
  8
0
  6
Continuous
 62
     7
370
    25
100
AcDbSpline
210
0.0
220
0.0
230
1.0
 70
     8
 71
     3
 72
    12
 73
     8
 74
     0
 42
0.000000001
 43
0.00000001
 40
0.0
 40
0.0
 40
0.0
 40
0.0
 40
0.2226053992977391
 40
0.4589425167380699
 40
0.6848847256773772
 40
0.9131487412013105
 40
0.9999999999999999
 40
0.9999999999999999
 40
0.9999999999999999
 40
0.9999999999999999
 10
426.8660299808017
 20
215.2736103371212
 30
0.0
 10
426.6125083103914
 20
215.2949646872547
 30
0.0
 10
426.0898261390117
 20
215.3389906597804
 30
0.0
 10
425.3475974140894
 20
215.6244789716035
 30
0.0
 10
424.7130809194167
 20
216.0885983897357
 30
0.0
 10
424.2627131337017
 20
216.5375240717545
 30
0.0
 10
424.1297964536023
 20
216.8729321196685
 30
0.0
 10
424.0931623012058
 20
216.9653764203617
 30
0.0
  0
SPLINE
  5
18E
330
1F
100
AcDbEntity
  8
0
  6
Continuous
 62
     7
370
    25
100
AcDbSpline
210
0.0
220
0.0
230
1.0
 70
     8
 71
     3
 72
    10
 73
     6
 74
     0
 42
0.000000001
 43
0.00000001
 40
0.0
 40
0.0
 40
0.0
 40
0.0
 40
0.3753225999519038
 40
0.7076951231709692
 40
1.0
 40
1.0
 40
1.0
 40
1.0
 10
428.2892249852649
 20
216.3845142558644
 30
0.0
 10
428.3767586066509
 20
217.7624663362733
 30
0.0
 10
428.541808931295
 20
220.3606844222445
 30
0.0
 10
428.564570529202
 20
224.0354414562977
 30
0.0
 10
428.5453480533276
 20
226.2810110928718
 30
0.0
 10
428.5363532930843
 20
227.3317789867947
 30
0.0
  0
SPLINE
  5
18F
330
1F
100
AcDbEntity
  8
0
  6
Continuous
 62
     7
370
    25
100
AcDbSpline
210
0.0
220
0.0
230
1.0
 70
     8
 71
     3
 72
     9
 73
     5
 74
     0
 42
0.000000001
 43
0.00000001
 40
0.0
 40
0.0
 40
0.0
 40
0.0
 40
0.808802470383501
 40
1.0
 40
1.0
 40
1.0
 40
1.0
 10
427.1772034794323
 20
215.2705630496571
 30
0.0
 10
427.1776198064533
 20
215.2615734855293
 30
0.0
 10
427.1781345514451
 20
215.2504588259468
 30
0.0
 10
427.3395872767308
 20
215.3100807524064
 30
0.0
 10
427.3704566389553
 20
215.3214803174565
 30
0.0
  0
LINE
  5
190
330
1F
100
AcDbEntity
  8
0
  6
Continuous
 62
     7
370
    25
100
AcDbLine
 10
428.2652266652
 20
216.3774138526
 30
0.0
 11
428.2949470312
 21
216.4541920856
 31
0.0
  0
LINE
  5
191
330
1F
100
AcDbEntity
  8
0
  6
Continuous
 62
     7
370
    25
100
AcDbLine
 10
399.2621168822
 20
256.7382147745
 30
0.0
 11
371.151913549
 21
256.7382147745
 31
0.0
  0
LINE
  5
192
330
1F
100
AcDbEntity
  8
0
  6
Continuous
 62
     7
370
    25
100
AcDbLine
 10
371.1163761422
 20
248.7382134632
 30
0.0
 11
399.2621168822
 21
248.7382134632
 31
0.0
  0
LINE
  5
193
330
1F
100
AcDbEntity
  8
0
  6
Continuous
 62
     7
370
    25
100
AcDbLine
 10
399.2621168822
 20
248.7382134632
 30
0.0
 11
399.4621202678
 21
248.9382131234
 31
0.0
  0
LINE
  5
194
330
1F
100
AcDbEntity
  8
0
  6
Continuous
 62
     7
370
    25
100
AcDbLine
 10
399.4621202678
 20
256.5382151142
 30
0.0
 11
399.2621168822
 21
256.7382147745
 31
0.0
  0
LINE
  5
195
330
1F
100
AcDbEntity
  8
0
  6
Continuous
 62
     7
370
    25
100
AcDbLine
 10
403.5156719715
 20
279.9974531144
 30
0.0
 11
403.7342533797
 21
279.3969060503
 31
0.0
  0
LINE
  5
196
330
1F
100
AcDbEntity
  8
0
  6
Continuous
 62
     7
370
    25
100
AcDbLine
 10
411.2970918745
 20
279.3969060503
 30
0.0
 11
411.4974715144
 21
279.9474531994
 31
0.0
  0
ARC
  5
197
330
1F
100
AcDbEntity
  8
0
  6
Continuous
 62
     7
370
    25
100
AcDbCircle
 10
411.1091519969
 20
279.4653099929
 30
0.0
 40
0.2000000000000553
100
AcDbArc
 50
270.0
 51
340.0
  0
ARC
  5
198
330
1F
100
AcDbEntity
  8
0
  6
Continuous
 62
     7
370
    25
100
AcDbCircle
 10
403.9221917791
 20
279.4653099929
 30
0.0
 40
0.1999999999999886
100
AcDbArc
 50
200.0
 51
270.0
  0
LINE
  5
199
330
1F
100
AcDbEntity
  8
0
  6
Continuous
 62
     7
370
    25
100
AcDbLine
 10
403.92219055
 20
279.2653101705
 30
0.0
 11
411.1091509789
 21
279.2653101705
 31
0.0
  0
LINE
  5
19A
330
1F
100
AcDbEntity
  8
0
  6
Continuous
 62
     7
370
    25
100
AcDbLine
 10
416.3475387126
 20
324.023800923
 30
0.0
 11
415.9582831294
 21
324.1023598448
 31
0.0
  0
LINE
  5
19B
330
1F
100
AcDbEntity
  8
0
  6
Continuous
 62
     7
370
    25
100
AcDbLine
 10
356.415671888
 20
339.4450685218
 30
0.0
 11
356.415671888
 21
359.4382172659
 31
0.0
  0
LINE
  5
19C
330
1F
100
AcDbEntity
  8
0
  6
Continuous
 62
     7
370
    25
100
AcDbLine
 10
356.415671888
 20
359.4382172659
 30
0.0
 11
369.1538419903
 21
359.1046547726
 31
0.0
  0
LINE
  5
19D
330
1F
100
AcDbEntity
  8
0
  6
Continuous
 62
     7
370
    25
100
AcDbLine
 10
356.415671888
 20
209.4382113055
 30
0.0
 11
356.415671888
 21
229.4313600496
 31
0.0
  0
LINE
  5
19E
330
1F
100
AcDbEntity
  8
0
  6
Continuous
 62
     7
370
    25
100
AcDbLine
 10
369.1538419903
 20
209.7717737988
 30
0.0
 11
356.415671888
 21
209.4382113055
 31
0.0
  0
SPLINE
  5
19F
330
1F
100
AcDbEntity
  8
0
  6
Continuous
 62
     7
370
    25
100
AcDbSpline
210
0.0
220
0.0
230
1.0
 70
     8
 71
     3
 72
    17
 73
    13
 74
     0
 42
0.000000001
 43
0.00000001
 40
0.0
 40
0.0
 40
0.0
 40
0.0
 40
0.0397523057608333
 40
0.1131695485857937
 40
0.2223843625559368
 40
0.334762642115984
 40
0.444004770552523
 40
0.5564167348159053
 40
0.665727216995514
 40
0.7782121586913346
 40
0.887521692612815
 40
1.0
 40
1.0
 40
1.0
 40
1.0
 10
370.607689614617
 20
357.5702673033306
 30
0.0
 10
370.6049035481238
 20
357.5560257685547
 30
0.0
 10
370.5969719858828
 20
357.5154820055978
 30
0.0
 10
370.5838859959999
 20
357.1402800478018
 30
0.0
 10
370.5696369522065
 20
356.3213795424952
 30
0.0
 10
370.559145066387
 20
354.8976351218365
 30
0.0
 10
370.5541863097286
 20
353.01662479961
 30
0.0
 10
370.5550565655483
 20
350.758081391003
 30
0.0
 10
370.5617110063538
 20
348.1470103780841
 30
0.0
 10
370.5739476053544
 20
345.3038542782529
 30
0.0
 10
370.5912574270221
 20
342.2587062928665
 30
0.0
 10
370.606645911942
 20
340.1782592549341
 30
0.0
 10
370.6144500851861
 20
339.1231736377308
 30
0.0
  0
SPLINE
  5
1A0
330
1F
100
AcDbEntity
  8
0
  6
Continuous
 62
     7
370
    25
100
AcDbSpline
210
0.0
220
0.0
230
1.0
 70
     8
 71
     3
 72
    17
 73
    13
 74
     0
 42
0.000000001
 43
0.00000001
 40
0.0
 40
0.0
 40
0.0
 40
0.0
 40
0.0722131216363836
 40
0.1453211556970071
 40
0.254075993558329
 40
0.365980973555167
 40
0.474763010843528
 40
0.586701533675046
 40
0.6955516368234723
 40
0.807562829730998
 40
0.9164119886150407
 40
1.0
 40
1.0
 40
1.0
 40
1.0
 10
370.6144500851861
 20
229.7532549336979
 30
0.0
 10
370.6093300427361
 20
229.0734876779003
 30
0.0
 10
370.5990265069077
 20
227.7055290440817
 30
0.0
 10
370.5838331150752
 20
225.3433361360651
 30
0.0
 10
370.569653884622
 20
222.6938188506963
 30
0.0
 10
370.5591408216034
 20
219.9215077468861
 30
0.0
 10
370.5541867420694
 20
217.4030561093657
 30
0.0
 10
370.5550592472128
 20
215.2568204728861
 30
0.0
 10
370.5617001102527
 20
213.4993302390445
 30
0.0
 10
370.5739894326477
 20
212.2347197138431
 30
0.0
 10
370.5896433289414
 20
211.4644168520802
 30
0.0
 10
370.6029739868711
 20
211.3665050754661
 30
0.0
 10
370.6087643608681
 20
211.3239756063053
 30
0.0
  0
LINE
  5
1A1
330
1F
100
AcDbEntity
  8
0
  6
Continuous
 62
     7
370
    25
100
AcDbLine
 10
356.415671888
 20
229.4313600496
 30
0.0
 11
356.415671888
 21
339.4450685218
 31
0.0
  0
SPLINE
  5
1A2
330
1F
100
AcDbEntity
  8
0
  6
Continuous
 62
     7
370
    25
100
AcDbSpline
210
0.0
220
0.0
230
1.0
 70
     8
 71
     3
 72
    14
 73
    10
 74
     0
 42
0.000000001
 43
0.00000001
 40
0.0
 40
0.0
 40
0.0
 40
0.0
 40
0.1432186911536772
 40
0.2864376189641046
 40
0.4296569813240412
 40
0.5728767348950297
 40
0.7160959372494232
 40
0.8593139330593128
 40
1.0
 40
1.0
 40
1.0
 40
1.0
 10
371.1468872010938
 20
255.5653890803883
 30
0.0
 10
371.145327194844
 20
255.2159452637851
 30
0.0
 10
371.1422071797663
 20
254.5170570531525
 30
0.0
 10
371.1362426590735
 20
253.1826052938551
 30
0.0
 10
371.130157890213
 20
251.8215803774872
 30
0.0
 10
371.1244919610169
 20
250.5553409916189
 30
0.0
 10
371.1199755565187
 20
249.5459024589638
 30
0.0
 10
371.1169310278294
 20
248.8661902010927
 30
0.0
 10
371.1165600011241
 20
248.7832359601848
 30
0.0
 10
371.1163761422268
 20
248.742128743274
 30
0.0
  0
SPLINE
  5
1A3
330
1F
100
AcDbEntity
  8
0
  6
Continuous
 62
     7
370
    25
100
AcDbSpline
210
0.0
220
0.0
230
1.0
 70
     8
 71
     3
 72
    10
 73
     6
 74
     0
 42
0.000000001
 43
0.00000001
 40
0.0
 40
0.0
 40
0.0
 40
0.0
 40
0.302062834170665
 40
0.7313323872456186
 40
1.0
 40
1.0
 40
1.0
 40
1.0
 10
371.1519116863839
 20
256.690916626198
 30
0.0
 10
371.1518957472355
 20
256.6873109119617
 30
0.0
 10
371.1518571565379
 20
256.6785810210188
 30
0.0
 10
371.1498511663376
 20
256.2291360452146
 30
0.0
 10
371.1477110346647
 20
255.7498774219151
 30
0.0
 10
371.1468872010938
 20
255.5653890803883
 30
0.0
  0
SPLINE
  5
1A4
330
1F
100
AcDbEntity
  8
0
  6
Continuous
 62
     7
370
    25
100
AcDbSpline
210
0.0
220
0.0
230
1.0
 70
     8
 71
     3
 72
    12
 73
     8
 74
     0
 42
0.000000001
 43
0.00000001
 40
0.0
 40
0.0
 40
0.0
 40
0.0
 40
0.2117317830236211
 40
0.4296037549120843
 40
0.6413355144338432
 40
0.8592075600103151
 40
1.0
 40
1.0
 40
1.0
 40
1.0
 10
371.1031467050544
 20
319.1841608122418
 30
0.0
 10
371.1009128138861
 20
320.0249000145844
 30
0.0
 10
371.0963802490521
 20
321.7307597257259
 30
0.0
 10
371.0912958180991
 20
323.6427622717043
 30
0.0
 10
371.0876911267792
 20
324.9984324234724
 30
0.0
 10
371.0857708888678
 20
325.720964222114
 30
0.0
 10
371.0857743268323
 20
325.7194292018494
 30
0.0
 10
371.0857756763927
 20
325.7188266352246
 30
0.0
  0
SPLINE
  5
1A5
330
1F
100
AcDbEntity
  8
0
  6
Continuous
 62
     7
370
    25
100
AcDbSpline
210
0.0
220
0.0
230
1.0
 70
     8
 71
     3
 72
    22
 73
    18
 74
     0
 42
0.000000001
 43
0.00000001
 40
0.0
 40
0.0
 40
0.0
 40
0.0
 40
0.0515223343346696
 40
0.1220870838118668
 40
0.1946982236010467
 40
0.2652629935892306
 40
0.3378741339083461
 40
0.4084390905198156
 40
0.4810504406063755
 40
0.5516156235959844
 40
0.6242272134873079
 40
0.6947926068154697
 40
0.767404395844803
 40
0.8379698261359189
 40
0.9105816839777556
 40
0.9550426479311425
 40
1.0
 40
1.0
 40
1.0
 40
1.0
 10
371.2043702930442
 20
280.7561750732789
 30
0.0
 10
371.2043596614997
 20
280.7611589744479
 30
0.0
 10
371.2043344690411
 20
280.772968803478
 30
0.0
 10
371.2024449776875
 20
281.5374508667613
 30
0.0
 10
371.198945282119
 20
282.9047811469262
 30
0.0
 10
371.1938078016033
 20
284.8877899005086
 30
0.0
 10
371.18733432022
 20
287.3653181773532
 30
0.0
 10
371.1795806325345
 20
290.3197084374991
 30
0.0
 10
371.1709087709268
 20
293.612058472438
 30
0.0
 10
371.1614126096816
 20
297.2090120588639
 30
0.0
 10
371.1515357872943
 20
300.9438330436406
 30
0.0
 10
371.1413796248203
 20
304.7782023447426
 30
0.0
 10
371.1314245010599
 20
308.5340643168866
 30
0.0
 10
371.1217631008455
 20
312.1745844126052
 30
0.0
 10
371.1139570943987
 20
315.1151122837097
 30
0.0
 10
371.1077522260041
 20
317.4508930840624
 30
0.0
 10
371.104687549686
 20
318.6042706536119
 30
0.0
 10
371.1031467050544
 20
319.1841608122418
 30
0.0
  0
SPLINE
  5
1A6
330
1F
100
AcDbEntity
  8
0
  6
Continuous
 62
     7
370
    25
100
AcDbSpline
210
0.0
220
0.0
230
1.0
 70
     8
 71
     3
 72
     9
 73
     5
 74
     0
 42
0.000000001
 43
0.00000001
 40
0.0
 40
0.0
 40
0.0
 40
0.0
 40
0.8388711009676304
 40
0.9999999999999999
 40
0.9999999999999999
 40
0.9999999999999999
 40
0.9999999999999999
 10
369.1538419902555
 20
359.1046547726223
 30
0.0
 10
369.2642545692235
 20
359.1017611322173
 30
0.0
 10
369.3958750039251
 20
359.0983116864065
 30
0.0
 10
369.350683225888
 20
359.0995010457786
 30
0.0
 10
369.3434015244476
 20
359.0996926859448
 30
0.0
  0
SPLINE
  5
1A7
330
1F
100
AcDbEntity
  8
0
  6
Continuous
 62
     7
370
    25
100
AcDbSpline
210
0.0
220
0.0
230
1.0
 70
     8
 71
     3
 72
     9
 73
     5
 74
     0
 42
0.000000001
 43
0.00000001
 40
0.0
 40
0.0
 40
0.0
 40
0.0
 40
0.6707413782245192
 40
1.0
 40
1.0
 40
1.0
 40
1.0
 10
369.3429582149021
 20
209.7767284349034
 30
0.0
 10
369.3374865521909
 20
209.776583416639
 30
0.0
 10
369.3293289181325
 20
209.7763672107076
 30
0.0
 10
369.1973102687875
 20
209.7729115912924
 30
0.0
 10
369.1538419902555
 20
209.7717737988064
 30
0.0
  0
SPLINE
  5
1A8
330
1F
100
AcDbEntity
  8
0
  6
Continuous
 62
     7
370
    25
100
AcDbSpline
210
0.0
220
0.0
230
1.0
 70
    24
 71
     3
 72
     8
 73
     4
 74
     0
 42
0.000000001
 43
0.00000001
 40
0.0
 40
0.0
 40
0.0
 40
0.0
 40
1.0
 40
1.0
 40
1.0
 40
1.0
 10
395.4156718880168
 20
291.4387996960446
 30
0.0
 10
395.4156718880168
 20
290.2066394594988
 30
0.0
 10
395.4156718880168
 20
289.0510344519169
 30
0.0
 10
395.4156718880168
 20
287.9733036276053
 30
0.0
  0
SPLINE
  5
1A9
330
1F
100
AcDbEntity
  8
0
  6
Continuous
 62
     7
370
    25
100
AcDbSpline
210
0.0
220
0.0
230
1.0
 70
     8
 71
     3
 72
    16
 73
    12
 74
     0
 42
0.000000001
 43
0.00000001
 40
0.0
 40
0.0
 40
0.0
 40
0.0
 40
0.2499999999999997
 40
0.2499999999999997
 40
0.3749999999999997
 40
0.3749999999999997
 40
0.4999999999999998
 40
0.4999999999999998
 40
0.7499999999999999
 40
0.7499999999999999
 40
1.0
 40
1.0
 40
1.0
 40
1.0
 10
397.2248932644397
 20
301.6994039958147
 30
0.0
 10
396.9088813144269
 20
300.8311682988769
 30
0.0
 10
396.6367342207456
 20
299.9589015415685
 30
0.0
 10
396.2907309241447
 20
298.6459254081196
 30
0.0
 10
396.18578194748
 20
298.2074998229571
 30
0.0
 10
395.9962369733197
 20
297.3293528656426
 30
0.0
 10
395.9117773849966
 20
296.8898647499149
 30
0.0
 10
395.690861153285
 20
295.5874417692868
 30
0.0
 10
395.585431906862
 20
294.7344914852274
 30
0.0
 10
395.4478062727237
 20
293.0610919527937
 30
0.0
 10
395.4156718880169
 20
292.2406409201183
 30
0.0
 10
395.4156718880169
 20
291.4387996960446
 30
0.0
  0
SPLINE
  5
1AA
330
1F
100
AcDbEntity
  8
0
  6
Continuous
 62
     7
370
    25
100
AcDbSpline
210
0.0
220
0.0
230
1.0
 70
    24
 71
     3
 72
     8
 73
     4
 74
     0
 42
0.000000001
 43
0.00000001
 40
0.0
 40
0.0
 40
0.0
 40
0.0
 40
1.0
 40
1.0
 40
1.0
 40
1.0
 10
397.7825258062537
 20
303.231486812623
 30
0.0
 10
397.5964251071391
 20
302.720179344061
 30
0.0
 10
397.4105468009109
 20
302.2094828951114
 30
0.0
 10
397.2248932644397
 20
301.6994039958147
 30
0.0
  0
SPLINE
  5
1AB
330
1F
100
AcDbEntity
  8
0
  6
Continuous
 62
     7
370
    25
100
AcDbSpline
210
0.0
220
0.0
230
1.0
 70
     8
 71
     3
 72
     8
 73
     4
 74
     0
 42
0.000000001
 43
0.00000001
 40
0.0013999840203585
 40
0.0013999840203585
 40
0.0013999840203585
 40
0.0013999840203585
 40
0.6262686277567391
 40
0.6262686277567391
 40
0.6262686277567391
 40
0.6262686277567391
 10
425.8365131475906
 20
322.1562732277553
 30
0.0
 10
419.4822268514159
 20
323.4684948077011
 30
0.0
 10
413.126031126576
 20
324.7795684459333
 30
0.0
 10
405.9156718880168
 20
325.5771220215719
 30
0.0
  0
SPLINE
  5
1AC
330
1F
100
AcDbEntity
  8
0
  6
Continuous
 62
     7
370
    25
100
AcDbSpline
210
0.0
220
0.0
230
1.0
 70
     8
 71
     3
 72
    34
 73
    30
 74
     0
 42
0.000000001
 43
0.00000001
 40
0.0
 40
0.0
 40
0.0
 40
0.0
 40
0.1250000000000002
 40
0.1250000000000002
 40
0.2500000000000004
 40
0.2500000000000004
 40
0.2812500000000004
 40
0.2812500000000004
 40
0.3125000000000005
 40
0.3125000000000005
 40
0.3750000000000004
 40
0.3750000000000004
 40
0.4375000000000004
 40
0.4375000000000004
 40
0.5000000000000004
 40
0.5000000000000004
 40
0.6250000000000004
 40
0.6250000000000004
 40
0.6562500000000003
 40
0.6562500000000003
 40
0.6875000000000003
 40
0.6875000000000003
 40
0.7500000000000002
 40
0.7500000000000002
 40
0.8125000000000002
 40
0.8125000000000002
 40
0.8750000000000002
 40
0.8750000000000002
 40
1.0
 40
1.0
 40
1.0
 40
1.0
 10
397.7825258063432
 20
303.2314868126488
 30
0.0
 10
398.326898048409
 20
304.7271372555023
 30
0.0
 10
398.8647912141251
 20
306.2049865827855
 30
0.0
 10
399.9291074116739
 20
309.1291713027107
 30
0.0
 10
400.4553999763906
 20
310.5751482402963
 30
0.0
 10
401.1033009959291
 20
312.3552416615203
 30
0.0
 10
401.2323748692658
 20
312.7098692139542
 30
0.0
 10
401.4894150651804
 20
313.4160813481218
 30
0.0
 10
401.6177258758226
 20
313.7686124030332
 30
0.0
 10
401.998271638687
 20
314.8141532935721
 30
0.0
 10
402.244819192311
 20
315.4915371299759
 30
0.0
 10
402.7222426035531
 20
316.8032471718826
 30
0.0
 10
402.95313835608
 20
317.4376280381983
 30
0.0
 10
403.3973313993679
 20
318.6580383945105
 30
0.0
 10
403.6118678811578
 20
319.2474725338777
 30
0.0
 10
404.2076997343802
 20
320.884507096398
 30
0.0
 10
404.5465723939549
 20
321.81555207665
 30
0.0
 10
404.8960443017215
 20
322.7757182519726
 30
0.0
 10
404.9621970647715
 20
322.9574714746869
 30
0.0
 10
405.0853352085328
 20
323.2957907441448
 30
0.0
 10
405.1426242284559
 20
323.4531910327659
 30
0.0
 10
405.3025978562788
 20
323.8927149629176
 30
0.0
 10
405.3934807632499
 20
324.142413697635
 30
0.0
 10
405.5503932581166
 20
324.5735272341118
 30
0.0
 10
405.6171037689446
 20
324.7568128562517
 30
0.0
 10
405.730638057381
 20
325.0687457500646
 30
0.0
 10
405.7766115773518
 20
325.1950569580773
 30
0.0
 10
405.8840369036622
 20
325.4902056163926
 30
0.0
 10
405.9156826946175
 20
325.5771517124633
 30
0.0
 10
405.9156718880168
 20
325.5771220215719
 30
0.0
  0
LINE
  5
1AD
330
1F
100
AcDbEntity
  8
0
  6
Continuous
 62
     7
370
    25
100
AcDbLine
 10
421.5010308057
 20
279.6847564377
 30
0.0
 11
423.0344869524
 21
228.0172957316
 31
0.0
  0
SPLINE
  5
1AE
330
1F
100
AcDbEntity
  8
0
  6
Continuous
 62
     7
370
    25
100
AcDbSpline
210
0.0
220
0.0
230
1.0
 70
     8
 71
     3
 72
     8
 73
     4
 74
     0
 42
0.000000001
 43
0.00000001
 40
0.0
 40
0.0
 40
0.0
 40
0.0
 40
0.9660391189136345
 40
0.9660391189136345
 40
0.9660391189136345
 40
0.9660391189136345
 10
423.034488343219
 20
228.0172943792961
 30
0.0
 10
423.0357298638806
 20
227.975463191791
 30
0.0
 10
424.2251774985464
 20
228.0248261722715
 30
0.0
 10
426.7567785113606
 20
228.058171058518
 30
0.0
  0
ARC
  5
1AF
330
1F
100
AcDbEntity
  8
0
  6
Continuous
 62
     7
370
    25
100
AcDbCircle
 10
425.5256362046
 20
320.6508863869
 30
0.0
 40
1.537151265927126
100
AcDbArc
 50
27.7364505549
 51
78.3318891045
  0
LINE
  5
1B0
330
1F
100
AcDbEntity
  8
0
  6
Continuous
 62
     7
370
    25
100
AcDbLine
 10
426.945222202
 20
215.2583142952
 30
0.0
 11
427.1784626276
 21
215.2929594949
 31
0.0
  0
SPLINE
  5
1B1
330
1F
100
AcDbEntity
  8
0
  6
Continuous
 62
     7
370
    25
100
AcDbSpline
210
0.0
220
0.0
230
1.0
 70
    24
 71
     3
 72
    15
 73
    11
 74
     0
 42
0.000000001
 43
0.00000001
 40
0.0
 40
0.0
 40
0.0
 40
0.0
 40
0.2499999999999999
 40
0.2499999999999999
 40
0.4999999999999999
 40
0.4999999999999999
 40
0.7499999999999998
 40
0.7499999999999998
 40
0.8124999999999998
 40
1.0
 40
1.0
 40
1.0
 40
1.0
 10
423.034488343219
 20
228.0172943792961
 30
0.0
 10
423.0666075697209
 20
226.9350849342012
 30
0.0
 10
423.0971532286081
 20
225.9058945035933
 30
0.0
 10
423.1526560754548
 20
224.0358088375018
 30
0.0
 10
423.1776132634143
 20
223.194913602018
 30
0.0
 10
423.219497832708
 20
221.7836754923241
 30
0.0
 10
423.2364252140422
 20
221.2133326181141
 30
0.0
 10
423.2510399767577
 20
220.7209099799912
 30
0.0
 10
423.2614228941396
 20
220.3710730604208
 30
0.0
 10
423.2662650733977
 20
220.2079230503309
 30
0.0
 10
423.2662650733977
 20
220.2079230503309
 30
0.0
  0
LINE
  5
1B2
330
1F
100
AcDbEntity
  8
0
  6
Continuous
 62
     7
370
    25
100
AcDbLine
 10
423.4508030445
 20
218.658982797
 30
0.0
 11
423.2662670642
 21
220.2079212502
 31
0.0
  0
LINE
  5
1B3
330
1F
100
AcDbEntity
  8
0
  6
Continuous
 62
     7
370
    25
100
AcDbLine
 10
428.5287909538
 20
228.0616229609
 30
0.0
 11
427.7415700585
 21
303.2329222396
 31
0.0
  0
SPLINE
  5
1B4
330
1F
100
AcDbEntity
  8
0
  6
Continuous
 62
     7
370
    25
100
AcDbSpline
210
0.0
220
0.0
230
1.0
 70
     8
 71
     3
 72
     9
 73
     5
 74
     0
 42
0.000000001
 43
0.00000001
 40
0.0
 40
0.0
 40
0.0
 40
0.0
 40
0.6155954745029499
 40
1.0
 40
1.0
 40
1.0
 40
1.0
 10
427.4708532124988
 20
315.0716191366741
 30
0.0
 10
427.5264487830077
 20
313.9036673459764
 30
0.0
 10
427.616760640082
 20
312.0063957787337
 30
0.0
 10
427.6375377925698
 20
310.1071877743747
 30
0.0
 10
427.6455246240131
 20
309.3771236226389
 30
0.0
  0
LINE
  5
1B5
330
1F
100
AcDbEntity
  8
0
  6
Continuous
 62
     7
370
    25
100
AcDbLine
 10
411.4952884943
 20
279.9478518054
 30
0.0
 11
411.2231746644
 21
279.9974531144
 31
0.0
  0
SPLINE
  5
1B6
330
1F
100
AcDbEntity
  8
0
  6
Continuous
 62
     7
370
    25
100
AcDbSpline
210
0.0
220
0.0
230
1.0
 70
     8
 71
     3
 72
    32
 73
    28
 74
     0
 42
0.000000001
 43
0.00000001
 40
0.0
 40
0.0
 40
0.0
 40
0.0
 40
0.1250000000000014
 40
0.1250000000000014
 40
0.1875000000000015
 40
0.1875000000000015
 40
0.2500000000000016
 40
0.2500000000000016
 40
0.3125000000000016
 40
0.3125000000000016
 40
0.3750000000000017
 40
0.3750000000000017
 40
0.4375000000000017
 40
0.4375000000000017
 40
0.5000000000000018
 40
0.5000000000000018
 40
0.6249999999999998
 40
0.6249999999999998
 40
0.6874999999999998
 40
0.6874999999999998
 40
0.7499999999999999
 40
0.7499999999999999
 40
0.8124999999999999
 40
0.8124999999999999
 40
0.875
 40
0.875
 40
1.0
 40
1.0
 40
1.0
 40
1.0
 10
411.2231732872634
 20
279.997453334199
 30
0.0
 10
411.073367182014
 20
280.0220494568367
 30
0.0
 10
410.8733807499408
 20
280.0535180946716
 30
0.0
 10
410.4997262776604
 20
280.1049200138576
 30
0.0
 10
410.3627973039433
 20
280.1227118776406
 30
0.0
 10
410.0727314318848
 20
280.1574104182601
 30
0.0
 10
409.9185991375741
 20
280.1744619201114
 30
0.0
 10
409.5919437787871
 20
280.2068611649086
 30
0.0
 10
409.4179513220517
 20
280.2223051657966
 30
0.0
 10
409.0612483252393
 20
280.2495324549901
 30
0.0
 10
408.8779141820311
 20
280.261409760046
 30
0.0
 10
408.5013448911981
 20
280.2809471286684
 30
0.0
 10
408.3069166343098
 20
280.2886379438956
 30
0.0
 10
407.9130216834105
 20
280.2989045683539
 30
0.0
 10
407.7160207294862
 20
280.30144624438
 30
0.0
 10
407.124862410669
 20
280.3012911133702
 30
0.0
 10
406.7247430388352
 20
280.2903020170256
 30
0.0
 10
406.1594668567179
 20
280.2607870043752
 30
0.0
 10
405.9758439550297
 20
280.2488496458158
 30
0.0
 10
405.6183048194732
 20
280.2215143928402
 30
0.0
 10
405.4444035174168
 20
280.2060771502551
 30
0.0
 10
405.1176819386326
 20
280.1737277345501
 30
0.0
 10
404.9633063589184
 20
280.1567048430227
 30
0.0
 10
404.6724543788467
 20
280.122054745497
 30
0.0
 10
404.5350150463582
 20
280.1042840193279
 30
0.0
 10
404.1616318488432
 20
280.0532222921019
 30
0.0
 10
403.9612338416019
 20
280.0219460048231
 30
0.0
 10
403.8107809210836
 20
279.9974533341985
 30
0.0
  0
SPLINE
  5
1B7
330
1F
100
AcDbEntity
  8
0
  6
Continuous
 62
     7
370
    25
100
AcDbSpline
210
0.0
220
0.0
230
1.0
 70
     8
 71
     3
 72
     9
 73
     5
 74
     0
 42
0.000000001
 43
0.00000001
 40
0.0
 40
0.0
 40
0.0
 40
0.0
 40
0.9875111473963462
 40
1.0
 40
1.0
 40
1.0
 40
1.0
 10
403.8107820183269
 20
279.997453114433
 30
0.0
 10
403.6284173732822
 20
279.9645315291571
 30
0.0
 10
403.4437463996679
 20
279.931193591289
 30
0.0
 10
403.5361764638114
 20
279.9478698494866
 30
0.0
 10
403.5373308092587
 20
279.9480781168172
 30
0.0
  0
SPLINE
  5
1B8
330
1F
100
AcDbEntity
  8
0
  6
Continuous
 62
     7
370
    25
100
AcDbSpline
210
0.0
220
0.0
230
1.0
 70
    24
 71
     3
 72
    13
 73
     9
 74
     0
 42
0.000000001
 43
0.00000001
 40
0.0
 40
0.0
 40
0.0
 40
0.0
 40
0.1550464845636557
 40
0.3513749338907459
 40
0.5477027270029952
 40
0.7437349852380294
 40
0.9397643022973229
 40
1.0
 40
1.0
 40
1.0
 40
1.0
 10
395.4156726926795
 20
280.0040878564546
 30
0.0
 10
395.4156726926795
 20
280.0208011937874
 30
0.0
 10
395.4156726926796
 20
280.0586778848775
 30
0.0
 10
395.4156726926795
 20
280.905326321434
 30
0.0
 10
395.4156726926796
 20
282.3572026993779
 30
0.0
 10
395.4156726926796
 20
284.4305617542842
 30
0.0
 10
395.4156726926795
 20
286.4078252510209
 30
0.0
 10
395.4156726926795
 20
287.6742541826726
 30
0.0
 10
395.4156726926795
 20
287.9719312977472
 30
0.0
  0
ARC
  5
1B9
330
1F
100
AcDbEntity
  8
0
  6
Continuous
 62
     7
370
    25
100
AcDbCircle
 10
406.9621184974
 20
242.1239727341
 30
0.0
 40
1.500000000000062
100
AcDbArc
 50
257.0
 51
352.33821329
  0
ARC
  5
1BA
330
1F
100
AcDbEntity
  8
0
  6
Continuous
 62
     7
370
    25
100
AcDbCircle
 10
406.9621184974
 20
263.3524558373
 30
0.0
 40
1.499999999999926
100
AcDbArc
 50
7.6617867101
 51
103.0
  0
LWPOLYLINE
  5
1BB
330
1F
100
AcDbEntity
  8
0
  6
Continuous
 62
     7
370
    25
100
AcDbPolyline
 90
        3
 70
   128
 43
0.0
 10
426.9498490125
 20
215.2581429318
 10
427.1974243552
 20
215.2728652791
 10
427.4051316411
 20
215.3230002359
  0
ARC
  5
1BC
330
1F
100
AcDbEntity
  8
0
  6
Continuous
 62
     7
370
    25
100
AcDbCircle
 10
426.9966563369
 20
216.5600315221
 30
0.0
 40
1.302727482480066
100
AcDbArc
 50
326.7730535619
 51
355.3371016248
  0
LINE
  5
1BD
330
1F
100
AcDbEntity
  8
0
  6
Continuous
 62
     7
370
    25
100
AcDbLine
 10
399.2621168822
 20
256.7382147745
 30
0.0
 11
399.2621168822
 21
248.7382134632
 31
0.0
  0
LINE
  5
1BE
330
1F
100
AcDbEntity
  8
0
  6
Continuous
 62
     7
370
    25
100
AcDbLine
 10
399.4621202678
 20
256.5382151142
 30
0.0
 11
399.4621202678
 21
248.9382131234
 31
0.0
  0
LINE
  5
1BF
330
1F
100
AcDbEntity
  8
0
  6
Continuous
 62
     7
370
    25
100
AcDbLine
 10
403.8107820183
 20
279.9974531144
 30
0.0
 11
411.2231746644
 21
279.9974531144
 31
0.0
  0
SPLINE
  5
1C0
330
1F
100
AcDbEntity
  8
0
  6
Continuous
 62
     8
370
    18
100
AcDbSpline
210
0.0
220
0.0
230
1.0
 70
     8
 71
     3
 72
    29
 73
    25
 74
     0
 42
0.000000001
 43
0.00000001
 40
0.0
 40
0.0
 40
0.0
 40
0.0
 40
0.1250000000000008
 40
0.1250000000000008
 40
0.1875000000000012
 40
0.1875000000000012
 40
0.2500000000000017
 40
0.2500000000000017
 40
0.3750000000000025
 40
0.3750000000000025
 40
0.4375000000000026
 40
0.4375000000000026
 40
0.5000000000000027
 40
0.5000000000000027
 40
0.6250000000000037
 40
0.6250000000000037
 40
0.6875000000000037
 40
0.6875000000000037
 40
0.7500000000000037
 40
0.812500000000003
 40
0.812500000000003
 40
0.8750000000000022
 40
0.8750000000000022
 40
1.0
 40
1.0
 40
1.0
 40
1.0
 10
369.1538418510977
 20
339.111507066615
 30
0.0
 10
369.1469292591163
 20
340.4316789322895
 30
0.0
 10
369.1408083155414
 20
341.7298503758641
 30
0.0
 10
369.132767239653
 20
343.6454376566325
 30
0.0
 10
369.1302783433181
 20
344.2786493279024
 30
0.0
 10
369.1256923997287
 20
345.534193049633
 30
0.0
 10
369.1235919539511
 20
346.1582548742792
 30
0.0
 10
369.1180198274814
 20
347.9736470218257
 30
0.0
 10
369.1152185763818
 20
349.1217177874952
 30
0.0
 10
369.1123752794806
 20
350.7513591684024
 30
0.0
 10
369.1116540186152
 20
351.2807621908477
 30
0.0
 10
369.1106925280045
 20
352.29969067092
 30
0.0
 10
369.110455092334
 20
352.7845816555706
 30
0.0
 10
369.1104498699139
 20
354.1678437554912
 30
0.0
 10
369.1113825002952
 20
354.9954785440209
 30
0.0
 10
369.1142185128102
 20
356.091784432621
 30
0.0
 10
369.1154078889053
 20
356.4322341674894
 30
0.0
 10
369.1182175557059
 20
357.0492875539348
 30
0.0
 10
369.1214673480687
 20
357.6067870878018
 30
0.0
 10
369.1255836927737
 20
358.0470123122537
 30
0.0
 10
369.130138983083
 20
358.4278204665178
 30
0.0
 10
369.1326482332181
 20
358.5890326154222
 30
0.0
 10
369.1407684496953
 20
358.9756265667963
 30
0.0
 10
369.146929234752
 20
359.1048345793556
 30
0.0
 10
369.1538418510971
 20
359.1046535661262
 30
0.0
  0
LINE
  5
1C1
330
1F
100
AcDbEntity
  8
0
  6
Continuous
 62
     8
370
    18
100
AcDbLine
 10
369.1538419903
 20
339.1115060285
 30
0.0
 11
356.415671888
 21
339.4450685218
 31
0.0
  0
LINE
  5
1C2
330
1F
100
AcDbEntity
  8
0
  6
Continuous
 62
     8
370
    18
100
AcDbLine
 10
356.415671888
 20
229.4313600496
 30
0.0
 11
369.1538419903
 21
229.7649225429
 31
0.0
  0
SPLINE
  5
1C3
330
1F
100
AcDbEntity
  8
0
  6
Continuous
 62
     8
370
    18
100
AcDbSpline
210
0.0
220
0.0
230
1.0
 70
     8
 71
     3
 72
    29
 73
    25
 74
     0
 42
0.000000001
 43
0.00000001
 40
0.0
 40
0.0
 40
0.0
 40
0.0
 40
0.1249999999999989
 40
0.1249999999999989
 40
0.1874999999999984
 40
0.1874999999999984
 40
0.2499999999999978
 40
0.2499999999999978
 40
0.3749999999999968
 40
0.3749999999999968
 40
0.4374999999999966
 40
0.4374999999999966
 40
0.4999999999999964
 40
0.4999999999999964
 40
0.624999999999997
 40
0.624999999999997
 40
0.6874999999999978
 40
0.6874999999999978
 40
0.7499999999999986
 40
0.8124999999999989
 40
0.8124999999999989
 40
0.8749999999999991
 40
0.8749999999999991
 40
1.0
 40
1.0
 40
1.0
 40
1.0
 10
369.1538418510977
 20
209.7717750053025
 30
0.0
 10
369.1469292591163
 20
209.7715939927111
 30
0.0
 10
369.1408083155414
 20
209.9007871967427
 30
0.0
 10
369.1327672396529
 20
210.2808128356178
 30
0.0
 10
369.1302783433181
 20
210.4387573312055
 30
0.0
 10
369.1256923997287
 20
210.8186243050592
 30
0.0
 10
369.1235919539511
 20
211.0416278105339
 30
0.0
 10
369.1180198274814
 20
211.7931105274391
 30
0.0
 10
369.1152185763818
 20
212.4063692613673
 30
0.0
 10
369.1123752794807
 20
213.4931802124927
 30
0.0
 10
369.1116540186152
 20
213.8848858695576
 30
0.0
 10
369.1106925280045
 20
214.7202550222098
 30
0.0
 10
369.110455092334
 20
215.1598174335363
 30
0.0
 10
369.1104498699139
 20
216.5420825230741
 30
0.0
 10
369.1113825002952
 20
217.5477625178956
 30
0.0
 10
369.1142185128102
 20
219.1855078254835
 30
0.0
 10
369.1154078889053
 20
219.7530309638926
 30
0.0
 10
369.1182175557059
 20
220.9065155458595
 30
0.0
 10
369.1214673480687
 20
222.0844891362632
 30
0.0
 10
369.1255836927737
 20
223.3106868373793
 30
0.0
 10
369.130138983083
 20
224.5613173014682
 30
0.0
 10
369.1326482332181
 20
225.2016823408492
 30
0.0
 10
369.1407684496953
 20
227.1389492976765
 30
0.0
 10
369.146929234752
 20
228.4447449861293
 30
0.0
 10
369.1538418510971
 20
229.7649215048138
 30
0.0
  0
ARC
  5
1C4
330
1F
100
AcDbEntity
  8
0
  6
Continuous
 62
     8
370
    18
100
AcDbCircle
 10
369.1145563029
 20
357.6051945467
 30
0.0
 40
1.499974777870242
100
AcDbArc
 50
0.5954267449
 51
88.4992004321
  0
LINE
  5
1C5
330
1F
100
AcDbEntity
  8
0
  6
Continuous
 62
     8
370
    18
100
AcDbLine
 10
370.6144500852
 20
357.6207822398
 30
0.0
 11
370.6076896146
 21
357.5702673033
 31
0.0
  0
LWPOLYLINE
  5
1C6
330
1F
100
AcDbEntity
  8
0
  6
Continuous
 62
     8
370
    18
100
AcDbPolyline
 90
        9
 70
   128
 43
0.0
 10
369.1538419903
 20
339.1115060285
 10
369.4389198303
 20
339.1137337521
 10
369.7121046812
 20
339.115875794
 10
369.963382031
 20
339.1178576485
 10
370.1835364431
 20
339.1196085349
 10
370.3644980073
 20
339.1210613981
 10
370.4996291876
 20
339.1221640841
 10
370.5839781419
 20
339.1228793398
 10
370.6144500852
 20
339.1231736377
  0
LINE
  5
1C7
330
1F
100
AcDbEntity
  8
0
  6
Continuous
 62
     8
370
    18
100
AcDbLine
 10
370.6087643609
 20
211.3239756063
 30
0.0
 11
370.6144500852
 21
211.2556463317
 31
0.0
  0
ARC
  5
1C8
330
1F
100
AcDbEntity
  8
0
  6
Continuous
 62
     8
370
    18
100
AcDbCircle
 10
369.1145563029
 20
211.2712340247
 30
0.0
 40
1.499974777870299
100
AcDbArc
 50
271.5007995679
 51
359.4045732551
  0
LWPOLYLINE
  5
1C9
330
1F
100
AcDbEntity
  8
0
  6
Continuous
 62
     8
370
    18
100
AcDbPolyline
 90
        9
 70
   128
 43
0.0
 10
369.1538419903
 20
229.7649225429
 10
369.4389198303
 20
229.7626948193
 10
369.7121046812
 20
229.7605527774
 10
369.963382031
 20
229.758570923
 10
370.1835364431
 20
229.7568200365
 10
370.3644980073
 20
229.7553671733
 10
370.4996291876
 20
229.7542644874
 10
370.5839781419
 20
229.7535492316
 10
370.6144500852
 20
229.7532549337
  0
SPLINE
  5
1CA
330
1F
100
AcDbEntity
  8
0
  6
Continuous
 62
     8
370
    18
100
AcDbSpline
210
0.0
220
0.0
230
1.0
 70
     8
 71
     3
 72
     8
 73
     4
 74
     0
 42
0.000000001
 43
0.00000001
 40
0.0
 40
0.0
 40
0.0
 40
0.0
 40
1.0
 40
1.0
 40
1.0
 40
1.0
 10
369.1538418510972
 20
229.7649215048137
 30
0.0
 10
369.4374170083475
 20
266.2134798401726
 30
0.0
 10
369.4374170023685
 20
302.6629494997848
 30
0.0
 10
369.1538418510975
 20
339.111507066615
 30
0.0
  0
SPLINE
  5
1CB
330
1F
100
AcDbEntity
  8
0
  6
Continuous
 62
     8
370
    18
100
AcDbSpline
210
0.0
220
0.0
230
1.0
 70
     8
 71
     3
 72
     8
 73
     4
 74
     0
 42
0.000000001
 43
0.00000001
 40
0.0
 40
0.0
 40
0.0
 40
0.0
 40
1.0
 40
1.0
 40
1.0
 40
1.0
 10
370.6144498108701
 20
339.1231731219702
 30
0.0
 10
370.8980856443036
 20
302.6668382500187
 30
0.0
 10
370.8980856502735
 20
266.2095910886966
 30
0.0
 10
370.6144498108703
 20
229.7532554494585
 30
0.0
  0
SPLINE
  5
1CC
330
1F
100
AcDbEntity
  8
0
  6
Continuous
 62
     8
370
    18
100
AcDbSpline
210
0.0
220
0.0
230
1.0
 70
     8
 71
     3
 72
     9
 73
     5
 74
     0
 42
0.000000001
 43
0.00000001
 40
0.0
 40
0.0
 40
0.0
 40
0.0
 40
0.3292921390624599
 40
1.0
 40
1.0
 40
1.0
 40
1.0
 10
370.6144500851861
 20
211.255646331651
 30
0.0
 10
370.65792764874
 20
211.256789913175
 30
0.0
 10
370.7899610573651
 20
211.2602627611068
 30
0.0
 10
370.7981250887448
 20
211.260474113319
 30
0.0
 10
370.803600768768
 20
211.2606158689091
 30
0.0
  0
SPLINE
  5
1CD
330
1F
100
AcDbEntity
  8
0
  6
Continuous
 62
     8
370
    18
100
AcDbSpline
210
0.0
220
0.0
230
1.0
 70
     8
 71
     3
 72
     9
 73
     5
 74
     0
 42
0.000000001
 43
0.00000001
 40
0.0
 40
0.0
 40
0.0
 40
0.0
 40
0.1646284883405701
 40
1.0
 40
1.0
 40
1.0
 40
1.0
 10
370.8036017000906
 20
357.6158127025196
 30
0.0
 10
370.8111091910456
 20
357.6156139514616
 30
0.0
 10
370.8567118144475
 20
357.6144066813226
 30
0.0
 10
370.7247157974437
 20
357.6178803968154
 30
0.0
 10
370.6144500851861
 20
357.6207822397778
 30
0.0
  0
SPLINE
  5
1CE
330
1F
100
AcDbEntity
  8
0
  6
Continuous
 62
     8
370
    18
100
AcDbSpline
210
0.0
220
0.0
230
1.0
 70
     8
 71
     3
 72
    30
 73
    26
 74
     0
 42
0.000000001
 43
0.00000001
 40
0.0
 40
0.0
 40
0.0
 40
0.0
 40
0.0310264345971666
 40
0.0619778989448603
 40
0.092861554135308
 40
0.1236818307334543
 40
0.154441404671683
 40
0.1851421399127163
 40
0.2157860173820844
 40
0.2463760681824466
 40
0.2769173261500962
 40
0.3074178117054119
 40
0.3378883690336859
 40
0.3683317542665895
 40
0.3987518177047366
 40
0.4291606989382081
 40
0.4595740923096583
 40
0.4900063500391285
 40
0.5204656038756696
 40
0.6172053424060582
 40
0.714504434056475
 40
0.8127215064052021
 40
0.9122769821841422
 40
0.9559609174477375
 40
1.0
 40
1.0
 40
1.0
 40
1.0
 10
414.8541385701616
 20
303.2320937147783
 30
0.0
 10
414.8540763255385
 20
303.0646769681457
 30
0.0
 10
414.8539519866961
 20
302.7302480097691
 30
0.0
 10
414.8518160216724
 20
302.2294004130842
 30
0.0
 10
414.8484283068719
 20
301.7301105605536
 30
0.0
 10
414.8437334502436
 20
301.2325239970881
 30
0.0
 10
414.8378392400772
 20
300.7368125474222
 30
0.0
 10
414.830783707209
 20
300.2431579305539
 30
0.0
 10
414.8226121154984
 20
299.751734564926
 30
0.0
 10
414.8133735574041
 20
299.2626934800558
 30
0.0
 10
414.8031423429032
 20
298.7761466627603
 30
0.0
 10
414.7920306984366
 20
298.2921582239006
 30
0.0
 10
414.7802216533135
 20
297.8107985493228
 30
0.0
 10
414.7679261927907
 20
297.3321555728454
 30
0.0
 10
414.7552994485378
 20
296.856308696995
 30
0.0
 10
414.7424868282883
 20
296.3832687814763
 30
0.0
 10
414.7296397777179
 20
295.9129971344487
 30
0.0
 10
414.7169329220108
 20
295.4454723419472
 30
0.0
 10
414.6956023097812
 20
294.6438777211979
 30
0.0
 10
414.6682866257825
 20
293.5192462634877
 30
0.0
 10
414.6441049299207
 20
292.0971369351597
 30
0.0
 10
414.6341039758642
 20
290.7094983961943
 30
0.0
 10
414.6422433516458
 20
289.6237701190137
 30
0.0
 10
414.6509798697982
 20
288.8099828155248
 30
0.0
 10
414.6564585747614
 20
288.4407341741976
 30
0.0
 10
414.6592090175318
 20
288.2553624006017
 30
0.0
  0
SPLINE
  5
1CF
330
1F
100
AcDbEntity
  8
0
  6
Continuous
 62
     8
370
    18
100
AcDbSpline
210
0.0
220
0.0
230
1.0
 70
     8
 71
     3
 72
     8
 73
     4
 74
     0
 42
0.000000001
 43
0.00000001
 40
0.0
 40
0.0
 40
0.0
 40
0.0
 40
1.0
 40
1.0
 40
1.0
 40
1.0
 10
414.6592224211574
 20
288.2553666820183
 30
0.0
 10
408.2447048869125
 20
288.1607262154982
 30
0.0
 10
401.8301873526677
 20
288.0665027928065
 30
0.0
 10
395.4156698184229
 20
287.9727290455409
 30
0.0
  0
SPLINE
  5
1D0
330
1F
100
AcDbEntity
  8
0
  6
Continuous
 62
     8
370
    18
100
AcDbSpline
210
0.0
220
0.0
230
1.0
 70
     8
 71
     3
 72
     8
 73
     4
 74
     0
 42
0.000000001
 43
0.00000001
 40
0.0000024790398112
 40
0.0000024790398112
 40
0.0000024790398112
 40
0.0000024790398112
 40
0.7671742739455352
 40
0.7671742739455352
 40
0.7671742739455352
 40
0.7671742739455352
 10
414.854182133813
 20
303.2321239117717
 30
0.0
 10
409.5961622484425
 20
303.2318224940835
 30
0.0
 10
404.0407050316842
 20
303.2315823138688
 30
0.0
 10
397.7825258063432
 20
303.2314868126021
 30
0.0
  0
SPLINE
  5
1D1
330
1F
100
AcDbEntity
  8
0
  6
Continuous
 62
     8
370
    18
100
AcDbSpline
210
0.0
220
0.0
230
1.0
 70
     8
 71
     3
 72
    28
 73
    24
 74
     0
 42
0.000000001
 43
0.00000001
 40
0.0
 40
0.0
 40
0.0
 40
0.0
 40
0.0475393791192114
 40
0.0958739345024919
 40
0.1448884176432619
 40
0.1941528612788802
 40
0.2436048527785361
 40
0.287347955972203
 40
0.3458543959143122
 40
0.4190222496649628
 40
0.5065386964114621
 40
0.5507289377390897
 40
0.5945520021992052
 40
0.6379554827151823
 40
0.6809018257435897
 40
0.7233915777693432
 40
0.7653489397508634
 40
0.8184571590114589
 40
0.8645491007165953
 40
0.9043895313060267
 40
0.9396898171674462
 40
0.9713787532793527
 40
1.0
 40
1.0
 40
1.0
 40
1.0
 10
425.9091901525775
 20
303.2348031909356
 30
0.0
 10
425.9027765047574
 20
303.7891254172607
 30
0.0
 10
425.8898419300442
 20
304.9070418436973
 30
0.0
 10
425.8684372668416
 20
306.5963475877349
 30
0.0
 10
425.8453172007495
 20
308.3058309572944
 30
0.0
 10
425.8211159261563
 20
310.0243731131429
 30
0.0
 10
425.7948213641486
 20
311.6595056746838
 30
0.0
 10
425.7730634961334
 20
313.3477484124957
 30
0.0
 10
425.7574488052125
 20
315.2010378286176
 30
0.0
 10
425.7446673942616
 20
317.3009657565612
 30
0.0
 10
425.7399146208946
 20
318.9542041764481
 30
0.0
 10
425.7405501074446
 20
320.0927752411503
 30
0.0
 10
425.7435994067561
 20
320.7932931370443
 30
0.0
 10
425.7492448209949
 20
321.331060188063
 30
0.0
 10
425.7575537217514
 20
321.7038428737039
 30
0.0
 10
425.7681005004282
 20
321.9344351759973
 30
0.0
 10
425.7822826690702
 20
322.0548526495517
 30
0.0
 10
425.7972965511447
 20
322.0922464219557
 30
0.0
 10
425.8113183385933
 20
322.1221707778647
 30
0.0
 10
425.8225260268711
 20
322.1400175932436
 30
0.0
 10
425.8304227104455
 20
322.1502545431132
 30
0.0
 10
425.8354843882017
 20
322.1554422562372
 30
0.0
 10
425.8361820568116
 20
322.1560057920359
 30
0.0
 10
425.8365131475906
 20
322.1562732277553
 30
0.0
  0
SPLINE
  5
1D2
330
1F
100
AcDbEntity
  8
0
  6
Continuous
 62
     8
370
    18
100
AcDbSpline
210
0.0
220
0.0
230
1.0
 70
     8
 71
     3
 72
     8
 73
     4
 74
     0
 42
0.000000001
 43
0.00000001
 40
0.0065254188427282
 40
0.0065254188427282
 40
0.0065254188427282
 40
0.0065254188427282
 40
0.3602140803069239
 40
0.3602140803069239
 40
0.3602140803069239
 40
0.3602140803069239
 10
414.8542331061478
 20
303.2321239146937
 30
0.0
 10
418.6431571345133
 20
303.232341116352
 30
0.0
 10
422.2776335403414
 20
303.2325901162452
 30
0.0
 10
425.9093120671263
 20
303.2328396921759
 30
0.0
  0
SPLINE
  5
1D3
330
1F
100
AcDbEntity
  8
0
  6
Continuous
 62
     8
370
    18
100
AcDbSpline
210
0.0
220
0.0
230
1.0
 70
     8
 71
     3
 72
     9
 73
     5
 74
     0
 42
0.000000001
 43
0.00000001
 40
0.0
 40
0.0
 40
0.0
 40
0.0
 40
0.6666666666666667
 40
1.0
 40
1.0
 40
1.0
 40
1.0
 10
421.5010338668906
 20
279.6847564773344
 30
0.0
 10
421.3879799800915
 20
283.4939386222242
 30
0.0
 10
419.5999342517793
 20
288.3302385854077
 30
0.0
 10
415.8944006875107
 20
288.2740638892723
 30
0.0
 10
414.6592224211565
 20
288.2553666849585
 30
0.0
  0
SPLINE
  5
1D4
330
1F
100
AcDbEntity
  8
0
  6
Continuous
 62
     8
370
    18
100
AcDbSpline
210
0.0
220
0.0
230
1.0
 70
     8
 71
     3
 72
    17
 73
    13
 74
     0
 42
0.000000001
 43
0.00000001
 40
0.0
 40
0.0
 40
0.0
 40
0.0
 40
0.1206007194121612
 40
0.2366465217671365
 40
0.3481336175157257
 40
0.4550513770966151
 40
0.557396973604919
 40
0.6551406861332073
 40
0.748288649760299
 40
0.8368193041660014
 40
0.9207165828705838
 40
1.0
 40
1.0
 40
1.0
 40
1.0
 10
426.0857791543165
 20
284.4095754342405
 30
0.0
 10
426.0773183786509
 20
285.1662715624918
 30
0.0
 10
426.0607163787417
 20
286.6510844861472
 30
0.0
 10
426.0389638008641
 20
288.8354591021492
 30
0.0
 10
426.020080524926
 20
290.9339972399936
 30
0.0
 10
426.0029984061001
 20
292.9465752307808
 30
0.0
 10
425.9885695348174
 20
294.8729124425832
 30
0.0
 10
425.9734263721325
 20
296.7128315533058
 30
0.0
 10
425.9594147416609
 20
298.4660476277361
 30
0.0
 10
425.9445693161184
 20
300.1323597144744
 30
0.0
 10
425.927490034386
 20
301.7116569961442
 30
0.0
 10
425.9153178679774
 20
302.7354611326901
 30
0.0
 10
425.909403866068
 20
303.2328893977294
 30
0.0
  0
SPLINE
  5
1D5
330
1F
100
AcDbEntity
  8
0
  6
Continuous
 62
     8
370
    18
100
AcDbSpline
210
0.0
220
0.0
230
1.0
 70
     8
 71
     3
 72
    43
 73
    39
 74
     0
 42
0.000000001
 43
0.00000001
 40
0.0
 40
0.0
 40
0.0
 40
0.0
 40
0.0205095733597653
 40
0.0407270537256946
 40
0.0606572847868666
 40
0.0802980627559368
 40
0.0996454988792868
 40
0.1407748410932008
 40
0.1802363290811832
 40
0.2074333663958814
 40
0.2341637426931851
 40
0.2864261413453336
 40
0.3118777694769546
 40
0.3496457020655216
 40
0.3745974539128917
 40
0.3870240395090197
 40
0.4374969291992729
 40
0.4626777446894754
 40
0.4752671675092547
 40
0.5004246600342052
 40
0.5381994528986904
 40
0.5888398317119811
 40
0.6295766007834702
 40
0.6706168540673422
 40
0.6982173594690343
 40
0.7250113994536334
 40
0.7452473101715799
 40
0.7519964465500363
 40
0.7655318982616514
 40
0.8065457691128829
 40
0.8194299780022469
 40
0.8453840091724932
 40
0.8650443479287366
 40
0.8716331097862308
 40
0.8845437471193995
 40
0.9109761324278204
 40
0.9550624501921132
 40
1.0
 40
1.0
 40
1.0
 40
1.0
 10
426.0852013864467
 20
284.4095521367868
 30
0.0
 10
426.0224036429449
 20
284.4064536114022
 30
0.0
 10
425.8977025080852
 20
284.4003006891746
 30
0.0
 10
425.7127940396074
 20
284.3837077314042
 30
0.0
 10
425.5315388202454
 20
284.3619156853139
 30
0.0
 10
425.3542774645116
 20
284.3345524954422
 30
0.0
 10
425.1155592603936
 20
284.2895390868575
 30
0.0
 10
424.8230904024318
 20
284.2179800325897
 30
0.0
 10
424.5184933981481
 20
284.1192149944504
 30
0.0
 10
424.2642852247882
 20
284.0189399181681
 30
0.0
 10
423.985185083826
 20
283.8920694675923
 30
0.0
 10
423.726076088031
 20
283.749662556937
 30
0.0
 10
423.4586314583831
 20
283.5766235688073
 30
0.0
 10
423.2662932028954
 20
283.4355786919522
 30
0.0
 10
423.1127340475591
 20
283.3090815345584
 30
0.0
 10
422.9403962487885
 20
283.1573530634067
 30
0.0
 10
422.779593111077
 20
282.9990204010922
 30
0.0
 10
422.6327633709451
 20
282.8351961416507
 30
0.0
 10
422.5330144867014
 20
282.7167305424092
 30
0.0
 10
422.4191669694677
 20
282.5727883420714
 30
0.0
 10
422.2623964995036
 20
282.3526755908031
 30
0.0
 10
422.1062016122572
 20
282.0984359464946
 30
0.0
 10
421.968052913337
 20
281.8355616875126
 30
0.0
 10
421.8692729639217
 20
281.6176598532636
 30
0.0
 10
421.7937083202999
 20
281.4276758043828
 30
0.0
 10
421.7409833811674
 20
281.2794023498298
 30
0.0
 10
421.7068507087032
 20
281.1728380204507
 30
0.0
 10
421.6827630340252
 20
281.0927219557747
 30
0.0
 10
421.6481765799702
 20
280.971685909015
 30
0.0
 10
421.6154876104371
 20
280.8392373671826
 30
0.0
 10
421.5828007999062
 20
280.683506681505
 30
0.0
 10
421.5619827838985
 20
280.5700333425632
 30
0.0
 10
421.5465933881457
 20
280.4694347936174
 30
0.0
 10
421.5363870005787
 20
280.394320231019
 30
0.0
 10
421.5255764584021
 20
280.3063796123422
 30
0.0
 10
421.5102079035655
 20
280.1477723917787
 30
0.0
 10
421.4980738961199
 20
279.9311034879898
 30
0.0
 10
421.5000090640664
 20
279.7673837527292
 30
0.0
 10
421.5009858999235
 20
279.6847411540817
 30
0.0
  0
LINE
  5
1D6
330
1F
100
AcDbEntity
  8
0
  6
Continuous
 62
     8
370
    18
100
AcDbLine
 10
391.2375994355
 20
280.6882143695
 30
0.0
 11
391.2375994355
 21
325.7882138923
 31
0.0
  0
LINE
  5
1D7
330
1F
100
AcDbEntity
  8
0
  6
Continuous
 62
     8
370
    18
100
AcDbLine
 10
391.7658940286
 20
280.9289728966
 30
0.0
 11
391.7658940286
 21
325.5474558309
 31
0.0
  0
SPLINE
  5
1D8
330
1F
100
AcDbEntity
  8
0
  6
Continuous
 62
     8
370
    18
100
AcDbSpline
210
0.0
220
0.0
230
1.0
 70
     8
 71
     3
 72
    13
 73
     9
 74
     0
 42
0.000000001
 43
0.00000001
 40
0.0
 40
0.0
 40
0.0
 40
0.0
 40
0.125
 40
0.125
 40
0.25
 40
0.25
 40
0.5
 40
1.0
 40
1.0
 40
1.0
 40
1.0
 10
427.4171535619094
 20
284.4312594534996
 30
0.0
 10
427.4453531194644
 20
282.0835859652736
 30
0.0
 10
427.4735562822218
 20
279.7359451956839
 30
0.0
 10
427.5299731242037
 20
275.0408641165716
 30
0.0
 10
427.5581882249212
 20
272.6934572574344
 30
0.0
 10
427.6428272044627
 20
265.6511457546169
 30
0.0
 10
427.8121003260305
 20
251.5665297175141
 30
0.0
 10
427.9813576557615
 20
237.4819275597324
 30
0.0
 10
428.0941876617559
 20
228.092192717141
 30
0.0
  0
ARC
  5
1D9
330
1F
100
AcDbEntity
  8
0
  6
Continuous
 62
     8
370
    18
100
AcDbCircle
 10
426.7698477366
 20
254.1039398364
 30
0.0
 40
26.04577350050321
100
AcDbArc
 50
269.9712417161
 51
272.9145620064
  0
SPLINE
  5
1DA
330
1F
100
AcDbEntity
  8
0
  6
Continuous
 62
     8
370
    18
100
AcDbSpline
210
0.0
220
0.0
230
1.0
 70
     8
 71
     3
 72
    14
 73
    10
 74
     0
 42
0.000000001
 43
0.00000001
 40
0.0
 40
0.0
 40
0.0
 40
0.0
 40
0.4999999999999999
 40
0.4999999999999999
 40
0.7499999999999999
 40
0.7499999999999999
 40
0.875
 40
0.875
 40
1.0
 40
1.0
 40
1.0
 40
1.0
 10
426.7567785016722
 20
228.0581710583904
 30
0.0
 10
426.6437679417489
 20
237.4499323270126
 30
0.0
 10
426.5313371581578
 20
246.8417157568715
 30
0.0
 10
426.3635329696475
 20
260.9294155982446
 30
0.0
 10
426.3076909681753
 20
265.625317522965
 30
0.0
 10
426.2242259722784
 20
272.6691729433769
 30
0.0
 10
426.196438058116
 20
275.0170936291239
 30
0.0
 10
426.1411620484013
 20
279.7132028322596
 30
0.0
 10
426.1137167760272
 20
282.0613602409133
 30
0.0
 10
426.086422418103
 20
284.409558815986
 30
0.0
  0
SPLINE
  5
1DB
330
1F
100
AcDbEntity
  8
0
  6
Continuous
 62
     8
370
    18
100
AcDbSpline
210
0.0
220
0.0
230
1.0
 70
     8
 71
     3
 72
    14
 73
    10
 74
     0
 42
0.000000001
 43
0.00000001
 40
0.0
 40
0.0
 40
0.0
 40
0.0
 40
0.25
 40
0.25
 40
0.5
 40
0.5
 40
0.75
 40
0.75
 40
1.0
 40
1.0
 40
1.0
 40
1.0
 10
426.0864276688064
 20
284.4096222870816
 30
0.0
 10
426.2363465492177
 20
284.4113932978992
 30
0.0
 10
426.3986127468617
 20
284.4133972631718
 30
0.0
 10
426.7154159948902
 20
284.4175331106624
 30
0.0
 10
426.869058818408
 20
284.4196556694982
 30
0.0
 10
427.1275256297251
 20
284.4234969096516
 30
0.0
 10
427.2315349268777
 20
284.4252034786318
 30
0.0
 10
427.3717295096667
 20
284.4278591993041
 30
0.0
 10
427.4081893607419
 20
284.4288085685205
 30
0.0
 10
427.4171755543996
 20
284.429398813199
 30
0.0
  0
SPLINE
  5
1DC
330
1F
100
AcDbEntity
  8
0
  6
Continuous
 62
     8
370
    18
100
AcDbSpline
210
0.0
220
0.0
230
1.0
 70
     8
 71
     3
 72
    10
 73
     6
 74
     0
 42
0.000000001
 43
0.00000001
 40
0.0
 40
0.0
 40
0.0
 40
0.0
 40
0.5
 40
0.5
 40
1.0
 40
1.0
 40
1.0
 40
1.0
 10
427.1937562882028
 20
303.2329228041593
 30
0.0
 10
427.2309630426547
 20
300.0990862282952
 30
0.0
 10
427.2681808615147
 20
296.9652496372844
 30
0.0
 10
427.3426426558675
 20
290.6973768972152
 30
0.0
 10
427.3798866219107
 20
287.56333821161
 30
0.0
 10
427.4171475252302
 20
284.4293577334944
 30
0.0
  0
SPLINE
  5
1DD
330
1F
100
AcDbEntity
  8
0
  6
Continuous
 62
     8
370
    18
100
AcDbSpline
210
0.0
220
0.0
230
1.0
 70
     8
 71
     3
 72
    14
 73
    10
 74
     0
 42
0.000000001
 43
0.00000001
 40
0.0
 40
0.0
 40
0.0
 40
0.0
 40
0.25
 40
0.25
 40
0.5
 40
0.5
 40
0.75
 40
0.75
 40
1.0
 40
1.0
 40
1.0
 40
1.0
 10
425.9091875369779
 20
303.2350344784447
 30
0.0
 10
426.0590279904395
 20
303.2367618391871
 30
0.0
 10
426.2179497029784
 20
303.2382364681937
 30
0.0
 10
426.5238776761244
 20
303.2401702393988
 30
0.0
 10
426.6701485516124
 20
303.2406169118869
 30
0.0
 10
426.9156453277744
 20
303.2402570736054
 30
0.0
 10
427.0142567501166
 20
303.2394514635109
 30
0.0
 10
427.1484423223404
 20
303.2368725933996
 30
0.0
 10
427.1842577939589
 20
303.2351125272692
 30
0.0
 10
427.1937310985333
 20
303.2331516514892
 30
0.0
  0
SPLINE
  5
1DE
330
1F
100
AcDbEntity
  8
0
  6
Continuous
 62
     8
370
    18
100
AcDbSpline
210
0.0
220
0.0
230
1.0
 70
     8
 71
     3
 72
    33
 73
    29
 74
     0
 42
0.000000001
 43
0.00000001
 40
0.0
 40
0.0
 40
0.0
 40
0.0
 40
0.0276231462130128
 40
0.0554520794259835
 40
0.0838629983869838
 40
0.1132319972175816
 40
0.1439380808902595
 40
0.176600528644873
 40
0.2113900882170392
 40
0.2465559312201351
 40
0.2585643083332576
 40
0.2769767851650252
 40
0.3018826216836388
 40
0.3333559023255198
 40
0.3714843564310658
 40
0.4363493443700539
 40
0.4978807582362795
 40
0.559514101534135
 40
0.6223555785326536
 40
0.6862136136296716
 40
0.7510439403306958
 40
0.792859587452528
 40
0.8346824395571483
 40
0.8763533741721
 40
0.9074778803509733
 40
0.9382058085357327
 40
0.9691978846356859
 40
1.0
 40
1.0
 40
1.0
 40
1.0
 10
427.0524287469664
 20
320.8290395425308
 30
0.0
 10
427.0523981722158
 20
320.8290431924418
 30
0.0
 10
427.0523367949385
 20
320.8290505194548
 30
0.0
 10
427.0518684443903
 20
320.8286192671027
 30
0.0
 10
427.0511638518086
 20
320.8272525255631
 30
0.0
 10
427.0502298178619
 20
320.82436862938
 30
0.0
 10
427.0490814516348
 20
320.819844380465
 30
0.0
 10
427.0478315580347
 20
320.8116214349464
 30
0.0
 10
427.0462903972529
 20
320.803153209489
 30
0.0
 10
427.0458127124498
 20
320.7692302594523
 30
0.0
 10
427.0444682738651
 20
320.7280824499054
 30
0.0
 10
427.0426236862342
 20
320.6856656352234
 30
0.0
 10
427.0402832145027
 20
320.5953633397509
 30
0.0
 10
427.03772295251
 20
320.4219202251043
 30
0.0
 10
427.0352573151036
 20
320.0553511665622
 30
0.0
 10
427.035371849518
 20
319.3683561252482
 30
0.0
 10
427.0402340004885
 20
318.2641906137337
 30
0.0
 10
427.0493994401137
 20
316.9024309309435
 30
0.0
 10
427.0628116511376
 20
315.2903440161169
 30
0.0
 10
427.0800807741747
 20
313.4520549637772
 30
0.0
 10
427.0983024707749
 20
311.6725262213437
 30
0.0
 10
427.1156026843198
 20
310.0673288883993
 30
0.0
 10
427.1308269717136
 20
308.6936715341758
 30
0.0
 10
427.1453704575363
 20
307.431988135112
 30
0.0
 10
427.1585004707938
 20
306.2924200113114
 30
0.0
 10
427.1694787275223
 20
305.2705874773429
 30
0.0
 10
427.1807274141435
 20
304.2522935116456
 30
0.0
 10
427.18940727654
 20
303.5720159624763
 30
0.0
 10
427.1937338664112
 20
303.2329228041593
 30
0.0
  0
LINE
  5
1DF
330
1F
100
AcDbEntity
  8
0
  6
Continuous
 62
     8
370
    18
100
AcDbLine
 10
391.8367453248
 20
281.0104778246
 30
0.0
 11
391.8367453248
 21
325.4659502045
 31
0.0
  0
LINE
  5
1E0
330
1F
100
AcDbEntity
  8
0
  6
Continuous
 62
     8
370
    18
100
AcDbLine
 10
392.3315272063
 20
281.2504337844
 30
0.0
 11
392.3315272063
 21
325.2259930805
 31
0.0
  0
SPLINE
  5
1E1
330
1F
100
AcDbEntity
  8
0
  6
Continuous
 62
     8
370
    18
100
AcDbSpline
210
0.0
220
0.0
230
1.0
 70
     8
 71
     3
 72
    20
 73
    16
 74
     0
 42
0.000000001
 43
0.00000001
 40
0.0
 40
0.0
 40
0.0
 40
0.0
 40
0.1267557496989269
 40
0.2480422159502777
 40
0.2769658398526441
 40
0.329481508794259
 40
0.4038779971290479
 40
0.4989766244601465
 40
0.5856537817228831
 40
0.6678863137857555
 40
0.7459793329011583
 40
0.8193283703007672
 40
0.8868756965814198
 40
0.9474060964124992
 40
1.0
 40
1.0
 40
1.0
 40
1.0
 10
428.0945569282243
 20
228.061623707505
 30
0.0
 10
428.1049271634133
 20
227.2370176924643
 30
0.0
 10
428.1252201767268
 20
225.6233859342014
 30
0.0
 10
428.1522704962838
 20
223.8255649636556
 30
0.0
 10
428.1717638375951
 20
222.5411749347846
 30
0.0
 10
428.1865584129757
 20
221.5719566951355
 30
0.0
 10
428.2075051757508
 20
220.2584671256321
 30
0.0
 10
428.2301765441757
 20
218.916955981847
 30
0.0
 10
428.2495401440526
 20
217.8644901941615
 30
0.0
 10
428.2634565908442
 20
217.1772061302524
 30
0.0
 10
428.2728090193548
 20
216.7698043848392
 30
0.0
 10
428.2785049966975
 20
216.571840090299
 30
0.0
 10
428.2821180655922
 20
216.4884755621558
 30
0.0
 10
428.2845838958389
 20
216.461889628922
 30
0.0
 10
428.2860100961824
 20
216.4595922454734
 30
0.0
 10
428.286673167168
 20
216.4585241428646
 30
0.0
  0
SPLINE
  5
1E2
330
1F
100
AcDbEntity
  8
0
  6
Continuous
 62
     8
370
    18
100
AcDbSpline
210
0.0
220
0.0
230
1.0
 70
     8
 71
     3
 72
    11
 73
     7
 74
     0
 42
0.000000001
 43
0.00000001
 40
0.0
 40
0.0
 40
0.0
 40
0.0
 40
0.1377449260200129
 40
0.4322936804881549
 40
0.7268405928597425
 40
1.0
 40
1.0
 40
1.0
 40
1.0
 10
427.1784626275531
 20
215.2929594949314
 30
0.0
 10
427.2586680881688
 20
215.3006131944432
 30
0.0
 10
427.5103819971062
 20
215.3246332874287
 30
0.0
 10
427.8778359190992
 20
215.5683819646924
 30
0.0
 10
428.197654345586
 20
215.971670158022
 30
0.0
 10
428.2577574721233
 20
216.3003650004371
 30
0.0
 10
428.2866768867008
 20
216.4585208729336
 30
0.0
  0
SPLINE
  5
1E3
330
1F
100
AcDbEntity
  8
0
  6
Continuous
 62
     8
370
    18
100
AcDbSpline
210
0.0
220
0.0
230
1.0
 70
     8
 71
     3
 72
    28
 73
    24
 74
     0
 42
0.000000001
 43
0.00000001
 40
0.0
 40
0.0
 40
0.0
 40
0.0
 40
0.0579824608612372
 40
0.1124046423897654
 40
0.1629917974130141
 40
0.2096589628262748
 40
0.252476681821497
 40
0.2915982679279058
 40
0.3271617966416385
 40
0.3593452778239374
 40
0.388313479460222
 40
0.4142087119926728
 40
0.437146777717242
 40
0.4572157437406948
 40
0.4744772777938885
 40
0.4889700208398625
 40
0.5007143092037595
 40
0.5222517699862943
 40
0.5661875769944879
 40
0.6333555869071371
 40
0.7260040863009687
 40
0.8475682620914552
 40
1.0
 40
1.0
 40
1.0
 40
1.0
 10
426.9452244550322
 20
215.2583129656032
 30
0.0
 10
426.9451043156923
 20
215.2592171751949
 30
0.0
 10
426.9448714138916
 20
215.2609700734727
 30
0.0
 10
426.9437808613468
 20
215.2940966285611
 30
0.0
 10
426.9416620035725
 20
215.3656225956366
 30
0.0
 10
426.9382484957854
 20
215.4825135847611
 30
0.0
 10
426.9336548735008
 20
215.6461162629527
 30
0.0
 10
426.9287950922462
 20
215.8547086266055
 30
0.0
 10
426.9239218481733
 20
216.0966027529356
 30
0.0
 10
426.9191503702277
 20
216.3603016127925
 30
0.0
 10
426.9145795149783
 20
216.6353661026473
 30
0.0
 10
426.9102750523815
 20
216.912188574304
 30
0.0
 10
426.9062816559425
 20
217.182057107617
 30
0.0
 10
426.9026258038286
 20
217.4371696165231
 30
0.0
 10
426.8993234792893
 20
217.670651741578
 30
0.0
 10
426.8963760719226
 20
217.8765705571767
 30
0.0
 10
426.8928816125546
 20
218.1115901992708
 30
0.0
 10
426.8860297405993
 20
218.5093435351903
 30
0.0
 10
426.8744669614777
 20
219.2484152177524
 30
0.0
 10
426.8566100715332
 20
220.5020767223938
 30
0.0
 10
426.8319310787466
 20
222.3916735066081
 30
0.0
 10
426.7976123155283
 20
224.9870286171147
 30
0.0
 10
426.7716342900516
 20
226.9407659344343
 30
0.0
 10
426.7571819738934
 20
228.027685701504
 30
0.0
  0
SPLINE
  5
1E4
330
1F
100
AcDbEntity
  8
0
  6
Continuous
 62
     8
370
    18
100
AcDbSpline
210
0.0
220
0.0
230
1.0
 70
     8
 71
     3
 72
    14
 73
    10
 74
     0
 42
0.000000001
 43
0.00000001
 40
0.0
 40
0.0
 40
0.0
 40
0.0
 40
0.25
 40
0.25
 40
0.5
 40
0.5
 40
0.75
 40
0.75
 40
1.0
 40
1.0
 40
1.0
 40
1.0
 10
426.7571821392573
 20
228.0276784151141
 30
0.0
 10
426.9069602640054
 20
228.0293607101596
 30
0.0
 10
427.0700291410108
 20
228.0315987821674
 30
0.0
 10
427.3895382991256
 20
228.0370326254818
 30
0.0
 10
427.5450266336591
 20
228.0402239866425
 30
0.0
 10
427.8062574357043
 20
228.0468546783642
 30
0.0
 10
427.9111120198381
 20
228.0502714722224
 30
0.0
 10
428.0512262653111
 20
228.0565040215134
 30
0.0
 10
428.0868581177126
 20
228.0593094714458
 30
0.0
 10
428.0945569246907
 20
228.0616243351556
 30
0.0
  0
SPLINE
  5
1E5
330
1F
100
AcDbEntity
  8
0
  6
Continuous
 62
     8
370
    18
100
AcDbSpline
210
0.0
220
0.0
230
1.0
 70
     8
 71
     3
 72
     9
 73
     5
 74
     0
 42
0.000000001
 43
0.00000001
 40
0.0
 40
0.0
 40
0.0
 40
0.0
 40
0.7260197289052195
 40
0.9999999999999999
 40
0.9999999999999999
 40
0.9999999999999999
 40
0.9999999999999999
 10
426.942882719659
 20
215.2584037021229
 30
0.0
 10
426.5045187178732
 20
215.2892716297242
 30
0.0
 10
425.9007279607724
 20
215.3317882809561
 30
0.0
 10
425.4136585600903
 20
215.6692714066588
 30
0.0
 10
425.2802111536495
 20
215.7617351249287
 30
0.0
  0
SPLINE
  5
1E6
330
1F
100
AcDbEntity
  8
0
  6
Continuous
 62
     8
370
    18
100
AcDbSpline
210
0.0
220
0.0
230
1.0
 70
    24
 71
     3
 72
     8
 73
     4
 74
     0
 42
0.000000001
 43
0.00000001
 40
0.0
 40
0.0
 40
0.0
 40
0.0
 40
0.9317398741990044
 40
0.9317398741990044
 40
0.9317398741990044
 40
0.9317398741990044
 10
427.7415714085492
 20
303.2329228041593
 30
0.0
 10
427.7415714085492
 20
303.2329228041593
 30
0.0
 10
427.5589626314974
 20
303.2329228041593
 30
0.0
 10
427.1937450773937
 20
303.2329228041593
 30
0.0
  0
SPLINE
  5
1E7
330
1F
100
AcDbEntity
  8
0
  6
Continuous
 62
     8
370
    18
100
AcDbSpline
210
0.0
220
0.0
230
1.0
 70
    24
 71
     3
 72
     9
 73
     5
 74
     0
 42
0.000000001
 43
0.00000001
 40
0.0
 40
0.0
 40
0.0
 40
0.0
 40
0.5
 40
1.0
 40
1.0
 40
1.0
 40
1.0
 10
428.5287921882424
 20
228.061623707505
 30
0.0
 10
428.5287921882424
 20
228.061623707505
 30
0.0
 10
428.5182692488713
 20
228.061623707505
 30
0.0
 10
428.4867004307578
 20
228.061623707505
 30
0.0
 10
428.4656545520155
 20
228.061623707505
 30
0.0
  0
SPLINE
  5
1E8
330
1F
100
AcDbEntity
  8
0
  6
Continuous
 62
     8
370
    18
100
AcDbSpline
210
0.0
220
0.0
230
1.0
 70
    24
 71
     3
 72
     8
 73
     4
 74
     0
 42
0.000000001
 43
0.00000001
 40
0.3553390613026225
 40
0.3553390613026225
 40
0.3553390613026225
 40
0.3553390613026225
 40
0.9318828776177226
 40
0.9318828776177226
 40
0.9318828776177226
 40
0.9318828776177226
 10
428.4656545520155
 20
228.061623707505
 30
0.0
 10
428.3973599423359
 20
228.061623707505
 30
0.0
 10
428.2736607357705
 20
228.061623707505
 30
0.0
 10
428.0945569323193
 20
228.061623707505
 30
0.0
  0
LINE
  5
1E9
330
1F
100
AcDbEntity
  8
0
  6
Continuous
 62
     8
370
    18
100
AcDbLine
 10
427.0524286062
 20
320.8290403918
 30
0.0
 11
427.080144766
 21
320.4960664943
 31
0.0
  0
LINE
  5
1EA
330
1F
100
AcDbEntity
  8
0
  6
Continuous
 62
     8
370
    18
100
AcDbLine
 10
427.4279527694
 20
316.1421744362
 30
0.0
 11
427.4708532125
 21
315.0716191367
 31
0.0
  0
LINE
  5
1EB
330
1F
100
AcDbEntity
  8
0
  6
Continuous
 62
     8
370
    18
100
AcDbLine
 10
427.645524624
 20
309.3771236226
 30
0.0
 11
427.7415700585
 21
303.2329222396
 31
0.0
  0
SPLINE
  5
1EC
330
1F
100
AcDbEntity
  8
0
  6
Continuous
 62
     8
370
    18
100
AcDbSpline
210
0.0
220
0.0
230
1.0
 70
     8
 71
     3
 72
    10
 73
     6
 74
     0
 42
0.000000001
 43
0.00000001
 40
0.0
 40
0.0
 40
0.0
 40
0.0
 40
0.0310084500490471
 40
0.5778834500490471
 40
0.9060084500490471
 40
0.9060084500490471
 40
0.9060084500490471
 40
0.9060084500490471
 10
428.2866853781168
 20
216.4585136967198
 30
0.0
 10
428.2965113785487
 20
216.5908262224088
 30
0.0
 10
428.4713972532394
 20
219.0567119271798
 30
0.0
 10
428.5295372551421
 20
222.924489803604
 30
0.0
 10
428.4806400682903
 20
226.6610157157469
 30
0.0
 10
428.4656545520155
 20
228.061623707505
 30
0.0
  0
SPLINE
  5
1ED
330
1F
100
AcDbEntity
  8
0
  6
Continuous
 62
     8
370
    18
100
AcDbSpline
210
0.0
220
0.0
230
1.0
 70
    24
 71
     3
 72
    11
 73
     7
 74
     0
 42
0.000000001
 43
0.00000001
 40
0.499999999952239
 40
0.499999999952239
 40
0.499999999952239
 40
0.499999999952239
 40
0.6249999999522391
 40
0.7499999999522391
 40
0.8749999999522391
 40
1.0
 40
1.0
 40
1.0
 40
1.0
 10
414.6592224211565
 20
288.2553666849585
 30
0.0
 10
414.6592224211565
 20
286.9625514079494
 30
0.0
 10
414.6592224211564
 20
284.6117602949182
 30
0.0
 10
414.6592224211565
 20
281.96222963709
 30
0.0
 10
414.6592224211565
 20
280.3188289654857
 30
0.0
 10
414.6592224211565
 20
279.9475823353673
 30
0.0
 10
414.6592224211565
 20
279.9475823352271
 30
0.0
  0
SPLINE
  5
1EE
330
1F
100
AcDbEntity
  8
0
  6
Continuous
 62
     8
370
    18
100
AcDbSpline
210
0.0
220
0.0
230
1.0
 70
     8
 71
     3
 72
    25
 73
    21
 74
     0
 42
0.000000001
 43
0.00000001
 40
0.0
 40
0.0
 40
0.0
 40
0.0
 40
0.0329215707618227
 40
0.0644411980735248
 40
0.0945636451646033
 40
0.1232943704408486
 40
0.1883654856425484
 40
0.246857607991266
 40
0.3136050278323353
 40
0.3720664214317208
 40
0.435582243244244
 40
0.4998192402285747
 40
0.5643159056098502
 40
0.6280422937605178
 40
0.6861885385137253
 40
0.7525345260772404
 40
0.8111960757207498
 40
0.8764869637379334
 40
0.9354374580376746
 40
1.0
 40
1.0
 40
1.0
 40
1.0
 10
408.4488358892002
 20
252.7382142858397
 30
0.0
 10
408.4488245838003
 20
252.5355616972287
 30
0.0
 10
408.4488024544335
 20
252.1388863472803
 30
0.0
 10
408.4487080254556
 20
251.5568629354157
 30
0.0
 10
408.448639522232
 20
251.0007934701438
 30
0.0
 10
408.4485885171769
 20
250.2386911044368
 30
0.0
 10
408.4486757749831
 20
249.3032018188873
 30
0.0
 10
408.4487781849583
 20
248.1391494581442
 30
0.0
 10
408.4488332684465
 20
247.0253899773126
 30
0.0
 10
408.4490713900353
 20
245.905851867842
 30
0.0
 10
408.4487825004121
 20
244.8513003504402
 30
0.0
 10
408.4479110809376
 20
243.8907885328383
 30
0.0
 10
408.4487637046112
 20
243.1729609916302
 30
0.0
 10
408.4490693526052
 20
242.7082248361126
 30
0.0
 10
408.44884104178
 20
242.3912569892882
 30
0.0
 10
408.4487922140169
 20
242.1878047555272
 30
0.0
 10
408.4486875840751
 20
242.0518662393059
 30
0.0
 10
408.4485710616497
 20
241.9736147967328
 30
0.0
 10
408.4487203563153
 20
241.93079868706
 30
0.0
 10
408.4487962291573
 20
241.9263143139769
 30
0.0
 10
408.4488358892911
 20
241.9239702494627
 30
0.0
  0
SPLINE
  5
1EF
330
1F
100
AcDbEntity
  8
0
  6
Continuous
 62
     8
370
    18
100
AcDbSpline
210
0.0
220
0.0
230
1.0
 70
     8
 71
     3
 72
    32
 73
    28
 74
     0
 42
0.000000001
 43
0.00000001
 40
0.0
 40
0.0
 40
0.0
 40
0.0
 40
0.1250000000000018
 40
0.1250000000000018
 40
0.2500000000000037
 40
0.2500000000000037
 40
0.3125000000000041
 40
0.3125000000000041
 40
0.3750000000000045
 40
0.3750000000000045
 40
0.4375000000000049
 40
0.4375000000000049
 40
0.5000000000000053
 40
0.5000000000000053
 40
0.5312500000000052
 40
0.5312500000000052
 40
0.5625000000000051
 40
0.5625000000000051
 40
0.6250000000000044
 40
0.6250000000000044
 40
0.6875000000000039
 40
0.6875000000000039
 40
0.7500000000000032
 40
0.7500000000000032
 40
0.8750000000000016
 40
0.8750000000000016
 40
1.0
 40
1.0
 40
1.0
 40
1.0
 10
406.6246919159048
 20
252.7382142857143
 30
0.0
 10
406.6246919161065
 20
251.9623379739913
 30
0.0
 10
406.6246741927014
 20
251.18329593571
 30
0.0
 10
406.6246889617785
 20
249.6105464227981
 30
0.0
 10
406.6246688957631
 20
248.8173039793005
 30
0.0
 10
406.6246615504388
 20
247.6024416033819
 30
0.0
 10
406.6246842286598
 20
247.1930728619982
 30
0.0
 10
406.6246976859975
 20
246.3596840042451
 30
0.0
 10
406.6246919512724
 20
245.9410165713024
 30
0.0
 10
406.624691877917
 20
245.096464083064
 30
0.0
 10
406.6246920355229
 20
244.6692020905159
 30
0.0
 10
406.6246987607757
 20
243.8165848332388
 30
0.0
 10
406.6246925788267
 20
243.4060465950648
 30
0.0
 10
406.6246915886748
 20
242.8588847875529
 30
0.0
 10
406.6247008335668
 20
242.6868698475608
 30
0.0
 10
406.6246880647024
 20
242.3791695512983
 30
0.0
 10
406.6246970477033
 20
242.2421450980436
 30
0.0
 10
406.624692147623
 20
241.8741038965412
 30
0.0
 10
406.6246918802503
 20
241.6845402561744
 30
0.0
 10
406.6246919492895
 20
241.3819805332716
 30
0.0
 10
406.6246974666206
 20
241.2669922020004
 30
0.0
 10
406.6246845809935
 20
241.0782421719358
 30
0.0
 10
406.6246617723318
 20
241.0050462030597
 30
0.0
 10
406.6246682479287
 20
240.8256325515359
 30
0.0
 10
406.6246890720997
 20
240.7589023409564
 30
0.0
 10
406.6246741621572
 20
240.6769354662567
 30
0.0
 10
406.6246919162451
 20
240.6624176365806
 30
0.0
 10
406.6246919159047
 20
240.6624176369157
 30
0.0
  0
LINE
  5
1F0
330
1F
100
AcDbEntity
  8
0
  6
Continuous
 62
     8
370
    18
100
AcDbLine
 10
406.6246912211
 20
252.7382141188
 30
0.0
 11
408.4487274617
 21
252.7382141188
 31
0.0
  0
SPLINE
  5
1F1
330
1F
100
AcDbEntity
  8
0
  6
Continuous
 62
     8
370
    18
100
AcDbSpline
210
0.0
220
0.0
230
1.0
 70
     8
 71
     3
 72
    25
 73
    21
 74
     0
 42
0.000000001
 43
0.00000001
 40
0.0
 40
0.0
 40
0.0
 40
0.0
 40
0.0329215708049397
 40
0.0644411981315154
 40
0.0945636452092502
 40
0.1232943704439842
 40
0.1883654856296375
 40
0.2468576079948175
 40
0.3136050277520566
 40
0.3720664214354144
 40
0.4355822432489634
 40
0.4998192402338938
 40
0.5643159056147526
 40
0.6280422937651358
 40
0.6861885384711988
 40
0.752534526083493
 40
0.811196075669987
 40
0.876486963745215
 40
0.9354374582477224
 40
1.0
 40
1.0
 40
1.0
 40
1.0
 10
408.4488358893267
 20
263.5524583219668
 30
0.0
 10
408.4488245839113
 20
263.5518428018798
 30
0.0
 10
408.4488024545142
 20
263.5506379732247
 30
0.0
 10
408.4487080254301
 20
263.5403994648735
 30
0.0
 10
408.448639522069
 20
263.523901666341
 30
0.0
 10
408.448588516792
 20
263.4904119760782
 30
0.0
 10
408.4486757742791
 20
263.4251387975956
 30
0.0
 10
408.448778183925
 20
263.2898046416328
 30
0.0
 10
408.4488332676985
 20
263.0863285678141
 30
0.0
 10
408.4490713905967
 20
262.7686953674546
 30
0.0
 10
408.4487825014109
 20
262.3042675488824
 30
0.0
 10
408.4479110805733
 20
261.5882404426594
 30
0.0
 10
408.4487637035555
 20
260.6272480291591
 30
0.0
 10
408.4490693524941
 20
259.5717371710908
 30
0.0
 10
408.448841042236
 20
258.4552866515692
 30
0.0
 10
408.4487922143905
 20
257.3449631595909
 30
0.0
 10
408.4486875842879
 20
256.1810343525767
 30
0.0
 10
408.4485710616785
 20
255.0575563529174
 30
0.0
 10
408.448720356175
 20
253.8959662861466
 30
0.0
 10
408.4487962290495
 20
253.1356471298626
 30
0.0
 10
408.4488358892002
 20
252.7382142858397
 30
0.0
  0
SPLINE
  5
1F2
330
1F
100
AcDbEntity
  8
0
  6
Continuous
 62
     8
370
    18
100
AcDbSpline
210
0.0
220
0.0
230
1.0
 70
     8
 71
     3
 72
    32
 73
    28
 74
     0
 42
0.000000001
 43
0.00000001
 40
0.0
 40
0.0
 40
0.0
 40
0.0
 40
0.1249999999999999
 40
0.1249999999999999
 40
0.2499999999999997
 40
0.2499999999999997
 40
0.3124999999999997
 40
0.3124999999999997
 40
0.3749999999999996
 40
0.3749999999999996
 40
0.4374999999999995
 40
0.4374999999999995
 40
0.4999999999999994
 40
0.4999999999999994
 40
0.5312499999999996
 40
0.5312499999999996
 40
0.5624999999999996
 40
0.5624999999999996
 40
0.6249999999999997
 40
0.6249999999999997
 40
0.6874999999999997
 40
0.6874999999999997
 40
0.7499999999999997
 40
0.7499999999999997
 40
0.8749999999999999
 40
0.8749999999999999
 40
1.0
 40
1.0
 40
1.0
 40
1.0
 10
406.6246919159071
 20
264.8140109345136
 30
0.0
 10
406.6246919161155
 20
264.8140109348433
 30
0.0
 10
406.624674192693
 20
264.7994956036766
 30
0.0
 10
406.6246889617904
 20
264.7179632008654
 30
0.0
 10
406.6246688957655
 20
264.6521654511569
 30
0.0
 10
406.6246615504412
 20
264.473342343576
 30
0.0
 10
406.6246842286576
 20
264.4001451230511
 30
0.0
 10
406.6246976860043
 20
264.2093929850491
 30
0.0
 10
406.6246919512755
 20
264.0933466659656
 30
0.0
 10
406.6246918779186
 20
263.7914542843778
 30
0.0
 10
406.6246920355107
 20
263.605737126551
 30
0.0
 10
406.6246987607926
 20
263.1105977758725
 30
0.0
 10
406.624692578845
 20
262.8055549029996
 30
0.0
 10
406.6246915886691
 20
262.2592557662782
 30
0.0
 10
406.624700833561
 20
262.0611854280489
 30
0.0
 10
406.6246880647128
 20
261.6552159920323
 30
0.0
 10
406.6246970477051
 20
261.4466812789638
 30
0.0
 10
406.6246921476255
 20
260.8134577391621
 30
0.0
 10
406.6246918802529
 20
260.3790783066907
 30
0.0
 10
406.6246919492915
 20
259.5320011803759
 30
0.0
 10
406.6246974666279
 20
259.1159441214111
 30
0.0
 10
406.6246845809907
 20
258.2925180295359
 30
0.0
 10
406.624661772339
 20
257.8854851001386
 30
0.0
 10
406.6246682479211
 20
256.6719832379189
 30
0.0
 10
406.6246890720917
 20
255.872451753019
 30
0.0
 10
406.6246741621694
 20
254.2950303779815
 30
0.0
 10
406.6246919161405
 20
253.5147581780631
 30
0.0
 10
406.624691915907
 20
252.7382142857144
 30
0.0
  0
LINE
  5
1F3
330
1F
100
AcDbEntity
  8
0
  6
Continuous
 62
     8
370
    18
100
AcDbLine
 10
428.295073691
 20
216.4541250304
 30
0.0
 11
428.3015109927
 21
216.6168978647
 31
0.0
  0
LINE
  5
1F4
330
1F
100
AcDbEntity
  8
0
  6
Continuous
 62
     8
370
    18
100
AcDbLine
 10
428.5490863353
 20
223.6198513046
 30
0.0
 11
428.5287909538
 21
228.0616229609
 31
0.0
  0
SPLINE
  5
1F5
330
1F
100
AcDbEntity
  8
0
  6
Continuous
 62
     8
370
    18
100
AcDbSpline
210
0.0
220
0.0
230
1.0
 70
     8
 71
     3
 72
     8
 73
     4
 74
     0
 42
0.000000001
 43
0.00000001
 40
0.0
 40
0.0
 40
0.0
 40
0.0
 40
1.0
 40
1.0
 40
1.0
 40
1.0
 10
428.2866854583636
 20
216.4585147772877
 30
0.0
 10
428.2924180123304
 20
216.4570168328054
 30
0.0
 10
428.2952030625323
 20
216.4555549462757
 30
0.0
 10
428.295072099879
 20
216.454128736301
 30
0.0
  0
LINE
  5
1F6
330
1F
100
AcDbEntity
  8
0
  6
Continuous
 62
     8
370
    18
100
AcDbLine
 10
403.7342533797
 20
279.3969060503
 30
0.0
 11
411.2970918745
 21
279.3969060503
 31
0.0
  0
LINE
  5
1F7
330
1F
100
AcDbEntity
  8
0
  6
Continuous
 62
     8
370
    18
100
AcDbLine
 10
425.8183665902
 20
322.1277436451
 30
0.0
 11
425.8194618255
 21
322.1305040852
 31
0.0
  0
ENDSEC
  0
SECTION
  2
OBJECTS
  0
DICTIONARY
  5
C
330
0
100
AcDbDictionary
281
     1
  3
ACAD_DETAILVIEWSTYLE
350
1FF
  3
ACAD_GROUP
350
D
  3
ACAD_LAYOUT
350
1A
  3
ACAD_MATERIAL
350
43
  3
ACAD_MLEADERSTYLE
350
6B
  3
ACAD_MLINESTYLE
350
17
  3
ACAD_PLOTSETTINGS
350
19
  3
ACAD_PLOTSTYLENAME
350
E
  3
ACAD_SCALELIST
350
47
  3
ACAD_SECTIONVIEWSTYLE
350
200
  3
ACAD_TABLESTYLE
350
69
  3
ACAD_VISUALSTYLE
350
2A
  3
ACDB_RECOMPOSE_DATA
350
1FC
  3
AcDbVariableDictionary
350
1F8
  0
SUN
  5
6D
330
29
100
AcDbSun
 90
        1
290
     0
 63
     7
421
 16777215
 40
1.0
291
     1
 91
  2455826
 92
 54000000
292
     0
 70
     2
 71
   256
280
     1
  0
DICTIONARY
  5
1FF
102
{ACAD_REACTORS
330
C
102
}
330
C
100
AcDbDictionary
281
     1
  0
DICTIONARY
  5
D
102
{ACAD_REACTORS
330
C
102
}
330
C
100
AcDbDictionary
281
     1
  0
DICTIONARY
  5
1A
102
{ACAD_REACTORS
330
C
102
}
330
C
100
AcDbDictionary
281
     1
  3
Layout1
350
1E
  3
Layout2
350
26
  3
Model
350
22
  0
DICTIONARY
  5
43
102
{ACAD_REACTORS
330
C
102
}
330
C
100
AcDbDictionary
281
     1
  3
ByBlock
350
45
  3
ByLayer
350
44
  3
Global
350
46
  0
DICTIONARY
  5
6B
102
{ACAD_REACTORS
330
C
102
}
330
C
100
AcDbDictionary
281
     1
  3
Standard
350
6C
  0
DICTIONARY
  5
17
102
{ACAD_REACTORS
330
C
102
}
330
C
100
AcDbDictionary
281
     1
  3
Standard
350
18
  0
DICTIONARY
  5
19
102
{ACAD_REACTORS
330
C
102
}
330
C
100
AcDbDictionary
281
     1
  0
ACDBDICTIONARYWDFLT
  5
E
102
{ACAD_REACTORS
330
C
102
}
330
C
100
AcDbDictionary
281
     1
  3
Normal
350
F
100
AcDbDictionaryWithDefault
340
F
  0
DICTIONARY
  5
47
102
{ACAD_REACTORS
330
C
102
}
330
C
100
AcDbDictionary
281
     1
  3
A0
350
48
  3
A1
350
49
  3
A2
350
4A
  3
A3
350
4B
  3
A4
350
4C
  3
A5
350
4D
  3
A6
350
4E
  3
A7
350
4F
  3
A8
350
50
  3
A9
350
51
  3
B0
350
52
  3
B1
350
53
  3
B2
350
54
  3
B3
350
55
  3
B4
350
56
  3
B5
350
57
  3
B6
350
58
  3
B7
350
59
  3
B8
350
5A
  3
B9
350
5B
  3
C0
350
5C
  3
C1
350
5D
  3
C2
350
5E
  3
C3
350
5F
  3
C4
350
60
  3
C5
350
61
  3
C6
350
62
  3
C7
350
63
  3
C8
350
64
  3
C9
350
65
  3
D0
350
66
  3
D1
350
67
  3
D2
350
68
  0
DICTIONARY
  5
200
102
{ACAD_REACTORS
330
C
102
}
330
C
100
AcDbDictionary
281
     1
  0
DICTIONARY
  5
69
102
{ACAD_REACTORS
330
C
102
}
330
C
100
AcDbDictionary
281
     1
  3
Standard
350
6A
  0
DICTIONARY
  5
2A
102
{ACAD_REACTORS
330
C
102
}
330
C
100
AcDbDictionary
281
     1
  3
2dWireframe
350
2F
  3
Basic
350
32
  3
Brighten
350
36
  3
ColorChange
350
3A
  3
Conceptual
350
34
  3
Dim
350
35
  3
EdgeColorOff
350
3D
  3
Facepattern
350
39
  3
Flat
350
2B
  3
FlatWithEdges
350
2C
  3
Gouraud
350
2D
  3
GouraudWithEdges
350
2E
  3
Hidden
350
31
  3
JitterOff
350
3B
  3
Linepattern
350
38
  3
OverhangOff
350
3C
  3
Realistic
350
33
  3
Shaded
350
42
  3
Shaded with edges
350
41
  3
Shades of Gray
350
3E
  3
Sketchy
350
3F
  3
Thicken
350
37
  3
Wireframe
350
30
  3
X-Ray
350
40
  0
XRECORD
  5
1FC
102
{ACAD_REACTORS
330
C
102
}
330
C
100
AcDbXrecord
280
     1
 90
        1
330
6A
  0
DICTIONARY
  5
1F8
102
{ACAD_REACTORS
330
C
102
}
330
C
100
AcDbDictionary
281
     1
  3
CANNOSCALE
350
1F9
  3
CMLEADERSTYLE
350
1FE
  3
CTABLESTYLE
350
1FD
  0
LAYOUT
  5
1E
102
{ACAD_REACTORS
330
1A
102
}
330
1A
100
AcDbPlotSettings
  1

  2
none_device
  4

  6

 40
0.0
 41
0.0
 42
0.0
 43
0.0
 44
0.0
 45
0.0
 46
0.0
 47
0.0
 48
0.0
 49
0.0
140
0.0
141
0.0
142
1.0
143
1.0
 70
   688
 72
     1
 73
     0
 74
     5
  7

 75
    16
 76
     0
 77
     2
 78
   300
147
1.0
148
0.0
149
0.0
100
AcDbLayout
  1
Layout1
 70
     1
 71
     1
 10
0.0
 20
0.0
 11
420.0
 21
297.0
 12
0.0
 22
0.0
 32
0.0
 14
1.0000000000E+20
 24
1.0000000000E+20
 34
1.0000000000E+20
 15
-1.0000000000E+20
 25
-1.0000000000E+20
 35
-1.0000000000E+20
146
0.0
 13
0.0
 23
0.0
 33
0.0
 16
1.0
 26
0.0
 36
0.0
 17
0.0
 27
1.0
 37
0.0
 76
     0
330
1B
  0
LAYOUT
  5
26
102
{ACAD_REACTORS
330
1A
102
}
330
1A
100
AcDbPlotSettings
  1

  2
none_device
  4

  6

 40
0.0
 41
0.0
 42
0.0
 43
0.0
 44
0.0
 45
0.0
 46
0.0
 47
0.0
 48
0.0
 49
0.0
140
0.0
141
0.0
142
1.0
143
1.0
 70
   688
 72
     1
 73
     0
 74
     5
  7

 75
    16
 76
     0
 77
     2
 78
   300
147
1.0
148
0.0
149
0.0
100
AcDbLayout
  1
Layout2
 70
     1
 71
     2
 10
0.0
 20
0.0
 11
0.0
 21
0.0
 12
0.0
 22
0.0
 32
0.0
 14
0.0
 24
0.0
 34
0.0
 15
0.0
 25
0.0
 35
0.0
146
0.0
 13
0.0
 23
0.0
 33
0.0
 16
1.0
 26
0.0
 36
0.0
 17
0.0
 27
1.0
 37
0.0
 76
     0
330
23
  0
LAYOUT
  5
22
102
{ACAD_REACTORS
330
1A
102
}
330
1A
100
AcDbPlotSettings
  1

  2
none_device
  4
Letter_(8.50_x_11.00_Inches)
  6

 40
6.35
 41
6.35
 42
6.35000508
 43
6.35000508
 44
215.9
 45
279.4
 46
0.0
 47
0.0
 48
0.0
 49
0.0
140
0.0
141
0.0
142
1.0
143
1.0
 70
  1712
 72
     1
 73
     0
 74
     0
  7

 75
     0
 76
     0
 77
     2
 78
   300
147
1.0
148
0.0
149
0.0
100
AcDbLayout
  1
Model
 70
     1
 71
     0
 10
0.0
 20
0.0
 11
594.0
 21
841.0
 12
0.0
 22
0.0
 32
0.0
 14
0.0
 24
0.0
 34
0.0
 15
594.0
 25
841.0
 35
0.0
146
0.0
 13
0.0
 23
0.0
 33
0.0
 16
1.0
 26
0.0
 36
0.0
 17
0.0
 27
1.0
 37
0.0
 76
     0
330
1F
331
29
  0
MATERIAL
  5
45
102
{ACAD_REACTORS
330
43
102
}
330
43
100
AcDbMaterial
  1
ByBlock
 72
     1
 94
      127
  0
MATERIAL
  5
44
102
{ACAD_REACTORS
330
43
102
}
330
43
100
AcDbMaterial
  1
ByLayer
 72
     1
 94
      127
  0
MATERIAL
  5
46
102
{ACAD_REACTORS
330
43
102
}
330
43
100
AcDbMaterial
  1
Global
 72
     1
 94
      127
  0
MLEADERSTYLE
  5
6C
102
{ACAD_REACTORS
330
6B
102
}
330
6B
100
AcDbMLeaderStyle
179
     2
170
     2
171
     1
172
     0
 90
        2
 40
0.0
 41
0.0
173
     1
 91
-1056964608
340
14
 92
       -2
290
     1
 42
2.0
291
     1
 43
8.0
  3
Standard
341
0
 44
4.0
300

342
11
174
     1
178
     6
175
     1
176
     0
 93
-1056964608
 45
4.0
292
     0
297
     0
 46
4.0
343
0
 94
-1056964608
 47
1.0
 49
1.0
140
1.0
293
     1
141
0.0
294
     1
177
     0
142
1.0
295
     0
296
     0
143
3.75
271
     0
272
     9
273
     9
  0
MLINESTYLE
  5
18
102
{ACAD_REACTORS
330
17
102
}
330
17
100
AcDbMlineStyle
  2
Standard
 70
     0
  3

 62
   256
 51
90.0
 52
90.0
 71
     2
 49
0.5
 62
   256
  6
BYLAYER
 49
-0.5
 62
   256
  6
BYLAYER
  0
ACDBPLACEHOLDER
  5
F
102
{ACAD_REACTORS
330
E
102
}
330
E
  0
SCALE
  5
48
102
{ACAD_REACTORS
330
47
102
}
330
47
100
AcDbScale
 70
     0
300
1:1
140
1.0
141
1.0
290
     1
  0
SCALE
  5
49
102
{ACAD_REACTORS
330
47
102
}
330
47
100
AcDbScale
 70
     0
300
1:2
140
1.0
141
2.0
290
     0
  0
SCALE
  5
4A
102
{ACAD_REACTORS
330
47
102
}
330
47
100
AcDbScale
 70
     0
300
1:4
140
1.0
141
4.0
290
     0
  0
SCALE
  5
4B
102
{ACAD_REACTORS
330
47
102
}
330
47
100
AcDbScale
 70
     0
300
1:5
140
1.0
141
5.0
290
     0
  0
SCALE
  5
4C
102
{ACAD_REACTORS
330
47
102
}
330
47
100
AcDbScale
 70
     0
300
1:8
140
1.0
141
8.0
290
     0
  0
SCALE
  5
4D
102
{ACAD_REACTORS
330
47
102
}
330
47
100
AcDbScale
 70
     0
300
1:10
140
1.0
141
10.0
290
     0
  0
SCALE
  5
4E
102
{ACAD_REACTORS
330
47
102
}
330
47
100
AcDbScale
 70
     0
300
1:16
140
1.0
141
16.0
290
     0
  0
SCALE
  5
4F
102
{ACAD_REACTORS
330
47
102
}
330
47
100
AcDbScale
 70
     0
300
1:20
140
1.0
141
20.0
290
     0
  0
SCALE
  5
50
102
{ACAD_REACTORS
330
47
102
}
330
47
100
AcDbScale
 70
     0
300
1:30
140
1.0
141
30.0
290
     0
  0
SCALE
  5
51
102
{ACAD_REACTORS
330
47
102
}
330
47
100
AcDbScale
 70
     0
300
1:40
140
1.0
141
40.0
290
     0
  0
SCALE
  5
52
102
{ACAD_REACTORS
330
47
102
}
330
47
100
AcDbScale
 70
     0
300
1:50
140
1.0
141
50.0
290
     0
  0
SCALE
  5
53
102
{ACAD_REACTORS
330
47
102
}
330
47
100
AcDbScale
 70
     0
300
1:100
140
1.0
141
100.0
290
     0
  0
SCALE
  5
54
102
{ACAD_REACTORS
330
47
102
}
330
47
100
AcDbScale
 70
     0
300
2:1
140
2.0
141
1.0
290
     0
  0
SCALE
  5
55
102
{ACAD_REACTORS
330
47
102
}
330
47
100
AcDbScale
 70
     0
300
4:1
140
4.0
141
1.0
290
     0
  0
SCALE
  5
56
102
{ACAD_REACTORS
330
47
102
}
330
47
100
AcDbScale
 70
     0
300
8:1
140
8.0
141
1.0
290
     0
  0
SCALE
  5
57
102
{ACAD_REACTORS
330
47
102
}
330
47
100
AcDbScale
 70
     0
300
10:1
140
10.0
141
1.0
290
     0
  0
SCALE
  5
58
102
{ACAD_REACTORS
330
47
102
}
330
47
100
AcDbScale
 70
     0
300
100:1
140
100.0
141
1.0
290
     0
  0
SCALE
  5
59
102
{ACAD_REACTORS
330
47
102
}
330
47
100
AcDbScale
 70
     0
300
1/128" = 1'-0"
140
0.0078125
141
12.0
290
     0
  0
SCALE
  5
5A
102
{ACAD_REACTORS
330
47
102
}
330
47
100
AcDbScale
 70
     0
300
1/64" = 1'-0"
140
0.015625
141
12.0
290
     0
  0
SCALE
  5
5B
102
{ACAD_REACTORS
330
47
102
}
330
47
100
AcDbScale
 70
     0
300
1/32" = 1'-0"
140
0.03125
141
12.0
290
     0
  0
SCALE
  5
5C
102
{ACAD_REACTORS
330
47
102
}
330
47
100
AcDbScale
 70
     0
300
1/16" = 1'-0"
140
0.0625
141
12.0
290
     0
  0
SCALE
  5
5D
102
{ACAD_REACTORS
330
47
102
}
330
47
100
AcDbScale
 70
     0
300
3/32" = 1'-0"
140
0.09375
141
12.0
290
     0
  0
SCALE
  5
5E
102
{ACAD_REACTORS
330
47
102
}
330
47
100
AcDbScale
 70
     0
300
1/8" = 1'-0"
140
0.125
141
12.0
290
     0
  0
SCALE
  5
5F
102
{ACAD_REACTORS
330
47
102
}
330
47
100
AcDbScale
 70
     0
300
3/16" = 1'-0"
140
0.1875
141
12.0
290
     0
  0
SCALE
  5
60
102
{ACAD_REACTORS
330
47
102
}
330
47
100
AcDbScale
 70
     0
300
1/4" = 1'-0"
140
0.25
141
12.0
290
     0
  0
SCALE
  5
61
102
{ACAD_REACTORS
330
47
102
}
330
47
100
AcDbScale
 70
     0
300
3/8" = 1'-0"
140
0.375
141
12.0
290
     0
  0
SCALE
  5
62
102
{ACAD_REACTORS
330
47
102
}
330
47
100
AcDbScale
 70
     0
300
1/2" = 1'-0"
140
0.5
141
12.0
290
     0
  0
SCALE
  5
63
102
{ACAD_REACTORS
330
47
102
}
330
47
100
AcDbScale
 70
     0
300
3/4" = 1'-0"
140
0.75
141
12.0
290
     0
  0
SCALE
  5
64
102
{ACAD_REACTORS
330
47
102
}
330
47
100
AcDbScale
 70
     0
300
1" = 1'-0"
140
1.0
141
12.0
290
     0
  0
SCALE
  5
65
102
{ACAD_REACTORS
330
47
102
}
330
47
100
AcDbScale
 70
     0
300
1-1/2" = 1'-0"
140
1.5
141
12.0
290
     0
  0
SCALE
  5
66
102
{ACAD_REACTORS
330
47
102
}
330
47
100
AcDbScale
 70
     0
300
3" = 1'-0"
140
3.0
141
12.0
290
     0
  0
SCALE
  5
67
102
{ACAD_REACTORS
330
47
102
}
330
47
100
AcDbScale
 70
     0
300
6" = 1'-0"
140
6.0
141
12.0
290
     0
  0
SCALE
  5
68
102
{ACAD_REACTORS
330
47
102
}
330
47
100
AcDbScale
 70
     0
300
1'-0" = 1'-0"
140
12.0
141
12.0
290
     0
  0
TABLESTYLE
  5
6A
102
{ACAD_REACTORS
330
69
102
}
102
{ACAD_XDICTIONARY
360
1FA
102
}
330
69
100
AcDbTableStyle
  3
Standard
 70
     0
 71
     0
 40
0.06
 41
0.06
280
     0
281
     0
  7
Standard
140
4.5
170
     2
 62
     0
 63
   257
283
     0
 90
        4
 91
        0
  1

274
    -2
284
     1
 64
     0
275
    -2
285
     1
 65
     0
276
    -2
286
     1
 66
     0
277
    -2
287
     1
 67
     0
278
    -2
288
     1
 68
     0
279
    -2
289
     1
 69
     0
  7
Standard
140
6.0
170
     5
 62
     0
 63
   257
283
     0
 90
        4
 91
        0
  1

274
    -2
284
     1
 64
     0
275
    -2
285
     1
 65
     0
276
    -2
286
     1
 66
     0
277
    -2
287
     1
 67
     0
278
    -2
288
     1
 68
     0
279
    -2
289
     1
 69
     0
  7
Standard
140
4.5
170
     5
 62
     0
 63
   257
283
     0
 90
        4
 91
        0
  1

274
    -2
284
     1
 64
     0
275
    -2
285
     1
 65
     0
276
    -2
286
     1
 66
     0
277
    -2
287
     1
 67
     0
278
    -2
288
     1
 68
     0
279
    -2
289
     1
 69
     0
  0
VISUALSTYLE
  5
2F
102
{ACAD_REACTORS
330
2A
102
}
330
2A
100
AcDbVisualStyle
  2
2dWireframe
 70
     4
177
     2
291
     0
 71
     0
176
     1
 72
     2
176
     1
 73
     0
176
     1
 90
        0
176
     1
 40
0.6
176
     1
 41
30.0
176
     1
 62
     5
 63
     7
421
 16777215
176
     1
 74
     1
176
     1
 91
        4
176
     1
 64
     7
176
     1
 65
   257
176
     1
 75
     1
176
     1
175
     1
176
     1
 42
1.0
176
     1
 92
        0
176
     1
 66
   257
176
     1
 43
1.0
176
     1
 76
     1
176
     1
 77
     6
176
     1
 78
     2
176
     1
 67
     7
176
     1
 79
     5
176
     1
170
     0
176
     1
171
     0
176
     1
290
     0
176
     1
 93
        1
176
     1
 44
0.0
176
     1
173
     0
176
     1
  0
VISUALSTYLE
  5
32
102
{ACAD_REACTORS
330
2A
102
}
330
2A
100
AcDbVisualStyle
  2
Basic
 70
     7
177
     2
291
     1
 71
     1
176
     1
 72
     0
176
     1
 73
     1
176
     1
 90
        0
176
     1
 40
0.6
176
     1
 41
30.0
176
     1
 62
     5
 63
     7
421
 16777215
176
     1
 74
     0
176
     1
 91
        4
176
     1
 64
     7
176
     1
 65
   257
176
     1
 75
     1
176
     1
175
     1
176
     1
 42
1.0
176
     1
 92
        8
176
     1
 66
     7
176
     1
 43
1.0
176
     1
 76
     1
176
     1
 77
     6
176
     1
 78
     2
176
     1
 67
     7
176
     1
 79
     5
176
     1
170
     0
176
     1
171
     0
176
     1
290
     0
176
     1
 93
        1
176
     1
 44
0.0
176
     1
173
     0
176
     1
  0
VISUALSTYLE
  5
36
102
{ACAD_REACTORS
330
2A
102
}
330
2A
100
AcDbVisualStyle
  2
Brighten
 70
    12
177
     2
291
     1
 71
     2
176
     1
 72
     2
176
     1
 73
     0
176
     1
 90
        0
176
     1
 40
0.6
176
     1
 41
30.0
176
     1
 62
     5
 63
     7
421
 16777215
176
     1
 74
     1
176
     1
 91
        4
176
     1
 64
     7
176
     1
 65
   257
176
     1
 75
     1
176
     1
175
     1
176
     1
 42
1.0
176
     1
 92
        8
176
     1
 66
     7
176
     1
 43
1.0
176
     1
 76
     1
176
     1
 77
     6
176
     1
 78
     2
176
     1
 67
     7
176
     1
 79
     5
176
     1
170
     0
176
     1
171
     0
176
     1
290
     0
176
     1
 93
        1
176
     1
 44
50.0
176
     1
173
     0
176
     1
  0
VISUALSTYLE
  5
3A
102
{ACAD_REACTORS
330
2A
102
}
330
2A
100
AcDbVisualStyle
  2
ColorChange
 70
    16
177
     2
291
     1
 71
     2
176
     1
 72
     2
176
     1
 73
     3
176
     1
 90
        0
176
     1
 40
0.6
176
     1
 41
30.0
176
     1
 62
     5
 63
     8
421
  8421504
176
     1
 74
     1
176
     1
 91
        4
176
     1
 64
     7
176
     1
 65
   257
176
     1
 75
     1
176
     1
175
     1
176
     1
 42
1.0
176
     1
 92
        8
176
     1
 66
     8
424
  8421504
176
     1
 43
1.0
176
     1
 76
     1
176
     1
 77
     6
176
     1
 78
     2
176
     1
 67
     7
176
     1
 79
     5
176
     1
170
     0
176
     1
171
     0
176
     1
290
     0
176
     1
 93
        1
176
     1
 44
0.0
176
     1
173
     0
176
     1
  0
VISUALSTYLE
  5
34
102
{ACAD_REACTORS
330
2A
102
}
330
2A
100
AcDbVisualStyle
  2
Conceptual
 70
     9
177
     2
291
     0
 71
     3
176
     1
 72
     2
176
     1
 73
     0
176
     1
 90
        0
176
     1
 40
0.6
176
     1
 41
30.0
176
     1
 62
     5
 63
     7
421
 16777215
176
     1
 74
     2
176
     1
 91
        2
176
     1
 64
     7
176
     1
 65
   257
176
     1
 75
     1
176
     1
175
     1
176
     1
 42
179.0
176
     1
 92
        8
176
     1
 66
     7
176
     1
 43
1.0
176
     1
 76
     1
176
     1
 77
     6
176
     1
 78
     2
176
     1
 67
     7
176
     1
 79
     3
176
     1
170
     0
176
     1
171
     0
176
     1
290
     0
176
     1
 93
        1
176
     1
 44
0.0
176
     1
173
     0
176
     1
  0
VISUALSTYLE
  5
35
102
{ACAD_REACTORS
330
2A
102
}
330
2A
100
AcDbVisualStyle
  2
Dim
 70
    11
177
     2
291
     1
 71
     2
176
     1
 72
     2
176
     1
 73
     0
176
     1
 90
        0
176
     1
 40
0.6
176
     1
 41
30.0
176
     1
 62
     5
 63
     7
421
 16777215
176
     1
 74
     1
176
     1
 91
        4
176
     1
 64
     7
176
     1
 65
   257
176
     1
 75
     1
176
     1
175
     1
176
     1
 42
1.0
176
     1
 92
        8
176
     1
 66
     7
176
     1
 43
1.0
176
     1
 76
     1
176
     1
 77
     6
176
     1
 78
     2
176
     1
 67
     7
176
     1
 79
     5
176
     1
170
     0
176
     1
171
     0
176
     1
290
     0
176
     1
 93
        1
176
     1
 44
-50.0
176
     1
173
     0
176
     1
  0
VISUALSTYLE
  5
3D
102
{ACAD_REACTORS
330
2A
102
}
330
2A
100
AcDbVisualStyle
  2
EdgeColorOff
 70
    22
177
     2
291
     1
 71
     2
176
     0
 72
     2
176
     0
 73
     0
176
     0
 90
        0
176
     0
 40
0.6
176
     0
 41
30.0
176
     0
 62
     5
 63
     7
421
 16777215
176
     0
 74
     1
176
     0
 91
        4
176
     0
 64
     7
176
     0
 65
   257
176
     0
 75
     1
176
     0
175
     1
176
     0
 42
1.0
176
     0
 92
        8
176
     2
 66
     7
176
     0
 43
1.0
176
     0
 76
     1
176
     0
 77
     6
176
     0
 78
     2
176
     0
 67
     7
176
     0
 79
     5
176
     0
170
     0
176
     0
171
     0
176
     0
290
     0
176
     0
 93
        1
176
     0
 44
0.0
176
     0
173
     0
176
     0
  0
VISUALSTYLE
  5
39
102
{ACAD_REACTORS
330
2A
102
}
330
2A
100
AcDbVisualStyle
  2
Facepattern
 70
    15
177
     2
291
     1
 71
     2
176
     1
 72
     2
176
     1
 73
     0
176
     1
 90
        0
176
     1
 40
0.6
176
     1
 41
30.0
176
     1
 62
     5
 63
     7
421
 16777215
176
     1
 74
     1
176
     1
 91
        4
176
     1
 64
     7
176
     1
 65
   257
176
     1
 75
     1
176
     1
175
     1
176
     1
 42
1.0
176
     1
 92
        8
176
     1
 66
     7
176
     1
 43
1.0
176
     1
 76
     1
176
     1
 77
     6
176
     1
 78
     2
176
     1
 67
     7
176
     1
 79
     5
176
     1
170
     0
176
     1
171
     0
176
     1
290
     0
176
     1
 93
        1
176
     1
 44
0.0
176
     1
173
     0
176
     1
  0
VISUALSTYLE
  5
2B
102
{ACAD_REACTORS
330
2A
102
}
330
2A
100
AcDbVisualStyle
  2
Flat
 70
     0
177
     2
291
     1
 71
     2
176
     1
 72
     1
176
     1
 73
     1
176
     1
 90
        2
176
     1
 40
0.6
176
     1
 41
30.0
176
     1
 62
     5
 63
     7
421
 16777215
176
     1
 74
     0
176
     1
 91
        0
176
     1
 64
     7
176
     1
 65
   257
176
     1
 75
     1
176
     1
175
     1
176
     1
 42
1.0
176
     1
 92
        8
176
     1
 66
     7
176
     1
 43
1.0
176
     1
 76
     1
176
     1
 77
     6
176
     1
 78
     2
176
     1
 67
     7
176
     1
 79
     5
176
     1
170
     0
176
     1
171
     0
176
     1
290
     0
176
     1
 93
       13
176
     1
 44
0.0
176
     1
173
     0
176
     1
  0
VISUALSTYLE
  5
2C
102
{ACAD_REACTORS
330
2A
102
}
330
2A
100
AcDbVisualStyle
  2
FlatWithEdges
 70
     1
177
     2
291
     1
 71
     2
176
     1
 72
     1
176
     1
 73
     1
176
     1
 90
        2
176
     1
 40
0.6
176
     1
 41
30.0
176
     1
 62
     5
 63
     7
421
 16777215
176
     1
 74
     1
176
     1
 91
        0
176
     1
 64
     7
176
     1
 65
   257
176
     1
 75
     1
176
     1
175
     1
176
     1
 42
1.0
176
     1
 92
        0
176
     1
 66
   257
176
     1
 43
1.0
176
     1
 76
     1
176
     1
 77
     6
176
     1
 78
     2
176
     1
 67
     7
176
     1
 79
     5
176
     1
170
     0
176
     1
171
     0
176
     1
290
     0
176
     1
 93
       13
176
     1
 44
0.0
176
     1
173
     0
176
     1
  0
VISUALSTYLE
  5
2D
102
{ACAD_REACTORS
330
2A
102
}
330
2A
100
AcDbVisualStyle
  2
Gouraud
 70
     2
177
     2
291
     1
 71
     2
176
     1
 72
     2
176
     1
 73
     1
176
     1
 90
        2
176
     1
 40
0.6
176
     1
 41
30.0
176
     1
 62
     5
 63
     7
421
 16777215
176
     1
 74
     0
176
     1
 91
        0
176
     1
 64
     7
176
     1
 65
   257
176
     1
 75
     1
176
     1
175
     1
176
     1
 42
1.0
176
     1
 92
        0
176
     1
 66
     7
176
     1
 43
1.0
176
     1
 76
     1
176
     1
 77
     6
176
     1
 78
     2
176
     1
 67
     7
176
     1
 79
     5
176
     1
170
     0
176
     1
171
     0
176
     1
290
     0
176
     1
 93
       13
176
     1
 44
0.0
176
     1
173
     0
176
     1
  0
VISUALSTYLE
  5
2E
102
{ACAD_REACTORS
330
2A
102
}
330
2A
100
AcDbVisualStyle
  2
GouraudWithEdges
 70
     3
177
     2
291
     1
 71
     2
176
     1
 72
     2
176
     1
 73
     1
176
     1
 90
        2
176
     1
 40
0.6
176
     1
 41
30.0
176
     1
 62
     5
 63
     7
421
 16777215
176
     1
 74
     1
176
     1
 91
        0
176
     1
 64
     7
176
     1
 65
   257
176
     1
 75
     1
176
     1
175
     1
176
     1
 42
1.0
176
     1
 92
        0
176
     1
 66
   257
176
     1
 43
1.0
176
     1
 76
     1
176
     1
 77
     6
176
     1
 78
     2
176
     1
 67
     7
176
     1
 79
     5
176
     1
170
     0
176
     1
171
     0
176
     1
290
     0
176
     1
 93
       13
176
     1
 44
0.0
176
     1
173
     0
176
     1
  0
VISUALSTYLE
  5
31
102
{ACAD_REACTORS
330
2A
102
}
330
2A
100
AcDbVisualStyle
  2
Hidden
 70
     6
177
     2
291
     0
 71
     1
176
     1
 72
     2
176
     1
 73
     2
176
     1
 90
        0
176
     1
 40
0.6
176
     1
 41
30.0
176
     1
 62
     5
 63
     7
421
 16777215
176
     1
 74
     2
176
     1
 91
        2
176
     1
 64
     7
176
     1
 65
   257
176
     1
 75
     2
176
     1
175
     1
176
     1
 42
40.0
176
     1
 92
        0
176
     1
 66
   257
176
     1
 43
1.0
176
     1
 76
     1
176
     1
 77
     6
176
     1
 78
     2
176
     1
 67
     7
176
     1
 79
     3
176
     1
170
     0
176
     1
171
     0
176
     1
290
     0
176
     1
 93
        1
176
     1
 44
0.0
176
     1
173
     0
176
     1
  0
VISUALSTYLE
  5
3B
102
{ACAD_REACTORS
330
2A
102
}
330
2A
100
AcDbVisualStyle
  2
JitterOff
 70
    20
177
     2
291
     1
 71
     2
176
     0
 72
     2
176
     0
 73
     0
176
     0
 90
        0
176
     0
 40
0.6
176
     0
 41
30.0
176
     0
 62
     5
 63
     7
421
 16777215
176
     0
 74
     1
176
     0
 91
        4
176
     0
 64
     7
176
     0
 65
   257
176
     0
 75
     1
176
     0
175
     1
176
     0
 42
1.0
176
     0
 92
       10
176
     2
 66
     7
176
     0
 43
1.0
176
     0
 76
     1
176
     0
 77
     6
176
     0
 78
     2
176
     0
 67
     7
176
     0
 79
     5
176
     0
170
     0
176
     0
171
     0
176
     0
290
     0
176
     0
 93
        1
176
     0
 44
0.0
176
     0
173
     0
176
     0
  0
VISUALSTYLE
  5
38
102
{ACAD_REACTORS
330
2A
102
}
330
2A
100
AcDbVisualStyle
  2
Linepattern
 70
    14
177
     2
291
     1
 71
     2
176
     1
 72
     2
176
     1
 73
     0
176
     1
 90
        0
176
     1
 40
0.6
176
     1
 41
30.0
176
     1
 62
     5
 63
     7
421
 16777215
176
     1
 74
     1
176
     1
 91
        4
176
     1
 64
     7
176
     1
 65
   257
176
     1
 75
     7
176
     1
175
     7
176
     1
 42
1.0
176
     1
 92
        8
176
     1
 66
     7
176
     1
 43
1.0
176
     1
 76
     1
176
     1
 77
     6
176
     1
 78
     2
176
     1
 67
     7
176
     1
 79
     5
176
     1
170
     0
176
     1
171
     0
176
     1
290
     0
176
     1
 93
        1
176
     1
 44
0.0
176
     1
173
     0
176
     1
  0
VISUALSTYLE
  5
3C
102
{ACAD_REACTORS
330
2A
102
}
330
2A
100
AcDbVisualStyle
  2
OverhangOff
 70
    21
177
     2
291
     1
 71
     2
176
     0
 72
     2
176
     0
 73
     0
176
     0
 90
        0
176
     0
 40
0.6
176
     0
 41
30.0
176
     0
 62
     5
 63
     7
421
 16777215
176
     0
 74
     1
176
     0
 91
        4
176
     0
 64
     7
176
     0
 65
   257
176
     0
 75
     1
176
     0
175
     1
176
     0
 42
1.0
176
     0
 92
        9
176
     2
 66
     7
176
     0
 43
1.0
176
     0
 76
     1
176
     0
 77
     6
176
     0
 78
     2
176
     0
 67
     7
176
     0
 79
     5
176
     0
170
     0
176
     0
171
     0
176
     0
290
     0
176
     0
 93
        1
176
     0
 44
0.0
176
     0
173
     0
176
     0
  0
VISUALSTYLE
  5
33
102
{ACAD_REACTORS
330
2A
102
}
330
2A
100
AcDbVisualStyle
  2
Realistic
 70
     8
177
     2
291
     0
 71
     2
176
     1
 72
     3
176
     1
 73
     0
176
     1
 90
        2
176
     1
 40
0.6
176
     1
 41
30.0
176
     1
 62
     5
 63
     7
421
 16777215
176
     1
 74
     0
176
     1
 91
        0
176
     1
 64
     7
176
     1
 65
   257
176
     1
 75
     1
176
     1
175
     1
176
     1
 42
1.0
176
     1
 92
        8
176
     1
 66
   257
176
     1
 43
1.0
176
     1
 76
     1
176
     1
 77
     6
176
     1
 78
     2
176
     1
 67
     7
176
     1
 79
     3
176
     1
170
     0
176
     1
171
     0
176
     1
290
     0
176
     1
 93
       13
176
     1
 44
0.0
176
     1
173
     0
176
     1
  0
VISUALSTYLE
  5
42
102
{ACAD_REACTORS
330
2A
102
}
330
2A
100
AcDbVisualStyle
  2
Shaded
 70
    27
177
     2
291
     0
 71
     2
176
     1
 72
     2
176
     1
 73
     1
176
     1
 90
        2
176
     1
 40
0.6
176
     1
 41
30.0
176
     1
 62
     5
 63
     7
421
 16777215
176
     1
 74
     0
176
     1
 91
        4
176
     1
 64
     7
176
     1
 65
   257
176
     1
 75
     1
176
     1
175
     1
176
     1
 42
1.0
176
     1
 92
        8
176
     1
 66
   257
176
     1
 43
1.0
176
     1
 76
     1
176
     1
 77
     6
176
     1
 78
     2
176
     1
 67
     8
425
  7895160
176
     1
 79
     3
176
     1
170
     0
176
     1
171
     0
176
     1
290
     0
176
     1
 93
        5
176
     1
 44
0.0
176
     1
173
     0
176
     1
  0
VISUALSTYLE
  5
41
102
{ACAD_REACTORS
330
2A
102
}
330
2A
100
AcDbVisualStyle
  2
Shaded with edges
 70
    26
177
     2
291
     0
 71
     2
176
     1
 72
     2
176
     1
 73
     1
176
     1
 90
        2
176
     1
 40
0.6
176
     1
 41
30.0
176
     1
 62
     5
 63
     7
421
 16777215
176
     1
 74
     1
176
     1
 91
       10
176
     1
 64
     7
176
     1
 65
   257
176
     1
 75
     2
176
     1
175
     1
176
     1
 42
1.0
176
     1
 92
        8
176
     1
 66
   257
176
     1
 43
1.0
176
     1
 76
     1
176
     1
 77
     6
176
     1
 78
     2
176
     1
 67
     7
176
     1
 79
     3
176
     1
170
     0
176
     1
171
     0
176
     1
290
     0
176
     1
 93
        5
176
     1
 44
0.0
176
     1
173
     0
176
     1
  0
VISUALSTYLE
  5
3E
102
{ACAD_REACTORS
330
2A
102
}
330
2A
100
AcDbVisualStyle
  2
Shades of Gray
 70
    23
177
     2
291
     0
 71
     2
176
     1
 72
     2
176
     1
 73
     3
176
     1
 90
        0
176
     1
 40
0.6
176
     1
 41
30.0
176
     1
 62
     5
 63
     7
421
 16777215
176
     1
 74
     2
176
     1
 91
        2
176
     1
 64
     7
176
     1
 65
     7
176
     1
 75
     1
176
     1
175
     1
176
     1
 42
40.0
176
     1
 92
        8
176
     1
 66
     7
176
     1
 43
1.0
176
     1
 76
     1
176
     1
 77
     6
176
     1
 78
     2
176
     1
 67
     7
176
     1
 79
     3
176
     1
170
     0
176
     1
171
     0
176
     1
290
     0
176
     1
 93
        1
176
     1
 44
0.0
176
     1
173
     0
176
     1
  0
VISUALSTYLE
  5
3F
102
{ACAD_REACTORS
330
2A
102
}
330
2A
100
AcDbVisualStyle
  2
Sketchy
 70
    24
177
     2
291
     0
 71
     1
176
     1
 72
     2
176
     1
 73
     2
176
     1
 90
        0
176
     1
 40
0.6
176
     1
 41
30.0
176
     1
 62
     5
 63
     7
421
 16777215
176
     1
 74
     2
176
     1
 91
        2
176
     1
 64
     7
176
     1
 65
     7
176
     1
 75
     1
176
     1
175
     1
176
     1
 42
40.0
176
     1
 92
       11
176
     1
 66
     7
176
     1
 43
1.0
176
     1
 76
     1
176
     1
 77
     6
176
     1
 78
     2
176
     1
 67
     7
176
     1
 79
     6
176
     1
170
     0
176
     1
171
     0
176
     1
290
     0
176
     1
 93
        1
176
     1
 44
0.0
176
     1
173
     0
176
     1
  0
VISUALSTYLE
  5
37
102
{ACAD_REACTORS
330
2A
102
}
330
2A
100
AcDbVisualStyle
  2
Thicken
 70
    13
177
     2
291
     1
 71
     2
176
     1
 72
     2
176
     1
 73
     0
176
     1
 90
        0
176
     1
 40
0.6
176
     1
 41
30.0
176
     1
 62
     5
 63
     7
421
 16777215
176
     1
 74
     1
176
     1
 91
        4
176
     1
 64
     7
176
     1
 65
   257
176
     1
 75
     1
176
     1
175
     1
176
     1
 42
1.0
176
     1
 92
       12
176
     1
 66
     7
176
     1
 43
1.0
176
     1
 76
     1
176
     1
 77
     6
176
     1
 78
     2
176
     1
 67
     7
176
     1
 79
     5
176
     1
170
     0
176
     1
171
     0
176
     1
290
     0
176
     1
 93
        1
176
     1
 44
0.0
176
     1
173
     0
176
     1
  0
VISUALSTYLE
  5
30
102
{ACAD_REACTORS
330
2A
102
}
330
2A
100
AcDbVisualStyle
  2
Wireframe
 70
     5
177
     2
291
     0
 71
     0
176
     1
 72
     2
176
     1
 73
     0
176
     1
 90
        0
176
     1
 40
0.6
176
     1
 41
30.0
176
     1
 62
     5
 63
     7
421
 16777215
176
     1
 74
     1
176
     1
 91
        4
176
     1
 64
     7
176
     1
 65
   257
176
     1
 75
     1
176
     1
175
     1
176
     1
 42
1.0
176
     1
 92
        0
176
     1
 66
   257
176
     1
 43
1.0
176
     1
 76
     1
176
     1
 77
     6
176
     1
 78
     2
176
     1
 67
     7
176
     1
 79
     3
176
     1
170
     0
176
     1
171
     0
176
     1
290
     0
176
     1
 93
        1
176
     1
 44
0.0
176
     1
173
     0
176
     1
  0
VISUALSTYLE
  5
40
102
{ACAD_REACTORS
330
2A
102
}
330
2A
100
AcDbVisualStyle
  2
X-Ray
 70
    25
177
     2
291
     0
 71
     2
176
     1
 72
     2
176
     1
 73
     1
176
     1
 90
        1
176
     1
 40
0.5
176
     1
 41
30.0
176
     1
 62
     5
 63
     7
421
 16777215
176
     1
 74
     1
176
     1
 91
        0
176
     1
 64
     7
176
     1
 65
   257
176
     1
 75
     1
176
     1
175
     1
176
     1
 42
1.0
176
     1
 92
        8
176
     1
 66
     7
176
     1
 43
1.0
176
     1
 76
     1
176
     1
 77
     6
176
     1
 78
     2
176
     1
 67
     7
176
     1
 79
     3
176
     1
170
     0
176
     1
171
     0
176
     1
290
     0
176
     1
 93
       13
176
     1
 44
0.0
176
     1
173
     0
176
     1
  0
DICTIONARYVAR
  5
1F9
102
{ACAD_REACTORS
330
1F8
102
}
330
1F8
100
DictionaryVariables
280
     0
  1
1:1
  0
DICTIONARYVAR
  5
1FE
102
{ACAD_REACTORS
330
1F8
102
}
330
1F8
100
DictionaryVariables
280
     0
  1
Standard
  0
DICTIONARYVAR
  5
1FD
102
{ACAD_REACTORS
330
1F8
102
}
330
1F8
100
DictionaryVariables
280
     0
  1
Standard
  0
DICTIONARY
  5
1FA
330
6A
100
AcDbDictionary
280
     1
281
     1
  3
ACAD_ROUNDTRIP_2008_TABLESTYLE_CELLSTYLEMAP
360
1FB
  0
CELLSTYLEMAP
  5
1FB
102
{ACAD_REACTORS
330
1FA
102
}
330
1FA
100
AcDbCellStyleMap
 90
        3
300
CELLSTYLE
  1
TABLEFORMAT_BEGIN
 90
        5
170
     1
 91
        0
 92
    32768
 62
   257
 93
        1
300
CONTENTFORMAT
  1
CONTENTFORMAT_BEGIN
 90
        0
 91
        0
 92
        4
 93
        0
300

 40
0.0
140
1.0
 94
        5
 62
     0
340
11
144
6.0
309
CONTENTFORMAT_END
171
     1
301
MARGIN
  1
CELLMARGIN_BEGIN
 40
1.5
 40
1.5
 40
1.5
 40
1.5
 40
1.5
 40
1.5
309
CELLMARGIN_END
 94
        6
 95
        1
302
GRIDFORMAT
  1
GRIDFORMAT_BEGIN
 90
        0
 91
        1
 62
     0
 92
       -2
340
14
 93
        0
 40
0.045
309
GRIDFORMAT_END
 95
        2
302
GRIDFORMAT
  1
GRIDFORMAT_BEGIN
 90
        0
 91
        1
 62
     0
 92
       -2
340
14
 93
        0
 40
0.045
309
GRIDFORMAT_END
 95
        4
302
GRIDFORMAT
  1
GRIDFORMAT_BEGIN
 90
        0
 91
        1
 62
     0
 92
       -2
340
14
 93
        0
 40
0.045
309
GRIDFORMAT_END
 95
        8
302
GRIDFORMAT
  1
GRIDFORMAT_BEGIN
 90
        0
 91
        1
 62
     0
 92
       -2
340
14
 93
        0
 40
0.045
309
GRIDFORMAT_END
 95
       16
302
GRIDFORMAT
  1
GRIDFORMAT_BEGIN
 90
        0
 91
        1
 62
     0
 92
       -2
340
14
 93
        0
 40
0.045
309
GRIDFORMAT_END
 95
       32
302
GRIDFORMAT
  1
GRIDFORMAT_BEGIN
 90
        0
 91
        1
 62
     0
 92
       -2
340
14
 93
        0
 40
0.045
309
GRIDFORMAT_END
309
TABLEFORMAT_END
  1
CELLSTYLE_BEGIN
 90
        1
 91
        1
300
_TITLE
309
CELLSTYLE_END
300
CELLSTYLE
  1
TABLEFORMAT_BEGIN
 90
        5
170
     1
 91
        0
 92
        0
 62
   257
 93
        1
300
CONTENTFORMAT
  1
CONTENTFORMAT_BEGIN
 90
        0
 91
        0
 92
        4
 93
        0
300

 40
0.0
140
1.0
 94
        5
 62
     0
340
11
144
4.5
309
CONTENTFORMAT_END
171
     1
301
MARGIN
  1
CELLMARGIN_BEGIN
 40
1.5
 40
1.5
 40
1.5
 40
1.5
 40
1.5
 40
1.5
309
CELLMARGIN_END
 94
        6
 95
        1
302
GRIDFORMAT
  1
GRIDFORMAT_BEGIN
 90
        0
 91
        1
 62
     0
 92
       -2
340
14
 93
        0
 40
0.045
309
GRIDFORMAT_END
 95
        2
302
GRIDFORMAT
  1
GRIDFORMAT_BEGIN
 90
        0
 91
        1
 62
     0
 92
       -2
340
14
 93
        0
 40
0.045
309
GRIDFORMAT_END
 95
        4
302
GRIDFORMAT
  1
GRIDFORMAT_BEGIN
 90
        0
 91
        1
 62
     0
 92
       -2
340
14
 93
        0
 40
0.045
309
GRIDFORMAT_END
 95
        8
302
GRIDFORMAT
  1
GRIDFORMAT_BEGIN
 90
        0
 91
        1
 62
     0
 92
       -2
340
14
 93
        0
 40
0.045
309
GRIDFORMAT_END
 95
       16
302
GRIDFORMAT
  1
GRIDFORMAT_BEGIN
 90
        0
 91
        1
 62
     0
 92
       -2
340
14
 93
        0
 40
0.045
309
GRIDFORMAT_END
 95
       32
302
GRIDFORMAT
  1
GRIDFORMAT_BEGIN
 90
        0
 91
        1
 62
     0
 92
       -2
340
14
 93
        0
 40
0.045
309
GRIDFORMAT_END
309
TABLEFORMAT_END
  1
CELLSTYLE_BEGIN
 90
        2
 91
        1
300
_HEADER
309
CELLSTYLE_END
300
CELLSTYLE
  1
TABLEFORMAT_BEGIN
 90
        5
170
     1
 91
        0
 92
        0
 62
   257
 93
        1
300
CONTENTFORMAT
  1
CONTENTFORMAT_BEGIN
 90
        0
 91
        0
 92
        4
 93
        0
300

 40
0.0
140
1.0
 94
        2
 62
     0
340
11
144
4.5
309
CONTENTFORMAT_END
171
     1
301
MARGIN
  1
CELLMARGIN_BEGIN
 40
1.5
 40
1.5
 40
1.5
 40
1.5
 40
1.5
 40
1.5
309
CELLMARGIN_END
 94
        6
 95
        1
302
GRIDFORMAT
  1
GRIDFORMAT_BEGIN
 90
        0
 91
        1
 62
     0
 92
       -2
340
14
 93
        0
 40
0.045
309
GRIDFORMAT_END
 95
        2
302
GRIDFORMAT
  1
GRIDFORMAT_BEGIN
 90
        0
 91
        1
 62
     0
 92
       -2
340
14
 93
        0
 40
0.045
309
GRIDFORMAT_END
 95
        4
302
GRIDFORMAT
  1
GRIDFORMAT_BEGIN
 90
        0
 91
        1
 62
     0
 92
       -2
340
14
 93
        0
 40
0.045
309
GRIDFORMAT_END
 95
        8
302
GRIDFORMAT
  1
GRIDFORMAT_BEGIN
 90
        0
 91
        1
 62
     0
 92
       -2
340
14
 93
        0
 40
0.045
309
GRIDFORMAT_END
 95
       16
302
GRIDFORMAT
  1
GRIDFORMAT_BEGIN
 90
        0
 91
        1
 62
     0
 92
       -2
340
14
 93
        0
 40
0.045
309
GRIDFORMAT_END
 95
       32
302
GRIDFORMAT
  1
GRIDFORMAT_BEGIN
 90
        0
 91
        1
 62
     0
 92
       -2
340
14
 93
        0
 40
0.045
309
GRIDFORMAT_END
309
TABLEFORMAT_END
  1
CELLSTYLE_BEGIN
 90
        3
 91
        2
300
_DATA
309
CELLSTYLE_END
  0
ENDSEC
  0
EOF
