  0
SECTION
  2
HEADER
  9
$ACADVER
  1
AC1015
  9
$ACADMAINTVER
 70
     6
  9
$DWGCODEPAGE
  3
ANSI_1252
  9
$INSBASE
 10
0.0
 20
0.0
 30
0.0
  9
$EXTMIN
 10
0.0
 20
0.0
 30
0.0
  9
$EXTMAX
 10
594.0
 20
841.0
 30
0.0
  9
$LIMMIN
 10
0.0
 20
0.0
  9
$LIMMAX
 10
594.0
 20
841.0
  9
$ORTHOMODE
 70
     0
  9
$REGENMODE
 70
     1
  9
$FILLMODE
 70
     1
  9
$QTEXTMODE
 70
     0
  9
$MIRRTEXT
 70
     1
  9
$LTSCALE
 40
1.0
  9
$ATTMODE
 70
     1
  9
$TEXTSIZE
 40
10.0
  9
$TRACEWID
 40
1.0
  9
$TEXTSTYLE
  7
Standard
  9
$CLAYER
  8
0
  9
$CELTYPE
  6
ByLayer
  9
$CECOLOR
 62
   256
  9
$CELTSCALE
 40
1.0
  9
$DISPSILH
 70
     0
  9
$DIMSCALE
 40
1.0
  9
$DIMASZ
 40
2.5
  9
$DIMEXO
 40
0.0
  9
$DIMDLI
 40
3.75
  9
$DIMRND
 40
0.0
  9
$DIMDLE
 40
0.0
  9
$DIMEXE
 40
1.0
  9
$DIMTP
 40
0.0
  9
$DIMTM
 40
0.0
  9
$DIMTXT
 40
3.5
  9
$DIMCEN
 40
2.5
  9
$DIMTSZ
 40
0.0
  9
$DIMTOL
 70
     0
  9
$DIMLIM
 70
     0
  9
$DIMTIH
 70
     1
  9
$DIMTOH
 70
     1
  9
$DIMSE1
 70
     0
  9
$DIMSE2
 70
     0
  9
$DIMTAD
 70
     1
  9
$DIMZIN
 70
     0
  9
$DIMBLK
  1

  9
$DIMASO
 70
     1
  9
$DIMSHO
 70
     1
  9
$DIMPOST
  1

  9
$DIMAPOST
  1

  9
$DIMALT
 70
     0
  9
$DIMALTD
 70
     3
  9
$DIMALTF
 40
0.0393700787
  9
$DIMLFAC
 40
1.0
  9
$DIMTOFL
 70
     1
  9
$DIMTVP
 40
0.0
  9
$DIMTIX
 70
     0
  9
$DIMSOXD
 70
     0
  9
$DIMSAH
 70
     0
  9
$DIMBLK1
  1

  9
$DIMBLK2
  1

  9
$DIMSTYLE
  2
ISO-25
  9
$DIMCLRD
 70
     0
  9
$DIMCLRE
 70
     0
  9
$DIMCLRT
 70
     0
  9
$DIMTFAC
 40
1.0
  9
$DIMGAP
 40
1.5
  9
$DIMJUST
 70
     0
  9
$DIMSD1
 70
     0
  9
$DIMSD2
 70
     0
  9
$DIMTOLJ
 70
     0
  9
$DIMTZIN
 70
     0
  9
$DIMALTZ
 70
     0
  9
$DIMALTTZ
 70
     0
  9
$DIMUPT
 70
     0
  9
$DIMDEC
 70
     2
  9
$DIMTDEC
 70
     2
  9
$DIMALTU
 70
     2
  9
$DIMALTTD
 70
     3
  9
$DIMTXSTY
  7
Standard
  9
$DIMAUNIT
 70
     0
  9
$DIMADEC
 70
     2
  9
$DIMALTRND
 40
0.0
  9
$DIMAZIN
 70
     0
  9
$DIMDSEP
 70
    44
  9
$DIMATFIT
 70
     3
  9
$DIMFRAC
 70
     0
  9
$DIMLDRBLK
  1

  9
$DIMLUNIT
 70
     2
  9
$DIMLWD
 70
    -2
  9
$DIMLWE
 70
    -2
  9
$DIMTMOVE
 70
     0
  9
$LUNITS
 70
     2
  9
$LUPREC
 70
     2
  9
$SKETCHINC
 40
1.0
  9
$FILLETRAD
 40
0.0
  9
$AUNITS
 70
     0
  9
$AUPREC
 70
     2
  9
$MENU
  1
.
  9
$ELEVATION
 40
0.0
  9
$PELEVATION
 40
0.0
  9
$THICKNESS
 40
0.0
  9
$LIMCHECK
 70
     0
  9
$CHAMFERA
 40
0.0
  9
$CHAMFERB
 40
0.0
  9
$CHAMFERC
 40
0.0
  9
$CHAMFERD
 40
0.0
  9
$SKPOLY
 70
     0
  9
$TDCREATE
 40
2460346.463127454
  9
$TDUCREATE
 40
2460346.421460787
  9
$TDUPDATE
 40
2460346.463128542
  9
$TDUUPDATE
 40
2460346.421461875
  9
$TDINDWG
 40
0.0000000116
  9
$TDUSRTIMER
 40
0.0000000116
  9
$USRTIMER
 70
     1
  9
$ANGBASE
 50
0.0
  9
$ANGDIR
 70
     0
  9
$PDMODE
 70
     0
  9
$PDSIZE
 40
-1.0
  9
$PLINEWID
 40
0.0
  9
$SPLFRAME
 70
     0
  9
$SPLINETYPE
 70
     6
  9
$SPLINESEGS
 70
     8
  9
$HANDSEED
  5
1C1
  9
$SURFTAB1
 70
     6
  9
$SURFTAB2
 70
     6
  9
$SURFTYPE
 70
     6
  9
$SURFU
 70
     6
  9
$SURFV
 70
     6
  9
$UCSBASE
  2

  9
$UCSNAME
  2

  9
$UCSORG
 10
0.0
 20
0.0
 30
0.0
  9
$UCSXDIR
 10
1.0
 20
0.0
 30
0.0
  9
$UCSYDIR
 10
0.0
 20
1.0
 30
0.0
  9
$UCSORTHOREF
  2

  9
$UCSORTHOVIEW
 70
     0
  9
$UCSORGTOP
 10
0.0
 20
0.0
 30
0.0
  9
$UCSORGBOTTOM
 10
0.0
 20
0.0
 30
0.0
  9
$UCSORGLEFT
 10
0.0
 20
0.0
 30
0.0
  9
$UCSORGRIGHT
 10
0.0
 20
0.0
 30
0.0
  9
$UCSORGFRONT
 10
0.0
 20
0.0
 30
0.0
  9
$UCSORGBACK
 10
0.0
 20
0.0
 30
0.0
  9
$PUCSBASE
  2

  9
$PUCSNAME
  2

  9
$PUCSORG
 10
0.0
 20
0.0
 30
0.0
  9
$PUCSXDIR
 10
1.0
 20
0.0
 30
0.0
  9
$PUCSYDIR
 10
0.0
 20
1.0
 30
0.0
  9
$PUCSORTHOREF
  2

  9
$PUCSORTHOVIEW
 70
     0
  9
$PUCSORGTOP
 10
0.0
 20
0.0
 30
0.0
  9
$PUCSORGBOTTOM
 10
0.0
 20
0.0
 30
0.0
  9
$PUCSORGLEFT
 10
0.0
 20
0.0
 30
0.0
  9
$PUCSORGRIGHT
 10
0.0
 20
0.0
 30
0.0
  9
$PUCSORGFRONT
 10
0.0
 20
0.0
 30
0.0
  9
$PUCSORGBACK
 10
0.0
 20
0.0
 30
0.0
  9
$USERI1
 70
     0
  9
$USERI2
 70
     0
  9
$USERI3
 70
     0
  9
$USERI4
 70
     0
  9
$USERI5
 70
     0
  9
$USERR1
 40
0.0
  9
$USERR2
 40
0.0
  9
$USERR3
 40
0.0
  9
$USERR4
 40
0.0
  9
$USERR5
 40
0.0
  9
$WORLDVIEW
 70
     1
  9
$SHADEDGE
 70
     3
  9
$SHADEDIF
 70
    70
  9
$TILEMODE
 70
     1
  9
$MAXACTVP
 70
    64
  9
$PINSBASE
 10
0.0
 20
0.0
 30
0.0
  9
$PLIMCHECK
 70
     0
  9
$PEXTMIN
 10
1.0000000000E+20
 20
1.0000000000E+20
 30
1.0000000000E+20
  9
$PEXTMAX
 10
-1.0000000000E+20
 20
-1.0000000000E+20
 30
-1.0000000000E+20
  9
$PLIMMIN
 10
0.0
 20
0.0
  9
$PLIMMAX
 10
420.0
 20
297.0
  9
$UNITMODE
 70
     0
  9
$VISRETAIN
 70
     1
  9
$PLINEGEN
 70
     0
  9
$PSLTSCALE
 70
     1
  9
$TREEDEPTH
 70
  3020
  9
$CMLSTYLE
  2
Standard
  9
$CMLJUST
 70
     0
  9
$CMLSCALE
 40
20.0
  9
$PROXYGRAPHICS
 70
     1
  9
$MEASUREMENT
 70
     1
  9
$CELWEIGHT
370
    -1
  9
$ENDCAPS
280
     0
  9
$JOINSTYLE
280
     0
  9
$LWDISPLAY
290
     1
  9
$INSUNITS
 70
     4
  9
$HYPERLINKBASE
  1

  9
$STYLESHEET
  1

  9
$XEDIT
290
     1
  9
$CEPSNTYPE
380
     0
  9
$PSTYLEMODE
290
     1
  9
$FINGERPRINTGUID
  2
{75986ca2-3530-4ff8-a2c3-0c8d64ae24fd}
  9
$VERSIONGUID
  2
{FAEB1C32-E019-11D5-929B-00C0DF256EC4}
  9
$EXTNAMES
290
     1
  9
$PSVPSCALE
 40
0.0
  9
$OLESTARTUP
290
     0
  0
ENDSEC
  0
SECTION
  2
CLASSES
  0
CLASS
  1
ACDBDICTIONARYWDFLT
  2
AcDbDictionaryWithDefault
  3
ObjectDBX Classes
 90
        0
280
     0
281
     0
  0
CLASS
  1
VISUALSTYLE
  2
AcDbVisualStyle
  3
ObjectDBX Classes
 90
     4095
280
     0
281
     0
  0
CLASS
  1
MATERIAL
  2
AcDbMaterial
  3
ObjectDBX Classes
 90
     1153
280
     0
281
     0
  0
CLASS
  1
SCALE
  2
AcDbScale
  3
ObjectDBX Classes
 90
     1153
280
     0
281
     0
  0
CLASS
  1
TABLESTYLE
  2
AcDbTableStyle
  3
ObjectDBX Classes
 90
     4095
280
     0
281
     0
  0
CLASS
  1
MLEADERSTYLE
  2
AcDbMLeaderStyle
  3
ACDB_MLEADERSTYLE_CLASS
 90
     4095
280
     0
281
     0
  0
CLASS
  1
SUN
  2
AcDbSun
  3
SCENEOE
 90
     1153
280
     0
281
     0
  0
CLASS
  1
ACDBPLACEHOLDER
  2
AcDbPlaceHolder
  3
ObjectDBX Classes
 90
        0
280
     0
281
     0
  0
CLASS
  1
LAYOUT
  2
AcDbLayout
  3
ObjectDBX Classes
 90
        0
280
     0
281
     0
  0
ENDSEC
  0
SECTION
  2
TABLES
  0
TABLE
  2
VPORT
  5
8
330
0
100
AcDbSymbolTable
 70
     1
  0
VPORT
  5
29
330
8
100
AcDbSymbolTableRecord
100
AcDbViewportTableRecord
  2
*Active
 70
     0
 10
0.0
 20
0.0
 11
1.0
 21
1.0
 12
297.0
 22
420.5
 13
0.0
 23
0.0
 14
10.0
 24
10.0
 15
10.0
 25
10.0
 16
0.0
 26
0.0
 36
1.0
 17
0.0
 27
0.0
 37
0.0
 40
841.0
 41
0.7063020214
 42
50.0
 43
0.0
 44
0.0
 50
0.0
 51
0.0
 71
     0
 72
  2000
 73
     1
 74
     3
 75
     0
 76
     0
 77
     0
 78
     0
281
     0
 65
     1
110
0.0
120
0.0
130
0.0
111
1.0
121
0.0
131
0.0
112
0.0
122
1.0
132
0.0
 79
     0
146
0.0
  0
ENDTAB
  0
TABLE
  2
LTYPE
  5
5
330
0
100
AcDbSymbolTable
 70
     6
  0
LTYPE
  5
14
330
5
100
AcDbSymbolTableRecord
100
AcDbLinetypeTableRecord
  2
ByBlock
 70
     0
  3

 72
    65
 73
     0
 40
0.0
  0
LTYPE
  5
15
330
5
100
AcDbSymbolTableRecord
100
AcDbLinetypeTableRecord
  2
ByLayer
 70
     0
  3

 72
    65
 73
     0
 40
0.0
  0
LTYPE
  5
16
330
5
100
AcDbSymbolTableRecord
100
AcDbLinetypeTableRecord
  2
Continuous
 70
     0
  3
Solid line
 72
    65
 73
     0
 40
0.0
  0
LTYPE
  5
5E
330
5
100
AcDbSymbolTableRecord
100
AcDbLinetypeTableRecord
  2
HIDDEN
 70
     0
  3
Hidden __ __ __ __ __ __ __ __ __ __ __ __ __ __
 72
    65
 73
     2
 40
1.905
 49
1.27
 74
     0
 49
-0.635
 74
     0
  0
LTYPE
  5
5F
330
5
100
AcDbSymbolTableRecord
100
AcDbLinetypeTableRecord
  2
PHANTOM
 70
     0
  3
Phantom ______  __  __  ______  __  __  ______
 72
    65
 73
     6
 40
12.7
 49
6.35
 74
     0
 49
-1.27
 74
     0
 49
1.27
 74
     0
 49
-1.27
 74
     0
 49
1.27
 74
     0
 49
-1.27
 74
     0
  0
LTYPE
  5
60
330
5
100
AcDbSymbolTableRecord
100
AcDbLinetypeTableRecord
  2
CENTER
 70
     0
  3
Center ____ _ ____ _ ____ _ ____ _ ____ _ ____
 72
    65
 73
     4
 40
10.16
 49
6.35
 74
     0
 49
-1.27
 74
     0
 49
1.27
 74
     0
 49
-1.27
 74
     0
  0
LTYPE
  5
61
330
5
100
AcDbSymbolTableRecord
100
AcDbLinetypeTableRecord
  2
CENTERX2
 70
     0
  3
Center (2x) ________  __  ________  __  _____
 72
    65
 73
     4
 40
20.32
 49
12.7
 74
     0
 49
-2.54
 74
     0
 49
2.54
 74
     0
 49
-2.54
 74
     0
  0
LTYPE
  5
62
330
5
100
AcDbSymbolTableRecord
100
AcDbLinetypeTableRecord
  2
DOT2
 70
     0
  3
Dot (.5x) ........................................
 72
    65
 73
     2
 40
0.635
 49
0.0
 74
     0
 49
-0.635
 74
     0
  0
ENDTAB
  0
TABLE
  2
LAYER
  5
2
330
0
100
AcDbSymbolTable
 70
     1
  0
LAYER
  5
10
330
2
100
AcDbSymbolTableRecord
100
AcDbLayerTableRecord
  2
0
 70
     0
 62
     7
  6
Continuous
370
    -3
390
F
  0
ENDTAB
  0
TABLE
  2
STYLE
  5
3
330
0
100
AcDbSymbolTable
 70
     3
  0
STYLE
  5
11
330
3
100
AcDbSymbolTableRecord
100
AcDbTextStyleTableRecord
  2
Standard
 70
     0
 40
0.0
 41
1.0
 50
0.0
 71
     0
 42
10.0
  3
txt
  4

  0
STYLE
  5
66
330
3
100
AcDbSymbolTableRecord
100
AcDbTextStyleTableRecord
  2
SLDTEXTSTYLE0
 70
     0
 40
0.0
 41
0.96
 50
0.0
 71
     0
 42
10.0
  3
ISOCP3
  4

  0
STYLE
  5
7D
330
3
100
AcDbSymbolTableRecord
100
AcDbTextStyleTableRecord
  2
SLDTEXTSTYLE1
 70
     0
 40
0.0
 41
0.605
 50
0.0
 71
     0
 42
10.0
  3
TXT
  4

  0
ENDTAB
  0
TABLE
  2
VIEW
  5
6
330
0
100
AcDbSymbolTable
 70
     0
  0
ENDTAB
  0
TABLE
  2
UCS
  5
7
330
0
100
AcDbSymbolTable
 70
     0
  0
ENDTAB
  0
TABLE
  2
APPID
  5
9
330
0
100
AcDbSymbolTable
 70
     1
  0
APPID
  5
12
330
9
100
AcDbSymbolTableRecord
100
AcDbRegAppTableRecord
  2
ACAD
 70
     0
  0
ENDTAB
  0
TABLE
  2
DIMSTYLE
  5
A
330
0
100
AcDbSymbolTable
 70
     2
100
AcDbDimStyleTable
  0
DIMSTYLE
105
27
330
A
100
AcDbSymbolTableRecord
100
AcDbDimStyleTableRecord
  2
ISO-25
 70
     0
 41
2.5
 42
0.625
 43
3.75
 44
1.25
 73
     0
 74
     0
 77
     1
 78
     8
140
2.5
141
2.5
143
0.0393700787
147
0.625
171
     3
172
     1
178
     0
271
     2
272
     2
274
     3
278
    44
283
     0
284
     8
340
11
  0
DIMSTYLE
105
67
102
{ACAD_REACTORS
330
65
330
72
102
}
330
A
100
AcDbSymbolTableRecord
100
AcDbDimStyleTableRecord
  2
SLDDIMSTYLE0
 70
     0
 41
2.5
 44
0.0
 45
0.000000001
 73
     0
 74
     0
 77
     1
 78
    12
 79
     3
140
6.0
147
1.5
173
     1
178
     0
271
     2
272
     2
276
     2
284
    12
340
66
  0
ENDTAB
  0
TABLE
  2
BLOCK_RECORD
  5
1
330
0
100
AcDbSymbolTable
 70
     3
  0
BLOCK_RECORD
  5
1F
330
1
100
AcDbSymbolTableRecord
100
AcDbBlockTableRecord
  2
*Model_Space
340
22
  0
BLOCK_RECORD
  5
1B
330
1
100
AcDbSymbolTableRecord
100
AcDbBlockTableRecord
  2
*Paper_Space
340
1E
  0
BLOCK_RECORD
  5
23
330
1
100
AcDbSymbolTableRecord
100
AcDbBlockTableRecord
  2
*Paper_Space0
340
26
  0
BLOCK_RECORD
  5
68
330
1
100
AcDbSymbolTableRecord
100
AcDbBlockTableRecord
  2
_D
340
0
  0
BLOCK_RECORD
  5
73
330
1
100
AcDbSymbolTableRecord
100
AcDbBlockTableRecord
  2
_D_1
340
0
  0
ENDTAB
  0
ENDSEC
  0
SECTION
  2
BLOCKS
  0
BLOCK
  5
20
330
1F
100
AcDbEntity
  8
0
100
AcDbBlockBegin
  2
*Model_Space
 70
     0
 10
0.0
 20
0.0
 30
0.0
  3
*Model_Space
  1

  0
ENDBLK
  5
21
330
1F
100
AcDbEntity
  8
0
100
AcDbBlockEnd
  0
BLOCK
  5
1C
330
1B
100
AcDbEntity
 67
     1
  8
0
100
AcDbBlockBegin
  2
*Paper_Space
 70
     0
 10
0.0
 20
0.0
 30
0.0
  3
*Paper_Space
  1

  0
ENDBLK
  5
1D
330
1B
100
AcDbEntity
 67
     1
  8
0
100
AcDbBlockEnd
  0
BLOCK
  5
24
330
23
100
AcDbEntity
  8
0
100
AcDbBlockBegin
  2
*Paper_Space0
 70
     0
 10
0.0
 20
0.0
 30
0.0
  3
*Paper_Space0
  1

  0
ENDBLK
  5
25
330
23
100
AcDbEntity
  8
0
100
AcDbBlockEnd
  0
BLOCK
  5
69
330
68
100
AcDbEntity
  8
0
100
AcDbBlockBegin
  2
_D
 70
     0
 10
0.0
 20
0.0
 30
0.0
  3
_D
  1

  0
SOLID
  5
6B
330
68
100
AcDbEntity
  8
0
  6
Continuous
 62
     7
370
    18
100
AcDbTrace
 10
42.7614395004
 20
152.0299240879
 30
0.0
 11
42.4614395004
 21
149.5299240879
 31
0.0
 12
43.0614395004
 22
149.5299240879
 32
0.0
 13
43.0614395004
 23
149.5299240879
 33
0.0
  0
SOLID
  5
6C
330
68
100
AcDbEntity
  8
0
  6
Continuous
 62
     7
370
    18
100
AcDbTrace
 10
42.7614395004
 20
52.0299240879
 30
0.0
 11
43.0614395004
 21
54.5299240879
 31
0.0
 12
42.4614395004
 22
54.5299240879
 32
0.0
 13
42.4614395004
 23
54.5299240879
 33
0.0
  0
LINE
  5
6D
330
68
100
AcDbEntity
  8
0
  6
Continuous
 62
     7
370
     0
100
AcDbLine
 10
56.6850079902
 20
152.0299240879
 30
0.0
 11
41.7614395004
 21
152.0299240879
 31
0.0
  0
LINE
  5
6E
330
68
100
AcDbEntity
  8
0
  6
Continuous
 62
     7
370
     0
100
AcDbLine
 10
56.6850079902
 20
52.0299240879
 30
0.0
 11
41.7614395004
 21
52.0299240879
 31
0.0
  0
LINE
  5
6F
330
68
100
AcDbEntity
  8
0
  6
Continuous
 62
     7
370
     0
100
AcDbLine
 10
42.7614395004
 20
152.0299240879
 30
0.0
 11
42.7614395004
 21
52.0299240879
 31
0.0
  0
MTEXT
  5
70
330
68
100
AcDbEntity
  8
0
  6
Continuous
 62
     7
370
    18
100
AcDbMText
 10
35.0270332946
 20
94.3680541463
 30
0.0
 40
6.0
 41
0.0
 71
     1
 72
     1
  1
100
  7
SLDTEXTSTYLE0
 11
-7.044195017643634E-15
 21
1.0
 31
0.0
 73
     1
 44
1.0
  0
MTEXT
  5
71
330
68
100
AcDbEntity
  8
0
  6
Continuous
 62
     7
370
    18
100
AcDbMText
 10
35.0270332946
 20
105.7430548466
 30
0.0
 40
6.0
 41
0.0
 71
     1
 72
     1
  1
mm
  7
SLDTEXTSTYLE0
 11
-7.044195017643634E-15
 21
1.0
 31
0.0
 73
     1
 44
1.0
  0
ENDBLK
  5
6A
330
68
100
AcDbEntity
  8
0
100
AcDbBlockEnd
  0
BLOCK
  5
74
330
73
100
AcDbEntity
  8
0
100
AcDbBlockBegin
  2
_D_1
 70
     0
 10
0.0
 20
0.0
 30
0.0
  3
_D_1
  1

  0
SOLID
  5
76
330
73
100
AcDbEntity
  8
0
  6
Continuous
 62
     7
370
    18
100
AcDbTrace
 10
56.6850079902
 20
38.4602342313
 30
0.0
 11
59.1850079902
 21
38.1602342313
 31
0.0
 12
59.1850079902
 22
38.7602342313
 32
0.0
 13
59.1850079902
 23
38.7602342313
 33
0.0
  0
SOLID
  5
77
330
73
100
AcDbEntity
  8
0
  6
Continuous
 62
     7
370
    18
100
AcDbTrace
 10
156.6850079902
 20
38.4602342313
 30
0.0
 11
154.1850079902
 21
38.7602342313
 31
0.0
 12
154.1850079902
 22
38.1602342313
 32
0.0
 13
154.1850079902
 23
38.1602342313
 33
0.0
  0
LINE
  5
78
330
73
100
AcDbEntity
  8
0
  6
Continuous
 62
     7
370
     0
100
AcDbLine
 10
56.6850079902
 20
52.0299240879
 30
0.0
 11
56.6850079902
 21
37.4602342313
 31
0.0
  0
LINE
  5
79
330
73
100
AcDbEntity
  8
0
  6
Continuous
 62
     7
370
     0
100
AcDbLine
 10
156.6850079902
 20
52.0299240879
 30
0.0
 11
156.6850079902
 21
37.4602342313
 31
0.0
  0
LINE
  5
7A
330
73
100
AcDbEntity
  8
0
  6
Continuous
 62
     7
370
     0
100
AcDbLine
 10
56.6850079902
 20
38.4602342313
 30
0.0
 11
156.6850079902
 21
38.4602342313
 31
0.0
  0
MTEXT
  5
7B
330
73
100
AcDbEntity
  8
0
  6
Continuous
 62
     7
370
    18
100
AcDbMText
 10
93.9626484861
 20
46.1946404371
 30
0.0
 40
6.0
 41
0.0
 71
     1
 72
     1
  1
100
  7
SLDTEXTSTYLE0
 73
     1
 44
1.0
  0
MTEXT
  5
7C
330
73
100
AcDbEntity
  8
0
  6
Continuous
 62
     7
370
    18
100
AcDbMText
 10
105.3376491864
 20
46.1946404371
 30
0.0
 40
6.0
 41
0.0
 71
     1
 72
     1
  1
mm
  7
SLDTEXTSTYLE0
 73
     1
 44
1.0
  0
ENDBLK
  5
75
330
73
100
AcDbEntity
  8
0
100
AcDbBlockEnd
  0
ENDSEC
  0
SECTION
  2
ENTITIES
  0
LINE
  5
63
330
1F
100
AcDbEntity
  8
0
  6
Continuous
 62
     7
370
    18
100
AcDbLine
 10
56.6850079902
 20
152.0299240879
 30
0.0
 11
56.6850079902
 21
52.0299240879
 31
0.0
  0
LINE
  5
64
330
1F
100
AcDbEntity
  8
0
  6
Continuous
 62
     7
370
    18
100
AcDbLine
 10
56.6850079902
 20
52.0299240879
 30
0.0
 11
156.6850079902
 21
52.0299240879
 31
0.0
  0
DIMENSION
  5
65
330
1F
100
AcDbEntity
  8
0
  6
Continuous
 62
     7
370
    18
100
AcDbDimension
  2
_D
 10
42.7614395004
 20
52.0299240879
 30
0.0
 11
42.7614395004
 21
105.4472211621
 31
0.0
 70
   160
  1
<>mm
 71
     2
 42
-1.0
  3
SLDDIMSTYLE0
100
AcDbAlignedDimension
 13
56.6850079902
 23
152.0299240879
 33
0.0
 14
56.6850079902
 24
52.0299240879
 34
0.0
 50
90.0
100
AcDbRotatedDimension
  0
DIMENSION
  5
72
330
1F
100
AcDbEntity
  8
0
  6
Continuous
 62
     7
370
    18
100
AcDbDimension
  2
_D_1
 10
156.6850079902
 20
38.4602342313
 30
0.0
 11
105.0418155019
 21
38.4602342313
 31
0.0
 70
   160
  1
<>mm
 71
     2
 42
-1.0
  3
SLDDIMSTYLE0
100
AcDbAlignedDimension
 13
56.6850079902
 23
52.0299240879
 33
0.0
 14
156.6850079902
 24
52.0299240879
 34
0.0
100
AcDbRotatedDimension
  0
MTEXT
  5
7E
330
1F
100
AcDbEntity
  8
0
  6
Continuous
 62
     7
370
     0
100
AcDbMText
 10
412.8252631579
 20
48.4342449499
 30
0.0
 40
10.0
 41
0.0
 71
     1
 72
     1
  1
KLUDI GmbH & Co KG
  7
SLDTEXTSTYLE1
 73
     1
 44
1.0
  0
MTEXT
  5
7F
330
1F
100
AcDbEntity
  8
0
  6
Continuous
 62
     7
370
     0
100
AcDbMText
 10
210.0873490389
 20
48.4342449499
 30
0.0
 40
10.0
 41
0.0
 71
     1
 72
     1
  1
54 289 .. 75
  7
SLDTEXTSTYLE1
 73
     1
 44
1.0
  0
SPLINE
  5
80
330
1F
100
AcDbEntity
  8
0
  6
Continuous
 62
     7
370
    25
100
AcDbSpline
210
0.0
220
0.0
230
1.0
 70
     8
 71
     3
 72
    15
 73
    11
 74
     0
 42
0.00000001
 43
0.00000001
 40
0.0
 40
0.0
 40
0.0
 40
0.0
 40
0.2026871534861274
 40
0.4384598836071621
 40
0.5756315425414077
 40
0.68738903920048
 40
0.7387771129231797
 40
0.790517587920364
 40
0.9033947369841889
 40
1.0
 40
1.0
 40
1.0
 40
1.0
 10
160.7498305003007
 20
477.4215385618028
 30
0.0
 10
160.7286275939855
 20
477.3417448163594
 30
0.0
 10
160.6827607313098
 20
477.1691322173963
 30
0.0
 10
160.6870353490591
 20
476.7256145797609
 30
0.0
 10
160.7276188187303
 20
476.1315376802348
 30
0.0
 10
160.7702645399385
 20
475.5691862333745
 30
0.0
 10
160.8072112272409
 20
475.0704291346004
 30
0.0
 10
160.8460808839865
 20
474.5301148085258
 30
0.0
 10
160.8888692004476
 20
473.8730399052511
 30
0.0
 10
160.9270244115033
 20
473.3588598173091
 30
0.0
 10
160.9446201330861
 20
473.1217396593923
 30
0.0
  0
SPLINE
  5
81
330
1F
100
AcDbEntity
  8
0
  6
Continuous
 62
     7
370
    25
100
AcDbSpline
210
0.0
220
0.0
230
1.0
 70
     8
 71
     3
 72
    15
 73
    11
 74
     0
 42
0.00000001
 43
0.00000001
 40
0.0
 40
0.0
 40
0.0
 40
0.0
 40
0.2176752308650061
 40
0.4207784584200377
 40
0.5430865124949585
 40
0.6428585736923446
 40
0.6886135641529577
 40
0.7409698616498371
 40
0.8835223736916238
 40
1.0
 40
1.0
 40
1.0
 40
1.0
 10
194.9464093593986
 20
473.1333989781413
 30
0.0
 10
194.9775815333401
 20
473.6087832459586
 30
0.0
 10
195.0378390979908
 20
474.5277277605657
 30
0.0
 10
195.1274733843602
 20
475.7472999692922
 30
0.0
 10
195.214117997911
 20
476.7042533548096
 30
0.0
 10
195.2785506000832
 20
477.3061885467719
 30
0.0
 10
195.324335533126
 20
477.6868082325079
 30
0.0
 10
195.360617485355
 20
477.9739508090323
 30
0.0
 10
195.3785891796522
 20
478.1139793802171
 30
0.0
 10
195.3676182193604
 20
478.1014023592617
 30
0.0
 10
195.3626849269595
 20
478.0957468723897
 30
0.0
  0
SPLINE
  5
82
330
1F
100
AcDbEntity
  8
0
  6
Continuous
 62
     7
370
    25
100
AcDbSpline
210
0.0
220
0.0
230
1.0
 70
     8
 71
     3
 72
    13
 73
     9
 74
     0
 42
0.00000001
 43
0.00000001
 40
0.0
 40
0.0
 40
0.0
 40
0.0
 40
0.1561627598226375
 40
0.3073316193716228
 40
0.4495204948354561
 40
0.5812763538310904
 40
0.8274369258231528
 40
1.0
 40
1.0
 40
1.0
 40
1.0
 10
160.988397405915
 20
497.9788713070832
 30
0.0
 10
160.9056570284541
 20
497.9742486786009
 30
0.0
 10
160.7428222128979
 20
497.9651512478251
 30
0.0
 10
160.5177942190035
 20
497.8805482025288
 30
0.0
 10
160.3281676840391
 20
497.7581145469311
 30
0.0
 10
160.1365211205056
 20
497.5619034557434
 30
0.0
 10
159.9896591723953
 20
497.2990005395164
 30
0.0
 10
159.974897583082
 20
497.0765626251895
 30
0.0
 10
159.9688140832487
 20
496.98489221044
 30
0.0
  0
SPLINE
  5
83
330
1F
100
AcDbEntity
  8
0
  6
Continuous
 62
     7
370
    25
100
AcDbSpline
210
0.0
220
0.0
230
1.0
 70
     8
 71
     3
 72
    13
 73
     9
 74
     0
 42
0.00000001
 43
0.00000001
 40
0.0
 40
0.0
 40
0.0
 40
0.0
 40
0.1726951971121587
 40
0.4188197789303591
 40
0.5505486679530773
 40
0.6926981474102718
 40
0.8438404454844126
 40
1.0
 40
1.0
 40
1.0
 40
1.0
 10
195.9147119088099
 20
496.9845914988533
 30
0.0
 10
195.90864107052
 20
497.0762693790836
 30
0.0
 10
195.893918095052
 20
497.2986062487415
 30
0.0
 10
195.7472846134223
 20
497.5614175998367
 30
0.0
 10
195.5559422965857
 20
497.7575891097993
 30
0.0
 10
195.3665988599301
 20
497.8800810921258
 30
0.0
 10
195.1418547885714
 20
497.9648574477987
 30
0.0
 10
194.9791588380734
 20
497.9741620779136
 30
0.0
 10
194.8964827105553
 20
497.978890350397
 30
0.0
  0
LINE
  5
84
330
1F
100
AcDbEntity
  8
0
  6
Continuous
 62
     7
370
    25
100
AcDbLine
 10
194.913117397
 20
497.9809830228
 30
0.0
 11
177.9417379574
 21
497.9809830264
 31
0.0
  0
LINE
  5
85
330
1F
100
AcDbEntity
  8
0
  6
Continuous
 62
     7
370
    25
100
AcDbLine
 10
177.9417379574
 20
497.9809830264
 30
0.0
 11
160.9703585178
 21
497.9809830228
 31
0.0
  0
SPLINE
  5
86
330
1F
100
AcDbEntity
  8
0
  6
Continuous
 62
     7
370
    25
100
AcDbSpline
210
0.0
220
0.0
230
1.0
 70
     8
 71
     3
 72
    11
 73
     7
 74
     0
 42
0.00000001
 43
0.00000001
 40
0.0
 40
0.0
 40
0.0
 40
0.0
 40
0.2354114695216875
 40
0.4847121331463256
 40
0.7421296700125599
 40
1.0
 40
1.0
 40
1.0
 40
1.0
 10
160.1312984851904
 20
353.2103210223813
 30
0.0
 10
160.0627835078127
 20
352.7470026220419
 30
0.0
 10
159.9217111934318
 20
351.7930301983076
 30
0.0
 10
159.2161102315094
 20
350.4203392672882
 30
0.0
 10
158.1503024196722
 20
349.2416097291094
 30
0.0
 10
157.2371366538156
 20
348.787608099444
 30
0.0
 10
156.7801525629374
 20
348.5604078147342
 30
0.0
  0
LINE
  5
87
330
1F
100
AcDbEntity
  8
0
  6
Continuous
 62
     7
370
    25
100
AcDbLine
 10
160.1312985737
 20
364.2103210224
 30
0.0
 11
160.1312985737
 21
353.2103210973
 31
0.0
  0
ARC
  5
88
330
1F
100
AcDbEntity
  8
0
  6
Continuous
 62
     7
370
    25
100
AcDbCircle
 10
185.1590223512
 20
469.2786619002
 30
0.0
 40
22.81689189189189
100
AcDbArc
 50
170.2327118159
 51
180.0
  0
ARC
  5
89
330
1F
100
AcDbEntity
  8
0
  6
Continuous
 62
     7
370
    25
100
AcDbCircle
 10
170.7252385675
 20
469.2786619002
 30
0.0
 40
22.81689189189188
100
AcDbArc
 50
0.0
 51
9.4599617976
  0
LINE
  5
8A
330
1F
100
AcDbEntity
  8
0
  6
Continuous
 62
     7
370
    25
100
AcDbLine
 10
195.9421770654
 20
468.2786629236
 30
0.0
 11
195.9421770805
 21
458.2786615071
 31
0.0
  0
SPLINE
  5
8B
330
1F
100
AcDbEntity
  8
0
  6
Continuous
 62
     7
370
    25
100
AcDbSpline
210
0.0
220
0.0
230
1.0
 70
     8
 71
     3
 72
    14
 73
    10
 74
     0
 42
0.00000001
 43
0.00000001
 40
0.0
 40
0.0
 40
0.0
 40
0.0
 40
0.25
 40
0.25
 40
0.5
 40
0.5
 40
0.75
 40
0.75
 40
1.0
 40
1.0
 40
1.0
 40
1.0
 10
194.9421770650893
 20
469.2786629221364
 30
0.0
 10
195.0600281952568
 20
469.2786629221377
 30
0.0
 10
195.1871748241755
 20
469.2571841833587
 30
0.0
 10
195.4333687248084
 20
469.1597182632894
 30
0.0
 10
195.5516527730412
 20
469.0834007766217
 30
0.0
 10
195.7469149188557
 20
468.8881386311025
 30
0.0
 10
195.8232324056818
 20
468.7698545830059
 30
0.0
 10
195.9206983260506
 20
468.5236606825936
 30
0.0
 10
195.9421770649701
 20
468.3965140537594
 30
0.0
 10
195.9421770650892
 20
468.2786629236498
 30
0.0
  0
LINE
  5
8C
330
1F
100
AcDbEntity
  8
0
  6
Continuous
 62
     7
370
    25
100
AcDbLine
 10
160.9421748789
 20
469.2786629221
 30
0.0
 11
194.9421770653
 21
469.2786629221
 31
0.0
  0
SPLINE
  5
8D
330
1F
100
AcDbEntity
  8
0
  6
Continuous
 62
     7
370
    25
100
AcDbSpline
210
0.0
220
0.0
230
1.0
 70
     8
 71
     3
 72
    14
 73
    10
 74
     0
 42
0.00000001
 43
0.00000001
 40
0.0
 40
0.0
 40
0.0
 40
0.0
 40
0.25
 40
0.25
 40
0.5
 40
0.5
 40
0.75
 40
0.75
 40
1.0
 40
1.0
 40
1.0
 40
1.0
 10
159.9421748788096
 20
468.2786629206232
 30
0.0
 10
159.942174878637
 20
468.3965140509117
 30
0.0
 10
159.9636536172966
 20
468.5236606800401
 30
0.0
 10
160.0611195373567
 20
468.7698545811665
 30
0.0
 10
160.1374370241396
 20
468.8881386296766
 30
0.0
 10
160.3326991700763
 20
469.0834007759088
 30
0.0
 10
160.4509832184684
 20
469.1597182628682
 30
0.0
 10
160.6971771194384
 20
469.2571841832921
 30
0.0
 10
160.8243237485281
 20
469.2786629221378
 30
0.0
 10
160.9421748788095
 20
469.2786629221366
 30
0.0
  0
LINE
  5
8E
330
1F
100
AcDbEntity
  8
0
  6
Continuous
 62
     7
370
    25
100
AcDbLine
 10
159.9421748942
 20
458.2786615071
 30
0.0
 11
159.9421748791
 21
468.2786629206
 31
0.0
  0
SPLINE
  5
8F
330
1F
100
AcDbEntity
  8
0
  6
Continuous
 62
     7
370
    25
100
AcDbSpline
210
0.0
220
0.0
230
1.0
 70
     8
 71
     3
 72
    22
 73
    18
 74
     0
 42
0.00000001
 43
0.00000001
 40
0.0
 40
0.0
 40
0.0
 40
0.0
 40
1.642405407302315
 40
1.642405407302315
 40
3.284810814604629
 40
3.284810814604629
 40
4.927216221906944
 40
4.927216221906944
 40
5.748418925558101
 40
5.748418925558101
 40
6.569621629209259
 40
6.569621629209259
 40
8.212027036511573
 40
8.212027036511573
 40
9.854432443813888
 40
9.854432443813888
 40
12.84707673440169
 40
12.84707673440169
 40
12.84707673440169
 40
12.84707673440169
 10
195.9421801626683
 20
458.2786612959459
 30
0.0
 10
195.941910386458
 20
457.833050142304
 30
0.0
 10
195.9292296230791
 20
457.386857433157
 30
0.0
 10
195.8496003280395
 20
456.499138453131
 30
0.0
 10
195.7839130320588
 20
456.0557689966515
 30
0.0
 10
195.5352759541945
 20
455.2005783080959
 30
0.0
 10
195.3446332825347
 20
454.7858837669037
 30
0.0
 10
194.9026191755195
 20
454.2813396253469
 30
0.0
 10
194.7323607210068
 20
454.1351607296671
 30
0.0
 10
194.3583558917975
 20
453.8919461978073
 30
0.0
 10
194.1566278612242
 20
453.7945597851355
 30
0.0
 10
193.5297702098263
 20
453.5600155693965
 30
0.0
 10
193.0890775210224
 20
453.4747306935161
 30
0.0
 10
192.205598695576
 20
453.3595246060865
 30
0.0
 10
191.760027784761
 20
453.3304922836097
 30
0.0
 10
190.5030404229019
 20
453.2796407880277
 30
0.0
 10
189.6907266944297
 20
453.2793307336794
 30
0.0
 10
188.8784753707907
 20
453.2790874929583
 30
0.0
  0
SPLINE
  5
90
330
1F
100
AcDbEntity
  8
0
  6
Continuous
 62
     7
370
    25
100
AcDbSpline
210
0.0
220
0.0
230
1.0
 70
     8
 71
     3
 72
    22
 73
    18
 74
     0
 42
0.00000001
 43
0.00000001
 40
39.71234552961985
 40
39.71234552961985
 40
39.71234552961985
 40
39.71234552961985
 40
42.70254058986018
 40
42.70254058986018
 40
44.3449459971625
 40
44.3449459971625
 40
45.98735140446481
 40
45.98735140446481
 40
46.80855410811597
 40
46.80855410811597
 40
47.62975681176712
 40
47.62975681176712
 40
49.27216221906944
 40
49.27216221906944
 40
50.91456762637176
 40
50.91456762637176
 40
52.55697303367407
 40
52.55697303367407
 40
52.55697303367407
 40
52.55697303367407
 10
167.0039608952408
 20
453.2790874929583
 30
0.0
 10
166.1924232042464
 20
453.2793305435729
 30
0.0
 10
165.3804552590845
 20
453.2796697905409
 30
0.0
 10
164.1243598646483
 20
453.3304930716111
 30
0.0
 10
163.6788715090603
 20
453.3595162821291
 30
0.0
 10
162.7953109619205
 20
453.474716761615
 30
0.0
 10
162.3544671436771
 20
453.5600534295661
 30
0.0
 10
161.7277911537326
 20
453.7945338965508
 30
0.0
 10
161.5259700556287
 20
453.8919683738633
 30
0.0
 10
161.1520906420426
 20
454.1350870049056
 30
0.0
 10
160.9816807856784
 20
454.2813949298869
 30
0.0
 10
160.539791846089
 20
454.785800805257
 30
0.0
 10
160.3490920554845
 20
455.2005507449059
 30
0.0
 10
160.1004677106624
 20
456.0556542127298
 30
0.0
 10
160.0347437000832
 20
456.4992488348506
 30
0.0
 10
159.9551391358486
 20
457.3867663253179
 30
0.0
 10
159.9424470722675
 20
457.8330502210009
 30
0.0
 10
159.9421801626683
 20
458.2786612959461
 30
0.0
  0
LINE
  5
91
330
1F
100
AcDbEntity
  8
0
  6
Continuous
 62
     7
370
    25
100
AcDbLine
 10
188.8784753708
 20
453.279087493
 30
0.0
 11
167.0039608952
 21
453.279087493
 31
0.0
  0
SPLINE
  5
92
330
1F
100
AcDbEntity
  8
0
  6
Continuous
 62
     7
370
    25
100
AcDbSpline
210
0.0
220
0.0
230
1.0
 70
    24
 71
     3
 72
    10
 73
     6
 74
     0
 42
0.00000001
 43
0.00000001
 40
0.0
 40
0.0
 40
0.0
 40
0.0
 40
0.5
 40
0.5
 40
1.0
 40
1.0
 40
1.0
 40
1.0
 10
185.4260348763448
 20
453.2790874929583
 30
0.0
 10
185.7452449111713
 20
453.2790874929583
 30
0.0
 10
185.9906410931586
 20
453.2790874929583
 30
0.0
 10
186.3194842375846
 20
453.2790874929583
 30
0.0
 10
186.4029122548395
 20
453.2790874929583
 30
0.0
 10
186.402912254838
 20
453.2790874929583
 30
0.0
  0
SPLINE
  5
93
330
1F
100
AcDbEntity
  8
0
  6
Continuous
 62
     7
370
    25
100
AcDbSpline
210
0.0
220
0.0
230
1.0
 70
     8
 71
     3
 72
     9
 73
     5
 74
     0
 42
0.00000001
 43
0.00000001
 40
0.0
 40
0.0
 40
0.0
 40
0.0
 40
0.2232286676084823
 40
1.0
 40
1.0
 40
1.0
 40
1.0
 10
160.7336778170621
 20
477.4190230083117
 30
0.0
 10
160.7254758898095
 20
477.5246835452317
 30
0.0
 10
160.6887336230549
 20
477.9980122536447
 30
0.0
 10
160.5322976516533
 20
478.4552954673462
 30
0.0
 10
160.4107826737137
 20
478.8104999585333
 30
0.0
  0
LINE
  5
94
330
1F
100
AcDbEntity
  8
0
  6
Continuous
 62
     7
370
    25
100
AcDbLine
 10
159.9417669721
 20
479.7907078046
 30
0.0
 11
159.9417669721
 21
494.9442745867
 31
0.0
  0
SPLINE
  5
95
330
1F
100
AcDbEntity
  8
0
  6
Continuous
 62
     7
370
    25
100
AcDbSpline
210
0.0
220
0.0
230
1.0
 70
     8
 71
     3
 72
    14
 73
    10
 74
     0
 42
0.00000001
 43
0.00000001
 40
0.0
 40
0.0
 40
0.0
 40
0.0
 40
0.25
 40
0.25
 40
0.5
 40
0.5
 40
0.75
 40
0.75
 40
1.0
 40
1.0
 40
1.0
 40
1.0
 10
159.9417669884612
 20
494.9442745798623
 30
0.0
 10
159.9417429277856
 20
494.9684281951361
 30
0.0
 10
159.9684971840545
 20
494.9925739689379
 30
0.0
 10
160.0715287651547
 20
495.0375498922602
 30
0.0
 10
160.1477655311184
 20
495.0583641142074
 30
0.0
 10
160.338187292174
 20
495.0938474137565
 30
0.0
 10
160.4522973268419
 20
495.1085043006008
 30
0.0
 10
160.7011120761963
 20
495.1297791849054
 30
0.0
 10
160.8357188437835
 20
495.1363905848179
 30
0.0
 10
160.9703781105488
 20
495.1386477436149
 30
0.0
  0
LINE
  5
96
330
1F
100
AcDbEntity
  8
0
  6
Continuous
 62
     7
370
    25
100
AcDbLine
 10
160.9703781105
 20
495.1386477437
 30
0.0
 11
194.9130049739
 21
495.1388132836
 31
0.0
  0
SPLINE
  5
97
330
1F
100
AcDbEntity
  8
0
  6
Continuous
 62
     7
370
    25
100
AcDbSpline
210
0.0
220
0.0
230
1.0
 70
     8
 71
     3
 72
    14
 73
    10
 74
     0
 42
0.00000001
 43
0.00000001
 40
0.0
 40
0.0
 40
0.0
 40
0.0
 40
0.25
 40
0.25
 40
0.5
 40
0.5
 40
0.75
 40
0.75
 40
1.0
 40
1.0
 40
1.0
 40
1.0
 10
194.9130049719122
 20
495.1388132824468
 30
0.0
 10
195.047669635555
 20
495.1365197303445
 30
0.0
 10
195.1822842064578
 20
495.1298715830019
 30
0.0
 10
195.4311166086208
 20
495.1085223024435
 30
0.0
 10
195.545236470184
 20
495.093827766907
 30
0.0
 10
195.7356770563419
 20
495.0582683066309
 30
0.0
 10
195.8119228011255
 20
495.0374155743685
 30
0.0
 10
195.9149692180102
 20
494.99236201095
 30
0.0
 10
195.941729318923
 20
494.9681771102667
 30
0.0
 10
195.9417089310009
 20
494.9439842476563
 30
0.0
  0
SPLINE
  5
98
330
1F
100
AcDbEntity
  8
0
  6
Continuous
 62
     7
370
    25
100
AcDbSpline
210
0.0
220
0.0
230
1.0
 70
    24
 71
     3
 72
    17
 73
    13
 74
     0
 42
0.00000001
 43
0.00000001
 40
0.0
 40
0.0
 40
0.0
 40
0.0
 40
0.0125608246447144
 40
0.0445525619353226
 40
0.0959752278017524
 40
0.1668288250680362
 40
0.2571133547348524
 40
0.3668288172712101
 40
0.4959752129344206
 40
0.6445525418808433
 40
0.8125608042125856
 40
1.0
 40
1.0
 40
1.0
 40
1.0
 10
195.9417089427555
 20
494.9439842429856
 30
0.0
 10
195.9417089427555
 20
494.8796858815084
 30
0.0
 10
195.9417089427555
 20
494.651623090005
 30
0.0
 10
195.9417089427556
 20
494.1667209784653
 30
0.0
 10
195.9417089427556
 20
493.3857202029117
 30
0.0
 10
195.9417089427556
 20
492.3117634086239
 30
0.0
 10
195.9417089427556
 20
490.9434514492798
 30
0.0
 10
195.9417089427556
 20
489.2813828765064
 30
0.0
 10
195.9417089427557
 20
487.325347695588
 30
0.0
 10
195.9417089427558
 20
485.075429376256
 30
0.0
 10
195.9417089427558
 20
482.5315876012687
 30
0.0
 10
195.9417089427558
 20
480.7378572384663
 30
0.0
 10
195.9417089427559
 20
479.7919639172924
 30
0.0
  0
LINE
  5
99
330
1F
100
AcDbEntity
  8
0
  6
Continuous
 62
     7
370
    25
100
AcDbLine
 10
194.9289708367
 20
473.0754958739
 30
0.0
 11
194.9418047051
 21
473.1337165072
 31
0.0
  0
SPLINE
  5
9A
330
1F
100
AcDbEntity
  8
0
  6
Continuous
 62
     7
370
    25
100
AcDbSpline
210
0.0
220
0.0
230
1.0
 70
     8
 71
     3
 72
    12
 73
     8
 74
     0
 42
0.00000001
 43
0.00000001
 40
0.0
 40
0.0
 40
0.0
 40
0.0
 40
0.249999999999999
 40
0.249999999999999
 40
0.499999999999998
 40
0.499999999999998
 40
1.0
 40
1.0
 40
1.0
 40
1.0
 10
194.5669359102487
 20
473.0515921098693
 30
0.0
 10
194.6197480666945
 20
473.0535786033606
 30
0.0
 10
194.6631289157665
 20
473.0555673822872
 30
0.0
 10
194.7426995875031
 20
473.0595466827007
 30
0.0
 10
194.7781619012719
 20
473.061537380481
 30
0.0
 10
194.8694144659356
 20
473.067513141249
 30
0.0
 10
194.908178410961
 20
473.071502330125
 30
0.0
 10
194.9289708068133
 20
473.0754958739441
 30
0.0
  0
SPLINE
  5
9B
330
1F
100
AcDbEntity
  8
0
  6
Continuous
 62
     7
370
    25
100
AcDbSpline
210
0.0
220
0.0
230
1.0
 70
     8
 71
     3
 72
    14
 73
    10
 74
     0
 42
0.00000001
 43
0.00000001
 40
0.0
 40
0.0
 40
0.0
 40
0.0
 40
0.25
 40
0.25
 40
0.5
 40
0.5
 40
0.75
 40
0.75
 40
1.0
 40
1.0
 40
1.0
 40
1.0
 10
192.9088357486917
 20
473.0245689010763
 30
0.0
 10
193.1329898288841
 20
473.0267364279207
 30
0.0
 10
193.3243437150249
 20
473.0289361553154
 30
0.0
 10
193.6778078299531
 20
473.0333643191374
 30
0.0
 10
193.8357206705152
 20
473.0355968762178
 30
0.0
 10
194.1122542828596
 20
473.0401005641207
 30
0.0
 10
194.2310486740768
 20
473.0423715244979
 30
0.0
 10
194.4279165538441
 20
473.046953421707
 30
0.0
 10
194.5050750834272
 20
473.0492652567709
 30
0.0
 10
194.5669359102487
 20
473.0515921098693
 30
0.0
  0
SPLINE
  5
9C
330
1F
100
AcDbEntity
  8
0
  6
Continuous
 62
     7
370
    25
100
AcDbSpline
210
0.0
220
0.0
230
1.0
 70
     8
 71
     3
 72
    22
 73
    18
 74
     0
 42
0.00000001
 43
0.00000001
 40
0.0
 40
0.0
 40
0.0
 40
0.0
 40
0.125
 40
0.125
 40
0.25
 40
0.25
 40
0.375
 40
0.375
 40
0.5
 40
0.5
 40
0.625
 40
0.625
 40
0.75
 40
0.75
 40
0.875
 40
0.875
 40
1.0
 40
1.0
 40
1.0
 40
1.0
 10
185.7182926122757
 20
473.0022320110966
 30
0.0
 10
186.1158502138607
 20
473.0024523025473
 30
0.0
 10
186.5068667980793
 20
473.0027567316375
 30
0.0
 10
187.2724969385737
 20
473.0035765833026
 30
0.0
 10
187.6474008029409
 20
473.0040882716208
 30
0.0
 10
188.3814627816923
 20
473.0053141871225
 30
0.0
 10
188.743053352582
 20
473.0060345705353
 30
0.0
 10
189.4317317457592
 20
473.0076420219831
 30
0.0
 10
189.7602838928855
 20
473.0085299234524
 30
0.0
 10
190.3862445982203
 20
473.0104717824245
 30
0.0
 10
190.6836436537088
 20
473.0115257905953
 30
0.0
 10
191.2454605584379
 20
473.0138096610523
 30
0.0
 10
191.5068128343884
 20
473.0150283468237
 30
0.0
 10
191.982335805424
 20
473.0175630493126
 30
0.0
 10
192.1981433932748
 20
473.018886400694
 30
0.0
 10
192.5851580916016
 20
473.0216468706284
 30
0.0
 10
192.7555018220715
 20
473.0230861914964
 30
0.0
 10
192.9088357486917
 20
473.0245689010763
 30
0.0
  0
SPLINE
  5
9D
330
1F
100
AcDbEntity
  8
0
  6
Continuous
 62
     7
370
    25
100
AcDbSpline
210
0.0
220
0.0
230
1.0
 70
     8
 71
     3
 72
    14
 73
    10
 74
     0
 42
0.00000001
 43
0.00000001
 40
0.0
 40
0.0
 40
0.0
 40
0.0
 40
0.5000000000000027
 40
0.5000000000000027
 40
0.7500000000000013
 40
0.7500000000000013
 40
0.8750000000000007
 40
0.8750000000000007
 40
1.0
 40
1.0
 40
1.0
 40
1.0
 10
177.9421366731638
 20
473.0002104077137
 30
0.0
 10
179.2436531168
 20
473.0002094399863
 30
0.0
 10
180.5423875679272
 20
473.0003796857551
 30
0.0
 10
182.4864248737741
 20
473.0008851899282
 30
0.0
 10
183.133739070631
 20
473.0010966633407
 30
0.0
 10
184.1037015093839
 20
473.0014759619998
 30
0.0
 10
184.426896563792
 20
473.0016101345022
 30
0.0
 10
185.0728078209277
 20
473.0019079497054
 30
0.0
 10
185.3958208349816
 20
473.0020533256045
 30
0.0
 10
185.7182926122757
 20
473.0022320110966
 30
0.0
  0
SPLINE
  5
9E
330
1F
100
AcDbEntity
  8
0
  6
Continuous
 62
     7
370
    25
100
AcDbSpline
210
0.0
220
0.0
230
1.0
 70
     8
 71
     3
 72
    14
 73
    10
 74
     0
 42
0.00000001
 43
0.00000001
 40
0.0
 40
0.0
 40
0.0
 40
0.0
 40
0.1249999999999987
 40
0.1249999999999987
 40
0.2499999999999973
 40
0.2499999999999973
 40
0.4999999999999973
 40
0.4999999999999973
 40
1.0
 40
1.0
 40
1.0
 40
1.0
 10
170.1657701908549
 20
473.002230173817
 30
0.0
 10
170.4882201739682
 20
473.0020495934501
 30
0.0
 10
170.8112873292524
 20
473.001907031586
 30
0.0
 10
171.4572949779684
 20
473.0016141053445
 30
0.0
 10
171.780394115648
 20
473.001473513632
 30
0.0
 10
172.7504308575453
 20
473.0010972819873
 30
0.0
 10
173.3977529420171
 20
473.0008853264729
 30
0.0
 10
175.3418323876395
 20
473.0003796349561
 30
0.0
 10
176.6406266673316
 20
473.0002113754363
 30
0.0
 10
177.9421366731638
 20
473.0002104077137
 30
0.0
  0
SPLINE
  5
9F
330
1F
100
AcDbEntity
  8
0
  6
Continuous
 62
     7
370
    25
100
AcDbSpline
210
0.0
220
0.0
230
1.0
 70
     8
 71
     3
 72
    22
 73
    18
 74
     0
 42
0.00000001
 43
0.00000001
 40
0.0
 40
0.0
 40
0.0
 40
0.0
 40
0.125
 40
0.125
 40
0.25
 40
0.25
 40
0.375
 40
0.375
 40
0.5
 40
0.5
 40
0.625
 40
0.625
 40
0.75
 40
0.75
 40
0.875
 40
0.875
 40
1.0
 40
1.0
 40
1.0
 40
1.0
 10
162.9764296176482
 20
473.0245697453335
 30
0.0
 10
163.1292937874657
 20
473.0230863909275
 30
0.0
 10
163.297245379632
 20
473.0216409642582
 30
0.0
 10
163.6841002143882
 20
473.0188781964677
 30
0.0
 10
163.9011309927574
 20
473.0175561482251
 30
0.0
 10
164.3785172351658
 20
473.0150209641325
 30
0.0
 10
164.6412476630299
 20
473.0137995464357
 30
0.0
 10
165.2021482973847
 20
473.0115215507222
 30
0.0
 10
165.4990097775609
 20
473.0104682928803
 30
0.0
 10
166.1244054303805
 20
473.0085272509734
 30
0.0
 10
166.4528709379265
 20
473.0076391081682
 30
0.0
 10
167.1422045586577
 20
473.0060321097611
 30
0.0
 10
167.5037740705887
 20
473.0053136392604
 30
0.0
 10
168.237287212408
 20
473.0040889668929
 30
0.0
 10
168.6118955803618
 20
473.0035763648047
 30
0.0
 10
169.3772012585206
 20
473.0027555235399
 30
0.0
 10
169.7683289604699
 20
473.0024527512304
 30
0.0
 10
170.1657701908549
 20
473.002230173817
 30
0.0
  0
SPLINE
  5
A0
330
1F
100
AcDbEntity
  8
0
  6
Continuous
 62
     7
370
    25
100
AcDbSpline
210
0.0
220
0.0
230
1.0
 70
     8
 71
     3
 72
    14
 73
    10
 74
     0
 42
0.00000001
 43
0.00000001
 40
0.0
 40
0.0
 40
0.0
 40
0.0
 40
0.25
 40
0.25
 40
0.5
 40
0.5
 40
0.75
 40
0.75
 40
1.0
 40
1.0
 40
1.0
 40
1.0
 10
161.3146063679553
 20
473.0517329270141
 30
0.0
 10
161.3761590284984
 20
473.0493940228677
 30
0.0
 10
161.4518915740121
 20
473.0470689987362
 30
0.0
 10
161.6483067693398
 20
473.0424629499924
 30
0.0
 10
161.7670851104965
 20
473.0401800613429
 30
0.0
 10
162.0448298699582
 20
473.0356536222412
 30
0.0
 10
162.203826144639
 20
473.0334101010141
 30
0.0
 10
162.5588764537754
 20
473.028959332638
 30
0.0
 10
162.7518441745628
 20
473.0267490644434
 30
0.0
 10
162.9764296176482
 20
473.0245697453335
 30
0.0
  0
SPLINE
  5
A1
330
1F
100
AcDbEntity
  8
0
  6
Continuous
 62
     7
370
    25
100
AcDbSpline
210
0.0
220
0.0
230
1.0
 70
     8
 71
     3
 72
    12
 73
     8
 74
     0
 42
0.00000001
 43
0.00000001
 40
0.0
 40
0.0
 40
0.0
 40
0.0
 40
0.5
 40
0.5
 40
0.75
 40
0.75
 40
1.0
 40
1.0
 40
1.0
 40
1.0
 10
160.957063464145
 20
473.0754958596064
 30
0.0
 10
160.9785192144368
 20
473.0715261904352
 30
0.0
 10
161.0155980449519
 20
473.0675602823028
 30
0.0
 10
161.1065824719754
 20
473.0616199340199
 30
0.0
 10
161.1417496742739
 20
473.0596409828618
 30
0.0
 10
161.2197500819342
 20
473.0556849260291
 30
0.0
 10
161.2626330211551
 20
473.053707832327
 30
0.0
 10
161.3146063679553
 20
473.0517329270141
 30
0.0
  0
LINE
  5
A2
330
1F
100
AcDbEntity
  8
0
  6
Continuous
 62
     7
370
    25
100
AcDbLine
 10
160.9466596974
 20
473.1218915199
 30
0.0
 11
160.9570634594
 21
473.0754958605
 31
0.0
  0
LINE
  5
A3
330
1F
100
AcDbEntity
  8
0
  6
Continuous
 62
     7
370
    25
100
AcDbLine
 10
195.9417089428
 20
496.9523914867
 30
0.0
 11
195.9417089428
 21
494.9342302405
 31
0.0
  0
LINE
  5
A4
330
1F
100
AcDbEntity
  8
0
  6
Continuous
 62
     7
370
    25
100
AcDbLine
 10
159.9417669721
 20
494.9342302405
 30
0.0
 11
159.9417669721
 21
496.9523914865
 31
0.0
  0
SPLINE
  5
A5
330
1F
100
AcDbEntity
  8
0
  6
Continuous
 62
     7
370
    25
100
AcDbSpline
210
0.0
220
0.0
230
1.0
 70
     8
 71
     3
 72
    11
 73
     7
 74
     0
 42
0.00000001
 43
0.00000001
 40
0.0
 40
0.0
 40
0.0
 40
0.0
 40
0.2938960606543132
 40
0.6066937600517476
 40
0.9324237895241451
 40
0.9999999999999999
 40
0.9999999999999999
 40
0.9999999999999999
 40
0.9999999999999999
 10
159.9417669702135
 20
496.9520979770602
 30
0.0
 10
159.9457294634704
 20
497.0209436260665
 30
0.0
 10
159.9539092938769
 20
497.1630626649057
 30
0.0
 10
160.0271156531097
 20
497.369661597394
 30
0.0
 10
160.104630145392
 20
497.5193775195037
 30
0.0
 10
160.1699240297028
 20
497.5849626111877
 30
0.0
 10
160.1811425480501
 20
497.596231163551
 30
0.0
  0
SPLINE
  5
A6
330
1F
100
AcDbEntity
  8
0
  6
Continuous
 62
     7
370
    25
100
AcDbSpline
210
0.0
220
0.0
230
1.0
 70
     8
 71
     3
 72
    11
 73
     7
 74
     0
 42
0.00000001
 43
0.00000001
 40
0.0
 40
0.0
 40
0.0
 40
0.0
 40
0.2940857438333836
 40
0.6070853256989157
 40
0.9330255842826201
 40
1.0
 40
1.0
 40
1.0
 40
1.0
 10
195.941708944626
 20
496.9520979770602
 30
0.0
 10
195.9377469863727
 20
497.0209440568254
 30
0.0
 10
195.9295682603818
 20
497.1630639848863
 30
0.0
 10
195.8563530868059
 20
497.3696558204971
 30
0.0
 10
195.7789352012444
 20
497.5192557577489
 30
0.0
 10
195.7137581451845
 20
497.5847411459617
 30
0.0
 10
195.7026483660561
 20
497.595903481961
 30
0.0
  0
SPLINE
  5
A7
330
1F
100
AcDbEntity
  8
0
  6
Continuous
 62
     7
370
    25
100
AcDbSpline
210
0.0
220
0.0
230
1.0
 70
     8
 71
     3
 72
    16
 73
    12
 74
     0
 42
0.00000001
 43
0.00000001
 40
0.0
 40
0.0
 40
0.0
 40
0.0
 40
0.0001358551756093
 40
0.001179227746137
 40
0.0026686736325275
 40
0.0054891262411728
 40
0.0157218010443409
 40
0.056218816717775
 40
0.2176756894413253
 40
0.8649640078040923
 40
1.0
 40
1.0
 40
1.0
 40
1.0
 10
167.0039608396342
 20
453.2790874929607
 30
0.0
 10
167.0039624737519
 20
453.279087492471
 30
0.0
 10
167.0039766579516
 20
453.2790874882207
 30
0.0
 10
167.004488622271
 20
453.2790873348844
 30
0.0
 10
167.0069278419458
 20
453.2790866045572
 30
0.0
 10
167.0164609157696
 20
453.2790837522284
 30
0.0
 10
167.0585601352288
 20
453.2790711630804
 30
0.0
 10
167.2310963307534
 20
453.2790162075271
 30
0.0
 10
167.9279234290287
 20
453.2785205222417
 30
0.0
 10
168.7186762345258
 20
453.2786795623487
 30
0.0
 10
169.3689049629769
 20
453.2786692791042
 30
0.0
 10
169.4811401067857
 20
453.2786675041265
 30
0.0
  0
SPLINE
  5
A8
330
1F
100
AcDbEntity
  8
0
  6
Continuous
 62
     7
370
    25
100
AcDbSpline
210
0.0
220
0.0
230
1.0
 70
     8
 71
     3
 72
     9
 73
     5
 74
     0
 42
0.00000001
 43
0.00000001
 40
0.0
 40
0.0
 40
0.0
 40
0.0
 40
0.2128619803338122
 40
0.9999999999999999
 40
0.9999999999999999
 40
0.9999999999999999
 40
0.9999999999999999
 10
171.0430222176917
 20
453.2786624466878
 30
0.0
 10
171.3054886833085
 20
453.278661506668
 30
0.0
 10
172.5385245932687
 20
453.278657090568
 30
0.0
 10
173.7715607895991
 20
453.2786586428259
 30
0.0
 10
174.7421304593554
 20
453.278659864667
 30
0.0
  0
SPLINE
  5
A9
330
1F
100
AcDbEntity
  8
0
  6
Continuous
 62
     7
370
    25
100
AcDbSpline
210
0.0
220
0.0
230
1.0
 70
     8
 71
     3
 72
    10
 73
     6
 74
     0
 42
0.00000001
 43
0.00000001
 40
0.0
 40
0.0
 40
0.0
 40
0.0
 40
0.3858298325519793
 40
0.9480584785636719
 40
0.9999999999999999
 40
0.9999999999999999
 40
0.9999999999999999
 40
0.9999999999999999
 10
181.1421304593553
 20
453.2786597934751
 30
0.0
 10
181.6194775887128
 20
453.2786604919415
 30
0.0
 10
182.7924117556021
 20
453.2786622082083
 30
0.0
 10
184.0296121846715
 20
453.2786505723108
 30
0.0
 10
184.7894578017559
 20
453.2786643507434
 30
0.0
 10
184.8537193688263
 20
453.2786655160113
 30
0.0
  0
SPLINE
  5
AA
330
1F
100
AcDbEntity
  8
0
  6
Continuous
 62
     7
370
    25
100
AcDbSpline
210
0.0
220
0.0
230
1.0
 70
     8
 71
     3
 72
    24
 73
    20
 74
     0
 42
0.00000001
 43
0.00000001
 40
0.0
 40
0.0
 40
0.0
 40
0.0
 40
0.2359003116434662
 40
0.4861601509801185
 40
0.6540465345729932
 40
0.7670022886255102
 40
0.8432102819274225
 40
0.8948025299775272
 40
0.9298814042979803
 40
0.953002192671635
 40
0.968320410558211
 40
0.9785653691915901
 40
0.9854814592480726
 40
0.9902012811345462
 40
0.994461706741118
 40
0.9969151333482184
 40
0.9984441104725027
 40
0.9995751849525165
 40
0.9999999999999999
 40
0.9999999999999999
 40
0.9999999999999999
 40
0.9999999999999999
 10
186.4031178159123
 20
453.278673552225
 30
0.0
 10
186.5992210422127
 20
453.2786667607361
 30
0.0
 10
187.0033645274064
 20
453.2786527643527
 30
0.0
 10
187.5471035234928
 20
453.2786255584413
 30
0.0
 10
187.9885900231628
 20
453.2786925802388
 30
0.0
 10
188.284874698277
 20
453.2787928561162
 30
0.0
 10
188.4839745996224
 20
453.2788891018177
 30
0.0
 10
188.617410148293
 20
453.2789734585243
 30
0.0
 10
188.7061651598341
 20
453.279027798307
 30
0.0
 10
188.7659771288642
 20
453.2790514451494
 30
0.0
 10
188.8054256138956
 20
453.2790650676146
 30
0.0
 10
188.8315300570988
 20
453.2790733095171
 30
0.0
 10
188.8488581722657
 20
453.2790786033154
 30
0.0
 10
188.8611223846282
 20
453.2790822968316
 30
0.0
 10
188.8695558058222
 20
453.2790848229955
 30
0.0
 10
188.8749595622461
 20
453.2790864402996
 30
0.0
 10
188.8775333291523
 20
453.2790872108488
 30
0.0
 10
188.8784035370449
 20
453.279087471446
 30
0.0
 10
188.8784599662456
 20
453.2790874883444
 30
0.0
 10
188.8784753734922
 20
453.2790874929583
 30
0.0
  0
SPLINE
  5
AB
330
1F
100
AcDbEntity
  8
0
  6
Continuous
 62
     7
370
    25
100
AcDbSpline
210
0.0
220
0.0
230
1.0
 70
     8
 71
     3
 72
    38
 73
    34
 74
     0
 42
0.00000001
 43
0.00000001
 40
0.0
 40
0.0
 40
0.0
 40
0.0
 40
0.0625
 40
0.0625
 40
0.1249999999999999
 40
0.1249999999999999
 40
0.1874999999999999
 40
0.1874999999999999
 40
0.2499999999999999
 40
0.2499999999999999
 40
0.3124999999999999
 40
0.3124999999999999
 40
0.3749999999999999
 40
0.3749999999999999
 40
0.4375
 40
0.4375
 40
0.5
 40
0.5
 40
0.5625
 40
0.5625
 40
0.625
 40
0.625
 40
0.6875
 40
0.6875
 40
0.7499999999999999
 40
0.7499999999999999
 40
0.8124999999999999
 40
0.8124999999999999
 40
0.8749999999999999
 40
0.8749999999999999
 40
0.9374999999999999
 40
0.9374999999999999
 40
1.0
 40
1.0
 40
1.0
 40
1.0
 10
159.9421801626686
 20
458.2786612959309
 30
0.0
 10
159.9421801626686
 20
458.2786612959309
 30
0.0
 10
159.9421801624731
 20
458.2791677950016
 30
0.0
 10
159.9421801508963
 20
458.2702568818697
 30
0.0
 10
159.9421801395357
 20
458.2607533399819
 30
0.0
 10
159.9421800991973
 20
458.2101075327914
 30
0.0
 10
159.9421800702399
 20
458.1688791378032
 30
0.0
 10
159.9421799919812
 20
458.0250470594783
 30
0.0
 10
159.9421799427003
 20
457.9223572464559
 30
0.0
 10
159.9421798241545
 20
457.6204279049001
 30
0.0
 10
159.9421797549101
 20
457.4211022466812
 30
0.0
 10
159.9421795992673
 20
456.8878728159062
 30
0.0
 10
159.9421795128894
 20
456.5538829136646
 30
0.0
 10
159.9421793276616
 20
455.7130265149179
 30
0.0
 10
159.9421792288323
 20
455.2060738887274
 30
0.0
 10
159.9421790246186
 20
453.9833073716212
 30
0.0
 10
159.9421789192548
 20
453.2674073510198
 30
0.0
 10
159.9421787085067
 20
451.5956590746585
 30
0.0
 10
159.9421786031429
 20
450.639724689213
 30
0.0
 10
159.9421783989292
 20
448.4643023033224
 30
0.0
 10
159.9421783000999
 20
447.2447281731918
 30
0.0
 10
159.942178114872
 20
444.5284863992467
 30
0.0
 10
159.9421780284941
 20
443.0317326257469
 30
0.0
 10
159.9421778728513
 20
439.7602410381
 30
0.0
 10
159.9421778036069
 20
437.9854170942677
 30
0.0
 10
159.9421776850611
 20
434.1721279012776
 30
0.0
 10
159.9421776357802
 20
432.1335765224343
 30
0.0
 10
159.9421775575214
 20
427.8249923475935
 30
0.0
 10
159.9421775285641
 20
425.5548734219103
 30
0.0
 10
159.9421774882256
 20
420.8357150849739
 30
0.0
 10
159.9421774768649
 20
418.3865895440351
 30
0.0
 10
159.9421774652882
 20
413.384963842149
 30
0.0
 10
159.9421774650926
 20
410.8323775515163
 30
0.0
 10
159.9421774650926
 20
408.2786612959309
 30
0.0
  0
SPLINE
  5
AC
330
1F
100
AcDbEntity
  8
0
  6
Continuous
 62
     7
370
    25
100
AcDbSpline
210
0.0
220
0.0
230
1.0
 70
     8
 71
     3
 72
    38
 73
    34
 74
     0
 42
0.00000001
 43
0.00000001
 40
0.0
 40
0.0
 40
0.0
 40
0.0
 40
0.0625
 40
0.0625
 40
0.1250000000000001
 40
0.1250000000000001
 40
0.1875000000000001
 40
0.1875000000000001
 40
0.2500000000000001
 40
0.2500000000000001
 40
0.3125000000000001
 40
0.3125000000000001
 40
0.3750000000000002
 40
0.3750000000000002
 40
0.4375000000000002
 40
0.4375000000000002
 40
0.5000000000000002
 40
0.5000000000000002
 40
0.5625000000000002
 40
0.5625000000000002
 40
0.6250000000000001
 40
0.6250000000000001
 40
0.6875000000000001
 40
0.6875000000000001
 40
0.75
 40
0.75
 40
0.8125
 40
0.8125
 40
0.875
 40
0.875
 40
0.9375
 40
0.9375
 40
1.0
 40
1.0
 40
1.0
 40
1.0
 10
195.9421774650926
 20
408.2786612959308
 30
0.0
 10
195.9421774650927
 20
410.8323775515161
 30
0.0
 10
195.9421774652882
 20
413.3849638421489
 30
0.0
 10
195.9421774768649
 20
418.386589544035
 30
0.0
 10
195.9421774882256
 20
420.8357150849737
 30
0.0
 10
195.9421775285641
 20
425.5548734219102
 30
0.0
 10
195.9421775575214
 20
427.8249923475933
 30
0.0
 10
195.9421776357802
 20
432.1335765224342
 30
0.0
 10
195.9421776850611
 20
434.1721279012775
 30
0.0
 10
195.9421778036069
 20
437.9854170942676
 30
0.0
 10
195.9421778728513
 20
439.7602410381
 30
0.0
 10
195.9421780284941
 20
443.0317326257468
 30
0.0
 10
195.9421781148721
 20
444.5284863992466
 30
0.0
 10
195.9421783000999
 20
447.2447281731916
 30
0.0
 10
195.9421783989293
 20
448.4643023033223
 30
0.0
 10
195.942178603143
 20
450.6397246892129
 30
0.0
 10
195.9421787085068
 20
451.5956590746584
 30
0.0
 10
195.9421789192548
 20
453.2674073510196
 30
0.0
 10
195.9421790246186
 20
453.983307371621
 30
0.0
 10
195.9421792288323
 20
455.2060738887274
 30
0.0
 10
195.9421793276616
 20
455.7130265149178
 30
0.0
 10
195.9421795128895
 20
456.5538829136644
 30
0.0
 10
195.9421795992674
 20
456.8878728159061
 30
0.0
 10
195.9421797549102
 20
457.4211022466811
 30
0.0
 10
195.9421798241546
 20
457.6204279049
 30
0.0
 10
195.9421799427004
 20
457.9223572464558
 30
0.0
 10
195.9421799919812
 20
458.0250470594781
 30
0.0
 10
195.9421800702399
 20
458.1688791378031
 30
0.0
 10
195.9421800991973
 20
458.2101075327913
 30
0.0
 10
195.9421801395358
 20
458.2607533399818
 30
0.0
 10
195.9421801508964
 20
458.2702568818696
 30
0.0
 10
195.9421801624731
 20
458.2791677950015
 30
0.0
 10
195.9421801626686
 20
458.2786612959308
 30
0.0
 10
195.9421801626686
 20
458.2786612959308
 30
0.0
  0
LINE
  5
AD
330
1F
100
AcDbEntity
  8
0
  6
Continuous
 62
     7
370
    25
100
AcDbLine
 10
154.8421304691
 20
343.2103210079
 30
0.0
 11
201.0421304691
 21
343.2103210079
 31
0.0
  0
LINE
  5
AE
330
1F
100
AcDbEntity
  8
0
  6
Continuous
 62
     7
370
    25
100
AcDbLine
 10
154.8421304691
 20
348.2103210085
 30
0.0
 11
201.0421304691
 21
348.2103210085
 31
0.0
  0
LINE
  5
AF
330
1F
100
AcDbEntity
  8
0
  6
Continuous
 62
     7
370
    25
100
AcDbLine
 10
202.0421304691
 20
347.2103210085
 30
0.0
 11
202.0421304691
 21
343.2103210079
 31
0.0
  0
LINE
  5
B0
330
1F
100
AcDbEntity
  8
0
  6
Continuous
 62
     7
370
    25
100
AcDbLine
 10
201.0421304691
 20
343.2103210079
 30
0.0
 11
202.0421304691
 21
343.2103210079
 31
0.0
  0
ARC
  5
B1
330
1F
100
AcDbEntity
  8
0
  6
Continuous
 62
     7
370
    25
100
AcDbCircle
 10
201.0421304691
 20
347.2103210085
 30
0.0
 40
1.0
100
AcDbArc
 50
0.0
 51
90.0
  0
LINE
  5
B2
330
1F
100
AcDbEntity
  8
0
  6
Continuous
 62
     7
370
    25
100
AcDbLine
 10
153.8421304691
 20
343.2103210079
 30
0.0
 11
153.8421304691
 21
347.2103210085
 31
0.0
  0
LINE
  5
B3
330
1F
100
AcDbEntity
  8
0
  6
Continuous
 62
     7
370
    25
100
AcDbLine
 10
153.8421304691
 20
343.2103210079
 30
0.0
 11
154.8421304691
 21
343.2103210079
 31
0.0
  0
ARC
  5
B4
330
1F
100
AcDbEntity
  8
0
  6
Continuous
 62
     7
370
    25
100
AcDbCircle
 10
154.8421304691
 20
347.2103210085
 30
0.0
 40
1.0
100
AcDbArc
 50
90.0
 51
180.0
  0
SPLINE
  5
B5
330
1F
100
AcDbEntity
  8
0
  6
Continuous
 62
     7
370
    25
100
AcDbSpline
210
0.0
220
0.0
230
1.0
 70
     8
 71
     3
 72
    10
 73
     6
 74
     0
 42
0.00000001
 43
0.00000001
 40
0.0
 40
0.0
 40
0.0
 40
0.0
 40
0.140237219944185
 40
0.4411018757567702
 40
1.0
 40
1.0
 40
1.0
 40
1.0
 10
158.8306887414732
 20
350.1093649666666
 30
0.0
 10
158.9327503270542
 20
350.2284779636078
 30
0.0
 10
159.2537746375791
 20
350.6031357498836
 30
0.0
 10
159.7626323335515
 20
351.6222553062813
 30
0.0
 10
159.8714180284707
 20
352.5846839569045
 30
0.0
 10
159.9421353498589
 20
353.2103211443114
 30
0.0
  0
ARC
  5
B6
330
1F
100
AcDbEntity
  8
0
  6
Continuous
 62
     7
370
    25
100
AcDbCircle
 10
200.9421394977
 20
353.2103210093
 30
0.0
 40
5.000000000935103
100
AcDbArc
 50
179.9999996668
 51
269.9999999906
  0
LINE
  5
B7
330
1F
100
AcDbEntity
  8
0
  6
Continuous
 62
     7
370
    25
100
AcDbLine
 10
195.9421394969
 20
364.2103210009
 30
0.0
 11
195.942139453
 21
393.2786619505
 31
0.0
  0
LINE
  5
B8
330
1F
100
AcDbEntity
  8
0
  6
Continuous
 62
     7
370
    25
100
AcDbLine
 10
159.9421353499
 20
364.2103211443
 30
0.0
 11
159.9421345602
 21
393.2786619505
 31
0.0
  0
LINE
  5
B9
330
1F
100
AcDbEntity
  8
0
  6
Continuous
 62
     7
370
    25
100
AcDbLine
 10
195.9421386041
 20
364.2103210009
 30
0.0
 11
195.9421386041
 21
353.2103210384
 31
0.0
  0
LINE
  5
BA
330
1F
100
AcDbEntity
  8
0
  6
Continuous
 62
     7
370
    25
100
AcDbLine
 10
159.9421749922
 20
393.2786619505
 30
0.0
 11
159.9421749696
 21
408.2786619226
 31
0.0
  0
LINE
  5
BB
330
1F
100
AcDbEntity
  8
0
  6
Continuous
 62
     7
370
    25
100
AcDbLine
 10
195.9421771785
 20
393.2786619505
 30
0.0
 11
195.9421771559
 21
408.2786619226
 31
0.0
  0
SPLINE
  5
BC
330
1F
100
AcDbEntity
  8
0
  6
Continuous
 62
     7
370
    25
100
AcDbSpline
210
0.0
220
0.0
230
1.0
 70
     8
 71
     3
 72
    11
 73
     7
 74
     0
 42
0.00000001
 43
0.00000001
 40
0.0
 40
0.0
 40
0.0
 40
0.0
 40
0.2838371913768796
 40
0.5737887902893581
 40
0.8282849467280157
 40
1.0
 40
1.0
 40
1.0
 40
1.0
 10
195.35963572231
 20
477.6065203802287
 30
0.0
 10
195.4516381879931
 20
477.6588829041166
 30
0.0
 10
195.6376250321831
 20
477.7647359429393
 30
0.0
 10
195.8247033058701
 20
477.9061317726663
 30
0.0
 10
195.9269297721741
 20
478.0070631116043
 30
0.0
 10
195.9374645005176
 20
478.0421897125479
 30
0.0
 10
195.9417088080287
 20
478.0563417714682
 30
0.0
  0
SPLINE
  5
BD
330
1F
100
AcDbEntity
  8
0
  6
Continuous
 62
     7
370
    25
100
AcDbSpline
210
0.0
220
0.0
230
1.0
 70
    24
 71
     3
 72
    14
 73
    10
 74
     0
 42
0.00000001
 43
0.00000001
 40
0.0000000000000009
 40
0.0000000000000009
 40
0.0000000000000009
 40
0.0000000000000009
 40
0.0027220924773576
 40
0.0027220924773576
 40
0.0027220924773576
 40
0.0054441839602498
 40
0.0054441839602498
 40
0.0054441839602498
 40
0.0104862958462568
 40
0.0104862958462568
 40
0.0104862958462568
 40
0.0104862958462568
 10
195.9417089427559
 20
479.791969914022
 30
0.0
 10
195.9417089427559
 20
479.6423419106576
 30
0.0
 10
195.9417089427558
 20
479.4916580399933
 30
0.0
 10
195.9417089427558
 20
479.3409549958695
 30
0.0
 10
195.9417089427558
 20
479.1902519967503
 30
0.0
 10
195.9417089427559
 20
479.0395584977873
 30
0.0
 10
195.9417089427559
 20
478.8893318348151
 30
0.0
 10
195.9417089427559
 20
478.6110679909072
 30
0.0
 10
195.9417089427559
 20
478.3333116838521
 30
0.0
 10
195.9417089427559
 20
478.0563510904752
 30
0.0
  0
SPLINE
  5
BE
330
1F
100
AcDbEntity
  8
0
  6
Continuous
 62
     7
370
    25
100
AcDbSpline
210
0.0
220
0.0
230
1.0
 70
     8
 71
     3
 72
    12
 73
     8
 74
     0
 42
0.00000001
 43
0.00000001
 40
0.0
 40
0.0
 40
0.0
 40
0.0
 40
0.5000000000000078
 40
0.5000000000000078
 40
0.7500000000000039
 40
0.7500000000000039
 40
1.0
 40
1.0
 40
1.0
 40
1.0
 10
160.7046454960798
 20
477.5098495424175
 30
0.0
 10
160.4942275801798
 20
477.6156706771588
 30
0.0
 10
160.3025124399304
 20
477.7283388522724
 30
0.0
 10
160.0965078155436
 20
477.8780934545898
 30
0.0
 10
160.0408315206068
 20
477.9245719072234
 30
0.0
 10
159.9630207840503
 20
478.0039291178236
 30
0.0
 10
159.9417682721025
 20
478.0360477134848
 30
0.0
 10
159.9417669721167
 20
478.0563133143955
 30
0.0
  0
SPLINE
  5
BF
330
1F
100
AcDbEntity
  8
0
  6
Continuous
 62
     7
370
    25
100
AcDbSpline
210
0.0
220
0.0
230
1.0
 70
    24
 71
     3
 72
    14
 73
    10
 74
     0
 42
0.00000001
 43
0.00000001
 40
0.0
 40
0.0
 40
0.0
 40
0.0
 40
0.0026283545570111
 40
0.0026283545570111
 40
0.0026283545570111
 40
0.0052567090778632
 40
0.0052567090778632
 40
0.0052567090778632
 40
0.0104863578434055
 40
0.0104863578434055
 40
0.0104863578434055
 40
0.0104863578434055
 10
159.941766972076
 20
478.056313316064
 30
0.0
 10
159.941766972076
 20
478.2007145764196
 30
0.0
 10
159.9417669720759
 20
478.3453176765368
 30
0.0
 10
159.9417669720759
 20
478.490133051671
 30
0.0
 10
159.9417669720759
 20
478.6349484258791
 30
0.0
 10
159.9417669720758
 20
478.7799737506921
 30
0.0
 10
159.9417669720758
 20
478.9251208371373
 30
0.0
 10
159.9417669720758
 20
479.2139206401235
 30
0.0
 10
159.9417669720758
 20
479.505062597425
 30
0.0
 10
159.9417669720758
 20
479.7928509065723
 30
0.0
  0
LINE
  5
C0
330
1F
100
AcDbEntity
  8
0
  6
Continuous
 62
     7
370
    25
100
AcDbLine
 10
159.9421342506
 20
393.2786619505
 30
0.0
 11
159.9421350402
 21
364.2103211443
 31
0.0
  0
LINE
  5
C1
330
1F
100
AcDbEntity
  8
0
  6
Continuous
 62
     7
370
    25
100
AcDbLine
 10
159.9421345602
 20
393.2786619505
 30
0.0
 11
159.9421342506
 21
393.2786619505
 31
0.0
  0
LINE
  5
C2
330
1F
100
AcDbEntity
  8
0
  6
Continuous
 62
     7
370
    25
100
AcDbLine
 10
159.9421349738
 20
364.2103211443
 30
0.0
 11
159.9421349738
 21
353.2103211818
 31
0.0
  0
LINE
  5
C3
330
1F
100
AcDbEntity
  8
0
  6
Continuous
 62
     8
370
    18
100
AcDbLine
 10
194.9421770805
 20
458.2786615056
 30
0.0
 11
194.9421770654
 21
468.2786629221
 31
0.0
  0
SPLINE
  5
C4
330
1F
100
AcDbEntity
  8
0
  6
Continuous
 62
     8
370
    18
100
AcDbSpline
210
0.0
220
0.0
230
1.0
 70
    24
 71
     3
 72
    10
 73
     6
 74
     0
 42
0.00000001
 43
0.00000001
 40
0.0
 40
0.0
 40
0.0
 40
0.0
 40
0.5
 40
0.5
 40
1.0
 40
1.0
 40
1.0
 40
1.0
 10
194.9421770654683
 20
468.2786629221364
 30
0.0
 10
195.2039764532504
 20
468.2786629225323
 30
0.0
 10
195.464163724187
 20
468.2786629229258
 30
0.0
 10
195.8344039689904
 20
468.2786629234856
 30
0.0
 10
195.9421770653659
 20
468.2786629236486
 30
0.0
 10
195.9421770653659
 20
468.2786629236486
 30
0.0
  0
SPLINE
  5
C5
330
1F
100
AcDbEntity
  8
0
  6
Continuous
 62
     8
370
    18
100
AcDbSpline
210
0.0
220
0.0
230
1.0
 70
     8
 71
     3
 72
    20
 73
    16
 74
     0
 42
0.00000001
 43
0.00000001
 40
0.0
 40
0.0
 40
0.0
 40
0.0
 40
0.0602271756808131
 40
0.121109874031512
 40
0.1826480791035844
 40
0.2448417747661474
 40
0.307690944705718
 40
0.3711955724254757
 40
0.4353556412449697
 40
0.5001711342995796
 40
0.580709848927398
 40
0.6709676515600425
 40
0.7709392673129832
 40
0.8806188535002034
 40
1.0
 40
1.0
 40
1.0
 40
1.0
 10
195.9421801626683
 20
458.2786612959459
 30
0.0
 10
195.9413182323949
 20
458.2786612717571
 30
0.0
 10
195.9395849904548
 20
458.278661223116
 30
0.0
 10
195.9254905528975
 20
458.278660993545
 30
0.0
 10
195.902777250221
 20
458.278660813762
 30
0.0
 10
195.8705353524662
 20
458.278660740393
 30
0.0
 10
195.8290133767128
 20
458.2786608082756
 30
0.0
 10
195.7782776078301
 20
458.278661010793
 30
0.0
 10
195.7185813317794
 20
458.2786612199386
 30
0.0
 10
195.6449901214319
 20
458.2786615270988
 30
0.0
 10
195.5522374892546
 20
458.278660672038
 30
0.0
 10
195.4339695970672
 20
458.2786594867054
 30
0.0
 10
195.291320273615
 20
458.2786593844224
 30
0.0
 10
195.1247633538175
 20
458.2786607268922
 30
0.0
 10
195.0047356366803
 20
458.2786612376283
 30
0.0
 10
194.9421799715713
 20
458.2786615038121
 30
0.0
  0
SPLINE
  5
C6
330
1F
100
AcDbEntity
  8
0
  6
Continuous
 62
     8
370
    18
100
AcDbSpline
210
0.0
220
0.0
230
1.0
 70
    24
 71
     3
 72
    10
 73
     6
 74
     0
 42
0.00000001
 43
0.00000001
 40
0.0
 40
0.0
 40
0.0
 40
0.0
 40
0.5
 40
0.5
 40
1.0
 40
1.0
 40
1.0
 40
1.0
 10
194.9421770652634
 20
468.2786629221364
 30
0.0
 10
194.9421770652634
 20
468.5404623099356
 30
0.0
 10
194.9421770652634
 20
468.8006495808997
 30
0.0
 10
194.9421770652634
 20
469.1708898257463
 30
0.0
 10
194.9421770652634
 20
469.2786629221365
 30
0.0
 10
194.9421770652634
 20
469.2786629221364
 30
0.0
  0
SPLINE
  5
C7
330
1F
100
AcDbEntity
  8
0
  6
Continuous
 62
     8
370
    18
100
AcDbSpline
210
0.0
220
0.0
230
1.0
 70
     8
 71
     3
 72
    28
 73
    24
 74
     0
 42
0.00000001
 43
0.00000001
 40
0.0
 40
0.0
 40
0.0
 40
0.0
 40
0.2499999999999972
 40
0.2499999999999972
 40
0.3749999999999958
 40
0.3749999999999958
 40
0.4374999999999951
 40
0.4374999999999951
 40
0.4999999999999944
 40
0.4999999999999944
 40
0.5624999999999938
 40
0.5624999999999938
 40
0.6249999999999931
 40
0.6249999999999931
 40
0.6562499999999926
 40
0.6562499999999926
 40
0.6874999999999921
 40
0.6874999999999921
 40
0.7499999999999956
 40
0.7499999999999956
 40
0.8749999999999978
 40
0.8749999999999978
 40
1.0
 40
1.0
 40
1.0
 40
1.0
 10
188.8781759059537
 20
454.2790874481187
 30
0.0
 10
189.6154670656178
 20
454.2793082409056
 30
0.0
 10
190.352764455927
 20
454.2794098238385
 30
0.0
 10
191.4567339415614
 20
454.3173801406188
 30
0.0
 10
191.8244294960276
 20
454.3356672078836
 30
0.0
 10
192.3745893398085
 20
454.3895678436402
 30
0.0
 10
192.5577537326716
 20
454.4117864521307
 30
0.0
 10
192.9233877891179
 20
454.4695158041621
 30
0.0
 10
193.1068377039208
 20
454.5056050749556
 30
0.0
 10
193.4649607836739
 20
454.6020415777255
 30
0.0
 10
193.6403622648163
 20
454.6610928508198
 30
0.0
 10
193.97550118278
 20
454.8255577492312
 30
0.0
 10
194.1298236542276
 20
454.930678340136
 30
0.0
 10
194.3226174279336
 20
455.1327133366772
 30
0.0
 10
194.3803295881315
 20
455.2079131802925
 30
0.0
 10
194.4803411298577
 20
455.3644262198401
 30
0.0
 10
194.5237182052436
 20
455.4464913307319
 30
0.0
 10
194.6392459440646
 20
455.7010772603709
 30
0.0
 10
194.695683033377
 20
455.8801679968655
 30
0.0
 10
194.8308504204317
 20
456.4223388200849
 30
0.0
 10
194.8759878364462
 20
456.7941318497372
 30
0.0
 10
194.93279692331
 20
457.5346723041764
 30
0.0
 10
194.9419447674534
 20
457.9063428475752
 30
0.0
 10
194.9421799715713
 20
458.2786615038119
 30
0.0
  0
LINE
  5
C8
330
1F
100
AcDbEntity
  8
0
  6
Continuous
 62
     8
370
    18
100
AcDbLine
 10
167.0039608953
 20
454.2790875378
 30
0.0
 11
188.878175906
 21
454.279087493
 31
0.0
  0
SPLINE
  5
C9
330
1F
100
AcDbEntity
  8
0
  6
Continuous
 62
     8
370
    18
100
AcDbSpline
210
0.0
220
0.0
230
1.0
 70
     8
 71
     3
 72
    26
 73
    22
 74
     0
 42
0.00000001
 43
0.00000001
 40
0.0
 40
0.0
 40
0.0
 40
0.0
 40
0.1250000000000013
 40
0.1250000000000013
 40
0.2500000000000027
 40
0.2500000000000027
 40
0.3125000000000033
 40
0.3125000000000033
 40
0.375000000000004
 40
0.375000000000004
 40
0.4375000000000047
 40
0.4375000000000047
 40
0.5000000000000053
 40
0.5000000000000053
 40
0.562500000000006
 40
0.562500000000006
 40
0.6250000000000067
 40
0.6250000000000067
 40
0.7500000000000052
 40
0.7500000000000052
 40
1.0
 40
1.0
 40
1.0
 40
1.0
 10
160.9421803497284
 20
458.2786615120662
 30
0.0
 10
160.9424114285379
 20
457.9089624982051
 30
0.0
 10
160.9514285660521
 20
457.5397557846243
 30
0.0
 10
161.0074022379347
 20
456.8034681770516
 30
0.0
 10
161.0520596668994
 20
456.4341300310559
 30
0.0
 10
161.1833418875104
 20
455.8987584150408
 30
0.0
 10
161.2373589878689
 20
455.7230168077092
 30
0.0
 10
161.3876449571757
 20
455.3827206825035
 30
0.0
 10
161.4819740003837
 20
455.2215308349962
 30
0.0
 10
161.735858413414
 20
454.9456624158252
 30
0.0
 10
161.8883411509763
 20
454.8382232074767
 30
0.0
 10
162.2215046612473
 20
454.6698492087137
 30
0.0
 10
162.3967538782471
 20
454.6093362565264
 30
0.0
 10
162.7553798746808
 20
454.5105097341222
 30
0.0
 10
162.9379356313188
 20
454.4738073764811
 30
0.0
 10
163.3033359875287
 20
454.4148801736315
 30
0.0
 10
163.486858399601
 20
454.3922008643168
 30
0.0
 10
164.03898251977
 20
454.337008860931
 30
0.0
 10
164.4094915368528
 20
454.3181882086121
 30
0.0
 10
165.5210712224806
 20
454.2794105985569
 30
0.0
 10
166.2625169821012
 20
454.2793096178083
 30
0.0
 10
167.0039608952559
 20
454.2790875378111
 30
0.0
  0
LINE
  5
CA
330
1F
100
AcDbEntity
  8
0
  6
Continuous
 62
     8
370
    18
100
AcDbLine
 10
160.9421748791
 20
468.2786629221
 30
0.0
 11
160.9421748942
 21
458.2786615087
 31
0.0
  0
LINE
  5
CB
330
1F
100
AcDbEntity
  8
0
  6
Continuous
 62
     8
370
    18
100
AcDbLine
 10
194.9421770654
 20
468.2786629221
 30
0.0
 11
160.9421748791
 21
468.2786629221
 31
0.0
  0
SPLINE
  5
CC
330
1F
100
AcDbEntity
  8
0
  6
Continuous
 62
     8
370
    18
100
AcDbSpline
210
0.0
220
0.0
230
1.0
 70
    24
 71
     3
 72
    10
 73
     6
 74
     0
 42
0.00000001
 43
0.00000001
 40
0.0
 40
0.0
 40
0.0
 40
0.0
 40
0.5
 40
0.5
 40
1.0
 40
1.0
 40
1.0
 40
1.0
 10
160.9421748790863
 20
468.27866292214
 30
0.0
 10
160.9421748790302
 20
468.5404623099386
 30
0.0
 10
160.9421748789745
 20
468.8006495809018
 30
0.0
 10
160.9421748788952
 20
469.1708898257468
 30
0.0
 10
160.9421748788721
 20
469.2786629221365
 30
0.0
 10
160.9421748788721
 20
469.2786629221365
 30
0.0
  0
SPLINE
  5
CD
330
1F
100
AcDbEntity
  8
0
  6
Continuous
 62
     8
370
    18
100
AcDbSpline
210
0.0
220
0.0
230
1.0
 70
    24
 71
     3
 72
    10
 73
     6
 74
     0
 42
0.00000001
 43
0.00000001
 40
0.0
 40
0.0
 40
0.0
 40
0.0
 40
0.5
 40
0.5
 40
1.0
 40
1.0
 40
1.0
 40
1.0
 10
160.9421748790863
 20
468.27866292214
 30
0.0
 10
160.6803754912871
 20
468.278662921745
 30
0.0
 10
160.420188220323
 20
468.2786629213525
 30
0.0
 10
160.0499479754764
 20
468.2786629207939
 30
0.0
 10
159.9421748790863
 20
468.2786629206312
 30
0.0
 10
159.9421748790863
 20
468.2786629206312
 30
0.0
  0
SPLINE
  5
CE
330
1F
100
AcDbEntity
  8
0
  6
Continuous
 62
     8
370
    18
100
AcDbSpline
210
0.0
220
0.0
230
1.0
 70
    24
 71
     3
 72
    10
 73
     6
 74
     0
 42
0.00000001
 43
0.00000001
 40
0.0
 40
0.0
 40
0.0
 40
0.0
 40
0.5
 40
0.5
 40
1.0
 40
1.0
 40
1.0
 40
1.0
 10
159.9421748941741
 20
458.2786615071475
 30
0.0
 10
159.9421748941741
 20
458.2786615071475
 30
0.0
 10
160.0499479905643
 20
458.2786615073101
 30
0.0
 10
160.4201882354108
 20
458.2786615078687
 30
0.0
 10
160.6803755063749
 20
458.2786615082612
 30
0.0
 10
160.9421748941741
 20
458.2786615086563
 30
0.0
  0
LINE
  5
CF
330
1F
100
AcDbEntity
  8
0
  6
Continuous
 62
     8
370
    18
100
AcDbLine
 10
188.8784753708
 20
453.279087493
 30
0.0
 11
188.878175906
 21
454.279087493
 31
0.0
  0
LINE
  5
D0
330
1F
100
AcDbEntity
  8
0
  6
Continuous
 62
     8
370
    18
100
AcDbLine
 10
167.0039608952
 20
453.279087493
 30
0.0
 11
167.0039608953
 21
454.2790875378
 31
0.0
  0
LINE
  5
D1
330
1F
100
AcDbEntity
  8
0
  6
Continuous
 62
     8
370
    18
100
AcDbLine
 10
160.4107826737
 20
478.8104999585
 30
0.0
 11
160.3657456781
 21
478.9761651204
 31
0.0
  0
SPLINE
  5
D2
330
1F
100
AcDbEntity
  8
0
  6
Continuous
 62
     8
370
    18
100
AcDbSpline
210
0.0
220
0.0
230
1.0
 70
     8
 71
     3
 72
    12
 73
     8
 74
     0
 42
0.00000001
 43
0.00000001
 40
8.172668223544328
 40
8.172668223544328
 40
8.172668223544328
 40
8.172668223544328
 40
8.176115058065244
 40
8.176115058065244
 40
8.468667056943024
 40
8.468667056943024
 40
8.487454801976577
 40
8.487454801976577
 40
8.487454801976577
 40
8.487454801976577
 10
160.2712320705288
 20
479.191938792891
 30
0.0
 10
160.2715976365111
 20
479.1911562395929
 30
0.0
 10
160.2719629817631
 20
479.1903736187296
 30
0.0
 10
160.3033183217608
 20
479.123159670996
 30
0.0
 10
160.3326547783169
 20
479.0563856681964
 30
0.0
 10
160.3621986179186
 20
478.9848118391461
 30
0.0
 10
160.3639753747966
 20
478.980489541306
 30
0.0
 10
160.3657456780661
 20
478.9761651203611
 30
0.0
  0
SPLINE
  5
D3
330
1F
100
AcDbEntity
  8
0
  6
Continuous
 62
     8
370
    18
100
AcDbSpline
210
0.0
220
0.0
230
1.0
 70
     8
 71
     3
 72
    16
 73
    12
 74
     0
 42
0.00000001
 43
0.00000001
 40
8.48745480197669
 40
8.48745480197669
 40
8.48745480197669
 40
8.48745480197669
 40
8.505695716722947
 40
8.505695716722947
 40
8.523980216652808
 40
8.523980216652808
 40
8.542264716582668
 40
8.542264716582668
 40
8.578833716442398
 40
8.578833716442398
 40
8.648524881640807
 40
8.648524881640807
 40
8.648524881640807
 40
8.648524881640807
 10
160.2184635411815
 20
479.3013597017198
 30
0.0
 10
160.2205219147775
 20
479.297219450554
 30
0.0
 10
160.2225709866907
 20
479.2930820945382
 30
0.0
 10
160.2266484384388
 20
479.2848291737508
 30
0.0
 10
160.2286819180529
 20
479.2806989086645
 30
0.0
 10
160.2327408816708
 20
479.2724253584465
 30
0.0
 10
160.2347564318638
 20
479.2683024057484
 30
0.0
 10
160.2407950078909
 20
479.2559063549496
 30
0.0
 10
160.2448041595349
 20
479.2476174880742
 30
0.0
 10
160.2563591590741
 20
479.223555888781
 30
0.0
 10
160.2638407324456
 20
479.2077611513007
 30
0.0
 10
160.2712320705288
 20
479.1919387928911
 30
0.0
  0
SPLINE
  5
D4
330
1F
100
AcDbEntity
  8
0
  6
Continuous
 62
     8
370
    18
100
AcDbSpline
210
0.0
220
0.0
230
1.0
 70
     8
 71
     3
 72
    16
 73
    12
 74
     0
 42
0.00000001
 43
0.00000001
 40
8.64852488164624
 40
8.64852488164624
 40
8.64852488164624
 40
8.64852488164624
 40
8.67384782792568
 40
8.67384782792568
 40
8.746985827645121
 40
8.746985827645121
 40
8.783554827504851
 40
8.783554827504851
 40
8.801839327434712
 40
8.801839327434712
 40
8.80188291261288
 40
8.80188291261288
 40
8.80188291261288
 40
8.80188291261288
 10
160.1651139845198
 20
479.4056933135232
 30
0.0
 10
160.1681324090357
 20
479.3999507383525
 30
0.0
 10
160.1711408454735
 20
479.3941998473805
 30
0.0
 10
160.1827780304469
 20
479.3718569566349
 30
0.0
 10
160.1912896385709
 20
479.3552995920718
 30
0.0
 10
160.2039252770698
 20
479.3303919140753
 30
0.0
 10
160.2080931612969
 20
479.3221207300294
 30
0.0
 10
160.2143234792809
 20
479.3096732726332
 30
0.0
 10
160.2163854496229
 20
479.3055395379047
 30
0.0
 10
160.2184537044949
 20
479.3013794873251
 30
0.0
 10
160.2184586228638
 20
479.3013695945161
 30
0.0
 10
160.2184635411796
 20
479.3013597017236
 30
0.0
  0
SPLINE
  5
D5
330
1F
100
AcDbEntity
  8
0
  6
Continuous
 62
     8
370
    18
100
AcDbSpline
210
0.0
220
0.0
230
1.0
 70
     8
 71
     3
 72
    18
 73
    14
 74
     0
 42
0.00000001
 43
0.00000001
 40
8.801882912619167
 40
8.801882912619167
 40
8.801882912619167
 40
8.801882912619167
 40
8.8095006011305
 40
8.8095006011305
 40
8.818642851095431
 40
8.818642851095431
 40
8.83692735102529
 40
8.83692735102529
 40
8.91006535074473
 40
8.91006535074473
 40
8.94663435060446
 40
8.94663435060446
 40
8.957880404178454
 40
8.957880404178454
 40
8.957880404178454
 40
8.957880404178454
 10
160.1081875030375
 20
479.5108801693431
 30
0.0
 10
160.1091322967858
 20
479.5091848868415
 30
0.0
 10
160.1100773728904
 20
479.5074869630371
 30
0.0
 10
160.1121430278919
 20
479.5037694610652
 30
0.0
 10
160.1132806531118
 20
479.5017170121183
 30
0.0
 10
160.1166743681328
 20
479.4955859434714
 30
0.0
 10
160.1189244637748
 20
479.4915071445315
 30
0.0
 10
160.1301762305889
 20
479.4710427893142
 30
0.0
 10
160.1390881069609
 20
479.4546146245385
 30
0.0
 10
160.1523277369219
 20
479.4298747728284
 30
0.0
 10
160.1567168969528
 20
479.4216167329711
 30
0.0
 10
160.1624310181813
 20
479.4107922890543
 30
0.0
 10
160.1637734863212
 20
479.4082436213515
 30
0.0
 10
160.1651139845176
 20
479.4056933135274
 30
0.0
  0
SPLINE
  5
D6
330
1F
100
AcDbEntity
  8
0
  6
Continuous
 62
     8
370
    18
100
AcDbSpline
210
0.0
220
0.0
230
1.0
 70
     8
 71
     3
 72
    18
 73
    14
 74
     0
 42
0.00000001
 43
0.00000001
 40
8.957880404168616
 40
8.957880404168616
 40
8.957880404168616
 40
8.957880404168616
 40
8.963411976457529
 40
8.963411976457529
 40
8.972554226422458
 40
8.972554226422458
 40
9.009123226282188
 40
9.009123226282188
 40
9.082261226001629
 40
9.082261226001629
 40
9.118830225861348
 40
9.118830225861348
 40
9.120354787324793
 40
9.120354787324793
 40
9.120354787324793
 40
9.120354787324793
 10
160.0462854958024
 20
479.6189378574441
 30
0.0
 10
160.0470083842656
 20
479.6177072724188
 30
0.0
 10
160.0477305120362
 20
479.6164771866868
 30
0.0
 10
160.0496338879958
 20
479.6132366996942
 30
0.0
 10
160.0508223286209
 20
479.6112107311991
 30
0.0
 10
160.0567404771139
 20
479.6011060529336
 30
0.0
 10
160.0614533769028
 20
479.5930107698014
 30
0.0
 10
160.0755099965939
 20
479.5687191072976
 30
0.0
 10
160.0847811204418
 20
479.5525007838026
 30
0.0
 10
160.0985346097989
 20
479.5281413291052
 30
0.0
 10
160.1030866027309
 20
479.5200287148489
 30
0.0
 10
160.1078093429046
 20
479.51155863221
 30
0.0
 10
160.1079984173182
 20
479.5112194536703
 30
0.0
 10
160.1081875030411
 20
479.5108801693365
 30
0.0
  0
SPLINE
  5
D7
330
1F
100
AcDbEntity
  8
0
  6
Continuous
 62
     8
370
    18
100
AcDbSpline
210
0.0
220
0.0
230
1.0
 70
     8
 71
     3
 72
    22
 73
    18
 74
     0
 42
0.00000001
 43
0.00000001
 40
9.12035478733263
 40
9.12035478733263
 40
9.12035478733263
 40
9.12035478733263
 40
9.156923787192351
 40
9.156923787192351
 40
9.17520828712221
 40
9.17520828712221
 40
9.19349278705207
 40
9.19349278705207
 40
9.23006178691179
 40
9.23006178691179
 40
9.26663078677152
 40
9.26663078677152
 40
9.33976878649096
 40
9.33976878649096
 40
9.358053286420821
 40
9.358053286420821
 40
9.361663964089
 40
9.361663964089
 40
9.361663964089
 40
9.361663964089
 10
159.9456088950688
 20
479.7860998221498
 30
0.0
 10
159.9511127947829
 20
479.7770580188161
 30
0.0
 10
159.9565636299829
 20
479.7680755400635
 30
0.0
 10
159.9646376559328
 20
479.7547752211492
 30
0.0
 10
159.9673123497799
 20
479.7503698513626
 30
0.0
 10
159.9726030837849
 20
479.741662428172
 30
0.0
 10
159.9752229156139
 20
479.7373557869643
 30
0.0
 10
159.9830460510088
 20
479.7244842171253
 30
0.0
 10
159.9881714514698
 20
479.7160445270898
 30
0.0
 10
159.9983460210908
 20
479.6992470270177
 30
0.0
 10
160.0033719599658
 20
479.6909242128702
 30
0.0
 10
160.0183100801838
 20
479.6661115580764
 30
0.0
 10
160.0280601274709
 20
479.6498016995255
 30
0.0
 10
160.0400767862219
 20
479.6294835204632
 30
0.0
 10
160.0424826728508
 20
479.6254045471796
 30
0.0
 10
160.0453414554769
 20
479.6205445739532
 30
0.0
 10
160.045813637692
 20
479.6197411093345
 30
0.0
 10
160.0462854957993
 20
479.6189378574492
 30
0.0
  0
SPLINE
  5
D8
330
1F
100
AcDbEntity
  8
0
  6
Continuous
 62
     8
370
    18
100
AcDbSpline
210
0.0
220
0.0
230
1.0
 70
     8
 71
     3
 72
     9
 73
     5
 74
     0
 42
0.00000001
 43
0.00000001
 40
0.0
 40
0.0
 40
0.0
 40
0.0
 40
0.4796725236756209
 40
1.0
 40
1.0
 40
1.0
 40
1.0
 10
195.8466806294821
 20
479.6178731384169
 30
0.0
 10
195.8617074054386
 20
479.6439321541558
 30
0.0
 10
195.8930345613936
 20
479.6982588342401
 30
0.0
 10
195.9278589791374
 20
479.7576386045128
 30
0.0
 10
195.9459790805365
 20
479.7885355305235
 30
0.0
  0
SPLINE
  5
D9
330
1F
100
AcDbEntity
  8
0
  6
Continuous
 62
     8
370
    18
100
AcDbSpline
210
0.0
220
0.0
230
1.0
 70
     8
 71
     3
 72
     9
 73
     5
 74
     0
 42
0.00000001
 43
0.00000001
 40
0.0
 40
0.0
 40
0.0
 40
0.0
 40
0.9000875101033808
 40
1.0
 40
1.0
 40
1.0
 40
1.0
 10
195.7844951828406
 20
479.5065865900271
 30
0.0
 10
195.8029313951935
 20
479.5400079780308
 30
0.0
 10
195.8234140839831
 20
479.5771392431893
 30
0.0
 10
195.8445671718092
 20
479.6141730032413
 30
0.0
 10
195.8466806294829
 20
479.6178731384183
 30
0.0
  0
LWPOLYLINE
  5
DA
330
1F
100
AcDbEntity
  8
0
  6
Continuous
 62
     8
370
    18
100
AcDbPolyline
 90
        3
 70
   128
 43
0.0
 10
195.7151532315
 20
479.398541697
 10
195.7436967829
 20
479.4522579604
 10
195.772848414
 20
479.505528202
  0
LWPOLYLINE
  5
DB
330
1F
100
AcDbEntity
  8
0
  6
Continuous
 62
     8
370
    18
100
AcDbPolyline
 90
        3
 70
   128
 43
0.0
 10
195.6604915841
 20
479.2911357456
 10
195.6874256735
 20
479.3448302084
 10
195.7151532315
 20
479.398541697
  0
SPLINE
  5
DC
330
1F
100
AcDbEntity
  8
0
  6
Continuous
 62
     8
370
    18
100
AcDbSpline
210
0.0
220
0.0
230
1.0
 70
     8
 71
     3
 72
     9
 73
     5
 74
     0
 42
0.00000001
 43
0.00000001
 40
0.0
 40
0.0
 40
0.0
 40
0.0
 40
0.521592163647868
 40
1.0
 40
1.0
 40
1.0
 40
1.0
 10
195.5218429596531
 20
478.9569672732304
 30
0.0
 10
195.5464901400171
 20
479.0154604466254
 30
0.0
 10
195.593743879781
 20
479.1276039515928
 30
0.0
 10
195.6472430362752
 20
479.2382809989076
 30
0.0
 10
195.6728374519802
 20
479.2912297656474
 30
0.0
  0
LINE
  5
DD
330
1F
100
AcDbEntity
  8
0
  6
Continuous
 62
     8
370
    18
100
AcDbLine
 10
195.2279323767
 20
477.828972388
 30
0.0
 11
195.5109407024
 21
478.9581013258
 31
0.0
  0
ARC
  5
DE
330
1F
100
AcDbEntity
  8
0
  6
Continuous
 62
     8
370
    18
100
AcDbCircle
 10
195.1634663377
 20
495.4127612596
 30
0.0
 40
1.725144280448345
100
AcDbArc
 50
63.1846021029
 51
98.3440939803
  0
LINE
  5
DF
330
1F
100
AcDbEntity
  8
0
  6
Continuous
 62
     8
370
    18
100
AcDbLine
 10
194.913117397
 20
495.139758383
 30
0.0
 11
194.913117397
 21
497.1196438525
 31
0.0
  0
LINE
  5
E0
330
1F
100
AcDbEntity
  8
0
  6
Continuous
 62
     8
370
    18
100
AcDbLine
 10
160.9703585178
 20
497.1196438494
 30
0.0
 11
160.9703585178
 21
495.139758383
 31
0.0
  0
ARC
  5
E1
330
1F
100
AcDbEntity
  8
0
  6
Continuous
 62
     8
370
    18
100
AcDbCircle
 10
160.7200095772
 20
495.4127612524
 30
0.0
 40
1.72514428137597
100
AcDbArc
 50
81.6559060272
 51
116.8153978849
  0
LINE
  5
E2
330
1F
100
AcDbEntity
  8
0
  6
Continuous
 62
     8
370
    18
100
AcDbLine
 10
160.9703585171
 20
497.1196438492
 30
0.0
 11
177.9417379574
 21
497.1196438525
 31
0.0
  0
LINE
  5
E3
330
1F
100
AcDbEntity
  8
0
  6
Continuous
 62
     8
370
    18
100
AcDbLine
 10
177.9417379574
 20
497.1196438495
 30
0.0
 11
194.9131173977
 21
497.1196438478
 31
0.0
  0
LINE
  5
E4
330
1F
100
AcDbEntity
  8
0
  6
Continuous
 62
     8
370
    18
100
AcDbLine
 10
160.9703585178
 20
497.9809830228
 30
0.0
 11
160.9703585178
 21
497.1196438489
 31
0.0
  0
LINE
  5
E5
330
1F
100
AcDbEntity
  8
0
  6
Continuous
 62
     8
370
    18
100
AcDbLine
 10
194.913117397
 20
497.119643852
 30
0.0
 11
194.913117397
 21
497.9809830228
 31
0.0
  0
LINE
  5
E6
330
1F
100
AcDbEntity
  8
0
  6
Continuous
 62
     8
370
    18
100
AcDbLine
 10
177.9417379574
 20
497.1196438525
 30
0.0
 11
177.9417379574
 21
497.9809830264
 31
0.0
  0
LINE
  5
E7
330
1F
100
AcDbEntity
  8
0
  6
Continuous
 62
     8
370
    18
100
AcDbLine
 10
201.0421304691
 20
347.2103210085
 30
0.0
 11
154.8421304691
 21
347.2103210085
 31
0.0
  0
LINE
  5
E8
330
1F
100
AcDbEntity
  8
0
  6
Continuous
 62
     8
370
    18
100
AcDbLine
 10
201.0421304691
 20
343.2103210079
 30
0.0
 11
201.0421304691
 21
347.2103210085
 31
0.0
  0
LINE
  5
E9
330
1F
100
AcDbEntity
  8
0
  6
Continuous
 62
     8
370
    18
100
AcDbLine
 10
154.8421304691
 20
347.2103210085
 30
0.0
 11
154.8421304691
 21
343.2103210079
 31
0.0
  0
LINE
  5
EA
330
1F
100
AcDbEntity
  8
0
  6
Continuous
 62
     8
370
    18
100
AcDbLine
 10
201.0421304691
 20
348.2103210085
 30
0.0
 11
201.0421304691
 21
347.2103210085
 31
0.0
  0
LINE
  5
EB
330
1F
100
AcDbEntity
  8
0
  6
Continuous
 62
     8
370
    18
100
AcDbLine
 10
154.8421304691
 20
348.2103210085
 30
0.0
 11
154.8421304691
 21
347.2103210085
 31
0.0
  0
LINE
  5
EC
330
1F
100
AcDbEntity
  8
0
  6
Continuous
 62
     8
370
    18
100
AcDbLine
 10
202.0421304691
 20
347.2103210085
 30
0.0
 11
201.0421304691
 21
347.2103210085
 31
0.0
  0
LINE
  5
ED
330
1F
100
AcDbEntity
  8
0
  6
Continuous
 62
     8
370
    18
100
AcDbLine
 10
153.8421304691
 20
347.2103210085
 30
0.0
 11
154.8421304691
 21
347.2103210085
 31
0.0
  0
LINE
  5
EE
330
1F
100
AcDbEntity
  8
0
  6
Continuous
 62
     8
370
    18
100
AcDbLine
 10
154.9421353499
 20
348.2103210085
 30
0.0
 11
156.7802805553
 21
348.5609353925
 31
0.0
  0
LINE
  5
EF
330
1F
100
AcDbEntity
  8
0
  6
Continuous
 62
     8
370
    18
100
AcDbLine
 10
159.9421354436
 20
353.2103211818
 30
0.0
 11
159.9421354436
 21
364.2103211443
 31
0.0
  0
LINE
  5
F0
330
1F
100
AcDbEntity
  8
0
  6
Continuous
 62
     8
370
    18
100
AcDbLine
 10
159.9421349738
 20
353.2103211818
 30
0.0
 11
159.9421354436
 21
353.2103211818
 31
0.0
  0
LINE
  5
F1
330
1F
100
AcDbEntity
  8
0
  6
Continuous
 62
     7
370
    25
100
AcDbLine
 10
159.9589398869
 20
266.6418912368
 30
0.0
 11
159.9442317503
 21
265.8569657053
 31
0.0
  0
SPLINE
  5
F2
330
1F
100
AcDbEntity
  8
0
  6
Continuous
 62
     7
370
    25
100
AcDbSpline
210
0.0
220
0.0
230
1.0
 70
     8
 71
     3
 72
    13
 73
     9
 74
     0
 42
0.00000001
 43
0.00000001
 40
0.0
 40
0.0
 40
0.0
 40
0.0
 40
0.1819688671826261
 40
0.3649168341721277
 40
0.5441416619674264
 40
0.7177721741981377
 40
0.8929497497647871
 40
1.0
 40
1.0
 40
1.0
 40
1.0
 10
159.9756897518045
 20
166.285876831075
 30
0.0
 10
159.9709932685957
 20
166.2175638659814
 30
0.0
 10
159.9615750323291
 20
166.08057037176
 30
0.0
 10
159.9955394427841
 20
165.8696043159475
 30
0.0
 10
160.0626033994151
 20
165.6710485240247
 30
0.0
 10
160.1640053163649
 20
165.4936546074917
 30
0.0
 10
160.2730864584286
 20
165.356948947441
 30
0.0
 10
160.3573353575673
 20
165.2939957763564
 30
0.0
 10
160.3892913339464
 20
165.2701173628847
 30
0.0
  0
SPLINE
  5
F3
330
1F
100
AcDbEntity
  8
0
  6
Continuous
 62
     7
370
    25
100
AcDbSpline
210
0.0
220
0.0
230
1.0
 70
     8
 71
     3
 72
    13
 73
     9
 74
     0
 42
0.00000001
 43
0.00000001
 40
0.0
 40
0.0
 40
0.0
 40
0.0
 40
0.1091872211126007
 40
0.2839573644839203
 40
0.4571773531573972
 40
0.6359719879348001
 40
0.818475897614947
 40
1.0
 40
1.0
 40
1.0
 40
1.0
 10
195.4921663271811
 20
165.2684827446252
 30
0.0
 10
195.5248475743194
 20
165.2928824576491
 30
0.0
 10
195.6098399453213
 20
165.3563374859375
 30
0.0
 10
195.7195557708336
 20
165.4936788322775
 30
0.0
 10
195.8209298574255
 20
165.6710947335074
 30
0.0
 10
195.8879886140093
 20
165.8696286298131
 30
0.0
 10
195.9219417329683
 20
166.0805728331269
 30
0.0
 10
195.9125205878067
 20
166.2175490578709
 30
0.0
 10
195.9078226940671
 20
166.2858528296156
 30
0.0
  0
LINE
  5
F4
330
1F
100
AcDbEntity
  8
0
  6
Continuous
 62
     7
370
    25
100
AcDbLine
 10
195.9392441646
 20
265.8569657055
 30
0.0
 11
195.9245360279
 21
266.6418912368
 31
0.0
  0
ARC
  5
F5
330
1F
100
AcDbEntity
  8
0
  6
Continuous
 62
     7
370
    18
100
AcDbCircle
 10
160.7132147469
 20
330.9290979921
 30
0.0
 40
64.29108665959438
100
AcDbArc
 50
269.3124744848
 51
270.2291653905
  0
SPLINE
  5
F6
330
1F
100
AcDbEntity
  8
0
  6
Continuous
 62
     7
370
    18
100
AcDbSpline
210
0.0
220
0.0
230
1.0
 70
     8
 71
     3
 72
    23
 73
    19
 74
     0
 42
0.00000001
 43
0.00000001
 40
0.0
 40
0.0
 40
0.0
 40
0.0
 40
1.736884773864148
 40
3.473769547728295
 40
5.210654321592443
 40
6.947539095456591
 40
8.684423869320739
 40
10.42130864318489
 40
12.15819341704903
 40
13.89507819091318
 40
15.63196296477733
 40
17.36884773864148
 40
19.10573251250563
 40
20.84261728636977
 40
52.39352589075726
 40
83.94443449514475
 40
92.75701556081138
 40
101.569596626478
 40
101.569596626478
 40
101.569596626478
 40
101.569596626478
 10
160.9703235902716
 20
266.6385255809334
 30
0.0
 10
160.9703234383043
 20
266.0673141017346
 30
0.0
 10
160.9703231101606
 20
264.9244982847656
 30
0.0
 10
160.9703225824578
 20
263.2126186306748
 30
0.0
 10
160.9703220564328
 20
261.5001365248983
 30
0.0
 10
160.9703215692283
 20
259.7878669403623
 30
0.0
 10
160.9703211580039
 20
258.0756116865231
 30
0.0
 10
160.970320859905
 20
256.3634582264672
 30
0.0
 10
160.9703207120894
 20
254.6513604140439
 30
0.0
 10
160.9703207517062
 20
252.9395168763596
 30
0.0
 10
160.9703210159126
 20
251.2272766980512
 30
0.0
 10
160.970321541855
 20
249.5149662791984
 30
0.0
 10
160.9703223666868
 20
247.8026713988624
 30
0.0
 10
160.9703301698156
 20
236.2946689196098
 30
0.0
 10
160.9703891154079
 20
214.8890127535908
 30
0.0
 10
160.970417824883
 20
191.2305776434495
 30
0.0
 10
160.9703644538065
 20
174.9948434638938
 30
0.0
 10
160.9703378111726
 20
169.1776323545509
 30
0.0
 10
160.9703235891877
 20
166.2686651539912
 30
0.0
  0
SPLINE
  5
F7
330
1F
100
AcDbEntity
  8
0
  6
Continuous
 62
     7
370
    18
100
AcDbSpline
210
0.0
220
0.0
230
1.0
 70
     8
 71
     3
 72
    10
 73
     6
 74
     0
 42
0.00000001
 43
0.00000001
 40
0.0
 40
0.0
 40
0.0
 40
0.0
 40
0.5
 40
0.5
 40
1.0
 40
1.0
 40
1.0
 40
1.0
 10
160.3097643138174
 20
166.2296134779911
 30
0.0
 10
160.4068650878437
 20
166.2428424389699
 30
0.0
 10
160.5183595056183
 20
166.2529255797178
 30
0.0
 10
160.7461448391551
 20
166.2658168275329
 30
0.0
 10
160.8620216678278
 20
166.2686651540427
 30
0.0
 10
160.9703585159776
 20
166.2686651539912
 30
0.0
  0
SPLINE
  5
F8
330
1F
100
AcDbEntity
  8
0
  6
Continuous
 62
     7
370
    18
100
AcDbSpline
210
0.0
220
0.0
230
1.0
 70
     8
 71
     3
 72
     8
 73
     4
 74
     0
 42
0.00000001
 43
0.00000001
 40
0.0
 40
0.0
 40
0.0
 40
0.0
 40
1.0
 40
1.0
 40
1.0
 40
1.0
 10
159.9417669702133
 20
266.6426399142036
 30
0.0
 10
160.0466716902077
 20
233.1652123861961
 30
0.0
 10
160.1663304069614
 20
199.6926497220842
 30
0.0
 10
160.3097643138174
 20
166.2296134779911
 30
0.0
  0
LINE
  5
F9
330
1F
100
AcDbEntity
  8
0
  6
Continuous
 62
     7
370
    18
100
AcDbLine
 10
177.9417379574
 20
166.2687135224
 30
0.0
 11
194.9130824702
 21
166.2687135219
 31
0.0
  0
LINE
  5
FA
330
1F
100
AcDbEntity
  8
0
  6
Continuous
 62
     7
370
    18
100
AcDbLine
 10
160.9703235892
 20
166.2687135219
 30
0.0
 11
177.9417379574
 21
166.2687135224
 31
0.0
  0
LINE
  5
FB
330
1F
100
AcDbEntity
  8
0
  6
Continuous
 62
     7
370
    18
100
AcDbLine
 10
177.9417379575
 20
266.6385255809
 30
0.0
 11
160.9703235903
 21
266.6385255809
 31
0.0
  0
LINE
  5
FC
330
1F
100
AcDbEntity
  8
0
  6
Continuous
 62
     7
370
    18
100
AcDbLine
 10
194.9130824705
 20
266.6385255809
 30
0.0
 11
177.9417379575
 21
266.6385255809
 31
0.0
  0
LINE
  5
FD
330
1F
100
AcDbEntity
  8
0
  6
Continuous
 62
     7
370
    18
100
AcDbLine
 10
194.9130824702
 20
166.268665154
 30
0.0
 11
194.9130824705
 21
266.6385255809
 31
0.0
  0
SPLINE
  5
FE
330
1F
100
AcDbEntity
  8
0
  6
Continuous
 62
     7
370
    25
100
AcDbSpline
210
0.0
220
0.0
230
1.0
 70
     8
 71
     3
 72
     9
 73
     5
 74
     0
 42
0.00000001
 43
0.00000001
 40
0.0
 40
0.0
 40
0.0
 40
0.0
 40
0.9129139648748541
 40
1.0
 40
1.0
 40
1.0
 40
1.0
 10
159.9417669702135
 20
166.1014127852575
 30
0.0
 10
159.9423148104386
 20
166.1128804632681
 30
0.0
 10
159.9429149110464
 20
166.1254420829298
 30
0.0
 10
159.9669154028423
 20
166.1372070186908
 30
0.0
 10
159.9690055105139
 20
166.1382315802998
 30
0.0
  0
SPLINE
  5
FF
330
1F
100
AcDbEntity
  8
0
  6
Continuous
 62
     7
370
    18
100
AcDbSpline
210
0.0
220
0.0
230
1.0
 70
     8
 71
     3
 72
    16
 73
    12
 74
     0
 42
0.00000001
 43
0.00000001
 40
0.0
 40
0.0
 40
0.0
 40
0.0
 40
0.1445578844925662
 40
0.282018332661735
 40
0.4115521941844035
 40
0.5325416620284497
 40
0.6445656509225068
 40
0.7473756175406182
 40
0.8408661968056939
 40
0.9250443774193391
 40
1.0
 40
1.0
 40
1.0
 40
1.0
 10
195.5738580550716
 20
166.2296418894227
 30
0.0
 10
195.5467111236967
 20
166.2331483045845
 30
0.0
 10
195.4937501084598
 20
166.2399889785544
 30
0.0
 10
195.4093097346539
 20
166.248471178685
 30
0.0
 10
195.3259766626122
 20
166.2552950896417
 30
0.0
 10
195.2449822443606
 20
166.2604582038383
 30
0.0
 10
195.1678936192724
 20
166.2641446140279
 30
0.0
 10
195.095758040707
 20
166.2665676335538
 30
0.0
 10
195.0293359096211
 20
166.2679646356165
 30
0.0
 10
194.9690970180155
 20
166.268627270135
 30
0.0
 10
194.9310421179799
 20
166.2686859042832
 30
0.0
 10
194.913117398862
 20
166.268713522294
 30
0.0
  0
LINE
  5
100
330
1F
100
AcDbEntity
  8
0
  6
Continuous
 62
     7
370
    18
100
AcDbLine
 10
195.9397656463
 20
266.112384829
 30
0.0
 11
195.573711601
 21
166.229613478
 31
0.0
  0
SPLINE
  5
101
330
1F
100
AcDbEntity
  8
0
  6
Continuous
 62
     7
370
    18
100
AcDbSpline
210
0.0
220
0.0
230
1.0
 70
     8
 71
     3
 72
    20
 73
    16
 74
     0
 42
0.00000001
 43
0.00000001
 40
0.0
 40
0.0
 40
0.0
 40
0.0
 40
0.2499999999999989
 40
0.2499999999999989
 40
0.4999999999999978
 40
0.4999999999999978
 40
0.7499999999999967
 40
0.7499999999999967
 40
0.8750000000000008
 40
0.8750000000000008
 40
0.9375000000000292
 40
0.9375000000000292
 40
0.9687500000000147
 40
0.9687500000000147
 40
1.0
 40
1.0
 40
1.0
 40
1.0
 10
194.9131173969988
 20
266.6385255809346
 30
0.0
 10
195.0343380731939
 20
266.6385255809406
 30
0.0
 10
195.1651200208489
 20
266.6386139516356
 30
0.0
 10
195.4183529858162
 20
266.6390149589214
 30
0.0
 10
195.5400189579047
 20
266.6393289544985
 30
0.0
 10
195.7408639503602
 20
266.6401323280415
 30
0.0
 10
195.8193634720857
 20
266.6406189880344
 30
0.0
 10
195.894552938247
 20
266.6413786808461
 30
0.0
 10
195.9127531486939
 20
266.6416365461364
 30
0.0
 10
195.9304289044694
 20
266.6420186132892
 30
0.0
 10
195.9347283554631
 20
266.642145202613
 30
0.0
 10
195.9389581162253
 20
266.6423327333505
 30
0.0
 10
195.9399986224966
 20
266.6423948534712
 30
0.0
 10
195.9413740254057
 20
266.642518138977
 30
0.0
 10
195.941708942763
 20
266.6425725935907
 30
0.0
 10
195.941708942763
 20
266.6426399142035
 30
0.0
  0
LINE
  5
102
330
1F
100
AcDbEntity
  8
0
  6
Continuous
 62
     7
370
    25
100
AcDbLine
 10
159.9417669721
 20
266.5269097249
 30
0.0
 11
159.9417669721
 21
166.1014127853
 31
0.0
  0
LINE
  5
103
330
1F
100
AcDbEntity
  8
0
  6
Continuous
 62
     7
370
    25
100
AcDbLine
 10
159.9417669702
 20
266.6433898591
 30
0.0
 11
159.9417669702
 21
266.6506398497
 31
0.0
  0
LINE
  5
104
330
1F
100
AcDbEntity
  8
0
  6
Continuous
 62
     7
370
    25
100
AcDbLine
 10
195.9417089428
 20
266.6426399142
 30
0.0
 11
195.9417089428
 21
266.6486448612
 31
0.0
  0
LINE
  5
105
330
1F
100
AcDbEntity
  8
0
  6
Continuous
 62
     7
370
    25
100
AcDbLine
 10
195.9417089428
 20
266.4104495905
 30
0.0
 11
195.9417089428
 21
166.1014127853
 31
0.0
  0
LINE
  5
106
330
1F
100
AcDbEntity
  8
0
  6
Continuous
 62
     7
370
    25
100
AcDbLine
 10
160.9703781105
 20
164.7600974078
 30
0.0
 11
194.9130049739
 21
164.7601246882
 31
0.0
  0
SPLINE
  5
107
330
1F
100
AcDbEntity
  8
0
  6
Continuous
 62
     7
370
    25
100
AcDbSpline
210
0.0
220
0.0
230
1.0
 70
     8
 71
     3
 72
    14
 73
    10
 74
     0
 42
0.00000001
 43
0.00000001
 40
0.0
 40
0.0
 40
0.0
 40
0.0
 40
0.25
 40
0.25
 40
0.5
 40
0.5
 40
0.75
 40
0.75
 40
1.0
 40
1.0
 40
1.0
 40
1.0
 10
194.9130049719122
 20
164.7601246943416
 30
0.0
 10
195.047669635555
 20
164.7597318076449
 30
0.0
 10
195.1822842064578
 20
164.785763000324
 30
0.0
 10
195.4311166086208
 20
164.8866916352811
 30
0.0
 10
195.545236470184
 20
164.9615490422419
 30
0.0
 10
195.7356770563419
 20
165.1487063381979
 30
0.0
 10
195.8119228011255
 20
165.2609322421343
 30
0.0
 10
195.9149692180102
 20
165.5057006181378
 30
0.0
 10
195.941729318923
 20
165.6381464226497
 30
0.0
 10
195.9417089310009
 20
165.7706405408523
 30
0.0
  0
LINE
  5
108
330
1F
100
AcDbEntity
  8
0
  6
Continuous
 62
     7
370
    25
100
AcDbLine
 10
195.9417089428
 20
166.1014611555
 30
0.0
 11
195.9417089428
 21
165.7688783262
 31
0.0
  0
SPLINE
  5
109
330
1F
100
AcDbEntity
  8
0
  6
Continuous
 62
     7
370
    25
100
AcDbSpline
210
0.0
220
0.0
230
1.0
 70
     8
 71
     3
 72
    14
 73
    10
 74
     0
 42
0.00000001
 43
0.00000001
 40
0.0
 40
0.0
 40
0.0
 40
0.0
 40
0.25
 40
0.25
 40
0.5
 40
0.5
 40
0.75
 40
0.75
 40
1.0
 40
1.0
 40
1.0
 40
1.0
 10
159.9417669884612
 20
165.7707168255376
 30
0.0
 10
159.9417429277856
 20
165.6382217105875
 30
0.0
 10
159.9684971840545
 20
165.5057741783965
 30
0.0
 10
160.0715287651547
 20
165.2609986232471
 30
0.0
 10
160.1477655311184
 20
165.148767250251
 30
0.0
 10
160.338187292174
 20
164.9615937982044
 30
0.0
 10
160.4522973268419
 20
164.8867256937769
 30
0.0
 10
160.7011120761963
 20
164.7857701957445
 30
0.0
 10
160.8357188437835
 20
164.7597228366584
 30
0.0
 10
160.9703781105488
 20
164.7600974080873
 30
0.0
  0
LINE
  5
10A
330
1F
100
AcDbEntity
  8
0
  6
Continuous
 62
     7
370
    25
100
AcDbLine
 10
159.9417669721
 20
165.7688783262
 30
0.0
 11
159.9417669721
 21
166.1014611555
 31
0.0
  0
SPLINE
  5
10B
330
1F
100
AcDbEntity
  8
0
  6
Continuous
 62
     7
370
    25
100
AcDbSpline
210
0.0
220
0.0
230
1.0
 70
     8
 71
     3
 72
    12
 73
     8
 74
     0
 42
0.00000001
 43
0.00000001
 40
0.0
 40
0.0
 40
0.0
 40
0.0
 40
0.5000000000000078
 40
0.5000000000000078
 40
0.7500000000000039
 40
0.7500000000000039
 40
1.0
 40
1.0
 40
1.0
 40
1.0
 10
160.7046454960798
 20
267.6558643011284
 30
0.0
 10
160.4942275801798
 20
267.5991741033909
 30
0.0
 10
160.3025124399304
 20
267.4741395269635
 30
0.0
 10
160.0965078155436
 20
267.2143903521979
 30
0.0
 10
160.0408315206068
 20
267.115835378017
 30
0.0
 10
159.9630207840503
 20
266.8981128588073
 30
0.0
 10
159.9417682721025
 20
266.7812731153678
 30
0.0
 10
159.9417669721167
 20
266.6600029317773
 30
0.0
  0
ELLIPSE
  5
10C
330
1F
100
AcDbEntity
  8
0
  6
Continuous
 62
     7
370
    25
100
AcDbEllipse
 10
160.9703585174
 20
266.6625706189
 30
0.0
 11
1.028591545345336
 21
-2.057674919342389E-9
 31
0.0
210
0.0
220
0.0
230
1.0
 40
0.9996126348
 41
1.570796328383827
 42
1.832086402291951
  0
LINE
  5
10D
330
1F
100
AcDbEntity
  8
0
  6
Continuous
 62
     7
370
    25
100
AcDbLine
 10
160.9703585178
 20
267.6907637237
 30
0.0
 11
194.9131173963
 21
267.6907637237
 31
0.0
  0
SPLINE
  5
10E
330
1F
100
AcDbEntity
  8
0
  6
Continuous
 62
     7
370
    25
100
AcDbSpline
210
0.0
220
0.0
230
1.0
 70
     8
 71
     3
 72
    10
 73
     6
 74
     0
 42
0.00000001
 43
0.00000001
 40
0.0
 40
0.0
 40
0.0
 40
0.0
 40
0.5
 40
0.5
 40
1.0
 40
1.0
 40
1.0
 40
1.0
 10
195.9417088080287
 20
266.660518284404
 30
0.0
 10
195.9415859800092
 20
266.9006444983418
 30
0.0
 10
195.8553512491122
 20
267.1283946432105
 30
0.0
 10
195.5804233570557
 20
267.4745910261672
 30
0.0
 10
195.3883131156931
 20
267.5994600494349
 30
0.0
 10
195.1786785742947
 20
267.655904876698
 30
0.0
  0
ELLIPSE
  5
10F
330
1F
100
AcDbEntity
  8
0
  6
Continuous
 62
     7
370
    25
100
AcDbEllipse
 10
194.9131173974
 20
266.6625706189
 30
0.0
 11
1.028591545345279
 21
2.057618075923529E-9
 31
0.0
210
0.0
220
0.0
230
1.0
 40
0.9996126348
 41
1.309659058651278
 42
1.570796325925384
  0
ARC
  5
110
330
1F
100
AcDbEntity
  8
0
  6
Continuous
 62
     7
370
    25
100
AcDbCircle
 10
160.9421748787
 20
266.6620444481
 30
0.0
 40
1.000000000287656
100
AcDbArc
 50
89.99999999
 51
179.9999999847
  0
LINE
  5
111
330
1F
100
AcDbEntity
  8
0
  6
Continuous
 62
     7
370
    25
100
AcDbLine
 10
159.9421748791
 20
108.6620444484
 30
0.0
 11
159.9421748791
 21
165.7686977003
 31
0.0
  0
LINE
  5
112
330
1F
100
AcDbEntity
  8
0
  6
Continuous
 62
     7
370
    25
100
AcDbLine
 10
195.9421770654
 20
108.6620444484
 30
0.0
 11
195.9421770654
 21
165.9849335915
 31
0.0
  0
LINE
  5
113
330
1F
100
AcDbEntity
  8
0
  6
Continuous
 62
     7
370
    25
100
AcDbLine
 10
194.9421770654
 20
107.6620444484
 30
0.0
 11
160.9421748791
 21
107.6620444484
 31
0.0
  0
SPLINE
  5
114
330
1F
100
AcDbEntity
  8
0
  6
Continuous
 62
     7
370
    25
100
AcDbSpline
210
0.0
220
0.0
230
1.0
 70
     8
 71
     3
 72
    10
 73
     6
 74
     0
 42
0.00000001
 43
0.00000001
 40
0.0
 40
0.0
 40
0.0
 40
0.0
 40
0.5
 40
0.5
 40
1.0
 40
1.0
 40
1.0
 40
1.0
 10
160.9421748790863
 20
107.6620444483871
 30
0.0
 10
160.6803754912871
 20
107.6620444483871
 30
0.0
 10
160.420188220323
 20
107.7698175447773
 30
0.0
 10
160.0499479754764
 20
108.1400577896239
 30
0.0
 10
159.9421748790863
 20
108.400245060588
 30
0.0
 10
159.9421748790863
 20
108.6620444483871
 30
0.0
  0
SPLINE
  5
115
330
1F
100
AcDbEntity
  8
0
  6
Continuous
 62
     7
370
    25
100
AcDbSpline
210
0.0
220
0.0
230
1.0
 70
     8
 71
     3
 72
    10
 73
     6
 74
     0
 42
0.00000001
 43
0.00000001
 40
0.0
 40
0.0
 40
0.0
 40
0.0
 40
0.5
 40
0.5
 40
1.0
 40
1.0
 40
1.0
 40
1.0
 10
194.9421770654683
 20
107.662044448387
 30
0.0
 10
195.2039764532504
 20
107.6620444484139
 30
0.0
 10
195.464163724187
 20
107.769817544816
 30
0.0
 10
195.8344039689904
 20
108.1400577896574
 30
0.0
 10
195.9421770653659
 20
108.400245060605
 30
0.0
 10
195.9421770653659
 20
108.662044448387
 30
0.0
  0
ARC
  5
116
330
1F
100
AcDbEntity
  8
0
  6
Continuous
 62
     7
370
    25
100
AcDbCircle
 10
154.8421304691
 20
272.7620434454
 30
0.0
 40
1.0
100
AcDbArc
 50
90.0
 51
180.0
  0
LINE
  5
117
330
1F
100
AcDbEntity
  8
0
  6
Continuous
 62
     7
370
    25
100
AcDbLine
 10
154.8421304691
 20
273.7620434454
 30
0.0
 11
201.0421304691
 21
273.7620434454
 31
0.0
  0
LINE
  5
118
330
1F
100
AcDbEntity
  8
0
  6
Continuous
 62
     7
370
    25
100
AcDbLine
 10
153.8421304691
 20
226.5620434452
 30
0.0
 11
153.8421304691
 21
272.7620434454
 31
0.0
  0
ARC
  5
119
330
1F
100
AcDbEntity
  8
0
  6
Continuous
 62
     7
370
    25
100
AcDbCircle
 10
201.0421304691
 20
272.7620434454
 30
0.0
 40
1.0
100
AcDbArc
 50
0.0
 51
90.0
  0
LINE
  5
11A
330
1F
100
AcDbEntity
  8
0
  6
Continuous
 62
     7
370
    25
100
AcDbLine
 10
201.0421304691
 20
225.5620434452
 30
0.0
 11
195.9421770654
 21
225.5620434452
 31
0.0
  0
LINE
  5
11B
330
1F
100
AcDbEntity
  8
0
  6
Continuous
 62
     7
370
    25
100
AcDbLine
 10
159.9417669721
 20
225.5620434452
 30
0.0
 11
154.8421304691
 21
225.5620434452
 31
0.0
  0
ARC
  5
11C
330
1F
100
AcDbEntity
  8
0
  6
Continuous
 62
     7
370
    25
100
AcDbCircle
 10
154.8421304691
 20
226.5620434452
 30
0.0
 40
1.0
100
AcDbArc
 50
180.0
 51
270.0
  0
LINE
  5
11D
330
1F
100
AcDbEntity
  8
0
  6
Continuous
 62
     7
370
    25
100
AcDbLine
 10
202.0421304691
 20
272.7620434454
 30
0.0
 11
202.0421304691
 21
226.5620434452
 31
0.0
  0
ARC
  5
11E
330
1F
100
AcDbEntity
  8
0
  6
Continuous
 62
     7
370
    25
100
AcDbCircle
 10
201.0421304691
 20
226.5620434452
 30
0.0
 40
1.0
100
AcDbArc
 50
270.0
 51
0.0
  0
LINE
  5
11F
330
1F
100
AcDbEntity
  8
0
  6
Continuous
 62
     8
370
    18
100
AcDbLine
 10
160.9703585178
 20
166.2687135233
 30
0.0
 11
160.9703585178
 21
165.0865585937
 31
0.0
  0
LINE
  5
120
330
1F
100
AcDbEntity
  8
0
  6
Continuous
 62
     8
370
    18
100
AcDbLine
 10
177.9417379574
 20
165.0865585912
 30
0.0
 11
177.9417379574
 21
166.268713523
 31
0.0
  0
LINE
  5
121
330
1F
100
AcDbEntity
  8
0
  6
Continuous
 62
     8
370
    18
100
AcDbLine
 10
160.9703585171
 20
165.0865585923
 30
0.0
 11
177.9417379574
 21
165.0865585912
 31
0.0
  0
SPLINE
  5
122
330
1F
100
AcDbEntity
  8
0
  6
Continuous
 62
     8
370
    18
100
AcDbSpline
210
0.0
220
0.0
230
1.0
 70
     8
 71
     3
 72
    10
 73
     6
 74
     0
 42
0.00000001
 43
0.00000001
 40
0.0
 40
0.0
 40
0.0
 40
0.0
 40
0.3024767208865317
 40
0.6484701272787396
 40
1.0
 40
1.0
 40
1.0
 40
1.0
 10
159.9690055105139
 20
166.1382315802998
 30
0.0
 10
159.9870078502393
 20
166.1488127304595
 30
0.0
 10
160.0256024881964
 20
166.1714973184528
 30
0.0
 10
160.1409607889653
 20
166.2032018507927
 30
0.0
 10
160.2531995139286
 20
166.2207631390632
 30
0.0
 10
160.3097643138174
 20
166.2296134779915
 30
0.0
  0
ARC
  5
123
330
1F
100
AcDbEntity
  8
0
  6
Continuous
 62
     8
370
    18
100
AcDbCircle
 10
160.9635595715
 20
166.1083518046
 30
0.0
 40
1.02181583332419
100
AcDbArc
 50
180.3863789842
 51
270.3812367639
  0
LINE
  5
124
330
1F
100
AcDbEntity
  8
0
  6
Continuous
 62
     8
370
    18
100
AcDbLine
 10
194.913117397
 20
165.0865585943
 30
0.0
 11
194.913117397
 21
166.2687135237
 31
0.0
  0
SPLINE
  5
125
330
1F
100
AcDbEntity
  8
0
  6
Continuous
 62
     8
370
    18
100
AcDbSpline
210
0.0
220
0.0
230
1.0
 70
     8
 71
     3
 72
    13
 73
     9
 74
     0
 42
0.00000001
 43
0.00000001
 40
0.0
 40
0.0
 40
0.0
 40
0.0
 40
0.1022359318077744
 40
0.2311188623515433
 40
0.3868899204360742
 40
0.5687097487423806
 40
0.7741023563612888
 40
1.0
 40
1.0
 40
1.0
 40
1.0
 10
195.9417088994779
 20
166.1014127852595
 30
0.0
 10
195.9409157972334
 20
166.1062614900378
 30
0.0
 10
195.9391228768262
 20
166.1172226767009
 30
0.0
 10
195.9216888001363
 20
166.1348910708737
 30
0.0
 10
195.8847116363883
 20
166.1563441012673
 30
0.0
 10
195.8182968668984
 20
166.1807088713521
 30
0.0
 10
195.7176165954311
 20
166.2069436257933
 30
0.0
 10
195.6232727137595
 20
166.221839730697
 30
0.0
 10
195.5738580550716
 20
166.2296418894227
 30
0.0
  0
ARC
  5
126
330
1F
100
AcDbEntity
  8
0
  6
Continuous
 62
     8
370
    18
100
AcDbCircle
 10
194.9199163433
 20
166.1083518056
 30
0.0
 40
1.021815833319928
100
AcDbArc
 50
269.6187632359
 51
359.6136210311
  0
LINE
  5
127
330
1F
100
AcDbEntity
  8
0
  6
Continuous
 62
     8
370
    18
100
AcDbLine
 10
177.9417379574
 20
165.0865585907
 30
0.0
 11
194.9131173977
 21
165.0865586202
 31
0.0
  0
LINE
  5
128
330
1F
100
AcDbEntity
  8
0
  6
Continuous
 62
     8
370
    18
100
AcDbLine
 10
159.9417669702
 20
266.6426399142
 30
0.0
 11
159.9417669702
 21
266.6433898591
 31
0.0
  0
LINE
  5
129
330
1F
100
AcDbEntity
  8
0
  6
Continuous
 62
     8
370
    18
100
AcDbLine
 10
160.9703585178
 20
165.0865585909
 30
0.0
 11
160.9703585178
 21
164.7602804372
 31
0.0
  0
LINE
  5
12A
330
1F
100
AcDbEntity
  8
0
  6
Continuous
 62
     8
370
    18
100
AcDbLine
 10
194.913117397
 20
164.7602804372
 30
0.0
 11
194.913117397
 21
165.0865585914
 31
0.0
  0
SPLINE
  5
12B
330
1F
100
AcDbEntity
  8
0
  6
Continuous
 62
     8
370
    18
100
AcDbSpline
210
0.0
220
0.0
230
1.0
 70
     8
 71
     3
 72
    14
 73
    10
 74
     0
 42
0.00000001
 43
0.00000001
 40
0.0
 40
0.0
 40
0.0
 40
0.0
 40
0.25
 40
0.25
 40
0.5
 40
0.5
 40
0.75
 40
0.75
 40
1.0
 40
1.0
 40
1.0
 40
1.0
 10
159.9417669732127
 20
266.6506398497386
 30
0.0
 10
159.9417604877791
 20
266.7852852194866
 30
0.0
 10
159.9685271516422
 20
266.9198788951126
 30
0.0
 10
160.0715720929721
 20
267.1686748205261
 30
0.0
 10
160.1478098217
 20
267.2827791677778
 30
0.0
 10
160.3382240673133
 20
267.4732010618084
 30
0.0
 10
160.4523256551684
 20
267.5494436765469
 30
0.0
 10
160.7011186073507
 20
267.6524997770073
 30
0.0
 10
160.8357120703122
 20
267.679272709599
 30
0.0
 10
160.9703585173751
 20
267.6792727095977
 30
0.0
  0
LINE
  5
12C
330
1F
100
AcDbEntity
  8
0
  6
Continuous
 62
     8
370
    18
100
AcDbLine
 10
160.9703585176
 20
267.6712232311
 30
0.0
 11
160.9703585174
 21
267.6792231671
 31
0.0
  0
LINE
  5
12D
330
1F
100
AcDbEntity
  8
0
  6
Continuous
 62
     8
370
    18
100
AcDbLine
 10
160.9703585178
 20
266.6385255809
 30
0.0
 11
160.9703585176
 21
267.6712232311
 31
0.0
  0
LINE
  5
12E
330
1F
100
AcDbEntity
  8
0
  6
Continuous
 62
     8
370
    18
100
AcDbLine
 10
177.9417379575
 20
267.6712232311
 30
0.0
 11
160.9703585176
 21
267.6712232311
 31
0.0
  0
LINE
  5
12F
330
1F
100
AcDbEntity
  8
0
  6
Continuous
 62
     8
370
    18
100
AcDbLine
 10
177.9417379575
 20
266.6385255809
 30
0.0
 11
177.9417379575
 21
267.6712232311
 31
0.0
  0
LINE
  5
130
330
1F
100
AcDbEntity
  8
0
  6
Continuous
 62
     8
370
    18
100
AcDbLine
 10
194.9131173975
 20
266.6385255809
 30
0.0
 11
194.9131173975
 21
267.6712232311
 31
0.0
  0
LINE
  5
131
330
1F
100
AcDbEntity
  8
0
  6
Continuous
 62
     8
370
    18
100
AcDbLine
 10
194.9131173975
 20
267.6712232311
 30
0.0
 11
194.9131173975
 21
267.6792231671
 31
0.0
  0
SPLINE
  5
132
330
1F
100
AcDbEntity
  8
0
  6
Continuous
 62
     8
370
    18
100
AcDbSpline
210
0.0
220
0.0
230
1.0
 70
     8
 71
     3
 72
    10
 73
     6
 74
     0
 42
0.00000001
 43
0.00000001
 40
0.0
 40
0.0
 40
0.0
 40
0.0
 40
0.5
 40
0.5
 40
1.0
 40
1.0
 40
1.0
 40
1.0
 10
195.941708942763
 20
266.6506398497384
 30
0.0
 10
195.943370114901
 20
266.9205299606039
 30
0.0
 10
195.8308330005564
 20
267.1876021406432
 30
0.0
 10
195.4505974651892
 20
267.5685448633531
 30
0.0
 10
195.1824944963023
 20
267.6794252597709
 30
0.0
 10
194.9131173974651
 20
267.6792231671013
 30
0.0
  0
LINE
  5
133
330
1F
100
AcDbEntity
  8
0
  6
Continuous
 62
     8
370
    18
100
AcDbLine
 10
177.9417379575
 20
267.6712232311
 30
0.0
 11
194.9131173975
 21
267.6712232311
 31
0.0
  0
LINE
  5
134
330
1F
100
AcDbEntity
  8
0
  6
Continuous
 62
     8
370
    18
100
AcDbLine
 10
177.9417379574
 20
267.6712232311
 30
0.0
 11
177.9417379574
 21
267.6792231671
 31
0.0
  0
LINE
  5
135
330
1F
100
AcDbEntity
  8
0
  6
Continuous
 62
     8
370
    18
100
AcDbLine
 10
177.9417379574
 20
267.6792715363
 30
0.0
 11
194.9131173966
 21
267.6792715363
 31
0.0
  0
LINE
  5
136
330
1F
100
AcDbEntity
  8
0
  6
Continuous
 62
     8
370
    18
100
AcDbLine
 10
177.9417379574
 20
267.6792231671
 30
0.0
 11
160.9703585174
 21
267.6792231671
 31
0.0
  0
LINE
  5
137
330
1F
100
AcDbEntity
  8
0
  6
Continuous
 62
     8
370
    18
100
AcDbLine
 10
160.9703585178
 20
267.6907637237
 30
0.0
 11
160.9703585189
 21
267.6792715369
 31
0.0
  0
LINE
  5
138
330
1F
100
AcDbEntity
  8
0
  6
Continuous
 62
     8
370
    18
100
AcDbLine
 10
194.9131173966
 20
267.6792715372
 30
0.0
 11
194.9131173963
 21
267.6907637237
 31
0.0
  0
LINE
  5
139
330
1F
100
AcDbEntity
  8
0
  6
Continuous
 62
     8
370
    18
100
AcDbLine
 10
194.9421770653
 20
108.6620444484
 30
0.0
 11
194.9421770653
 21
164.7601247116
 31
0.0
  0
LINE
  5
13A
330
1F
100
AcDbEntity
  8
0
  6
Continuous
 62
     8
370
    18
100
AcDbLine
 10
160.9421748789
 20
108.6620444484
 30
0.0
 11
194.9421770653
 21
108.6620444484
 31
0.0
  0
LINE
  5
13B
330
1F
100
AcDbEntity
  8
0
  6
Continuous
 62
     8
370
    18
100
AcDbLine
 10
160.9421748789
 20
108.6620444484
 30
0.0
 11
160.9421748789
 21
164.7600973851
 31
0.0
  0
SPLINE
  5
13C
330
1F
100
AcDbEntity
  8
0
  6
Continuous
 62
     8
370
    18
100
AcDbSpline
210
0.0
220
0.0
230
1.0
 70
    24
 71
     3
 72
    14
 73
    10
 74
     0
 42
0.00000001
 43
0.00000001
 40
0.0
 40
0.0
 40
0.0
 40
0.0
 40
0.25
 40
0.25
 40
0.5
 40
0.5
 40
0.75
 40
0.75
 40
1.0
 40
1.0
 40
1.0
 40
1.0
 10
159.9421748788096
 20
108.6620444483871
 30
0.0
 10
159.942174878637
 20
108.6620444484174
 30
0.0
 10
159.9636536172966
 20
108.6620444484446
 30
0.0
 10
160.0611195373567
 20
108.6620444484828
 30
0.0
 10
160.1374370241396
 20
108.6620444484936
 30
0.0
 10
160.3326991700763
 20
108.6620444484936
 30
0.0
 10
160.4509832184684
 20
108.6620444484828
 30
0.0
 10
160.6971771194384
 20
108.6620444484446
 30
0.0
 10
160.8243237485281
 20
108.6620444484174
 30
0.0
 10
160.9421748788095
 20
108.6620444483871
 30
0.0
  0
SPLINE
  5
13D
330
1F
100
AcDbEntity
  8
0
  6
Continuous
 62
     8
370
    18
100
AcDbSpline
210
0.0
220
0.0
230
1.0
 70
     8
 71
     3
 72
    14
 73
    10
 74
     0
 42
0.00000001
 43
0.00000001
 40
0.0
 40
0.0
 40
0.0
 40
0.0
 40
0.25
 40
0.25
 40
0.5
 40
0.5
 40
0.75
 40
0.75
 40
1.0
 40
1.0
 40
1.0
 40
1.0
 10
194.9421770650893
 20
108.662044448387
 30
0.0
 10
195.0600281952568
 20
108.6620444483191
 30
0.0
 10
195.1871748241755
 20
108.6620444482582
 30
0.0
 10
195.4333687248084
 20
108.6620444481725
 30
0.0
 10
195.5516527730412
 20
108.6620444481483
 30
0.0
 10
195.7469149188557
 20
108.6620444481483
 30
0.0
 10
195.8232324056818
 20
108.6620444481725
 30
0.0
 10
195.9206983260506
 20
108.6620444482582
 30
0.0
 10
195.9421770649701
 20
108.6620444483191
 30
0.0
 10
195.9421770650892
 20
108.662044448387
 30
0.0
  0
SPLINE
  5
13E
330
1F
100
AcDbEntity
  8
0
  6
Continuous
 62
     8
370
    18
100
AcDbSpline
210
0.0
220
0.0
230
1.0
 70
    24
 71
     3
 72
    10
 73
     6
 74
     0
 42
0.00000001
 43
0.00000001
 40
0.0
 40
0.0
 40
0.0
 40
0.0
 40
0.5
 40
0.5
 40
1.0
 40
1.0
 40
1.0
 40
1.0
 10
160.9421748790863
 20
107.6620444483871
 30
0.0
 10
160.9421748790302
 20
107.662044448388
 30
0.0
 10
160.9421748789745
 20
107.7698175447787
 30
0.0
 10
160.9421748788952
 20
108.140057789625
 30
0.0
 10
160.9421748788721
 20
108.4002450605886
 30
0.0
 10
160.9421748788721
 20
108.6620444483871
 30
0.0
  0
SPLINE
  5
13F
330
1F
100
AcDbEntity
  8
0
  6
Continuous
 62
     8
370
    18
100
AcDbSpline
210
0.0
220
0.0
230
1.0
 70
    24
 71
     3
 72
    10
 73
     6
 74
     0
 42
0.00000001
 43
0.00000001
 40
0.0
 40
0.0
 40
0.0
 40
0.0
 40
0.5
 40
0.5
 40
1.0
 40
1.0
 40
1.0
 40
1.0
 10
194.9421770652634
 20
107.662044448387
 30
0.0
 10
194.9421770652634
 20
107.662044448387
 30
0.0
 10
194.9421770652634
 20
107.7698175447772
 30
0.0
 10
194.9421770652634
 20
108.1400577896238
 30
0.0
 10
194.9421770652634
 20
108.4002450605879
 30
0.0
 10
194.9421770652634
 20
108.662044448387
 30
0.0
  0
SPLINE
  5
140
330
1F
100
AcDbEntity
  8
0
  6
Continuous
 62
     8
370
    18
100
AcDbSpline
210
0.0
220
0.0
230
1.0
 70
     8
 71
     3
 72
    33
 73
    29
 74
     0
 42
0.00000001
 43
0.00000001
 40
0.0
 40
0.0
 40
0.0
 40
0.0
 40
0.0190878135364
 40
0.0381795741833243
 40
0.0572924407854303
 40
0.0868746858683158
 40
0.1165117299857782
 40
0.1774738038076334
 40
0.239983308589099
 40
0.3037884199867963
 40
0.368600991572039
 40
0.4059787639266889
 40
0.4341242959769488
 40
0.4717449285430055
 40
0.4999981980460815
 40
0.53766201613568
 40
0.5658720918559889
 40
0.6033780455041944
 40
0.631395372006781
 40
0.668547415862245
 40
0.6962285011515315
 40
0.760033612549129
 40
0.8225431173304684
 40
0.8835051911521787
 40
0.9427084540340297
 40
0.9716034496708349
 40
0.9857879152615971
 40
1.0
 40
1.0
 40
1.0
 40
1.0
 10
154.9421350402378
 20
266.6620441114867
 30
0.0
 10
154.9426539306094
 20
266.7219975372666
 30
0.0
 10
154.9436918186521
 20
266.841916786412
 30
0.0
 10
154.9520937675382
 20
267.0217070599872
 30
0.0
 10
154.967940977532
 20
267.2340433655418
 30
0.0
 10
154.9957776891636
 20
267.4785939161484
 30
0.0
 10
155.0558159767025
 20
267.8513631793206
 30
0.0
 10
155.166031433989
 20
268.3202721586281
 30
0.0
 10
155.355744109309
 20
268.8780206467333
 30
0.0
 10
155.6048001057006
 20
269.4253025259929
 30
0.0
 10
155.8680096577145
 20
269.876463215439
 30
0.0
 10
156.1021033515352
 20
270.2125475037271
 30
0.0
 10
156.3007417387031
 20
270.4685796155117
 30
0.0
 10
156.4936830274615
 20
270.6923806120211
 30
0.0
 10
156.7185328056234
 20
270.9274359343065
 30
0.0
 10
156.9338106794289
 20
271.1303410709553
 30
0.0
 10
157.1813623448355
 20
271.3405876219844
 30
0.0
 10
157.4154377706099
 20
271.5194515421547
 30
0.0
 10
157.6814784746556
 20
271.701861872451
 30
0.0
 10
157.9302822066181
 20
271.854352556997
 30
0.0
 10
158.2851317119817
 20
272.0477222498737
 30
0.0
 10
158.7261748923397
 20
272.2484458942949
 30
0.0
 10
159.2839212132006
 20
272.4381517018643
 30
0.0
 10
159.843288930567
 20
272.5696151113884
 30
0.0
 10
160.3078288909469
 20
272.6334834866673
 30
0.0
 10
160.628450124474
 20
272.65494960759
 30
0.0
 10
160.8083052839544
 20
272.6611825631749
 30
0.0
 10
160.8974954655424
 20
272.6617560735509
 30
0.0
 10
160.9421339305626
 20
272.6620431076436
 30
0.0
  0
SPLINE
  5
141
330
1F
100
AcDbEntity
  8
0
  6
Continuous
 62
     8
370
    18
100
AcDbSpline
210
0.0
220
0.0
230
1.0
 70
     8
 71
     3
 72
    18
 73
    14
 74
     0
 42
0.00000001
 43
0.00000001
 40
0.0
 40
0.0
 40
0.0
 40
0.0
 40
0.2500000000000016
 40
0.2500000000000016
 40
0.3750000000000012
 40
0.3750000000000012
 40
0.500000000000001
 40
0.500000000000001
 40
0.6250000000000008
 40
0.6250000000000008
 40
0.7500000000000004
 40
0.7500000000000004
 40
1.0
 40
1.0
 40
1.0
 40
1.0
 10
160.9421339466866
 20
267.6620431038592
 30
0.0
 10
160.9421339471214
 20
267.6620430905103
 30
0.0
 10
160.9421339471639
 20
267.7694367726947
 30
0.0
 10
160.9421339463934
 20
268.134933961381
 30
0.0
 10
160.9421339459996
 20
268.2901847354995
 30
0.0
 10
160.9421339449368
 20
268.6639462747102
 30
0.0
 10
160.9421339442679
 20
268.8824314699763
 30
0.0
 10
160.9421339426892
 20
269.3705868351901
 30
0.0
 10
160.9421339417797
 20
269.6401471094127
 30
0.0
 10
160.9421339397847
 20
270.2118414821803
 30
0.0
 10
160.9421339386998
 20
270.5138271450387
 30
0.0
 10
160.9421339353024
 20
271.4370542861918
 30
0.0
 10
160.9421339328565
 20
272.0727874433125
 30
0.0
 10
160.942133930516
 20
272.6620431076436
 30
0.0
  0
SPLINE
  5
142
330
1F
100
AcDbEntity
  8
0
  6
Continuous
 62
     8
370
    18
100
AcDbSpline
210
0.0
220
0.0
230
1.0
 70
    24
 71
     3
 72
    18
 73
    14
 74
     0
 42
0.00000001
 43
0.00000001
 40
0.0
 40
0.0
 40
0.0
 40
0.0
 40
0.2500000000000006
 40
0.2500000000000006
 40
0.3750000000000001
 40
0.3750000000000001
 40
0.4999999999999996
 40
0.4999999999999996
 40
0.6249999999999991
 40
0.6249999999999991
 40
0.7499999999999986
 40
0.7499999999999986
 40
1.0
 40
1.0
 40
1.0
 40
1.0
 10
159.9421350402377
 20
266.6620442146939
 30
0.0
 10
159.9421350562443
 20
266.6620442146937
 30
0.0
 10
159.8347413764488
 20
266.6620442124766
 30
0.0
 10
159.4692441886578
 20
266.662044204932
 30
0.0
 10
159.3139934144051
 20
266.6620442017273
 30
0.0
 10
158.9402318741164
 20
266.6620441940122
 30
0.0
 10
158.7217466779078
 20
266.6620441895024
 30
0.0
 10
158.2335913104723
 20
266.6620441794261
 30
0.0
 10
157.964031034979
 20
266.6620441738619
 30
0.0
 10
157.3923366600852
 20
266.6620441620615
 30
0.0
 10
157.0903509963815
 20
266.6620441558282
 30
0.0
 10
156.1671238544036
 20
266.6620441367717
 30
0.0
 10
155.5313906992291
 20
266.6620441236495
 30
0.0
 10
154.942135040237
 20
266.6620441114867
 30
0.0
  0
SPLINE
  5
143
330
1F
100
AcDbEntity
  8
0
  6
Continuous
 62
     8
370
    18
100
AcDbSpline
210
0.0
220
0.0
230
1.0
 70
    24
 71
     3
 72
    18
 73
    14
 74
     0
 42
0.00000001
 43
0.00000001
 40
0.0
 40
0.0
 40
0.0
 40
0.0
 40
0.2500000000000003
 40
0.2500000000000003
 40
0.3750000000000004
 40
0.3750000000000004
 40
0.5000000000000004
 40
0.5000000000000004
 40
0.6250000000000004
 40
0.6250000000000004
 40
0.7500000000000006
 40
0.7500000000000006
 40
1.0
 40
1.0
 40
1.0
 40
1.0
 10
154.9421353498581
 20
251.6620432647972
 30
0.0
 10
155.5313910088502
 20
251.6620432769599
 30
0.0
 10
156.1671241640246
 20
251.662043290082
 30
0.0
 10
157.0903513060024
 20
251.6620433091383
 30
0.0
 10
157.392336969706
 20
251.6620433153716
 30
0.0
 10
157.9640313445998
 20
251.662043327172
 30
0.0
 10
158.2335916200931
 20
251.6620433327361
 30
0.0
 10
158.7217469875286
 20
251.6620433428122
 30
0.0
 10
158.9402321837373
 20
251.662043347322
 30
0.0
 10
159.3139937240259
 20
251.6620433550371
 30
0.0
 10
159.4692444982787
 20
251.6620433582416
 30
0.0
 10
159.8347416860697
 20
251.6620433657862
 30
0.0
 10
159.9421353658654
 20
251.6620433680033
 30
0.0
 10
159.9421353498589
 20
251.6620433680035
 30
0.0
  0
LINE
  5
144
330
1F
100
AcDbEntity
  8
0
  6
Continuous
 62
     8
370
    18
100
AcDbLine
 10
154.9421353499
 20
266.6620441115
 30
0.0
 11
154.9421353499
 21
251.6620432648
 31
0.0
  0
LINE
  5
145
330
1F
100
AcDbEntity
  8
0
  6
Continuous
 62
     8
370
    18
100
AcDbLine
 10
200.9421394969
 20
251.662043368
 30
0.0
 11
195.9421394967
 21
251.662043368
 31
0.0
  0
SPLINE
  5
146
330
1F
100
AcDbEntity
  8
0
  6
Continuous
 62
     8
370
    18
100
AcDbSpline
210
0.0
220
0.0
230
1.0
 70
     8
 71
     3
 72
    14
 73
    10
 74
     0
 42
0.00000001
 43
0.00000001
 40
0.0
 40
0.0
 40
0.0
 40
0.0
 40
0.1738748365796194
 40
0.3472541162751507
 40
0.5204005073940636
 40
0.6504965794456002
 40
0.7805651009971109
 40
0.910666518704122
 40
1.0
 40
1.0
 40
1.0
 40
1.0
 10
154.9421353498599
 20
251.6620432647972
 30
0.0
 10
154.9559578886982
 20
250.5759134355185
 30
0.0
 10
154.983563571058
 20
248.4067493319276
 30
0.0
 10
155.3003070409607
 20
245.1672069083039
 30
0.0
 10
155.8841154929113
 20
242.2418674041544
 30
0.0
 10
156.7085039752878
 20
239.6587592598805
 30
0.0
 10
157.6943001802906
 20
237.426731566537
 30
0.0
 10
158.764683530335
 20
235.5149820970034
 30
0.0
 10
159.6015007424475
 20
234.428234132633
 30
0.0
 10
159.9421748790867
 20
233.9858114396632
 30
0.0
  0
SPLINE
  5
147
330
1F
100
AcDbEntity
  8
0
  6
Continuous
 62
     8
370
    18
100
AcDbSpline
210
0.0
220
0.0
230
1.0
 70
     8
 71
     3
 72
    14
 73
    10
 74
     0
 42
0.00000001
 43
0.00000001
 40
0.0
 40
0.0
 40
0.0
 40
0.0
 40
0.0893607590446239
 40
0.2194460873065106
 40
0.3495264999918513
 40
0.4796119160856785
 40
0.6528274409662009
 40
0.8260500970649813
 40
1.0
 40
1.0
 40
1.0
 40
1.0
 10
195.9421770653663
 20
233.9849907073729
 30
0.0
 10
196.2828533597706
 20
234.4276664958482
 30
0.0
 10
197.1194630824762
 20
235.51475965357
 30
0.0
 10
198.1876861614352
 20
237.427795070701
 30
0.0
 10
199.1780482570239
 20
239.6577918005739
 30
0.0
 10
199.9998997271871
 20
242.2424340258527
 30
0.0
 10
200.5834952257705
 20
245.1671206768822
 30
0.0
 10
200.9000622179377
 20
248.4067211804855
 30
0.0
 10
200.9280941637161
 20
250.5754216622314
 30
0.0
 10
200.9421394968518
 20
251.6620433680042
 30
0.0
  0
LINE
  5
148
330
1F
100
AcDbEntity
  8
0
  6
Continuous
 62
     8
370
    18
100
AcDbLine
 10
160.9421339306
 20
272.6620442145
 30
0.0
 11
194.9421361204
 21
272.6620442145
 31
0.0
  0
SPLINE
  5
149
330
1F
100
AcDbEntity
  8
0
  6
Continuous
 62
     8
370
    18
100
AcDbSpline
210
0.0
220
0.0
230
1.0
 70
     8
 71
     3
 72
    18
 73
    14
 74
     0
 42
0.00000001
 43
0.00000001
 40
0.0
 40
0.0
 40
0.0
 40
0.0
 40
0.2499999999999994
 40
0.2499999999999994
 40
0.3749999999999991
 40
0.3749999999999991
 40
0.4999999999999988
 40
0.4999999999999988
 40
0.6249999999999984
 40
0.6249999999999984
 40
0.7499999999999982
 40
0.7499999999999982
 40
1.0
 40
1.0
 40
1.0
 40
1.0
 10
194.9421361233923
 20
272.6620475911451
 30
0.0
 10
194.9421361230368
 20
272.0727919406025
 30
0.0
 10
194.9421361225689
 20
271.4370587963538
 30
0.0
 10
194.9421361217247
 20
270.513831669534
 30
0.0
 10
194.9421361214206
 20
270.2118460106158
 30
0.0
 10
194.9421361207821
 20
269.6401516435437
 30
0.0
 10
194.9421361204478
 20
269.370591371072
 30
0.0
 10
194.9421361197699
 20
268.8824360069042
 30
0.0
 10
194.9421361194263
 20
268.663950810932
 30
0.0
 10
194.9421361187517
 20
268.2901892679217
 30
0.0
 10
194.9421361184208
 20
268.1349384907122
 30
0.0
 10
194.9421361174751
 20
267.769441289751
 30
0.0
 10
194.942136116911
 20
267.6620475953728
 30
0.0
 10
194.9421361164481
 20
267.6620475949306
 30
0.0
  0
LINE
  5
14A
330
1F
100
AcDbEntity
  8
0
  6
Continuous
 62
     8
370
    18
100
AcDbLine
 10
195.9421394969
 20
266.6620442147
 30
0.0
 11
200.9421394969
 21
266.6620442147
 31
0.0
  0
SPLINE
  5
14B
330
1F
100
AcDbEntity
  8
0
  6
Continuous
 62
     8
370
    18
100
AcDbSpline
210
0.0
220
0.0
230
1.0
 70
     8
 71
     3
 72
    22
 73
    18
 74
     0
 42
0.00000001
 43
0.00000001
 40
0.0
 40
0.0
 40
0.0
 40
0.0
 40
0.125
 40
0.125
 40
0.25
 40
0.25
 40
0.375
 40
0.375
 40
0.5
 40
0.5
 40
0.625
 40
0.625
 40
0.75
 40
0.75
 40
0.875
 40
0.875
 40
1.0
 40
1.0
 40
1.0
 40
1.0
 10
200.942139496851
 20
266.6620442146938
 30
0.0
 10
200.9421394968324
 20
267.0155978041581
 30
0.0
 10
200.9107093955204
 20
267.3823730476359
 30
0.0
 10
200.7732339064493
 20
268.1252732388725
 30
0.0
 10
200.667068028879
 20
268.5013226554211
 30
0.0
 10
200.3746701037483
 20
269.2399047731279
 30
0.0
 10
200.188369066294
 20
269.6022877680846
 30
0.0
 10
199.7398549622395
 20
270.2883213952674
 30
0.0
 10
199.4776725794507
 20
270.6117939045743
 30
0.0
 10
198.8918858125426
 20
271.1975806717745
 30
0.0
 10
198.5684133033666
 20
271.4597630547246
 30
0.0
 10
197.8823796764074
 20
271.9082771591214
 30
0.0
 10
197.5199966815436
 20
272.0945781967564
 30
0.0
 10
196.7814145639825
 20
272.3869761222555
 30
0.0
 10
196.4053651474869
 20
272.4931420000135
 30
0.0
 10
195.6624649563189
 20
272.6306174894552
 30
0.0
 10
195.2956897128568
 20
272.6620475909502
 30
0.0
 10
194.9421361233923
 20
272.6620475911451
 30
0.0
  0
LINE
  5
14C
330
1F
100
AcDbEntity
  8
0
  6
Continuous
 62
     8
370
    18
100
AcDbLine
 10
200.9421394969
 20
251.662043368
 30
0.0
 11
200.9421394969
 21
266.6620442147
 31
0.0
  0
LINE
  5
14D
330
1F
100
AcDbEntity
  8
0
  6
Continuous
 62
     8
370
    18
100
AcDbLine
 10
201.0421304691
 20
272.7620434454
 30
0.0
 11
154.8421304691
 21
272.7620434454
 31
0.0
  0
LINE
  5
14E
330
1F
100
AcDbEntity
  8
0
  6
Continuous
 62
     8
370
    18
100
AcDbLine
 10
201.0421304691
 20
226.5620434452
 30
0.0
 11
201.0421304691
 21
272.7620434454
 31
0.0
  0
LINE
  5
14F
330
1F
100
AcDbEntity
  8
0
  6
Continuous
 62
     8
370
    18
100
AcDbLine
 10
154.8421304691
 20
226.5620434452
 30
0.0
 11
159.9417669721
 21
226.5620434452
 31
0.0
  0
LINE
  5
150
330
1F
100
AcDbEntity
  8
0
  6
Continuous
 62
     8
370
    18
100
AcDbLine
 10
195.9421770654
 20
226.5620434452
 30
0.0
 11
201.0421304691
 21
226.5620434452
 31
0.0
  0
LINE
  5
151
330
1F
100
AcDbEntity
  8
0
  6
Continuous
 62
     8
370
    18
100
AcDbLine
 10
154.8421304691
 20
272.7620434454
 30
0.0
 11
154.8421304691
 21
226.5620434452
 31
0.0
  0
LINE
  5
152
330
1F
100
AcDbEntity
  8
0
  6
Continuous
 62
     8
370
    18
100
AcDbLine
 10
154.8421304691
 20
272.7620434454
 30
0.0
 11
153.8421304691
 21
272.7620434454
 31
0.0
  0
LINE
  5
153
330
1F
100
AcDbEntity
  8
0
  6
Continuous
 62
     8
370
    18
100
AcDbLine
 10
154.8421304691
 20
273.7620434454
 30
0.0
 11
154.8421304691
 21
272.7620434454
 31
0.0
  0
LINE
  5
154
330
1F
100
AcDbEntity
  8
0
  6
Continuous
 62
     8
370
    18
100
AcDbLine
 10
201.0421304691
 20
273.7620434454
 30
0.0
 11
201.0421304691
 21
272.7620434454
 31
0.0
  0
LINE
  5
155
330
1F
100
AcDbEntity
  8
0
  6
Continuous
 62
     8
370
    18
100
AcDbLine
 10
154.8421304691
 20
226.5620434452
 30
0.0
 11
153.8421304691
 21
226.5620434452
 31
0.0
  0
LINE
  5
156
330
1F
100
AcDbEntity
  8
0
  6
Continuous
 62
     8
370
    18
100
AcDbLine
 10
202.0421304691
 20
272.7620434454
 30
0.0
 11
201.0421304691
 21
272.7620434454
 31
0.0
  0
LINE
  5
157
330
1F
100
AcDbEntity
  8
0
  6
Continuous
 62
     8
370
    18
100
AcDbLine
 10
201.0421304691
 20
226.5620434452
 30
0.0
 11
201.0421304691
 21
225.5620434452
 31
0.0
  0
LINE
  5
158
330
1F
100
AcDbEntity
  8
0
  6
Continuous
 62
     8
370
    18
100
AcDbLine
 10
154.8421304691
 20
226.5620434452
 30
0.0
 11
154.8421304691
 21
225.5620434452
 31
0.0
  0
LINE
  5
159
330
1F
100
AcDbEntity
  8
0
  6
Continuous
 62
     8
370
    18
100
AcDbLine
 10
202.0421304691
 20
226.5620434452
 30
0.0
 11
201.0421304691
 21
226.5620434452
 31
0.0
  0
SPLINE
  5
15A
330
1F
100
AcDbEntity
  8
0
  6
Continuous
 62
     7
370
    25
100
AcDbSpline
210
0.0
220
0.0
230
1.0
 70
     8
 71
     3
 72
    31
 73
    27
 74
     0
 42
0.00000001
 43
0.00000001
 40
0.0
 40
0.0
 40
0.0
 40
0.0
 40
0.0280936424366799
 40
0.0554975164660504
 40
0.0755688082495289
 40
0.0963206744227252
 40
0.1333002144924787
 40
0.1741407769333791
 40
0.2184985731748997
 40
0.2646180056238655
 40
0.3123451489456091
 40
0.3615099550378787
 40
0.4593274032025953
 40
0.5607356280083531
 40
0.6561071281990861
 40
0.7409213682283989
 40
0.8161852312031207
 40
0.8449408745743937
 40
0.8722492083044209
 40
0.897341983955283
 40
0.9138115298679611
 40
0.9292521396995976
 40
0.9448369792218841
 40
0.9616829784984627
 40
0.9806707625340677
 40
1.0
 40
1.0
 40
1.0
 40
1.0
 10
349.0482877900239
 20
472.9891871773501
 30
0.0
 10
349.5319847858171
 20
473.3347734770044
 30
0.0
 10
350.4875028198035
 20
474.0174610778997
 30
0.0
 10
351.8665912048402
 20
474.8943313728294
 30
0.0
 10
353.1431133566791
 20
475.6500546264672
 30
0.0
 10
354.6993823307145
 20
476.5174429550856
 30
0.0
 10
356.7575718841034
 20
477.5734405071734
 30
0.0
 10
359.3436711093315
 20
478.7671848687864
 30
0.0
 10
362.1480617240475
 20
479.9210251822226
 30
0.0
 10
365.1650722303846
 20
481.0315365603234
 30
0.0
 10
368.3206272476731
 20
482.0944686670451
 30
0.0
 10
372.6489875562027
 20
483.464722378149
 30
0.0
 10
378.2011405559027
 20
485.1328547849764
 30
0.0
 10
384.8019594293233
 20
487.069870496469
 30
0.0
 10
391.1211519142668
 20
488.8964543946099
 30
0.0
 10
396.8647320917237
 20
490.5275389937659
 30
0.0
 10
401.1184104442303
 20
491.7047857221758
 30
0.0
 10
404.0806720700771
 20
492.5086334266754
 30
0.0
 10
405.9073016107473
 20
492.997257363933
 30
0.0
 10
407.4711822689694
 20
493.4098355320768
 30
0.0
 10
408.6959737099019
 20
493.730078418166
 30
0.0
 10
409.585572440974
 20
493.9644526021335
 30
0.0
 10
410.2697686707419
 20
494.1510240039876
 30
0.0
 10
410.7442207211076
 20
494.2889231863435
 30
0.0
 10
411.0284005625134
 20
494.3812410273984
 30
0.0
 10
411.0579871726325
 20
494.404948181397
 30
0.0
 10
411.0729123048686
 20
494.4169073888543
 30
0.0
  0
SPLINE
  5
15B
330
1F
100
AcDbEntity
  8
0
  6
Continuous
 62
     7
370
    25
100
AcDbSpline
210
0.0
220
0.0
230
1.0
 70
     8
 71
     3
 72
    11
 73
     7
 74
     0
 42
0.00000001
 43
0.00000001
 40
0.0
 40
0.0
 40
0.0
 40
0.0
 40
0.2327870170059991
 40
0.4795759535503099
 40
0.7368349554233827
 40
1.0
 40
1.0
 40
1.0
 40
1.0
 10
311.2300936455087
 20
353.2103211449319
 30
0.0
 10
311.2115751493853
 20
352.9052286305878
 30
0.0
 10
311.1734242870611
 20
352.2766925748856
 30
0.0
 10
310.8892436382012
 20
351.3466098093522
 30
0.0
 10
310.4315882049124
 20
350.4418141625293
 30
0.0
 10
309.9781997953644
 20
349.9323898674779
 30
0.0
 10
309.748932946872
 20
349.6747871140499
 30
0.0
  0
SPLINE
  5
15C
330
1F
100
AcDbEntity
  8
0
  6
Continuous
 62
     7
370
    25
100
AcDbSpline
210
0.0
220
0.0
230
1.0
 70
     8
 71
     3
 72
    13
 73
     9
 74
     0
 42
0.00000001
 43
0.00000001
 40
0.0
 40
0.0
 40
0.0
 40
0.0
 40
0.2394557791914638
 40
0.3683592375999074
 40
0.4999984459826755
 40
0.6316379126455167
 40
0.7605420833652963
 40
1.0
 40
1.0
 40
1.0
 40
1.0
 10
352.2134941514889
 20
348.2103210084913
 30
0.0
 10
351.5845183029396
 20
348.2771110903847
 30
0.0
 10
350.6169531649309
 20
348.3798555041073
 30
0.0
 10
349.452884320956
 20
349.003343617538
 30
0.0
 10
348.6518584032008
 20
349.6486526593688
 30
0.0
 10
348.0065559424161
 20
350.4496863412863
 30
0.0
 10
347.3830740560628
 20
351.6137672307432
 30
0.0
 10
347.2803311885434
 20
352.581339667134
 30
0.0
 10
347.2135420323032
 20
353.2103210084965
 30
0.0
  0
SPLINE
  5
15D
330
1F
100
AcDbEntity
  8
0
  6
Continuous
 62
     7
370
    25
100
AcDbSpline
210
0.0
220
0.0
230
1.0
 70
     8
 71
     3
 72
    13
 73
     9
 74
     0
 42
0.00000001
 43
0.00000001
 40
0.0
 40
0.0
 40
0.0
 40
0.0
 40
0.22686527978709
 40
0.4705771359655878
 40
0.5950858510865064
 40
0.7260689191965356
 40
0.8622424065684469
 40
0.9999999999999999
 40
0.9999999999999999
 40
0.9999999999999999
 40
0.9999999999999999
 10
413.791099210583
 20
497.1055882557384
 30
0.0
 10
413.7593211492326
 20
497.2250215499882
 30
0.0
 10
413.6934052492288
 20
497.4727570236569
 30
0.0
 10
413.4641614359899
 20
497.7141565692047
 30
0.0
 10
413.2289931586814
 20
497.8566456723826
 30
0.0
 10
413.0234160533311
 20
497.9300774024271
 30
0.0
 10
412.7987894489505
 20
497.9661801238632
 30
0.0
 10
412.6497846103486
 20
497.9520326501693
 30
0.0
 10
412.5748513537235
 20
497.9449180068673
 30
0.0
  0
SPLINE
  5
15E
330
1F
100
AcDbEntity
  8
0
  6
Continuous
 62
     7
370
    25
100
AcDbSpline
210
0.0
220
0.0
230
1.0
 70
     8
 71
     3
 72
    14
 73
    10
 74
     0
 42
0.00000001
 43
0.00000001
 40
0.0
 40
0.0
 40
0.0
 40
0.0
 40
0.120435025258865
 40
0.2438890632789728
 40
0.4927195107660653
 40
0.616314550123675
 40
0.7430413674208812
 40
0.871849421093131
 40
0.9999999999999999
 40
0.9999999999999999
 40
0.9999999999999999
 40
0.9999999999999999
 10
312.2265420342325
 20
469.2785765220002
 30
0.0
 10
312.1633093271168
 20
469.2758544609267
 30
0.0
 10
312.0352588229226
 20
469.2703421033383
 30
0.0
 10
311.7895465574054
 20
469.1969550536792
 30
0.0
 10
311.5713584767532
 20
469.052616498515
 30
0.0
 10
311.405508253442
 20
468.8506690477169
 30
0.0
 10
311.3108795329895
 20
468.6746185905225
 30
0.0
 10
311.2471553166975
 20
468.4801176914209
 30
0.0
 10
311.2357702760574
 20
468.3456998666549
 30
0.0
 10
311.2300923210718
 20
468.2786629203329
 30
0.0
  0
LINE
  5
15F
330
1F
100
AcDbEntity
  8
0
  6
Continuous
 62
     7
370
    25
100
AcDbLine
 10
347.2133979237
 20
364.2103210416
 30
0.0
 11
347.2133979237
 21
393.2786619387
 31
0.0
  0
LINE
  5
160
330
1F
100
AcDbEntity
  8
0
  6
Continuous
 62
     7
370
    25
100
AcDbLine
 10
347.2135420323
 20
353.2103210834
 30
0.0
 11
347.2135420323
 21
364.2103210085
 31
0.0
  0
LINE
  5
161
330
1F
100
AcDbEntity
  8
0
  6
Continuous
 62
     7
370
    25
100
AcDbLine
 10
347.21339769
 20
393.278701938
 30
0.0
 11
347.21339769
 21
408.2786625911
 31
0.0
  0
SPLINE
  5
162
330
1F
100
AcDbEntity
  8
0
  6
Continuous
 62
     7
370
    25
100
AcDbSpline
210
0.0
220
0.0
230
1.0
 70
     8
 71
     3
 72
    27
 73
    23
 74
     0
 42
0.00000001
 43
0.00000001
 40
0.0
 40
0.0
 40
0.0
 40
0.0
 40
0.087769470271123
 40
0.1696715055538859
 40
0.2452734996176735
 40
0.3136091891838335
 40
0.3739157539079977
 40
0.4258679236426202
 40
0.4695438322820461
 40
0.5073354632571332
 40
0.543256558488913
 40
0.577463337455209
 40
0.6180171338578188
 40
0.6582807194412497
 40
0.7023851810750827
 40
0.750421918906965
 40
0.7823843616652212
 40
0.8139749666019626
 40
0.84592951695641
 40
0.8861376685520678
 40
0.9374308051819622
 40
1.0
 40
1.0
 40
1.0
 40
1.0
 10
347.2132187912888
 20
408.2786612959309
 30
0.0
 10
347.2131964591331
 20
410.1373582943611
 30
0.0
 10
347.2131532877381
 20
413.7304974248353
 30
0.0
 10
347.32729086472
 20
418.9241585979253
 30
0.0
 10
347.6165052556098
 20
423.6995917865532
 30
0.0
 10
348.0962099864585
 20
428.0003954800505
 30
0.0
 10
348.7464043262921
 20
431.7717367353511
 30
0.0
 10
349.5215527360526
 20
434.9843235380218
 30
0.0
 10
350.3739186693061
 20
437.6805158316757
 30
0.0
 10
351.2902610137766
 20
439.9936213823246
 30
0.0
 10
352.2906526281917
 20
442.0511495518548
 30
0.0
 10
353.4886608303526
 20
444.068965410463
 30
0.0
 10
354.9415145982853
 20
446.0313573548234
 30
0.0
 10
356.7751563124634
 20
447.9487557597487
 30
0.0
 10
358.9926947011556
 20
449.6828370174513
 30
0.0
 10
361.3085523638118
 20
450.9519882327344
 30
0.0
 10
363.514446096646
 20
451.8089676656531
 30
0.0
 10
365.4620417987516
 20
452.3640829043465
 30
0.0
 10
367.618508628833
 20
452.7950709989988
 30
0.0
 10
370.2160559816369
 20
453.1124433296821
 30
0.0
 10
373.4768466393936
 20
453.2776780613186
 30
0.0
 10
375.8882774258258
 20
453.2783126067246
 30
0.0
 10
377.2133976894618
 20
453.2786612996998
 30
0.0
  0
ARC
  5
163
330
1F
100
AcDbEntity
  8
0
  6
Continuous
 62
     7
370
    25
100
AcDbCircle
 10
335.3302905843
 20
469.2786619002
 30
0.0
 40
22.81689189189191
100
AcDbArc
 50
160.3646928818
 51
180.0
  0
ARC
  5
164
330
1F
100
AcDbEntity
  8
0
  6
Continuous
 62
     7
370
    25
100
AcDbCircle
 10
320.8965068005
 20
469.2786619002
 30
0.0
 40
22.81689189189194
100
AcDbArc
 50
0.0
 51
9.445670957
  0
ARC
  5
165
330
1F
100
AcDbEntity
  8
0
  6
Continuous
 62
     7
370
    25
100
AcDbCircle
 10
314.0285582874
 20
476.8786619002
 30
0.0
 40
0.1999999999999565
100
AcDbArc
 50
90.0
 51
160.3646928818
  0
LINE
  5
166
330
1F
100
AcDbEntity
  8
0
  6
Continuous
 62
     7
370
    25
100
AcDbLine
 10
314.0285582874
 20
477.2320987164
 30
0.0
 11
314.0285582874
 21
477.0786619002
 31
0.0
  0
LWPOLYLINE
  5
167
330
1F
100
AcDbEntity
  8
0
  6
Continuous
 62
     7
370
    25
100
AcDbPolyline
 90
        8
 70
   128
 43
0.0
 10
322.5573711495
 20
479.7907078046
 10
389.9968949225
 20
491.0722084441
 10
407.092271805
 20
493.9344208275
 10
411.4838639953
 20
494.6708925352
 10
412.6406360277
 20
494.8654697679
 10
412.9592660282
 20
494.9193437291
 10
413.0536420245
 20
494.9354270458
 10
413.1047253516
 20
494.9442745867
  0
SPLINE
  5
168
330
1F
100
AcDbEntity
  8
0
  6
Continuous
 62
     7
370
    25
100
AcDbSpline
210
0.0
220
0.0
230
1.0
 70
     8
 71
     3
 72
    14
 73
    10
 74
     0
 42
0.00000001
 43
0.00000001
 40
0.0
 40
0.0
 40
0.0
 40
0.0
 40
0.25
 40
0.25
 40
0.5
 40
0.5
 40
0.75
 40
0.75
 40
1.0
 40
1.0
 40
1.0
 40
1.0
 10
413.1047253123107
 20
494.9442745798623
 30
0.0
 10
413.2372204272609
 20
494.9684281951361
 30
0.0
 10
413.3696679594518
 20
494.9925739689379
 30
0.0
 10
413.6144435146012
 20
495.0375498922602
 30
0.0
 10
413.7266748875973
 20
495.0583641142074
 30
0.0
 10
413.9138483396439
 20
495.0938474137565
 30
0.0
 10
413.9887164440714
 20
495.1085043006008
 30
0.0
 10
414.0896719421038
 20
495.1297791849054
 30
0.0
 10
414.1157193011899
 20
495.1363905848179
 30
0.0
 10
414.115344729761
 20
495.1386477436149
 30
0.0
  0
SPLINE
  5
169
330
1F
100
AcDbEntity
  8
0
  6
Continuous
 62
     7
370
    25
100
AcDbSpline
210
0.0
220
0.0
230
1.0
 70
     8
 71
     3
 72
    10
 73
     6
 74
     0
 42
0.00000001
 43
0.00000001
 40
0.0
 40
0.0
 40
0.0
 40
0.0
 40
0.1343875136950564
 40
0.4677207743934542
 40
1.0
 40
1.0
 40
1.0
 40
1.0
 10
413.1048015711419
 20
494.9439842429856
 30
0.0
 10
412.8291061002652
 20
494.897102628279
 30
0.0
 10
411.869578718668
 20
494.7339363895975
 30
0.0
 10
409.8172274506098
 20
494.3901412135132
 30
0.0
 10
408.0407685176433
 20
494.0920699640472
 30
0.0
 10
406.9483949669826
 20
493.9087810947766
 30
0.0
  0
SPLINE
  5
16A
330
1F
100
AcDbEntity
  8
0
  6
Continuous
 62
     7
370
    25
100
AcDbSpline
210
0.0
220
0.0
230
1.0
 70
    24
 71
     3
 72
     9
 73
     5
 74
     0
 42
0.00000001
 43
0.00000001
 40
0.0
 40
0.0
 40
0.0
 40
0.0
 40
0.5622445587646744
 40
1.0
 40
1.0
 40
1.0
 40
1.0
 10
348.5643237453937
 20
473.002230173817
 30
0.0
 10
348.7137732051439
 20
473.001632375978
 30
0.0
 10
348.979581842009
 20
473.0005691414305
 30
0.0
 10
349.0220399660197
 20
473.0003993089345
 30
0.0
 10
349.04062624083
 20
473.0003249638353
 30
0.0
  0
SPLINE
  5
16B
330
1F
100
AcDbEntity
  8
0
  6
Continuous
 62
     7
370
    25
100
AcDbSpline
210
0.0
220
0.0
230
1.0
 70
    24
 71
     3
 72
    22
 73
    18
 74
     0
 42
0.00000001
 43
0.00000001
 40
0.0
 40
0.0
 40
0.0
 40
0.0
 40
0.125
 40
0.125
 40
0.25
 40
0.25
 40
0.375
 40
0.375
 40
0.5
 40
0.5
 40
0.625
 40
0.625
 40
0.75
 40
0.75
 40
0.875
 40
0.875
 40
1.0
 40
1.0
 40
1.0
 40
1.0
 10
342.979430866289
 20
473.0245697453335
 30
0.0
 10
343.3502694677741
 20
473.0230863909275
 30
0.0
 10
343.7116261351511
 20
473.0216409642582
 30
0.0
 10
344.4023180827625
 20
473.0188781964677
 30
0.0
 10
344.7328301433607
 20
473.0175561482251
 30
0.0
 10
345.3666261665243
 20
473.0150209641325
 30
0.0
 10
345.671980590718
 20
473.0137995464357
 30
0.0
 10
346.241479519111
 20
473.0115215507222
 30
0.0
 10
346.5047939795777
 20
473.0104682928803
 30
0.0
 10
346.9900544562865
 20
473.0085272509734
 30
0.0
 10
347.2120901576182
 20
473.0076391081682
 30
0.0
 10
347.6138397593957
 20
473.0060321097611
 30
0.0
 10
347.7934573845562
 20
473.0053136392604
 30
0.0
 10
348.0996254764086
 20
473.0040889668929
 30
0.0
 10
348.2277759984439
 20
473.0035763648047
 30
0.0
 10
348.4329863146536
 20
473.0027555235399
 30
0.0
 10
348.5086793920394
 20
473.0024527512304
 30
0.0
 10
348.5643237453937
 20
473.002230173817
 30
0.0
  0
SPLINE
  5
16C
330
1F
100
AcDbEntity
  8
0
  6
Continuous
 62
     7
370
    25
100
AcDbSpline
210
0.0
220
0.0
230
1.0
 70
    24
 71
     3
 72
    14
 73
    10
 74
     0
 42
0.00000001
 43
0.00000001
 40
0.0
 40
0.0
 40
0.0
 40
0.0
 40
0.25
 40
0.25
 40
0.5
 40
0.5
 40
0.75
 40
0.75
 40
1.0
 40
1.0
 40
1.0
 40
1.0
 10
336.1886354461371
 20
473.0517329270141
 30
0.0
 10
336.773361482737
 20
473.0493940228677
 30
0.0
 10
337.354617515598
 20
473.0470689987362
 30
0.0
 10
338.5061297015396
 20
473.0424629499924
 30
0.0
 10
339.0768518639126
 20
473.0401800613429
 30
0.0
 10
340.2084616393482
 20
473.0356536222412
 30
0.0
 10
340.7693419461644
 20
473.0334101010141
 30
0.0
 10
341.8820340401837
 20
473.028959332638
 30
0.0
 10
342.4346010888004
 20
473.0267490644434
 30
0.0
 10
342.979430866289
 20
473.0245697453335
 30
0.0
  0
SPLINE
  5
16D
330
1F
100
AcDbEntity
  8
0
  6
Continuous
 62
     7
370
    25
100
AcDbSpline
210
0.0
220
0.0
230
1.0
 70
    24
 71
     3
 72
    12
 73
     8
 74
     0
 42
0.00000001
 43
0.00000001
 40
0.0
 40
0.0
 40
0.0
 40
0.0
 40
0.5
 40
0.5
 40
0.75
 40
0.75
 40
1.0
 40
1.0
 40
1.0
 40
1.0
 10
330.2479022980797
 20
473.0754958596064
 30
0.0
 10
331.2403195908724
 20
473.0715261904352
 30
0.0
 10
332.2317966239436
 20
473.0675602823028
 30
0.0
 10
333.7168836947059
 20
473.0616199340199
 30
0.0
 10
334.211621484228
 20
473.0596409828618
 30
0.0
 10
335.2006356924152
 20
473.0556849260291
 30
0.0
 10
335.6949091178971
 20
473.053707832327
 30
0.0
 10
336.1886354461371
 20
473.0517329270141
 30
0.0
  0
SPLINE
  5
16E
330
1F
100
AcDbEntity
  8
0
  6
Continuous
 62
     7
370
    25
100
AcDbSpline
210
0.0
220
0.0
230
1.0
 70
     8
 71
     3
 72
     8
 73
     4
 74
     0
 42
0.00000001
 43
0.00000001
 40
0.0
 40
0.0
 40
0.0
 40
0.0
 40
1.0
 40
1.0
 40
1.0
 40
1.0
 10
328.7167951568536
 20
473.1600019028263
 30
0.0
 10
329.2257991747262
 20
473.1057035951985
 30
0.0
 10
329.7361499888267
 20
473.0775428756623
 30
0.0
 10
330.2479018628279
 20
473.0754958613473
 30
0.0
  0
LINE
  5
16F
330
1F
100
AcDbEntity
  8
0
  6
Continuous
 62
     7
370
    25
100
AcDbLine
 10
306.1133986924
 20
343.2103210079
 30
0.0
 11
352.3133986927
 21
343.2103210079
 31
0.0
  0
LINE
  5
170
330
1F
100
AcDbEntity
  8
0
  6
Continuous
 62
     7
370
    25
100
AcDbLine
 10
306.1133986924
 20
348.2103210085
 30
0.0
 11
352.3133986927
 21
348.2103210085
 31
0.0
  0
LINE
  5
171
330
1F
100
AcDbEntity
  8
0
  6
Continuous
 62
     7
370
    25
100
AcDbLine
 10
305.1133986924
 20
343.2103210079
 30
0.0
 11
305.1133986924
 21
347.2103210085
 31
0.0
  0
LINE
  5
172
330
1F
100
AcDbEntity
  8
0
  6
Continuous
 62
     7
370
    25
100
AcDbLine
 10
305.1133986924
 20
343.2103210079
 30
0.0
 11
306.1133986924
 21
343.2103210079
 31
0.0
  0
LINE
  5
173
330
1F
100
AcDbEntity
  8
0
  6
Continuous
 62
     7
370
    25
100
AcDbLine
 10
353.3133986927
 20
347.2103210085
 30
0.0
 11
353.3133986927
 21
343.2103210079
 31
0.0
  0
LINE
  5
174
330
1F
100
AcDbEntity
  8
0
  6
Continuous
 62
     7
370
    25
100
AcDbLine
 10
352.3133986927
 20
343.2103210079
 30
0.0
 11
353.3133986927
 21
343.2103210079
 31
0.0
  0
ARC
  5
175
330
1F
100
AcDbEntity
  8
0
  6
Continuous
 62
     7
370
    25
100
AcDbCircle
 10
306.1133986924
 20
347.2103210085
 30
0.0
 40
1.0
100
AcDbArc
 50
90.0
 51
180.0
  0
ARC
  5
176
330
1F
100
AcDbEntity
  8
0
  6
Continuous
 62
     7
370
    25
100
AcDbCircle
 10
352.3133986927
 20
347.2103210085
 30
0.0
 40
1.0
100
AcDbArc
 50
0.0
 51
90.0
  0
SPLINE
  5
177
330
1F
100
AcDbEntity
  8
0
  6
Continuous
 62
     7
370
    25
100
AcDbSpline
210
0.0
220
0.0
230
1.0
 70
     8
 71
     3
 72
    18
 73
    14
 74
     0
 42
0.00000001
 43
0.00000001
 40
0.0
 40
0.0
 40
0.0
 40
0.0
 40
0.2500000000000016
 40
0.2500000000000016
 40
0.3750000000000012
 40
0.3750000000000012
 40
0.500000000000001
 40
0.500000000000001
 40
0.6250000000000008
 40
0.6250000000000008
 40
0.7500000000000004
 40
0.7500000000000004
 40
1.0
 40
1.0
 40
1.0
 40
1.0
 10
311.213399033989
 20
353.2103211450681
 30
0.0
 10
311.2133990473379
 20
352.6210654807367
 30
0.0
 10
311.1060053651535
 20
351.9853323208613
 30
0.0
 10
310.7405081764674
 20
351.0621051703329
 30
0.0
 10
310.5852574023488
 20
350.7601195034921
 30
0.0
 10
310.2114958631382
 20
350.1884251211375
 30
0.0
 10
309.993010667872
 20
349.9188648413106
 30
0.0
 10
309.5048553026582
 20
349.4307094635754
 30
0.0
 10
309.2352950284356
 20
349.2122242613949
 30
0.0
 10
308.6636006556681
 20
348.8384627075201
 30
0.0
 10
308.3616149928097
 20
348.6832119256555
 30
0.0
 10
307.4383878516565
 20
348.3177147132883
 30
0.0
 10
306.8026546945358
 20
348.2103210147972
 30
0.0
 10
306.2133990302046
 20
348.2103210130315
 30
0.0
  0
SPLINE
  5
178
330
1F
100
AcDbEntity
  8
0
  6
Continuous
 62
     7
370
    25
100
AcDbSpline
210
0.0
220
0.0
230
1.0
 70
     8
 71
     3
 72
    14
 73
    10
 74
     0
 42
0.00000001
 43
0.00000001
 40
0.0
 40
0.0
 40
0.0
 40
0.0
 40
0.0026283545570111
 40
0.0026283545570111
 40
0.0026283545570111
 40
0.0052567090778632
 40
0.0052567090778632
 40
0.0052567090778632
 40
0.0104863578434055
 40
0.0104863578434055
 40
0.0104863578434055
 40
0.0104863578434055
 10
312.2154392159103
 20
478.056313316064
 30
0.0
 10
313.0795754038286
 20
478.2007145764196
 30
0.0
 10
313.9436778901488
 20
478.3453176765368
 30
0.0
 10
314.8077447755153
 20
478.490133051671
 30
0.0
 10
315.671811655356
 20
478.6349484258791
 30
0.0
 10
316.5358433552983
 20
478.7799737506921
 30
0.0
 10
317.3998545755618
 20
478.9251208371373
 30
0.0
 10
319.1189815404982
 20
479.2139206401235
 30
0.0
 10
320.8377151713615
 20
479.505062597425
 30
0.0
 10
322.5570117533666
 20
479.7928509065723
 30
0.0
  0
LINE
  5
179
330
1F
100
AcDbEntity
  8
0
  6
Continuous
 62
     7
370
    25
100
AcDbLine
 10
413.788883547
 20
497.1196438494
 30
0.0
 11
414.1151617006
 21
495.139758383
 31
0.0
  0
SPLINE
  5
17A
330
1F
100
AcDbEntity
  8
0
  6
Continuous
 62
     7
370
    18
100
AcDbSpline
210
0.0
220
0.0
230
1.0
 70
    24
 71
     3
 72
    10
 73
     6
 74
     0
 42
0.00000001
 43
0.00000001
 40
0.0
 40
0.0
 40
0.0
 40
0.0
 40
0.5
 40
0.5
 40
1.0
 40
1.0
 40
1.0
 40
1.0
 10
412.6458286598572
 20
497.7300314256368
 30
0.0
 10
412.6325996988783
 20
497.8103059613476
 30
0.0
 10
412.6225165581305
 20
497.8714913745314
 30
0.0
 10
412.6096253103154
 20
497.9497166365052
 30
0.0
 10
412.6067769838057
 20
497.9670005405198
 30
0.0
 10
412.6067769838571
 20
497.9670005405225
 30
0.0
  0
ARC
  5
17B
330
1F
100
AcDbEntity
  8
0
  6
Continuous
 62
     7
370
    25
100
AcDbCircle
 10
412.7739809808
 20
496.9523914766
 30
0.0
 40
1.028591546237896
100
AcDbArc
 50
9.3580330718
 51
99.3580327291
  0
LINE
  5
17C
330
1F
100
AcDbEntity
  8
0
  6
Continuous
 62
     7
370
    25
100
AcDbLine
 10
311.1846784141
 20
477.5133003829
 30
0.0
 11
311.196170601
 21
480.3863472386
 31
0.0
  0
SPLINE
  5
17D
330
1F
100
AcDbEntity
  8
0
  6
Continuous
 62
     7
370
    25
100
AcDbSpline
210
0.0
220
0.0
230
1.0
 70
     8
 71
     3
 72
    12
 73
     8
 74
     0
 42
0.00000001
 43
0.00000001
 40
0.0
 40
0.0
 40
0.0
 40
0.0
 40
0.5000000000000078
 40
0.5000000000000078
 40
0.7500000000000039
 40
0.7500000000000039
 40
1.0
 40
1.0
 40
1.0
 40
1.0
 10
311.2195778367199
 20
477.5098495424175
 30
0.0
 10
311.2762680344574
 20
477.6156706771588
 30
0.0
 10
311.4013026108847
 20
477.7283388522724
 30
0.0
 10
311.6610517856504
 20
477.8780934545898
 30
0.0
 10
311.7596067598313
 20
477.9245719072234
 30
0.0
 10
311.977329279041
 20
478.0039291178236
 30
0.0
 10
312.0941690224806
 20
478.0360477134848
 30
0.0
 10
312.2154392060711
 20
478.0563133143955
 30
0.0
  0
LINE
  5
17E
330
1F
100
AcDbEntity
  8
0
  6
Continuous
 62
     7
370
    25
100
AcDbLine
 10
311.2195778367
 20
477.5098495424
 30
0.0
 11
311.1846784141
 21
477.5133003829
 31
0.0
  0
LINE
  5
17F
330
1F
100
AcDbEntity
  8
0
  6
Continuous
 62
     7
370
    25
100
AcDbLine
 10
311.2133976897
 20
468.2786629221
 30
0.0
 11
311.2133976897
 21
393.2786619505
 31
0.0
  0
LINE
  5
180
330
1F
100
AcDbEntity
  8
0
  6
Continuous
 62
     7
370
    25
100
AcDbLine
 10
470.2133976895
 20
469.2786629221
 30
0.0
 11
312.2133976895
 21
469.2786629221
 31
0.0
  0
SPLINE
  5
181
330
1F
100
AcDbEntity
  8
0
  6
Continuous
 62
     7
370
    25
100
AcDbSpline
210
0.0
220
0.0
230
1.0
 70
    24
 71
     3
 72
     8
 73
     4
 74
     0
 42
0.00000001
 43
0.00000001
 40
0.0
 40
0.0
 40
0.0
 40
0.0
 40
1.0
 40
1.0
 40
1.0
 40
1.0
 10
311.219577836718
 20
477.5098495424136
 30
0.0
 10
312.1325342424784
 20
477.4195767903237
 30
0.0
 10
313.0858030180917
 20
477.3253179677632
 30
0.0
 10
314.0662822724996
 20
477.2283685843051
 30
0.0
  0
SPLINE
  5
182
330
1F
100
AcDbEntity
  8
0
  6
Continuous
 62
     7
370
    25
100
AcDbSpline
210
0.0
220
0.0
230
1.0
 70
     8
 71
     3
 72
    10
 73
     6
 74
     0
 42
0.00000001
 43
0.00000001
 40
0.0
 40
0.0
 40
0.0
 40
0.0
 40
0.5
 40
0.5
 40
1.0
 40
1.0
 40
1.0
 40
1.0
 10
323.9100312666911
 20
474.5082370545767
 30
0.0
 10
324.6730040164234
 20
474.1484411700703
 30
0.0
 10
325.4550925935991
 20
473.8577031914429
 30
0.0
 10
327.056941006568
 20
473.4082961736555
 30
0.0
 10
327.876683254274
 20
473.2496213174514
 30
0.0
 10
328.7167955846497
 20
473.1600018571909
 30
0.0
  0
SPLINE
  5
183
330
1F
100
AcDbEntity
  8
0
  6
Continuous
 62
     7
370
    25
100
AcDbSpline
210
0.0
220
0.0
230
1.0
 70
     8
 71
     3
 72
    14
 73
    10
 74
     0
 42
0.00000001
 43
0.00000001
 40
0.0
 40
0.0
 40
0.0
 40
0.0
 40
0.25
 40
0.25
 40
0.5
 40
0.5
 40
0.75
 40
0.75
 40
1.0
 40
1.0
 40
1.0
 40
1.0
 10
314.0662822724995
 20
477.2283685843051
 30
0.0
 10
314.9182693766281
 20
477.1441244515626
 30
0.0
 10
315.7692593453979
 20
477.0230267134301
 30
0.0
 10
317.4559175620803
 20
476.7085753706025
 30
0.0
 10
318.2897432220126
 20
476.515771858678
 30
0.0
 10
319.9393122807658
 20
476.0593449842943
 30
0.0
 10
320.7557221808468
 20
475.7952517960258
 30
0.0
 10
322.3544689786244
 20
475.2017414616186
 30
0.0
 10
323.1394268786279
 20
474.8716317990221
 30
0.0
 10
323.9100312666912
 20
474.5082370545767
 30
0.0
  0
SPLINE
  5
184
330
1F
100
AcDbEntity
  8
0
  6
Continuous
 62
     7
370
    25
100
AcDbSpline
210
0.0
220
0.0
230
1.0
 70
     8
 71
     3
 72
    10
 73
     6
 74
     0
 42
0.00000001
 43
0.00000001
 40
0.0
 40
0.0
 40
0.0
 40
0.0
 40
0.5
 40
0.5
 40
1.0
 40
1.0
 40
1.0
 40
1.0
 10
471.2133976894612
 20
468.27866292214
 30
0.0
 10
471.2133976894602
 20
468.5404623099386
 30
0.0
 10
471.1056245930696
 20
468.8006495809018
 30
0.0
 10
470.7353843482232
 20
469.1708898257468
 30
0.0
 10
470.4751970772598
 20
469.2786629221365
 30
0.0
 10
470.2133976894612
 20
469.2786629221365
 30
0.0
  0
LINE
  5
185
330
1F
100
AcDbEntity
  8
0
  6
Continuous
 62
     7
370
    25
100
AcDbLine
 10
471.2133976895
 20
468.2786629221
 30
0.0
 11
471.2133976895
 21
458.2786615087
 31
0.0
  0
SPLINE
  5
186
330
1F
100
AcDbEntity
  8
0
  6
Continuous
 62
     7
370
    18
100
AcDbSpline
210
0.0
220
0.0
230
1.0
 70
     8
 71
     3
 72
     8
 73
     4
 74
     0
 42
0.00000001
 43
0.00000001
 40
0.0
 40
0.0
 40
0.0
 40
0.0
 40
1.0
 40
1.0
 40
1.0
 40
1.0
 10
312.2328022236447
 20
482.3819234009119
 30
0.0
 10
345.7102297516522
 20
487.5569150561916
 30
0.0
 10
379.1827924157641
 20
492.6830096242847
 30
0.0
 10
412.6458286598572
 20
497.7300314256368
 30
0.0
  0
LINE
  5
187
330
1F
100
AcDbEntity
  8
0
  6
Continuous
 62
     7
370
    18
100
AcDbLine
 10
312.2369165569
 20
483.4105067181
 30
0.0
 11
312.2328022236
 21
482.3819234009
 31
0.0
  0
LINE
  5
188
330
1F
100
AcDbEntity
  8
0
  6
Continuous
 62
     7
370
    25
100
AcDbLine
 10
311.2042189067
 20
482.3860377344
 30
0.0
 11
311.1962189707
 21
480.386053734
 31
0.0
  0
ARC
  5
189
330
1F
100
AcDbEntity
  8
0
  6
Continuous
 62
     7
370
    25
100
AcDbCircle
 10
312.2328022236
 20
482.3819234013
 30
0.0
 40
1.028591545499509
100
AcDbArc
 50
89.7708181024
 51
179.7708181144
  0
SPLINE
  5
18A
330
1F
100
AcDbEntity
  8
0
  6
Continuous
 62
     7
370
    25
100
AcDbSpline
210
0.0
220
0.0
230
1.0
 70
     8
 71
     3
 72
    17
 73
    13
 74
     0
 42
0.00000001
 43
0.00000001
 40
0.0
 40
0.0
 40
0.0
 40
0.0
 40
0.0000309342141816
 40
0.0002685100770304
 40
0.0006076568033498
 40
0.0012498736691662
 40
0.0035798530210144
 40
0.0128010207162254
 40
0.0495647395772391
 40
0.1969522453358347
 40
0.4421349999705055
 40
0.9999999999999999
 40
0.9999999999999999
 40
0.9999999999999999
 40
0.9999999999999999
 10
377.2133976901259
 20
453.2790874929607
 30
0.0
 10
377.2132847313247
 20
453.279087492471
 30
0.0
 10
377.2123042449215
 20
453.2790874882207
 30
0.0
 10
377.2100953848006
 20
453.2790873348839
 30
0.0
 10
377.2062845463128
 20
453.2790866045613
 30
0.0
 10
377.1985864376522
 20
453.2790837521609
 30
0.0
 10
377.1825380446194
 20
453.2790711654736
 30
0.0
 10
377.1465265958939
 20
453.2790161166089
 30
0.0
 10
377.0227543074797
 20
453.2785240030159
 30
0.0
 10
377.0992381808761
 20
453.2787655814485
 30
0.0
 10
377.0428518598047
 20
453.2785796930648
 30
0.0
 10
377.0572011493014
 20
453.2786269797398
 30
0.0
 10
377.067169381376
 20
453.2786598290701
 30
0.0
  0
SPLINE
  5
18B
330
1F
100
AcDbEntity
  8
0
  6
Continuous
 62
     7
370
    25
100
AcDbSpline
210
0.0
220
0.0
230
1.0
 70
     8
 71
     3
 72
    23
 73
    19
 74
     0
 42
0.00000001
 43
0.00000001
 40
0.0
 40
0.0
 40
0.0
 40
0.0
 40
1.736884773864148
 40
3.473769547728295
 40
5.210654321592443
 40
6.947539095456591
 40
8.684423869320739
 40
10.42130864318489
 40
12.15819341704903
 40
13.89507819091318
 40
15.63196296477733
 40
17.36884773864148
 40
19.10573251250563
 40
20.84261728636977
 40
52.39352589075726
 40
83.94443449514475
 40
92.75701556081138
 40
101.569596626478
 40
101.569596626478
 40
101.569596626478
 40
101.569596626478
 10
312.2369165569149
 20
483.41050671813
 30
0.0
 10
312.8081280361137
 20
483.4932711958248
 30
0.0
 10
313.9509438530828
 20
483.6588447910446
 30
0.0
 10
315.6628235071736
 20
483.9068471552764
 30
0.0
 10
317.3753056129499
 20
484.1549377567027
 30
0.0
 10
319.087575197486
 20
484.403017337085
 30
0.0
 10
320.7998304513252
 20
484.6511335757221
 30
0.0
 10
322.5119839113811
 20
484.8992927239889
 30
0.0
 10
324.2240817238044
 20
485.1475204103926
 30
0.0
 10
325.9359252614888
 20
485.3958067643217
 30
0.0
 10
327.6481654397971
 20
485.6442651230475
 30
0.0
 10
329.3604758586499
 20
485.892867085201
 30
0.0
 10
331.0727707389859
 20
486.1416191463569
 30
0.0
 10
342.5807732182386
 20
487.8145853534731
 30
0.0
 10
363.9864293842575
 20
490.9490621303614
 30
0.0
 10
387.6448644943987
 20
494.3948445802224
 30
0.0
 10
403.8805986739545
 20
496.7222853524174
 30
0.0
 10
409.6978097832974
 20
497.5523666258333
 30
0.0
 10
412.6067769838571
 20
497.9670005405225
 30
0.0
  0
LINE
  5
18C
330
1F
100
AcDbEntity
  8
0
  6
Continuous
 62
     7
370
    25
100
AcDbLine
 10
311.2133979234
 20
393.2786619505
 30
0.0
 11
311.2133979234
 21
364.2103210085
 31
0.0
  0
LINE
  5
18D
330
1F
100
AcDbEntity
  8
0
  6
Continuous
 62
     7
370
    25
100
AcDbLine
 10
311.2133982407
 20
353.2103211438
 30
0.0
 11
311.2133982407
 21
364.2103211064
 31
0.0
  0
LINE
  5
18E
330
1F
100
AcDbEntity
  8
0
  6
Continuous
 62
     7
370
    25
100
AcDbLine
 10
470.2133976895
 20
453.279087493
 30
0.0
 11
377.2133976895
 21
453.279087493
 31
0.0
  0
SPLINE
  5
18F
330
1F
100
AcDbEntity
  8
0
  6
Continuous
 62
     7
370
    25
100
AcDbSpline
210
0.0
220
0.0
230
1.0
 70
    24
 71
     3
 72
    26
 73
    22
 74
     0
 42
0.00000001
 43
0.00000001
 40
0.0
 40
0.0
 40
0.0
 40
0.0
 40
0.1250000000000013
 40
0.1250000000000013
 40
0.2500000000000027
 40
0.2500000000000027
 40
0.3125000000000033
 40
0.3125000000000033
 40
0.375000000000004
 40
0.375000000000004
 40
0.4375000000000047
 40
0.4375000000000047
 40
0.5000000000000053
 40
0.5000000000000053
 40
0.562500000000006
 40
0.562500000000006
 40
0.6250000000000067
 40
0.6250000000000067
 40
0.7500000000000052
 40
0.7500000000000052
 40
1.0
 40
1.0
 40
1.0
 40
1.0
 10
471.2133976894612
 20
458.2786615120662
 30
0.0
 10
471.2133976894611
 20
457.9089624982051
 30
0.0
 10
471.2133976894611
 20
457.5397557846243
 30
0.0
 10
471.2133976894611
 20
456.8034681770516
 30
0.0
 10
471.2133976894611
 20
456.4341300310559
 30
0.0
 10
471.2133976894611
 20
455.8987584150408
 30
0.0
 10
471.2133976894612
 20
455.7230168077092
 30
0.0
 10
471.2133976894613
 20
455.3827206825035
 30
0.0
 10
471.2133976894611
 20
455.2215308349962
 30
0.0
 10
471.2133976894611
 20
454.9456624158252
 30
0.0
 10
471.2133976894612
 20
454.8382232074767
 30
0.0
 10
471.2133976894612
 20
454.6698492087137
 30
0.0
 10
471.2133976894612
 20
454.6093362565264
 30
0.0
 10
471.2133976894611
 20
454.5105097341222
 30
0.0
 10
471.2133976894612
 20
454.4738073764811
 30
0.0
 10
471.2133976894612
 20
454.4148801736315
 30
0.0
 10
471.2133976894612
 20
454.3922008643168
 30
0.0
 10
471.2133976894612
 20
454.337008860931
 30
0.0
 10
471.2133976894611
 20
454.3181882086121
 30
0.0
 10
471.2133976894611
 20
454.2794105985569
 30
0.0
 10
471.2133976894613
 20
454.2793096178083
 30
0.0
 10
471.2133976894612
 20
454.2790875378111
 30
0.0
  0
ARC
  5
190
330
1F
100
AcDbEntity
  8
0
  6
Continuous
 62
     7
370
    25
100
AcDbCircle
 10
470.2133976895
 20
454.279087493
 30
0.0
 40
1.000000000000001
100
AcDbArc
 50
270.0
 51
0.0000025699
  0
LWPOLYLINE
  5
191
330
1F
100
AcDbEntity
  8
0
  6
Continuous
 62
     7
370
    25
100
AcDbPolyline
 90
        2
 70
   128
 43
0.0
 10
312.2369165569
 20
483.4105067181
 10
312.2369165569
 20
483.4105067181
  0
LINE
  5
192
330
1F
100
AcDbEntity
  8
0
  6
Continuous
 62
     7
370
    25
100
AcDbLine
 10
311.2133969575
 20
364.2103210026
 30
0.0
 11
311.2133969575
 21
353.21032104
 31
0.0
  0
LINE
  5
193
330
1F
100
AcDbEntity
  8
0
  6
Continuous
 62
     7
370
    25
100
AcDbLine
 10
311.2133982407
 20
364.2103211064
 30
0.0
 11
311.2133969575
 21
364.2103210026
 31
0.0
  0
LINE
  5
194
330
1F
100
AcDbEntity
  8
0
  6
Continuous
 62
     7
370
    25
100
AcDbLine
 10
314.0285582874
 20
477.0786619002
 30
0.0
 11
315.0850883013
 21
477.0786619002
 31
0.0
  0
SPLINE
  5
195
330
1F
100
AcDbEntity
  8
0
  6
Continuous
 62
     7
370
    25
100
AcDbSpline
210
0.0
220
0.0
230
1.0
 70
    24
 71
     3
 72
     8
 73
     4
 74
     0
 42
0.00000001
 43
0.00000001
 40
0.0
 40
0.0
 40
0.0
 40
0.0
 40
1.0
 40
1.0
 40
1.0
 40
1.0
 10
462.0711070083149
 20
453.2790874929583
 30
0.0
 10
462.4683102307248
 20
453.2790874929583
 30
0.0
 10
462.67418048791
 20
453.2790874929583
 30
0.0
 10
462.67418048791
 20
453.2790874929583
 30
0.0
  0
SPLINE
  5
196
330
1F
100
AcDbEntity
  8
0
  6
Continuous
 62
     8
370
    18
100
AcDbSpline
210
0.0
220
0.0
230
1.0
 70
     8
 71
     3
 72
    10
 73
     6
 74
     0
 42
0.00000001
 43
0.00000001
 40
0.5781271939100342
 40
0.5781271939100342
 40
0.5781271939100342
 40
0.5781271939100342
 40
1.154236230988867
 40
1.154236230988867
 40
1.161213034834396
 40
1.161213034834396
 40
1.161213034834396
 40
1.161213034834396
 10
328.0119008773667
 20
473.9141053318784
 30
0.0
 10
328.1416950870532
 20
473.7747698963516
 30
0.0
 10
328.2716115904411
 20
473.635513890143
 30
0.0
 10
328.4032087231849
 20
473.4947986242553
 30
0.0
 10
328.4047833464942
 20
473.4931149380657
 30
0.0
 10
328.406357992202
 20
473.491431267865
 30
0.0
  0
SPLINE
  5
197
330
1F
100
AcDbEntity
  8
0
  6
Continuous
 62
     8
370
    18
100
AcDbSpline
210
0.0
220
0.0
230
1.0
 70
     8
 71
     3
 72
    44
 73
    40
 74
     0
 42
0.00000001
 43
0.00000001
 40
1.161213034834238
 40
1.161213034834238
 40
1.161213034834238
 40
1.161213034834238
 40
1.215563289518763
 40
1.215563289518763
 40
1.288701289238202
 40
1.288701289238202
 40
1.434977288677093
 40
1.434977288677093
 40
1.727529287554872
 40
1.727529287554872
 40
2.020081286432652
 40
2.020081286432652
 40
2.312633285310443
 40
2.312633285310443
 40
2.897737283066002
 40
2.897737283066002
 40
3.190289281943782
 40
3.190289281943782
 40
3.482841280821562
 40
3.482841280821562
 40
4.067945278577133
 40
4.067945278577133
 40
4.360497277454912
 40
4.360497277454912
 40
4.653049276332692
 40
4.653049276332692
 40
5.238153274088252
 40
5.238153274088252
 40
5.823257271843812
 40
5.823257271843812
 40
6.408361269599383
 40
6.408361269599383
 40
6.993465267354942
 40
6.993465267354942
 40
7.578569265110502
 40
7.578569265110502
 40
8.163673262866062
 40
8.163673262866062
 40
8.172668223542955
 40
8.172668223542955
 40
8.172668223542955
 40
8.172668223542955
 10
323.302663676747
 20
478.9761651203601
 30
0.0
 10
323.3145114256382
 20
478.9636551901208
 30
0.0
 10
323.3263689288148
 20
478.9511274924228
 30
0.0
 10
323.3542274639923
 20
478.9217602750667
 30
0.0
 10
323.370219814777
 20
478.9048746972323
 30
0.0
 10
323.4182433207062
 20
478.854163390079
 30
0.0
 10
323.4503223033042
 20
478.8202518728437
 30
0.0
 10
323.5467269977543
 20
478.71826465525
 30
0.0
 10
323.6112082340804
 20
478.6499474079491
 30
0.0
 10
323.7406546584214
 20
478.5127390539433
 30
0.0
 10
323.8055704082523
 20
478.4438773368234
 30
0.0
 10
323.935725548164
 20
478.3056282346787
 30
0.0
 10
324.0009121408326
 20
478.2363105661593
 30
0.0
 10
324.1968084037489
 20
478.0275371531039
 30
0.0
 10
324.3276002265317
 20
477.8875367859723
 30
0.0
 10
324.5241161540119
 20
477.6767035718617
 30
0.0
 10
324.5896291755619
 20
477.606336082978
 30
0.0
 10
324.7207984551141
 20
477.4653647263195
 30
0.0
 10
324.7863872482578
 20
477.394827330796
 30
0.0
 10
324.983239670029
 20
477.1829347144568
 30
0.0
 10
325.1145201053745
 20
477.0414037520693
 30
0.0
 10
325.3114326311922
 20
476.8288915476766
 30
0.0
 10
325.3770874292026
 20
476.7579979026481
 30
0.0
 10
325.5083542670125
 20
476.6162030347929
 30
0.0
 10
325.5740078004412
 20
476.5452581402088
 30
0.0
 10
325.7709261718352
 20
476.3324151343277
 30
0.0
 10
325.9022137619496
 20
476.190439159393
 30
0.0
 10
326.1647979355348
 20
475.9064643570475
 30
0.0
 10
326.2961238350674
 20
475.7644354700966
 30
0.0
 10
326.5587714600177
 20
475.480462482493
 30
0.0
 10
326.6901496717209
 20
475.3384590013019
 30
0.0
 10
326.95294508817
 20
475.0545749636954
 30
0.0
 10
327.0843939304356
 20
474.9126499121512
 30
0.0
 10
327.3474038057626
 20
474.6289373077869
 30
0.0
 10
327.4789517893761
 20
474.4871561137722
 30
0.0
 10
327.7422735032918
 20
474.2037421524277
 30
0.0
 10
327.8740045782085
 20
474.0621452494252
 30
0.0
 10
328.0078478764605
 20
473.9184563219179
 30
0.0
 10
328.0098743620076
 20
473.9162808172166
 30
0.0
 10
328.0119008773668
 20
473.9141053318783
 30
0.0
  0
SPLINE
  5
198
330
1F
100
AcDbEntity
  8
0
  6
Continuous
 62
     8
370
    18
100
AcDbSpline
210
0.0
220
0.0
230
1.0
 70
     8
 71
     3
 72
    12
 73
     8
 74
     0
 42
0.00000001
 43
0.00000001
 40
8.172668223544328
 40
8.172668223544328
 40
8.172668223544328
 40
8.172668223544328
 40
8.176115058065244
 40
8.176115058065244
 40
8.468667056943024
 40
8.468667056943024
 40
8.487454801976577
 40
8.487454801976577
 40
8.487454801976577
 40
8.487454801976577
 10
323.0977403658287
 20
479.191938792891
 30
0.0
 10
323.0984840658422
 20
479.1911562395929
 30
0.0
 10
323.0992278411312
 20
479.1903736187296
 30
0.0
 10
323.1631065156834
 20
479.123159670996
 30
0.0
 10
323.2266374970333
 20
479.0563856681964
 30
0.0
 10
323.2944738048888
 20
478.9848118391461
 30
0.0
 10
323.298568158028
 20
478.980489541306
 30
0.0
 10
323.3026636767461
 20
478.9761651203611
 30
0.0
  0
SPLINE
  5
199
330
1F
100
AcDbEntity
  8
0
  6
Continuous
 62
     8
370
    18
100
AcDbSpline
210
0.0
220
0.0
230
1.0
 70
     8
 71
     3
 72
    16
 73
    12
 74
     0
 42
0.00000001
 43
0.00000001
 40
8.48745480197669
 40
8.48745480197669
 40
8.48745480197669
 40
8.48745480197669
 40
8.505695716722947
 40
8.505695716722947
 40
8.523980216652808
 40
8.523980216652808
 40
8.542264716582668
 40
8.542264716582668
 40
8.578833716442398
 40
8.578833716442398
 40
8.648524881640807
 40
8.648524881640807
 40
8.648524881640807
 40
8.648524881640807
 10
322.9939655989915
 20
479.3013597017198
 30
0.0
 10
322.9978534697972
 20
479.297219450554
 30
0.0
 10
323.0017225876273
 20
479.2930820945382
 30
0.0
 10
323.0095451895111
 20
479.2848291737508
 30
0.0
 10
323.0134622199016
 20
479.2806989086645
 30
0.0
 10
323.0213092837724
 20
479.2724253584465
 30
0.0
 10
323.0252206535681
 20
479.2683024057484
 30
0.0
 10
323.0369827034409
 20
479.2559063549496
 30
0.0
 10
323.0448506917022
 20
479.2476174880742
 30
0.0
 10
323.0676975624064
 20
479.223555888781
 30
0.0
 10
323.082703577673
 20
479.2077611513007
 30
0.0
 10
323.0977403658286
 20
479.1919387928911
 30
0.0
  0
SPLINE
  5
19A
330
1F
100
AcDbEntity
  8
0
  6
Continuous
 62
     8
370
    18
100
AcDbSpline
210
0.0
220
0.0
230
1.0
 70
     8
 71
     3
 72
    16
 73
    12
 74
     0
 42
0.00000001
 43
0.00000001
 40
8.64852488164624
 40
8.64852488164624
 40
8.64852488164624
 40
8.64852488164624
 40
8.67384782792568
 40
8.67384782792568
 40
8.746985827645121
 40
8.746985827645121
 40
8.783554827504851
 40
8.783554827504851
 40
8.801839327434712
 40
8.801839327434712
 40
8.80188291261288
 40
8.80188291261288
 40
8.80188291261288
 40
8.80188291261288
 10
322.8969742936421
 20
479.4056933135232
 30
0.0
 10
322.9022711836741
 20
479.3999507383525
 30
0.0
 10
322.9075675154513
 20
479.3941998473805
 30
0.0
 10
322.9282081762424
 20
479.3718569566349
 30
0.0
 10
322.943569489223
 20
479.3552995920718
 30
0.0
 10
322.966785897961
 20
479.3303919140753
 30
0.0
 10
322.9745124300048
 20
479.3221207300294
 30
0.0
 10
322.9861673544249
 20
479.3096732726332
 30
0.0
 10
322.9900404787048
 20
479.3055395379047
 30
0.0
 10
322.9939470193806
 20
479.3013794873251
 30
0.0
 10
322.9939563092378
 20
479.3013695945161
 30
0.0
 10
322.9939655989881
 20
479.3013597017236
 30
0.0
  0
SPLINE
  5
19B
330
1F
100
AcDbEntity
  8
0
  6
Continuous
 62
     8
370
    18
100
AcDbSpline
210
0.0
220
0.0
230
1.0
 70
     8
 71
     3
 72
    18
 73
    14
 74
     0
 42
0.00000001
 43
0.00000001
 40
8.801882912619167
 40
8.801882912619167
 40
8.801882912619167
 40
8.801882912619167
 40
8.8095006011305
 40
8.8095006011305
 40
8.818642851095431
 40
8.818642851095431
 40
8.83692735102529
 40
8.83692735102529
 40
8.91006535074473
 40
8.91006535074473
 40
8.94663435060446
 40
8.94663435060446
 40
8.957880404178454
 40
8.957880404178454
 40
8.957880404178454
 40
8.957880404178454
 10
322.798797976237
 20
479.5108801693431
 30
0.0
 10
322.8004082204856
 20
479.5091848868415
 30
0.0
 10
322.8020220830405
 20
479.5074869630371
 30
0.0
 10
322.8055429686568
 20
479.5037694610652
 30
0.0
 10
322.8074705634489
 20
479.5017170121183
 30
0.0
 10
322.8132427974033
 20
479.4955859434714
 30
0.0
 10
322.8170760508976
 20
479.4915071445315
 30
0.0
 10
322.8362868547326
 20
479.4710427893142
 30
0.0
 10
322.8516278366198
 20
479.4546146245385
 30
0.0
 10
322.8746117083435
 20
479.4298747728284
 30
0.0
 10
322.8822621017894
 20
479.4216167329711
 30
0.0
 10
322.8922694301122
 20
479.4107922890543
 30
0.0
 10
322.8946219169273
 20
479.4082436213515
 30
0.0
 10
322.896974293638
 20
479.4056933135274
 30
0.0
  0
SPLINE
  5
19C
330
1F
100
AcDbEntity
  8
0
  6
Continuous
 62
     8
370
    18
100
AcDbSpline
210
0.0
220
0.0
230
1.0
 70
     8
 71
     3
 72
    18
 73
    14
 74
     0
 42
0.00000001
 43
0.00000001
 40
8.957880404168616
 40
8.957880404168616
 40
8.957880404168616
 40
8.957880404168616
 40
8.963411976457529
 40
8.963411976457529
 40
8.972554226422458
 40
8.972554226422458
 40
9.009123226282188
 40
9.009123226282188
 40
9.082261226001629
 40
9.082261226001629
 40
9.118830225861348
 40
9.118830225861348
 40
9.120354787324793
 40
9.120354787324793
 40
9.120354787324793
 40
9.120354787324793
 10
322.6965160690883
 20
479.6189378574441
 30
0.0
 10
322.6976607656085
 20
479.6177072724188
 30
0.0
 10
322.698807231955
 20
479.6164771866868
 30
0.0
 10
322.7018641441427
 20
479.6132366996942
 30
0.0
 10
322.7037787464949
 20
479.6112107311991
 30
0.0
 10
322.7133236650417
 20
479.6011060529336
 30
0.0
 10
322.7209759678433
 20
479.5930107698014
 30
0.0
 10
322.7439527223456
 20
479.5687191072976
 30
0.0
 10
322.7593131665085
 20
479.5525007838026
 30
0.0
 10
322.7824133347331
 20
479.5281413291052
 30
0.0
 10
322.7901119701436
 20
479.5200287148489
 30
0.0
 10
322.7981535906607
 20
479.51155863221
 30
0.0
 10
322.7984757109886
 20
479.5112194536703
 30
0.0
 10
322.7987979762432
 20
479.5108801693365
 30
0.0
  0
SPLINE
  5
19D
330
1F
100
AcDbEntity
  8
0
  6
Continuous
 62
     8
370
    18
100
AcDbSpline
210
0.0
220
0.0
230
1.0
 70
     8
 71
     3
 72
    22
 73
    18
 74
     0
 42
0.00000001
 43
0.00000001
 40
9.12035478733263
 40
9.12035478733263
 40
9.12035478733263
 40
9.12035478733263
 40
9.156923787192351
 40
9.156923787192351
 40
9.17520828712221
 40
9.17520828712221
 40
9.19349278705207
 40
9.19349278705207
 40
9.23006178691179
 40
9.23006178691179
 40
9.26663078677152
 40
9.26663078677152
 40
9.33976878649096
 40
9.33976878649096
 40
9.358053286420821
 40
9.358053286420821
 40
9.361663964089
 40
9.361663964089
 40
9.361663964089
 40
9.361663964089
 10
322.55847902407
 20
479.7860998221498
 30
0.0
 10
322.5643431436271
 20
479.7770580188161
 30
0.0
 10
322.5702884611748
 20
479.7680755400635
 30
0.0
 10
322.5796329560558
 20
479.7547752211492
 30
0.0
 10
322.5828161138038
 20
479.7503698513626
 30
0.0
 10
322.5893161849657
 20
479.741662428172
 30
0.0
 10
322.5926449050828
 20
479.7373557869643
 30
0.0
 10
322.6027824154982
 20
479.7244842171253
 30
0.0
 10
322.6097096078592
 20
479.7160445270898
 30
0.0
 10
322.6238477756243
 20
479.6992470270177
 30
0.0
 10
322.6310288299786
 20
479.6909242128702
 30
0.0
 10
322.6528830964881
 20
479.6661115580764
 30
0.0
 10
322.6678453173408
 20
479.6498016995255
 30
0.0
 10
322.6867004897928
 20
479.6294835204632
 30
0.0
 10
322.6904936749859
 20
479.6254045471796
 30
0.0
 10
322.6950224450814
 20
479.6205445739532
 30
0.0
 10
322.6957688800481
 20
479.6197411093345
 30
0.0
 10
322.6965160690834
 20
479.6189378574492
 30
0.0
  0
SPLINE
  5
19E
330
1F
100
AcDbEntity
  8
0
  6
Continuous
 62
     8
370
    18
100
AcDbSpline
210
0.0
220
0.0
230
1.0
 70
     8
 71
     3
 72
     8
 73
     4
 74
     0
 42
0.00000001
 43
0.00000001
 40
0.1199204586113476
 40
0.1199204586113476
 40
0.1199204586113476
 40
0.1199204586113476
 40
0.5781271939121482
 40
0.5781271939121482
 40
0.5781271939121482
 40
0.5781271939121482
 10
328.4063579922006
 20
473.4914312678665
 30
0.0
 10
328.5097740097643
 20
473.3808549863675
 30
0.0
 10
328.6132866387478
 20
473.2703476696233
 30
0.0
 10
328.7168402850031
 20
473.1599542043258
 30
0.0
  0
LINE
  5
19F
330
1F
100
AcDbEntity
  8
0
  6
Continuous
 62
     8
370
    18
100
AcDbLine
 10
352.3133986927
 20
347.2103210085
 30
0.0
 11
306.1133986924
 21
347.2103210085
 31
0.0
  0
LINE
  5
1A0
330
1F
100
AcDbEntity
  8
0
  6
Continuous
 62
     8
370
    18
100
AcDbLine
 10
352.3133986927
 20
343.2103210079
 30
0.0
 11
352.3133986927
 21
347.2103210085
 31
0.0
  0
LINE
  5
1A1
330
1F
100
AcDbEntity
  8
0
  6
Continuous
 62
     8
370
    18
100
AcDbLine
 10
306.1133986924
 20
347.2103210085
 30
0.0
 11
306.1133986924
 21
343.2103210079
 31
0.0
  0
LINE
  5
1A2
330
1F
100
AcDbEntity
  8
0
  6
Continuous
 62
     8
370
    18
100
AcDbLine
 10
352.3133986927
 20
348.2103210085
 30
0.0
 11
352.3133986927
 21
347.2103210085
 31
0.0
  0
LINE
  5
1A3
330
1F
100
AcDbEntity
  8
0
  6
Continuous
 62
     8
370
    18
100
AcDbLine
 10
306.1133986924
 20
348.2103210085
 30
0.0
 11
306.1133986924
 21
347.2103210085
 31
0.0
  0
LINE
  5
1A4
330
1F
100
AcDbEntity
  8
0
  6
Continuous
 62
     8
370
    18
100
AcDbLine
 10
305.1133986924
 20
347.2103210085
 30
0.0
 11
306.1133986924
 21
347.2103210085
 31
0.0
  0
LINE
  5
1A5
330
1F
100
AcDbEntity
  8
0
  6
Continuous
 62
     8
370
    18
100
AcDbLine
 10
352.3133986927
 20
347.2103210085
 30
0.0
 11
353.3133986927
 21
347.2103210085
 31
0.0
  0
SPLINE
  5
1A6
330
1F
100
AcDbEntity
  8
0
  6
Continuous
 62
     8
370
    18
100
AcDbSpline
210
0.0
220
0.0
230
1.0
 70
     8
 71
     3
 72
    18
 73
    14
 74
     0
 42
0.00000001
 43
0.00000001
 40
0.0
 40
0.0
 40
0.0
 40
0.0
 40
0.2500000000000006
 40
0.2500000000000006
 40
0.3750000000000001
 40
0.3750000000000001
 40
0.4999999999999996
 40
0.4999999999999996
 40
0.6249999999999991
 40
0.6249999999999991
 40
0.7499999999999986
 40
0.7499999999999986
 40
1.0
 40
1.0
 40
1.0
 40
1.0
 10
312.2133979231544
 20
353.2103211443114
 30
0.0
 10
312.2133979231547
 20
352.6210654853193
 30
0.0
 10
312.2133979253717
 20
351.9853323272278
 30
0.0
 10
312.2133979329163
 20
351.0621051753216
 30
0.0
 10
312.213397936121
 20
350.7601195074008
 30
0.0
 10
312.2133979438361
 20
350.1884251223542
 30
0.0
 10
312.213397948346
 20
349.918864840926
 30
0.0
 10
312.2133979584222
 20
349.4307094602303
 30
0.0
 10
312.2133979639863
 20
349.2122242566994
 30
0.0
 10
312.2133979757868
 20
348.8384627008813
 30
0.0
 10
312.2133979820201
 20
348.6832119184255
 30
0.0
 10
312.2133980010766
 20
348.3177147055559
 30
0.0
 10
312.2133980141988
 20
348.2103210084913
 30
0.0
 10
312.2133980263616
 20
348.2103210084913
 30
0.0
  0
SPLINE
  5
1A7
330
1F
100
AcDbEntity
  8
0
  6
Continuous
 62
     8
370
    18
100
AcDbSpline
210
0.0
220
0.0
230
1.0
 70
     8
 71
     3
 72
    18
 73
    14
 74
     0
 42
0.00000001
 43
0.00000001
 40
0.0
 40
0.0
 40
0.0
 40
0.0
 40
0.2500000000000003
 40
0.2500000000000003
 40
0.3750000000000004
 40
0.3750000000000004
 40
0.5000000000000004
 40
0.5000000000000004
 40
0.6250000000000004
 40
0.6250000000000004
 40
0.7500000000000006
 40
0.7500000000000006
 40
1.0
 40
1.0
 40
1.0
 40
1.0
 10
327.2133988730511
 20
348.2103210084913
 30
0.0
 10
327.2133988608884
 20
348.2103210084913
 30
0.0
 10
327.2133988477664
 20
348.3177147055559
 30
0.0
 10
327.21339882871
 20
348.6832119184255
 30
0.0
 10
327.2133988224767
 20
348.8384627008813
 30
0.0
 10
327.2133988106763
 20
349.2122242566994
 30
0.0
 10
327.2133988051123
 20
349.4307094602303
 30
0.0
 10
327.2133987950361
 20
349.918864840926
 30
0.0
 10
327.2133987905263
 20
350.1884251223542
 30
0.0
 10
327.2133987828113
 20
350.7601195074008
 30
0.0
 10
327.2133987796066
 20
351.0621051753216
 30
0.0
 10
327.2133987720621
 20
351.9853323272278
 30
0.0
 10
327.2133987698451
 20
352.6210654853193
 30
0.0
 10
327.2133987698448
 20
353.2103211443114
 30
0.0
  0
LINE
  5
1A8
330
1F
100
AcDbEntity
  8
0
  6
Continuous
 62
     8
370
    18
100
AcDbLine
 10
312.2247539185
 20
480.3822329047
 30
0.0
 11
312.2154469184
 21
478.0554828783
 31
0.0
  0
LINE
  5
1A9
330
1F
100
AcDbEntity
  8
0
  6
Continuous
 62
     8
370
    18
100
AcDbLine
 10
312.2248022881
 20
480.3819394007
 30
0.0
 11
412.7740293526
 21
496.9520979771
 31
0.0
  0
LINE
  5
1AA
330
1F
100
AcDbEntity
  8
0
  6
Continuous
 62
     8
370
    18
100
AcDbLine
 10
413.1065638117
 20
494.9342302405
 30
0.0
 11
412.7739809824
 21
496.9523914865
 31
0.0
  0
LINE
  5
1AB
330
1F
100
AcDbEntity
  8
0
  6
Continuous
 62
     8
370
    18
100
AcDbLine
 10
412.7739809834
 20
496.9523914805
 30
0.0
 11
413.7888835469
 21
497.1196438494
 31
0.0
  0
SPLINE
  5
1AC
330
1F
100
AcDbEntity
  8
0
  6
Continuous
 62
     8
370
    18
100
AcDbSpline
210
0.0
220
0.0
230
1.0
 70
    24
 71
     3
 72
    10
 73
     6
 74
     0
 42
0.00000001
 43
0.00000001
 40
0.0
 40
0.0
 40
0.0
 40
0.0
 40
0.5
 40
0.5
 40
1.0
 40
1.0
 40
1.0
 40
1.0
 10
412.7740293525908
 20
496.9520979770602
 30
0.0
 10
412.7522235191726
 20
497.0844177551293
 30
0.0
 10
412.7284900976684
 20
497.2284343127403
 30
0.0
 10
412.6833688629884
 20
497.5022340633667
 30
0.0
 10
412.6622040968425
 20
497.6306637867413
 30
0.0
 10
412.6458286598572
 20
497.7300314256368
 30
0.0
  0
SPLINE
  5
1AD
330
1F
100
AcDbEntity
  8
0
  6
Continuous
 62
     8
370
    18
100
AcDbSpline
210
0.0
220
0.0
230
1.0
 70
    24
 71
     3
 72
    14
 73
    10
 74
     0
 42
0.00000001
 43
0.00000001
 40
0.0
 40
0.0
 40
0.0
 40
0.0
 40
0.25
 40
0.25
 40
0.5
 40
0.5
 40
0.75
 40
0.75
 40
1.0
 40
1.0
 40
1.0
 40
1.0
 10
312.2248022881097
 20
480.3819394007181
 30
0.0
 10
312.0901569183617
 20
480.3824779821949
 30
0.0
 10
311.9555632427357
 20
480.3830163568956
 30
0.0
 10
311.7067673173222
 20
480.3840115405948
 30
0.0
 10
311.5926629700704
 20
480.3844679579833
 30
0.0
 10
311.4022410760398
 20
480.3852296455594
 30
0.0
 10
311.3259984613014
 20
480.385534616019
 30
0.0
 10
311.222942360841
 20
480.3859468404232
 30
0.0
 10
311.1961694282493
 20
480.3860539321553
 30
0.0
 10
311.1961694282506
 20
480.3860539321575
 30
0.0
  0
LINE
  5
1AE
330
1F
100
AcDbEntity
  8
0
  6
Continuous
 62
     8
370
    18
100
AcDbLine
 10
312.2133976895
 20
468.2786629207
 30
0.0
 11
311.2133976897
 21
468.2786629221
 31
0.0
  0
LINE
  5
1AF
330
1F
100
AcDbEntity
  8
0
  6
Continuous
 62
     8
370
    18
100
AcDbLine
 10
312.2133976893
 20
468.2786629206
 30
0.0
 11
312.2133976893
 21
393.2786619505
 31
0.0
  0
SPLINE
  5
1B0
330
1F
100
AcDbEntity
  8
0
  6
Continuous
 62
     8
370
    18
100
AcDbSpline
210
0.0
220
0.0
230
1.0
 70
     8
 71
     3
 72
    14
 73
    10
 74
     0
 42
0.00000001
 43
0.00000001
 40
0.0
 40
0.0
 40
0.0
 40
0.0
 40
0.25
 40
0.25
 40
0.5
 40
0.5
 40
0.75
 40
0.75
 40
1.0
 40
1.0
 40
1.0
 40
1.0
 10
312.2133976896923
 20
469.2786629221366
 30
0.0
 10
312.2133976896478
 20
469.2786629221372
 30
0.0
 10
312.213397689608
 20
469.257184183291
 30
0.0
 10
312.213397689552
 20
469.1597182628664
 30
0.0
 10
312.2133976895362
 20
469.0834007759069
 30
0.0
 10
312.2133976895362
 20
468.8881386296747
 30
0.0
 10
312.213397689552
 20
468.7698545811647
 30
0.0
 10
312.213397689608
 20
468.5236606800391
 30
0.0
 10
312.2133976896478
 20
468.3965140509111
 30
0.0
 10
312.2133976896923
 20
468.2786629206232
 30
0.0
  0
SPLINE
  5
1B1
330
1F
100
AcDbEntity
  8
0
  6
Continuous
 62
     8
370
    18
100
AcDbSpline
210
0.0
220
0.0
230
1.0
 70
    24
 71
     3
 72
    14
 73
    10
 74
     0
 42
0.00000001
 43
0.00000001
 40
0.0
 40
0.0
 40
0.0
 40
0.0
 40
0.25
 40
0.25
 40
0.5
 40
0.5
 40
0.75
 40
0.75
 40
1.0
 40
1.0
 40
1.0
 40
1.0
 10
470.2133976894612
 20
468.2786629206232
 30
0.0
 10
470.2133976894309
 20
468.3965140509117
 30
0.0
 10
470.2133976894037
 20
468.5236606800401
 30
0.0
 10
470.2133976893655
 20
468.7698545811665
 30
0.0
 10
470.2133976893547
 20
468.8881386296766
 30
0.0
 10
470.2133976893547
 20
469.0834007759088
 30
0.0
 10
470.2133976893655
 20
469.1597182628682
 30
0.0
 10
470.2133976894037
 20
469.2571841832921
 30
0.0
 10
470.2133976894309
 20
469.2786629221378
 30
0.0
 10
470.2133976894612
 20
469.2786629221366
 30
0.0
  0
LINE
  5
1B2
330
1F
100
AcDbEntity
  8
0
  6
Continuous
 62
     8
370
    18
100
AcDbLine
 10
470.2133976895
 20
468.2786629206
 30
0.0
 11
312.2133976895
 21
468.2786629206
 31
0.0
  0
SPLINE
  5
1B3
330
1F
100
AcDbEntity
  8
0
  6
Continuous
 62
     8
370
    18
100
AcDbSpline
210
0.0
220
0.0
230
1.0
 70
     8
 71
     3
 72
    38
 73
    34
 74
     0
 42
0.00000001
 43
0.00000001
 40
0.0
 40
0.0
 40
0.0
 40
0.0
 40
0.0625
 40
0.0625
 40
0.1249999999999999
 40
0.1249999999999999
 40
0.1874999999999999
 40
0.1874999999999999
 40
0.2499999999999999
 40
0.2499999999999999
 40
0.3124999999999999
 40
0.3124999999999999
 40
0.3749999999999999
 40
0.3749999999999999
 40
0.4375
 40
0.4375
 40
0.5
 40
0.5
 40
0.5625
 40
0.5625
 40
0.625
 40
0.625
 40
0.6875
 40
0.6875
 40
0.7499999999999999
 40
0.7499999999999999
 40
0.8124999999999999
 40
0.8124999999999999
 40
0.8749999999999999
 40
0.8749999999999999
 40
0.9374999999999999
 40
0.9374999999999999
 40
1.0
 40
1.0
 40
1.0
 40
1.0
 10
377.2133976894617
 20
458.2786612959309
 30
0.0
 10
374.6596814338673
 20
458.2786612959309
 30
0.0
 10
372.1070951432422
 20
458.2791677950016
 30
0.0
 10
367.1054694421286
 20
458.2702568818697
 30
0.0
 10
364.6563439019531
 20
458.2607533399819
 30
0.0
 10
359.9371855677306
 20
458.2101075327914
 30
0.0
 10
357.6670666439967
 20
458.1688791378032
 30
0.0
 10
353.3584824744233
 20
458.0250470594783
 30
0.0
 10
351.3199310988971
 20
457.9223572464559
 30
0.0
 10
347.5066419138845
 20
457.6204279049001
 30
0.0
 10
345.7318179747114
 20
457.4211022466812
 30
0.0
 10
342.4603263975358
 20
456.8878728159062
 30
0.0
 10
340.9635726298466
 20
456.5538829136646
 30
0.0
 10
338.2473308683603
 20
455.7130265149179
 30
0.0
 10
337.0277567448765
 20
455.2060738887274
 30
0.0
 10
334.852334372719
 20
453.9833073716212
 30
0.0
 10
333.8963999943585
 20
453.2674073510198
 30
0.0
 10
332.2246517321675
 20
451.5956590746585
 30
0.0
 10
331.5087517186501
 20
450.639724689213
 30
0.0
 10
330.2859852152728
 20
448.4643023033224
 30
0.0
 10
329.7790325957262
 20
447.2447281731918
 30
0.0
 10
328.9381762094307
 20
444.5284863992467
 30
0.0
 10
328.6041863129952
 20
443.0317326257469
 30
0.0
 10
328.0709568926818
 20
439.7602410381
 30
0.0
 10
327.8716312391169
 20
437.9854170942677
 30
0.0
 10
327.5697019055285
 20
434.1721279012776
 30
0.0
 10
327.4670120958181
 20
432.1335765224343
 30
0.0
 10
327.3231800227524
 20
427.8249923475935
 30
0.0
 10
327.2819516297103
 20
425.5548734219103
 30
0.0
 10
327.2313058252305
 20
420.8357150849739
 30
0.0
 10
327.2218022841061
 20
418.3865895440351
 30
0.0
 10
327.2128913717522
 20
413.384963842149
 30
0.0
 10
327.2133978708359
 20
410.8323775515163
 30
0.0
 10
327.2133978708359
 20
408.2786612959309
 30
0.0
  0
LINE
  5
1B4
330
1F
100
AcDbEntity
  8
0
  6
Continuous
 62
     8
370
    18
100
AcDbLine
 10
327.2133978708
 20
393.2786619505
 30
0.0
 11
327.2133978708
 21
408.2786619226
 31
0.0
  0
LINE
  5
1B5
330
1F
100
AcDbEntity
  8
0
  6
Continuous
 62
     8
370
    18
100
AcDbLine
 10
470.2133976895
 20
458.2786615071
 30
0.0
 11
470.2133976895
 21
468.2786629206
 31
0.0
  0
LINE
  5
1B6
330
1F
100
AcDbEntity
  8
0
  6
Continuous
 62
     8
370
    18
100
AcDbLine
 10
377.2133976895
 20
458.2786612959
 30
0.0
 11
470.2133976895
 21
458.2786615071
 31
0.0
  0
SPLINE
  5
1B7
330
1F
100
AcDbEntity
  8
0
  6
Continuous
 62
     8
370
    18
100
AcDbSpline
210
0.0
220
0.0
230
1.0
 70
     8
 71
     3
 72
    10
 73
     6
 74
     0
 42
0.00000001
 43
0.00000001
 40
0.0
 40
0.0
 40
0.0
 40
0.0
 40
0.5
 40
0.5
 40
1.0
 40
1.0
 40
1.0
 40
1.0
 10
471.2133976894612
 20
468.27866292214
 30
0.0
 10
471.2133976894611
 20
468.278662921745
 30
0.0
 10
471.105624593071
 20
468.2786629213525
 30
0.0
 10
470.7353843482244
 20
468.2786629207939
 30
0.0
 10
470.4751970772603
 20
468.2786629206312
 30
0.0
 10
470.2133976894612
 20
468.2786629206312
 30
0.0
  0
SPLINE
  5
1B8
330
1F
100
AcDbEntity
  8
0
  6
Continuous
 62
     8
370
    18
100
AcDbSpline
210
0.0
220
0.0
230
1.0
 70
     8
 71
     3
 72
    10
 73
     6
 74
     0
 42
0.00000001
 43
0.00000001
 40
0.0
 40
0.0
 40
0.0
 40
0.0
 40
0.5
 40
0.5
 40
1.0
 40
1.0
 40
1.0
 40
1.0
 10
470.2133976894612
 20
458.2786615071475
 30
0.0
 10
470.4751970772603
 20
458.2786615071475
 30
0.0
 10
470.7353843482245
 20
458.2786615073101
 30
0.0
 10
471.1056245930709
 20
458.2786615078687
 30
0.0
 10
471.2133976894612
 20
458.2786615082612
 30
0.0
 10
471.2133976894612
 20
458.2786615086563
 30
0.0
  0
LINE
  5
1B9
330
1F
100
AcDbEntity
  8
0
  6
Continuous
 62
     8
370
    18
100
AcDbLine
 10
312.2328022236
 20
482.3819234009
 30
0.0
 11
312.2248022881
 21
480.3819394007
 31
0.0
  0
LINE
  5
1BA
330
1F
100
AcDbEntity
  8
0
  6
Continuous
 62
     8
370
    18
100
AcDbLine
 10
327.2133987698
 20
353.2103211818
 30
0.0
 11
327.2133987698
 21
364.2103211443
 31
0.0
  0
LINE
  5
1BB
330
1F
100
AcDbEntity
  8
0
  6
Continuous
 62
     8
370
    18
100
AcDbLine
 10
312.2133979232
 20
364.2103211443
 30
0.0
 11
312.2133979232
 21
353.2103211818
 31
0.0
  0
LINE
  5
1BC
330
1F
100
AcDbEntity
  8
0
  6
Continuous
 62
     8
370
    18
100
AcDbLine
 10
327.213398105
 20
364.2103211443
 30
0.0
 11
327.213398105
 21
393.2786619505
 31
0.0
  0
LINE
  5
1BD
330
1F
100
AcDbEntity
  8
0
  6
Continuous
 62
     8
370
    18
100
AcDbLine
 10
312.2133979232
 20
393.2786619505
 30
0.0
 11
312.2133979232
 21
364.2103211443
 31
0.0
  0
SPLINE
  5
1BE
330
1F
100
AcDbEntity
  8
0
  6
Continuous
 62
     8
370
    18
100
AcDbSpline
210
0.0
220
0.0
230
1.0
 70
    24
 71
     3
 72
    22
 73
    18
 74
     0
 42
0.00000001
 43
0.00000001
 40
39.71234552961985
 40
39.71234552961985
 40
39.71234552961985
 40
39.71234552961985
 40
42.70254058986018
 40
42.70254058986018
 40
44.3449459971625
 40
44.3449459971625
 40
45.98735140446481
 40
45.98735140446481
 40
46.80855410811597
 40
46.80855410811597
 40
47.62975681176712
 40
47.62975681176712
 40
49.27216221906944
 40
49.27216221906944
 40
50.91456762637176
 40
50.91456762637176
 40
52.55697303367407
 40
52.55697303367407
 40
52.55697303367407
 40
52.55697303367407
 10
470.2133976894613
 20
453.2790874929583
 30
0.0
 10
470.2133976894613
 20
453.2793305435729
 30
0.0
 10
470.2133976894613
 20
453.2796697905409
 30
0.0
 10
470.2133976894613
 20
453.3304930716111
 30
0.0
 10
470.2133976894613
 20
453.3595162821291
 30
0.0
 10
470.2133976894613
 20
453.474716761615
 30
0.0
 10
470.2133976894613
 20
453.5600534295661
 30
0.0
 10
470.2133976894613
 20
453.7945338965508
 30
0.0
 10
470.2133976894613
 20
453.8919683738633
 30
0.0
 10
470.2133976894613
 20
454.1350870049056
 30
0.0
 10
470.2133976894613
 20
454.2813949298869
 30
0.0
 10
470.2133976894613
 20
454.785800805257
 30
0.0
 10
470.2133976894613
 20
455.2005507449059
 30
0.0
 10
470.2133976894613
 20
456.0556542127298
 30
0.0
 10
470.2133976894613
 20
456.4992488348506
 30
0.0
 10
470.2133976894613
 20
457.3867663253179
 30
0.0
 10
470.2133976894613
 20
457.8330502210009
 30
0.0
 10
470.2133976894613
 20
458.2786612959461
 30
0.0
  0
LINE
  5
1BF
330
1F
100
AcDbEntity
  8
0
  6
Continuous
 62
     8
370
    18
100
AcDbLine
 10
316.0770276889
 20
476.9458683053
 30
0.0
 11
313.8401881754
 21
476.9458683053
 31
0.0
  0
ENDSEC
  0
SECTION
  2
OBJECTS
  0
DICTIONARY
  5
C
330
0
100
AcDbDictionary
281
     1
  3
ACAD_GROUP
350
D
  3
ACAD_LAYOUT
350
1A
  3
ACAD_MLINESTYLE
350
17
  3
ACAD_PLOTSETTINGS
350
19
  3
ACAD_PLOTSTYLENAME
350
E
  3
ACAD_SCALELIST
350
47
  3
DWGPROPS
350
1C0
  0
DICTIONARY
  5
D
102
{ACAD_REACTORS
330
C
102
}
330
C
100
AcDbDictionary
281
     1
  0
DICTIONARY
  5
1A
102
{ACAD_REACTORS
330
C
102
}
330
C
100
AcDbDictionary
281
     1
  3
Layout1
350
1E
  3
Layout2
350
26
  3
Model
350
22
  0
DICTIONARY
  5
17
102
{ACAD_REACTORS
330
C
102
}
330
C
100
AcDbDictionary
281
     1
  3
Standard
350
18
  0
DICTIONARY
  5
19
102
{ACAD_REACTORS
330
C
102
}
330
C
100
AcDbDictionary
281
     1
  0
ACDBDICTIONARYWDFLT
  5
E
102
{ACAD_REACTORS
330
C
102
}
330
C
100
AcDbDictionary
281
     1
  3
Normal
350
F
100
AcDbDictionaryWithDefault
340
F
  0
DICTIONARY
  5
47
102
{ACAD_REACTORS
330
C
102
}
330
C
100
AcDbDictionary
281
     1
  3
A0
350
48
  3
A1
350
49
  3
A2
350
4A
  3
A3
350
4B
  3
A4
350
4C
  3
A5
350
4D
  3
A6
350
4E
  3
A7
350
4F
  3
A8
350
50
  3
A9
350
51
  3
B0
350
52
  3
B1
350
53
  3
B2
350
54
  3
B3
350
55
  3
B4
350
56
  3
B5
350
57
  3
B6
350
58
  0
XRECORD
  5
1C0
102
{ACAD_REACTORS
330
C
102
}
330
C
100
AcDbXrecord
280
     1
  1
DWGPROPS COOKIE
  2

  3

  4

  6

  7

  8
fue-task
  9

300
=
301
=
302
=
303
=
304
=
305
=
306
=
307
=
308
=
309
=
 40
0.0
 41
2460346.421460787
 42
2460346.421461875
  1

 90
        0
  0
LAYOUT
  5
1E
102
{ACAD_REACTORS
330
1A
102
}
330
1A
100
AcDbPlotSettings
  1

  2
none_device
  4

  6

 40
0.0
 41
0.0
 42
0.0
 43
0.0
 44
0.0
 45
0.0
 46
0.0
 47
0.0
 48
0.0
 49
0.0
140
0.0
141
0.0
142
1.0
143
1.0
 70
   688
 72
     1
 73
     0
 74
     5
  7

 75
    16
147
1.0
148
0.0
149
0.0
100
AcDbLayout
  1
Layout1
 70
     1
 71
     1
 10
0.0
 20
0.0
 11
420.0
 21
297.0
 12
0.0
 22
0.0
 32
0.0
 14
1.0000000000E+20
 24
1.0000000000E+20
 34
1.0000000000E+20
 15
-1.0000000000E+20
 25
-1.0000000000E+20
 35
-1.0000000000E+20
146
0.0
 13
0.0
 23
0.0
 33
0.0
 16
1.0
 26
0.0
 36
0.0
 17
0.0
 27
1.0
 37
0.0
 76
     0
330
1B
  0
LAYOUT
  5
26
102
{ACAD_REACTORS
330
1A
102
}
330
1A
100
AcDbPlotSettings
  1

  2
none_device
  4

  6

 40
0.0
 41
0.0
 42
0.0
 43
0.0
 44
0.0
 45
0.0
 46
0.0
 47
0.0
 48
0.0
 49
0.0
140
0.0
141
0.0
142
1.0
143
1.0
 70
   688
 72
     1
 73
     0
 74
     5
  7

 75
    16
147
1.0
148
0.0
149
0.0
100
AcDbLayout
  1
Layout2
 70
     1
 71
     2
 10
0.0
 20
0.0
 11
0.0
 21
0.0
 12
0.0
 22
0.0
 32
0.0
 14
0.0
 24
0.0
 34
0.0
 15
0.0
 25
0.0
 35
0.0
146
0.0
 13
0.0
 23
0.0
 33
0.0
 16
1.0
 26
0.0
 36
0.0
 17
0.0
 27
1.0
 37
0.0
 76
     0
330
23
  0
LAYOUT
  5
22
102
{ACAD_REACTORS
330
1A
102
}
330
1A
100
AcDbPlotSettings
  1

  2
none_device
  4
Letter_(8.50_x_11.00_Inches)
  6

 40
6.35
 41
6.35
 42
6.35000508
 43
6.35000508
 44
215.9
 45
279.4
 46
0.0
 47
0.0
 48
0.0
 49
0.0
140
0.0
141
0.0
142
1.0
143
1.0
 70
  1712
 72
     1
 73
     0
 74
     0
  7

 75
     0
147
1.0
148
0.0
149
0.0
100
AcDbLayout
  1
Model
 70
     1
 71
     0
 10
0.0
 20
0.0
 11
594.0
 21
841.0
 12
0.0
 22
0.0
 32
0.0
 14
0.0
 24
0.0
 34
0.0
 15
594.0
 25
841.0
 35
0.0
146
0.0
 13
0.0
 23
0.0
 33
0.0
 16
1.0
 26
0.0
 36
0.0
 17
0.0
 27
1.0
 37
0.0
 76
     0
330
1F
331
29
  0
MLINESTYLE
  5
18
102
{ACAD_REACTORS
330
17
102
}
330
17
100
AcDbMlineStyle
  2
Standard
 70
     0
  3

 62
   256
 51
90.0
 52
90.0
 71
     2
 49
0.5
 62
   256
  6
BYLAYER
 49
-0.5
 62
   256
  6
BYLAYER
  0
ACDBPLACEHOLDER
  5
F
102
{ACAD_REACTORS
330
E
102
}
330
E
  0
SCALE
  5
48
102
{ACAD_REACTORS
330
47
102
}
330
47
100
AcDbScale
 70
     0
300
1:1
140
1.0
141
1.0
290
     1
  0
SCALE
  5
49
102
{ACAD_REACTORS
330
47
102
}
330
47
100
AcDbScale
 70
     0
300
1:2
140
1.0
141
2.0
290
     0
  0
SCALE
  5
4A
102
{ACAD_REACTORS
330
47
102
}
330
47
100
AcDbScale
 70
     0
300
1:4
140
1.0
141
4.0
290
     0
  0
SCALE
  5
4B
102
{ACAD_REACTORS
330
47
102
}
330
47
100
AcDbScale
 70
     0
300
1:5
140
1.0
141
5.0
290
     0
  0
SCALE
  5
4C
102
{ACAD_REACTORS
330
47
102
}
330
47
100
AcDbScale
 70
     0
300
1:8
140
1.0
141
8.0
290
     0
  0
SCALE
  5
4D
102
{ACAD_REACTORS
330
47
102
}
330
47
100
AcDbScale
 70
     0
300
1:10
140
1.0
141
10.0
290
     0
  0
SCALE
  5
4E
102
{ACAD_REACTORS
330
47
102
}
330
47
100
AcDbScale
 70
     0
300
1:16
140
1.0
141
16.0
290
     0
  0
SCALE
  5
4F
102
{ACAD_REACTORS
330
47
102
}
330
47
100
AcDbScale
 70
     0
300
1:20
140
1.0
141
20.0
290
     0
  0
SCALE
  5
50
102
{ACAD_REACTORS
330
47
102
}
330
47
100
AcDbScale
 70
     0
300
1:30
140
1.0
141
30.0
290
     0
  0
SCALE
  5
51
102
{ACAD_REACTORS
330
47
102
}
330
47
100
AcDbScale
 70
     0
300
1:40
140
1.0
141
40.0
290
     0
  0
SCALE
  5
52
102
{ACAD_REACTORS
330
47
102
}
330
47
100
AcDbScale
 70
     0
300
1:50
140
1.0
141
50.0
290
     0
  0
SCALE
  5
53
102
{ACAD_REACTORS
330
47
102
}
330
47
100
AcDbScale
 70
     0
300
1:100
140
1.0
141
100.0
290
     0
  0
SCALE
  5
54
102
{ACAD_REACTORS
330
47
102
}
330
47
100
AcDbScale
 70
     0
300
2:1
140
2.0
141
1.0
290
     0
  0
SCALE
  5
55
102
{ACAD_REACTORS
330
47
102
}
330
47
100
AcDbScale
 70
     0
300
4:1
140
4.0
141
1.0
290
     0
  0
SCALE
  5
56
102
{ACAD_REACTORS
330
47
102
}
330
47
100
AcDbScale
 70
     0
300
8:1
140
8.0
141
1.0
290
     0
  0
SCALE
  5
57
102
{ACAD_REACTORS
330
47
102
}
330
47
100
AcDbScale
 70
     0
300
10:1
140
10.0
141
1.0
290
     0
  0
SCALE
  5
58
102
{ACAD_REACTORS
330
47
102
}
330
47
100
AcDbScale
 70
     0
300
100:1
140
100.0
141
1.0
290
     0
  0
ENDSEC
  0
EOF
