  0
SECTION
  2
HEADER
  9
$ACADVER
  1
AC1015
  9
$ACADMAINTVER
 70
     6
  9
$DWGCODEPAGE
  3
ANSI_1252
  9
$INSBASE
 10
0.0
 20
0.0
 30
0.0
  9
$EXTMIN
 10
0.0
 20
0.0
 30
0.0
  9
$EXTMAX
 10
594.0
 20
841.0
 30
0.0
  9
$LIMMIN
 10
0.0
 20
0.0
  9
$LIMMAX
 10
594.0
 20
841.0
  9
$ORTHOMODE
 70
     0
  9
$REGENMODE
 70
     1
  9
$FILLMODE
 70
     1
  9
$QTEXTMODE
 70
     0
  9
$MIRRTEXT
 70
     1
  9
$LTSCALE
 40
1.0
  9
$ATTMODE
 70
     1
  9
$TEXTSIZE
 40
10.0
  9
$TRACEWID
 40
1.0
  9
$TEXTSTYLE
  7
Standard
  9
$CLAYER
  8
0
  9
$CELTYPE
  6
ByLayer
  9
$CECOLOR
 62
   256
  9
$CELTSCALE
 40
1.0
  9
$DISPSILH
 70
     0
  9
$DIMSCALE
 40
1.0
  9
$DIMASZ
 40
2.5
  9
$DIMEXO
 40
0.0
  9
$DIMDLI
 40
3.75
  9
$DIMRND
 40
0.0
  9
$DIMDLE
 40
0.0
  9
$DIMEXE
 40
1.0
  9
$DIMTP
 40
0.0
  9
$DIMTM
 40
0.0
  9
$DIMTXT
 40
3.5
  9
$DIMCEN
 40
2.5
  9
$DIMTSZ
 40
0.0
  9
$DIMTOL
 70
     0
  9
$DIMLIM
 70
     0
  9
$DIMTIH
 70
     1
  9
$DIMTOH
 70
     1
  9
$DIMSE1
 70
     0
  9
$DIMSE2
 70
     0
  9
$DIMTAD
 70
     1
  9
$DIMZIN
 70
     0
  9
$DIMBLK
  1

  9
$DIMASO
 70
     1
  9
$DIMSHO
 70
     1
  9
$DIMPOST
  1

  9
$DIMAPOST
  1

  9
$DIMALT
 70
     0
  9
$DIMALTD
 70
     3
  9
$DIMALTF
 40
0.0393700787
  9
$DIMLFAC
 40
1.0
  9
$DIMTOFL
 70
     1
  9
$DIMTVP
 40
0.0
  9
$DIMTIX
 70
     0
  9
$DIMSOXD
 70
     0
  9
$DIMSAH
 70
     0
  9
$DIMBLK1
  1

  9
$DIMBLK2
  1

  9
$DIMSTYLE
  2
ISO-25
  9
$DIMCLRD
 70
     0
  9
$DIMCLRE
 70
     0
  9
$DIMCLRT
 70
     0
  9
$DIMTFAC
 40
1.0
  9
$DIMGAP
 40
1.5
  9
$DIMJUST
 70
     0
  9
$DIMSD1
 70
     0
  9
$DIMSD2
 70
     0
  9
$DIMTOLJ
 70
     0
  9
$DIMTZIN
 70
     0
  9
$DIMALTZ
 70
     0
  9
$DIMALTTZ
 70
     0
  9
$DIMUPT
 70
     0
  9
$DIMDEC
 70
     2
  9
$DIMTDEC
 70
     2
  9
$DIMALTU
 70
     2
  9
$DIMALTTD
 70
     3
  9
$DIMTXSTY
  7
Standard
  9
$DIMAUNIT
 70
     0
  9
$DIMADEC
 70
     2
  9
$DIMALTRND
 40
0.0
  9
$DIMAZIN
 70
     0
  9
$DIMDSEP
 70
    44
  9
$DIMATFIT
 70
     3
  9
$DIMFRAC
 70
     0
  9
$DIMLDRBLK
  1

  9
$DIMLUNIT
 70
     2
  9
$DIMLWD
 70
    -2
  9
$DIMLWE
 70
    -2
  9
$DIMTMOVE
 70
     0
  9
$LUNITS
 70
     2
  9
$LUPREC
 70
     2
  9
$SKETCHINC
 40
1.0
  9
$FILLETRAD
 40
10.0
  9
$AUNITS
 70
     0
  9
$AUPREC
 70
     2
  9
$MENU
  1
.
  9
$ELEVATION
 40
0.0
  9
$PELEVATION
 40
0.0
  9
$THICKNESS
 40
0.0
  9
$LIMCHECK
 70
     0
  9
$CHAMFERA
 40
0.0
  9
$CHAMFERB
 40
0.0
  9
$CHAMFERC
 40
0.0
  9
$CHAMFERD
 40
0.0
  9
$SKPOLY
 70
     0
  9
$TDCREATE
 40
2457998.472936516
  9
$TDUCREATE
 40
2457998.389603183
  9
$TDUPDATE
 40
2457998.472938681
  9
$TDUUPDATE
 40
2457998.389605347
  9
$TDINDWG
 40
0.0000000116
  9
$TDUSRTIMER
 40
0.0000000116
  9
$USRTIMER
 70
     1
  9
$ANGBASE
 50
0.0
  9
$ANGDIR
 70
     0
  9
$PDMODE
 70
     0
  9
$PDSIZE
 40
-1.0
  9
$PLINEWID
 40
0.0
  9
$SPLFRAME
 70
     0
  9
$SPLINETYPE
 70
     6
  9
$SPLINESEGS
 70
     8
  9
$HANDSEED
  5
1BF
  9
$SURFTAB1
 70
     6
  9
$SURFTAB2
 70
     6
  9
$SURFTYPE
 70
     6
  9
$SURFU
 70
     6
  9
$SURFV
 70
     6
  9
$UCSBASE
  2

  9
$UCSNAME
  2

  9
$UCSORG
 10
0.0
 20
0.0
 30
0.0
  9
$UCSXDIR
 10
1.0
 20
0.0
 30
0.0
  9
$UCSYDIR
 10
0.0
 20
1.0
 30
0.0
  9
$UCSORTHOREF
  2

  9
$UCSORTHOVIEW
 70
     0
  9
$UCSORGTOP
 10
0.0
 20
0.0
 30
0.0
  9
$UCSORGBOTTOM
 10
0.0
 20
0.0
 30
0.0
  9
$UCSORGLEFT
 10
0.0
 20
0.0
 30
0.0
  9
$UCSORGRIGHT
 10
0.0
 20
0.0
 30
0.0
  9
$UCSORGFRONT
 10
0.0
 20
0.0
 30
0.0
  9
$UCSORGBACK
 10
0.0
 20
0.0
 30
0.0
  9
$PUCSBASE
  2

  9
$PUCSNAME
  2

  9
$PUCSORG
 10
0.0
 20
0.0
 30
0.0
  9
$PUCSXDIR
 10
1.0
 20
0.0
 30
0.0
  9
$PUCSYDIR
 10
0.0
 20
1.0
 30
0.0
  9
$PUCSORTHOREF
  2

  9
$PUCSORTHOVIEW
 70
     0
  9
$PUCSORGTOP
 10
0.0
 20
0.0
 30
0.0
  9
$PUCSORGBOTTOM
 10
0.0
 20
0.0
 30
0.0
  9
$PUCSORGLEFT
 10
0.0
 20
0.0
 30
0.0
  9
$PUCSORGRIGHT
 10
0.0
 20
0.0
 30
0.0
  9
$PUCSORGFRONT
 10
0.0
 20
0.0
 30
0.0
  9
$PUCSORGBACK
 10
0.0
 20
0.0
 30
0.0
  9
$USERI1
 70
     0
  9
$USERI2
 70
     0
  9
$USERI3
 70
     0
  9
$USERI4
 70
     0
  9
$USERI5
 70
     0
  9
$USERR1
 40
0.0
  9
$USERR2
 40
0.0
  9
$USERR3
 40
0.0
  9
$USERR4
 40
0.0
  9
$USERR5
 40
0.0
  9
$WORLDVIEW
 70
     1
  9
$SHADEDGE
 70
     3
  9
$SHADEDIF
 70
    70
  9
$TILEMODE
 70
     1
  9
$MAXACTVP
 70
    64
  9
$PINSBASE
 10
0.0
 20
0.0
 30
0.0
  9
$PLIMCHECK
 70
     0
  9
$PEXTMIN
 10
1.0000000000E+20
 20
1.0000000000E+20
 30
1.0000000000E+20
  9
$PEXTMAX
 10
-1.0000000000E+20
 20
-1.0000000000E+20
 30
-1.0000000000E+20
  9
$PLIMMIN
 10
0.0
 20
0.0
  9
$PLIMMAX
 10
420.0
 20
297.0
  9
$UNITMODE
 70
     0
  9
$VISRETAIN
 70
     1
  9
$PLINEGEN
 70
     0
  9
$PSLTSCALE
 70
     1
  9
$TREEDEPTH
 70
  3020
  9
$CMLSTYLE
  2
Standard
  9
$CMLJUST
 70
     0
  9
$CMLSCALE
 40
20.0
  9
$PROXYGRAPHICS
 70
     1
  9
$MEASUREMENT
 70
     1
  9
$CELWEIGHT
370
    -1
  9
$ENDCAPS
280
     0
  9
$JOINSTYLE
280
     0
  9
$LWDISPLAY
290
     1
  9
$INSUNITS
 70
     4
  9
$HYPERLINKBASE
  1

  9
$STYLESHEET
  1

  9
$XEDIT
290
     1
  9
$CEPSNTYPE
380
     0
  9
$PSTYLEMODE
290
     1
  9
$FINGERPRINTGUID
  2
{4675EA30-F991-487A-9783-E88375660993}
  9
$VERSIONGUID
  2
{FAEB1C32-E019-11D5-929B-00C0DF256EC4}
  9
$EXTNAMES
290
     1
  9
$PSVPSCALE
 40
0.0
  9
$OLESTARTUP
290
     0
  0
ENDSEC
  0
SECTION
  2
CLASSES
  0
CLASS
  1
ACDBDICTIONARYWDFLT
  2
AcDbDictionaryWithDefault
  3
ObjectDBX Classes
 90
        0
280
     0
281
     0
  0
CLASS
  1
VISUALSTYLE
  2
AcDbVisualStyle
  3
ObjectDBX Classes
 90
     4095
280
     0
281
     0
  0
CLASS
  1
MATERIAL
  2
AcDbMaterial
  3
ObjectDBX Classes
 90
     1153
280
     0
281
     0
  0
CLASS
  1
SCALE
  2
AcDbScale
  3
ObjectDBX Classes
 90
     1153
280
     0
281
     0
  0
CLASS
  1
TABLESTYLE
  2
AcDbTableStyle
  3
ObjectDBX Classes
 90
     4095
280
     0
281
     0
  0
CLASS
  1
MLEADERSTYLE
  2
AcDbMLeaderStyle
  3
ACDB_MLEADERSTYLE_CLASS
 90
     4095
280
     0
281
     0
  0
CLASS
  1
SUN
  2
AcDbSun
  3
SCENEOE
 90
     1153
280
     0
281
     0
  0
CLASS
  1
ACDBPLACEHOLDER
  2
AcDbPlaceHolder
  3
ObjectDBX Classes
 90
        0
280
     0
281
     0
  0
CLASS
  1
LAYOUT
  2
AcDbLayout
  3
ObjectDBX Classes
 90
        0
280
     0
281
     0
  0
ENDSEC
  0
SECTION
  2
TABLES
  0
TABLE
  2
VPORT
  5
8
330
0
100
AcDbSymbolTable
 70
     1
  0
VPORT
  5
29
330
8
100
AcDbSymbolTableRecord
100
AcDbViewportTableRecord
  2
*Active
 70
     0
 10
0.0
 20
0.0
 11
1.0
 21
1.0
 12
297.0
 22
420.5
 13
0.0
 23
0.0
 14
10.0
 24
10.0
 15
10.0
 25
10.0
 16
0.0
 26
0.0
 36
1.0
 17
0.0
 27
0.0
 37
0.0
 40
841.0
 41
0.7063020214
 42
50.0
 43
0.0
 44
0.0
 50
0.0
 51
0.0
 71
     0
 72
  2000
 73
     1
 74
     3
 75
     0
 76
     0
 77
     0
 78
     0
281
     0
 65
     1
110
0.0
120
0.0
130
0.0
111
1.0
121
0.0
131
0.0
112
0.0
122
1.0
132
0.0
 79
     0
146
0.0
  0
ENDTAB
  0
TABLE
  2
LTYPE
  5
5
330
0
100
AcDbSymbolTable
 70
     6
  0
LTYPE
  5
14
330
5
100
AcDbSymbolTableRecord
100
AcDbLinetypeTableRecord
  2
ByBlock
 70
     0
  3

 72
    65
 73
     0
 40
0.0
  0
LTYPE
  5
15
330
5
100
AcDbSymbolTableRecord
100
AcDbLinetypeTableRecord
  2
ByLayer
 70
     0
  3

 72
    65
 73
     0
 40
0.0
  0
LTYPE
  5
16
330
5
100
AcDbSymbolTableRecord
100
AcDbLinetypeTableRecord
  2
Continuous
 70
     0
  3
Solid line
 72
    65
 73
     0
 40
0.0
  0
LTYPE
  5
6E
330
5
100
AcDbSymbolTableRecord
100
AcDbLinetypeTableRecord
  2
HIDDEN
 70
     0
  3
Hidden __ __ __ __ __ __ __ __ __ __ __ __ __ __
 72
    65
 73
     2
 40
1.905
 49
1.27
 74
     0
 49
-0.635
 74
     0
  0
LTYPE
  5
6F
330
5
100
AcDbSymbolTableRecord
100
AcDbLinetypeTableRecord
  2
PHANTOM
 70
     0
  3
Phantom ______  __  __  ______  __  __  ______
 72
    65
 73
     6
 40
12.7
 49
6.35
 74
     0
 49
-1.27
 74
     0
 49
1.27
 74
     0
 49
-1.27
 74
     0
 49
1.27
 74
     0
 49
-1.27
 74
     0
  0
LTYPE
  5
70
330
5
100
AcDbSymbolTableRecord
100
AcDbLinetypeTableRecord
  2
CENTER
 70
     0
  3
Center ____ _ ____ _ ____ _ ____ _ ____ _ ____
 72
    65
 73
     4
 40
10.16
 49
6.35
 74
     0
 49
-1.27
 74
     0
 49
1.27
 74
     0
 49
-1.27
 74
     0
  0
LTYPE
  5
71
330
5
100
AcDbSymbolTableRecord
100
AcDbLinetypeTableRecord
  2
CENTERX2
 70
     0
  3
Center (2x) ________  __  ________  __  _____
 72
    65
 73
     4
 40
20.32
 49
12.7
 74
     0
 49
-2.54
 74
     0
 49
2.54
 74
     0
 49
-2.54
 74
     0
  0
LTYPE
  5
72
330
5
100
AcDbSymbolTableRecord
100
AcDbLinetypeTableRecord
  2
DOT2
 70
     0
  3
Dot (.5x) ........................................
 72
    65
 73
     2
 40
0.635
 49
0.0
 74
     0
 49
-0.635
 74
     0
  0
ENDTAB
  0
TABLE
  2
LAYER
  5
2
330
0
100
AcDbSymbolTable
 70
     1
  0
LAYER
  5
10
330
2
100
AcDbSymbolTableRecord
100
AcDbLayerTableRecord
  2
0
 70
     0
 62
     7
  6
Continuous
370
    -3
390
F
  0
ENDTAB
  0
TABLE
  2
STYLE
  5
3
330
0
100
AcDbSymbolTable
 70
     3
  0
STYLE
  5
11
330
3
100
AcDbSymbolTableRecord
100
AcDbTextStyleTableRecord
  2
Standard
 70
     0
 40
0.0
 41
1.0
 50
0.0
 71
     0
 42
10.0
  3
txt
  4

  0
STYLE
  5
76
330
3
100
AcDbSymbolTableRecord
100
AcDbTextStyleTableRecord
  2
SLDTEXTSTYLE0
 70
     0
 40
0.0
 41
0.96
 50
0.0
 71
     0
 42
10.0
  3
ISOCP3
  4

  0
STYLE
  5
8D
330
3
100
AcDbSymbolTableRecord
100
AcDbTextStyleTableRecord
  2
SLDTEXTSTYLE1
 70
     0
 40
0.0
 41
0.605
 50
0.0
 71
     0
 42
10.0
  3
TXT
  4

  0
ENDTAB
  0
TABLE
  2
VIEW
  5
6
330
0
100
AcDbSymbolTable
 70
     0
  0
ENDTAB
  0
TABLE
  2
UCS
  5
7
330
0
100
AcDbSymbolTable
 70
     0
  0
ENDTAB
  0
TABLE
  2
APPID
  5
9
330
0
100
AcDbSymbolTable
 70
     1
  0
APPID
  5
12
330
9
100
AcDbSymbolTableRecord
100
AcDbRegAppTableRecord
  2
ACAD
 70
     0
  0
ENDTAB
  0
TABLE
  2
DIMSTYLE
  5
A
330
0
100
AcDbSymbolTable
 70
     2
100
AcDbDimStyleTable
  0
DIMSTYLE
105
27
330
A
100
AcDbSymbolTableRecord
100
AcDbDimStyleTableRecord
  2
ISO-25
 70
     0
 41
2.5
 42
0.625
 43
3.75
 44
1.25
 73
     0
 74
     0
 77
     1
 78
     8
140
2.5
141
2.5
143
0.0393700787
147
0.625
171
     3
172
     1
178
     0
271
     2
272
     2
274
     3
278
    44
283
     0
284
     8
340
11
  0
DIMSTYLE
105
77
102
{ACAD_REACTORS
330
75
330
82
102
}
330
A
100
AcDbSymbolTableRecord
100
AcDbDimStyleTableRecord
  2
SLDDIMSTYLE0
 70
     0
 41
2.5
 44
0.0
 45
0.000000001
 73
     0
 74
     0
 77
     1
 78
    12
 79
     3
140
6.0
147
1.5
173
     1
178
     0
271
     2
272
     2
276
     2
284
    12
340
76
  0
ENDTAB
  0
TABLE
  2
BLOCK_RECORD
  5
1
330
0
100
AcDbSymbolTable
 70
     3
  0
BLOCK_RECORD
  5
1F
330
1
100
AcDbSymbolTableRecord
100
AcDbBlockTableRecord
  2
*Model_Space
340
22
  0
BLOCK_RECORD
  5
1B
330
1
100
AcDbSymbolTableRecord
100
AcDbBlockTableRecord
  2
*Paper_Space
340
1E
  0
BLOCK_RECORD
  5
23
330
1
100
AcDbSymbolTableRecord
100
AcDbBlockTableRecord
  2
*Paper_Space0
340
26
  0
BLOCK_RECORD
  5
78
330
1
100
AcDbSymbolTableRecord
100
AcDbBlockTableRecord
  2
_D
340
0
  0
BLOCK_RECORD
  5
83
330
1
100
AcDbSymbolTableRecord
100
AcDbBlockTableRecord
  2
_D_1
340
0
  0
ENDTAB
  0
ENDSEC
  0
SECTION
  2
BLOCKS
  0
BLOCK
  5
20
330
1F
100
AcDbEntity
  8
0
100
AcDbBlockBegin
  2
*Model_Space
 70
     0
 10
0.0
 20
0.0
 30
0.0
  3
*Model_Space
  1

  0
ENDBLK
  5
21
330
1F
100
AcDbEntity
  8
0
100
AcDbBlockEnd
  0
BLOCK
  5
1C
330
1B
100
AcDbEntity
 67
     1
  8
0
100
AcDbBlockBegin
  2
*Paper_Space
 70
     0
 10
0.0
 20
0.0
 30
0.0
  3
*Paper_Space
  1

  0
ENDBLK
  5
1D
330
1B
100
AcDbEntity
 67
     1
  8
0
100
AcDbBlockEnd
  0
BLOCK
  5
24
330
23
100
AcDbEntity
  8
0
100
AcDbBlockBegin
  2
*Paper_Space0
 70
     0
 10
0.0
 20
0.0
 30
0.0
  3
*Paper_Space0
  1

  0
ENDBLK
  5
25
330
23
100
AcDbEntity
  8
0
100
AcDbBlockEnd
  0
BLOCK
  5
79
330
78
100
AcDbEntity
  8
0
100
AcDbBlockBegin
  2
_D
 70
     0
 10
0.0
 20
0.0
 30
0.0
  3
_D
  1

  0
SOLID
  5
7B
330
78
100
AcDbEntity
  8
0
  6
Continuous
 62
     7
370
    18
100
AcDbTrace
 10
42.7614395004
 20
152.0299240879
 30
0.0
 11
42.4614395004
 21
149.5299240879
 31
0.0
 12
43.0614395004
 22
149.5299240879
 32
0.0
 13
43.0614395004
 23
149.5299240879
 33
0.0
  0
SOLID
  5
7C
330
78
100
AcDbEntity
  8
0
  6
Continuous
 62
     7
370
    18
100
AcDbTrace
 10
42.7614395004
 20
52.0299240879
 30
0.0
 11
43.0614395004
 21
54.5299240879
 31
0.0
 12
42.4614395004
 22
54.5299240879
 32
0.0
 13
42.4614395004
 23
54.5299240879
 33
0.0
  0
LINE
  5
7D
330
78
100
AcDbEntity
  8
0
  6
Continuous
 62
     7
370
    18
100
AcDbLine
 10
56.6850079902
 20
152.0299240879
 30
0.0
 11
41.7614395004
 21
152.0299240879
 31
0.0
  0
LINE
  5
7E
330
78
100
AcDbEntity
  8
0
  6
Continuous
 62
     7
370
    18
100
AcDbLine
 10
56.6850079902
 20
52.0299240879
 30
0.0
 11
41.7614395004
 21
52.0299240879
 31
0.0
  0
LINE
  5
7F
330
78
100
AcDbEntity
  8
0
  6
Continuous
 62
     7
370
    18
100
AcDbLine
 10
42.7614395004
 20
152.0299240879
 30
0.0
 11
42.7614395004
 21
52.0299240879
 31
0.0
  0
MTEXT
  5
80
330
78
100
AcDbEntity
  8
0
  6
Continuous
 62
     7
370
    18
100
AcDbMText
 10
35.0270332946
 20
94.3680541463
 30
0.0
 40
6.0
 41
0.0
 71
     1
 72
     1
  1
100
  7
SLDTEXTSTYLE0
 11
-7.044195017643634E-15
 21
1.0
 31
0.0
 73
     1
 44
1.0
  0
MTEXT
  5
81
330
78
100
AcDbEntity
  8
0
  6
Continuous
 62
     7
370
    18
100
AcDbMText
 10
35.0270332946
 20
105.7430548466
 30
0.0
 40
6.0
 41
0.0
 71
     1
 72
     1
  1
mm
  7
SLDTEXTSTYLE0
 11
-7.044195017643634E-15
 21
1.0
 31
0.0
 73
     1
 44
1.0
  0
ENDBLK
  5
7A
330
78
100
AcDbEntity
  8
0
100
AcDbBlockEnd
  0
BLOCK
  5
84
330
83
100
AcDbEntity
  8
0
100
AcDbBlockBegin
  2
_D_1
 70
     0
 10
0.0
 20
0.0
 30
0.0
  3
_D_1
  1

  0
SOLID
  5
86
330
83
100
AcDbEntity
  8
0
  6
Continuous
 62
     7
370
    18
100
AcDbTrace
 10
56.6850079902
 20
38.4602342313
 30
0.0
 11
59.1850079902
 21
38.1602342313
 31
0.0
 12
59.1850079902
 22
38.7602342313
 32
0.0
 13
59.1850079902
 23
38.7602342313
 33
0.0
  0
SOLID
  5
87
330
83
100
AcDbEntity
  8
0
  6
Continuous
 62
     7
370
    18
100
AcDbTrace
 10
156.6850079902
 20
38.4602342313
 30
0.0
 11
154.1850079902
 21
38.7602342313
 31
0.0
 12
154.1850079902
 22
38.1602342313
 32
0.0
 13
154.1850079902
 23
38.1602342313
 33
0.0
  0
LINE
  5
88
330
83
100
AcDbEntity
  8
0
  6
Continuous
 62
     7
370
    18
100
AcDbLine
 10
56.6850079902
 20
52.0299240879
 30
0.0
 11
56.6850079902
 21
37.4602342313
 31
0.0
  0
LINE
  5
89
330
83
100
AcDbEntity
  8
0
  6
Continuous
 62
     7
370
    18
100
AcDbLine
 10
156.6850079902
 20
52.0299240879
 30
0.0
 11
156.6850079902
 21
37.4602342313
 31
0.0
  0
LINE
  5
8A
330
83
100
AcDbEntity
  8
0
  6
Continuous
 62
     7
370
    18
100
AcDbLine
 10
56.6850079902
 20
38.4602342313
 30
0.0
 11
156.6850079902
 21
38.4602342313
 31
0.0
  0
MTEXT
  5
8B
330
83
100
AcDbEntity
  8
0
  6
Continuous
 62
     7
370
    18
100
AcDbMText
 10
93.9626484861
 20
46.1946404371
 30
0.0
 40
6.0
 41
0.0
 71
     1
 72
     1
  1
100
  7
SLDTEXTSTYLE0
 73
     1
 44
1.0
  0
MTEXT
  5
8C
330
83
100
AcDbEntity
  8
0
  6
Continuous
 62
     7
370
    18
100
AcDbMText
 10
105.3376491864
 20
46.1946404371
 30
0.0
 40
6.0
 41
0.0
 71
     1
 72
     1
  1
mm
  7
SLDTEXTSTYLE0
 73
     1
 44
1.0
  0
ENDBLK
  5
85
330
83
100
AcDbEntity
  8
0
100
AcDbBlockEnd
  0
ENDSEC
  0
SECTION
  2
ENTITIES
  0
LINE
  5
73
330
1F
100
AcDbEntity
  8
0
  6
Continuous
 62
     7
370
    18
100
AcDbLine
 10
56.6850079902
 20
152.0299240879
 30
0.0
 11
56.6850079902
 21
52.0299240879
 31
0.0
  0
LINE
  5
74
330
1F
100
AcDbEntity
  8
0
  6
Continuous
 62
     7
370
    18
100
AcDbLine
 10
56.6850079902
 20
52.0299240879
 30
0.0
 11
156.6850079902
 21
52.0299240879
 31
0.0
  0
DIMENSION
  5
75
330
1F
100
AcDbEntity
  8
0
  6
Continuous
 62
     7
370
    18
100
AcDbDimension
  2
_D
 10
42.7614395004
 20
52.0299240879
 30
0.0
 11
42.7614395004
 21
105.4472211621
 31
0.0
 70
   160
  1
<>mm
 71
     2
 42
-1.0
  3
SLDDIMSTYLE0
100
AcDbAlignedDimension
 13
56.6850079902
 23
152.0299240879
 33
0.0
 14
56.6850079902
 24
52.0299240879
 34
0.0
 50
90.0
100
AcDbRotatedDimension
  0
DIMENSION
  5
82
330
1F
100
AcDbEntity
  8
0
  6
Continuous
 62
     7
370
    18
100
AcDbDimension
  2
_D_1
 10
156.6850079902
 20
38.4602342313
 30
0.0
 11
105.0418155019
 21
38.4602342313
 31
0.0
 70
   160
  1
<>mm
 71
     2
 42
-1.0
  3
SLDDIMSTYLE0
100
AcDbAlignedDimension
 13
56.6850079902
 23
52.0299240879
 33
0.0
 14
156.6850079902
 24
52.0299240879
 34
0.0
100
AcDbRotatedDimension
  0
MTEXT
  5
8E
330
1F
100
AcDbEntity
  8
0
  6
Continuous
 62
     7
370
     0
100
AcDbMText
 10
412.8252631579
 20
48.4342449499
 30
0.0
 40
10.0
 41
0.0
 71
     1
 72
     1
  1
KLUDI GmbH & Co KG
  7
SLDTEXTSTYLE1
 73
     1
 44
1.0
  0
MTEXT
  5
8F
330
1F
100
AcDbEntity
  8
0
  6
Continuous
 62
     7
370
     0
100
AcDbMText
 10
210.0873490389
 20
48.4342449499
 30
0.0
 40
10.0
 41
0.0
 71
     1
 72
     1
  1
40 216 05 75
  7
SLDTEXTSTYLE1
 73
     1
 44
1.0
  0
SPLINE
  5
90
330
1F
100
AcDbEntity
  8
0
  6
Continuous
 62
     7
370
    25
100
AcDbSpline
210
0.0
220
0.0
230
1.0
 70
     8
 71
     3
 72
     9
 73
     5
 74
     0
 42
0.000000001
 43
0.00000001
 40
0.0
 40
0.0
 40
0.0
 40
0.0
 40
0.3034186288030677
 40
1.0
 40
1.0
 40
1.0
 40
1.0
 10
320.1638289284457
 20
310.2654278888352
 30
0.0
 10
320.1403275890481
 20
307.3483962011288
 30
0.0
 10
320.0628724258951
 20
297.7345115849678
 30
0.0
 10
320.1669731126441
 20
288.1185508807937
 30
0.0
 10
320.2394877117623
 20
281.4202517881043
 30
0.0
  0
LINE
  5
91
330
1F
100
AcDbEntity
  8
0
  6
Continuous
 62
     7
370
    25
100
AcDbLine
 10
320.2335458737
 20
321.6080278768
 30
0.0
 11
320.2166647207
 21
318.8617140665
 31
0.0
  0
SPLINE
  5
92
330
1F
100
AcDbEntity
  8
0
  6
Continuous
 62
     7
370
    25
100
AcDbSpline
210
0.0
220
0.0
230
1.0
 70
     8
 71
     3
 72
    13
 73
     9
 74
     0
 42
0.000000001
 43
0.00000001
 40
0.0
 40
0.0
 40
0.0
 40
0.0
 40
0.1209647965912298
 40
0.2617122355617684
 40
0.4229645362007909
 40
0.6052270822691987
 40
0.8088928512494961
 40
1.0
 40
1.0
 40
1.0
 40
1.0
 10
369.2229088884343
 20
281.4202517881043
 30
0.0
 10
369.2283046269205
 20
282.3187736843723
 30
0.0
 10
369.239978525621
 20
284.2627621901206
 30
0.0
 10
369.3035917894546
 20
287.3765517467335
 30
0.0
 10
369.3805818455903
 20
290.904980625528
 30
0.0
 10
369.4524714305669
 20
294.8477306462984
 30
0.0
 10
369.4954839156309
 20
298.9659039072961
 30
0.0
 10
369.4687413321311
 20
301.7476333493636
 30
0.0
 10
369.4557954114426
 20
303.0942515148766
 30
0.0
  0
SPLINE
  5
93
330
1F
100
AcDbEntity
  8
0
  6
Continuous
 62
     7
370
    25
100
AcDbSpline
210
0.0
220
0.0
230
1.0
 70
     8
 71
     3
 72
    19
 73
    15
 74
     0
 42
0.000000001
 43
0.00000001
 40
0.0
 40
0.0
 40
0.0
 40
0.0
 40
0.1473620318397171
 40
0.2810986310732972
 40
0.336102006434857
 40
0.3811301000842905
 40
0.4011799263391695
 40
0.4211292743530649
 40
0.4648337567780902
 40
0.5174247153435045
 40
0.5795232406509742
 40
0.727251909589449
 40
0.8931277427435147
 40
1.0
 40
1.0
 40
1.0
 40
1.0
 10
325.8219600212325
 20
395.2435836805947
 30
0.0
 10
325.7773664917821
 20
395.0203341287703
 30
0.0
 10
325.6923026532429
 20
394.5944771924747
 30
0.0
 10
325.6064930288037
 20
393.9858463951924
 30
0.0
 10
325.5292562600869
 20
393.359295760752
 30
0.0
 10
325.4698620874383
 20
392.9021527469965
 30
0.0
 10
325.4078029837024
 20
392.4901175905158
 30
0.0
 10
325.33666102733
 20
392.0575849679828
 30
0.0
 10
325.2257206187303
 20
391.4628393267577
 30
0.0
 10
325.0738315143448
 20
390.747135610232
 30
0.0
 10
324.8235425876969
 20
389.6655835946935
 30
0.0
 10
324.4773834636085
 20
388.2592290306376
 30
0.0
 10
324.1323837528122
 20
386.7665706142953
 30
0.0
 10
323.9382594098025
 20
385.6862231195065
 30
0.0
 10
323.8621946912755
 20
385.2629051222451
 30
0.0
  0
SPLINE
  5
94
330
1F
100
AcDbEntity
  8
0
  6
Continuous
 62
     7
370
    25
100
AcDbSpline
210
0.0
220
0.0
230
1.0
 70
     8
 71
     3
 72
    17
 73
    13
 74
     0
 42
0.000000001
 43
0.00000001
 40
0.0
 40
0.0
 40
0.0
 40
0.0
 40
0.3394267124801671
 40
0.4470783646761643
 40
0.465057951521695
 40
0.4804413933244743
 40
0.4945542320585702
 40
0.5088215458533968
 40
0.5244101320658557
 40
0.584335692576393
 40
0.6982183540276534
 40
1.0
 40
1.0
 40
1.0
 40
1.0
 10
327.1403737854708
 20
396.4167893542893
 30
0.0
 10
327.0059350239015
 20
396.3936130256348
 30
0.0
 10
326.8288580306611
 20
396.3630861556712
 30
0.0
 10
326.5623501465751
 20
396.2324779141373
 30
0.0
 10
326.4308121963033
 20
396.1426917685603
 30
0.0
 10
326.3793178231741
 20
396.1042352786254
 30
0.0
 10
326.3286260784462
 20
396.0629919213287
 30
0.0
 10
326.280143496715
 20
396.0200777691485
 30
0.0
 10
326.1941067468019
 20
395.9373202770473
 30
0.0
 10
326.0738723263509
 20
395.7960665429825
 30
0.0
 10
325.9021206012987
 20
395.5277807547233
 30
0.0
 10
325.8505673528867
 20
395.3383792551463
 30
0.0
 10
325.8131385338057
 20
395.2008695020326
 30
0.0
  0
SPLINE
  5
95
330
1F
100
AcDbEntity
  8
0
  6
Continuous
 62
     7
370
    25
100
AcDbSpline
210
0.0
220
0.0
230
1.0
 70
     8
 71
     3
 72
     9
 73
     5
 74
     0
 42
0.000000001
 43
0.00000001
 40
0.0
 40
0.0
 40
0.0
 40
0.0
 40
0.4988687375216719
 40
1.0
 40
1.0
 40
1.0
 40
1.0
 10
432.7111110579718
 20
396.3095382465966
 30
0.0
 10
432.711572161558
 20
396.3266054988501
 30
0.0
 10
432.7124964599786
 20
396.3608174086571
 30
0.0
 10
432.7113650956308
 20
396.3955627035359
 30
0.0
 10
432.7107981335868
 20
396.4129746570237
 30
0.0
  0
ARC
  5
96
330
1F
100
AcDbEntity
  8
0
  6
Continuous
 62
     7
370
    25
100
AcDbCircle
 10
344.7311983001
 20
361.1800295303
 30
0.0
 40
21.64486082191336
100
AcDbArc
 50
144.9802476932
 51
170.9531540197
  0
ARC
  5
97
330
1F
100
AcDbEntity
  8
0
  6
Continuous
 62
     7
370
    25
100
AcDbCircle
 10
344.7311983001
 20
361.1800295303
 30
0.0
 40
21.64486082191336
100
AcDbArc
 50
9.0468459803
 51
9.5739963405
  0
SPLINE
  5
98
330
1F
100
AcDbEntity
  8
0
  6
Continuous
 62
     7
370
    25
100
AcDbSpline
210
0.0
220
0.0
230
1.0
 70
     8
 71
     3
 72
    13
 73
     9
 74
     0
 42
0.000000001
 43
0.00000001
 40
0.0
 40
0.0
 40
0.0
 40
0.0
 40
0.2961539282141121
 40
0.5530163166114451
 40
0.6682039365838811
 40
0.7775643057527981
 40
0.8860867294135463
 40
1.0
 40
1.0
 40
1.0
 40
1.0
 10
429.3072015535582
 20
392.7971333875306
 30
0.0
 10
429.797573140328
 20
392.923492455361
 30
0.0
 10
430.7132573938568
 20
393.1594461929442
 30
0.0
 10
431.6171773787262
 20
393.7944320327014
 30
0.0
 10
432.1390499777061
 20
394.4602942037288
 30
0.0
 10
432.4164506797031
 20
395.0252828925231
 30
0.0
 10
432.5968613212643
 20
395.6704391465615
 30
0.0
 10
432.6275597576088
 20
396.1274386696059
 30
0.0
 10
432.6432809722174
 20
396.3614762439378
 30
0.0
  0
ARC
  5
99
330
1F
100
AcDbEntity
  8
0
  6
Continuous
 62
     7
370
    25
100
AcDbCircle
 10
356.2311983001
 20
363.0110903053
 30
0.0
 40
9.999999999999979
100
AcDbArc
 50
1.7766557447
 51
9.0468459803
  0
ARC
  5
9A
330
1F
100
AcDbEntity
  8
0
  6
Continuous
 62
     7
370
    25
100
AcDbCircle
 10
333.2311983001
 20
363.0110903053
 30
0.0
 40
10.0
100
AcDbArc
 50
170.9531540197
 51
180.0
  0
LINE
  5
9B
330
1F
100
AcDbEntity
  8
0
  6
Continuous
 62
     7
370
    25
100
AcDbLine
 10
323.2311975699
 20
363.0110905184
 30
0.0
 11
323.2311975699
 21
361.7802099003
 31
0.0
  0
SPLINE
  5
9C
330
1F
100
AcDbEntity
  8
0
  6
Continuous
 62
     7
370
    25
100
AcDbSpline
210
0.0
220
0.0
230
1.0
 70
     8
 71
     3
 72
    12
 73
     8
 74
     0
 42
0.000000001
 43
0.00000001
 40
0.0
 40
0.0
 40
0.0
 40
0.0
 40
0.1358416950462295
 40
0.3633285887804939
 40
0.5925452861390391
 40
0.8376465875381129
 40
1.0
 40
1.0
 40
1.0
 40
1.0
 10
332.0873609301199
 20
396.8079001321443
 30
0.0
 10
331.8235129606137
 20
396.7950633803703
 30
0.0
 10
331.1178127676012
 20
396.7607296001202
 30
0.0
 10
329.9795568112886
 20
396.6830700348238
 30
0.0
 10
328.7858748248809
 20
396.5870292478985
 30
0.0
 10
327.8458823989005
 20
396.4969910794687
 30
0.0
 10
327.3468101415422
 20
396.4376217447092
 30
0.0
 10
327.1479510259379
 20
396.4139655842431
 30
0.0
  0
SPLINE
  5
9D
330
1F
100
AcDbEntity
  8
0
  6
Continuous
 62
     7
370
    25
100
AcDbSpline
210
0.0
220
0.0
230
1.0
 70
     8
 71
     3
 72
    17
 73
    13
 74
     0
 42
0.000000001
 43
0.00000001
 40
0.0
 40
0.0
 40
0.0
 40
0.0
 40
0.0043127206030218
 40
0.0332200420790637
 40
0.0805946527256205
 40
0.1687912138192944
 40
0.280099681146074
 40
0.4078497898754065
 40
0.5453250982479595
 40
0.7326216201919218
 40
0.9096620477403989
 40
0.9999999999999999
 40
0.9999999999999999
 40
0.9999999999999999
 40
0.9999999999999999
 10
344.7592379981071
 20
397.1061692251809
 30
0.0
 10
344.7412457930225
 20
397.1059801744389
 30
0.0
 10
344.6026553613618
 20
397.1045239536026
 30
0.0
 10
344.2792430653607
 20
397.101121756465
 30
0.0
 10
343.6169897819465
 20
397.0939354650485
 30
0.0
 10
342.6074202129751
 20
397.0823268728516
 30
0.0
 10
341.2232131370501
 20
397.064825540483
 30
0.0
 10
339.5982758774969
 20
397.0411183599938
 30
0.0
 10
337.6465368247214
 20
397.0064788887079
 30
0.0
 10
335.5187923594167
 20
396.953182968649
 30
0.0
 10
333.6315720960424
 20
396.8901047098739
 30
0.0
 10
332.4773371824746
 20
396.8286601381957
 30
0.0
 10
332.0873609301199
 20
396.8079001321443
 30
0.0
  0
LINE
  5
9E
330
1F
100
AcDbEntity
  8
0
  6
Continuous
 62
     7
370
    25
100
AcDbLine
 10
368.0219591152
 20
380.86077428
 30
0.0
 11
368.0219591152
 21
384.0235829963
 31
0.0
  0
LINE
  5
9F
330
1F
100
AcDbEntity
  8
0
  6
Continuous
 62
     7
370
    25
100
AcDbLine
 10
368.0219591152
 20
364.7800297155
 30
0.0
 11
368.0219591152
 21
372.8998885169
 31
0.0
  0
SPLINE
  5
A0
330
1F
100
AcDbEntity
  8
0
  6
Continuous
 62
     7
370
    25
100
AcDbSpline
210
0.0
220
0.0
230
1.0
 70
     8
 71
     3
 72
    15
 73
    11
 74
     0
 42
0.000000001
 43
0.00000001
 40
0.0
 40
0.0
 40
0.0
 40
0.0
 40
0.1645693183824106
 40
0.2993599212468872
 40
0.4085196385723057
 40
0.4940881258325439
 40
0.5787630557272238
 40
0.6866804065836004
 40
0.8236254069853395
 40
1.0
 40
1.0
 40
1.0
 40
1.0
 10
368.0218305927266
 20
384.0235829963334
 30
0.0
 10
368.0213597757622
 20
384.6011752823296
 30
0.0
 10
368.0205033358696
 20
385.6518448904207
 30
0.0
 10
368.2391037959812
 20
387.0805082445809
 30
0.0
 10
368.6995147705596
 20
388.1536031839571
 30
0.0
 10
369.2640362501059
 20
388.9608118713373
 30
0.0
 10
369.9556299141635
 20
389.6565347040171
 30
0.0
 10
370.9167570486413
 20
390.3108990855794
 30
0.0
 10
372.3018672541922
 20
390.8794517746648
 30
0.0
 10
373.4026699458981
 20
390.9794121163374
 30
0.0
 10
374.0223363530387
 20
391.0356820239671
 30
0.0
  0
LINE
  5
A1
330
1F
100
AcDbEntity
  8
0
  6
Continuous
 62
     7
370
    25
100
AcDbLine
 10
452.7832508576
 20
334.5189862563
 30
0.0
 11
453.5332486522
 21
335.8180247857
 31
0.0
  0
LINE
  5
A2
330
1F
100
AcDbEntity
  8
0
  6
Continuous
 62
     7
370
    25
100
AcDbLine
 10
453.5332486522
 20
357.1199462428
 30
0.0
 11
452.7832508576
 21
358.4189847722
 31
0.0
  0
LINE
  5
A3
330
1F
100
AcDbEntity
  8
0
  6
Continuous
 62
     7
370
    25
100
AcDbLine
 10
446.3002920639
 20
334.5189862563
 30
0.0
 11
452.7832508576
 21
334.5189862563
 31
0.0
  0
LINE
  5
A4
330
1F
100
AcDbEntity
  8
0
  6
Continuous
 62
     7
370
    25
100
AcDbLine
 10
452.7832508576
 20
358.4189847722
 30
0.0
 11
449.7311950218
 21
358.4189847722
 31
0.0
  0
SPLINE
  5
A5
330
1F
100
AcDbEntity
  8
0
  6
Continuous
 62
     7
370
    25
100
AcDbSpline
210
0.0
220
0.0
230
1.0
 70
     8
 71
     3
 72
    12
 73
     8
 74
     0
 42
0.000000001
 43
0.00000001
 40
0.0
 40
0.0
 40
0.0
 40
0.0
 40
0.2237592130278906
 40
0.4597440353598005
 40
0.6853531672092906
 40
0.9132774583191748
 40
1.0
 40
1.0
 40
1.0
 40
1.0
 10
432.6964632165183
 20
396.2354198708184
 30
0.0
 10
432.675002016117
 20
395.9801995431188
 30
0.0
 10
432.6309070323055
 20
395.4558143266411
 30
0.0
 10
432.344961685548
 20
394.7119501369315
 30
0.0
 10
431.8808079335215
 20
394.0774359506764
 30
0.0
 10
431.4318851405502
 20
393.6270736360834
 30
0.0
 10
431.096478393304
 20
393.4941572789415
 30
0.0
 10
431.0040340316046
 20
393.4575230493195
 30
0.0
  0
SPLINE
  5
A6
330
1F
100
AcDbEntity
  8
0
  6
Continuous
 62
     7
370
    25
100
AcDbSpline
210
0.0
220
0.0
230
1.0
 70
     8
 71
     3
 72
    10
 73
     6
 74
     0
 42
0.000000001
 43
0.00000001
 40
0.0
 40
0.0
 40
0.0
 40
0.0
 40
0.3753229971603578
 40
0.7076949796662395
 40
1.0
 40
1.0
 40
1.0
 40
1.0
 10
431.5849036466826
 20
397.6535857333787
 30
0.0
 10
430.2069490200063
 20
397.7411151647902
 30
0.0
 10
427.6087294094718
 20
397.9061573808327
 30
0.0
 10
423.933970430103
 20
397.9289337751661
 30
0.0
 10
421.688400622932
 20
397.9097096045819
 30
0.0
 10
420.6376314651717
 20
397.9007140411981
 30
0.0
  0
SPLINE
  5
A7
330
1F
100
AcDbEntity
  8
0
  6
Continuous
 62
     7
370
    25
100
AcDbSpline
210
0.0
220
0.0
230
1.0
 70
     8
 71
     3
 72
     9
 73
     5
 74
     0
 42
0.000000001
 43
0.00000001
 40
0.0
 40
0.0
 40
0.0
 40
0.0
 40
0.8088026833840385
 40
1.0
 40
1.0
 40
1.0
 40
1.0
 10
432.6988548528899
 20
396.541564227546
 30
0.0
 10
432.7078409580409
 20
396.5419847257734
 30
0.0
 10
432.718951338033
 20
396.5425046278907
 30
0.0
 10
432.6593296426745
 20
396.703943296292
 30
0.0
 10
432.6479301345099
 20
396.7348099364884
 30
0.0
  0
LINE
  5
A8
330
1F
100
AcDbEntity
  8
0
  6
Continuous
 62
     7
370
    25
100
AcDbLine
 10
431.59200405
 20
397.6295799627
 30
0.0
 11
431.5152183664
 21
397.6593003287
 31
0.0
  0
LINE
  5
A9
330
1F
100
AcDbEntity
  8
0
  6
Continuous
 62
     7
370
    25
100
AcDbLine
 10
368.0222198856
 20
372.8983238949
 30
0.0
 11
368.5725067299
 21
373.0986104025
 31
0.0
  0
LINE
  5
AA
330
1F
100
AcDbEntity
  8
0
  6
Continuous
 62
     7
370
    25
100
AcDbLine
 10
368.5725067299
 20
380.6614488973
 30
0.0
 11
368.022123028
 21
380.8617726578
 31
0.0
  0
ARC
  5
AB
330
1F
100
AcDbEntity
  8
0
  6
Continuous
 62
     7
370
    25
100
AcDbCircle
 10
368.5041025929
 20
380.4735096392
 30
0.0
 40
0.2000000000000019
100
AcDbArc
 50
0.0
 51
70.0
  0
ARC
  5
AC
330
1F
100
AcDbEntity
  8
0
  6
Continuous
 62
     7
370
    25
100
AcDbCircle
 10
368.5041025929
 20
373.2865494213
 30
0.0
 40
0.1999999999999886
100
AcDbArc
 50
290.0
 51
0.0
  0
LINE
  5
AD
330
1F
100
AcDbEntity
  8
0
  6
Continuous
 62
     7
370
    25
100
AcDbLine
 10
368.7041026097
 20
373.2865512981
 30
0.0
 11
368.7041026097
 21
380.4735080018
 31
0.0
  0
LINE
  5
AE
330
1F
100
AcDbEntity
  8
0
  6
Continuous
 62
     7
370
    25
100
AcDbLine
 10
316.8873485666
 20
316.6255936637
 30
0.0
 11
320.0727139157
 21
308.7415401502
 31
0.0
  0
LINE
  5
AF
330
1F
100
AcDbEntity
  8
0
  6
Continuous
 62
     7
370
    25
100
AcDbLine
 10
301.9711018097
 20
317.4214684083
 30
0.0
 11
314.9631821108
 21
317.8751640632
 31
0.0
  0
LINE
  5
B0
330
1F
100
AcDbEntity
  8
0
  6
Continuous
 62
     7
370
    25
100
AcDbLine
 10
314.8235843074
 20
321.872728379
 30
0.0
 11
301.8315040064
 21
321.4190327241
 31
0.0
  0
ARC
  5
B1
330
1F
100
AcDbEntity
  8
0
  6
Continuous
 62
     7
370
    25
100
AcDbCircle
 10
315.032981448
 20
315.8763819372
 30
0.0
 40
1.999999999999976
100
AcDbArc
 50
90.0
 51
92.0
  0
ARC
  5
B2
330
1F
100
AcDbEntity
  8
0
  6
Continuous
 62
     7
370
    25
100
AcDbCircle
 10
315.032981448
 20
315.8763819372
 30
0.0
 40
1.999999999999987
100
AcDbArc
 50
22.0
 51
90.0
  0
ARC
  5
B3
330
1F
100
AcDbEntity
  8
0
  6
Continuous
 62
     7
370
    25
100
AcDbCircle
 10
315.032981448
 20
315.8763819372
 30
0.0
 40
6.000000000000009
100
AcDbArc
 50
30.572702918
 51
92.0
  0
LINE
  5
B4
330
1F
100
AcDbEntity
  8
0
  6
Continuous
 62
     7
370
    25
100
AcDbLine
 10
323.9456132543
 20
385.7118994608
 30
0.0
 11
323.8670524698
 21
385.3226438775
 31
0.0
  0
LINE
  5
B5
330
1F
100
AcDbEntity
  8
0
  6
Continuous
 62
     7
370
    25
100
AcDbLine
 10
369.7297122818
 20
282.6620164239
 30
0.0
 11
369.7100408864
 21
283.7296139593
 31
0.0
  0
ARC
  5
B6
330
1F
100
AcDbEntity
  8
0
  6
Continuous
 62
     7
370
    25
100
AcDbCircle
 10
321.9183373685
 20
360.3995548221
 30
0.0
 40
1.200000000000002
100
AcDbArc
 50
99.1262944344
 51
179.3284250364
  0
LWPOLYLINE
  5
B7
330
1F
100
AcDbEntity
  8
0
  6
Continuous
 62
     7
370
    25
100
AcDbPolyline
 90
        3
 70
   128
 43
0.0
 10
320.7184203458
 20
360.4136169567
 10
320.4282034677
 20
337.1806912734
 10
320.200023849
 20
318.9262472703
  0
SPLINE
  5
B8
330
1F
100
AcDbEntity
  8
0
  6
Continuous
 62
     7
370
    25
100
AcDbSpline
210
0.0
220
0.0
230
1.0
 70
     8
 71
     3
 72
     9
 73
     5
 74
     0
 42
0.000000001
 43
0.00000001
 40
0.0
 40
0.0
 40
0.0
 40
0.0
 40
0.5332344502134465
 40
1.0
 40
1.0
 40
1.0
 40
1.0
 10
369.7198197734107
 20
282.6621316750519
 30
0.0
 10
369.6936711201132
 20
286.2926529867984
 30
0.0
 10
369.6446333032822
 20
293.1011427801589
 30
0.0
 10
369.5205519469413
 20
299.9086692763462
 30
0.0
 10
369.4626350444306
 20
303.0861881240256
 30
0.0
  0
SPLINE
  5
B9
330
1F
100
AcDbEntity
  8
0
  6
Continuous
 62
     7
370
    25
100
AcDbSpline
210
0.0
220
0.0
230
1.0
 70
    24
 71
     3
 72
    10
 73
     6
 74
     0
 42
0.000000001
 43
0.00000001
 40
0.0
 40
0.0
 40
0.0
 40
0.0
 40
0.5
 40
0.5
 40
1.0
 40
1.0
 40
1.0
 40
1.0
 10
319.7311983000983
 20
281.4202517881043
 30
0.0
 10
319.7311983000983
 20
281.4202517881043
 30
0.0
 10
330.9333230520208
 20
281.4202517881042
 30
0.0
 10
358.5290735481757
 20
281.4202517881042
 30
0.0
 10
369.7311983000982
 20
281.4202517881043
 30
0.0
 10
369.7311983000982
 20
281.4202517881043
 30
0.0
  0
LINE
  5
BA
330
1F
100
AcDbEntity
  8
0
  6
Continuous
 62
     7
370
    25
100
AcDbLine
 10
320.0727139157
 20
308.7415401502
 30
0.0
 11
319.7311979276
 21
281.4202517881
 31
0.0
  0
SPLINE
  5
BB
330
1F
100
AcDbEntity
  8
0
  6
Continuous
 62
     7
370
    25
100
AcDbSpline
210
0.0
220
0.0
230
1.0
 70
     8
 71
     3
 72
    28
 73
    24
 74
     0
 42
0.000000001
 43
0.00000001
 40
0.0
 40
0.0
 40
0.0
 40
0.0
 40
0.0312499999999997
 40
0.0312499999999997
 40
0.0624999999999995
 40
0.0624999999999995
 40
0.1249999999999995
 40
0.1249999999999995
 40
0.1874999999999995
 40
0.1874999999999995
 40
0.2499999999999996
 40
0.2499999999999996
 40
0.3749999999999996
 40
0.3749999999999996
 40
0.4999999999999997
 40
0.4999999999999997
 40
0.6249999999999997
 40
0.6249999999999997
 40
0.7499999999999998
 40
0.7499999999999998
 40
0.8749999999999998
 40
0.8749999999999998
 40
1.0
 40
1.0
 40
1.0
 40
1.0
 10
320.0727143964578
 20
308.7415394968669
 30
0.0
 10
320.0727242884487
 20
308.7415150133302
 30
0.0
 10
320.0736903226649
 20
308.7623470783651
 30
0.0
 10
320.0771642045833
 20
308.8385949042765
 30
0.0
 10
320.0795702030067
 20
308.8918400987607
 30
0.0
 10
320.0880343580727
 20
309.0827748886774
 30
0.0
 10
320.0949965987066
 20
309.244276103941
 30
0.0
 10
320.1093273273806
 20
309.594260077645
 30
0.0
 10
320.1166124007068
 20
309.7804205022264
 30
0.0
 10
320.1307801562897
 20
310.1631587618897
 30
0.0
 10
320.137696288256
 20
310.3604984159359
 30
0.0
 10
320.1576026385779
 20
310.9653430876879
 30
0.0
 10
320.1694097401034
 20
311.3753390664199
 30
0.0
 10
320.1898178945214
 20
312.2019875276932
 30
0.0
 10
320.1984389885344
 20
312.619138093897
 30
0.0
 10
320.2124940057892
 20
313.4596576134705
 30
0.0
 10
320.2179053993923
 20
313.8826692572532
 30
0.0
 10
320.2255196945958
 20
314.7191993836798
 30
0.0
 10
320.2277596709785
 20
315.134752261081
 30
0.0
 10
320.2293824780716
 20
315.959958070591
 30
0.0
 10
320.2287634672045
 20
316.3696632711996
 30
0.0
 10
320.224952097892
 20
317.1810397295986
 30
0.0
 10
320.221697186687
 20
317.5870031561686
 30
0.0
 10
320.2175318677882
 20
317.9710762759102
 30
0.0
  0
SPLINE
  5
BC
330
1F
100
AcDbEntity
  8
0
  6
Continuous
 62
     7
370
    25
100
AcDbSpline
210
0.0
220
0.0
230
1.0
 70
     8
 71
     3
 72
    14
 73
    10
 74
     0
 42
0.000000001
 43
0.00000001
 40
0.0
 40
0.0
 40
0.0
 40
0.0
 40
0.2499999999999999
 40
0.2499999999999999
 40
0.4999999999999999
 40
0.4999999999999999
 40
0.7499999999999999
 40
0.7499999999999999
 40
1.0
 40
1.0
 40
1.0
 40
1.0
 10
320.2175318677882
 20
317.9710762759103
 30
0.0
 10
320.2162016461586
 20
318.0937325199137
 30
0.0
 10
320.2146011650314
 20
318.2110453947587
 30
0.0
 10
320.2110457694304
 20
318.4314613977542
 30
0.0
 10
320.2090647243718
 20
318.5355348563984
 30
0.0
 10
320.2052955033444
 20
318.7140490599252
 30
0.0
 10
320.2034688518659
 20
318.7905351022895
 30
0.0
 10
320.2008309578655
 20
318.8963706645372
 30
0.0
 10
320.2000251809575
 20
318.9262440753481
 30
0.0
 10
320.2000232446937
 20
318.9262473557407
 30
0.0
  0
SPLINE
  5
BD
330
1F
100
AcDbEntity
  8
0
  6
Continuous
 62
     7
370
    25
100
AcDbSpline
210
0.0
220
0.0
230
1.0
 70
     8
 71
     3
 72
    33
 73
    29
 74
     0
 42
0.000000001
 43
0.00000001
 40
0.0
 40
0.0
 40
0.0
 40
0.0
 40
0.0533670854029857
 40
0.1067341708059714
 40
0.1601012562089572
 40
0.1867847989104501
 40
0.2134683416119429
 40
0.2401518843134358
 40
0.2668354270149286
 40
0.3202025124179143
 40
0.3468860551194072
 40
0.3735695978209001
 40
0.4002531405223929
 40
0.4269366832238858
 40
0.4269366832238858
 40
0.5100406779120428
 40
0.5931446726001997
 40
0.6762486672883569
 40
0.7593526619765139
 40
0.7593526619765139
 40
0.7743931206029817
 40
0.7894335792294496
 40
0.8044740378559175
 40
0.8195144964823855
 40
0.8345549551088534
 40
0.8495954137353212
 40
0.8646358723617891
 40
0.8755265344656493
 40
0.8755265344656493
 40
0.8755265344656493
 40
0.8755265344656493
 10
369.462634155811
 20
303.086188532595
 30
0.0
 10
369.4288364902209
 20
305.0807291622481
 30
0.0
 10
369.5960195783697
 20
309.0765128406914
 30
0.0
 10
370.8251693392755
 20
314.9562092006469
 30
0.0
 10
372.9507854457202
 20
319.4942322672057
 30
0.0
 10
375.3809511030095
 20
322.639784380782
 30
0.0
 10
377.5246835522515
 20
324.6955110760578
 30
0.0
 10
379.9364116788596
 20
326.4148454228997
 30
0.0
 10
383.412392722136
 20
328.2587497974954
 30
0.0
 10
387.142190092445
 20
329.4786908741663
 30
0.0
 10
390.949412979082
 20
330.2238217637325
 30
0.0
 10
393.8253087723319
 20
330.5839723639679
 30
0.0
 10
396.7009499551393
 20
330.7698545805238
 30
0.0
 10
398.6116644293306
 20
330.8076078705336
 30
0.0
 10
402.530472120561
 20
330.8889750326748
 30
0.0
 10
408.2791363734798
 20
331.0018086964167
 30
0.0
 10
416.6631208658822
 20
331.1487541812893
 30
0.0
 10
425.0406796664824
 20
331.2781484518528
 30
0.0
 10
430.7754463510197
 20
331.3546954277899
 30
0.0
 10
434.2661355670429
 20
331.3973443637627
 30
0.0
 10
435.3407119663772
 20
331.4213000034138
 30
0.0
 10
436.9642328195914
 20
331.5040666702729
 30
0.0
 10
438.5969605848961
 20
331.6478477337876
 30
0.0
 10
440.2325192137937
 20
331.8774935918782
 30
0.0
 10
441.8598012188149
 20
332.2249178297892
 30
0.0
 10
443.4560235352114
 20
332.7365071811309
 30
0.0
 10
444.8373229466336
 20
333.4024911908837
 30
0.0
 10
445.636734762237
 20
333.9604352264202
 30
0.0
 10
445.953477078073
 20
334.2189865934408
 30
0.0
  0
SPLINE
  5
BE
330
1F
100
AcDbEntity
  8
0
  6
Continuous
 62
     7
370
    25
100
AcDbSpline
210
0.0
220
0.0
230
1.0
 70
     8
 71
     3
 72
    46
 73
    42
 74
     0
 42
0.000000001
 43
0.00000001
 40
0.0
 40
0.0
 40
0.0
 40
0.0
 40
0.0312500000000003
 40
0.0312500000000003
 40
0.0625000000000007
 40
0.0625000000000007
 40
0.1250000000000015
 40
0.1250000000000015
 40
0.1875000000000023
 40
0.1875000000000023
 40
0.2500000000000032
 40
0.2500000000000032
 40
0.2812500000000033
 40
0.2812500000000033
 40
0.3125000000000035
 40
0.3125000000000035
 40
0.3750000000000034
 40
0.3750000000000034
 40
0.4375000000000033
 40
0.4375000000000033
 40
0.4687500000000033
 40
0.4687500000000033
 40
0.5000000000000032
 40
0.5000000000000032
 40
0.5625000000000037
 40
0.5625000000000037
 40
0.5937500000000034
 40
0.5937500000000034
 40
0.6250000000000032
 40
0.6250000000000032
 40
0.7500000000000042
 40
0.7500000000000042
 40
0.7812500000000039
 40
0.7812500000000039
 40
0.8125000000000034
 40
0.8125000000000034
 40
0.8750000000000023
 40
0.8750000000000023
 40
0.9375000000000012
 40
0.9375000000000012
 40
1.0
 40
1.0
 40
1.0
 40
1.0
 10
446.3002943337282
 20
334.5189865915595
 30
0.0
 10
446.3002943152966
 20
334.5189865915594
 30
0.0
 10
446.3037082099
 20
334.5285367363659
 30
0.0
 10
446.3112136221377
 20
334.5662043429874
 30
0.0
 10
446.3144297036694
 20
334.5943273019433
 30
0.0
 10
446.3264773283352
 20
334.7061897835048
 30
0.0
 10
446.3441782238522
 20
334.8172666145168
 30
0.0
 10
446.3998597857745
 20
335.1133852465096
 30
0.0
 10
446.4355432841344
 20
335.2998196235714
 30
0.0
 10
446.5168481588234
 20
335.7361495726995
 30
0.0
 10
446.5626385987204
 20
335.9868651619277
 30
0.0
 10
446.6376608344855
 20
336.4112404111391
 30
0.0
 10
446.6637595212651
 20
336.5607761110628
 30
0.0
 10
446.7177581649904
 20
336.8762726950872
 30
0.0
 10
446.7457549772684
 20
337.0429165865718
 30
0.0
 10
446.8311605825102
 20
337.5623575444113
 30
0.0
 10
446.889824233429
 20
337.9340199226982
 30
0.0
 10
447.0115572245048
 20
338.7262874314169
 30
0.0
 10
447.0748041939399
 20
339.1468795706496
 30
0.0
 10
447.1735856457863
 20
339.8152067798416
 30
0.0
 10
447.2072658480014
 20
340.0451230912619
 30
0.0
 10
447.2750408179567
 20
340.5116946657652
 30
0.0
 10
447.3091827547184
 20
340.7486491018242
 30
0.0
 10
447.4123389982861
 20
341.4702729290346
 30
0.0
 10
447.4819013600643
 20
341.9656764635425
 30
0.0
 10
447.5881583252075
 20
342.7300987886685
 30
0.0
 10
447.6239883925791
 20
342.9884598948834
 30
0.0
 10
447.6968101445639
 20
343.5123808543298
 30
0.0
 10
447.7339332285614
 20
343.7788782257074
 30
0.0
 10
447.9203021690989
 20
345.1116017839972
 30
0.0
 10
448.0733747994674
 20
346.1867401717577
 30
0.0
 10
448.2637452373863
 20
347.5426414199073
 30
0.0
 10
448.3018909918618
 20
347.8153592346103
 30
0.0
 10
448.3767423247738
 20
348.3546560222165
 30
0.0
 10
448.4135277791008
 20
348.6218316557198
 30
0.0
 10
448.521570871475
 20
349.4161393157036
 30
0.0
 10
448.5904934469913
 20
349.9360895941518
 30
0.0
 10
448.7203126781856
 20
350.9569692387583
 30
0.0
 10
448.7814556547229
 20
351.4604261803146
 30
0.0
 10
448.8937722221498
 20
352.4346260125532
 30
0.0
 10
448.9448650779243
 20
352.9031509934558
 30
0.0
 10
448.9930172390696
 20
353.3527274304783
 30
0.0
  0
SPLINE
  5
BF
330
1F
100
AcDbEntity
  8
0
  6
Continuous
 62
     7
370
    25
100
AcDbSpline
210
0.0
220
0.0
230
1.0
 70
     8
 71
     3
 72
     8
 73
     4
 74
     0
 42
0.000000001
 43
0.00000001
 40
0.8755265344656503
 40
0.8755265344656503
 40
0.8755265344656503
 40
0.8755265344656503
 40
0.8795961283660927
 40
0.8795961283660927
 40
0.8795961283660927
 40
0.8795961283660927
 10
446.3002943337283
 20
334.5189865915595
 30
0.0
 10
446.187543156573
 20
334.4155986454573
 30
0.0
 10
446.0718365115257
 20
334.3156013865676
 30
0.0
 10
445.953477078073
 20
334.2189865934408
 30
0.0
  0
SPLINE
  5
C0
330
1F
100
AcDbEntity
  8
0
  6
Continuous
 62
     7
370
    25
100
AcDbSpline
210
0.0
220
0.0
230
1.0
 70
    24
 71
     3
 72
     8
 73
     4
 74
     0
 42
0.000000001
 43
0.00000001
 40
0.0
 40
0.0
 40
0.0
 40
0.0
 40
1.0
 40
1.0
 40
1.0
 40
1.0
 10
359.9961089582074
 20
364.7800295302653
 30
0.0
 10
358.9181754592299
 20
364.7800295302653
 30
0.0
 10
357.7625428121365
 20
364.7800295302653
 30
0.0
 10
356.5306128897681
 20
364.7800295302653
 30
0.0
  0
SPLINE
  5
C1
330
1F
100
AcDbEntity
  8
0
  6
Continuous
 62
     7
370
    25
100
AcDbSpline
210
0.0
220
0.0
230
1.0
 70
     8
 71
     3
 72
    14
 73
    10
 74
     0
 42
0.000000001
 43
0.00000001
 40
0.0
 40
0.0
 40
0.0
 40
0.0
 40
0.2500000000000001
 40
0.2500000000000001
 40
0.3749999999999998
 40
0.3749999999999998
 40
0.4999999999999999
 40
0.4999999999999999
 40
1.0
 40
1.0
 40
1.0
 40
1.0
 10
356.5306128897681
 20
364.7800295302653
 30
0.0
 10
355.7285548633732
 20
364.7800295302654
 30
0.0
 10
354.9051372183999
 20
364.8121652345978
 30
0.0
 10
353.6410177613362
 20
364.9165232827702
 30
0.0
 10
353.214789358332
 20
364.9606734051736
 30
0.0
 10
352.3528329234495
 20
365.0691756219763
 30
0.0
 10
351.9176387126387
 20
365.1335393589417
 30
0.0
 10
349.7472586052546
 20
365.5039528046045
 30
0.0
 10
348.0067721900201
 20
365.9571206523231
 30
0.0
 10
346.270008589998
 20
366.5892509066882
 30
0.0
  0
SPLINE
  5
C2
330
1F
100
AcDbEntity
  8
0
  6
Continuous
 62
     7
370
    25
100
AcDbSpline
210
0.0
220
0.0
230
1.0
 70
    24
 71
     3
 72
     8
 73
     4
 74
     0
 42
0.000000001
 43
0.00000001
 40
0.0
 40
0.0
 40
0.0
 40
0.0
 40
1.0
 40
1.0
 40
1.0
 40
1.0
 10
346.270008589998
 20
366.5892509066881
 30
0.0
 10
345.7599296906964
 20
366.7749044431611
 30
0.0
 10
345.2492332417774
 20
366.9607827493282
 30
0.0
 10
344.7379257732106
 20
367.1468834484446
 30
0.0
  0
SPLINE
  5
C3
330
1F
100
AcDbEntity
  8
0
  6
Continuous
 62
     7
370
    25
100
AcDbSpline
210
0.0
220
0.0
230
1.0
 70
     8
 71
     3
 72
     8
 73
     4
 74
     0
 42
0.000000001
 43
0.00000001
 40
0.0013999840203585
 40
0.0013999840203585
 40
0.0013999840203585
 40
0.0013999840203585
 40
0.6262686277567391
 40
0.6262686277567391
 40
0.6262686277567391
 40
0.6262686277567391
 10
325.8131393580574
 20
395.2008707898391
 30
0.0
 10
324.5009177781115
 20
388.8465844936645
 30
0.0
 10
323.1898441398794
 20
382.4903887688246
 30
0.0
 10
322.3922905642407
 20
375.2800295302654
 30
0.0
  0
SPLINE
  5
C4
330
1F
100
AcDbEntity
  8
0
  6
Continuous
 62
     7
370
    25
100
AcDbSpline
210
0.0
220
0.0
230
1.0
 70
     8
 71
     3
 72
    38
 73
    34
 74
     0
 42
0.000000001
 43
0.00000001
 40
0.0
 40
0.0
 40
0.0
 40
0.0
 40
0.1250000000000002
 40
0.1250000000000002
 40
0.1875000000000002
 40
0.1875000000000002
 40
0.2500000000000003
 40
0.2500000000000003
 40
0.2812500000000003
 40
0.2812500000000003
 40
0.3125000000000004
 40
0.3125000000000004
 40
0.3750000000000004
 40
0.3750000000000004
 40
0.4375000000000004
 40
0.4375000000000004
 40
0.4687500000000005
 40
0.4687500000000005
 40
0.5000000000000006
 40
0.5000000000000006
 40
0.5625000000000009
 40
0.5625000000000009
 40
0.5937500000000008
 40
0.5937500000000008
 40
0.6250000000000008
 40
0.6250000000000008
 40
0.7500000000000006
 40
0.7500000000000006
 40
0.8125000000000006
 40
0.8125000000000006
 40
0.8750000000000006
 40
0.8750000000000006
 40
1.0
 40
1.0
 40
1.0
 40
1.0
 10
322.3922905640271
 20
375.2800295323068
 30
0.0
 10
322.3922609479315
 20
375.280040311684
 30
0.0
 10
322.478974100163
 20
375.2484793033887
 30
0.0
 10
322.767576073445
 20
375.1434367755636
 30
0.0
 10
322.8902515612312
 20
375.0987865495352
 30
0.0
 10
323.193183237478
 20
374.988528436365
 30
0.0
 10
323.3721369963517
 20
374.9233945948249
 30
0.0
 10
323.689948411115
 20
374.8077206997411
 30
0.0
 10
323.8046920964207
 20
374.7659574137198
 30
0.0
 10
324.0546363235603
 20
374.6749851548144
 30
0.0
 10
324.1902629205786
 20
374.6256211105248
 30
0.0
 10
324.629674470257
 20
374.4656883858491
 30
0.0
 10
324.962879247452
 20
374.3444117650349
 30
0.0
 10
325.7158700598309
 20
374.070345522653
 30
0.0
 10
326.1360858187786
 20
373.9173994944265
 30
0.0
 10
326.835620972299
 20
373.6627895207222
 30
0.0
 10
327.0812352855822
 20
373.5733932215774
 30
0.0
 10
327.5911504390367
 20
373.3877992837187
 30
0.0
 10
327.8546454204289
 20
373.2918949536135
 30
0.0
 10
328.6697341306413
 20
372.9952269248096
 30
0.0
 10
329.2456336575877
 20
372.7856166390732
 30
0.0
 10
330.154541261598
 20
372.4548013255152
 30
0.0
 10
330.4650737559206
 20
372.3417767408093
 30
0.0
 10
331.1007784841055
 20
372.1103991419677
 30
0.0
 10
331.4270504018872
 20
371.9916458756182
 30
0.0
 10
333.0783279420676
 20
371.3906300024802
 30
0.0
 10
334.4587460044327
 20
370.8881989169359
 30
0.0
 10
336.5962952691837
 20
370.110194610289
 30
0.0
 10
337.3201095326349
 20
369.8467477632554
 30
0.0
 10
338.7875951010225
 20
369.312626697147
 30
0.0
 10
339.5271606824869
 20
369.0434468392063
 30
0.0
 10
341.7485674981484
 20
368.2349208801094
 30
0.0
 10
343.23838969937
 20
367.6926699445502
 30
0.0
 10
344.7379257732106
 20
367.1468834484639
 30
0.0
  0
SPLINE
  5
C5
330
1F
100
AcDbEntity
  8
0
  6
Continuous
 62
     7
370
    25
100
AcDbSpline
210
0.0
220
0.0
230
1.0
 70
     8
 71
     3
 72
    34
 73
    30
 74
     0
 42
0.000000001
 43
0.00000001
 40
0.0
 40
0.0
 40
0.0
 40
0.0
 40
0.125
 40
0.125
 40
0.1875000000000001
 40
0.1875000000000001
 40
0.2500000000000001
 40
0.2500000000000001
 40
0.3750000000000002
 40
0.3750000000000002
 40
0.4062500000000003
 40
0.4062500000000003
 40
0.4375000000000004
 40
0.4375000000000004
 40
0.5000000000000004
 40
0.5000000000000004
 40
0.6250000000000001
 40
0.6250000000000001
 40
0.65625
 40
0.65625
 40
0.6874999999999999
 40
0.6874999999999999
 40
0.7499999999999999
 40
0.7499999999999999
 40
0.8125
 40
0.8125
 40
0.875
 40
0.875
 40
1.0
 40
1.0
 40
1.0
 40
1.0
 10
366.4811983000983
 20
363.3723460950445
 30
0.0
 10
366.4811983000983
 20
363.3723069128818
 30
0.0
 10
366.3399613020235
 20
363.3510006461088
 30
0.0
 10
365.9251985006304
 20
363.2902661470526
 30
0.0
 10
365.7528734615233
 20
363.2652232353677
 30
0.0
 10
365.3385636541407
 20
363.2060701682551
 30
0.0
 10
365.0955367766478
 20
363.1718230015016
 30
0.0
 10
364.2771776410263
 20
363.0591381887469
 30
0.0
 10
363.6097480726576
 20
362.9702197569919
 30
0.0
 10
362.6244398529465
 20
362.8483914108902
 30
0.0
 10
362.419758035291
 20
362.8234917458055
 30
0.0
 10
361.9949040587789
 20
362.7727927450051
 30
0.0
 10
361.7740868774464
 20
362.7469204101188
 30
0.0
 10
361.0937898663908
 20
362.668890762906
 30
0.0
 10
360.6164848043288
 20
362.6163065507387
 30
0.0
 10
359.115263059109
 20
362.4591947394745
 30
0.0
 10
358.0227130371317
 20
362.3552834528583
 30
0.0
 10
356.5387278043717
 20
362.2340750304752
 30
0.0
 10
356.2352384006396
 20
362.2102184618768
 30
0.0
 10
355.6224381920324
 20
362.164050226843
 30
0.0
 10
355.3125817620383
 20
362.1416896663565
 30
0.0
 10
354.3728104903413
 20
362.0769877995976
 30
0.0
 10
353.7327176460608
 20
362.0370269817338
 30
0.0
 10
352.4256601305887
 20
361.964531764229
 30
0.0
 10
351.7586961793361
 20
361.9319862021603
 30
0.0
 10
350.3974047502089
 20
361.8754368482832
 30
0.0
 10
349.6997454109405
 20
361.8513709570133
 30
0.0
 10
347.5911956448091
 20
361.7948858614578
 30
0.0
 10
346.1693194268532
 20
361.7792420408973
 30
0.0
 10
344.7311983000983
 20
361.7797253054372
 30
0.0
  0
SPLINE
  5
C6
330
1F
100
AcDbEntity
  8
0
  6
Continuous
 62
     7
370
    25
100
AcDbSpline
210
0.0
220
0.0
230
1.0
 70
     8
 71
     3
 72
   100
 73
    96
 74
     0
 42
0.000000001
 43
0.00000001
 40
0.194019299481111
 40
0.194019299481111
 40
0.194019299481111
 40
0.194019299481111
 40
0.2055746583968071
 40
0.2199088031435644
 40
0.2309809912552851
 40
0.2348288379048753
 40
0.2378316744173555
 40
0.253139600665989
 40
0.2649854663543826
 40
0.281462381240441
 40
0.2946215578173611
 40
0.2971567709471271
 40
0.2991578670836905
 40
0.3182207948436159
 40
0.333520518098097
 40
0.3455174809130337
 40
0.354975907497488
 40
0.3574726613725622
 40
0.3594340869953326
 40
0.3740683285702296
 40
0.3854831331935431
 40
0.395301941758579
 40
0.402930666856574
 40
0.4099108053948909
 40
0.4153321841365762
 40
0.4287803859732442
 40
0.4391915333451342
 40
0.4575032523277863
 40
0.4721276246582604
 40
0.4850581528748082
 40
0.4954107507299327
 40
0.5
 40
0.5160852674033667
 40
0.5324878152181394
 40
0.546395458818867
 40
0.5602211746215553
 40
0.5625
 40
0.5816089757989709
 40
0.5879303849421207
 40
0.5928504024777614
 40
0.6089361786649459
 40
0.6247579546301142
 40
0.6371580762700693
 40
0.6496557420259277
 40
0.6597998516933827
 40
0.6678866069101576
 40
0.6875
 40
0.6910075514005283
 40
0.71003900179733
 40
0.7178679019085701
 40
0.7242808069049482
 40
0.7420940379631837
 40
0.75
 40
0.7568992616899607
 40
0.7623929276106673
 40
0.7667541527010477
 40
0.7749253030974821
 40
0.7814161795889797
 40
0.789529537090578
 40
0.795944941579103
 40
0.8040048876545777
 40
0.8103519947377792
 40
0.8125
 40
0.8183621386409867
 40
0.8246460421864309
 40
0.832608831399272
 40
0.8388332988391761
 40
0.84375
 40
0.8467395980512848
 40
0.8529007490580792
 40
0.8607152977681659
 40
0.8668011474900376
 40
0.8744089054809928
 40
0.8744159821686962
 40
0.8744207803533836
 40
0.875
 40
0.8803548891677652
 40
0.8876235151071704
 40
0.8933482938835188
 40
0.9001123441247054
 40
0.9055105050786625
 40
0.9055167466651846
 40
0.9055648301696325
 40
0.90625
 40
0.9117005708038616
 40
0.9167258983479766
 40
0.921875
 40
0.922287534179453
 40
0.922450443519063
 40
0.9269149337402716
 40
0.9319094974255746
 40
0.936177850949829
 40
0.9375
 40
0.9446380734802216
 40
0.9466676943033607
 40
0.9466676943033607
 40
0.9466676943033607
 40
0.9466676943033607
 10
366.4811983000983
 20
363.3723460950445
 30
0.0
 10
366.9130725502237
 20
363.3704212096611
 30
0.0
 10
367.8806719123509
 20
363.3659784565126
 30
0.0
 10
369.2620689274244
 20
363.3592197425199
 30
0.0
 10
370.3553925400878
 20
363.3535475480224
 30
0.0
 10
371.0252225324261
 20
363.3499563145741
 30
0.0
 10
371.8533509802613
 20
363.3454504602026
 30
0.0
 10
372.9803746836154
 20
363.3390785596301
 30
0.0
 10
374.6109253394495
 20
363.3293457545005
 30
0.0
 10
376.1611405324075
 20
363.3195828855881
 30
0.0
 10
377.3633790583584
 20
363.3115982093078
 30
0.0
 10
378.0246482714543
 20
363.3070860625542
 30
0.0
 10
378.9065333018598
 20
363.301022174675
 30
0.0
 10
380.2653915953921
 20
363.2913467908463
 30
0.0
 10
381.997719575902
 20
363.2783226415326
 30
0.0
 10
383.3711133319986
 20
363.2675630148576
 30
0.0
 10
384.2660883588674
 20
363.2603292501313
 30
0.0
 10
384.7860767199336
 20
363.2560544467627
 30
0.0
 10
385.499453449456
 20
363.2501530130253
 30
0.0
 10
386.5460264485362
 20
363.241294281224
 30
0.0
 10
387.8861344996984
 20
363.2295473003956
 30
0.0
 10
388.9644688255573
 20
363.2198303105882
 30
0.0
 10
389.8770959290523
 20
363.2114225504952
 30
0.0
 10
390.6254176218742
 20
363.2044022075394
 30
0.0
 10
391.591134908743
 20
363.195204068488
 30
0.0
 10
392.684999902627
 20
363.1845470310452
 30
0.0
 10
394.2603612367233
 20
363.168765175116
 30
0.0
 10
395.8795846636273
 20
363.1520072939597
 30
0.0
 10
397.592822128799
 20
363.1336257552961
 30
0.0
 10
399.0086960331233
 20
363.1179849865379
 30
0.0
 10
400.0497055955696
 20
363.1062059825446
 30
0.0
 10
401.2085090494841
 20
363.0928947145734
 30
0.0
 10
402.5932114586715
 20
363.0766588267842
 30
0.0
 10
404.3256686234939
 20
363.0557449925723
 30
0.0
 10
405.9733915341752
 20
363.0353643193957
 30
0.0
 10
407.0935400829428
 20
363.0212272476712
 30
0.0
 10
408.4075704334642
 20
363.00446652618
 30
0.0
 10
409.4413019369846
 20
362.9910990128506
 30
0.0
 10
410.5734559074765
 20
362.9761670002462
 30
0.0
 10
411.5928232731993
 20
362.9625992137276
 30
0.0
 10
412.9666049289112
 20
362.9439895519577
 30
0.0
 10
414.6198363127756
 20
362.9209171844727
 30
0.0
 10
416.1398194415369
 20
362.8990870819719
 30
0.0
 10
417.4485211344227
 20
362.8797831262198
 30
0.0
 10
418.5967948198947
 20
362.8624084878762
 30
0.0
 10
420.0117407670859
 20
362.840539977597
 30
0.0
 10
421.1796313820187
 20
362.8218896226352
 30
0.0
 10
422.7586286728578
 20
362.7959283427293
 30
0.0
 10
423.8970757217196
 20
362.7763023291451
 30
0.0
 10
425.144320457326
 20
362.7508887531679
 30
0.0
 10
426.3455704300617
 20
362.7238400214912
 30
0.0
 10
427.5487702337245
 20
362.6915575858379
 30
0.0
 10
428.7680470051035
 20
362.6508395738181
 30
0.0
 10
429.5258753565532
 20
362.6222754866185
 30
0.0
 10
430.1508742919289
 20
362.5966132640036
 30
0.0
 10
430.823007835958
 20
362.567314569
 30
0.0
 10
431.5320213519341
 20
362.5342321235752
 30
0.0
 10
432.3807604305537
 20
362.4918649115475
 30
0.0
 10
433.1641827453273
 20
362.4504240908682
 30
0.0
 10
434.0065028373169
 20
362.4036519241515
 30
0.0
 10
434.7835591955949
 20
362.3586729696185
 30
0.0
 10
435.402052210681
 20
362.3216273240526
 30
0.0
 10
435.938873986315
 20
362.2889193665498
 30
0.0
 10
436.4737714791133
 20
362.2558348759916
 30
0.0
 10
437.226487943411
 20
362.2079537574519
 30
0.0
 10
437.9921228153273
 20
362.1573209903638
 30
0.0
 10
438.7049509248297
 20
362.1079713864068
 30
0.0
 10
439.2307547828236
 20
362.0700939333857
 30
0.0
 10
439.7528998421383
 20
362.0313281253046
 30
0.0
 10
440.3805556510338
 20
361.9830260385123
 30
0.0
 10
441.118201180647
 20
361.9228335181755
 30
0.0
 10
441.9032699473404
 20
361.8546277870244
 30
0.0
 10
442.3988424588479
 20
361.8087215998497
 30
0.0
 10
442.6728901483704
 20
361.7823560890513
 30
0.0
 10
442.693894856119
 20
361.780335225853
 30
0.0
 10
442.9073992444764
 20
361.7597350607253
 30
0.0
 10
443.3799033028911
 20
361.7128045237932
 30
0.0
 10
444.0257489219899
 20
361.6450705140186
 30
0.0
 10
444.7024520417888
 20
361.5706142582553
 30
0.0
 10
445.2943517411837
 20
361.5027273666111
 30
0.0
 10
445.6793647358089
 20
361.4569371707233
 30
0.0
 10
445.8478202215718
 20
361.4366023037895
 30
0.0
 10
445.8704693475103
 20
361.4338678785815
 30
0.0
 10
446.0608527335003
 20
361.4108356599718
 30
0.0
 10
446.3948488145286
 20
361.3697245158779
 30
0.0
 10
446.8361929477431
 20
361.3138733909241
 30
0.0
 10
447.1156858110432
 20
361.2775596278618
 30
0.0
 10
447.2607218906782
 20
361.2584512889675
 30
0.0
 10
447.387836772401
 20
361.2416791207327
 30
0.0
 10
447.6219173121805
 20
361.2104090264137
 30
0.0
 10
447.9274818486826
 20
361.1685429281604
 30
0.0
 10
448.1402027015682
 20
361.1386236837689
 30
0.0
 10
448.3782818358349
 20
361.1045667836354
 30
0.0
 10
448.5519642186321
 20
361.0789753363313
 30
0.0
 10
448.6846352871245
 20
361.0587845903456
 30
0.0
 10
448.7131141125971
 20
361.0544168184095
 30
0.0
  0
SPLINE
  5
C7
330
1F
100
AcDbEntity
  8
0
  6
Continuous
 62
     7
370
    25
100
AcDbSpline
210
0.0
220
0.0
230
1.0
 70
     8
 71
     3
 72
    10
 73
     6
 74
     0
 42
0.000000001
 43
0.00000001
 40
0.8489908593265828
 40
0.8489908593265828
 40
0.8489908593265828
 40
0.8489908593265828
 40
0.8560682645689627
 40
0.870977803333314
 40
0.9121385189185879
 40
0.9121385189185879
 40
0.9121385189185879
 40
0.9121385189185879
 10
321.7280039382366
 20
361.5843641675619
 30
0.0
 10
321.7700769761755
 20
361.5911229815841
 30
0.0
 10
321.9029627297639
 20
361.6124117545419
 30
0.0
 10
322.3021005473523
 20
361.6757899265709
 30
0.0
 10
322.6871294478725
 20
361.7354236616634
 30
0.0
 10
322.9811983000985
 20
361.7800295302654
 30
0.0
  0
SPLINE
  5
C8
330
1F
100
AcDbEntity
  8
0
  6
Continuous
 62
     7
370
    25
100
AcDbSpline
210
0.0
220
0.0
230
1.0
 70
     8
 71
     3
 72
    32
 73
    28
 74
     0
 42
0.000000001
 43
0.00000001
 40
0.0
 40
0.0
 40
0.0
 40
0.0
 40
0.0625
 40
0.0625
 40
0.125
 40
0.125
 40
0.1875
 40
0.1875
 40
0.25
 40
0.25
 40
0.375
 40
0.375
 40
0.4375
 40
0.4375
 40
0.5
 40
0.5
 40
0.5625
 40
0.5625
 40
0.625
 40
0.625
 40
0.75
 40
0.75
 40
0.8125
 40
0.8125
 40
0.875
 40
0.875
 40
1.0
 40
1.0
 40
1.0
 40
1.0
 10
322.9811983000982
 20
361.7800295302654
 30
0.0
 10
322.9811983000982
 20
361.7800291515242
 30
0.0
 10
323.0168518764108
 20
361.7800821571691
 30
0.0
 10
323.1578811698492
 20
361.7801891957258
 30
0.0
 10
323.2630822420712
 20
361.7802430529088
 30
0.0
 10
323.5422839214212
 20
361.7802838091542
 30
0.0
 10
323.7163923535752
 20
361.7802625211418
 30
0.0
 10
324.1344078052045
 20
361.7801906285392
 30
0.0
 10
324.3755213781214
 20
361.7801669194602
 30
0.0
 10
325.1918775748966
 20
361.7802018267011
 30
0.0
 10
325.8592675715856
 20
361.780326760092
 30
0.0
 10
327.0482819604503
 20
361.7798353148601
 30
0.0
 10
327.4776842927237
 20
361.7795561316332
 30
0.0
 10
328.3815140259265
 20
361.7793460178794
 30
0.0
 10
328.8578579780331
 20
361.7794014633378
 30
0.0
 10
329.8585077960924
 20
361.7795820759534
 30
0.0
 10
330.3828146215223
 20
361.7796980442061
 30
0.0
 10
331.479883095917
 20
361.7798328658212
 30
0.0
 10
332.0548087253206
 20
361.7798432057267
 30
0.0
 10
333.8405230014572
 20
361.780039428013
 30
0.0
 10
335.0905160305347
 20
361.7803229590717
 30
0.0
 10
337.0518021875523
 20
361.7804454424024
 30
0.0
 10
337.7200517487368
 20
361.780439245532
 30
0.0
 10
339.0862993002887
 20
361.7803928383092
 30
0.0
 10
339.7839021947785
 20
361.780332109633
 30
0.0
 10
341.8804170438996
 20
361.7800409727597
 30
0.0
 10
343.2964448508355
 20
361.7797253054372
 30
0.0
 10
344.7311983000983
 20
361.7797253054372
 30
0.0
  0
LINE
  5
C9
330
1F
100
AcDbEntity
  8
0
  6
Continuous
 62
     7
370
    25
100
AcDbLine
 10
368.2846554112
 20
390.8653915538
 30
0.0
 11
419.9521184456
 21
392.3988477006
 31
0.0
  0
LINE
  5
CA
330
1F
100
AcDbEntity
  8
0
  6
Continuous
 62
     7
370
    25
100
AcDbLine
 10
432.7110961568
 20
396.3095829501
 30
0.0
 11
432.6765329134
 21
396.5422869339
 31
0.0
  0
SPLINE
  5
CB
330
1F
100
AcDbEntity
  8
0
  6
Continuous
 62
     7
370
    25
100
AcDbSpline
210
0.0
220
0.0
230
1.0
 70
    24
 71
     3
 72
    15
 73
    11
 74
     0
 42
0.000000001
 43
0.00000001
 40
0.0
 40
0.0
 40
0.0
 40
0.0
 40
0.2499999999999999
 40
0.2499999999999999
 40
0.4999999999999999
 40
0.4999999999999999
 40
0.7499999999999998
 40
0.7499999999999998
 40
0.8124999999999998
 40
1.0
 40
1.0
 40
1.0
 40
1.0
 10
419.9521182065166
 20
392.3988459854675
 30
0.0
 10
421.0343276516115
 20
392.4309652119694
 30
0.0
 10
422.0635180822193
 20
392.4615108708565
 30
0.0
 10
423.9336037483109
 20
392.5170137177033
 30
0.0
 10
424.7744989837947
 20
392.5419709056628
 30
0.0
 10
426.1857370934885
 20
392.5838554749566
 30
0.0
 10
426.7560799676986
 20
392.6007828562906
 30
0.0
 10
427.2485026058214
 20
392.6153976190062
 30
0.0
 10
427.5983395253919
 20
392.6257805363881
 30
0.0
 10
427.7614895354818
 20
392.6306227156462
 30
0.0
 10
427.7614895354818
 20
392.6306227156462
 30
0.0
  0
LINE
  5
CC
330
1F
100
AcDbEntity
  8
0
  6
Continuous
 62
     7
370
    25
100
AcDbLine
 10
419.9077874911
 20
397.8931517019
 30
0.0
 11
344.7364897817
 21
397.1059308066
 31
0.0
  0
LINE
  5
CD
330
1F
100
AcDbEntity
  8
0
  6
Continuous
 62
     7
370
    25
100
AcDbLine
 10
327.1403737855
 20
396.4167893543
 30
0.0
 11
327.3058418673
 21
396.4321822538
 31
0.0
  0
LINE
  5
CE
330
1F
100
AcDbEntity
  8
0
  6
Continuous
 62
     7
370
    25
100
AcDbLine
 10
329.9810687569
 20
396.6804952039
 30
0.0
 11
332.0876775798
 21
396.8024239554
 31
0.0
  0
SPLINE
  5
CF
330
1F
100
AcDbEntity
  8
0
  6
Continuous
 62
     7
370
    25
100
AcDbSpline
210
0.0
220
0.0
230
1.0
 70
     8
 71
     3
 72
     9
 73
     5
 74
     0
 42
0.000000001
 43
0.00000001
 40
0.0
 40
0.0
 40
0.0
 40
0.0
 40
0.4849790356209849
 40
1.0
 40
1.0
 40
1.0
 40
1.0
 10
368.0216499161471
 20
372.8998885168679
 30
0.0
 10
368.019603917527
 20
372.9103052078875
 30
0.0
 10
368.0153851813142
 20
372.9317838497555
 30
0.0
 10
367.9867221787326
 20
373.0924096574679
 30
0.0
 10
367.9719601315011
 20
373.1751353158601
 30
0.0
  0
SPLINE
  5
D0
330
1F
100
AcDbEntity
  8
0
  6
Continuous
 62
     7
370
    25
100
AcDbSpline
210
0.0
220
0.0
230
1.0
 70
     8
 71
     3
 72
    10
 73
     6
 74
     0
 42
0.000000001
 43
0.00000001
 40
0.0
 40
0.0
 40
0.0
 40
0.0
 40
0.4878051587364041
 40
0.9921632822481998
 40
1.0
 40
1.0
 40
1.0
 40
1.0
 10
367.9719601315011
 20
380.5875316872247
 30
0.0
 10
367.9851149846212
 20
380.6609055405575
 30
0.0
 10
368.0118710818362
 20
380.8101430831502
 30
0.0
 10
368.0261064593565
 20
380.8841622548111
 30
0.0
 10
368.0218271494397
 20
380.8611267297172
 30
0.0
 10
368.0217616748561
 20
380.8607742800363
 30
0.0
  0
SPLINE
  5
D1
330
1F
100
AcDbEntity
  8
0
  6
Continuous
 62
     7
370
    25
100
AcDbSpline
210
0.0
220
0.0
230
1.0
 70
     8
 71
     3
 72
    32
 73
    28
 74
     0
 42
0.000000001
 43
0.00000001
 40
0.0
 40
0.0
 40
0.0
 40
0.0
 40
0.1249999999999986
 40
0.1249999999999986
 40
0.187499999999998
 40
0.187499999999998
 40
0.2499999999999974
 40
0.2499999999999974
 40
0.3124999999999968
 40
0.3124999999999968
 40
0.3749999999999961
 40
0.3749999999999961
 40
0.4374999999999955
 40
0.4374999999999955
 40
0.4999999999999949
 40
0.4999999999999949
 40
0.6249999999999937
 40
0.6249999999999937
 40
0.6874999999999952
 40
0.6874999999999952
 40
0.7499999999999967
 40
0.7499999999999967
 40
0.8124999999999982
 40
0.8124999999999982
 40
0.8749999999999998
 40
0.8749999999999998
 40
1.0
 40
1.0
 40
1.0
 40
1.0
 10
367.9719592516136
 20
373.1751385633351
 30
0.0
 10
367.9474670718381
 20
373.3255884686795
 30
0.0
 10
367.9161561042513
 20
373.5261683472182
 30
0.0
 10
367.8649603696315
 20
373.9006383780799
 30
0.0
 10
367.8472318462651
 20
374.0378245981635
 30
0.0
 10
367.8126301678287
 20
374.328360442434
 30
0.0
 10
367.7956127961605
 20
374.4827077928351
 30
0.0
 10
367.7632432757499
 20
374.8097517828314
 30
0.0
 10
367.747794530514
 20
374.9839178384094
 30
0.0
 10
367.7205161592689
 20
375.3409145402676
 30
0.0
 10
367.7085928498219
 20
375.5243711397333
 30
0.0
 10
367.688928970363
 20
375.9011375594286
 30
0.0
 10
367.681157066702
 20
376.0956416373286
 30
0.0
 10
367.6707079952998
 20
376.4896323118148
 30
0.0
 10
367.6680663110423
 20
376.6866562346128
 30
0.0
 10
367.667921242005
 20
377.2778112670262
 30
0.0
 10
367.6787099306493
 20
377.6778330462624
 30
0.0
 10
367.7080351916124
 20
378.2428147173571
 30
0.0
 10
367.7199264837888
 20
378.4263145776903
 30
0.0
 10
367.7472104560571
 20
378.7835569334804
 30
0.0
 10
367.7626431455903
 20
378.9572861163406
 30
0.0
 10
367.7950226477941
 20
379.2836223037348
 30
0.0
 10
367.8120798170901
 20
379.4377837615173
 30
0.0
 10
367.8468271629583
 20
379.7281662205325
 30
0.0
 10
367.8646614468336
 20
379.8653473303252
 30
0.0
 10
367.915928895622
 20
380.2379164698746
 30
0.0
 10
367.9473626307486
 20
380.4377217897397
 30
0.0
 10
367.9719592516136
 20
380.5875309295119
 30
0.0
  0
SPLINE
  5
D2
330
1F
100
AcDbEntity
  8
0
  6
Continuous
 62
     7
370
    25
100
AcDbSpline
210
0.0
220
0.0
230
1.0
 70
    24
 71
     3
 72
    18
 73
    14
 74
     0
 42
0.000000001
 43
0.00000001
 40
0.0
 40
0.0
 40
0.0
 40
0.0
 40
0.055117983580785
 40
0.1550009257613289
 40
0.2514232040610143
 40
0.3485193657274193
 40
0.4477291384682905
 40
0.5476694952824909
 40
0.6439557770365002
 40
0.7409072850956671
 40
0.8399628068084082
 40
0.9397437766411649
 40
1.0
 40
1.0
 40
1.0
 40
1.0
 10
368.0010937642802
 20
364.780029715503
 30
0.0
 10
368.004145498881
 20
364.780029715503
 30
0.0
 10
368.0127274835179
 20
364.780029715503
 30
0.0
 10
367.8419938281071
 20
364.780029715503
 30
0.0
 10
367.5108842116396
 20
364.780029715503
 30
0.0
 10
367.0137471663074
 20
364.780029715503
 30
0.0
 10
366.3557248935514
 20
364.780029715503
 30
0.0
 10
365.5429685464037
 20
364.780029715503
 30
0.0
 10
364.5905799708789
 20
364.780029715503
 30
0.0
 10
363.5049428430835
 20
364.780029715503
 30
0.0
 10
362.2715067369692
 20
364.780029715503
 30
0.0
 10
361.0865601624192
 20
364.780029715503
 30
0.0
 10
360.2945528354915
 20
364.780029715503
 30
0.0
 10
359.9963510897506
 20
364.780029715503
 30
0.0
  0
LINE
  5
D3
330
1F
100
AcDbEntity
  8
0
  6
Continuous
 62
     7
370
    25
100
AcDbLine
 10
452.7832508576
 20
352.8675497188
 30
0.0
 11
449.8332530749
 21
352.8675497188
 31
0.0
  0
SPLINE
  5
D4
330
1F
100
AcDbEntity
  8
0
  6
Continuous
 62
     7
370
    25
100
AcDbSpline
210
0.0
220
0.0
230
1.0
 70
     8
 71
     3
 72
    14
 73
    10
 74
     0
 42
0.000000001
 43
0.00000001
 40
0.0
 40
0.0
 40
0.0
 40
0.0
 40
0.5000000000000048
 40
0.5000000000000048
 40
0.6250000000000027
 40
0.6250000000000027
 40
0.7500000000000004
 40
0.7500000000000004
 40
1.0
 40
1.0
 40
1.0
 40
1.0
 10
452.7832495428262
 20
343.6536172806123
 30
0.0
 10
453.1304448339575
 20
345.1721042630617
 30
0.0
 10
453.3303527673217
 20
346.7010488248975
 30
0.0
 10
453.3320680109315
 20
348.6298498719362
 30
0.0
 10
453.3203425284099
 20
349.0164669615571
 30
0.0
 10
453.2728334374938
 20
349.7914092966307
 30
0.0
 10
453.2369297116678
 20
350.1804677579931
 30
0.0
 10
453.0958075546582
 20
351.3405688480856
 30
0.0
 10
452.9571752719057
 20
352.1068708912943
 30
0.0
 10
452.7832495393985
 20
352.8675492953034
 30
0.0
  0
LINE
  5
D5
330
1F
100
AcDbEntity
  8
0
  6
Continuous
 62
     7
370
    25
100
AcDbLine
 10
449.8332530749
 20
343.6536178603
 30
0.0
 11
452.7832508576
 21
343.6536178603
 31
0.0
  0
LINE
  5
D6
330
1F
100
AcDbEntity
  8
0
  6
Continuous
 62
     7
370
    25
100
AcDbLine
 10
453.5332486522
 20
335.8180247857
 30
0.0
 11
453.5332486522
 21
357.1199462428
 31
0.0
  0
LINE
  5
D7
330
1F
100
AcDbEntity
  8
0
  6
Continuous
 62
     7
370
    25
100
AcDbLine
 10
452.7832508576
 20
334.5189862563
 30
0.0
 11
452.7832508576
 21
343.6536178603
 31
0.0
  0
LINE
  5
D8
330
1F
100
AcDbEntity
  8
0
  6
Continuous
 62
     7
370
    25
100
AcDbLine
 10
452.7832508576
 20
352.8675497188
 30
0.0
 11
452.7832508576
 21
358.4189847722
 31
0.0
  0
LINE
  5
D9
330
1F
100
AcDbEntity
  8
0
  6
Continuous
 62
     7
370
    25
100
AcDbLine
 10
449.8332530749
 20
352.8675497188
 30
0.0
 11
449.8332530749
 21
343.6536178603
 31
0.0
  0
SPLINE
  5
DA
330
1F
100
AcDbEntity
  8
0
  6
Continuous
 62
     7
370
    25
100
AcDbSpline
210
0.0
220
0.0
230
1.0
 70
     8
 71
     3
 72
    18
 73
    14
 74
     0
 42
0.000000001
 43
0.00000001
 40
0.0
 40
0.0
 40
0.0
 40
0.0
 40
0.2500000000000008
 40
0.2500000000000008
 40
0.5000000000000016
 40
0.5000000000000016
 40
0.6250000000000011
 40
0.6250000000000011
 40
0.7500000000000008
 40
0.7500000000000008
 40
0.8750000000000003
 40
0.8750000000000003
 40
1.0
 40
1.0
 40
1.0
 40
1.0
 10
448.9931858259224
 20
353.3539755660121
 30
0.0
 10
449.0763246845254
 20
354.1296827771811
 30
0.0
 10
449.1657654849672
 20
354.8351063427841
 30
0.0
 10
449.3420757906207
 20
356.0983876248278
 30
0.0
 10
449.4253761984766
 20
356.6318469571548
 30
0.0
 10
449.5330632105982
 20
357.2896165698779
 30
0.0
 10
449.5662480635134
 20
357.4857851671226
 30
0.0
 10
449.6244102904202
 20
357.8233203537791
 30
0.0
 10
449.6492054420809
 20
357.9637256912495
 30
0.0
 10
449.6894677966263
 20
358.1894601917933
 30
0.0
 10
449.7049368594536
 20
358.274785965101
 30
0.0
 10
449.725809513382
 20
358.3895878683527
 30
0.0
 10
449.7311983000983
 20
358.4189865953222
 30
0.0
 10
449.7311983000983
 20
358.4189865953222
 30
0.0
  0
LINE
  5
DB
330
1F
100
AcDbEntity
  8
0
  6
Continuous
 62
     7
370
    25
100
AcDbLine
 10
449.7311950218
 20
359.868286611
 30
0.0
 11
449.7311950218
 21
358.4189847722
 31
0.0
  0
ARC
  5
DC
330
1F
100
AcDbEntity
  8
0
  6
Continuous
 62
     7
370
    25
100
AcDbCircle
 10
448.5311983915
 20
359.8682909205
 30
0.0
 40
1.199996630363856
100
AcDbArc
 50
359.9997942399
 51
81.2806993121
  0
LINE
  5
DD
330
1F
100
AcDbEntity
  8
0
  6
Continuous
 62
     7
370
    25
100
AcDbLine
 10
431.5152854216
 20
397.6594269886
 30
0.0
 11
431.3525200379
 21
397.6658642902
 31
0.0
  0
LINE
  5
DE
330
1F
100
AcDbEntity
  8
0
  6
Continuous
 62
     7
370
    25
100
AcDbLine
 10
424.3495628726
 20
397.9134470834
 30
0.0
 11
421.139897455
 21
397.8987768902
 31
0.0
  0
LINE
  5
DF
330
1F
100
AcDbEntity
  8
0
  6
Continuous
 62
     7
370
    25
100
AcDbLine
 10
367.9719601315
 20
373.1751353159
 30
0.0
 11
367.9719601315
 21
380.5875316872
 31
0.0
  0
LWPOLYLINE
  5
E0
330
1F
100
AcDbEntity
  8
0
  6
Continuous
 62
     7
370
    25
100
AcDbPolyline
 90
       12
 70
   128
 43
0.0
 10
301.9711018097
 20
317.4214684083
 10
301.9708633911
 20
317.4282968654
 10
301.9652233016
 20
317.5898217275
 10
301.9526541722
 20
317.9496996715
 10
301.9345231843
 20
318.4689380839
 10
301.9127898407
 20
319.0912627294
 10
301.8898159754
 20
319.7492421283
 10
301.8680826318
 20
320.3715667739
 10
301.8499516439
 20
320.8908014609
 10
301.8373825145
 20
321.2506831302
 10
301.8317424249
 20
321.4122079923
 10
301.8315040064
 20
321.4190327241
  0
SPLINE
  5
E1
330
1F
100
AcDbEntity
  8
0
  6
Continuous
 62
     8
370
    18
100
AcDbSpline
210
0.0
220
0.0
230
1.0
 70
     8
 71
     3
 72
    55
 73
    51
 74
     0
 42
0.000000001
 43
0.00000001
 40
0.0
 40
0.0
 40
0.0
 40
0.0
 40
0.0156250000000004
 40
0.0156250000000004
 40
0.0312500000000009
 40
0.0312500000000009
 40
0.0468750000000013
 40
0.0468750000000013
 40
0.0625000000000017
 40
0.0625000000000017
 40
0.0781250000000021
 40
0.0781250000000021
 40
0.0859375000000022
 40
0.0859375000000022
 40
0.0937500000000024
 40
0.0937500000000024
 40
0.1093750000000027
 40
0.1093750000000027
 40
0.1171875000000027
 40
0.1171875000000027
 40
0.1250000000000027
 40
0.1250000000000027
 40
0.1406250000000027
 40
0.1406250000000027
 40
0.1562500000000027
 40
0.1562500000000027
 40
0.1875000000000027
 40
0.1875000000000027
 40
0.2500000000000026
 40
0.2500000000000026
 40
0.3125000000000026
 40
0.3125000000000026
 40
0.3750000000000026
 40
0.3750000000000026
 40
0.5000000000000021
 40
0.5000000000000021
 40
0.7500000000000011
 40
0.7500000000000011
 40
0.8750000000000006
 40
0.8750000000000006
 40
0.9375000000000002
 40
0.9375000000000002
 40
0.9687500000000001
 40
0.9687500000000001
 40
0.984375
 40
0.984375
 40
0.9921875
 40
0.99609375
 40
0.99609375
 40
1.0
 40
1.0
 40
1.0
 40
1.0
 10
448.8920630476795
 20
359.8385227639926
 30
0.0
 10
448.8000270155174
 20
359.8331069159409
 30
0.0
 10
448.6896549141291
 20
359.8278250053204
 30
0.0
 10
448.4134193924497
 20
359.8182390331348
 30
0.0
 10
448.2469319683451
 20
359.8139560020998
 30
0.0
 10
447.8455539475576
 20
359.8071807307016
 30
0.0
 10
447.6106974664487
 20
359.8045990297914
 30
0.0
 10
447.0556130449494
 20
359.8011403170369
 30
0.0
 10
446.7309123978824
 20
359.8002880897904
 30
0.0
 10
446.006819165058
 20
359.8005053117263
 30
0.0
 10
445.6070209701979
 20
359.8014126232527
 30
0.0
 10
444.9460537342828
 20
359.8040406921054
 30
0.0
 10
444.7143941445303
 20
359.805126741576
 30
0.0
 10
444.2332113646146
 20
359.8080022330402
 30
0.0
 10
443.9863753471116
 20
359.8097896860872
 30
0.0
 10
443.2293490709036
 20
359.8159080752559
 30
0.0
 10
442.702696586995
 20
359.8209194793502
 30
0.0
 10
441.884866900377
 20
359.8298864999485
 30
0.0
 10
441.6064069674197
 20
359.8331584840529
 30
0.0
 10
441.0485396302606
 20
359.8403414564463
 30
0.0
 10
440.7688520850605
 20
359.8441945899896
 30
0.0
 10
439.928407246961
 20
359.8560442381176
 30
0.0
 10
439.3664080907262
 20
359.864090657166
 30
0.0
 10
438.2408838113701
 20
359.8804630136579
 30
0.0
 10
437.6773593995388
 20
359.8885613016619
 30
0.0
 10
435.9855706430652
 20
359.9121017421853
 30
0.0
 10
434.8562643209988
 20
359.9268719415272
 30
0.0
 10
431.4659505079534
 20
359.9690233971569
 30
0.0
 10
429.2025088738609
 20
359.9935698980765
 30
0.0
 10
424.6723322212551
 20
360.0351237450417
 30
0.0
 10
422.4053530098039
 20
360.0521773844956
 30
0.0
 10
417.8687926483947
 20
360.0865392916668
 30
0.0
 10
415.5991129124664
 20
360.1030930049046
 30
0.0
 10
408.7885988990918
 20
360.1501892173357
 30
0.0
 10
404.2475297742297
 20
360.1782075838625
 30
0.0
 10
390.6239894796525
 20
360.2543352800145
 30
0.0
 10
381.5406227956679
 20
360.292558188745
 30
0.0
 10
367.9139580458701
 20
360.3459305551833
 30
0.0
 10
363.3714645310267
 20
360.363161127191
 30
0.0
 10
356.5571768685232
 20
360.383419515077
 30
0.0
 10
354.2856854600176
 20
360.3890324558238
 30
0.0
 10
350.8783596722507
 20
360.3958479915977
 30
0.0
 10
349.7425700948552
 20
360.3978332477084
 30
0.0
 10
348.038865402921
 20
360.4014562373609
 30
0.0
 10
347.4709605810947
 20
360.4028536412936
 30
0.0
 10
346.6190967400306
 20
360.4045165333778
 30
0.0
 10
346.1931631528719
 20
360.4052315973158
 30
0.0
 10
345.7672267265827
 20
360.4056185072575
 30
0.0
 10
345.4832684419971
 20
360.4057864446103
 30
0.0
 10
345.3429538690689
 20
360.405825584807
 30
0.0
 10
345.1993084431528
 20
360.4058108333152
 30
0.0
  0
SPLINE
  5
E2
330
1F
100
AcDbEntity
  8
0
  6
Continuous
 62
     8
370
    18
100
AcDbSpline
210
0.0
220
0.0
230
1.0
 70
     8
 71
     3
 72
    46
 73
    42
 74
     0
 42
0.000000001
 43
0.00000001
 40
0.0
 40
0.0
 40
0.0
 40
0.0
 40
0.0312500000000001
 40
0.0312500000000001
 40
0.0625000000000001
 40
0.0625000000000001
 40
0.1250000000000002
 40
0.1250000000000002
 40
0.2500000000000004
 40
0.2500000000000004
 40
0.5000000000000008
 40
0.5000000000000008
 40
0.6250000000000008
 40
0.6250000000000008
 40
0.7500000000000009
 40
0.7500000000000009
 40
0.8125000000000009
 40
0.8125000000000009
 40
0.843750000000001
 40
0.843750000000001
 40
0.875000000000001
 40
0.875000000000001
 40
0.8906250000000011
 40
0.8906250000000011
 40
0.8984375000000011
 40
0.8984375000000011
 40
0.9062500000000011
 40
0.9062500000000011
 40
0.9218750000000011
 40
0.9218750000000011
 40
0.9375000000000012
 40
0.9375000000000012
 40
0.9453125000000011
 40
0.9453125000000011
 40
0.953125000000001
 40
0.953125000000001
 40
0.9687500000000007
 40
0.9687500000000007
 40
0.9843750000000004
 40
0.9843750000000004
 40
1.0
 40
1.0
 40
1.0
 40
1.0
 10
345.179678625717
 20
361.5857748026992
 30
0.0
 10
346.299837652538
 20
361.5875469056703
 30
0.0
 10
347.4199858050425
 20
361.5860684381139
 30
0.0
 10
349.6602490874581
 20
361.584832975461
 30
0.0
 10
350.7803654763713
 20
361.5846957459204
 30
0.0
 10
354.1406743938669
 20
361.5834873443718
 30
0.0
 10
356.3808241704696
 20
361.5817636940946
 30
0.0
 10
363.1010959218971
 20
361.5740343791228
 30
0.0
 10
367.5809275618682
 20
361.5654690288439
 30
0.0
 10
381.0195470095985
 20
361.5291734373019
 30
0.0
 10
389.9774928913225
 20
361.4907231036004
 30
0.0
 10
403.4128495428764
 20
361.4146073997499
 30
0.0
 10
407.8911665387211
 20
361.3863038545201
 30
0.0
 10
416.8465791431245
 20
361.3228375635107
 30
0.0
 10
421.3228453096095
 20
361.2894330361647
 30
0.0
 10
428.0252359794023
 20
361.2287796316865
 30
0.0
 10
430.2573988728921
 20
361.2056408769434
 30
0.0
 10
433.6012907851019
 20
361.1656633848337
 30
0.0
 10
434.7150636740197
 20
361.1516724450564
 30
0.0
 10
436.9403940640705
 20
361.1224179579758
 30
0.0
 10
438.0522187464745
 20
361.1067530786383
 30
0.0
 10
439.7144183711918
 20
361.082801858365
 30
0.0
 10
440.2676099816334
 20
361.0747243550114
 30
0.0
 10
441.093609660277
 20
361.0623941349063
 30
0.0
 10
441.3695312008763
 20
361.0583031510143
 30
0.0
 10
441.9116074170532
 20
361.0506059275298
 30
0.0
 10
442.1777317764734
 20
361.0469603820216
 30
0.0
 10
442.9599194628152
 20
361.0364685668749
 30
0.0
 10
443.4601533292956
 20
361.0299834496068
 30
0.0
 10
444.405164989193
 20
361.0191555637434
 30
0.0
 10
444.8305024380342
 20
361.0151257841727
 30
0.0
 10
445.4047933898631
 20
361.0104279884272
 30
0.0
 10
445.5856918977439
 20
361.009108191519
 30
0.0
 10
445.9267403056402
 20
361.0070011066913
 30
0.0
 10
446.0869559949418
 20
361.0062607254345
 30
0.0
 10
446.5276569433491
 20
361.0050766520017
 30
0.0
 10
446.7728605396262
 20
361.0056130404907
 30
0.0
 10
447.1897553295992
 20
361.0090021506179
 30
0.0
 10
447.361232721892
 20
361.0119555919803
 30
0.0
 10
447.6456171035945
 20
361.019549447025
 30
0.0
 10
447.7587500101017
 20
361.0241724757209
 30
0.0
 10
447.8535048662587
 20
361.0290559437688
 30
0.0
  0
SPLINE
  5
E3
330
1F
100
AcDbEntity
  8
0
  6
Continuous
 62
     8
370
    18
100
AcDbSpline
210
0.0
220
0.0
230
1.0
 70
     8
 71
     3
 72
    32
 73
    28
 74
     0
 42
0.000000001
 43
0.00000001
 40
0.0
 40
0.0
 40
0.0
 40
0.0
 40
0.0625
 40
0.0625
 40
0.1250000000000001
 40
0.1250000000000001
 40
0.1875000000000001
 40
0.1875000000000001
 40
0.2500000000000001
 40
0.2500000000000001
 40
0.3750000000000001
 40
0.3750000000000001
 40
0.4375
 40
0.4375
 40
0.5
 40
0.5
 40
0.5625
 40
0.5625
 40
0.625
 40
0.625
 40
0.7499999999999999
 40
0.7499999999999999
 40
0.8124999999999999
 40
0.8124999999999999
 40
0.8749999999999999
 40
0.8749999999999999
 40
1.0
 40
1.0
 40
1.0
 40
1.0
 10
344.7312118995648
 20
360.4051988725357
 30
0.0
 10
343.94009475825
 20
360.4053287919215
 30
0.0
 10
343.1482304220661
 20
360.4054687455235
 30
0.0
 10
341.5782204022124
 20
360.4057491735384
 30
0.0
 10
340.7995327850839
 20
360.405908418034
 30
0.0
 10
339.2548394087735
 20
360.4062533338437
 30
0.0
 10
338.4854726471256
 20
360.4064208708015
 30
0.0
 10
336.9787296504616
 20
360.4068116013837
 30
0.0
 10
336.2419228310024
 20
360.40703684165
 30
0.0
 10
334.0797902947133
 20
360.4076573722073
 30
0.0
 10
332.7022913295116
 20
360.4080450361806
 30
0.0
 10
330.7343515106675
 20
360.4089317088313
 30
0.0
 10
330.1010778716184
 20
360.4091773572041
 30
0.0
 10
328.8918554379644
 20
360.40946200055
 30
0.0
 10
328.313714038947
 20
360.4095140348209
 30
0.0
 10
327.2098079762433
 20
360.409867395584
 30
0.0
 10
326.6840429729263
 20
360.410317108657
 30
0.0
 10
325.6859463417601
 20
360.411148193908
 30
0.0
 10
325.2116507213561
 20
360.4114027382632
 30
0.0
 10
323.8982986966247
 20
360.411520370096
 30
0.0
 10
323.1600903412569
 20
360.4113026590675
 30
0.0
 10
322.2573409197391
 20
360.4119925987777
 30
0.0
 10
321.9907551755105
 20
360.4121543526883
 30
0.0
 10
321.5288900395812
 20
360.4124251876826
 30
0.0
 10
321.3363634791139
 20
360.4125715599474
 30
0.0
 10
320.8735955181557
 20
360.4131451582455
 30
0.0
 10
320.7186078471344
 20
360.413456136301
 30
0.0
 10
320.7184197903683
 20
360.413619164922
 30
0.0
  0
SPLINE
  5
E4
330
1F
100
AcDbEntity
  8
0
  6
Continuous
 62
     8
370
    18
100
AcDbSpline
210
0.0
220
0.0
230
1.0
 70
     8
 71
     3
 72
    32
 73
    28
 74
     0
 42
0.000000001
 43
0.00000001
 40
0.0
 40
0.0
 40
0.0
 40
0.0
 40
0.1249999999999996
 40
0.1249999999999996
 40
0.1874999999999994
 40
0.1874999999999994
 40
0.2499999999999992
 40
0.2499999999999992
 40
0.3749999999999991
 40
0.3749999999999991
 40
0.4374999999999991
 40
0.4374999999999991
 40
0.4999999999999991
 40
0.4999999999999991
 40
0.5624999999999991
 40
0.5624999999999991
 40
0.6249999999999991
 40
0.6249999999999991
 40
0.7499999999999994
 40
0.7499999999999994
 40
0.8124999999999996
 40
0.8124999999999996
 40
0.8749999999999997
 40
0.8749999999999997
 40
0.9374999999999999
 40
0.9374999999999999
 40
1.0
 40
1.0
 40
1.0
 40
1.0
 10
321.7280039382239
 20
361.5843641675599
 30
0.0
 10
321.728183499097
 20
361.5843914137072
 30
0.0
 10
321.8768839087993
 20
361.5843927128993
 30
0.0
 10
322.3197356680154
 20
361.5842313626309
 30
0.0
 10
322.5040910119013
 20
361.5842481501113
 30
0.0
 10
322.9467472021868
 20
361.5843844062279
 30
0.0
 10
323.2023738342858
 20
361.5844605643724
 30
0.0
 10
324.0671257723374
 20
361.5843648277927
 30
0.0
 10
324.7733544276808
 20
361.5848455913547
 30
0.0
 10
326.0320911673726
 20
361.5855269706453
 30
0.0
 10
326.4866481563162
 20
361.5855493066439
 30
0.0
 10
327.4427571215375
 20
361.5851761221813
 30
0.0
 10
327.9460500734419
 20
361.5848756108672
 30
0.0
 10
329.0032983960311
 20
361.5849378709282
 30
0.0
 10
329.5571572380934
 20
361.5851301110746
 30
0.0
 10
330.7156162820749
 20
361.5853428959546
 30
0.0
 10
331.3223008354098
 20
361.5853507519466
 30
0.0
 10
333.2075278628516
 20
361.5851752081477
 30
0.0
 10
334.527111816611
 20
361.5852392016855
 30
0.0
 10
336.5984293336667
 20
361.5852894917671
 30
0.0
 10
337.304291337559
 20
361.5852822898083
 30
0.0
 10
338.7477486837017
 20
361.5853101392191
 30
0.0
 10
339.4848097621331
 20
361.585347970675
 30
0.0
 10
340.9646357071374
 20
361.585389051602
 30
0.0
 10
341.7106230543892
 20
361.5854119779779
 30
0.0
 10
343.2147020001977
 20
361.5854781213806
 30
0.0
 10
343.9735954388272
 20
361.5855019265574
 30
0.0
 10
344.7311983000983
 20
361.5855270514982
 30
0.0
  0
SPLINE
  5
E5
330
1F
100
AcDbEntity
  8
0
  6
Continuous
 62
     8
370
    18
100
AcDbSpline
210
0.0
220
0.0
230
1.0
 70
     8
 71
     3
 72
     8
 73
     4
 74
     0
 42
0.000000001
 43
0.00000001
 40
0.0
 40
0.0
 40
0.0
 40
0.0
 40
0.0004642455191564
 40
0.0004642455191564
 40
0.0004642455191564
 40
0.0004642455191564
 10
345.1954355467979
 20
360.40543633048
 30
0.0
 10
345.0407157677867
 20
360.4051936801421
 30
0.0
 10
344.8859603818339
 20
360.4051179080467
 30
0.0
 10
344.7312118995648
 20
360.4051988726549
 30
0.0
  0
LINE
  5
E6
330
1F
100
AcDbEntity
  8
0
  6
Continuous
 62
     8
370
    18
100
AcDbLine
 10
369.7311986726
 20
281.4202517881
 30
0.0
 11
369.7198197734
 21
282.6621316751
 31
0.0
  0
SPLINE
  5
E7
330
1F
100
AcDbEntity
  8
0
  6
Continuous
 62
     8
370
    18
100
AcDbSpline
210
0.0
220
0.0
230
1.0
 70
     8
 71
     3
 72
    11
 73
     7
 74
     0
 42
0.000000001
 43
0.00000001
 40
-0.00000006
 40
-0.00000006
 40
-0.00000006
 40
-0.00000006
 40
0.0
 40
0.0
 40
0.0
 40
0.0004426197136962
 40
0.0004426197136962
 40
0.0004426197136962
 40
0.0004426197136962
 10
344.7311983000983
 20
361.5855270394719
 30
0.0
 10
344.7312183000968
 20
361.5855270324401
 30
0.0
 10
344.7312383000954
 20
361.5855270254031
 30
0.0
 10
344.7312583000939
 20
361.585527018373
 30
0.0
 10
344.8787981938509
 20
361.5854751576894
 30
0.0
 10
345.0263447624969
 20
361.5855805928033
 30
0.0
 10
345.1738572032548
 20
361.5858540053833
 30
0.0
  0
SPLINE
  5
E8
330
1F
100
AcDbEntity
  8
0
  6
Continuous
 62
     8
370
    18
100
AcDbSpline
210
0.0
220
0.0
230
1.0
 70
     8
 71
     3
 72
    24
 73
    20
 74
     0
 42
0.000000001
 43
0.00000001
 40
0.0
 40
0.0
 40
0.0
 40
0.0
 40
0.1249999999999998
 40
0.1249999999999998
 40
0.1874999999999997
 40
0.1874999999999997
 40
0.2499999999999996
 40
0.2499999999999996
 40
0.3749999999999995
 40
0.3749999999999995
 40
0.4999999999999994
 40
0.4999999999999994
 40
0.6249999999999996
 40
0.6249999999999996
 40
0.7499999999999997
 40
0.7499999999999997
 40
0.8749999999999999
 40
0.8749999999999999
 40
1.0
 40
1.0
 40
1.0
 40
1.0
 10
344.734609394877
 20
395.273547794826
 30
0.0
 10
343.3522051342507
 20
395.2579145267862
 30
0.0
 10
342.0176958221754
 20
395.2399983973668
 30
0.0
 10
339.9129325348381
 20
395.2094824587986
 30
0.0
 10
339.1934092957221
 20
395.1988404944364
 30
0.0
 10
337.717978146461
 20
395.177904188293
 30
0.0
 10
336.9650420422786
 20
395.1677667996274
 30
0.0
 10
334.7637434539609
 20
395.1412769514918
 30
0.0
 10
333.3471533434811
 20
395.127754516912
 30
0.0
 10
330.8301671186111
 20
395.1100578834649
 30
0.0
 10
329.7144442194151
 20
395.1056647091816
 30
0.0
 10
327.8769621109905
 20
395.1040515656485
 30
0.0
 10
327.1616490620359
 20
395.1068972978405
 30
0.0
 10
326.2241322559592
 20
395.1203935629748
 30
0.0
 10
326.0195956508555
 20
395.1315256952422
 30
0.0
 10
325.8617908107237
 20
395.1578318696171
 30
0.0
 10
325.8574038473027
 20
395.1724720968566
 30
0.0
 10
325.821551431882
 20
395.1944658993714
 30
0.0
 10
325.8131400551072
 20
395.2008755089888
 30
0.0
 10
325.8131393580574
 20
395.2008707898391
 30
0.0
  0
SPLINE
  5
E9
330
1F
100
AcDbEntity
  8
0
  6
Continuous
 62
     8
370
    18
100
AcDbSpline
210
0.0
220
0.0
230
1.0
 70
     8
 71
     3
 72
    23
 73
    19
 74
     0
 42
0.000000001
 43
0.00000001
 40
0.0
 40
0.0
 40
0.0
 40
0.0
 40
0.0765239764182266
 40
0.1506534693801117
 40
0.2223957920224673
 40
0.2917899309432913
 40
0.3589004564693135
 40
0.4238186148028856
 40
0.4866825844373114
 40
0.5476736684354866
 40
0.6070101690981232
 40
0.6649420434269856
 40
0.7217463473905832
 40
0.7777233652676819
 40
0.8331930557685459
 40
0.8884924198513995
 40
0.943973249844063
 40
1.0
 40
1.0
 40
1.0
 40
1.0
 10
447.8535939412801
 20
361.0290646366765
 30
0.0
 10
447.8964517775914
 20
361.0311864631299
 30
0.0
 10
447.9808264015019
 20
361.0353637227495
 30
0.0
 10
448.092883488757
 20
361.0399509334035
 30
0.0
 10
448.1929032408535
 20
361.0435066575223
 30
0.0
 10
448.280982378899
 20
361.0461418035511
 30
0.0
 10
448.3583729472457
 20
361.0480885779223
 30
0.0
 10
448.4261577843149
 20
361.0495006568091
 30
0.0
 10
448.4852535919808
 20
361.0505164638724
 30
0.0
 10
448.5364152592583
 20
361.0512480432118
 30
0.0
 10
448.5802674630675
 20
361.0517871039953
 30
0.0
 10
448.617319136045
 20
361.0522065299819
 30
0.0
 10
448.6479828263719
 20
361.0525628447147
 30
0.0
 10
448.6725724026564
 20
361.0528970878566
 30
0.0
 10
448.6913650699216
 20
361.0532386703561
 30
0.0
 10
448.7043969636507
 20
361.0536049936304
 30
0.0
 10
448.7122544067443
 20
361.0540019330591
 30
0.0
 10
448.712826612287
 20
361.054278072327
 30
0.0
 10
448.7131141157636
 20
361.0544168179238
 30
0.0
  0
SPLINE
  5
EA
330
1F
100
AcDbEntity
  8
0
  6
Continuous
 62
     8
370
    18
100
AcDbSpline
210
0.0
220
0.0
230
1.0
 70
     8
 71
     3
 72
    10
 73
     6
 74
     0
 42
0.000000001
 43
0.00000001
 40
0.0
 40
0.0
 40
0.0
 40
0.0
 40
0.5
 40
0.5
 40
1.0
 40
1.0
 40
1.0
 40
1.0
 10
363.5598371515721
 20
395.4501367965649
 30
0.0
 10
360.4258425531875
 20
395.4182137925863
 30
0.0
 10
357.2831621582989
 20
395.3824309000053
 30
0.0
 10
351.0105826374754
 20
395.3296150158737
 30
0.0
 10
347.8748480509014
 20
395.3099479377668
 30
0.0
 10
344.7365231880771
 20
395.2737615083164
 30
0.0
  0
SPLINE
  5
EB
330
1F
100
AcDbEntity
  8
0
  6
Continuous
 62
     8
370
    18
100
AcDbSpline
210
0.0
220
0.0
230
1.0
 70
     8
 71
     3
 72
    43
 73
    39
 74
     0
 42
0.000000001
 43
0.00000001
 40
0.0
 40
0.0
 40
0.0
 40
0.0
 40
0.0205282890803572
 40
0.0407639424507126
 40
0.0607118193738469
 40
0.0803697316221555
 40
0.0997337777087002
 40
0.1408590872330659
 40
0.1803167060628866
 40
0.2075110767361492
 40
0.234238832147652
 40
0.286496106525562
 40
0.3119452391513179
 40
0.3497094686330829
 40
0.374658773986941
 40
0.3870841411691786
 40
0.4375520820447006
 40
0.4627304285819364
 40
0.4753186170218049
 40
0.5004736428805839
 40
0.5382447319656225
 40
0.5888801455420462
 40
0.6296129204153804
 40
0.6706491497447815
 40
0.6982469489454121
 40
0.725038361802049
 40
0.7452722884098395
 40
0.7520207630424411
 40
0.7655548876169876
 40
0.8065647371005206
 40
0.8194476827065025
 40
0.8453991691107853
 40
0.8650575801911089
 40
0.8716456960273041
 40
0.8845550674858097
 40
0.9109848611261369
 40
0.9550668562724822
 40
1.0
 40
1.0
 40
1.0
 40
1.0
 10
363.5598241253972
 20
395.4504604370773
 30
0.0
 10
363.562916945944
 20
395.3875984744127
 30
0.0
 10
363.5690584981352
 20
395.2627706615166
 30
0.0
 10
363.585648563634
 20
395.0776747121684
 30
0.0
 10
363.6074480257422
 20
394.8962382216479
 30
0.0
 10
363.6348295013266
 20
394.7188025614312
 30
0.0
 10
363.679860252125
 20
394.4799710435884
 30
0.0
 10
363.7514325511985
 20
394.1874480530033
 30
0.0
 10
363.8501975917138
 20
393.8828510389511
 30
0.0
 10
363.9504726675685
 20
393.6286428673494
 30
0.0
 10
364.0773431182635
 20
393.3495427258972
 30
0.0
 10
364.2197500288692
 20
393.0904337303063
 30
0.0
 10
364.3927890170072
 20
392.8229891006237
 30
0.0
 10
364.53383389386
 20
392.6306508451454
 30
0.0
 10
364.6603310512543
 20
392.4770916898074
 30
0.0
 10
364.8120595224059
 20
392.3047538910371
 30
0.0
 10
364.9703921847204
 20
392.1439507533254
 30
0.0
 10
365.1342164441621
 20
391.9971210131936
 30
0.0
 10
365.2526820434035
 20
391.8973721289498
 30
0.0
 10
365.3966242437414
 20
391.7835246117162
 30
0.0
 10
365.6167369950095
 20
391.626754141752
 30
0.0
 10
365.870976639318
 20
391.4705592545057
 30
0.0
 10
366.1338508983
 20
391.3324105555854
 30
0.0
 10
366.3517527325491
 20
391.2336306061703
 30
0.0
 10
366.5417367814298
 20
391.1580659625482
 30
0.0
 10
366.690010235983
 20
391.1053410234159
 30
0.0
 10
366.7965745653619
 20
391.0712083509516
 30
0.0
 10
366.8766906300379
 20
391.0471206762737
 30
0.0
 10
366.9977266767976
 20
391.0125342222187
 30
0.0
 10
367.1301752186301
 20
390.9798452526855
 30
0.0
 10
367.2859059043076
 20
390.9471584421548
 30
0.0
 10
367.3993792432494
 20
390.9263404261469
 30
0.0
 10
367.4999777921954
 20
390.9109510303941
 30
0.0
 10
367.5750923547937
 20
390.9007446428271
 30
0.0
 10
367.6630329734705
 20
390.8899341006505
 30
0.0
 10
367.821640194034
 20
390.8745655458138
 30
0.0
 10
368.0383090978229
 20
390.8624315383684
 30
0.0
 10
368.2020288330835
 20
390.8643667063149
 30
0.0
 10
368.2846714317309
 20
390.865343542172
 30
0.0
  0
SPLINE
  5
EC
330
1F
100
AcDbEntity
  8
0
  6
Continuous
 62
     8
370
    18
100
AcDbSpline
210
0.0
220
0.0
230
1.0
 70
     8
 71
     3
 72
    12
 73
     8
 74
     0
 42
0.000000001
 43
0.00000001
 40
0.0
 40
0.0
 40
0.0
 40
0.0
 40
0.2500000000000002
 40
0.2500000000000002
 40
0.5000000000000001
 40
0.5000000000000001
 40
1.0
 40
1.0
 40
1.0
 40
1.0
 10
363.538153132313
 20
396.7815112041578
 30
0.0
 10
368.2336189438367
 20
396.8378838013095
 30
0.0
 10
372.9287954483419
 20
396.8942765610637
 30
0.0
 10
382.3184757640449
 20
397.0071518963751
 30
0.0
 10
387.0133169737769
 20
397.0635847516295
 30
0.0
 10
401.0978420328153
 20
397.2328752907436
 30
0.0
 10
410.4875285857215
 20
397.3457201439222
 30
0.0
 10
419.8772198686717
 20
397.4585453040043
 30
0.0
  0
SPLINE
  5
ED
330
1F
100
AcDbEntity
  8
0
  6
Continuous
 62
     8
370
    18
100
AcDbSpline
210
0.0
220
0.0
230
1.0
 70
     8
 71
     3
 72
    12
 73
     8
 74
     0
 42
0.000000001
 43
0.00000001
 40
0.0
 40
0.0
 40
0.0
 40
0.0
 40
0.5
 40
0.5
 40
0.75
 40
0.75
 40
1.0
 40
1.0
 40
1.0
 40
1.0
 10
419.9112415274223
 20
396.1211361439205
 30
0.0
 10
410.5215516814433
 20
396.009975489024
 30
0.0
 10
401.1318651932568
 20
395.8984418474098
 30
0.0
 10
387.04734140842
 20
395.7307646591263
 30
0.0
 10
382.3525015513975
 20
395.6748343121957
 30
0.0
 10
372.9628184339591
 20
395.5628089100898
 30
0.0
 10
368.2616478283101
 20
395.5067321033243
 30
0.0
 10
363.5598537698267
 20
395.4507800603514
 30
0.0
  0
SPLINE
  5
EE
330
1F
100
AcDbEntity
  8
0
  6
Continuous
 62
     8
370
    18
100
AcDbSpline
210
0.0
220
0.0
230
1.0
 70
     8
 71
     3
 72
    10
 73
     6
 74
     0
 42
0.000000001
 43
0.00000001
 40
0.0
 40
0.0
 40
0.0
 40
0.0
 40
0.5
 40
0.5
 40
1.0
 40
1.0
 40
1.0
 40
1.0
 10
344.7364897816511
 20
396.5581139304513
 30
0.0
 10
347.8700049161767
 20
396.595463235351
 30
0.0
 10
351.0038784352998
 20
396.6326398199815
 30
0.0
 10
357.2717624941851
 20
396.7066080453078
 30
0.0
 10
360.4045244946564
 20
396.7444447009422
 30
0.0
 10
363.5400548523183
 20
396.7815051674786
 30
0.0
  0
SPLINE
  5
EF
330
1F
100
AcDbEntity
  8
0
  6
Continuous
 62
     8
370
    18
100
AcDbSpline
210
0.0
220
0.0
230
1.0
 70
     8
 71
     3
 72
    24
 73
    20
 74
     0
 42
0.000000001
 43
0.00000001
 40
0.0
 40
0.0
 40
0.0
 40
0.0
 40
0.125
 40
0.125
 40
0.2500000000000001
 40
0.2500000000000001
 40
0.3750000000000001
 40
0.3750000000000001
 40
0.5000000000000001
 40
0.5000000000000001
 40
0.6250000000000002
 40
0.6250000000000002
 40
0.7500000000000001
 40
0.7500000000000001
 40
0.8125000000000001
 40
0.8125000000000001
 40
0.8750000000000001
 40
0.8750000000000001
 40
1.0
 40
1.0
 40
1.0
 40
1.0
 10
327.1403730432818
 20
396.4167863892149
 30
0.0
 10
327.1403775804012
 20
396.4167869184709
 30
0.0
 10
327.1436275406269
 20
396.4160131756328
 30
0.0
 10
327.1609118571699
 20
396.4136165838434
 30
0.0
 10
327.1535939293178
 20
396.4127608012957
 30
0.0
 10
327.2855707788281
 20
396.4061054663047
 30
0.0
 10
327.4714118863107
 20
396.4016024274858
 30
0.0
 10
328.3102373107948
 20
396.3989471736728
 30
0.0
 10
328.9526713079428
 20
396.40075928915
 30
0.0
 10
330.6144788159698
 20
396.4102492845931
 30
0.0
 10
331.629561240895
 20
396.4179110316044
 30
0.0
 10
333.9153200594002
 20
396.4383347468529
 30
0.0
 10
335.1955447525768
 20
396.4511602246035
 30
0.0
 10
337.1996058058071
 20
396.4723485114042
 30
0.0
 10
337.8897390377759
 20
396.4800158211082
 30
0.0
 10
339.2637764836257
 20
396.4955023074911
 30
0.0
 10
339.9505156951817
 20
396.5032087899858
 30
0.0
 10
342.0057451601264
 20
396.526176367982
 30
0.0
 10
343.3687357138159
 20
396.5415486443072
 30
0.0
 10
344.7364897816533
 20
396.5580915086596
 30
0.0
  0
SPLINE
  5
F0
330
1F
100
AcDbEntity
  8
0
  6
Continuous
 62
     8
370
    18
100
AcDbSpline
210
0.0
220
0.0
230
1.0
 70
     8
 71
     3
 72
    18
 73
    14
 74
     0
 42
0.000000001
 43
0.00000001
 40
0.0
 40
0.0
 40
0.0
 40
0.0
 40
0.25
 40
0.25
 40
0.375
 40
0.375
 40
0.5
 40
0.5
 40
0.625
 40
0.625
 40
0.75
 40
0.75
 40
1.0
 40
1.0
 40
1.0
 40
1.0
 10
432.7110996202094
 20
396.3095820972806
 30
0.0
 10
432.7113016996508
 20
396.3091640783293
 30
0.0
 10
432.7128547906322
 20
396.3072804877472
 30
0.0
 10
432.2054721548088
 20
396.2972377463641
 30
0.0
 10
431.9342967075841
 20
396.2920521875778
 30
0.0
 10
431.1388072564661
 20
396.2779250673057
 30
0.0
 10
430.5994490665104
 20
396.2687947432225
 30
0.0
 10
429.2570692787654
 20
396.2477159660845
 30
0.0
 10
428.4542892406583
 20
396.2357496512112
 30
0.0
 10
426.7822636230668
 20
396.2119563967704
 30
0.0
 10
425.891647664375
 20
396.1998344621367
 30
0.0
 10
423.267720607349
 20
396.1651607974374
 30
0.0
 10
421.5778029195335
 20
396.1432170393505
 30
0.0
 10
419.9417268843087
 20
396.1215396161418
 30
0.0
  0
SPLINE
  5
F1
330
1F
100
AcDbEntity
  8
0
  6
Continuous
 62
     8
370
    18
100
AcDbSpline
210
0.0
220
0.0
230
1.0
 70
     8
 71
     3
 72
    18
 73
    14
 74
     0
 42
0.000000001
 43
0.00000001
 40
0.0
 40
0.0
 40
0.0
 40
0.0
 40
0.25
 40
0.25
 40
0.375
 40
0.375
 40
0.5
 40
0.5
 40
0.625
 40
0.625
 40
0.75
 40
0.75
 40
1.0
 40
1.0
 40
1.0
 40
1.0
 10
419.9077888783075
 20
397.4589145704727
 30
0.0
 10
421.5252208937856
 20
397.4784539217885
 30
0.0
 10
423.1580863492999
 20
397.501857324249
 30
0.0
 10
425.5401291958999
 20
397.5377284059708
 30
0.0
 10
426.3306596271815
 20
397.549986624834
 30
0.0
 10
427.7957597202817
 20
397.5734351701204
 30
0.0
 10
428.4841400422417
 20
397.5848435383191
 30
0.0
 10
429.6239981881381
 20
397.604900615031
 30
0.0
 10
430.0907564960588
 20
397.6138597373508
 30
0.0
 10
430.7908477259114
 20
397.6282409399965
 30
0.0
 10
431.0351547625125
 20
397.633854022692
 30
0.0
 10
431.5005197062491
 20
397.6457353123054
 30
0.0
 10
431.50795373722
 20
397.6478366930728
 30
0.0
 10
431.510888442948
 20
397.6510308094165
 30
0.0
  0
SPLINE
  5
F2
330
1F
100
AcDbEntity
  8
0
  6
Continuous
 62
     8
370
    18
100
AcDbSpline
210
0.0
220
0.0
230
1.0
 70
     8
 71
     3
 72
    11
 73
     7
 74
     0
 42
0.000000001
 43
0.00000001
 40
0.0
 40
0.0
 40
0.0
 40
0.0
 40
0.138013439468916
 40
0.4324680041277343
 40
0.7269228929025193
 40
1.0
 40
1.0
 40
1.0
 40
1.0
 10
432.6765329134215
 20
396.5422869338639
 30
0.0
 10
432.6688668825523
 20
396.6226752911942
 30
0.0
 10
432.6448452142105
 20
396.8745738931238
 30
0.0
 10
432.4010494248469
 20
397.2422015073251
 30
0.0
 10
431.9977435485433
 20
397.5620174896043
 30
0.0
 10
431.6690471258678
 20
397.6221138555164
 30
0.0
 10
431.5108895790328
 20
397.6510301842339
 30
0.0
  0
SPLINE
  5
F3
330
1F
100
AcDbEntity
  8
0
  6
Continuous
 62
     8
370
    18
100
AcDbSpline
210
0.0
220
0.0
230
1.0
 70
     8
 71
     3
 72
     9
 73
     5
 74
     0
 42
0.000000001
 43
0.00000001
 40
0.0
 40
0.0
 40
0.0
 40
0.0
 40
0.7257900056723635
 40
1.0
 40
1.0
 40
1.0
 40
1.0
 10
432.7110961568106
 20
396.3095829500802
 30
0.0
 10
432.6804320756647
 20
395.8709618094558
 30
0.0
 10
432.6381828287663
 20
395.2666256554768
 30
0.0
 10
432.3005953617432
 20
394.7789933567796
 30
0.0
 10
432.2080255043257
 20
394.64527970692
 30
0.0
  0
LINE
  5
F4
330
1F
100
AcDbEntity
  8
0
  6
Continuous
 62
     8
370
    18
100
AcDbLine
 10
429.3104351055
 20
392.8152084961
 30
0.0
 11
427.7614892018
 21
392.6306203618
 31
0.0
  0
LINE
  5
F5
330
1F
100
AcDbEntity
  8
0
  6
Continuous
 62
     8
370
    18
100
AcDbLine
 10
332.0876775798
 20
396.8024239554
 30
0.0
 11
332.8956129518
 21
396.8491837992
 31
0.0
  0
LINE
  5
F6
330
1F
100
AcDbEntity
  8
0
  6
Continuous
 62
     8
370
    18
100
AcDbLine
 10
341.4989878912
 20
397.0679030432
 30
0.0
 11
344.7364897817
 21
397.1059308066
 31
0.0
  0
SPLINE
  5
F7
330
1F
100
AcDbEntity
  8
0
  6
Continuous
 62
     8
370
    18
100
AcDbSpline
210
0.0
220
0.0
230
1.0
 70
     8
 71
     3
 72
    26
 73
    22
 74
     0
 42
0.000000001
 43
0.00000001
 40
0.0
 40
0.0
 40
0.0
 40
0.0
 40
0.0790201236689346
 40
0.1550536476275965
 40
0.2281185171405126
 40
0.2982299584969404
 40
0.3654007089516375
 40
0.4296412403976629
 40
0.4909599760946967
 40
0.5493634998661406
 40
0.604856757263962
 40
0.657443248281232
 40
0.707125211268366
 40
0.7539037977804248
 40
0.797779238150268
 40
0.8387509976475654
 40
0.8768179231497937
 40
0.9119783803241808
 40
0.9442303814100587
 40
0.9735717038209287
 40
1.0
 40
1.0
 40
1.0
 40
1.0
 10
449.7311983000983
 20
359.868286031404
 30
0.0
 10
449.7301972953562
 20
359.8678916003668
 30
0.0
 10
449.7282331192787
 20
359.867117645984
 30
0.0
 10
449.7127754765878
 20
359.8659444708562
 30
0.0
 10
449.6894551148123
 20
359.8647753009998
 30
0.0
 10
449.658467244547
 20
359.8635973007766
 30
0.0
 10
449.6210638113544
 20
359.8623999242847
 30
0.0
 10
449.5781766586546
 20
359.8611726626474
 30
0.0
 10
449.5307644321471
 20
359.8599056085328
 30
0.0
 10
449.4797253877808
 20
359.8585893124356
 30
0.0
 10
449.4259192557097
 20
359.8572148159984
 30
0.0
 10
449.3701617934859
 20
359.8557736484109
 30
0.0
 10
449.3132261077096
 20
359.8542578121123
 30
0.0
 10
449.2558424778384
 20
359.8526598471631
 30
0.0
 10
449.1986979102866
 20
359.850972627577
 30
0.0
 10
449.1424379330343
 20
359.8491900821067
 30
0.0
 10
449.0876605130359
 20
359.8473048187363
 30
0.0
 10
449.0349363987215
 20
359.8453161354621
 30
0.0
 10
448.9847418204268
 20
359.8432036393405
 30
0.0
 10
448.9376788564941
 20
359.8410138258671
 30
0.0
 10
448.9067871374094
 20
359.8393021426647
 30
0.0
 10
448.8921480647012
 20
359.8384910044181
 30
0.0
  0
SPLINE
  5
F8
330
1F
100
AcDbEntity
  8
0
  6
Continuous
 62
     8
370
    18
100
AcDbSpline
210
0.0
220
0.0
230
1.0
 70
     8
 71
     3
 72
     8
 73
     4
 74
     0
 42
0.000000001
 43
0.00000001
 40
0.0
 40
0.0
 40
0.0
 40
0.0
 40
1.0
 40
1.0
 40
1.0
 40
1.0
 10
432.7111510378895
 20
396.3109839083755
 30
0.0
 10
432.7112301184645
 20
396.3131478284546
 30
0.0
 10
432.7112676432552
 20
396.314214111695
 30
0.0
 10
432.7112673992922
 20
396.3142073260894
 30
0.0
  0
LINE
  5
F9
330
1F
100
AcDbEntity
  8
0
  6
Continuous
 62
     8
370
    18
100
AcDbLine
 10
421.139897455
 20
397.8987768902
 30
0.0
 11
419.9077874911
 21
397.8931517019
 31
0.0
  0
SPLINE
  5
FA
330
1F
100
AcDbEntity
  8
0
  6
Continuous
 62
     8
370
    18
100
AcDbSpline
210
0.0
220
0.0
230
1.0
 70
     8
 71
     3
 72
     8
 73
     4
 74
     0
 42
0.000000001
 43
0.00000001
 40
0.0
 40
0.0
 40
0.0
 40
0.0
 40
1.0
 40
1.0
 40
1.0
 40
1.0
 10
431.510897808525
 20
397.6510431006121
 30
0.0
 10
431.513881204712
 20
397.6567152535183
 30
0.0
 10
431.5152907054759
 20
397.6594436971719
 30
0.0
 10
431.5152838495117
 20
397.6594297421274
 30
0.0
  0
LINE
  5
FB
330
1F
100
AcDbEntity
  8
0
  6
Continuous
 62
     8
370
    18
100
AcDbLine
 10
368.5725067299
 20
380.3749070181
 30
0.0
 11
368.5725067299
 21
380.6614488973
 31
0.0
  0
LINE
  5
FC
330
1F
100
AcDbEntity
  8
0
  6
Continuous
 62
     8
370
    18
100
AcDbLine
 10
368.5725067299
 20
373.0986104025
 30
0.0
 11
368.5725067299
 21
380.3749070181
 31
0.0
  0
LINE
  5
FD
330
1F
100
AcDbEntity
  8
0
  6
Continuous
 62
     8
370
    18
100
AcDbLine
 10
325.813846339
 20
395.2004001155
 30
0.0
 11
325.8131385338
 21
395.200869502
 31
0.0
  0
LINE
  5
FE
330
1F
100
AcDbEntity
  8
0
  6
Continuous
 62
     8
370
    18
100
AcDbLine
 10
369.4519043457
 20
303.0934841051
 30
0.0
 11
369.4626350444
 21
303.086188124
 31
0.0
  0
SPLINE
  5
FF
330
1F
100
AcDbEntity
  8
0
  6
Continuous
 62
     7
370
    25
100
AcDbSpline
210
0.0
220
0.0
230
1.0
 70
     8
 71
     3
 72
    11
 73
     7
 74
     0
 42
0.000000001
 43
0.00000001
 40
0.0
 40
0.0
 40
0.0
 40
0.0
 40
0.3013837776526949
 40
0.5830939244138419
 40
0.8229227962853227
 40
1.0
 40
1.0
 40
1.0
 40
1.0
 10
139.456230788929
 20
397.5353301181443
 30
0.0
 10
139.2755769737419
 20
397.5219006967819
 30
0.0
 10
138.9260620035663
 20
397.495918495398
 30
0.0
 10
138.6234403046697
 20
397.4233303334406
 30
0.0
 10
138.4112525812507
 20
397.3432077014442
 30
0.0
 10
138.2597814423842
 20
397.2379405569794
 30
0.0
 10
138.1954454029627
 20
397.193229259456
 30
0.0
  0
SPLINE
  5
100
330
1F
100
AcDbEntity
  8
0
  6
Continuous
 62
     7
370
    25
100
AcDbSpline
210
0.0
220
0.0
230
1.0
 70
     8
 71
     3
 72
     9
 73
     5
 74
     0
 42
0.000000001
 43
0.00000001
 40
0.0
 40
0.0
 40
0.0
 40
0.0
 40
0.5468387134502035
 40
1.0
 40
1.0
 40
1.0
 40
1.0
 10
180.4304193849392
 20
397.1932590617783
 30
0.0
 10
180.3139792335964
 20
397.2798616266543
 30
0.0
 10
180.101045971048
 20
397.4382311106463
 30
0.0
 10
179.45985060248
 20
397.5050656459031
 30
0.0
 10
179.16928568433
 20
397.5353524698861
 30
0.0
  0
SPLINE
  5
101
330
1F
100
AcDbEntity
  8
0
  6
Continuous
 62
     7
370
    25
100
AcDbSpline
210
0.0
220
0.0
230
1.0
 70
     8
 71
     3
 72
    18
 73
    14
 74
     0
 42
0.000000001
 43
0.00000001
 40
0.0
 40
0.0
 40
0.0
 40
0.0
 40
0.1220702316682201
 40
0.2306503150918234
 40
0.3115924912918545
 40
0.3598488825623881
 40
0.4068952992037892
 40
0.5047801097020114
 40
0.6446470398303212
 40
0.7283773034927334
 40
0.820200231626201
 40
0.9203193371587826
 40
1.0
 40
1.0
 40
1.0
 40
1.0
 10
150.7060365895457
 20
397.8671193732865
 30
0.0
 10
150.2851750752763
 20
397.8628268939828
 30
0.0
 10
149.4899620282488
 20
397.8547163031336
 30
0.0
 10
148.3236331765969
 20
397.8377720704653
 30
0.0
 10
147.4172232205586
 20
397.8211010594252
 30
0.0
 10
146.7359579329748
 20
397.8066481569143
 30
0.0
 10
146.0060969252976
 20
397.789841388809
 30
0.0
 10
144.9569732142658
 20
397.7627663882751
 30
0.0
 10
143.7386008578845
 20
397.7249731549548
 30
0.0
 10
142.5249804515643
 20
397.680460170635
 30
0.0
 10
141.465126968097
 20
397.6363459826608
 30
0.0
 10
140.4322711176517
 20
397.5882126160004
 30
0.0
 10
139.8109657775712
 20
397.5540524015599
 30
0.0
 10
139.5356260384149
 20
397.5389138474114
 30
0.0
  0
SPLINE
  5
102
330
1F
100
AcDbEntity
  8
0
  6
Continuous
 62
     7
370
    25
100
AcDbSpline
210
0.0
220
0.0
230
1.0
 70
     8
 71
     3
 72
    17
 73
    13
 74
     0
 42
0.000000001
 43
0.00000001
 40
0.0
 40
0.0
 40
0.0
 40
0.0
 40
0.1314123165893265
 40
0.2621748503941333
 40
0.3638090825986864
 40
0.4331793421669057
 40
0.4721314991728024
 40
0.5358047889961908
 40
0.625514356234661
 40
0.8025392839064044
 40
0.902407717660753
 40
1.0
 40
1.0
 40
1.0
 40
1.0
 10
179.1098449523277
 20
397.5373641266473
 30
0.0
 10
178.6280820318619
 20
397.5634032093986
 30
0.0
 10
177.6669383211604
 20
397.6153526217667
 30
0.0
 10
176.2508094635279
 20
397.6751479800038
 30
0.0
 10
175.0951525840774
 20
397.7174243442831
 30
0.0
 10
174.2876053177343
 20
397.7433955850595
 30
0.0
 10
173.6270957940318
 20
397.7630531750927
 30
0.0
 10
172.8879639637308
 20
397.7831693875968
 30
0.0
 10
171.6128100032479
 20
397.8136349795865
 30
0.0
 10
170.2236929261634
 20
397.83921262348
 30
0.0
 10
168.880189407397
 20
397.8575022112752
 30
0.0
 10
168.2375052480468
 20
397.8639383827686
 30
0.0
 10
167.9198673139043
 20
397.8671193732865
 30
0.0
  0
SPLINE
  5
103
330
1F
100
AcDbEntity
  8
0
  6
Continuous
 62
     7
370
    25
100
AcDbSpline
210
0.0
220
0.0
230
1.0
 70
     8
 71
     3
 72
     9
 73
     5
 74
     0
 42
0.000000001
 43
0.00000001
 40
0.0
 40
0.0
 40
0.0
 40
0.0
 40
0.5117751514361895
 40
1.0
 40
1.0
 40
1.0
 40
1.0
 10
159.3129519517246
 20
397.9206368937142
 30
0.0
 10
157.8350625307899
 20
397.9184672766742
 30
0.0
 10
154.9472915696809
 20
397.9142278816315
 30
0.0
 10
152.0975966708715
 20
397.8828390578133
 30
0.0
 10
150.7063048104472
 20
397.8675142540582
 30
0.0
  0
SPLINE
  5
104
330
1F
100
AcDbEntity
  8
0
  6
Continuous
 62
     7
370
    25
100
AcDbSpline
210
0.0
220
0.0
230
1.0
 70
     8
 71
     3
 72
     9
 73
     5
 74
     0
 42
0.000000001
 43
0.00000001
 40
0.0
 40
0.0
 40
0.0
 40
0.0
 40
0.4882248485637636
 40
1.0
 40
1.0
 40
1.0
 40
1.0
 10
167.9195990930028
 20
397.8675142540582
 30
0.0
 10
166.5283072325785
 20
397.8828390578133
 30
0.0
 10
163.6786123337688
 20
397.9142278816315
 30
0.0
 10
160.7908413726595
 20
397.9184672766742
 30
0.0
 10
159.3129519517246
 20
397.9206368937142
 30
0.0
  0
SPLINE
  5
105
330
1F
100
AcDbEntity
  8
0
  6
Continuous
 62
     7
370
    25
100
AcDbSpline
210
0.0
220
0.0
230
1.0
 70
     8
 71
     3
 72
    20
 73
    16
 74
     0
 42
0.000000001
 43
0.00000001
 40
0.0
 40
0.0
 40
0.0
 40
0.0
 40
0.1021272225911086
 40
0.1925268476240392
 40
0.2712205039854383
 40
0.3394685141043942
 40
0.404533881737476
 40
0.4676339585934572
 40
0.5191190741061548
 40
0.569534743121469
 40
0.6282379387327024
 40
0.699572825316751
 40
0.7878524953903244
 40
0.8899949919684794
 40
1.0
 40
1.0
 40
1.0
 40
1.0
 10
181.6266082371301
 20
395.9465087070115
 30
0.0
 10
181.5694313928136
 20
396.0646533546976
 30
0.0
 10
181.4616435051763
 20
396.2873757200528
 30
0.0
 10
181.2524736019463
 20
396.5104804941303
 30
0.0
 10
181.0958933610572
 20
396.6486575494376
 30
0.0
 10
181.0247389315723
 20
396.706455261204
 30
0.0
 10
180.9595572383796
 20
396.7602633993118
 30
0.0
 10
180.9034074074206
 20
396.806214494907
 30
0.0
 10
180.8542285771675
 20
396.846490249056
 30
0.0
 10
180.8094112197205
 20
396.8831850545359
 30
0.0
 10
180.7595986818188
 20
396.9239865476839
 30
0.0
 10
180.6991533543628
 20
396.9735016707321
 30
0.0
 10
180.6267855095947
 20
397.0328171832228
 30
0.0
 10
180.5437416211666
 20
397.1008832123004
 30
0.0
 10
180.4851704839389
 20
397.1489343210862
 30
0.0
 10
180.4547995472975
 20
397.1738502993234
 30
0.0
  0
SPLINE
  5
106
330
1F
100
AcDbEntity
  8
0
  6
Continuous
 62
     7
370
    25
100
AcDbSpline
210
0.0
220
0.0
230
1.0
 70
     8
 71
     3
 72
    13
 73
     9
 74
     0
 42
0.000000001
 43
0.00000001
 40
0.0
 40
0.0
 40
0.0
 40
0.0
 40
0.20132588758099
 40
0.3887710292137259
 40
0.562337261766293
 40
0.7220275630470775
 40
0.8678984142221019
 40
1.0
 40
1.0
 40
1.0
 40
1.0
 10
138.1710875923461
 20
397.1738353981622
 30
0.0
 10
138.1128644252807
 20
397.1261491370372
 30
0.0
 10
138.0004323835989
 20
397.0340644228475
 30
0.0
 10
137.801225088068
 20
396.8692829341234
 30
0.0
 10
137.5888741192443
 20
396.6870926891192
 30
0.0
 10
137.3711120326843
 20
396.4777924434592
 30
0.0
 10
137.1466581658233
 20
396.2438037165916
 30
0.0
 10
137.046791133736
 20
396.0423452237366
 30
0.0
 10
136.9993310565777
 20
395.9466055645593
 30
0.0
  0
SPLINE
  5
107
330
1F
100
AcDbEntity
  8
0
  6
Continuous
 62
     7
370
    25
100
AcDbSpline
210
0.0
220
0.0
230
1.0
 70
     8
 71
     3
 72
    30
 73
    26
 74
     0
 42
0.000000001
 43
0.00000001
 40
0.0
 40
0.0
 40
0.0
 40
0.0
 40
0.0564832047562901
 40
0.1120117222944556
 40
0.1665866876868979
 40
0.2182034144894053
 40
0.2608161343792385
 40
0.294013407968521
 40
0.3146291943134215
 40
0.3388057406353099
 40
0.3681814335256457
 40
0.4027562095701805
 40
0.4422972926165772
 40
0.4812722900973282
 40
0.5351814437790755
 40
0.5823027629779364
 40
0.6241370125899232
 40
0.6676979928200584
 40
0.7138755453641512
 40
0.7461218289873929
 40
0.7843820478253543
 40
0.8295110314490791
 40
0.8815082783832939
 40
0.9403733443883899
 40
1.0
 40
1.0
 40
1.0
 40
1.0
 10
184.312952324254
 20
281.4202517881044
 30
0.0
 10
184.3091718915808
 20
282.9074739862278
 30
0.0
 10
184.301674923649
 20
285.8567811398344
 30
0.0
 10
184.2517943336055
 20
290.2428778205074
 30
0.0
 10
184.188325331137
 20
294.5005899444777
 30
0.0
 10
184.1217222697273
 20
298.4181267730269
 30
0.0
 10
184.0648931805856
 20
301.7728593835514
 30
0.0
 10
184.025017227977
 20
304.3114932473552
 30
0.0
 10
183.9954274431266
 20
306.3647928599323
 30
0.0
 10
183.9689411676603
 20
308.3175021425025
 30
0.0
 10
183.9394519717162
 20
310.6377525894403
 30
0.0
 10
183.9068281464112
 20
313.3625524635384
 30
0.0
 10
183.8726249428444
 20
316.3401062308045
 30
0.0
 10
183.8327709390414
 20
319.8267142398867
 30
0.0
 10
183.7890322681348
 20
323.5128838734671
 30
0.0
 10
183.7393115244228
 20
327.2742713072271
 30
0.0
 10
183.6880592449297
 20
330.7631344792871
 30
0.0
 10
183.6343543564164
 20
334.2271052535286
 30
0.0
 10
183.5833716013986
 20
337.438629886251
 30
0.0
 10
183.5351045643804
 20
340.5106084579405
 30
0.0
 10
183.48864795025
 20
343.5550033173678
 30
0.0
 10
183.4375536836588
 20
347.1194447022974
 30
0.0
 10
183.3860752838332
 20
351.2264672450452
 30
0.0
 10
183.3399239625354
 20
355.7153256276532
 30
0.0
 10
183.3248745214412
 20
358.8352327492346
 30
0.0
 10
183.3173014367647
 20
360.4052127017625
 30
0.0
  0
SPLINE
  5
108
330
1F
100
AcDbEntity
  8
0
  6
Continuous
 62
     7
370
    25
100
AcDbSpline
210
0.0
220
0.0
230
1.0
 70
     8
 71
     3
 72
    27
 73
    23
 74
     0
 42
0.000000001
 43
0.00000001
 40
0.0
 40
0.0
 40
0.0
 40
0.0
 40
0.0578684711125874
 40
0.120681453111312
 40
0.1823172018916836
 40
0.2398496863314364
 40
0.2911034809677182
 40
0.3353299506180337
 40
0.3767385901342978
 40
0.4217881699307766
 40
0.4706568489798874
 40
0.535547194093799
 40
0.5992124128957806
 40
0.6611549398142237
 40
0.7173991526990211
 40
0.7400379349907601
 40
0.7624142897863954
 40
0.7916319040458071
 40
0.8290474285986814
 40
0.877036544011103
 40
0.934020694363278
 40
1.0
 40
1.0
 40
1.0
 40
1.0
 10
135.3086322690077
 20
360.4052052511819
 30
0.0
 10
135.3013254600462
 20
358.8815189104789
 30
0.0
 10
135.2860875194868
 20
355.7039564460389
 30
0.0
 10
135.2365769670351
 20
350.903669120106
 30
0.0
 10
135.1750121548402
 20
346.1123893524723
 30
0.0
 10
135.1083563407633
 20
341.625570495746
 30
0.0
 10
135.0450413428696
 20
337.5971562044808
 30
0.0
 10
134.9878832259542
 20
333.9932476297145
 30
0.0
 10
134.9346532386188
 20
330.552656941949
 30
0.0
 10
134.8825100061386
 20
326.9898010115905
 30
0.0
 10
134.8279802647522
 20
322.808628893981
 30
0.0
 10
134.7736006927996
 20
318.1372584069623
 30
0.0
 10
134.7167142462733
 20
313.1216532256591
 30
0.0
 10
134.6583343007183
 20
308.3337366282139
 30
0.0
 10
134.6061697715782
 20
304.6260796843542
 30
0.0
 10
134.5636510572999
 20
301.9602029314877
 30
0.0
 10
134.531131563786
 20
300.0058847158526
 30
0.0
 10
134.4912763529756
 20
297.6625566525073
 30
0.0
 10
134.4404677919052
 20
294.6449168774424
 30
0.0
 10
134.3833049419871
 20
290.8961793152798
 30
0.0
 10
134.3275728447014
 20
286.395185875558
 30
0.0
 10
134.3180573632825
 20
283.1575117596138
 30
0.0
 10
134.312951579196
 20
281.4202517881042
 30
0.0
  0
SPLINE
  5
109
330
1F
100
AcDbEntity
  8
0
  6
Continuous
 62
     7
370
    25
100
AcDbSpline
210
0.0
220
0.0
230
1.0
 70
     8
 71
     3
 72
    14
 73
    10
 74
     0
 42
0.000000001
 43
0.00000001
 40
0.0
 40
0.0
 40
0.0
 40
0.0
 40
0.2113360422237041
 40
0.380429293055856
 40
0.5416975763806845
 40
0.693394330918296
 40
0.8358918493638676
 40
0.9742318528809245
 40
1.0
 40
1.0
 40
1.0
 40
1.0
 10
181.9456551368065
 20
388.032427491153
 30
0.0
 10
181.9184163122088
 20
388.6943924525446
 30
0.0
 10
181.8693832808511
 20
389.8860058642474
 30
0.0
 10
181.799996010848
 20
391.4755240898985
 30
0.0
 10
181.742327974793
 20
392.7665275014082
 30
0.0
 10
181.7010128462038
 20
393.8411487807609
 30
0.0
 10
181.6819584148019
 20
394.6603087951465
 30
0.0
 10
181.6779332328395
 20
395.1374750569063
 30
0.0
 10
181.6786739362535
 20
395.2967142867375
 30
0.0
 10
181.6787902409858
 20
395.3217179193147
 30
0.0
  0
SPLINE
  5
10A
330
1F
100
AcDbEntity
  8
0
  6
Continuous
 62
     7
370
    25
100
AcDbSpline
210
0.0
220
0.0
230
1.0
 70
     8
 71
     3
 72
    12
 73
     8
 74
     0
 42
0.000000001
 43
0.00000001
 40
0.0
 40
0.0
 40
0.0
 40
0.0
 40
0.0969711949369581
 40
0.3785888834676875
 40
0.6502056761100482
 40
0.9162148514782793
 40
1.0
 40
1.0
 40
1.0
 40
1.0
 10
181.5775275374479
 20
394.4027335061677
 30
0.0
 10
181.5708624325655
 20
394.3136270663721
 30
0.0
 10
181.5448409463162
 20
393.9657432687773
 30
0.0
 10
181.2925746255409
 20
393.3302375167177
 30
0.0
 10
180.7994611060549
 20
392.4917023486632
 30
0.0
 10
180.2229504028035
 20
391.8636418324817
 30
0.0
 10
179.8031468881706
 20
391.6486953867058
 30
0.0
 10
179.7025926555223
 20
391.5972099318154
 30
0.0
  0
SPLINE
  5
10B
330
1F
100
AcDbEntity
  8
0
  6
Continuous
 62
     7
370
    25
100
AcDbSpline
210
0.0
220
0.0
230
1.0
 70
     8
 71
     3
 72
    12
 73
     8
 74
     0
 42
0.000000001
 43
0.00000001
 40
0.0
 40
0.0
 40
0.0
 40
0.0
 40
0.0351074426529688
 40
0.2871452284143152
 40
0.548213870808271
 40
0.8242679964645605
 40
1.0
 40
1.0
 40
1.0
 40
1.0
 10
138.2087092990703
 20
392.1247110380776
 30
0.0
 10
138.1745112107492
 20
392.1461377758255
 30
0.0
 10
137.894803629101
 20
392.3213879518527
 30
0.0
 10
137.5655869311566
 20
392.8752694340391
 30
0.0
 10
137.1573835295035
 20
393.6865225967083
 30
0.0
 10
136.9548145921233
 20
394.5322533517598
 30
0.0
 10
136.9369261219272
 20
395.1096456502124
 30
0.0
 10
136.9299680138654
 20
395.3342348947175
 30
0.0
  0
SPLINE
  5
10C
330
1F
100
AcDbEntity
  8
0
  6
Continuous
 62
     7
370
    25
100
AcDbSpline
210
0.0
220
0.0
230
1.0
 70
     8
 71
     3
 72
    18
 73
    14
 74
     0
 42
0.000000001
 43
0.00000001
 40
0.0
 40
0.0
 40
0.0
 40
0.0
 40
0.0006295360818577
 40
0.111067694331015
 40
0.2278029053747824
 40
0.3511735037073414
 40
0.4712749251340727
 40
0.5413289752657559
 40
0.6088107922269363
 40
0.6794586598491036
 40
0.7610272215181565
 40
0.8846650927099137
 40
1.0
 40
1.0
 40
1.0
 40
1.0
 10
136.9081247742004
 20
395.3915149583466
 30
0.0
 10
136.9081315435021
 20
395.3907175094231
 30
0.0
 10
136.9093258368176
 20
395.2500253142767
 30
0.0
 10
136.9233429722573
 20
395.0068149527251
 30
0.0
 10
136.9335148747028
 20
394.7088504224219
 30
0.0
 10
136.9363204512686
 20
394.5156727280398
 30
0.0
 10
136.93563192324
 20
394.1821009437378
 30
0.0
 10
136.9153483623528
 20
393.5714693812207
 30
0.0
 10
136.8806204158919
 20
392.7640082021831
 30
0.0
 10
136.8281546148704
 20
391.5616873895979
 30
0.0
 10
136.755140793281
 20
389.8412699122945
 30
0.0
 10
136.6696653589616
 20
387.8082076567468
 30
0.0
 10
136.6101411351547
 20
386.2914015995071
 30
0.0
 10
136.581413089735
 20
385.5593488230355
 30
0.0
  0
ARC
  5
10D
330
1F
100
AcDbEntity
  8
0
  6
Continuous
 62
     7
370
    25
100
AcDbCircle
 10
170.8129519517
 20
363.0110903053
 30
0.0
 40
10.0
100
AcDbArc
 50
0.0
 51
9.0468459803
  0
ARC
  5
10E
330
1F
100
AcDbEntity
  8
0
  6
Continuous
 62
     7
370
    25
100
AcDbCircle
 10
147.8129519517
 20
363.0110903053
 30
0.0
 40
10.0
100
AcDbArc
 50
170.9531540197
 51
180.0
  0
LINE
  5
10F
330
1F
100
AcDbEntity
  8
0
  6
Continuous
 62
     7
370
    25
100
AcDbLine
 10
137.8129512216
 20
363.0110905184
 30
0.0
 11
137.8129512216
 21
361.8103325977
 31
0.0
  0
LINE
  5
110
330
1F
100
AcDbEntity
  8
0
  6
Continuous
 62
     7
370
    25
100
AcDbLine
 10
180.8129526819
 20
361.8100047722
 30
0.0
 11
180.8129526819
 21
363.0110905184
 31
0.0
  0
LINE
  5
111
330
1F
100
AcDbEntity
  8
0
  6
Continuous
 62
     7
370
    25
100
AcDbLine
 10
137.9912231262
 20
364.9061382427
 30
0.0
 11
137.9373517031
 21
364.5835132017
 31
0.0
  0
LWPOLYLINE
  5
112
330
1F
100
AcDbEntity
  8
0
  6
Continuous
 62
     7
370
    25
100
AcDbPolyline
 90
        3
 70
   128
 43
0.0
 10
180.6885522003
 20
364.5835132017
 10
180.6343957926
 20
364.9077699198
 10
180.6329485173
 20
364.9160400643
  0
LINE
  5
113
330
1F
100
AcDbEntity
  8
0
  6
Continuous
 62
     7
370
    25
100
AcDbLine
 10
181.7159313853
 20
395.4082638635
 30
0.0
 11
181.6628385479
 21
395.8344817772
 31
0.0
  0
LINE
  5
114
330
1F
100
AcDbEntity
  8
0
  6
Continuous
 62
     7
370
    25
100
AcDbLine
 10
136.9630672182
 20
395.8344817772
 30
0.0
 11
136.9099725182
 21
395.4082638635
 31
0.0
  0
LINE
  5
115
330
1F
100
AcDbEntity
  8
0
  6
Continuous
 62
     7
370
    25
100
AcDbLine
 10
136.5426756586
 20
384.5506445183
 30
0.0
 11
136.5390975172
 21
384.4383270158
 31
0.0
  0
LINE
  5
116
330
1F
100
AcDbEntity
  8
0
  6
Continuous
 62
     7
370
    25
100
AcDbLine
 10
182.0868063862
 20
384.438341917
 30
0.0
 11
182.0832282449
 21
384.5506445183
 31
0.0
  0
CIRCLE
  5
117
330
1F
100
AcDbEntity
  8
0
  6
Continuous
 62
     7
370
    25
100
AcDbCircle
 10
159.3129519482
 20
346.468986594
 30
0.0
 40
10.65096189368573
  0
SPLINE
  5
118
330
1F
100
AcDbEntity
  8
0
  6
Continuous
 62
     7
370
    25
100
AcDbSpline
210
0.0
220
0.0
230
1.0
 70
     8
 71
     3
 72
     8
 73
     4
 74
     0
 42
0.000000001
 43
0.00000001
 40
0.0
 40
0.0
 40
0.0
 40
0.0
 40
1.0
 40
1.0
 40
1.0
 40
1.0
 10
169.4055678425493
 20
340.0704239057873
 30
0.0
 10
169.6559320706543
 20
341.5870781048233
 30
0.0
 10
169.9090717528623
 20
343.1205454297634
 30
0.0
 10
170.1660704583568
 20
344.6773899070487
 30
0.0
  0
ARC
  5
119
330
1F
100
AcDbEntity
  8
0
  6
Continuous
 62
     7
370
    25
100
AcDbCircle
 10
159.3129519517
 20
346.4689865934
 30
0.0
 40
11.94999999952075
100
AcDbArc
 50
193.6267432888
 51
327.6259334917
  0
SPLINE
  5
11A
330
1F
100
AcDbEntity
  8
0
  6
Continuous
 62
     7
370
    25
100
AcDbSpline
210
0.0
220
0.0
230
1.0
 70
     8
 71
     3
 72
    14
 73
    10
 74
     0
 42
0.000000001
 43
0.00000001
 40
0.0
 40
0.0
 40
0.0
 40
0.0
 40
0.5000000000000048
 40
0.5000000000000048
 40
0.6250000000000027
 40
0.6250000000000027
 40
0.7500000000000004
 40
0.7500000000000004
 40
1.0
 40
1.0
 40
1.0
 40
1.0
 10
147.6993308299145
 20
343.6536172806123
 30
0.0
 10
147.9499976078063
 20
345.1721042630617
 30
0.0
 10
148.2023906875636
 20
346.7010488248975
 30
0.0
 10
148.5207907458083
 20
348.6298498719362
 30
0.0
 10
148.5846122083913
 20
349.0164669615571
 30
0.0
 10
148.7125371102377
 20
349.7914092966307
 30
0.0
 10
148.7767615863434
 20
350.1804677579931
 30
0.0
 10
148.9682672137498
 20
351.3405688480856
 30
0.0
 10
149.094765804968
 20
352.1068708912943
 30
0.0
 10
149.2203360645413
 20
352.8675492953034
 30
0.0
  0
ARC
  5
11B
330
1F
100
AcDbEntity
  8
0
  6
Continuous
 62
     7
370
    25
100
AcDbCircle
 10
159.3129519517
 20
346.4689865934
 30
0.0
 40
11.94999999986779
100
AcDbArc
 50
13.6267432889
 51
147.6259334673
  0
SPLINE
  5
11C
330
1F
100
AcDbEntity
  8
0
  6
Continuous
 62
     7
370
    25
100
AcDbSpline
210
0.0
220
0.0
230
1.0
 70
    24
 71
     3
 72
     8
 73
     4
 74
     0
 42
0.000000001
 43
0.00000001
 40
0.0
 40
0.0
 40
0.0
 40
0.0
 40
1.0
 40
1.0
 40
1.0
 40
1.0
 10
170.1660704585957
 20
344.6773899069766
 30
0.0
 10
170.4230691640941
 20
346.2342343842856
 30
0.0
 10
170.6762088468033
 20
347.7677017091099
 30
0.0
 10
170.9265730749045
 20
349.2843559081226
 30
0.0
  0
ARC
  5
11D
330
1F
100
AcDbEntity
  8
0
  6
Continuous
 62
     7
370
    25
100
AcDbCircle
 10
159.3129519517
 20
346.4689865934
 30
0.0
 40
11.95000000188141
100
AcDbArc
 50
350.6263383903
 51
13.6267433067
  0
ARC
  5
11E
330
1F
100
AcDbEntity
  8
0
  6
Continuous
 62
     7
370
    25
100
AcDbCircle
 10
159.3129519517
 20
346.4689865934
 30
0.0
 40
11.95000000188141
100
AcDbArc
 50
327.625933474
 51
350.6263383903
  0
ARC
  5
11F
330
1F
100
AcDbEntity
  8
0
  6
Continuous
 62
     7
370
    25
100
AcDbCircle
 10
159.3129519517
 20
346.4689865934
 30
0.0
 40
11.94999999986782
100
AcDbArc
 50
147.6259334673
 51
193.6267433134
  0
SPLINE
  5
120
330
1F
100
AcDbEntity
  8
0
  6
Continuous
 62
     7
370
    25
100
AcDbSpline
210
0.0
220
0.0
230
1.0
 70
     8
 71
     3
 72
     8
 73
     4
 74
     0
 42
0.000000001
 43
0.00000001
 40
0.9055416016261804
 40
0.9055416016261804
 40
0.9055416016261804
 40
0.9055416016261804
 40
0.9577230208348811
 40
0.9577230208348811
 40
0.9577230208348811
 40
0.9577230208348811
 10
137.5629519517247
 20
361.7797253054372
 30
0.0
 10
137.1481859656186
 20
361.7167971366125
 30
0.0
 10
136.7336591557057
 20
361.6520640662047
 30
0.0
 10
136.3193828650417
 20
361.5855270394681
 30
0.0
  0
SPLINE
  5
121
330
1F
100
AcDbEntity
  8
0
  6
Continuous
 62
     7
370
    25
100
AcDbSpline
210
0.0
220
0.0
230
1.0
 70
     8
 71
     3
 72
    34
 73
    30
 74
     0
 42
0.000000001
 43
0.00000001
 40
0.0
 40
0.0
 40
0.0
 40
0.0
 40
0.125
 40
0.125
 40
0.1875000000000001
 40
0.1875000000000001
 40
0.2500000000000001
 40
0.2500000000000001
 40
0.3750000000000002
 40
0.3750000000000002
 40
0.4062500000000003
 40
0.4062500000000003
 40
0.4375000000000004
 40
0.4375000000000004
 40
0.5000000000000004
 40
0.5000000000000004
 40
0.6250000000000001
 40
0.6250000000000001
 40
0.65625
 40
0.65625
 40
0.6874999999999999
 40
0.6874999999999999
 40
0.7499999999999999
 40
0.7499999999999999
 40
0.8125
 40
0.8125
 40
0.875
 40
0.875
 40
1.0
 40
1.0
 40
1.0
 40
1.0
 10
159.3129519517247
 20
363.3723460950445
 30
0.0
 10
157.874775448278
 20
363.3723069128818
 30
0.0
 10
156.4610167517102
 20
363.3510006461088
 30
0.0
 10
154.3754147402742
 20
363.2902661470526
 30
0.0
 10
153.6860962489401
 20
363.2652232353677
 30
0.0
 10
152.3194674942141
 20
363.2060701682551
 30
0.0
 10
151.6406963490793
 20
363.1718230015016
 30
0.0
 10
149.6668987648916
 20
363.0591381887469
 30
0.0
 10
148.4189725937798
 20
362.9702197569919
 30
0.0
 10
146.9428103916284
 20
362.8483914108902
 30
0.0
 10
146.6518032038648
 20
362.8234917458055
 30
0.0
 10
146.078364818058
 20
362.7727927450051
 30
0.0
 10
145.7951750452625
 20
362.7469204101188
 30
0.0
 10
144.9658452243796
 20
362.668890762906
 30
0.0
 10
144.4394408188227
 20
362.6163065507387
 30
0.0
 10
142.9371825353955
 20
362.4591947394745
 30
0.0
 10
142.0375380555561
 20
362.3552834528583
 30
0.0
 10
141.0435141159221
 20
362.2340750304752
 30
0.0
 10
140.8509016851208
 20
362.2102184618768
 30
0.0
 10
140.4828926767831
 20
362.164050226843
 30
0.0
 10
140.3070818750696
 20
362.1416896663565
 30
0.0
 10
139.8038026178811
 20
362.0769877995976
 30
0.0
 10
139.5004297163672
 20
362.0370269817338
 30
0.0
 10
138.9571506901334
 20
361.964531764229
 30
0.0
 10
138.7172443055686
 20
361.9319862021603
 30
0.0
 10
138.3019309305237
 20
361.8754368482832
 30
0.0
 10
138.1259323597459
 20
361.8513709570133
 30
0.0
 10
137.7042047987207
 20
361.7948858614578
 30
0.0
 10
137.5629519517247
 20
361.7792420408973
 30
0.0
 10
137.5629519517247
 20
361.7797253054372
 30
0.0
  0
SPLINE
  5
122
330
1F
100
AcDbEntity
  8
0
  6
Continuous
 62
     7
370
    25
100
AcDbSpline
210
0.0
220
0.0
230
1.0
 70
     8
 71
     3
 72
    34
 73
    30
 74
     0
 42
0.000000001
 43
0.00000001
 40
0.0
 40
0.0
 40
0.0
 40
0.0
 40
0.1250000000000001
 40
0.1250000000000001
 40
0.1875000000000001
 40
0.1875000000000001
 40
0.2500000000000002
 40
0.2500000000000002
 40
0.3750000000000002
 40
0.3750000000000002
 40
0.4062500000000002
 40
0.4062500000000002
 40
0.4375000000000002
 40
0.4375000000000002
 40
0.5000000000000002
 40
0.5000000000000002
 40
0.6250000000000003
 40
0.6250000000000003
 40
0.6562500000000003
 40
0.6562500000000003
 40
0.6875000000000003
 40
0.6875000000000003
 40
0.7500000000000003
 40
0.7500000000000003
 40
0.8125000000000002
 40
0.8125000000000002
 40
0.8750000000000002
 40
0.8750000000000002
 40
1.0
 40
1.0
 40
1.0
 40
1.0
 10
181.0629519517247
 20
361.7797253054374
 30
0.0
 10
181.0629519517247
 20
361.7792420450535
 30
0.0
 10
180.9217171820252
 20
361.7949047475551
 30
0.0
 10
180.5069217014701
 20
361.8504296819563
 30
0.0
 10
180.3345812961297
 20
361.8739885758028
 30
0.0
 10
179.9202272591579
 20
361.9304147749249
 30
0.0
 10
179.6771675061326
 20
361.9633993494496
 30
0.0
 10
178.8587013895846
 20
362.0726440191962
 30
0.0
 10
178.1911895051203
 20
362.159744362644
 30
0.0
 10
177.2057904696891
 20
362.2800188730133
 30
0.0
 10
177.0010911178316
 20
362.3046436271145
 30
0.0
 10
176.5762041213824
 20
362.354867674709
 30
0.0
 10
176.3553710483648
 20
362.3805396444709
 30
0.0
 10
175.6750087718194
 20
362.4580917812611
 30
0.0
 10
175.1976668023644
 20
362.5105177059091
 30
0.0
 10
173.6963609880316
 20
362.6676290035656
 30
0.0
 10
172.6037903671062
 20
362.7721724717246
 30
0.0
 10
171.11984436674
 20
362.8949314797959
 30
0.0
 10
170.8163690246311
 20
362.9191369931316
 30
0.0
 10
170.2036038367679
 20
362.9660702744899
 30
0.0
 10
169.8937658777559
 20
362.9888475671533
 30
0.0
 10
168.9540523049289
 20
363.0548960523364
 30
0.0
 10
168.3140009840137
 20
363.0958831903005
 30
0.0
 10
167.0070292067975
 20
363.1706536524892
 30
0.0
 10
166.3401090142293
 20
363.2044386898958
 30
0.0
 10
164.9789060303401
 20
363.2636958396627
 30
0.0
 10
164.2812962177455
 20
363.289255383202
 30
0.0
 10
162.1728966016362
 20
363.350989139404
 30
0.0
 10
160.7511088130901
 20
363.3723069134169
 30
0.0
 10
159.3129519517247
 20
363.3723460950445
 30
0.0
  0
SPLINE
  5
123
330
1F
100
AcDbEntity
  8
0
  6
Continuous
 62
     7
370
    25
100
AcDbSpline
210
0.0
220
0.0
230
1.0
 70
     8
 71
     3
 72
     8
 73
     4
 74
     0
 42
0.000000001
 43
0.00000001
 40
0.9055416016261826
 40
0.9055416016261826
 40
0.9055416016261826
 40
0.9055416016261826
 40
0.9577230176910196
 40
0.9577230176910196
 40
0.9577230176910196
 40
0.9577230176910196
 10
181.0629519517247
 20
361.7797253054374
 30
0.0
 10
181.4777179128417
 20
361.7167971404041
 30
0.0
 10
181.8922446977943
 20
361.652064074005
 30
0.0
 10
182.3065209635289
 20
361.5855270514946
 30
0.0
  0
LINE
  5
124
330
1F
100
AcDbEntity
  8
0
  6
Continuous
 62
     7
370
    25
100
AcDbLine
 10
139.5357675994
 20
397.5363433971
 30
0.0
 11
139.4076176132
 21
397.5305095925
 31
0.0
  0
LINE
  5
125
330
1F
100
AcDbEntity
  8
0
  6
Continuous
 62
     7
370
    25
100
AcDbLine
 10
179.219489559
 20
397.5303829326
 30
0.0
 11
179.1097425068
 21
397.5354120745
 31
0.0
  0
SPLINE
  5
126
330
1F
100
AcDbEntity
  8
0
  6
Continuous
 62
     7
370
    25
100
AcDbSpline
210
0.0
220
0.0
230
1.0
 70
     8
 71
     3
 72
     8
 73
     4
 74
     0
 42
0.000000001
 43
0.00000001
 40
0.0
 40
0.0
 40
0.0
 40
0.0
 40
0.9660390747218122
 40
0.9660390747218122
 40
0.9660390747218122
 40
0.9660390747218122
 10
142.6977366089961
 20
392.3988459854675
 30
0.0
 10
139.8774252263504
 20
392.4000875060723
 30
0.0
 10
137.8405319964614
 20
393.5895350319714
 30
0.0
 10
137.70543522937
 20
396.1211358061819
 30
0.0
  0
SPLINE
  5
127
330
1F
100
AcDbEntity
  8
0
  6
Continuous
 62
     7
370
    25
100
AcDbSpline
210
0.0
220
0.0
230
1.0
 70
     8
 71
     3
 72
     8
 73
     4
 74
     0
 42
0.000000001
 43
0.00000001
 40
0.0
 40
0.0
 40
0.0
 40
0.0
 40
0.9660391189136345
 40
0.9660391189136345
 40
0.9660391189136345
 40
0.9660391189136345
 10
175.928167294453
 20
392.3988459854676
 30
0.0
 10
178.7484788061149
 20
392.4000875061292
 30
0.0
 10
180.7853720933447
 20
393.589535140795
 30
0.0
 10
180.9204686926193
 20
396.1211361536091
 30
0.0
  0
LINE
  5
128
330
1F
100
AcDbEntity
  8
0
  6
Continuous
 62
     7
370
    25
100
AcDbLine
 10
167.9225364844
 20
397.8553325548
 30
0.0
 11
167.9218910779
 21
397.8568301215
 31
0.0
  0
LINE
  5
129
330
1F
100
AcDbEntity
  8
0
  6
Continuous
 62
     7
370
    25
100
AcDbLine
 10
180.4551720763
 20
397.1735448255
 30
0.0
 11
180.4305143798
 21
397.193184556
 31
0.0
  0
SPLINE
  5
12A
330
1F
100
AcDbEntity
  8
0
  6
Continuous
 62
     7
370
    25
100
AcDbSpline
210
0.0
220
0.0
230
1.0
 70
     8
 71
     3
 72
     9
 73
     5
 74
     0
 42
0.000000001
 43
0.00000001
 40
0.0
 40
0.0
 40
0.0
 40
0.0
 40
0.7707382203394986
 40
1.0
 40
1.0
 40
1.0
 40
1.0
 10
181.6493809367246
 20
395.8324105157502
 30
0.0
 10
181.6479798432778
 20
395.862983199824
 30
0.0
 10
181.6461619842307
 20
395.9026499547184
 30
0.0
 10
181.6284989012424
 20
395.9375106529208
 30
0.0
 10
181.6244494314022
 20
395.9455028786309
 30
0.0
  0
SPLINE
  5
12B
330
1F
100
AcDbEntity
  8
0
  6
Continuous
 62
     7
370
    25
100
AcDbSpline
210
0.0
220
0.0
230
1.0
 70
     8
 71
     3
 72
     9
 73
     5
 74
     0
 42
0.000000001
 43
0.00000001
 40
0.0
 40
0.0
 40
0.0
 40
0.0
 40
0.7460108284869454
 40
1.0
 40
1.0
 40
1.0
 40
1.0
 10
136.976468950016
 20
395.8324403180726
 30
0.0
 10
136.9779329658416
 20
395.8627829433684
 30
0.0
 10
136.9798954250575
 20
395.9034561134313
 30
0.0
 10
136.9981305297973
 20
395.9392086409341
 30
0.0
 10
137.0027620489425
 20
395.9482893957742
 30
0.0
  0
SPLINE
  5
12C
330
1F
100
AcDbEntity
  8
0
  6
Continuous
 62
     7
370
    25
100
AcDbSpline
210
0.0
220
0.0
230
1.0
 70
    24
 71
     3
 72
     8
 73
     4
 74
     0
 42
0.000000001
 43
0.00000001
 40
0.5
 40
0.5
 40
0.5
 40
0.5
 40
1.0
 40
1.0
 40
1.0
 40
1.0
 10
184.312951951725
 20
281.4202517881044
 30
0.0
 10
184.3129519517253
 20
281.4202517881044
 30
0.0
 10
173.1108271998027
 20
281.4202517881044
 30
0.0
 10
159.312951951725
 20
281.4202517881043
 30
0.0
  0
SPLINE
  5
12D
330
1F
100
AcDbEntity
  8
0
  6
Continuous
 62
     7
370
    25
100
AcDbSpline
210
0.0
220
0.0
230
1.0
 70
    24
 71
     3
 72
     8
 73
     4
 74
     0
 42
0.000000001
 43
0.00000001
 40
0.5
 40
0.5
 40
0.5
 40
0.5
 40
1.0
 40
1.0
 40
1.0
 40
1.0
 10
134.312951951725
 20
281.4202517881042
 30
0.0
 10
134.3129519517247
 20
281.4202517881042
 30
0.0
 10
145.5150767036473
 20
281.4202517881043
 30
0.0
 10
159.312951951725
 20
281.4202517881043
 30
0.0
  0
LINE
  5
12E
330
1F
100
AcDbEntity
  8
0
  6
Continuous
 62
     7
370
    25
100
AcDbLine
 10
182.0956278736
 20
384.2185870423
 30
0.0
 11
181.9425221677
 21
388.0323008313
 31
0.0
  0
LINE
  5
12F
330
1F
100
AcDbEntity
  8
0
  6
Continuous
 62
     7
370
    25
100
AcDbLine
 10
136.5302760298
 20
384.2185870423
 30
0.0
 11
136.5840971614
 21
385.5592370643
 31
0.0
  0
CIRCLE
  5
130
330
1F
100
AcDbEntity
  8
0
  6
Continuous
 62
     7
370
    25
100
AcDbCircle
 10
159.3129519517
 20
376.8800295303
 30
0.0
 40
3.569682227408622
  0
ARC
  5
131
330
1F
100
AcDbEntity
  8
0
  6
Continuous
 62
     7
370
    25
100
AcDbCircle
 10
159.3129519517
 20
376.8800295303
 30
0.0
 40
4.000000000000031
100
AcDbArc
 50
292.1465377942
 51
67.952862431
  0
SPLINE
  5
132
330
1F
100
AcDbEntity
  8
0
  6
Continuous
 62
     7
370
    25
100
AcDbSpline
210
0.0
220
0.0
230
1.0
 70
     8
 71
     3
 72
    10
 73
     6
 74
     0
 42
0.000000001
 43
0.00000001
 40
0.0
 40
0.0
 40
0.0
 40
0.0
 40
0.5
 40
0.5
 40
1.0
 40
1.0
 40
1.0
 40
1.0
 10
160.8208587536054
 20
373.1751385633351
 30
0.0
 10
160.3357234440625
 20
372.9903173826609
 30
0.0
 10
159.8319922678089
 20
372.8981488683753
 30
0.0
 10
158.7926146164893
 20
372.8983073144465
 30
0.0
 10
158.2901804610462
 20
372.9903173820287
 30
0.0
 10
157.8050451498439
 20
373.1751385633351
 30
0.0
  0
ARC
  5
133
330
1F
100
AcDbEntity
  8
0
  6
Continuous
 62
     7
370
    25
100
AcDbCircle
 10
159.3129519517
 20
376.8800295303
 30
0.0
 40
4.000000000000023
100
AcDbArc
 50
112.0471375691
 51
247.8534622058
  0
SPLINE
  5
134
330
1F
100
AcDbEntity
  8
0
  6
Continuous
 62
     7
370
    25
100
AcDbSpline
210
0.0
220
0.0
230
1.0
 70
     8
 71
     3
 72
    10
 73
     6
 74
     0
 42
0.000000001
 43
0.00000001
 40
0.0
 40
0.0
 40
0.0
 40
0.0
 40
0.5
 40
0.5
 40
1.0
 40
1.0
 40
1.0
 40
1.0
 10
157.8114748874358
 20
380.5875309295119
 30
0.0
 10
158.2947098988131
 20
380.7706152539217
 30
0.0
 10
158.7958939187981
 20
380.8618807832957
 30
0.0
 10
159.8308290619584
 20
380.8617812144067
 30
0.0
 10
160.3311940024505
 20
380.770615254749
 30
0.0
 10
160.8144290160084
 20
380.5875309295138
 30
0.0
  0
SPLINE
  5
135
330
1F
100
AcDbEntity
  8
0
  6
Continuous
 62
     7
370
    25
100
AcDbSpline
210
0.0
220
0.0
230
1.0
 70
    24
 71
     3
 72
    26
 73
    22
 74
     0
 42
0.000000001
 43
0.00000001
 40
0.2294549521418057
 40
0.2294549521418057
 40
0.2294549521418057
 40
0.2294549521418057
 40
0.2499769504868394
 40
0.2499769504868394
 40
0.3124769504868394
 40
0.3124769504868394
 40
0.3749769504868394
 40
0.3749769504868394
 40
0.4374769504868394
 40
0.4374769504868394
 40
0.4999769504868394
 40
0.4999769504868394
 40
0.5624769504868394
 40
0.5624769504868394
 40
0.6249769504868394
 40
0.6249769504868394
 40
0.6874769504868394
 40
0.6874769504868394
 40
0.7499769504868394
 40
0.7499769504868394
 40
0.7705219983450335
 40
0.7705219983450335
 40
0.7705219983450335
 40
0.7705219983450335
 10
176.8182048457826
 20
364.7800295302654
 30
0.0
 10
176.5293297752634
 20
364.7800295302654
 30
0.0
 10
176.2270471366373
 20
364.7800295302654
 30
0.0
 10
174.9488593132469
 20
364.7800295302654
 30
0.0
 10
173.8594765997166
 20
364.7800295302654
 30
0.0
 10
171.439369117063
 20
364.7800295302654
 30
0.0
 10
170.1084862351622
 20
364.7800295302654
 30
0.0
 10
167.2539558452247
 20
364.7800295302654
 30
0.0
 10
165.7305347714383
 20
364.7800295302654
 30
0.0
 10
162.5754410833392
 20
364.7800295302654
 30
0.0
 10
160.9443974428908
 20
364.7800295302654
 30
0.0
 10
157.6815064605585
 20
364.7800295302654
 30
0.0
 10
156.0504628201101
 20
364.7800295302654
 30
0.0
 10
152.8953691320111
 20
364.7800295302654
 30
0.0
 10
151.3719480582247
 20
364.7800295302653
 30
0.0
 10
148.5174176682872
 20
364.7800295302653
 30
0.0
 10
147.1865347863863
 20
364.7800295302653
 30
0.0
 10
144.7664273037328
 20
364.7800295302653
 30
0.0
 10
143.6770445902025
 20
364.7800295302653
 30
0.0
 10
142.3985019017444
 20
364.7800295302653
 30
0.0
 10
142.0958951211418
 20
364.7800295302653
 30
0.0
 10
141.8067257485575
 20
364.7800295302653
 30
0.0
  0
SPLINE
  5
136
330
1F
100
AcDbEntity
  8
0
  6
Continuous
 62
     7
370
    25
100
AcDbSpline
210
0.0
220
0.0
230
1.0
 70
     8
 71
     3
 72
     8
 73
     4
 74
     0
 42
0.000000001
 43
0.00000001
 40
0.0
 40
0.0
 40
0.0
 40
0.0
 40
1.0
 40
1.0
 40
1.0
 40
1.0
 10
182.5084408144079
 20
367.1468834485023
 30
0.0
 10
182.5035696625522
 20
366.9607827493877
 30
0.0
 10
182.4822040860645
 20
366.7749044431595
 30
0.0
 10
182.4441678086916
 20
366.5892509066883
 30
0.0
  0
SPLINE
  5
137
330
1F
100
AcDbEntity
  8
0
  6
Continuous
 62
     7
370
    25
100
AcDbSpline
210
0.0
220
0.0
230
1.0
 70
     8
 71
     3
 72
    16
 73
    12
 74
     0
 42
0.000000001
 43
0.00000001
 40
0.0
 40
0.0
 40
0.0
 40
0.0
 40
0.2499999999999999
 40
0.2499999999999999
 40
0.3749999999999998
 40
0.3749999999999998
 40
0.4999999999999998
 40
0.4999999999999998
 40
0.7499999999999999
 40
0.7499999999999999
 40
1.0
 40
1.0
 40
1.0
 40
1.0
 10
182.4441678086916
 20
366.5892509066883
 30
0.0
 10
182.3794239938833
 20
366.2732389566755
 30
0.0
 10
182.265611281315
 20
366.0010918629943
 30
0.0
 10
182.0185376835228
 20
365.6550885663932
 30
0.0
 10
181.9234525333134
 20
365.5501395897285
 30
0.0
 10
181.707114249427
 20
365.3605946155682
 30
0.0
 10
181.5858100335733
 20
365.2761350272452
 30
0.0
 10
181.1871585194423
 20
365.0552187955336
 30
0.0
 10
180.8739380543671
 20
364.9497895491106
 30
0.0
 10
180.1506576389514
 20
364.8121639149723
 30
0.0
 10
179.7405869947151
 20
364.7800295302656
 30
0.0
 10
179.2774429016258
 20
364.7800295302655
 30
0.0
  0
SPLINE
  5
138
330
1F
100
AcDbEntity
  8
0
  6
Continuous
 62
     7
370
    25
100
AcDbSpline
210
0.0
220
0.0
230
1.0
 70
    24
 71
     3
 72
     8
 73
     4
 74
     0
 42
0.000000001
 43
0.00000001
 40
0.0
 40
0.0
 40
0.0
 40
0.0
 40
1.0
 40
1.0
 40
1.0
 40
1.0
 10
179.2774429016258
 20
364.7800295302654
 30
0.0
 10
178.5657462238265
 20
364.7800295302654
 30
0.0
 10
177.7466239325039
 20
364.7800295302654
 30
0.0
 10
176.8182252138407
 20
364.7800295302654
 30
0.0
  0
SPLINE
  5
139
330
1F
100
AcDbEntity
  8
0
  6
Continuous
 62
     7
370
    25
100
AcDbSpline
210
0.0
220
0.0
230
1.0
 70
     8
 71
     3
 72
    14
 73
    10
 74
     0
 42
0.000000001
 43
0.00000001
 40
0.0
 40
0.0
 40
0.0
 40
0.0
 40
0.2500000000000001
 40
0.2500000000000001
 40
0.3749999999999998
 40
0.3749999999999998
 40
0.4999999999999999
 40
0.4999999999999999
 40
1.0
 40
1.0
 40
1.0
 40
1.0
 10
139.3484610018236
 20
364.7800295302653
 30
0.0
 10
138.8851916835508
 20
364.7800295302654
 30
0.0
 10
138.4734593679812
 20
364.8121652345978
 30
0.0
 10
137.9276987099471
 20
364.9165232827702
 30
0.0
 10
137.7578026990016
 20
364.9606734051736
 30
0.0
 10
137.4418193318808
 20
365.0691756219763
 30
0.0
 10
137.2960349774235
 20
365.1335393589417
 30
0.0
 10
136.6347481733172
 20
365.5039528046045
 30
0.0
 10
136.3112455140113
 20
365.9571206523231
 30
0.0
 10
136.1817360947577
 20
366.5892509066882
 30
0.0
  0
SPLINE
  5
13A
330
1F
100
AcDbEntity
  8
0
  6
Continuous
 62
     7
370
    25
100
AcDbSpline
210
0.0
220
0.0
230
1.0
 70
     8
 71
     3
 72
     8
 73
     4
 74
     0
 42
0.000000001
 43
0.00000001
 40
0.0
 40
0.0
 40
0.0
 40
0.0
 40
1.0
 40
1.0
 40
1.0
 40
1.0
 10
136.1817360947577
 20
366.5892509066881
 30
0.0
 10
136.1436998173845
 20
366.7749044431611
 30
0.0
 10
136.1223342408962
 20
366.9607827493282
 30
0.0
 10
136.1174630890403
 20
367.1468834484446
 30
0.0
  0
SPLINE
  5
13B
330
1F
100
AcDbEntity
  8
0
  6
Continuous
 62
     7
370
    25
100
AcDbSpline
210
0.0
220
0.0
230
1.0
 70
    24
 71
     3
 72
     8
 73
     4
 74
     0
 42
0.000000001
 43
0.00000001
 40
0.0
 40
0.0
 40
0.0
 40
0.0
 40
1.0
 40
1.0
 40
1.0
 40
1.0
 10
141.8076786896086
 20
364.7800295302653
 30
0.0
 10
140.8791053792053
 20
364.7800295302653
 30
0.0
 10
140.0600246499811
 20
364.7800295302653
 30
0.0
 10
139.3484610018236
 20
364.7800295302653
 30
0.0
  0
ARC
  5
13C
330
1F
100
AcDbEntity
  8
0
  6
Continuous
 62
     7
370
    25
100
AcDbCircle
 10
182.1162381367
 20
360.4007193211
 30
0.0
 40
1.199989460364778
100
AcDbArc
 50
0.2138340205
 51
80.8761051803
  0
ARC
  5
13D
330
1F
100
AcDbEntity
  8
0
  6
Continuous
 62
     7
370
    25
100
AcDbCircle
 10
136.5096682742
 20
360.4007171761
 30
0.0
 40
1.199991975813263
100
AcDbArc
 50
99.123996788
 51
179.7860640112
  0
SPLINE
  5
13E
330
1F
100
AcDbEntity
  8
0
  6
Continuous
 62
     8
370
    18
100
AcDbSpline
210
0.0
220
0.0
230
1.0
 70
     8
 71
     3
 72
    54
 73
    50
 74
     0
 42
0.000000001
 43
0.00000001
 40
0.0
 40
0.0
 40
0.0
 40
0.0
 40
0.0312499999999999
 40
0.0312499999999999
 40
0.0624999999999998
 40
0.0624999999999998
 40
0.1249999999999996
 40
0.1249999999999996
 40
0.2499999999999993
 40
0.2499999999999993
 40
0.4999999999999984
 40
0.4999999999999984
 40
0.6249999999999981
 40
0.6249999999999981
 40
0.6874999999999978
 40
0.6874999999999978
 40
0.7499999999999973
 40
0.7499999999999973
 40
0.812499999999997
 40
0.812499999999997
 40
0.8437499999999968
 40
0.8437499999999968
 40
0.8593749999999968
 40
0.8593749999999968
 40
0.8749999999999969
 40
0.8749999999999969
 40
0.8828124999999971
 40
0.8828124999999971
 40
0.8906249999999973
 40
0.8906249999999973
 40
0.9062499999999977
 40
0.9062499999999977
 40
0.9140624999999979
 40
0.9140624999999979
 40
0.9218749999999981
 40
0.9218749999999981
 40
0.9374999999999984
 40
0.9374999999999984
 40
0.9531249999999989
 40
0.9531249999999989
 40
0.9687499999999993
 40
0.9687499999999993
 40
0.9843749999999997
 40
0.9843749999999997
 40
0.9921874999999999
 40
0.9921874999999999
 40
0.99609375
 40
0.99609375
 40
1.0
 40
1.0
 40
1.0
 40
1.0
 10
183.312196673423
 20
360.4058108333153
 30
0.0
 10
183.2922199220336
 20
360.4059274761655
 30
0.0
 10
183.271484906289
 20
360.40266390216
 30
0.0
 10
183.2285496309017
 20
360.3978332489019
 30
0.0
 10
183.2063641489239
 20
360.3958479927548
 30
0.0
 10
183.1377692793739
 20
360.3890324571641
 30
0.0
 10
183.0892211373492
 20
360.3834195165583
 30
0.0
 10
182.9346876275287
 20
360.3631611288835
 30
0.0
 10
182.8202595018907
 20
360.3459305567213
 30
0.0
 10
182.4510290476318
 20
360.2925581897575
 30
0.0
 10
182.170399175112
 20
360.2543352806624
 30
0.0
 10
181.7034301920869
 20
360.1782075835387
 30
0.0
 10
181.5445853717634
 20
360.1501892166211
 30
0.0
 10
181.2717888733186
 20
360.1030930034586
 30
0.0
 10
181.173383366495
 20
360.0865392899622
 30
0.0
 10
180.9448296897693
 20
360.052177382253
 30
0.0
 10
180.8149816428073
 20
360.0351237424703
 30
0.0
 10
180.5109723546371
 20
359.9935698942831
 30
0.0
 10
180.3397365656909
 20
359.9690233924857
 30
0.0
 10
180.0255559370828
 20
359.926871935792
 30
0.0
 10
179.9113714984433
 20
359.9121017360374
 30
0.0
 10
179.7143078367543
 20
359.8885612948198
 30
0.0
 10
179.6438058562699
 20
359.8804630065359
 30
0.0
 10
179.4845942479728
 20
359.8640906498679
 30
0.0
 10
179.3958484319377
 20
359.8560442307157
 30
0.0
 10
179.2321659381947
 20
359.8441945827998
 30
0.0
 10
179.1720843281889
 20
359.8403414494229
 30
0.0
 10
179.0338292198087
 20
359.8331584775977
 30
0.0
 10
178.9551526894414
 20
359.8298864939302
 30
0.0
 10
178.6879238544895
 20
359.8209194742172
 30
0.0
 10
178.4686930243634
 20
359.8159080705647
 30
0.0
 10
178.0669492606914
 20
359.809789682341
 30
0.0
 10
177.9208537456802
 20
359.8080022296606
 30
0.0
 10
177.6010305137936
 20
359.8051267391197
 30
0.0
 10
177.4286072400391
 20
359.8040406899883
 30
0.0
 10
176.8827310240319
 20
359.8014126220531
 30
0.0
 10
176.4785267499581
 20
359.8005053109946
 30
0.0
 10
175.5956497877458
 20
359.8002880902895
 30
0.0
 10
175.1118601766593
 20
359.8011403182963
 30
0.0
 10
174.1122627853792
 20
359.8045990323733
 30
0.0
 10
173.5932007520528
 20
359.8071807339189
 30
0.0
 10
172.5242395747671
 20
359.813956006666
 30
0.0
 10
171.9720592452653
 20
359.8182390383777
 30
0.0
 10
171.1349934119999
 20
359.8254285181879
 30
0.0
 10
170.8544539548723
 20
359.8279451292578
 30
0.0
 10
170.4317746082508
 20
359.8318382180412
 30
0.0
 10
170.2905696202837
 20
359.8331557468259
 30
0.0
 10
170.0076018286404
 20
359.8358200652177
 30
0.0
 10
169.8639922830889
 20
359.8371845092536
 30
0.0
 10
169.7238306657264
 20
359.8385227639927
 30
0.0
  0
SPLINE
  5
13F
330
1F
100
AcDbEntity
  8
0
  6
Continuous
 62
     8
370
    18
100
AcDbSpline
210
0.0
220
0.0
230
1.0
 70
     8
 71
     3
 72
    10
 73
     6
 74
     0
 42
0.000000001
 43
0.00000001
 40
0.0
 40
0.0
 40
0.0
 40
0.0
 40
0.5
 40
0.5
 40
1.0
 40
1.0
 40
1.0
 40
1.0
 10
169.5660725233141
 20
361.0290616938919
 30
0.0
 10
169.6116820966205
 20
360.992995170139
 30
0.0
 10
169.6539071217368
 20
360.8491259399239
 30
0.0
 10
169.7111278519733
 20
360.4154933613271
 30
0.0
 10
169.7258695933785
 20
360.1276545778566
 30
0.0
 10
169.723171058994
 20
359.8385288929722
 30
0.0
  0
SPLINE
  5
140
330
1F
100
AcDbEntity
  8
0
  6
Continuous
 62
     8
370
    18
100
AcDbSpline
210
0.0
220
0.0
230
1.0
 70
     8
 71
     3
 72
    46
 73
    42
 74
     0
 42
0.000000001
 43
0.00000001
 40
0.0
 40
0.0
 40
0.0
 40
0.0
 40
0.0156249999999998
 40
0.0156249999999998
 40
0.0312499999999997
 40
0.0312499999999997
 40
0.0468749999999995
 40
0.0468749999999995
 40
0.0546874999999994
 40
0.0546874999999994
 40
0.0624999999999994
 40
0.0624999999999994
 40
0.0781249999999991
 40
0.0781249999999991
 40
0.0937499999999988
 40
0.0937499999999988
 40
0.1015624999999988
 40
0.1015624999999988
 40
0.1093749999999988
 40
0.1093749999999988
 40
0.1249999999999989
 40
0.1249999999999989
 40
0.156249999999999
 40
0.156249999999999
 40
0.1874999999999991
 40
0.1874999999999991
 40
0.2499999999999993
 40
0.2499999999999993
 40
0.3749999999999994
 40
0.3749999999999994
 40
0.4999999999999994
 40
0.4999999999999994
 40
0.7499999999999998
 40
0.7499999999999998
 40
0.8749999999999999
 40
0.8749999999999999
 40
0.9374999999999999
 40
0.9374999999999999
 40
0.9687499999999999
 40
0.9687499999999999
 40
1.0
 40
1.0
 40
1.0
 40
1.0
 10
169.5667317198539
 20
361.0290559437688
 30
0.0
 10
170.1264772139288
 20
361.0241724757211
 30
0.0
 10
170.6821006845697
 20
361.0195494470251
 30
0.0
 10
171.7803185337877
 20
361.0119555919804
 30
0.0
 10
172.3223698303628
 20
361.009002150618
 30
0.0
 10
173.3681683801954
 20
361.0056130404909
 30
0.0
 10
173.874305201898
 20
361.0050766520017
 30
0.0
 10
174.6002662386947
 20
361.0062607254346
 30
0.0
 10
174.8378201176504
 20
361.0070011066914
 30
0.0
 10
175.2900352983773
 20
361.0091081915192
 30
0.0
 10
175.5058896625764
 20
361.0104279884274
 30
0.0
 10
176.1222266926539
 20
361.0151257841728
 30
0.0
 10
176.4925903232939
 20
361.0191555637437
 30
0.0
 10
177.1341738803774
 20
361.0299834496069
 30
0.0
 10
177.3939612697342
 20
361.0364685668749
 30
0.0
 10
177.7136115710092
 20
361.0469603820218
 30
0.0
 10
177.8082935974861
 20
361.0506059275299
 30
0.0
 10
177.9760354299106
 20
361.0583031510144
 30
0.0
 10
178.0485807796473
 20
361.0623941349065
 30
0.0
 10
178.2405796777722
 20
361.0747243550117
 30
0.0
 10
178.3390637826747
 20
361.0828018583653
 30
0.0
 10
178.6038525097842
 20
361.1067530786385
 30
0.0
 10
178.7372407120842
 20
361.1224179579763
 30
0.0
 10
178.9846090630623
 20
361.1516724450563
 30
0.0
 10
179.095415704027
 20
361.1656633848339
 30
0.0
 10
179.3979830794412
 20
361.2056408769438
 30
0.0
 10
179.5661860030751
 20
361.2287796316866
 30
0.0
 10
180.0028334860249
 20
361.2894330361648
 30
0.0
 10
180.2046768756138
 20
361.322837563511
 30
0.0
 10
180.5594659906218
 20
361.3863038545203
 30
0.0
 10
180.7176600791379
 20
361.4146073997501
 30
0.0
 10
181.1803866619606
 20
361.4907231036008
 30
0.0
 10
181.4570161452618
 20
361.5291734373025
 30
0.0
 10
181.8201230866606
 20
361.5654690288439
 30
0.0
 10
181.9324406947499
 20
361.574034379123
 30
0.0
 10
182.0841349776482
 20
361.5817636940948
 30
0.0
 10
182.1317734382593
 20
361.583487344372
 30
0.0
 10
182.1990700616935
 20
361.5846957459207
 30
0.0
 10
182.2208408243347
 20
361.5848329754613
 30
0.0
 10
182.2628390574253
 20
361.586068438114
 30
0.0
 10
182.2829942616034
 20
361.5875469056705
 30
0.0
 10
182.3026897345795
 20
361.5857748026994
 30
0.0
  0
SPLINE
  5
141
330
1F
100
AcDbEntity
  8
0
  6
Continuous
 62
     8
370
    18
100
AcDbSpline
210
0.0
220
0.0
230
1.0
 70
     8
 71
     3
 72
    10
 73
     6
 74
     0
 42
0.000000001
 43
0.00000001
 40
0.0
 40
0.0
 40
0.0
 40
0.0
 40
0.5
 40
0.5
 40
1.0
 40
1.0
 40
1.0
 40
1.0
 10
182.3027104111071
 20
361.585772668394
 30
0.0
 10
182.58049672514
 20
361.5410157202535
 30
0.0
 10
182.8408122258517
 20
361.394864482456
 30
0.0
 10
183.206550667511
 20
360.96711854262
 30
0.0
 10
183.310514926833
 20
360.6872298278987
 30
0.0
 10
183.3116213484587
 20
360.4058104113494
 30
0.0
  0
SPLINE
  5
142
330
1F
100
AcDbEntity
  8
0
  6
Continuous
 62
     8
370
    18
100
AcDbSpline
210
0.0
220
0.0
230
1.0
 70
     8
 71
     3
 72
    55
 73
    51
 74
     0
 42
0.000000001
 43
0.00000001
 40
0.0
 40
0.0
 40
0.0
 40
0.0
 40
0.0156250000000004
 40
0.0156250000000004
 40
0.0312500000000009
 40
0.0312500000000009
 40
0.0468750000000013
 40
0.0468750000000013
 40
0.0625000000000017
 40
0.0625000000000017
 40
0.0781250000000021
 40
0.0781250000000021
 40
0.0859375000000022
 40
0.0859375000000022
 40
0.0937500000000024
 40
0.0937500000000024
 40
0.1093750000000027
 40
0.1093750000000027
 40
0.1171875000000027
 40
0.1171875000000027
 40
0.1250000000000027
 40
0.1250000000000027
 40
0.1406250000000027
 40
0.1406250000000027
 40
0.1562500000000027
 40
0.1562500000000027
 40
0.1875000000000027
 40
0.1875000000000027
 40
0.2500000000000026
 40
0.2500000000000026
 40
0.3125000000000026
 40
0.3125000000000026
 40
0.3750000000000026
 40
0.3750000000000026
 40
0.5000000000000021
 40
0.5000000000000021
 40
0.7500000000000011
 40
0.7500000000000011
 40
0.8750000000000006
 40
0.8750000000000006
 40
0.9375000000000002
 40
0.9375000000000002
 40
0.9687500000000001
 40
0.9687500000000001
 40
0.984375
 40
0.984375
 40
0.9921875
 40
0.99609375
 40
0.99609375
 40
1.0
 40
1.0
 40
1.0
 40
1.0
 10
148.902073237723
 20
359.8385227639926
 30
0.0
 10
148.3348463885631
 20
359.8331069159409
 30
0.0
 10
147.7699317614581
 20
359.8278250053204
 30
0.0
 10
146.6538440076313
 20
359.8182390331348
 30
0.0
 10
146.1016636959069
 20
359.8139560020998
 30
0.0
 10
145.0327025560885
 20
359.8071807307016
 30
0.0
 10
144.5136405422607
 20
359.8045990297914
 30
0.0
 10
143.514043192485
 20
359.8011403170369
 30
0.0
 10
143.030253609768
 20
359.8002880897904
 30
0.0
 10
142.1473767127477
 20
359.8005053117263
 30
0.0
 10
141.7431724703947
 20
359.8014126232527
 30
0.0
 10
141.1972963035015
 20
359.8040406921054
 30
0.0
 10
141.0248730442706
 20
359.805126741576
 30
0.0
 10
140.7050498540261
 20
359.8080022330402
 30
0.0
 10
140.5589543581288
 20
359.8097896860872
 30
0.0
 10
140.1572106483313
 20
359.8159080752559
 30
0.0
 10
139.9379798497274
 20
359.8209194793502
 30
0.0
 10
139.6707510577846
 20
359.8298864999485
 30
0.0
 10
139.5920745416819
 20
359.8331584840529
 30
0.0
 10
139.4538194577883
 20
359.8403414564463
 30
0.0
 10
139.3937378574623
 20
359.8441945899896
 30
0.0
 10
139.2300553862201
 20
359.8560442381176
 30
0.0
 10
139.1413095787547
 20
359.864090657166
 30
0.0
 10
138.9820979836693
 20
359.8804630136579
 30
0.0
 10
138.9115960077797
 20
359.8885613016619
 30
0.0
 10
138.7145323568118
 20
359.9121017421853
 30
0.0
 10
138.6003479220822
 20
359.9268719415272
 30
0.0
 10
138.286167306011
 20
359.9690233971569
 30
0.0
 10
138.1149315213095
 20
359.9935698980765
 30
0.0
 10
137.8109222415765
 20
360.0351237450417
 30
0.0
 10
137.681074197887
 20
360.0521773844956
 30
0.0
 10
137.45252052649
 20
360.0865392916668
 30
0.0
 10
137.3541150216195
 20
360.1030930049046
 30
0.0
 10
137.0813185278151
 20
360.1501892173357
 30
0.0
 10
136.9224737093755
 20
360.1782075838625
 30
0.0
 10
136.4555047323113
 20
360.2543352800145
 30
0.0
 10
136.1748748629971
 20
360.292558188745
 30
0.0
 10
135.8056444121087
 20
360.3459305551833
 30
0.0
 10
135.6912162873208
 20
360.363161127191
 30
0.0
 10
135.5366827781538
 20
360.383419515077
 30
0.0
 10
135.4881346362467
 20
360.3890324558238
 30
0.0
 10
135.419539766828
 20
360.3958479915977
 30
0.0
 10
135.397354284883
 20
360.3978332477084
 30
0.0
 10
135.365152828337
 20
360.4014562373609
 30
0.0
 10
135.3546007842488
 20
360.4028536412936
 30
0.0
 10
135.3390543663543
 20
360.4045165333778
 30
0.0
 10
135.3313514310721
 20
360.4052315973158
 30
0.0
 10
135.3237543835757
 20
360.4056185072575
 30
0.0
 10
135.318713190616
 20
360.4057864446103
 30
0.0
 10
135.3162336326873
 20
360.405825584807
 30
0.0
 10
135.3137072300264
 20
360.4058108333152
 30
0.0
  0
SPLINE
  5
143
330
1F
100
AcDbEntity
  8
0
  6
Continuous
 62
     8
370
    18
100
AcDbSpline
210
0.0
220
0.0
230
1.0
 70
     8
 71
     3
 72
    10
 73
     6
 74
     0
 42
0.000000001
 43
0.00000001
 40
0.0
 40
0.0
 40
0.0
 40
0.0
 40
0.5
 40
0.5
 40
1.0
 40
1.0
 40
1.0
 40
1.0
 10
136.3231119829842
 20
361.5857655781713
 30
0.0
 10
136.0452245832295
 20
361.5411264337201
 30
0.0
 10
135.784770957788
 20
361.3950272468246
 30
0.0
 10
135.418810378083
 20
360.9672638563415
 30
0.0
 10
135.3147646694096
 20
360.6873075416163
 30
0.0
 10
135.3136392731156
 20
360.4058104363253
 30
0.0
  0
SPLINE
  5
144
330
1F
100
AcDbEntity
  8
0
  6
Continuous
 62
     8
370
    18
100
AcDbSpline
210
0.0
220
0.0
230
1.0
 70
     8
 71
     3
 72
    46
 73
    42
 74
     0
 42
0.000000001
 43
0.00000001
 40
0.0
 40
0.0
 40
0.0
 40
0.0
 40
0.0312500000000001
 40
0.0312500000000001
 40
0.0625000000000001
 40
0.0625000000000001
 40
0.1250000000000002
 40
0.1250000000000002
 40
0.2500000000000004
 40
0.2500000000000004
 40
0.5000000000000008
 40
0.5000000000000008
 40
0.6250000000000008
 40
0.6250000000000008
 40
0.7500000000000009
 40
0.7500000000000009
 40
0.8125000000000009
 40
0.8125000000000009
 40
0.843750000000001
 40
0.843750000000001
 40
0.875000000000001
 40
0.875000000000001
 40
0.8906250000000011
 40
0.8906250000000011
 40
0.8984375000000011
 40
0.8984375000000011
 40
0.9062500000000011
 40
0.9062500000000011
 40
0.9218750000000011
 40
0.9218750000000011
 40
0.9375000000000012
 40
0.9375000000000012
 40
0.9453125000000011
 40
0.9453125000000011
 40
0.953125000000001
 40
0.953125000000001
 40
0.9687500000000007
 40
0.9687500000000007
 40
0.9843750000000004
 40
0.9843750000000004
 40
1.0
 40
1.0
 40
1.0
 40
1.0
 10
136.3232141688698
 20
361.5857748026992
 30
0.0
 10
136.3429096418459
 20
361.5875469056703
 30
0.0
 10
136.3630648460247
 20
361.5860684381139
 30
0.0
 10
136.4050630791153
 20
361.584832975461
 30
0.0
 10
136.4268338417565
 20
361.5846957459204
 30
0.0
 10
136.4941304651908
 20
361.5834873443718
 30
0.0
 10
136.5417689258018
 20
361.5817636940946
 30
0.0
 10
136.6934632087001
 20
361.5740343791228
 30
0.0
 10
136.8057808167895
 20
361.5654690288439
 30
0.0
 10
137.1688877581882
 20
361.5291734373019
 30
0.0
 10
137.4455172414896
 20
361.4907231036004
 30
0.0
 10
137.9082438243121
 20
361.4146073997499
 30
0.0
 10
138.066437912828
 20
361.3863038545201
 30
0.0
 10
138.4212270278361
 20
361.3228375635107
 30
0.0
 10
138.6230704174251
 20
361.2894330361647
 30
0.0
 10
139.0597179003748
 20
361.2287796316865
 30
0.0
 10
139.2279208240088
 20
361.2056408769434
 30
0.0
 10
139.530488199423
 20
361.1656633848337
 30
0.0
 10
139.6412948403876
 20
361.1516724450564
 30
0.0
 10
139.8886631913658
 20
361.1224179579758
 30
0.0
 10
140.0220513936657
 20
361.1067530786383
 30
0.0
 10
140.2868401207753
 20
361.082801858365
 30
0.0
 10
140.3853242256778
 20
361.0747243550114
 30
0.0
 10
140.5773231238031
 20
361.0623941349063
 30
0.0
 10
140.6498684735397
 20
361.0583031510143
 30
0.0
 10
140.8176103059643
 20
361.0506059275298
 30
0.0
 10
140.9122923324414
 20
361.0469603820216
 30
0.0
 10
141.2319426337167
 20
361.0364685668749
 30
0.0
 10
141.4917300230735
 20
361.0299834496068
 30
0.0
 10
142.1333135801572
 20
361.0191555637434
 30
0.0
 10
142.503677210797
 20
361.0151257841727
 30
0.0
 10
143.1200142408747
 20
361.0104279884272
 30
0.0
 10
143.3358686050736
 20
361.009108191519
 30
0.0
 10
143.7880837858006
 20
361.0070011066913
 30
0.0
 10
144.0256376647562
 20
361.0062607254345
 30
0.0
 10
144.751598701553
 20
361.0050766520017
 30
0.0
 10
145.2577355232551
 20
361.0056130404907
 30
0.0
 10
146.303534073088
 20
361.0090021506179
 30
0.0
 10
146.8455853696625
 20
361.0119555919803
 30
0.0
 10
147.9438032188806
 20
361.019549447025
 30
0.0
 10
148.4994266895204
 20
361.0241724757209
 30
0.0
 10
149.0591721835953
 20
361.0290559437688
 30
0.0
  0
SPLINE
  5
145
330
1F
100
AcDbEntity
  8
0
  6
Continuous
 62
     8
370
    18
100
AcDbSpline
210
0.0
220
0.0
230
1.0
 70
     8
 71
     3
 72
    14
 73
    10
 74
     0
 42
0.000000001
 43
0.00000001
 40
0.0
 40
0.0
 40
0.0
 40
0.0
 40
0.25
 40
0.25
 40
0.5
 40
0.5
 40
0.75
 40
0.75
 40
1.0
 40
1.0
 40
1.0
 40
1.0
 10
149.0591764563
 20
361.029055981797
 30
0.0
 10
149.0383054709314
 20
361.012550762163
 30
0.0
 10
149.0167017727937
 20
360.9726441202783
 30
0.0
 10
148.9763427273944
 20
360.8392927537998
 30
0.0
 10
148.9576901219324
 20
360.7456876105198
 30
0.0
 10
148.9277643348874
 20
360.5189104440908
 30
0.0
 10
148.9165623658006
 20
360.3862780525604
 30
0.0
 10
148.9031209264589
 20
360.11192950306
 30
0.0
 10
148.9008376660552
 20
359.9708204928752
 30
0.0
 10
148.902072553086
 20
359.838522723973
 30
0.0
  0
LINE
  5
146
330
1F
100
AcDbEntity
  8
0
  6
Continuous
 62
     8
370
    18
100
AcDbLine
 10
170.1660702149
 20
344.6773872389
 30
0.0
 11
169.8216932038
 21
344.7342351689
 31
0.0
  0
SPLINE
  5
147
330
1F
100
AcDbEntity
  8
0
  6
Continuous
 62
     8
370
    18
100
AcDbSpline
210
0.0
220
0.0
230
1.0
 70
     8
 71
     3
 72
    26
 73
    22
 74
     0
 42
0.000000001
 43
0.00000001
 40
0.0
 40
0.0
 40
0.0
 40
0.0
 40
0.0790201236689346
 40
0.1550536476275965
 40
0.2281185171405126
 40
0.2982299584969404
 40
0.3654007089516375
 40
0.4296412403976629
 40
0.4909599760946967
 40
0.5493634998661406
 40
0.604856757263962
 40
0.657443248281232
 40
0.707125211268366
 40
0.7539037977804248
 40
0.797779238150268
 40
0.8387509976475654
 40
0.8768179231497937
 40
0.9119783803241808
 40
0.9442303814100587
 40
0.9735717038209287
 40
1.0
 40
1.0
 40
1.0
 40
1.0
 10
159.3129519517247
 20
359.868286031404
 30
0.0
 10
159.0375576850309
 20
359.8678916003668
 30
0.0
 10
158.4971777969214
 20
359.867117645984
 30
0.0
 10
157.7022837282865
 20
359.8659444708562
 30
0.0
 10
156.9386601729697
 20
359.8647753009998
 30
0.0
 10
156.2062196655151
 20
359.8635973007766
 30
0.0
 10
155.5048781793015
 20
359.8623999242847
 30
0.0
 10
154.8345551723304
 20
359.8611726626474
 30
0.0
 10
154.1951735822355
 20
359.8599056085328
 30
0.0
 10
153.5866598328804
 20
359.8585893124356
 30
0.0
 10
153.0089438378753
 20
359.8572148159984
 30
0.0
 10
152.4619590013458
 20
359.8557736484109
 30
0.0
 10
151.9456422276616
 20
359.8542578121123
 30
0.0
 10
151.4599338969748
 20
359.8526598471631
 30
0.0
 10
151.0047779548715
 20
359.850972627577
 30
0.0
 10
150.5801216123429
 20
359.8491900821067
 30
0.0
 10
150.1859163562843
 20
359.8473048187363
 30
0.0
 10
149.822114573663
 20
359.8453161354621
 30
0.0
 10
149.4886807161889
 20
359.8432036393405
 30
0.0
 10
149.1855547337598
 20
359.8410138258671
 30
0.0
 10
148.9936702520226
 20
359.8393021426647
 30
0.0
 10
148.9027393824248
 20
359.8384910044181
 30
0.0
  0
SPLINE
  5
148
330
1F
100
AcDbEntity
  8
0
  6
Continuous
 62
     8
370
    18
100
AcDbSpline
210
0.0
220
0.0
230
1.0
 70
     8
 71
     3
 72
    17
 73
    13
 74
     0
 42
0.000000001
 43
0.00000001
 40
0.0
 40
0.0
 40
0.0
 40
0.0
 40
0.1143153106287947
 40
0.2242103830728549
 40
0.3297077277539653
 40
0.4308327794025325
 40
0.52761440550342
 40
0.6200855249396167
 40
0.7852341207923836
 40
0.9382441844976168
 40
0.9694200937710796
 40
1.0
 40
1.0
 40
1.0
 40
1.0
 10
148.9027393689298
 20
359.8384918506004
 30
0.0
 10
148.9075873042092
 20
359.5897413716758
 30
0.0
 10
148.9170957193124
 20
359.1018588661527
 30
0.0
 10
148.9431628722373
 20
358.3847360663265
 30
0.0
 10
148.9776936187814
 20
357.6967342065421
 30
0.0
 10
149.0214674296201
 20
357.037865420899
 30
0.0
 10
149.0742615653958
 20
356.4081159748507
 30
0.0
 10
149.1534117317748
 20
355.6409339925227
 30
0.0
 10
149.2709409941346
 20
354.7549290948974
 30
0.0
 10
149.4048114170038
 20
354.0064601811392
 30
0.0
 10
149.5015390446756
 20
353.5493920776811
 30
0.0
 10
149.531143045211
 20
353.4183638024452
 30
0.0
 10
149.5458021919328
 20
353.3534819392967
 30
0.0
  0
SPLINE
  5
149
330
1F
100
AcDbEntity
  8
0
  6
Continuous
 62
     8
370
    18
100
AcDbSpline
210
0.0
220
0.0
230
1.0
 70
     8
 71
     3
 72
    10
 73
     6
 74
     0
 42
0.000000001
 43
0.00000001
 40
0.0
 40
0.0
 40
0.0
 40
0.0
 40
0.5000000000000001
 40
0.5000000000000001
 40
1.0
 40
1.0
 40
1.0
 40
1.0
 10
169.7231670580717
 20
359.8384909805507
 30
0.0
 10
168.0029406652642
 20
359.8546741205469
 30
0.0
 10
166.272123818922
 20
359.8599459124388
 30
0.0
 10
162.7980248316161
 20
359.8661553535989
 30
0.0
 10
161.0553635015441
 20
359.8673787588198
 30
0.0
 10
159.3129519517247
 20
359.8682856993385
 30
0.0
  0
SPLINE
  5
14A
330
1F
100
AcDbEntity
  8
0
  6
Continuous
 62
     8
370
    18
100
AcDbSpline
210
0.0
220
0.0
230
1.0
 70
     8
 71
     3
 72
    12
 73
     8
 74
     0
 42
0.000000001
 43
0.00000001
 40
0.0509778985003703
 40
0.0509778985003703
 40
0.0509778985003703
 40
0.0509778985003703
 40
0.0624735023662522
 40
0.1327959389789071
 40
0.2499999999999986
 40
0.2968749999999987
 40
0.3715766863527875
 40
0.3715766863527875
 40
0.3715766863527875
 40
0.3715766863527875
 10
169.7238303566519
 20
359.8385020029513
 30
0.0
 10
169.7226681731728
 20
359.7604371004587
 30
0.0
 10
169.7133478231534
 20
359.2049348507824
 30
0.0
 10
169.6714669415885
 20
357.8559011179229
 30
0.0
 10
169.5529665765187
 20
356.2723384010946
 30
0.0
 10
169.3444608353505
 20
354.6628513321259
 30
0.0
 10
169.1951994653904
 20
353.8488462323658
 30
0.0
 10
169.0812076568184
 20
353.353218662152
 30
0.0
  0
SPLINE
  5
14B
330
1F
100
AcDbEntity
  8
0
  6
Continuous
 62
     8
370
    18
100
AcDbSpline
210
0.0
220
0.0
230
1.0
 70
     8
 71
     3
 72
    10
 73
     6
 74
     0
 42
0.000000001
 43
0.00000001
 40
0.0
 40
0.0
 40
0.0
 40
0.0
 40
0.5
 40
0.5
 40
1.0
 40
1.0
 40
1.0
 40
1.0
 10
159.3135809619312
 20
361.0544163649489
 30
0.0
 10
161.0306749337323
 20
361.0531784668597
 30
0.0
 10
162.7473813405747
 20
361.0519232539236
 30
0.0
 10
166.1693923503211
 20
361.047213159574
 30
0.0
 10
167.873115897852
 20
361.0438303513218
 30
0.0
 10
169.566068829417
 20
361.0290646148643
 30
0.0
  0
SPLINE
  5
14C
330
1F
100
AcDbEntity
  8
0
  6
Continuous
 62
     8
370
    18
100
AcDbSpline
210
0.0
220
0.0
230
1.0
 70
     8
 71
     3
 72
    23
 73
    19
 74
     0
 42
0.000000001
 43
0.00000001
 40
0.0
 40
0.0
 40
0.0
 40
0.0
 40
0.0765239764182266
 40
0.1506534693801117
 40
0.2223957920224673
 40
0.2917899309432913
 40
0.3589004564693135
 40
0.4238186148028856
 40
0.4866825844373114
 40
0.5476736684354866
 40
0.6070101690981232
 40
0.6649420434269856
 40
0.7217463473905832
 40
0.7777233652676819
 40
0.8331930557685459
 40
0.8884924198513995
 40
0.943973249844063
 40
1.0
 40
1.0
 40
1.0
 40
1.0
 10
149.0598375749071
 20
361.0290646366765
 30
0.0
 10
149.3190735698845
 20
361.0311864631299
 30
0.0
 10
149.829433902156
 20
361.0353637227495
 30
0.0
 10
150.5848241084549
 20
361.0399509334035
 30
0.0
 10
151.3171872182867
 20
361.0435066575223
 30
0.0
 10
152.0268104076455
 20
361.0461418035511
 30
0.0
 10
152.7141008851838
 20
361.0480885779223
 30
0.0
 10
153.3798702839576
 20
361.0495006568091
 30
0.0
 10
154.0253690881332
 20
361.0505164638724
 30
0.0
 10
154.6523172867736
 20
361.0512480432118
 30
0.0
 10
155.2628411163502
 20
361.0517871039953
 30
0.0
 10
155.8594120405231
 20
361.0522065299819
 30
0.0
 10
156.4447945205744
 20
361.0525628447147
 30
0.0
 10
157.0220012950829
 20
361.0528970878566
 30
0.0
 10
157.5942566115145
 20
361.0532386703561
 30
0.0
 10
158.1649651316127
 20
361.0536049936304
 30
0.0
 10
158.7376876700784
 20
361.0540019330591
 30
0.0
 10
159.1205723473603
 20
361.054278072327
 30
0.0
 10
159.3129519517247
 20
361.0544168179238
 30
0.0
  0
SPLINE
  5
14D
330
1F
100
AcDbEntity
  8
0
  6
Continuous
 62
     8
370
    18
100
AcDbSpline
210
0.0
220
0.0
230
1.0
 70
     8
 71
     3
 72
    11
 73
     7
 74
     0
 42
0.000000001
 43
0.00000001
 40
-0.00000006
 40
-0.00000006
 40
-0.00000006
 40
-0.00000006
 40
0.0
 40
0.0
 40
0.0
 40
0.0004426197136962
 40
0.0004426197136962
 40
0.0004426197136962
 40
0.0004426197136962
 10
136.3193828650649
 20
361.5855270394719
 30
0.0
 10
136.3193828680695
 20
361.5855270324401
 30
0.0
 10
136.3193828710488
 20
361.5855270254031
 30
0.0
 10
136.3193828740793
 20
361.585527018373
 30
0.0
 10
136.3194052306047
 20
361.5854751576894
 30
0.0
 10
136.3208290094343
 20
361.5855805928033
 30
0.0
 10
136.3236624713379
 20
361.5858540053833
 30
0.0
  0
SPLINE
  5
14E
330
1F
100
AcDbEntity
  8
0
  6
Continuous
 62
     8
370
    18
100
AcDbSpline
210
0.0
220
0.0
230
1.0
 70
     8
 71
     3
 72
    11
 73
     7
 74
     0
 42
0.000000001
 43
0.00000001
 40
0.0
 40
0.0
 40
0.0
 40
0.0
 40
0.0004426197136962
 40
0.0004426197136962
 40
0.0004426197136962
 40
0.0004426797136962
 40
0.0004426797136962
 40
0.0004426797136962
 40
0.0004426797136962
 10
182.3022414321115
 20
361.5858540053835
 30
0.0
 10
182.3050748940151
 20
361.5855805928035
 30
0.0
 10
182.3064986728447
 20
361.5854751576896
 30
0.0
 10
182.3065210293701
 20
361.5855270183732
 30
0.0
 10
182.3065210324006
 20
361.5855270254032
 30
0.0
 10
182.3065210353799
 20
361.5855270324403
 30
0.0
 10
182.3065210383845
 20
361.585527039472
 30
0.0
  0
SPLINE
  5
14F
330
1F
100
AcDbEntity
  8
0
  6
Continuous
 62
     8
370
    18
100
AcDbSpline
210
0.0
220
0.0
230
1.0
 70
     8
 71
     3
 72
    11
 73
     7
 74
     0
 42
0.000000001
 43
0.00000001
 40
0.0
 40
0.0
 40
0.0
 40
0.0
 40
0.390619905539807
 40
0.60093057165931
 40
0.8157138218029844
 40
1.0
 40
1.0
 40
1.0
 40
1.0
 10
137.7058826531
 20
396.1215377463944
 30
0.0
 10
137.7142531487368
 20
396.282461859547
 30
0.0
 10
137.7271303387028
 20
396.530027889693
 30
0.0
 10
137.8708244772915
 20
396.8334157977037
 30
0.0
 10
138.0144055019065
 20
397.0384457101177
 30
0.0
 10
138.139782679538
 20
397.1426602575008
 30
0.0
 10
138.1976805771417
 20
397.1907854690202
 30
0.0
  0
SPLINE
  5
150
330
1F
100
AcDbEntity
  8
0
  6
Continuous
 62
     8
370
    18
100
AcDbSpline
210
0.0
220
0.0
230
1.0
 70
     8
 71
     3
 72
    15
 73
    11
 74
     0
 42
0.000000001
 43
0.00000001
 40
0.0
 40
0.0
 40
0.0
 40
0.0
 40
0.1735461208149529
 40
0.3473856412504021
 40
0.5232173789541149
 40
0.6115246966733383
 40
0.6995866520875518
 40
0.7876416535362246
 40
0.8759809771549671
 40
1.0
 40
1.0
 40
1.0
 40
1.0
 10
150.6937533761091
 20
397.6510301842339
 30
0.0
 10
149.8876040463553
 20
397.6495871855058
 30
0.0
 10
148.273942498952
 20
397.6466987484947
 30
0.0
 10
145.8486783054307
 20
397.6392920915179
 30
0.0
 10
143.8787360855804
 20
397.6254527390169
 30
0.0
 10
142.4522241497565
 20
397.6093947700787
 30
0.0
 10
141.4905636770869
 20
397.5951872369253
 30
0.0
 10
140.7001184468141
 20
397.5791059136088
 30
0.0
 10
139.9611537070533
 20
397.5595239233991
 30
0.0
 10
139.6926032673917
 20
397.5448898288284
 30
0.0
 10
139.5357675994463
 20
397.5363433971055
 30
0.0
  0
SPLINE
  5
151
330
1F
100
AcDbEntity
  8
0
  6
Continuous
 62
     8
370
    18
100
AcDbSpline
210
0.0
220
0.0
230
1.0
 70
     8
 71
     3
 72
    15
 73
    11
 74
     0
 42
0.000000001
 43
0.00000001
 40
0.0
 40
0.0
 40
0.0
 40
0.0
 40
0.1264053782729641
 40
0.2141023171243396
 40
0.3015786185690122
 40
0.3892573081585558
 40
0.4772502633163659
 40
0.6522159742571656
 40
0.8260622278088762
 40
1.0
 40
1.0
 40
1.0
 40
1.0
 10
179.1097425068445
 20
397.5354120745309
 30
0.0
 10
178.9504921794463
 20
397.5441635612038
 30
0.0
 10
178.6807578962647
 20
397.5589866138348
 30
0.0
 10
177.9406861535801
 20
397.5787575643086
 30
0.0
 10
177.1546926179099
 20
397.5948444052067
 30
0.0
 10
176.1966443671966
 20
397.6090999510834
 30
0.0
 10
174.7727271474268
 20
397.6252334729313
 30
0.0
 10
172.8007781213443
 20
397.6391960440798
 30
0.0
 10
170.3665899458511
 20
397.6466551687939
 30
0.0
 10
168.7437726805013
 20
397.6495715899372
 30
0.0
 10
167.9321505273409
 20
397.6510301842339
 30
0.0
  0
SPLINE
  5
152
330
1F
100
AcDbEntity
  8
0
  6
Continuous
 62
     8
370
    18
100
AcDbSpline
210
0.0
220
0.0
230
1.0
 70
     8
 71
     3
 72
    11
 73
     7
 74
     0
 42
0.000000001
 43
0.00000001
 40
0.0
 40
0.0
 40
0.0
 40
0.0
 40
0.3906045803376246
 40
0.6009070410190612
 40
0.81568202378206
 40
1.0
 40
1.0
 40
1.0
 40
1.0
 10
180.92002125035
 20
396.1215377463944
 30
0.0
 10
180.9116507397896
 20
396.2824618522738
 30
0.0
 10
180.8987735258862
 20
396.530027890053
 30
0.0
 10
180.7550794542695
 20
396.8334159267015
 30
0.0
 10
180.6114889820777
 20
397.0384585714435
 30
0.0
 10
180.4860972627967
 20
397.1426809685821
 30
0.0
 10
180.4281860734052
 20
397.1908152713426
 30
0.0
  0
LWPOLYLINE
  5
153
330
1F
100
AcDbEntity
  8
0
  6
Continuous
 62
     8
370
    18
100
AcDbPolyline
 90
        9
 70
   128
 43
0.0
 10
159.312945388
 20
396.3142097606
 10
159.3129466332
 20
396.5617851033
 10
159.3129478333
 20
396.8020812287
 10
159.3129489447
 20
397.0263958587
 10
159.3129499273
 20
397.2265929594
 10
159.3129507453
 20
397.3954156651
 10
159.3129513691
 20
397.5267470493
 10
159.3129517762
 20
397.6158261909
 10
159.3129519517
 20
397.6594269886
  0
SPLINE
  5
154
330
1F
100
AcDbEntity
  8
0
  6
Continuous
 62
     8
370
    18
100
AcDbSpline
210
0.0
220
0.0
230
1.0
 70
     8
 71
     3
 72
     8
 73
     4
 74
     0
 42
0.000000001
 43
0.00000001
 40
0.0
 40
0.0
 40
0.0
 40
0.0
 40
1.0
 40
1.0
 40
1.0
 40
1.0
 10
159.3129519517246
 20
397.6594297421274
 30
0.0
 10
162.1841069594569
 20
397.6594436971724
 30
0.0
 10
165.0552488634503
 20
397.6567152534039
 30
0.0
 10
167.9264532031564
 20
397.6510431006121
 30
0.0
  0
SPLINE
  5
155
330
1F
100
AcDbEntity
  8
0
  6
Continuous
 62
     8
370
    18
100
AcDbSpline
210
0.0
220
0.0
230
1.0
 70
     8
 71
     3
 72
     8
 73
     4
 74
     0
 42
0.000000001
 43
0.00000001
 40
0.0
 40
0.0
 40
0.0
 40
0.0
 40
1.0
 40
1.0
 40
1.0
 40
1.0
 10
150.6994507002926
 20
397.6510431006121
 30
0.0
 10
153.5706550926973
 20
397.6567152535183
 30
0.0
 10
156.4417969914221
 20
397.6594436971719
 30
0.0
 10
159.3129519517247
 20
397.6594297421274
 30
0.0
  0
SPLINE
  5
156
330
1F
100
AcDbEntity
  8
0
  6
Continuous
 62
     8
370
    18
100
AcDbSpline
210
0.0
220
0.0
230
1.0
 70
     8
 71
     3
 72
    15
 73
    11
 74
     0
 42
0.000000001
 43
0.00000001
 40
0.0
 40
0.0
 40
0.0
 40
0.0
 40
0.2499999999999999
 40
0.2499999999999999
 40
0.4999999999999999
 40
0.4999999999999999
 40
0.7499999999999998
 40
0.7499999999999998
 40
0.8124999999999998
 40
1.0
 40
1.0
 40
1.0
 40
1.0
 10
142.6977366089961
 20
392.3988459854675
 30
0.0
 10
142.7138022041311
 20
392.4309652119694
 30
0.0
 10
142.9467338145105
 20
392.4615108708565
 30
0.0
 10
143.7628054970795
 20
392.5170137177033
 30
0.0
 10
144.345945569269
 20
392.5419709056628
 30
0.0
 10
145.7789106067792
 20
392.5838554749566
 30
0.0
 10
146.6287355720999
 20
392.6007828562906
 30
0.0
 10
147.8054926065335
 20
392.6153976190062
 30
0.0
 10
148.7697933996369
 20
392.6257805363881
 30
0.0
 10
149.8152344088817
 20
392.6306227156462
 30
0.0
 10
150.6273382846266
 20
392.6306227156462
 30
0.0
  0
SPLINE
  5
157
330
1F
100
AcDbEntity
  8
0
  6
Continuous
 62
     8
370
    18
100
AcDbSpline
210
0.0
220
0.0
230
1.0
 70
     8
 71
     3
 72
    26
 73
    22
 74
     0
 42
0.000000001
 43
0.00000001
 40
0.0
 40
0.0
 40
0.0
 40
0.0
 40
0.0208880409839041
 40
0.0417297757350735
 40
0.0625470702775162
 40
0.0833618676589802
 40
0.1041961188173937
 40
0.1250717133231358
 40
0.1875634251708791
 40
0.2500999909328807
 40
0.3125917027798604
 40
0.3751282685426393
 40
0.5000080743070489
 40
0.6248878800714577
 40
0.6873795919197049
 40
0.7499161576812152
 40
0.8124078695295078
 40
0.8749444352909693
 40
0.9166290310503846
 40
0.9582556329718536
 40
1.0
 40
1.0
 40
1.0
 40
1.0
 10
167.9985656188226
 20
392.6306227156462
 30
0.0
 10
168.0844324244216
 20
392.6305987465898
 30
0.0
 10
168.2559756794112
 20
392.6305508616135
 30
0.0
 10
168.512825943035
 20
392.6301668331943
 30
0.0
 10
168.7688365066846
 20
392.6295540179235
 30
0.0
 10
169.0240046944193
 20
392.6286901923847
 30
0.0
 10
169.2783363544236
 20
392.6275811707625
 30
0.0
 10
169.6999246887645
 20
392.6253270132146
 30
0.0
 10
170.2831322577707
 20
392.621042212054
 30
0.0
 10
171.0107539624655
 20
392.6133899785494
 30
0.0
 10
171.7103670206186
 20
392.6036873860648
 30
0.0
 10
172.5952560456334
 20
392.5881283396636
 30
0.0
 10
173.5998292776963
 20
392.5640078015074
 30
0.0
 10
174.4275916882741
 20
392.5345712545168
 30
0.0
 10
174.9651575249569
 20
392.5085542432663
 30
0.0
 10
175.3025184276572
 20
392.4879509548426
 30
0.0
 10
175.5712667353959
 20
392.4664757039035
 30
0.0
 10
175.7463642627905
 20
392.4467833860899
 30
0.0
 10
175.8515533355599
 20
392.4292648972744
 30
0.0
 10
175.9109362044579
 20
392.4141001622924
 30
0.0
 10
175.9224181915199
 20
392.4039354970859
 30
0.0
 10
175.928167294453
 20
392.3988459854676
 30
0.0
  0
LINE
  5
158
330
1F
100
AcDbEntity
  8
0
  6
Continuous
 62
     8
370
    18
100
AcDbLine
 10
167.9985659341
 20
392.6306203618
 30
0.0
 11
150.6273379693
 21
392.6306203618
 31
0.0
  0
SPLINE
  5
159
330
1F
100
AcDbEntity
  8
0
  6
Continuous
 62
     8
370
    18
100
AcDbSpline
210
0.0
220
0.0
230
1.0
 70
     8
 71
     3
 72
     9
 73
     5
 74
     0
 42
0.000000001
 43
0.00000001
 40
0.0
 40
0.0
 40
0.0
 40
0.0
 40
0.1946216766568829
 40
0.9999999999999999
 40
0.9999999999999999
 40
0.9999999999999999
 40
0.9999999999999999
 10
150.703362762434
 20
397.8554517640717
 30
0.0
 10
150.704689226308
 20
397.8600836681353
 30
0.0
 10
150.7115048282326
 20
397.8838831962412
 30
0.0
 10
150.7048257421547
 20
397.7548356338189
 30
0.0
 10
150.6994465510077
 20
397.6509035243638
 30
0.0
  0
SPLINE
  5
15A
330
1F
100
AcDbEntity
  8
0
  6
Continuous
 62
     8
370
    18
100
AcDbSpline
210
0.0
220
0.0
230
1.0
 70
     8
 71
     3
 72
     9
 73
     5
 74
     0
 42
0.000000001
 43
0.00000001
 40
0.0
 40
0.0
 40
0.0
 40
0.0
 40
0.1641277881344402
 40
1.0
 40
1.0
 40
1.0
 40
1.0
 10
167.9218910778589
 20
397.8568301214822
 30
0.0
 10
167.920834949943
 20
397.8603355096333
 30
0.0
 10
167.9144001595403
 20
397.8816931858135
 30
0.0
 10
167.9209656860153
 20
397.7560591144834
 30
0.0
 10
167.9264536271519
 20
397.6510450853951
 30
0.0
  0
SPLINE
  5
15B
330
1F
100
AcDbEntity
  8
0
  6
Continuous
 62
     8
370
    18
100
AcDbSpline
210
0.0
220
0.0
230
1.0
 70
     8
 71
     3
 72
    25
 73
    21
 74
     0
 42
0.000000001
 43
0.00000001
 40
0.0
 40
0.0
 40
0.0
 40
0.0
 40
0.0278278052389513
 40
0.055624156972669
 40
0.083397755554591
 40
0.1111573227319191
 40
0.1389115934799149
 40
0.1666693077739834
 40
0.1944392023381851
 40
0.2222300024090758
 40
0.250050413553615
 40
0.375023877064436
 40
0.5000238038085686
 40
0.6249915239041719
 40
0.7499868255200524
 40
0.8000264490424542
 40
0.8499966169627687
 40
0.8999482778649549
 40
0.9499324369253148
 40
1.0
 40
1.0
 40
1.0
 40
1.0
 10
141.9307237803039
 20
390.865391509139
 30
0.0
 10
142.0699882167197
 20
390.8684209541821
 30
0.0
 10
142.3483596802751
 20
390.874476420115
 30
0.0
 10
142.77249576368
 20
390.883276338769
 30
0.0
 10
143.2010855154781
 20
390.8918607679547
 30
0.0
 10
143.6346226215483
 20
390.900209940955
 30
0.0
 10
144.0729746468145
 20
390.908329144261
 30
0.0
 10
144.5161774134245
 20
390.9162169620587
 30
0.0
 10
144.9642192095363
 20
390.9238737596453
 30
0.0
 10
145.4171102619738
 20
390.9312994785429
 30
0.0
 10
146.4073527705696
 20
390.946864559884
 30
0.0
 10
147.9698522571109
 20
390.9686149510982
 30
0.0
 10
150.1508014413508
 20
390.9928661133583
 30
0.0
 10
152.389833490639
 20
391.0119144162976
 30
0.0
 10
154.2168805082291
 20
391.0228535422441
 30
0.0
 10
155.5989606969318
 20
391.0287813670229
 30
0.0
 10
156.5239278182027
 20
391.0318629087415
 30
0.0
 10
157.4513807171265
 20
391.0340481311977
 30
0.0
 10
158.3813354959422
 20
391.0354167134374
 30
0.0
 10
159.002240602439
 20
391.0355859849323
 30
0.0
 10
159.3129519517246
 20
391.0356706912328
 30
0.0
  0
SPLINE
  5
15C
330
1F
100
AcDbEntity
  8
0
  6
Continuous
 62
     8
370
    18
100
AcDbSpline
210
0.0
220
0.0
230
1.0
 70
     8
 71
     3
 72
    11
 73
     7
 74
     0
 42
0.000000001
 43
0.00000001
 40
0.0
 40
0.0
 40
0.0
 40
0.0
 40
0.125
 40
0.25
 40
0.375
 40
0.5
 40
0.5
 40
0.5
 40
0.5
 10
176.6951801231452
 20
390.8653915091392
 30
0.0
 10
175.4486262251824
 20
390.8928004551967
 30
0.0
 10
172.8071707783856
 20
390.9416761206363
 30
0.0
 10
168.5049530209893
 20
390.9955272900139
 30
0.0
 10
163.9677090418041
 20
391.0282804818534
 30
0.0
 10
160.8645376484178
 20
391.0356818828769
 30
0.0
 10
159.3129519517246
 20
391.0356818828769
 30
0.0
  0
SPLINE
  5
15D
330
1F
100
AcDbEntity
  8
0
  6
Continuous
 62
     8
370
    18
100
AcDbSpline
210
0.0
220
0.0
230
1.0
 70
     8
 71
     3
 72
    12
 73
     8
 74
     0
 42
0.000000001
 43
0.00000001
 40
0.0
 40
0.0
 40
0.0
 40
0.0
 40
0.25
 40
0.25
 40
0.5
 40
0.5
 40
1.0
 40
1.0
 40
1.0
 40
1.0
 10
181.7078605681252
 20
395.4507800603516
 30
0.0
 10
181.6856680968368
 20
395.5067354763098
 30
0.0
 10
181.6195750579966
 20
395.5628123495786
 30
0.0
 10
181.4798523593507
 20
395.6748370576645
 30
0.0
 10
181.4099702929519
 20
395.7307670607086
 30
0.0
 10
181.2002889345043
 20
395.8984432158876
 30
0.0
 10
181.0604329314041
 20
396.0099761710728
 30
0.0
 10
180.9204686921022
 20
396.1211361439206
 30
0.0
  0
ARC
  5
15E
330
1F
100
AcDbEntity
  8
0
  6
Continuous
 62
     8
370
    18
100
AcDbCircle
 10
179.6509085743
 20
396.1888958736
 30
0.0
 40
1.27136672102511
100
AcDbArc
 50
356.9448400399
 51
50.7579721708
  0
LINE
  5
15F
330
1F
100
AcDbEntity
  8
0
  6
Continuous
 62
     8
370
    18
100
AcDbLine
 10
181.7078605438
 20
395.4507768764
 30
0.0
 11
181.6493809367
 21
395.8324105158
 31
0.0
  0
SPLINE
  5
160
330
1F
100
AcDbEntity
  8
0
  6
Continuous
 62
     8
370
    18
100
AcDbSpline
210
0.0
220
0.0
230
1.0
 70
     8
 71
     3
 72
    12
 73
     8
 74
     0
 42
0.000000001
 43
0.00000001
 40
0.0
 40
0.0
 40
0.0
 40
0.0
 40
0.5
 40
0.5
 40
0.75
 40
0.75
 40
1.0
 40
1.0
 40
1.0
 40
1.0
 10
137.7054352113469
 20
396.1211361439205
 30
0.0
 10
137.5654701134388
 20
396.009975489024
 30
0.0
 10
137.425613253094
 20
395.8984418474098
 30
0.0
 10
137.215930609561
 20
395.7307646591263
 30
0.0
 10
137.1460481147975
 20
395.6748343121957
 30
0.0
 10
137.0063245605724
 20
395.5628089100898
 30
0.0
 10
136.9402344686841
 20
395.5067321033243
 30
0.0
 10
136.9180433353239
 20
395.4507800603514
 30
0.0
  0
SPLINE
  5
161
330
1F
100
AcDbEntity
  8
0
  6
Continuous
 62
     8
370
    18
100
AcDbSpline
210
0.0
220
0.0
230
1.0
 70
     8
 71
     3
 72
    43
 73
    39
 74
     0
 42
0.000000001
 43
0.00000001
 40
0.0
 40
0.0
 40
0.0
 40
0.0
 40
0.0205282890803572
 40
0.0407639424507126
 40
0.0607118193738469
 40
0.0803697316221555
 40
0.0997337777087002
 40
0.1408590872330659
 40
0.1803167060628866
 40
0.2075110767361492
 40
0.234238832147652
 40
0.286496106525562
 40
0.3119452391513179
 40
0.3497094686330829
 40
0.374658773986941
 40
0.3870841411691786
 40
0.4375520820447006
 40
0.4627304285819364
 40
0.4753186170218049
 40
0.5004736428805839
 40
0.5382447319656225
 40
0.5888801455420462
 40
0.6296129204153804
 40
0.6706491497447815
 40
0.6982469489454121
 40
0.725038361802049
 40
0.7452722884098395
 40
0.7520207630424411
 40
0.7655548876169876
 40
0.8065647371005206
 40
0.8194476827065025
 40
0.8453991691107853
 40
0.8650575801911089
 40
0.8716456960273041
 40
0.8845550674858097
 40
0.9109848611261369
 40
0.9550668562724822
 40
1.0
 40
1.0
 40
1.0
 40
1.0
 10
136.9182275130593
 20
395.4504604370773
 30
0.0
 10
136.9208589298091
 20
395.3875984744127
 30
0.0
 10
136.9260842518283
 20
395.2627706615166
 30
0.0
 10
136.9399429542314
 20
395.0776747121684
 30
0.0
 10
136.9581488604259
 20
394.8962382216479
 30
0.0
 10
136.9810620872148
 20
394.7188025614312
 30
0.0
 10
137.0188744675066
 20
394.4799710435884
 30
0.0
 10
137.0792836135741
 20
394.1874480530033
 30
0.0
 10
137.1637030864752
 20
393.8828510389511
 30
0.0
 10
137.2503944604237
 20
393.6286428673494
 30
0.0
 10
137.3610506761662
 20
393.3495427258972
 30
0.0
 10
137.486764634378
 20
393.0904337303063
 30
0.0
 10
137.6420756732518
 20
392.8229891006237
 30
0.0
 10
137.7703180144721
 20
392.6306508451454
 30
0.0
 10
137.8869547499931
 20
392.4770916898074
 30
0.0
 10
138.0281013420468
 20
392.3047538910371
 30
0.0
 10
138.1775429707293
 20
392.1439507533254
 30
0.0
 10
138.3354025525325
 20
391.9971210131936
 30
0.0
 10
138.4506879365101
 20
391.8973721289498
 30
0.0
 10
138.5922078709148
 20
391.7835246117162
 30
0.0
 10
138.8124299966003
 20
391.626754141752
 30
0.0
 10
139.0736264432196
 20
391.4705592545057
 30
0.0
 10
139.3510650050916
 20
391.3324105555854
 30
0.0
 10
139.5865481739563
 20
391.2336306061703
 30
0.0
 10
139.7961686061553
 20
391.1580659625482
 30
0.0
 10
139.9625160214584
 20
391.1053410234159
 30
0.0
 10
140.0837757430073
 20
391.0712083509516
 30
0.0
 10
140.1757256600582
 20
391.0471206762737
 30
0.0
 10
140.3154405417823
 20
391.0125342222187
 30
0.0
 10
140.4710607971533
 20
390.9798452526855
 30
0.0
 10
140.6573224675877
 20
390.9471584421548
 30
0.0
 10
140.7948219614682
 20
390.9263404261469
 30
0.0
 10
140.9184933979043
 20
390.9109510303941
 30
0.0
 10
141.0116953425007
 20
390.9007446428271
 30
0.0
 10
141.1212721474084
 20
390.8899341006505
 30
0.0
 10
141.3215853838948
 20
390.8745655458138
 30
0.0
 10
141.6016829314471
 20
390.8624315383684
 30
0.0
 10
141.8203086939478
 20
390.8643667063149
 30
0.0
 10
141.9306668075592
 20
390.865343542172
 30
0.0
  0
SPLINE
  5
162
330
1F
100
AcDbEntity
  8
0
  6
Continuous
 62
     8
370
    18
100
AcDbSpline
210
0.0
220
0.0
230
1.0
 70
     8
 71
     3
 72
    24
 73
    20
 74
     0
 42
0.000000001
 43
0.00000001
 40
0.0
 40
0.0
 40
0.0
 40
0.0
 40
0.0400088573575243
 40
0.0725835779095107
 40
0.097999828188694
 40
0.1164636425014554
 40
0.1281191322998148
 40
0.1973162736201311
 40
0.2554046599837322
 40
0.3837408284558541
 40
0.5122156709490199
 40
0.6410297244293881
 40
0.7071988437645416
 40
0.7699320945613174
 40
0.834444761979031
 40
0.8981911465357356
 40
0.9316674355136803
 40
0.965558887306235
 40
1.0
 40
1.0
 40
1.0
 40
1.0
 10
176.6951801231452
 20
390.8653915091392
 30
0.0
 10
176.7934991750457
 20
390.8642421107641
 30
0.0
 10
176.9718683921378
 20
390.8621568863407
 30
0.0
 10
177.209999660494
 20
390.8699888938318
 30
0.0
 10
177.3943452003099
 20
390.8810010732113
 30
0.0
 10
177.5273063886264
 20
390.8920870702756
 30
0.0
 10
177.7639904744474
 20
390.9156674955134
 30
0.0
 10
178.0912195267977
 20
390.9631338242258
 30
0.0
 10
178.6777483606971
 20
391.095493597525
 30
0.0
 10
179.3704473661863
 20
391.3462129995231
 30
0.0
 10
180.1456417154665
 20
391.8260495194075
 30
0.0
 10
180.7092457788551
 20
392.4004284255872
 30
0.0
 10
181.080263972686
 20
392.968273457303
 30
0.0
 10
181.3136074397777
 20
393.4472490162781
 30
0.0
 10
181.4942911358227
 20
393.9658530556546
 30
0.0
 10
181.6019841095672
 20
394.4350105391807
 30
0.0
 10
181.6610106482524
 20
394.8266660009386
 30
0.0
 10
181.6932371655911
 20
395.1351618748718
 30
0.0
 10
181.7029325172996
 20
395.3441967228429
 30
0.0
 10
181.7078191874151
 20
395.4495548754311
 30
0.0
  0
SPLINE
  5
163
330
1F
100
AcDbEntity
  8
0
  6
Continuous
 62
     8
370
    18
100
AcDbSpline
210
0.0
220
0.0
230
1.0
 70
     8
 71
     3
 72
    11
 73
     7
 74
     0
 42
0.000000001
 43
0.00000001
 40
0.0
 40
0.0
 40
0.0
 40
0.0
 40
0.3926754666405844
 40
0.6040973038857222
 40
0.8200136986526022
 40
0.9999999999999999
 40
0.9999999999999999
 40
0.9999999999999999
 40
0.9999999999999999
 10
137.7054356182642
 20
396.1211354150422
 30
0.0
 10
137.7137916170323
 20
396.2820654251115
 30
0.0
 10
137.7266465997239
 20
396.52964235175
 30
0.0
 10
137.8703805929846
 20
396.8329882159698
 30
0.0
 10
138.0125641885325
 20
397.0364093311104
 30
0.0
 10
138.1362216298619
 20
397.1393258036846
 30
0.0
 10
138.1924390936918
 20
397.1861139549859
 30
0.0
  0
LINE
  5
164
330
1F
100
AcDbEntity
  8
0
  6
Continuous
 62
     8
370
    18
100
AcDbLine
 10
136.9182389374
 20
395.4501361265
 30
0.0
 11
136.97646895
 21
395.8324403181
 31
0.0
  0
SPLINE
  5
165
330
1F
100
AcDbEntity
  8
0
  6
Continuous
 62
     8
370
    18
100
AcDbSpline
210
0.0
220
0.0
230
1.0
 70
     8
 71
     3
 72
     9
 73
     5
 74
     0
 42
0.000000001
 43
0.00000001
 40
0.0
 40
0.0
 40
0.0
 40
0.0
 40
0.5385124279721782
 40
1.0
 40
1.0
 40
1.0
 40
1.0
 10
183.316219239933
 20
360.4051978006013
 30
0.0
 10
183.3160346079029
 20
360.4051767320786
 30
0.0
 10
183.31569175225
 20
360.40513760852
 30
0.0
 10
183.313302337098
 20
360.4053164384754
 30
0.0
 10
183.312199651701
 20
360.4053989662774
 30
0.0
  0
SPLINE
  5
166
330
1F
100
AcDbEntity
  8
0
  6
Continuous
 62
     8
370
    18
100
AcDbSpline
210
0.0
220
0.0
230
1.0
 70
     8
 71
     3
 72
     9
 73
     5
 74
     0
 42
0.000000001
 43
0.00000001
 40
0.0
 40
0.0
 40
0.0
 40
0.0
 40
0.461440645080021
 40
1.0
 40
1.0
 40
1.0
 40
1.0
 10
135.313704251749
 20
360.4053989662774
 30
0.0
 10
135.3126015668475
 20
360.4053164400488
 30
0.0
 10
135.310211909774
 20
360.4051375953165
 30
0.0
 10
135.3098692214953
 20
360.4051767262636
 30
0.0
 10
135.309684663517
 20
360.4051978006013
 30
0.0
  0
LINE
  5
167
330
1F
100
AcDbEntity
  8
0
  6
Continuous
 62
     8
370
    18
100
AcDbLine
 10
181.7076649661
 20
395.4501361265
 30
0.0
 11
181.6932629938
 21
395.4167202725
 31
0.0
  0
LINE
  5
168
330
1F
100
AcDbEntity
  8
0
  6
Continuous
 62
     8
370
    18
100
AcDbLine
 10
136.9334399844
 20
395.4148650779
 30
0.0
 11
136.9182389374
 21
395.4501361265
 31
0.0
  0
CIRCLE
  5
169
330
1F
100
AcDbEntity
  8
0
  6
Continuous
 62
     8
370
    18
100
AcDbCircle
 10
159.3129519517
 20
376.8800295303
 30
0.0
 40
3.781418633081848
  0
SPLINE
  5
16A
330
1F
100
AcDbEntity
  8
0
  6
Continuous
 62
     8
370
    18
100
AcDbSpline
210
0.0
220
0.0
230
1.0
 70
     8
 71
     3
 72
     8
 73
     4
 74
     0
 42
0.000000001
 43
0.00000001
 40
0.0000024790398112
 40
0.0000024790398112
 40
0.0000024790398112
 40
0.0000024790398112
 40
0.7671742739455352
 40
0.7671742739455352
 40
0.7671742739455352
 40
0.7671742739455352
 10
182.095630508126
 20
384.2185397760616
 30
0.0
 10
182.290934997749
 20
378.960519890691
 30
0.0
 10
182.4465604839719
 20
373.4050626739329
 30
0.0
 10
182.5084408144075
 20
367.1468834485918
 30
0.0
  0
SPLINE
  5
16B
330
1F
100
AcDbEntity
  8
0
  6
Continuous
 62
     8
370
    18
100
AcDbSpline
210
0.0
220
0.0
230
1.0
 70
     8
 71
     3
 72
     8
 73
     4
 74
     0
 42
0.000000001
 43
0.00000001
 40
0.0000024790398112
 40
0.0000024790398112
 40
0.0000024790398112
 40
0.0000024790398112
 40
0.7671742739455352
 40
0.7671742739455352
 40
0.7671742739455352
 40
0.7671742739455352
 10
136.5302733953233
 20
384.2185397760614
 30
0.0
 10
136.3349689057003
 20
378.9605198906909
 30
0.0
 10
136.1793434194774
 20
373.4050626739327
 30
0.0
 10
136.1174630890418
 20
367.1468834485917
 30
0.0
  0
LINE
  5
16C
330
1F
100
AcDbEntity
  8
0
  6
Continuous
 62
     7
370
    25
100
AcDbLine
 10
137.7037760014
 20
115.3542762958
 30
0.0
 11
137.7042304869
 21
115.3236171566
 31
0.0
  0
SPLINE
  5
16D
330
1F
100
AcDbEntity
  8
0
  6
Continuous
 62
     7
370
    25
100
AcDbSpline
210
0.0
220
0.0
230
1.0
 70
     8
 71
     3
 72
    19
 73
    15
 74
     0
 42
0.000000001
 43
0.00000001
 40
0.0
 40
0.0
 40
0.0
 40
0.0
 40
0.1483682345226205
 40
0.2741040252907788
 40
0.3440957279880899
 40
0.400901722667328
 40
0.4492746380177117
 40
0.4937154311650251
 40
0.5464491898577368
 40
0.6069893390327159
 40
0.6744968815968916
 40
0.7746320074993699
 40
0.8831030556292924
 40
1.0
 40
1.0
 40
1.0
 40
1.0
 10
167.9296853164859
 20
102.5684317909257
 30
0.0
 10
168.9866913776442
 20
102.57047671712
 30
0.0
 10
170.9394652786918
 20
102.5742546315981
 30
0.0
 10
173.3801570564457
 20
102.9247100804844
 30
0.0
 10
175.0930958871827
 20
103.4914645007402
 30
0.0
 10
176.2166381871809
 20
104.0413662232195
 30
0.0
 10
177.1097994905453
 20
104.6267061825134
 30
0.0
 10
177.9068974802514
 20
105.2929114489128
 30
0.0
 10
178.6650352763903
 20
106.1268158394429
 30
0.0
 10
179.3869032137839
 20
107.1983235258528
 30
0.0
 10
180.0862376122473
 20
108.671782286606
 30
0.0
 10
180.6084193709094
 20
110.5793288265924
 30
0.0
 10
180.8691798830093
 20
112.8883822402307
 30
0.0
 10
180.8941782766444
 20
114.4934045314735
 30
0.0
 10
180.9071447844333
 20
115.325919386007
 30
0.0
  0
SPLINE
  5
16E
330
1F
100
AcDbEntity
  8
0
  6
Continuous
 62
     7
370
    25
100
AcDbSpline
210
0.0
220
0.0
230
1.0
 70
     8
 71
     3
 72
    19
 73
    15
 74
     0
 42
0.000000001
 43
0.00000001
 40
0.0
 40
0.0
 40
0.0
 40
0.0
 40
0.1483552166782842
 40
0.2742118658835165
 40
0.3443206948492346
 40
0.4012063139247984
 40
0.4496089470941683
 40
0.4940443957244341
 40
0.5468196543104067
 40
0.6074671134379055
 40
0.6750004595780834
 40
0.7750996975050423
 40
0.8832796374805273
 40
1.0
 40
1.0
 40
1.0
 40
1.0
 10
137.7187591190166
 20
115.325919386007
 30
0.0
 10
137.7367148211236
 20
114.2692302714883
 30
0.0
 10
137.7699031827346
 20
112.3161024999227
 30
0.0
 10
138.1619788023215
 20
109.880078833577
 30
0.0
 10
138.7599128852044
 20
108.1754668966567
 30
0.0
 10
139.3312404535905
 20
107.0608930755932
 30
0.0
 10
139.9338977648288
 20
106.1784667618722
 30
0.0
 10
140.6157141929275
 20
105.3940602668005
 30
0.0
 10
141.4653177790819
 20
104.6520151349388
 30
0.0
 10
142.5514890895049
 20
103.95009843438
 30
0.0
 10
144.0387186798498
 20
103.2787619943418
 30
0.0
 10
145.9532227986967
 20
102.7915091618444
 30
0.0
 10
148.2627485577665
 20
102.569900253031
 30
0.0
 10
149.8647255836918
 20
102.5689335153435
 30
0.0
 10
150.6961310426421
 20
102.5684317909257
 30
0.0
  0
SPLINE
  5
16F
330
1F
100
AcDbEntity
  8
0
  6
Continuous
 62
     7
370
    25
100
AcDbSpline
210
0.0
220
0.0
230
1.0
 70
     8
 71
     3
 72
    21
 73
    17
 74
     0
 42
0.000000001
 43
0.00000001
 40
0.0
 40
0.0
 40
0.0
 40
0.0
 40
0.0774354491339952
 40
0.1531112137280308
 40
0.2210229863221936
 40
0.281170894425081
 40
0.3335548031621924
 40
0.3781747099549586
 40
0.4150305487183499
 40
0.4491150188202422
 40
0.5062690995320641
 40
0.577272008467986
 40
0.6621237514014504
 40
0.7608249194341173
 40
0.8734412561600071
 40
1.0
 40
1.0
 40
1.0
 40
1.0
 10
180.9075992698498
 20
115.356399711229
 30
0.0
 10
180.9291726001365
 20
116.8109095502673
 30
0.0
 10
180.9718290168202
 20
119.6868761692399
 30
0.0
 10
181.0334130537275
 20
123.8384637656153
 30
0.0
 10
181.0901881177671
 20
127.6653301981786
 30
0.0
 10
181.1404706189771
 20
131.05469363489
 30
0.0
 10
181.1842682011713
 20
134.0065539764028
 30
0.0
 10
181.2215727738256
 20
136.5209076490656
 30
0.0
 10
181.2537786258599
 20
138.6915336001706
 30
0.0
 10
181.2894741146806
 20
141.0975955907439
 30
0.0
 10
181.3346825666273
 20
144.1450594973264
 30
0.0
 10
181.3940398764918
 20
148.1461105336763
 30
0.0
 10
181.4649754209521
 20
152.9275630516222
 30
0.0
 10
181.5475341724456
 20
158.4906525079363
 30
0.0
 10
181.6414193011241
 20
164.8371877974309
 30
0.0
 10
181.6744763968688
 20
169.3301253497607
 30
0.0
 10
181.6919684554167
 20
171.7075491659419
 30
0.0
  0
LINE
  5
170
330
1F
100
AcDbEntity
  8
0
  6
Continuous
 62
     7
370
    25
100
AcDbLine
 10
180.9216734166
 20
115.3236171566
 30
0.0
 11
180.9221241767
 21
115.354112383
 31
0.0
  0
SPLINE
  5
171
330
1F
100
AcDbEntity
  8
0
  6
Continuous
 62
     7
370
    25
100
AcDbSpline
210
0.0
220
0.0
230
1.0
 70
     8
 71
     3
 72
    15
 73
    11
 74
     0
 42
0.000000001
 43
0.00000001
 40
0.0
 40
0.0
 40
0.0
 40
0.0
 40
0.0840748043689828
 40
0.1798463181564272
 40
0.2872674727488458
 40
0.4063816097012056
 40
0.5372120215583389
 40
0.6797588976019596
 40
0.8340215607588657
 40
1.0
 40
1.0
 40
1.0
 40
1.0
 10
136.9339391733236
 20
171.7066085301415
 30
0.0
 10
136.9441930024975
 20
170.1272701654905
 30
0.0
 10
136.9661272007127
 20
166.7488717007244
 30
0.0
 10
137.035497836813
 20
161.352895299743
 30
0.0
 10
137.125823958698
 20
155.2989584447184
 30
0.0
 10
137.2252688164719
 20
148.5864861461895
 30
0.0
 10
137.3347065372202
 20
141.2142462187048
 30
0.0
 10
137.4538753748205
 20
133.181802620473
 30
0.0
 10
137.5828406807189
 20
124.489165986001
 30
0.0
 10
137.6720619519571
 20
118.474013357757
 30
0.0
 10
137.7183046336002
 20
115.3564071618096
 30
0.0
  0
SPLINE
  5
172
330
1F
100
AcDbEntity
  8
0
  6
Continuous
 62
     7
370
    25
100
AcDbSpline
210
0.0
220
0.0
230
1.0
 70
     8
 71
     3
 72
    17
 73
    13
 74
     0
 42
0.000000001
 43
0.00000001
 40
0.0
 40
0.0
 40
0.0
 40
0.0
 40
0.0501216034326949
 40
0.1114370283927874
 40
0.1687877411320987
 40
0.2251685101726018
 40
0.2839034372048177
 40
0.4193836876860247
 40
0.5825534307028516
 40
0.7416856508076447
 40
0.8948279377366171
 40
1.0
 40
1.0
 40
1.0
 40
1.0
 10
137.0143681908674
 20
185.7171049676911
 30
0.0
 10
137.009180336642
 20
185.7152189814886
 30
0.0
 10
136.9976460077495
 20
185.7110258056204
 30
0.0
 10
136.9925544064906
 20
185.5333175538173
 30
0.0
 10
136.991754792556
 20
185.193485293654
 30
0.0
 10
136.9935535249177
 20
184.6873501769132
 30
0.0
 10
136.9965384811258
 20
183.7609416774269
 30
0.0
 10
137.0030077190323
 20
182.1761920177201
 30
0.0
 10
137.0391559318253
 20
180.103933871396
 30
0.0
 10
137.0199448921358
 20
177.9944943409209
 30
0.0
 10
136.943877575658
 20
176.1686777203786
 30
0.0
 10
136.9249226296906
 20
175.1270121229823
 30
0.0
 10
136.9172051693029
 20
174.7029004953877
 30
0.0
  0
SPLINE
  5
173
330
1F
100
AcDbEntity
  8
0
  6
Continuous
 62
     7
370
    25
100
AcDbSpline
210
0.0
220
0.0
230
1.0
 70
     8
 71
     3
 72
    20
 73
    16
 74
     0
 42
0.000000001
 43
0.00000001
 40
0.0
 40
0.0
 40
0.0
 40
0.0
 40
0.0733579877694797
 40
0.1623192957536882
 40
0.2403075111326315
 40
0.3092801485013782
 40
0.3916824667538784
 40
0.4696370720405612
 40
0.545176476829813
 40
0.6587511421345983
 40
0.7795003470616769
 40
0.888171943720295
 40
0.9377172417090505
 40
0.9863796529972781
 40
1.0
 40
1.0
 40
1.0
 40
1.0
 10
181.707262634737
 20
174.4893594048993
 30
0.0
 10
181.6993611848715
 20
174.7553201224996
 30
0.0
 10
181.6818776385446
 20
175.3438116786567
 30
0.0
 10
181.5877206539743
 20
176.3401434619345
 30
0.0
 10
181.5185207139881
 20
177.3769756104518
 30
0.0
 10
181.4932972422976
 20
178.4484014946088
 30
0.0
 10
181.5527148661024
 20
179.5462650936819
 30
0.0
 10
181.5995921266187
 20
180.662367958764
 30
0.0
 10
181.6150381102534
 20
181.9369063615971
 30
0.0
 10
181.6122175564517
 20
183.3490344643736
 30
0.0
 10
181.611113376965
 20
184.7030902354142
 30
0.0
 10
181.6350184268863
 20
185.5855555473294
 30
0.0
 10
181.6439579056845
 20
185.9262495470786
 30
0.0
 10
181.650640010267
 20
186.064814815423
 30
0.0
 10
181.6398464761004
 20
186.0136716318544
 30
0.0
 10
181.6374860848017
 20
186.0024873502628
 30
0.0
  0
SPLINE
  5
174
330
1F
100
AcDbEntity
  8
0
  6
Continuous
 62
     7
370
    25
100
AcDbSpline
210
0.0
220
0.0
230
1.0
 70
     8
 71
     3
 72
     9
 73
     5
 74
     0
 42
0.000000001
 43
0.00000001
 40
0.0
 40
0.0
 40
0.0
 40
0.0
 40
0.0214430814558337
 40
1.0
 40
1.0
 40
1.0
 40
1.0
 10
135.4201432461567
 20
184.7860287278966
 30
0.0
 10
135.4202198284707
 20
184.7812941842027
 30
0.0
 10
135.4237912514579
 20
184.5604983203411
 30
0.0
 10
135.4259673270844
 20
184.2567245251043
 30
0.0
 10
135.4280967409439
 20
183.9594645761029
 30
0.0
  0
SPLINE
  5
175
330
1F
100
AcDbEntity
  8
0
  6
Continuous
 62
     7
370
    25
100
AcDbSpline
210
0.0
220
0.0
230
1.0
 70
     8
 71
     3
 72
    17
 73
    13
 74
     0
 42
0.000000001
 43
0.00000001
 40
0.0
 40
0.0
 40
0.0
 40
0.0
 40
0.1201756782084701
 40
0.1699432275570703
 40
0.2169040118427165
 40
0.2697591088092687
 40
0.3324473205297364
 40
0.4073744655788639
 40
0.4959570340737901
 40
0.6367225773333386
 40
0.8044943382365873
 40
0.9999999999999999
 40
0.9999999999999999
 40
0.9999999999999999
 40
0.9999999999999999
 10
183.1770274932213
 20
183.3610213697032
 30
0.0
 10
183.3338050550631
 20
183.909394528403
 30
0.0
 10
183.5555078593671
 20
184.6848617933636
 30
0.0
 10
183.7660363429712
 20
185.6984560476552
 30
0.0
 10
183.8929612192208
 20
186.3788886547196
 30
0.0
 10
183.9942859963706
 20
186.9953132537566
 30
0.0
 10
184.0788936030135
 20
187.5767596886338
 30
0.0
 10
184.1492296194928
 20
188.1302873776424
 30
0.0
 10
184.2151976490679
 20
188.734843720827
 30
0.0
 10
184.2686816505959
 20
189.3579040642889
 30
0.0
 10
184.3061345715193
 20
189.9902658057229
 30
0.0
 10
184.3105669455672
 20
190.3431943018102
 30
0.0
 10
184.312952324254
 20
190.5331304632051
 30
0.0
  0
SPLINE
  5
176
330
1F
100
AcDbEntity
  8
0
  6
Continuous
 62
     7
370
    25
100
AcDbSpline
210
0.0
220
0.0
230
1.0
 70
     8
 71
     3
 72
    18
 73
    14
 74
     0
 42
0.000000001
 43
0.00000001
 40
0.0
 40
0.0
 40
0.0
 40
0.0
 40
0.1959909658082931
 40
0.3641791868455599
 40
0.505294152658078
 40
0.5940966098169156
 40
0.6692097466485742
 40
0.7320535694260751
 40
0.7850398686917969
 40
0.8321172238139886
 40
0.8874752072643761
 40
0.9564762275980644
 40
1.0
 40
1.0
 40
1.0
 40
1.0
 10
134.312951579196
 20
190.5331304632373
 30
0.0
 10
134.315337148862
 20
190.3431943768987
 30
0.0
 10
134.3197698777767
 20
189.9902660202769
 30
0.0
 10
134.3572205463736
 20
189.3579033935096
 30
0.0
 10
134.4107107270364
 20
188.734845478931
 30
0.0
 10
134.476664879551
 20
188.1302836809725
 30
0.0
 10
134.5470378421314
 20
187.576770514682
 30
0.0
 10
134.6315386360365
 20
186.9952820940139
 30
0.0
 10
134.7331773794519
 20
186.3789809083661
 30
0.0
 10
134.8636659440148
 20
185.6733237062296
 30
0.0
 10
135.0357740990078
 20
184.8749309369687
 30
0.0
 10
135.2187920531948
 20
184.1017479738008
 30
0.0
 10
135.3841632494819
 20
183.5943607806997
 30
0.0
 10
135.4481276268787
 20
183.3981071002857
 30
0.0
  0
LINE
  5
177
330
1F
100
AcDbEntity
  8
0
  6
Continuous
 62
     7
370
    25
100
AcDbLine
 10
147.3629517625
 20
86.7071515285
 30
0.0
 11
147.3629517625
 21
85.4310756885
 31
0.0
  0
LINE
  5
178
330
1F
100
AcDbEntity
  8
0
  6
Continuous
 62
     7
370
    25
100
AcDbLine
 10
171.262952141
 20
85.4310756885
 30
0.0
 11
171.262952141
 21
86.7071515285
 31
0.0
  0
LINE
  5
179
330
1F
100
AcDbEntity
  8
0
  6
Continuous
 62
     7
370
    25
100
AcDbLine
 10
148.1597364093
 20
82.021056708
 30
0.0
 11
148.6619902919
 21
81.7310801111
 31
0.0
  0
LINE
  5
17A
330
1F
100
AcDbEntity
  8
0
  6
Continuous
 62
     7
370
    25
100
AcDbLine
 10
169.9639136116
 20
81.7310801111
 30
0.0
 11
170.4655015985
 21
82.0206692778
 31
0.0
  0
LINE
  5
17B
330
1F
100
AcDbEntity
  8
0
  6
Continuous
 62
     7
370
    25
100
AcDbLine
 10
161.3129520467
 20
216.5226126425
 30
0.0
 11
161.3129520467
 21
220.3709455542
 31
0.0
  0
LINE
  5
17C
330
1F
100
AcDbEntity
  8
0
  6
Continuous
 62
     7
370
    25
100
AcDbLine
 10
157.3129518567
 20
220.3709455542
 30
0.0
 11
157.3129518567
 21
216.5226126425
 31
0.0
  0
LINE
  5
17D
330
1F
100
AcDbEntity
  8
0
  6
Continuous
 62
     7
370
    25
100
AcDbLine
 10
157.3129518567
 20
233.3630277179
 30
0.0
 11
157.3129518567
 21
220.3709455542
 31
0.0
  0
LINE
  5
17E
330
1F
100
AcDbEntity
  8
0
  6
Continuous
 62
     7
370
    25
100
AcDbLine
 10
161.3129520467
 20
220.3709455542
 30
0.0
 11
161.3129520467
 21
233.3630277179
 31
0.0
  0
LINE
  5
17F
330
1F
100
AcDbEntity
  8
0
  6
Continuous
 62
     7
370
    25
100
AcDbLine
 10
157.3129518567
 20
216.5226126425
 30
0.0
 11
157.3129518567
 21
215.0491355322
 31
0.0
  0
LINE
  5
180
330
1F
100
AcDbEntity
  8
0
  6
Continuous
 62
     7
370
    25
100
AcDbLine
 10
161.3129520467
 20
215.0490070097
 30
0.0
 11
161.3129520467
 21
216.5226126425
 31
0.0
  0
SPLINE
  5
181
330
1F
100
AcDbEntity
  8
0
  6
Continuous
 62
     7
370
    25
100
AcDbSpline
210
0.0
220
0.0
230
1.0
 70
     8
 71
     3
 72
     8
 73
     4
 74
     0
 42
0.000000001
 43
0.00000001
 40
0.0
 40
0.0
 40
0.0
 40
0.0
 40
1.0
 40
1.0
 40
1.0
 40
1.0
 10
167.9237976991697
 20
102.5532290148469
 30
0.0
 10
165.0535144928075
 20
102.5531147968116
 30
0.0
 10
162.1832366144903
 20
102.5530610722702
 30
0.0
 10
159.3129585154646
 20
102.5530613640264
 30
0.0
  0
SPLINE
  5
182
330
1F
100
AcDbEntity
  8
0
  6
Continuous
 62
     7
370
    25
100
AcDbSpline
210
0.0
220
0.0
230
1.0
 70
     8
 71
     3
 72
     8
 73
     4
 74
     0
 42
0.000000001
 43
0.00000001
 40
0.0
 40
0.0
 40
0.0
 40
0.0
 40
1.0
 40
1.0
 40
1.0
 40
1.0
 10
159.3129453879847
 20
102.5530613640264
 30
0.0
 10
156.4426673363551
 20
102.5530610722661
 30
0.0
 10
153.5723894633429
 20
102.5531147968212
 30
0.0
 10
150.7021062042793
 20
102.553229014847
 30
0.0
  0
SPLINE
  5
183
330
1F
100
AcDbEntity
  8
0
  6
Continuous
 62
     7
370
    25
100
AcDbSpline
210
0.0
220
0.0
230
1.0
 70
     8
 71
     3
 72
    10
 73
     6
 74
     0
 42
0.000000001
 43
0.00000001
 40
0.0
 40
0.0
 40
0.0
 40
0.0
 40
0.432465559138192
 40
0.8649309968581795
 40
1.0
 40
1.0
 40
1.0
 40
1.0
 10
180.9204682851858
 20
115.3530842028634
 30
0.0
 10
181.0119386804524
 20
121.6128634410434
 30
0.0
 10
181.1948794453047
 20
134.1324201599197
 30
0.0
 10
181.43129712569
 20
148.6067048227262
 30
0.0
 10
181.5279970529723
 20
156.8218650862896
 30
0.0
 10
181.5510109211035
 20
158.7770125232713
 30
0.0
  0
LINE
  5
184
330
1F
100
AcDbEntity
  8
0
  6
Continuous
 62
     7
370
    25
100
AcDbLine
 10
181.6521059866
 20
167.1091700308
 30
0.0
 11
181.7078605438
 21
171.7044758014
 31
0.0
  0
LINE
  5
185
330
1F
100
AcDbEntity
  8
0
  6
Continuous
 62
     7
370
    25
100
AcDbLine
 10
136.9588762666
 20
181.7680476569
 30
0.0
 11
136.9182389374
 21
171.7044907026
 31
0.0
  0
LINE
  5
186
330
1F
100
AcDbEntity
  8
0
  6
Continuous
 62
     7
370
    25
100
AcDbLine
 10
181.7076649661
 20
171.7044907026
 30
0.0
 11
181.6670276369
 21
181.7680476569
 31
0.0
  0
SPLINE
  5
187
330
1F
100
AcDbEntity
  8
0
  6
Continuous
 62
     7
370
    25
100
AcDbSpline
210
0.0
220
0.0
230
1.0
 70
     8
 71
     3
 72
    34
 73
    30
 74
     0
 42
0.000000001
 43
0.00000001
 40
0.0
 40
0.0
 40
0.0
 40
0.0
 40
0.1249999999999999
 40
0.1249999999999999
 40
0.2499999999999997
 40
0.2499999999999997
 40
0.2812499999999998
 40
0.2812499999999998
 40
0.3124999999999999
 40
0.3124999999999999
 40
0.3749999999999999
 40
0.3749999999999999
 40
0.4375000000000001
 40
0.4375000000000001
 40
0.5000000000000001
 40
0.5000000000000001
 40
0.6250000000000003
 40
0.6250000000000003
 40
0.6562500000000003
 40
0.6562500000000003
 40
0.6875000000000004
 40
0.6875000000000004
 40
0.7500000000000003
 40
0.7500000000000003
 40
0.8125000000000003
 40
0.8125000000000003
 40
0.8750000000000002
 40
0.8750000000000002
 40
1.0
 40
1.0
 40
1.0
 40
1.0
 10
182.5084408144063
 20
190.5264029901547
 30
0.0
 10
182.5226375536671
 20
192.0220534330082
 30
0.0
 10
182.4238328484288
 20
193.4999027602913
 30
0.0
 10
182.0261730477213
 20
196.4240874802166
 30
0.0
 10
181.7250424800107
 20
197.8700644178022
 30
0.0
 10
181.1748353661389
 20
199.6501578390262
 30
0.0
 10
181.0559630415549
 20
200.0047853914602
 30
0.0
 10
180.7989016207814
 20
200.7109975256278
 30
0.0
 10
180.6603061707712
 20
201.0635285805392
 30
0.0
 10
180.2157037758631
 20
202.1090694710781
 30
0.0
 10
179.8826840227232
 20
202.7864533074819
 30
0.0
 10
179.1363789236473
 20
204.0981633493886
 30
0.0
 10
178.7231954732976
 20
204.7325442157043
 30
0.0
 10
177.8066946799157
 20
205.9529545720165
 30
0.0
 10
177.2995183362864
 20
206.5423887113836
 30
0.0
 10
175.676296582458
 20
208.1794232739039
 30
0.0
 10
174.449973264555
 20
209.110468254156
 30
0.0
 10
172.7339261633682
 20
210.0706344294785
 30
0.0
 10
172.3816339546536
 20
210.2523876521929
 30
0.0
 10
171.6711421829046
 20
210.5907069216507
 30
0.0
 10
171.3114888003778
 20
210.7481072102719
 30
0.0
 10
170.220281076832
 20
211.1876311404235
 30
0.0
 10
169.4765736222876
 20
211.437329875141
 30
0.0
 10
167.96356535085
 20
211.8684434116178
 30
0.0
 10
167.1949657323473
 20
212.0517290337575
 30
0.0
 10
165.6372876060768
 20
212.3636619275705
 30
0.0
 10
164.8510465941743
 20
212.4899731355832
 30
0.0
 10
162.4901816913915
 20
212.7851217938985
 30
0.0
 10
160.9057380874197
 20
212.8720678899693
 30
0.0
 10
159.3129519517246
 20
212.8720381990779
 30
0.0
  0
SPLINE
  5
188
330
1F
100
AcDbEntity
  8
0
  6
Continuous
 62
     7
370
    25
100
AcDbSpline
210
0.0
220
0.0
230
1.0
 70
     8
 71
     3
 72
    38
 73
    34
 74
     0
 42
0.000000001
 43
0.00000001
 40
0.0
 40
0.0
 40
0.0
 40
0.0
 40
0.1250000000000002
 40
0.1250000000000002
 40
0.1875000000000002
 40
0.1875000000000002
 40
0.2500000000000003
 40
0.2500000000000003
 40
0.2812500000000003
 40
0.2812500000000003
 40
0.3125000000000004
 40
0.3125000000000004
 40
0.3750000000000004
 40
0.3750000000000004
 40
0.4375000000000004
 40
0.4375000000000004
 40
0.4687500000000005
 40
0.4687500000000005
 40
0.5000000000000006
 40
0.5000000000000006
 40
0.5625000000000009
 40
0.5625000000000009
 40
0.5937500000000008
 40
0.5937500000000008
 40
0.6250000000000008
 40
0.6250000000000008
 40
0.7500000000000006
 40
0.7500000000000006
 40
0.8125000000000006
 40
0.8125000000000006
 40
0.8750000000000006
 40
0.8750000000000006
 40
1.0
 40
1.0
 40
1.0
 40
1.0
 10
159.3129519517246
 20
212.8720381992914
 30
0.0
 10
157.7241782780348
 20
212.8720678153871
 30
0.0
 10
156.1515988349364
 20
212.7853546631556
 30
0.0
 10
153.8223264631009
 20
212.4967526898736
 30
0.0
 10
153.0508449933
 20
212.3740772020874
 30
0.0
 10
151.5186319428775
 20
212.0711455258406
 30
0.0
 10
150.7576572083248
 20
211.8921917669668
 30
0.0
 10
149.6254141307217
 20
211.5743803522035
 30
0.0
 10
149.2496438884512
 20
211.4596366668979
 30
0.0
 10
148.5019225470965
 20
211.2096924397584
 30
0.0
 10
148.1289116752004
 20
211.0740658427399
 30
0.0
 10
147.0238534947555
 20
210.6346542930616
 30
0.0
 10
146.3137162370102
 20
210.3014495158666
 30
0.0
 10
144.9505727180274
 20
209.5484587034876
 30
0.0
 10
144.2978500117693
 20
209.12824294454
 30
0.0
 10
143.3644354531409
 20
208.4287077910196
 30
0.0
 10
143.0597560049865
 20
208.1830934777363
 30
0.0
 10
142.4715789714977
 20
207.6731783242819
 30
0.0
 10
142.1888965932986
 20
207.4096833428897
 30
0.0
 10
141.3737205682656
 20
206.5945946326773
 30
0.0
 10
140.8736999400783
 20
206.0186951057309
 30
0.0
 10
140.1838677804011
 20
205.1097875017207
 30
0.0
 10
139.9640284335869
 20
204.7992550073979
 30
0.0
 10
139.5439087164865
 20
204.1635502792131
 30
0.0
 10
139.3430101951617
 20
203.8372783614313
 30
0.0
 10
138.3947740468874
 20
202.186000821251
 30
0.0
 10
137.8144101256671
 20
200.8055827588859
 30
0.0
 10
137.1446723406795
 20
198.6680334941349
 30
0.0
 10
136.9553269580598
 20
197.9442192306837
 30
0.0
 10
136.6362196557873
 20
196.4767336622961
 30
0.0
 10
136.5072007693326
 20
195.7371680808317
 30
0.0
 10
136.2025202328795
 20
193.5157612651702
 30
0.0
 10
136.1032294673046
 20
192.0259390639486
 30
0.0
 10
136.1174630890405
 20
190.526402990108
 30
0.0
  0
SPLINE
  5
189
330
1F
100
AcDbEntity
  8
0
  6
Continuous
 62
     7
370
    25
100
AcDbSpline
210
0.0
220
0.0
230
1.0
 70
     8
 71
     3
 72
    11
 73
     7
 74
     0
 42
0.000000001
 43
0.00000001
 40
0.0
 40
0.0
 40
0.0
 40
0.0
 40
0.1538371093544267
 40
0.4899890889965268
 40
0.8293823492074676
 40
1.0
 40
1.0
 40
1.0
 40
1.0
 10
136.9944583768673
 20
184.4095909372048
 30
0.0
 10
136.926805576359
 20
184.644378418988
 30
0.0
 10
136.7113235367636
 20
185.3922038610385
 30
0.0
 10
136.4594454180924
 20
186.6676430088964
 30
0.0
 10
136.2685835603081
 20
187.9632628754517
 30
0.0
 10
136.2035066558855
 20
188.7358582172378
 30
0.0
 10
136.1817360068388
 20
188.9943201430218
 30
0.0
  0
SPLINE
  5
18A
330
1F
100
AcDbEntity
  8
0
  6
Continuous
 62
     7
370
    25
100
AcDbSpline
210
0.0
220
0.0
230
1.0
 70
     8
 71
     3
 72
     8
 73
     4
 74
     0
 42
0.000000001
 43
0.00000001
 40
0.0
 40
0.0
 40
0.0
 40
0.0
 40
1.0
 40
1.0
 40
1.0
 40
1.0
 10
136.1817360947577
 20
188.9943201733206
 30
0.0
 10
136.1436998173845
 20
189.5043990726221
 30
0.0
 10
136.1223342408962
 20
190.0150955215412
 30
0.0
 10
136.1174630890403
 20
190.526402990108
 30
0.0
  0
SPLINE
  5
18B
330
1F
100
AcDbEntity
  8
0
  6
Continuous
 62
     7
370
    25
100
AcDbSpline
210
0.0
220
0.0
230
1.0
 70
     8
 71
     3
 72
     8
 73
     4
 74
     0
 42
0.000000001
 43
0.00000001
 40
0.0
 40
0.0
 40
0.0
 40
0.0
 40
1.0
 40
1.0
 40
1.0
 40
1.0
 10
182.5084408144079
 20
190.5264029901289
 30
0.0
 10
182.5035696625522
 20
190.015095521567
 30
0.0
 10
182.4822040860645
 20
189.5043990726173
 30
0.0
 10
182.4441678086916
 20
188.9943201733206
 30
0.0
  0
SPLINE
  5
18C
330
1F
100
AcDbEntity
  8
0
  6
Continuous
 62
     7
370
    25
100
AcDbSpline
210
0.0
220
0.0
230
1.0
 70
     8
 71
     3
 72
    10
 73
     6
 74
     0
 42
0.000000001
 43
0.00000001
 40
0.0
 40
0.0
 40
0.0
 40
0.0
 40
0.4656918451697449
 40
0.9379452373728403
 40
1.0
 40
1.0
 40
1.0
 40
1.0
 10
182.4441678966112
 20
188.9943201430218
 30
0.0
 10
182.3665835705549
 20
188.2807301848439
 30
0.0
 10
182.2103217637955
 20
186.8434958642256
 30
0.0
 10
181.9257625390779
 20
185.2799558972933
 30
0.0
 10
181.6480226064812
 20
184.4650487195055
 30
0.0
 10
181.6157657797165
 20
184.3704050742165
 30
0.0
  0
SPLINE
  5
18D
330
1F
100
AcDbEntity
  8
0
  6
Continuous
 62
     7
370
    25
100
AcDbSpline
210
0.0
220
0.0
230
1.0
 70
     8
 71
     3
 72
    54
 73
    50
 74
     0
 42
0.000000001
 43
0.00000001
 40
0.0
 40
0.0
 40
0.0
 40
0.0
 40
0.0312499999999999
 40
0.0312499999999999
 40
0.0624999999999998
 40
0.0624999999999998
 40
0.1249999999999996
 40
0.1249999999999996
 40
0.2499999999999993
 40
0.2499999999999993
 40
0.4999999999999984
 40
0.4999999999999984
 40
0.6249999999999981
 40
0.6249999999999981
 40
0.6874999999999978
 40
0.6874999999999978
 40
0.7499999999999973
 40
0.7499999999999973
 40
0.812499999999997
 40
0.812499999999997
 40
0.8437499999999968
 40
0.8437499999999968
 40
0.8593749999999968
 40
0.8593749999999968
 40
0.8749999999999969
 40
0.8749999999999969
 40
0.8828124999999971
 40
0.8828124999999971
 40
0.8906249999999973
 40
0.8906249999999973
 40
0.9062499999999977
 40
0.9062499999999977
 40
0.9140624999999979
 40
0.9140624999999979
 40
0.9218749999999981
 40
0.9218749999999981
 40
0.9374999999999984
 40
0.9374999999999984
 40
0.9531249999999989
 40
0.9531249999999989
 40
0.9687499999999993
 40
0.9687499999999993
 40
0.9843749999999997
 40
0.9843749999999997
 40
0.9921874999999999
 40
0.9921874999999999
 40
0.99609375
 40
0.99609375
 40
1.0
 40
1.0
 40
1.0
 40
1.0
 10
183.312196673423
 20
190.0650203201658
 30
0.0
 10
183.2922199220336
 20
188.9291883190358
 30
0.0
 10
183.271484906289
 20
187.793365591317
 30
0.0
 10
183.2285496309017
 20
185.521759306397
 30
0.0
 10
183.2063641489239
 20
184.3859697144981
 30
0.0
 10
183.1377692793739
 20
180.9786438832209
 30
0.0
 10
183.0892211373492
 20
178.707152445709
 30
0.0
 10
182.9346876275287
 20
171.8928646961929
 30
0.0
 10
182.8202595018907
 20
167.3503711233352
 30
0.0
 10
182.4510290476318
 20
153.7237061995498
 30
0.0
 10
182.170399175112
 20
144.6403393996032
 30
0.0
 10
181.7034301920869
 20
131.0167989311204
 30
0.0
 10
181.5445853717634
 20
126.4757297482869
 30
0.0
 10
181.2717888733186
 20
119.6652156480119
 30
0.0
 10
181.173383366495
 20
117.3955358831845
 30
0.0
 10
180.9448296897693
 20
112.8589754640683
 30
0.0
 10
180.8149816428073
 20
110.5919962238151
 30
0.0
 10
180.5109723546371
 20
106.0618195137694
 30
0.0
 10
180.3397365656909
 20
103.7983778509619
 30
0.0
 10
180.0255559370828
 20
100.4080639953573
 30
0.0
 10
179.9113714984433
 20
99.2787576590827
 30
0.0
 10
179.7143078367543
 20
97.58696888170346
 30
0.0
 10
179.6438058562699
 20
97.02344446298939
 30
0.0
 10
179.4845942479728
 20
95.89792017020052
 30
0.0
 10
179.3958484319377
 20
95.33592100741382
 30
0.0
 10
179.2321659381947
 20
94.49547616028947
 30
0.0
 10
179.1720843281889
 20
94.21578861226223
 30
0.0
 10
179.0338292198087
 20
93.6579212698756
 30
0.0
 10
178.9551526894414
 20
93.37946133847272
 30
0.0
 10
178.6879238544895
 20
92.56163165931255
 30
0.0
 10
178.4686930243634
 20
92.03497918166592
 30
0.0
 10
178.0669492606914
 20
91.27795291782887
 30
0.0
 10
177.9208537456802
 20
91.03111690497143
 30
0.0
 10
177.6010305137936
 20
90.5499341358896
 30
0.0
 10
177.4286072400391
 20
90.31827456199046
 30
0.0
 10
176.8827310240319
 20
89.65730736036939
 30
0.0
 10
176.4785267499581
 20
89.25750918733615
 30
0.0
 10
175.5956497877458
 20
88.53341599993972
 30
0.0
 10
175.1118601766593
 20
88.20871538183675
 30
0.0
 10
174.1122627853792
 20
87.6536310169467
 30
0.0
 10
173.5932007520528
 20
87.4187745613651
 30
0.0
 10
172.5242395747671
 20
87.01739658824343
 30
0.0
 10
171.9720592452653
 20
86.85090918655818
 30
0.0
 10
171.1349934119999
 20
86.64373257581443
 30
0.0
 10
170.8544539548723
 20
86.58165297839426
 30
0.0
 10
170.4317746082508
 20
86.49713351010732
 30
0.0
 10
170.2905696202837
 20
86.47039450334215
 30
0.0
 10
170.0076018286404
 20
86.4194813569872
 30
0.0
 10
169.8639922830889
 20
86.39500779699353
 30
0.0
 10
169.7238306657264
 20
86.37226571563902
 30
0.0
  0
SPLINE
  5
18E
330
1F
100
AcDbEntity
  8
0
  6
Continuous
 62
     7
370
    25
100
AcDbSpline
210
0.0
220
0.0
230
1.0
 70
     8
 71
     3
 72
    55
 73
    51
 74
     0
 42
0.000000001
 43
0.00000001
 40
0.0
 40
0.0
 40
0.0
 40
0.0
 40
0.0156250000000004
 40
0.0156250000000004
 40
0.0312500000000009
 40
0.0312500000000009
 40
0.0468750000000013
 40
0.0468750000000013
 40
0.0625000000000017
 40
0.0625000000000017
 40
0.0781250000000021
 40
0.0781250000000021
 40
0.0859375000000022
 40
0.0859375000000022
 40
0.0937500000000024
 40
0.0937500000000024
 40
0.1093750000000027
 40
0.1093750000000027
 40
0.1171875000000027
 40
0.1171875000000027
 40
0.1250000000000027
 40
0.1250000000000027
 40
0.1406250000000027
 40
0.1406250000000027
 40
0.1562500000000027
 40
0.1562500000000027
 40
0.1875000000000027
 40
0.1875000000000027
 40
0.2500000000000026
 40
0.2500000000000026
 40
0.3125000000000026
 40
0.3125000000000026
 40
0.3750000000000026
 40
0.3750000000000026
 40
0.5000000000000021
 40
0.5000000000000021
 40
0.7500000000000011
 40
0.7500000000000011
 40
0.8750000000000006
 40
0.8750000000000006
 40
0.9375000000000002
 40
0.9375000000000002
 40
0.9687500000000001
 40
0.9687500000000001
 40
0.984375
 40
0.984375
 40
0.9921875
 40
0.99609375
 40
0.99609375
 40
1.0
 40
1.0
 40
1.0
 40
1.0
 10
148.902073237723
 20
86.37226571563902
 30
0.0
 10
148.3348463885631
 20
86.46430174780114
 30
0.0
 10
147.7699317614581
 20
86.57467384918951
 30
0.0
 10
146.6538440076313
 20
86.85090937086889
 30
0.0
 10
146.1016636959069
 20
87.01739679497345
 30
0.0
 10
145.0327025560885
 20
87.418774815761
 30
0.0
 10
144.5136405422607
 20
87.65363129686988
 30
0.0
 10
143.514043192485
 20
88.20871571836908
 30
0.0
 10
143.030253609768
 20
88.53341636543615
 30
0.0
 10
142.1473767127477
 20
89.25750959826051
 30
0.0
 10
141.7431724703947
 20
89.65730779312067
 30
0.0
 10
141.1972963035015
 20
90.31827502903583
 30
0.0
 10
141.0248730442706
 20
90.5499346187883
 30
0.0
 10
140.7050498540261
 20
91.03111739870398
 30
0.0
 10
140.5589543581288
 20
91.27795341620704
 30
0.0
 10
140.1572106483313
 20
92.03497969241498
 30
0.0
 10
139.9379798497274
 20
92.56163217632351
 30
0.0
 10
139.6707510577846
 20
93.37946186294158
 30
0.0
 10
139.5920745416819
 20
93.65792179589893
 30
0.0
 10
139.4538194577883
 20
94.21578913305792
 30
0.0
 10
139.3937378574623
 20
94.49547667825814
 30
0.0
 10
139.2300553862201
 20
95.33592151635759
 30
0.0
 10
139.1413095787547
 20
95.8979206725923
 30
0.0
 10
138.9820979836693
 20
97.02344495194848
 30
0.0
 10
138.9115960077797
 20
97.5869693637798
 30
0.0
 10
138.7145323568118
 20
99.27875812025339
 30
0.0
 10
138.6003479220822
 20
100.4080644423198
 30
0.0
 10
138.286167306011
 20
103.7983782553651
 30
0.0
 10
138.1149315213095
 20
106.0618198894576
 30
0.0
 10
137.8109222415765
 20
110.5919965420634
 30
0.0
 10
137.681074197887
 20
112.8589757535146
 30
0.0
 10
137.45252052649
 20
117.3955361149239
 30
0.0
 10
137.3541150216195
 20
119.6652158508522
 30
0.0
 10
137.0813185278151
 20
126.4757298642268
 30
0.0
 10
136.9224737093755
 20
131.0167989890889
 30
0.0
 10
136.4555047323113
 20
144.6403392836661
 30
0.0
 10
136.1748748629971
 20
153.7237059676507
 30
0.0
 10
135.8056444121087
 20
167.3503707174485
 30
0.0
 10
135.6912162873208
 20
171.8928642322918
 30
0.0
 10
135.5366827781538
 20
178.7071518947954
 30
0.0
 10
135.4881346362467
 20
180.978643303301
 30
0.0
 10
135.419539766828
 20
184.3859690910679
 30
0.0
 10
135.397354284883
 20
185.5217586684633
 30
0.0
 10
135.365152828337
 20
187.2254633603975
 30
0.0
 10
135.3546007842488
 20
187.7933681822238
 30
0.0
 10
135.3390543663543
 20
188.6452320232879
 30
0.0
 10
135.3313514310721
 20
189.0711656104467
 30
0.0
 10
135.3237543835757
 20
189.4971020367358
 30
0.0
 10
135.318713190616
 20
189.7810603213214
 30
0.0
 10
135.3162336326873
 20
189.9213748942497
 30
0.0
 10
135.3137072300264
 20
190.0650203201658
 30
0.0
  0
SPLINE
  5
18F
330
1F
100
AcDbEntity
  8
0
  6
Continuous
 62
     7
370
    25
100
AcDbSpline
210
0.0
220
0.0
230
1.0
 70
     8
 71
     3
 72
     8
 73
     4
 74
     0
 42
0.000000001
 43
0.00000001
 40
0.0
 40
0.0
 40
0.0
 40
0.0
 40
0.0004642455191564
 40
0.0004642455191564
 40
0.0004642455191564
 40
0.0004642455191564
 10
135.3141849991712
 20
190.0688932165206
 30
0.0
 10
135.3112132433537
 20
190.2236129955318
 30
0.0
 10
135.3097150392996
 20
190.3783683814848
 30
0.0
 10
135.309684885259
 20
190.5331168637537
 30
0.0
  0
SPLINE
  5
190
330
1F
100
AcDbEntity
  8
0
  6
Continuous
 62
     7
370
    25
100
AcDbSpline
210
0.0
220
0.0
230
1.0
 70
     8
 71
     3
 72
     8
 73
     4
 74
     0
 42
0.000000001
 43
0.00000001
 40
0.0000002340382846
 40
0.0000002340382846
 40
0.0000002340382846
 40
0.0000002340382846
 40
0.000464479557402
 40
0.000464479557402
 40
0.000464479557402
 40
0.000464479557402
 10
183.3162190181904
 20
190.5331168637147
 30
0.0
 10
183.3161888641496
 20
190.3783683814587
 30
0.0
 10
183.3146906600954
 20
190.2236129955188
 30
0.0
 10
183.3117189042782
 20
190.0688932165206
 30
0.0
  0
SPLINE
  5
191
330
1F
100
AcDbEntity
  8
0
  6
Continuous
 62
     7
370
    25
100
AcDbSpline
210
0.0
220
0.0
230
1.0
 70
     8
 71
     3
 72
    10
 73
     6
 74
     0
 42
0.000000001
 43
0.00000001
 40
0.0
 40
0.0
 40
0.0
 40
0.0
 40
0.5000000000000001
 40
0.5000000000000001
 40
1.0
 40
1.0
 40
1.0
 40
1.0
 10
169.7231670580717
 20
86.37218111025935
 30
0.0
 10
168.0029406652642
 20
86.09307023271917
 30
0.0
 10
166.272123818922
 20
85.88290741340023
 30
0.0
 10
162.7980248316161
 20
85.60289413213057
 30
0.0
 10
161.0553635015441
 20
85.53313124235873
 30
0.0
 10
159.3129519517247
 20
85.53313046322027
 30
0.0
  0
SPLINE
  5
192
330
1F
100
AcDbEntity
  8
0
  6
Continuous
 62
     7
370
    25
100
AcDbSpline
210
0.0
220
0.0
230
1.0
 70
     8
 71
     3
 72
    26
 73
    22
 74
     0
 42
0.000000001
 43
0.00000001
 40
0.0
 40
0.0
 40
0.0
 40
0.0
 40
0.0790201236689346
 40
0.1550536476275965
 40
0.2281185171405126
 40
0.2982299584969404
 40
0.3654007089516375
 40
0.4296412403976629
 40
0.4909599760946967
 40
0.5493634998661406
 40
0.604856757263962
 40
0.657443248281232
 40
0.707125211268366
 40
0.7539037977804248
 40
0.797779238150268
 40
0.8387509976475654
 40
0.8768179231497937
 40
0.9119783803241808
 40
0.9442303814100587
 40
0.9735717038209287
 40
1.0
 40
1.0
 40
1.0
 40
1.0
 10
159.3129519517247
 20
85.53313046322027
 30
0.0
 10
159.0375576850309
 20
85.53413146796238
 30
0.0
 10
158.4971777969214
 20
85.53609564403989
 30
0.0
 10
157.7022837282865
 20
85.55155328673075
 30
0.0
 10
156.9386601729697
 20
85.57487364850624
 30
0.0
 10
156.2062196655151
 20
85.60586151877159
 30
0.0
 10
155.5048781793015
 20
85.64326495196417
 30
0.0
 10
154.8345551723304
 20
85.68615210466399
 30
0.0
 10
154.1951735822355
 20
85.7335643311715
 30
0.0
 10
153.5866598328804
 20
85.7846033755377
 30
0.0
 10
153.0089438378753
 20
85.83840950760879
 30
0.0
 10
152.4619590013458
 20
85.89416696983271
 30
0.0
 10
151.9456422276616
 20
85.95110265560893
 30
0.0
 10
151.4599338969748
 20
86.00848628548007
 30
0.0
 10
151.0047779548715
 20
86.065630853032
 30
0.0
 10
150.5801216123429
 20
86.12189083028426
 30
0.0
 10
150.1859163562843
 20
86.17666825028267
 30
0.0
 10
149.822114573663
 20
86.22939236459709
 30
0.0
 10
149.4886807161889
 20
86.27958694289173
 30
0.0
 10
149.1855547337598
 20
86.32664990682446
 30
0.0
 10
148.9936702520226
 20
86.3575416259091
 30
0.0
 10
148.9027393824248
 20
86.37218069861738
 30
0.0
  0
SPLINE
  5
193
330
1F
100
AcDbEntity
  8
0
  6
Continuous
 62
     7
370
    25
100
AcDbSpline
210
0.0
220
0.0
230
1.0
 70
     8
 71
     3
 72
    17
 73
    13
 74
     0
 42
0.000000001
 43
0.00000001
 40
0.0
 40
0.0
 40
0.0
 40
0.0
 40
0.1143153106287947
 40
0.2242103830728549
 40
0.3297077277539653
 40
0.4308327794025325
 40
0.52761440550342
 40
0.6200855249396167
 40
0.7852341207923836
 40
0.9382441844976168
 40
0.9694200937710796
 40
1.0
 40
1.0
 40
1.0
 40
1.0
 10
148.9027393689298
 20
86.372180700807
 30
0.0
 10
148.9075873042092
 20
86.37139428515134
 30
0.0
 10
148.9170957193124
 20
86.36985186222968
 30
0.0
 10
148.9431628722373
 20
86.3656324700404
 30
0.0
 10
148.9776936187814
 20
86.36005981494654
 30
0.0
 10
149.0214674296201
 20
86.35302268901435
 30
0.0
 10
149.0742615653958
 20
86.344575740807
 30
0.0
 10
149.1534117317748
 20
86.33198502458383
 30
0.0
 10
149.2709409941346
 20
86.3134487133915
 30
0.0
 10
149.4048114170038
 20
86.29267666090254
 30
0.0
 10
149.5015390446756
 20
86.2778648874473
 30
0.0
 10
149.531143045211
 20
86.27335760713478
 30
0.0
 10
149.5458021919328
 20
86.27112571677462
 30
0.0
  0
SPLINE
  5
194
330
1F
100
AcDbEntity
  8
0
  6
Continuous
 62
     7
370
    25
100
AcDbSpline
210
0.0
220
0.0
230
1.0
 70
     8
 71
     3
 72
     9
 73
     5
 74
     0
 42
0.000000001
 43
0.00000001
 40
0.0
 40
0.0
 40
0.0
 40
0.0
 40
0.5609868747046652
 40
0.9999999999999999
 40
0.9999999999999999
 40
0.9999999999999999
 40
0.9999999999999999
 10
169.0810943166442
 20
86.27131491527717
 30
0.0
 10
169.1448976945415
 20
86.2811486874867
 30
0.0
 10
169.2586318668979
 20
86.29867810333039
 30
0.0
 10
169.3653462913923
 20
86.31699826189445
 30
0.0
 10
169.4121953244037
 20
86.32504105196159
 30
0.0
  0
SPLINE
  5
195
330
1F
100
AcDbEntity
  8
0
  6
Continuous
 62
     7
370
    25
100
AcDbSpline
210
0.0
220
0.0
230
1.0
 70
     8
 71
     3
 72
    12
 73
     8
 74
     0
 42
0.000000001
 43
0.00000001
 40
0.0509778985003703
 40
0.0509778985003703
 40
0.0509778985003703
 40
0.0509778985003703
 40
0.0624735023662522
 40
0.1327959389789071
 40
0.2499999999999986
 40
0.2968749999999987
 40
0.3715766863527875
 40
0.3715766863527875
 40
0.3715766863527875
 40
0.3715766863527875
 10
169.7238303566519
 20
86.37226566477248
 30
0.0
 10
169.7226681731728
 20
86.37207439619365
 30
0.0
 10
169.7133478231534
 20
86.37054275218902
 30
0.0
 10
169.6714669415885
 20
86.36371227774848
 30
0.0
 10
169.5529665765187
 20
86.34473991506545
 30
0.0
 10
169.3444608353505
 20
86.31182225593071
 30
0.0
 10
169.1951994653904
 20
86.28869290179705
 30
0.0
 10
169.0812076568184
 20
86.27132873549067
 30
0.0
  0
SPLINE
  5
196
330
1F
100
AcDbEntity
  8
0
  6
Continuous
 62
     7
370
    25
100
AcDbSpline
210
0.0
220
0.0
230
1.0
 70
     8
 71
     3
 72
    15
 73
    11
 74
     0
 42
0.000000001
 43
0.00000001
 40
0.0
 40
0.0
 40
0.0
 40
0.0
 40
0.1569869717322747
 40
0.2915682401412524
 40
0.440117496567127
 40
0.5897168989337399
 40
0.7142562953114611
 40
0.8391907191430091
 40
0.9644643084913743
 40
1.0
 40
1.0
 40
1.0
 40
1.0
 10
160.5239162365622
 20
215.0467960499303
 30
0.0
 10
160.6138692964443
 20
215.0447106939707
 30
0.0
 10
160.7809370159864
 20
215.0408376109977
 30
0.0
 10
160.9578173359973
 20
215.0371026622815
 30
0.0
 10
161.0960906310183
 20
215.0352001701818
 30
0.0
 10
161.1940445998563
 20
215.035448189624
 30
0.0
 10
161.2597444732951
 20
215.0375438529179
 30
0.0
 10
161.2975309041142
 20
215.0413120817055
 30
0.0
 10
161.314072185478
 20
215.0451580956423
 30
0.0
 10
161.3115030058937
 20
215.0482829505679
 30
0.0
 10
161.3109352676846
 20
215.0489734821097
 30
0.0
  0
SPLINE
  5
197
330
1F
100
AcDbEntity
  8
0
  6
Continuous
 62
     7
370
    25
100
AcDbSpline
210
0.0
220
0.0
230
1.0
 70
     8
 71
     3
 72
    17
 73
    13
 74
     0
 42
0.000000001
 43
0.00000001
 40
0.0
 40
0.0
 40
0.0
 40
0.0
 40
0.0553284911496427
 40
0.1617266770628742
 40
0.2663362657637073
 40
0.3699221609032962
 40
0.4730484011757235
 40
0.5761746414481507
 40
0.6797605365877396
 40
0.7843701252885729
 40
0.8907683112018043
 40
1.0
 40
1.0
 40
1.0
 40
1.0
 10
161.3129520467199
 20
215.3715389184729
 30
0.0
 10
161.9993334578698
 20
215.3325309914225
 30
0.0
 10
164.0056448991626
 20
215.218509764928
 30
0.0
 10
167.2216035622351
 20
214.343484551257
 30
0.0
 10
170.8334118237463
 20
212.8415074580683
 30
0.0
 10
174.1272066467507
 20
210.7883785816877
 30
0.0
 10
177.0565074103442
 20
208.2768931905581
 30
0.0
 10
179.5690809669752
 20
205.3474351324761
 30
0.0
 10
181.6179825592857
 20
202.0531784489525
 30
0.0
 10
183.1360296994619
 20
198.4434083884072
 30
0.0
 10
184.1265045159596
 20
194.5686830811273
 30
0.0
 10
184.2502609773532
 20
191.8900476156396
 30
0.0
 10
184.312952324254
 20
190.5331304632203
 30
0.0
  0
SPLINE
  5
198
330
1F
100
AcDbEntity
  8
0
  6
Continuous
 62
     7
370
    25
100
AcDbSpline
210
0.0
220
0.0
230
1.0
 70
     8
 71
     3
 72
     9
 73
     5
 74
     0
 42
0.000000001
 43
0.00000001
 40
0.0
 40
0.0
 40
0.0
 40
0.0
 40
0.2356102302128242
 40
1.0
 40
1.0
 40
1.0
 40
1.0
 10
184.0697094942159
 20
187.522553639494
 30
0.0
 10
184.0481587088442
 20
187.1740579751069
 30
0.0
 10
183.9566907562331
 20
185.694938566445
 30
0.0
 10
183.5128061121482
 20
184.2731099561286
 30
0.0
 10
183.1735052312441
 20
183.186278712012
 30
0.0
  0
SPLINE
  5
199
330
1F
100
AcDbEntity
  8
0
  6
Continuous
 62
     7
370
    25
100
AcDbSpline
210
0.0
220
0.0
230
1.0
 70
     8
 71
     3
 72
    12
 73
     8
 74
     0
 42
0.000000001
 43
0.00000001
 40
0.0
 40
0.0
 40
0.0
 40
0.0
 40
0.2500000000000021
 40
0.2500000000000021
 40
0.5000000000000042
 40
0.5000000000000042
 40
1.0
 40
1.0
 40
1.0
 40
1.0
 10
159.3129519517248
 20
215.0643055186248
 30
0.0
 10
159.4500195418744
 20
215.0643035830425
 30
0.0
 10
159.5839026747545
 20
215.063513056202
 30
0.0
 10
159.8342274105173
 20
215.0608651361827
 30
0.0
 10
159.9491840512704
 20
215.0590423132972
 30
0.0
 10
160.2533838643961
 20
215.0533835029465
 30
0.0
 10
160.4062884865927
 20
215.0494591592129
 30
0.0
 10
160.5239162762051
 20
215.0467968955304
 30
0.0
  0
SPLINE
  5
19A
330
1F
100
AcDbEntity
  8
0
  6
Continuous
 62
     7
370
    25
100
AcDbSpline
210
0.0
220
0.0
230
1.0
 70
     8
 71
     3
 72
    17
 73
    13
 74
     0
 42
0.000000001
 43
0.00000001
 40
0.0
 40
0.0
 40
0.0
 40
0.0
 40
0.0553284911496427
 40
0.1617266770628742
 40
0.2663362657637073
 40
0.3699221609032962
 40
0.4730484011757235
 40
0.5761746414481507
 40
0.6797605365877396
 40
0.7843701252885729
 40
0.8907683112018043
 40
1.0
 40
1.0
 40
1.0
 40
1.0
 10
157.3129518567301
 20
215.3715389184729
 30
0.0
 10
156.6265704455802
 20
215.3325309914225
 30
0.0
 10
154.6202590042874
 20
215.218509764928
 30
0.0
 10
151.4043003412148
 20
214.343484551257
 30
0.0
 10
147.7924920797037
 20
212.8415074580683
 30
0.0
 10
144.4986972566993
 20
210.7883785816877
 30
0.0
 10
141.5693964931057
 20
208.2768931905581
 30
0.0
 10
139.0568229364747
 20
205.3474351324761
 30
0.0
 10
137.0079213441643
 20
202.0531784489525
 30
0.0
 10
135.4898742039881
 20
198.4434083884072
 30
0.0
 10
134.4993993874903
 20
194.5686830811273
 30
0.0
 10
134.3756429260967
 20
191.8900476156396
 30
0.0
 10
134.312951579196
 20
190.5331304632203
 30
0.0
  0
SPLINE
  5
19B
330
1F
100
AcDbEntity
  8
0
  6
Continuous
 62
     7
370
    25
100
AcDbSpline
210
0.0
220
0.0
230
1.0
 70
     8
 71
     3
 72
     9
 73
     5
 74
     0
 42
0.000000001
 43
0.00000001
 40
0.0
 40
0.0
 40
0.0
 40
0.0
 40
0.2356102302128242
 40
1.0
 40
1.0
 40
1.0
 40
1.0
 10
134.556194409234
 20
187.522553639494
 30
0.0
 10
134.5777451946058
 20
187.1740579751069
 30
0.0
 10
134.6692131472168
 20
185.694938566445
 30
0.0
 10
135.1130977913018
 20
184.2731099561286
 30
0.0
 10
135.4523986722059
 20
183.186278712012
 30
0.0
  0
SPLINE
  5
19C
330
1F
100
AcDbEntity
  8
0
  6
Continuous
 62
     7
370
    25
100
AcDbSpline
210
0.0
220
0.0
230
1.0
 70
     8
 71
     3
 72
    16
 73
    12
 74
     0
 42
0.000000001
 43
0.00000001
 40
0.0
 40
0.0
 40
0.0
 40
0.0
 40
0.0949351241153917
 40
0.1919845118185841
 40
0.3482132738145553
 40
0.5157202746090401
 40
0.6354295361962594
 40
0.7557765963409201
 40
0.8766671032322326
 40
0.9382657941115166
 40
1.0
 40
1.0
 40
1.0
 40
1.0
 10
157.3176096337564
 20
215.0491820983664
 30
0.0
 10
157.3168856725151
 20
215.0474019386506
 30
0.0
 10
157.3154216269704
 20
215.0438019739676
 30
0.0
 10
157.3414056986544
 20
215.0395818570469
 30
0.0
 10
157.3933270093654
 20
215.0360848529584
 30
0.0
 10
157.4845655893583
 20
215.0350640497172
 30
0.0
 10
157.5998277704984
 20
215.0360579993385
 30
0.0
 10
157.7283048470958
 20
215.038309821168
 30
0.0
 10
157.8629106320934
 20
215.0412873681808
 30
0.0
 10
157.9901133423553
 20
215.0442366095447
 30
0.0
 10
158.0646689187948
 20
215.0459422784201
 30
0.0
 10
158.1019876668877
 20
215.0467960499303
 30
0.0
  0
SPLINE
  5
19D
330
1F
100
AcDbEntity
  8
0
  6
Continuous
 62
     7
370
    25
100
AcDbSpline
210
0.0
220
0.0
230
1.0
 70
     8
 71
     3
 72
    14
 73
    10
 74
     0
 42
0.000000001
 43
0.00000001
 40
0.0
 40
0.0
 40
0.0
 40
0.0
 40
0.2499999999999999
 40
0.2499999999999999
 40
0.4999999999999999
 40
0.4999999999999999
 40
0.7499999999999999
 40
0.7499999999999999
 40
1.0
 40
1.0
 40
1.0
 40
1.0
 10
158.1019876272447
 20
215.0467968955304
 30
0.0
 10
158.1607613058263
 20
215.0481271171599
 30
0.0
 10
158.2277587433143
 20
215.0497275982872
 30
0.0
 10
158.3836315205876
 20
215.0532829938882
 30
0.0
 10
158.4736559167064
 20
215.0552640389467
 30
0.0
 10
158.6761891590473
 20
215.0590332599741
 30
0.0
 10
158.7914753652666
 20
215.0608599114528
 30
0.0
 10
159.040268945681
 20
215.063497805453
 30
0.0
 10
159.1758361038438
 20
215.064303582361
 30
0.0
 10
159.3129519517248
 20
215.0643055186248
 30
0.0
  0
LINE
  5
19E
330
1F
100
AcDbEntity
  8
0
  6
Continuous
 62
     7
370
    25
100
AcDbLine
 10
170.9265733282
 20
85.4310756885
 30
0.0
 11
171.262952141
 21
85.4310756885
 31
0.0
  0
LINE
  5
19F
330
1F
100
AcDbEntity
  8
0
  6
Continuous
 62
     7
370
    25
100
AcDbLine
 10
170.9265733282
 20
82.4810779058
 30
0.0
 11
170.9265733282
 21
85.4310756885
 31
0.0
  0
LINE
  5
1A0
330
1F
100
AcDbEntity
  8
0
  6
Continuous
 62
     7
370
    25
100
AcDbLine
 10
149.2203358705
 20
82.4810779058
 30
0.0
 11
170.9265733282
 21
82.4810779058
 31
0.0
  0
LINE
  5
1A1
330
1F
100
AcDbEntity
  8
0
  6
Continuous
 62
     7
370
    25
100
AcDbLine
 10
149.2203358705
 20
82.4810779058
 30
0.0
 11
149.2203358705
 21
85.4310756885
 31
0.0
  0
LINE
  5
1A2
330
1F
100
AcDbEntity
  8
0
  6
Continuous
 62
     7
370
    25
100
AcDbLine
 10
149.2203358705
 20
85.4310756885
 30
0.0
 11
147.3629517625
 21
85.4310756885
 31
0.0
  0
LINE
  5
1A3
330
1F
100
AcDbEntity
  8
0
  6
Continuous
 62
     7
370
    25
100
AcDbLine
 10
147.6993305753
 20
85.4310756885
 30
0.0
 11
147.6993305753
 21
82.4810779058
 31
0.0
  0
LINE
  5
1A4
330
1F
100
AcDbEntity
  8
0
  6
Continuous
 62
     7
370
    25
100
AcDbLine
 10
148.6619902919
 20
81.7310801111
 30
0.0
 11
169.9639136116
 21
81.7310801111
 31
0.0
  0
SPLINE
  5
1A5
330
1F
100
AcDbEntity
  8
0
  6
Continuous
 62
     7
370
    25
100
AcDbSpline
210
0.0
220
0.0
230
1.0
 70
     8
 71
     3
 72
    14
 73
    10
 74
     0
 42
0.000000001
 43
0.00000001
 40
0.0
 40
0.0
 40
0.0
 40
0.0
 40
0.5000000000000048
 40
0.5000000000000048
 40
0.6250000000000027
 40
0.6250000000000027
 40
0.7500000000000004
 40
0.7500000000000004
 40
1.0
 40
1.0
 40
1.0
 40
1.0
 10
147.6993308299145
 20
82.48107922049239
 30
0.0
 10
147.9499976078063
 20
82.13388392936105
 30
0.0
 10
148.2023906875636
 20
81.93397599599689
 30
0.0
 10
148.5207907458083
 20
81.93226075238708
 30
0.0
 10
148.5846122083913
 20
81.94398623490865
 30
0.0
 10
148.7125371102377
 20
81.99149532582484
 30
0.0
 10
148.7767615863434
 20
82.02739905165076
 30
0.0
 10
148.9682672137498
 20
82.16852120866042
 30
0.0
 10
149.094765804968
 20
82.3071534914129
 30
0.0
 10
149.2203360645413
 20
82.48107922392003
 30
0.0
  0
SPLINE
  5
1A6
330
1F
100
AcDbEntity
  8
0
  6
Continuous
 62
     7
370
    25
100
AcDbSpline
210
0.0
220
0.0
230
1.0
 70
     8
 71
     3
 72
    10
 73
     6
 74
     0
 42
0.000000001
 43
0.00000001
 40
0.0
 40
0.0
 40
0.0
 40
0.0
 40
0.1801522370861991
 40
0.5895138704496647
 40
1.0
 40
1.0
 40
1.0
 40
1.0
 10
170.4618247369952
 20
82.02703952417534
 30
0.0
 10
170.4900115878887
 20
82.04145030987206
 30
0.0
 10
170.5822476868389
 20
82.08860686029698
 30
0.0
 10
170.7375552220982
 20
82.23740953714001
 30
0.0
 10
170.8635097067876
 20
82.39978088049885
 30
0.0
 10
170.9265733281798
 20
82.48107790575187
 30
0.0
  0
ARC
  5
1A7
330
1F
100
AcDbEntity
  8
0
  6
Continuous
 62
     7
370
    25
100
AcDbCircle
 10
159.3129519517
 20
213.455624161
 30
0.0
 40
20.0076164686531
100
AcDbArc
 50
84.2630213601
 51
95.7369786399
  0
SPLINE
  5
1A8
330
1F
100
AcDbEntity
  8
0
  6
Continuous
 62
     8
370
    18
100
AcDbSpline
210
0.0
220
0.0
230
1.0
 70
     8
 71
     3
 72
    18
 73
    14
 74
     0
 42
0.000000001
 43
0.00000001
 40
0.0
 40
0.0
 40
0.0
 40
0.0
 40
0.25
 40
0.25
 40
0.375
 40
0.375
 40
0.5
 40
0.5
 40
0.625
 40
0.625
 40
0.75
 40
0.75
 40
1.0
 40
1.0
 40
1.0
 40
1.0
 10
138.9101566365187
 20
115.356539885011
 30
0.0
 10
138.9361689177211
 20
113.7391078695329
 30
0.0
 10
138.9680982653676
 20
112.1062424140187
 30
0.0
 10
139.4713579622684
 20
109.7241995674187
 30
0.0
 10
139.7289374275297
 20
108.933669136137
 30
0.0
 10
140.4567479104325
 20
107.4685690430369
 30
0.0
 10
140.9372214114593
 20
106.7801887210769
 30
0.0
 10
142.1009094449269
 20
105.6403305751804
 30
0.0
 10
142.7989481184061
 20
105.1735722672598
 30
0.0
 10
144.2759538763575
 20
104.4734810374072
 30
0.0
 10
145.0716715015624
 20
104.229174000806
 30
0.0
 10
147.4660423177551
 20
103.7638090570695
 30
0.0
 10
149.0825377458465
 20
103.7563750260986
 30
0.0
 10
150.6937535416193
 20
103.7534403203706
 30
0.0
  0
SPLINE
  5
1A9
330
1F
100
AcDbEntity
  8
0
  6
Continuous
 62
     8
370
    18
100
AcDbSpline
210
0.0
220
0.0
230
1.0
 70
     8
 71
     3
 72
    18
 73
    14
 74
     0
 42
0.000000001
 43
0.00000001
 40
0.0
 40
0.0
 40
0.0
 40
0.0
 40
0.2500000000000001
 40
0.2500000000000001
 40
0.3750000000000001
 40
0.3750000000000001
 40
0.4999999999999998
 40
0.4999999999999998
 40
0.6249999999999998
 40
0.6249999999999998
 40
0.7499999999999999
 40
0.7499999999999999
 40
1.0
 40
1.0
 40
1.0
 40
1.0
 10
167.9321503618299
 20
103.7534403203705
 30
0.0
 10
169.5480017212174
 20
103.7563834693998
 30
0.0
 10
171.1900014507257
 20
103.7658743115336
 30
0.0
 10
173.5798883967261
 20
104.2361055920483
 30
0.0
 10
174.3740879904723
 20
104.4821127161743
 30
0.0
 10
175.8510396600747
 20
105.1878905615524
 30
0.0
 10
176.5475442740316
 20
105.6576753387574
 30
0.0
 10
177.7062167067122
 20
106.8022737300803
 30
0.0
 10
178.1814660314301
 20
107.4885940226854
 30
0.0
 10
178.9042796157008
 20
108.9532766732971
 30
0.0
 10
179.1590305274882
 20
109.7394057740406
 30
0.0
 10
179.660175719731
 20
112.1297073707049
 30
0.0
 10
179.6898236446204
 20
113.7446206618778
 30
0.0
 10
179.7157472669304
 20
115.356539885011
 30
0.0
  0
SPLINE
  5
1AA
330
1F
100
AcDbEntity
  8
0
  6
Continuous
 62
     8
370
    18
100
AcDbSpline
210
0.0
220
0.0
230
1.0
 70
     8
 71
     3
 72
     8
 73
     4
 74
     0
 42
0.000000001
 43
0.00000001
 40
0.0
 40
0.0
 40
0.0
 40
0.0
 40
1.0
 40
1.0
 40
1.0
 40
1.0
 10
150.6994507002926
 20
103.7534309547935
 30
0.0
 10
153.5706550926973
 20
103.7504475586065
 30
0.0
 10
156.4417969914221
 20
103.7490380578426
 30
0.0
 10
159.3129519517247
 20
103.7490449138069
 30
0.0
  0
SPLINE
  5
1AB
330
1F
100
AcDbEntity
  8
0
  6
Continuous
 62
     8
370
    18
100
AcDbSpline
210
0.0
220
0.0
230
1.0
 70
     8
 71
     3
 72
     8
 73
     4
 74
     0
 42
0.000000001
 43
0.00000001
 40
0.0
 40
0.0
 40
0.0
 40
0.0
 40
1.0
 40
1.0
 40
1.0
 40
1.0
 10
159.3129519517246
 20
103.749044913807
 30
0.0
 10
162.1841069594569
 20
103.7490380578454
 30
0.0
 10
165.0552488634503
 20
103.7504475585229
 30
0.0
 10
167.9264532031564
 20
103.7534309547936
 30
0.0
  0
SPLINE
  5
1AC
330
1F
100
AcDbEntity
  8
0
  6
Continuous
 62
     8
370
    18
100
AcDbSpline
210
0.0
220
0.0
230
1.0
 70
     8
 71
     3
 72
    10
 73
     6
 74
     0
 42
0.000000001
 43
0.00000001
 40
0.0
 40
0.0
 40
0.0
 40
0.0
 40
0.5
 40
0.5
 40
1.0
 40
1.0
 40
1.0
 40
1.0
 10
180.4964397992842
 20
171.7242739110003
 30
0.0
 10
180.5011555228296
 20
174.8598042686556
 30
0.0
 10
180.5041945865233
 20
177.9925662691423
 30
0.0
 10
180.4489488927768
 20
184.2604503280096
 30
0.0
 10
180.4082772106995
 20
187.3943238471502
 30
0.0
 10
180.3705305727283
 20
190.5278389816675
 30
0.0
  0
SPLINE
  5
1AD
330
1F
100
AcDbEntity
  8
0
  6
Continuous
 62
     8
370
    18
100
AcDbSpline
210
0.0
220
0.0
230
1.0
 70
     8
 71
     3
 72
    12
 73
     8
 74
     0
 42
0.000000001
 43
0.00000001
 40
0.0
 40
0.0
 40
0.0
 40
0.0
 40
0.5
 40
0.5
 40
0.75
 40
0.75
 40
1.0
 40
1.0
 40
1.0
 40
1.0
 10
179.716234800676
 20
115.387108894647
 30
0.0
 10
179.8543505094616
 20
124.776742576707
 30
0.0
 10
179.9927574314153
 20
134.1663715294768
 30
0.0
 10
180.2006591160713
 20
148.2508101877073
 30
0.0
 10
180.2699877240621
 20
152.9456226025086
 30
0.0
 10
180.4087750458263
 20
162.3352453045599
 30
0.0
 10
180.4743505532701
 20
167.0304269676001
 30
0.0
 10
180.4959679552115
 20
171.7261756310056
 30
0.0
  0
SPLINE
  5
1AE
330
1F
100
AcDbEntity
  8
0
  6
Continuous
 62
     8
370
    18
100
AcDbSpline
210
0.0
220
0.0
230
1.0
 70
     8
 71
     3
 72
    10
 73
     6
 74
     0
 42
0.000000001
 43
0.00000001
 40
0.0
 40
0.0
 40
0.0
 40
0.0
 40
0.5
 40
0.5
 40
1.0
 40
1.0
 40
1.0
 40
1.0
 10
138.2553733307209
 20
190.5278389816675
 30
0.0
 10
138.2176266929357
 20
187.3943238471419
 30
0.0
 10
138.1769550106208
 20
184.2604503280188
 30
0.0
 10
138.1217093169774
 20
177.9925662691334
 30
0.0
 10
138.1247483805922
 20
174.8598042686621
 30
0.0
 10
138.1294641041649
 20
171.7242739110002
 30
0.0
  0
SPLINE
  5
1AF
330
1F
100
AcDbEntity
  8
0
  6
Continuous
 62
     8
370
    18
100
AcDbSpline
210
0.0
220
0.0
230
1.0
 70
     8
 71
     3
 72
    12
 73
     8
 74
     0
 42
0.000000001
 43
0.00000001
 40
0.0
 40
0.0
 40
0.0
 40
0.0
 40
0.2500000000000002
 40
0.2500000000000002
 40
0.5000000000000001
 40
0.5000000000000001
 40
1.0
 40
1.0
 40
1.0
 40
1.0
 10
138.1299359482377
 20
171.7261756310055
 30
0.0
 10
138.1515520480554
 20
167.0307098194818
 30
0.0
 10
138.2171245977401
 20
162.3355333149766
 30
0.0
 10
138.3559127767312
 20
152.9458529992737
 30
0.0
 10
138.425241810389
 20
148.2510117895418
 30
0.0
 10
138.6331447737925
 20
134.1664867305033
 30
0.0
 10
138.7715525463466
 20
124.7768001775971
 30
0.0
 10
138.9096691027731
 20
115.3871088946469
 30
0.0
  0
LWPOLYLINE
  5
1B0
330
1F
100
AcDbEntity
  8
0
  6
Continuous
 62
     8
370
    18
100
AcDbPolyline
 90
        9
 70
   128
 43
0.0
 10
159.312945388
 20
102.5530612432
 10
159.3129466332
 20
102.5677835904
 10
159.3129478333
 20
102.6291614734
 10
159.3129489447
 20
102.7349597178
 10
159.3129499273
 20
102.881356176
 10
159.3129507453
 20
103.0630460344
 10
159.3129513691
 20
103.2734280787
 10
159.3129517762
 20
103.5048952662
 10
159.3129519517
 20
103.7490433417
  0
SPLINE
  5
1B1
330
1F
100
AcDbEntity
  8
0
  6
Continuous
 62
     8
370
    18
100
AcDbSpline
210
0.0
220
0.0
230
1.0
 70
     8
 71
     3
 72
    24
 73
    20
 74
     0
 42
0.000000001
 43
0.00000001
 40
0.0
 40
0.0
 40
0.0
 40
0.0
 40
0.125
 40
0.125
 40
0.2500000000000001
 40
0.2500000000000001
 40
0.3750000000000001
 40
0.3750000000000001
 40
0.5000000000000001
 40
0.5000000000000001
 40
0.6250000000000002
 40
0.6250000000000002
 40
0.7500000000000001
 40
0.7500000000000001
 40
0.8125000000000001
 40
0.8125000000000001
 40
0.8750000000000001
 40
0.8750000000000001
 40
1.0
 40
1.0
 40
1.0
 40
1.0
 10
159.3129516483653
 20
208.1239557200367
 30
0.0
 10
157.941430036752
 20
208.1239511829174
 30
0.0
 10
156.5699508535189
 20
208.1207012226917
 30
0.0
 10
153.8274281116796
 20
208.1034169061487
 30
0.0
 10
152.4568193229946
 20
208.1107348340007
 30
0.0
 10
149.7022031341741
 20
207.9787579844905
 30
0.0
 10
148.3295814266951
 20
207.7929168770079
 30
0.0
 10
145.6972545953354
 20
206.9540914525237
 30
0.0
 10
144.4558972629604
 20
206.3116574553758
 30
0.0
 10
142.2521947529961
 20
204.6498499473487
 30
0.0
 10
141.2850840182795
 20
203.6347675224235
 30
0.0
 10
139.7330816936271
 20
201.3490087039184
 30
0.0
 10
139.1489637816101
 20
200.0687840107418
 30
0.0
 10
138.628805583421
 20
198.0647229575115
 30
0.0
 10
138.5112523933857
 20
197.3745897255427
 30
0.0
 10
138.3658247752414
 20
196.0005522796928
 30
0.0
 10
138.335945053278
 20
195.3138130681369
 30
0.0
 10
138.2857494355648
 20
193.2585836031922
 30
0.0
 10
138.275133659043
 20
191.8955930495027
 30
0.0
 10
138.2550180808496
 20
190.5278389816653
 30
0.0
  0
SPLINE
  5
1B2
330
1F
100
AcDbEntity
  8
0
  6
Continuous
 62
     8
370
    18
100
AcDbSpline
210
0.0
220
0.0
230
1.0
 70
     8
 71
     3
 72
    22
 73
    18
 74
     0
 42
0.000000001
 43
0.00000001
 40
0.0
 40
0.0
 40
0.0
 40
0.0
 40
0.125
 40
0.125
 40
0.25
 40
0.25
 40
0.3750000000000001
 40
0.3750000000000001
 40
0.5000000000000002
 40
0.5000000000000002
 40
0.6250000000000002
 40
0.6250000000000002
 40
0.7500000000000002
 40
0.7500000000000002
 40
0.8750000000000001
 40
0.8750000000000001
 40
1.0
 40
1.0
 40
1.0
 40
1.0
 10
180.3708858225995
 20
190.5278389816653
 30
0.0
 10
180.3508578900623
 20
191.8896336045376
 30
0.0
 10
180.3399852101676
 20
193.2465836843547
 30
0.0
 10
180.2742658775583
 20
195.9750345892928
 30
0.0
 10
180.1807443405496
 20
197.3476759653994
 30
0.0
 10
179.4771678599581
 20
200.077263658485
 30
0.0
 10
178.8996005705336
 20
201.3423231466626
 30
0.0
 10
177.3155475654929
 20
203.6686518579563
 30
0.0
 10
176.3522401918127
 20
204.673968524754
 30
0.0
 10
174.0997588417676
 20
206.3563722200819
 30
0.0
 10
172.8600928583648
 20
206.9872217698301
 30
0.0
 10
170.179133392125
 20
207.8181644383039
 30
0.0
 10
168.815058836789
 20
207.988156962858
 30
0.0
 10
166.0954957012191
 20
208.1097735665104
 30
0.0
 10
164.7396101914092
 20
208.1039135990299
 30
0.0
 10
162.0271057309196
 20
208.1207531896216
 30
0.0
 10
160.670229595941
 20
208.1239512300571
 30
0.0
 10
159.3129522550838
 20
208.1239557200367
 30
0.0
  0
LINE
  5
1B3
330
1F
100
AcDbEntity
  8
0
  6
Continuous
 62
     8
370
    18
100
AcDbLine
 10
136.994247898
 20
190.5278055755
 30
0.0
 11
136.9588762666
 21
181.7680476569
 31
0.0
  0
LINE
  5
1B4
330
1F
100
AcDbEntity
  8
0
  6
Continuous
 62
     8
370
    18
100
AcDbLine
 10
181.6670276369
 20
181.7680476569
 30
0.0
 11
181.6316560055
 21
190.527805575
 31
0.0
  0
SPLINE
  5
1B5
330
1F
100
AcDbEntity
  8
0
  6
Continuous
 62
     8
370
    18
100
AcDbSpline
210
0.0
220
0.0
230
1.0
 70
     8
 71
     3
 72
    24
 73
    20
 74
     0
 42
0.000000001
 43
0.00000001
 40
0.0
 40
0.0
 40
0.0
 40
0.0
 40
0.1249999999999998
 40
0.1249999999999998
 40
0.1874999999999997
 40
0.1874999999999997
 40
0.2499999999999996
 40
0.2499999999999996
 40
0.3749999999999995
 40
0.3749999999999995
 40
0.4999999999999994
 40
0.4999999999999994
 40
0.6249999999999996
 40
0.6249999999999996
 40
0.7499999999999997
 40
0.7499999999999997
 40
0.8749999999999999
 40
0.8749999999999999
 40
1.0
 40
1.0
 40
1.0
 40
1.0
 10
136.994088300332
 20
190.5297193684416
 30
0.0
 10
137.0133093697113
 20
191.912123629068
 30
0.0
 10
137.0260859403114
 20
193.2466329411432
 30
0.0
 10
137.0848867523061
 20
195.3513962284804
 30
0.0
 10
137.118285142091
 20
196.0709194675965
 30
0.0
 10
137.2793262432886
 20
197.5463506168577
 30
0.0
 10
137.4090888155177
 20
198.29928672104
 30
0.0
 10
137.9843162638849
 20
200.5005853093577
 30
0.0
 10
138.6291905997902
 20
201.9171754198375
 30
0.0
 10
140.3314076166579
 20
204.4341616447075
 30
0.0
 10
141.387686828455
 20
205.5498845439035
 30
0.0
 10
143.807224815558
 20
207.387366652328
 30
0.0
 10
145.1757228609306
 20
208.1026797012827
 30
0.0
 10
148.0777073419502
 20
209.0401965073594
 30
0.0
 10
149.5738612830835
 20
209.2447331124631
 30
0.0
 10
152.4460347418476
 20
209.4025379525948
 30
0.0
 10
153.8019200371896
 20
209.4069249160158
 30
0.0
 10
156.5572841284398
 20
209.4427773314366
 30
0.0
 10
157.9351002334519
 20
209.4511887082113
 30
0.0
 10
159.3129519517246
 20
209.4511894052613
 30
0.0
  0
LINE
  5
1B6
330
1F
100
AcDbEntity
  8
0
  6
Continuous
 62
     8
370
    18
100
AcDbLine
 10
159.3129519517
 20
209.4511902295
 30
0.0
 11
159.3129522551
 21
208.1239549778
 31
0.0
  0
SPLINE
  5
1B7
330
1F
100
AcDbEntity
  8
0
  6
Continuous
 62
     8
370
    18
100
AcDbSpline
210
0.0
220
0.0
230
1.0
 70
     8
 71
     3
 72
    22
 73
    18
 74
     0
 42
0.000000001
 43
0.00000001
 40
0.0
 40
0.0
 40
0.0
 40
0.0
 40
0.1250000000000002
 40
0.1250000000000002
 40
0.2500000000000004
 40
0.2500000000000004
 40
0.3750000000000006
 40
0.3750000000000006
 40
0.5000000000000007
 40
0.5000000000000007
 40
0.6250000000000006
 40
0.6250000000000006
 40
0.7500000000000004
 40
0.7500000000000004
 40
0.8750000000000002
 40
0.8750000000000002
 40
1.0
 40
1.0
 40
1.0
 40
1.0
 10
159.3129519517245
 20
209.4511894052612
 30
0.0
 10
160.6764994349506
 20
209.451188715401
 30
0.0
 10
162.0396322907747
 20
209.4429472702189
 30
0.0
 10
164.7648475658436
 20
209.4078950357697
 30
0.0
 10
166.1060764193177
 20
209.4020627606291
 30
0.0
 10
168.9360180824781
 20
209.2553411868508
 30
0.0
 10
170.4205642433306
 20
209.068155718021
 30
0.0
 10
173.3731444700208
 20
208.1399492138206
 30
0.0
 10
174.7413728247024
 20
207.4369793421278
 30
0.0
 10
177.2148165487216
 20
205.5763886005341
 30
0.0
 10
178.2668071935544
 20
204.4714536998626
 30
0.0
 10
180.0041187911514
 20
201.9098333386567
 30
0.0
 10
180.6418411000126
 20
200.5097112265279
 30
0.0
 10
181.4199021108231
 20
197.5118598434256
 30
0.0
 10
181.5225923244927
 20
196.0279834750571
 30
0.0
 10
181.5996617991607
 20
193.2349219686427
 30
0.0
 10
181.6126791617644
 20
191.9060370718364
 30
0.0
 10
181.6318156031171
 20
190.5297193684415
 30
0.0
  0
SPLINE
  5
1B8
330
1F
100
AcDbEntity
  8
0
  6
Continuous
 62
     8
370
    18
100
AcDbSpline
210
0.0
220
0.0
230
1.0
 70
     8
 71
     3
 72
    20
 73
    16
 74
     0
 42
0.000000001
 43
0.00000001
 40
0.0
 40
0.0
 40
0.0
 40
0.0
 40
0.0863524715226758
 40
0.1524769181828047
 40
0.2201102110495702
 40
0.2763428012006695
 40
0.3344822807558276
 40
0.3903767410198761
 40
0.4479054819853757
 40
0.5376128988509936
 40
0.5827252150069491
 40
0.6271249135638653
 40
0.7186332578919444
 40
0.9919003041424169
 40
1.0
 40
1.0
 40
1.0
 40
1.0
 10
169.5667315418548
 20
87.4108216129319
 30
0.0
 10
170.280159933134
 20
87.5492132503989
 30
0.0
 10
171.5398964586577
 20
87.79357835091258
 30
0.0
 10
173.286402361494
 20
88.42319702198876
 30
0.0
 10
174.6977675559298
 20
89.18835008805092
 30
0.0
 10
175.8892761390512
 20
90.15993992027963
 30
0.0
 10
176.8211649617461
 20
91.25831391555553
 30
0.0
 10
177.5222193769467
 20
92.52742854799992
 30
0.0
 10
178.0918743307373
 20
94.14342917659246
 30
0.0
 10
178.3784927823459
 20
95.73919426383826
 30
0.0
 10
178.5955892299845
 20
97.22892626834987
 30
0.0
 10
178.7865784805962
 20
98.7383299087539
 30
0.0
 10
179.1556770763009
 20
102.1567071322641
 30
0.0
 10
179.4587050509909
 20
105.2775404846614
 30
0.0
 10
179.5843648714119
 20
107.6387960119451
 30
0.0
 10
179.587982236845
 20
107.7067694030778
 30
0.0
  0
SPLINE
  5
1B9
330
1F
100
AcDbEntity
  8
0
  6
Continuous
 62
     8
370
    18
100
AcDbSpline
210
0.0
220
0.0
230
1.0
 70
     8
 71
     3
 72
     9
 73
     5
 74
     0
 42
0.000000001
 43
0.00000001
 40
0.0
 40
0.0
 40
0.0
 40
0.0
 40
0.6139423783266169
 40
1.0
 40
1.0
 40
1.0
 40
1.0
 10
181.5510109211035
 20
158.7770125232713
 30
0.0
 10
181.7221112363668
 20
164.629113840239
 30
0.0
 10
182.0008023990941
 20
174.1611180210197
 30
0.0
 10
182.1793684040494
 20
183.6955366416492
 30
0.0
 10
182.2483051712341
 20
187.3763716183678
 30
0.0
  0
SPLINE
  5
1BA
330
1F
100
AcDbEntity
  8
0
  6
Continuous
 62
     8
370
    18
100
AcDbSpline
210
0.0
220
0.0
230
1.0
 70
     8
 71
     3
 72
     9
 73
     5
 74
     0
 42
0.000000001
 43
0.00000001
 40
0.0
 40
0.0
 40
0.0
 40
0.0
 40
0.3848848410897743
 40
1.0
 40
1.0
 40
1.0
 40
1.0
 10
136.3785095656938
 20
187.3309631235973
 30
0.0
 10
136.4471785164056
 20
183.6652651757527
 30
0.0
 10
136.625592793563
 20
174.1411229999646
 30
0.0
 10
136.904018439647
 20
164.6193925041045
 30
0.0
 10
137.0752822751827
 20
158.7624317370431
 30
0.0
  0
SPLINE
  5
1BB
330
1F
100
AcDbEntity
  8
0
  6
Continuous
 62
     8
370
    18
100
AcDbSpline
210
0.0
220
0.0
230
1.0
 70
     8
 71
     3
 72
    19
 73
    15
 74
     0
 42
0.000000001
 43
0.00000001
 40
0.0
 40
0.0
 40
0.0
 40
0.0
 40
0.0034088785347623
 40
0.2771026495562239
 40
0.4142150174303803
 40
0.4829156208022193
 40
0.5518310894462815
 40
0.6078591583777073
 40
0.6653193645946642
 40
0.7215317752252848
 40
0.7797592423826641
 40
0.8457712503317997
 40
0.913597010000665
 40
0.9999999999999999
 40
0.9999999999999999
 40
0.9999999999999999
 40
0.9999999999999999
 10
139.0369083876438
 20
107.6915851198212
 30
0.0
 10
139.0384331492693
 20
107.6629944279319
 30
0.0
 10
139.1623787466487
 20
105.338899745649
 30
0.0
 10
139.4985090644403
 20
101.8746232169065
 30
0.0
 10
139.9323596344122
 20
97.87021078221872
 30
0.0
 10
140.270071307842
 20
95.58793537164384
 30
0.0
 10
140.5889678016757
 20
93.99001915716232
 30
0.0
 10
141.0986772918926
 20
92.53964235537934
 30
0.0
 10
141.7883763542529
 20
91.28265001584376
 30
0.0
 10
142.7244125317532
 20
90.1717900003606
 30
0.0
 10
143.9027976949498
 20
89.20507971361555
 30
0.0
 10
145.326323531911
 20
88.42877101955825
 30
0.0
 10
147.0723529273286
 20
87.79627866054327
 30
0.0
 10
148.3457704639627
 20
87.54922663579359
 30
0.0
 10
149.0591723615951
 20
87.4108216129319
 30
0.0
  0
SPLINE
  5
1BC
330
1F
100
AcDbEntity
  8
0
  6
Continuous
 62
     8
370
    18
100
AcDbSpline
210
0.0
220
0.0
230
1.0
 70
     8
 71
     3
 72
    10
 73
     6
 74
     0
 42
0.000000001
 43
0.00000001
 40
0.0
 40
0.0
 40
0.0
 40
0.0
 40
0.5
 40
0.5
 40
1.0
 40
1.0
 40
1.0
 40
1.0
 10
159.3135809619312
 20
86.5512138657232
 30
0.0
 10
161.0306749337323
 20
86.54907970503616
 30
0.0
 10
162.7473813405747
 20
86.6176354232484
 30
0.0
 10
166.1693923503211
 20
86.90377273084732
 30
0.0
 10
167.873115897852
 20
87.1241530582747
 30
0.0
 10
169.566068829417
 20
87.41073524538554
 30
0.0
  0
SPLINE
  5
1BD
330
1F
100
AcDbEntity
  8
0
  6
Continuous
 62
     8
370
    18
100
AcDbSpline
210
0.0
220
0.0
230
1.0
 70
     8
 71
     3
 72
    23
 73
    19
 74
     0
 42
0.000000001
 43
0.00000001
 40
0.0
 40
0.0
 40
0.0
 40
0.0
 40
0.0765239764182266
 40
0.1506534693801117
 40
0.2223957920224673
 40
0.2917899309432913
 40
0.3589004564693135
 40
0.4238186148028856
 40
0.4866825844373114
 40
0.5476736684354866
 40
0.6070101690981232
 40
0.6649420434269856
 40
0.7217463473905832
 40
0.7777233652676819
 40
0.8331930557685459
 40
0.8884924198513995
 40
0.943973249844063
 40
1.0
 40
1.0
 40
1.0
 40
1.0
 10
149.0598375749071
 20
87.41073482203848
 30
0.0
 10
149.3190735698845
 20
87.36787698572718
 30
0.0
 10
149.829433902156
 20
87.28350236181662
 30
0.0
 10
150.5848241084549
 20
87.1714452745616
 30
0.0
 10
151.3171872182867
 20
87.07142552246502
 30
0.0
 10
152.0268104076455
 20
86.98334638441955
 30
0.0
 10
152.7141008851838
 20
86.90595581607289
 30
0.0
 10
153.3798702839576
 20
86.83817097900368
 30
0.0
 10
154.0253690881332
 20
86.7790751713378
 30
0.0
 10
154.6523172867736
 20
86.72791350406034
 30
0.0
 10
155.2628411163502
 20
86.68406130025106
 30
0.0
 10
155.8594120405231
 20
86.64700962727353
 30
0.0
 10
156.4447945205744
 20
86.61634593694664
 30
0.0
 10
157.0220012950829
 20
86.5917563606621
 30
0.0
 10
157.5942566115145
 20
86.57296369339699
 30
0.0
 10
158.1649651316127
 20
86.55993179966786
 30
0.0
 10
158.7376876700784
 20
86.55207435657428
 30
0.0
 10
159.1205723473603
 20
86.55150215103163
 30
0.0
 10
159.3129519517247
 20
86.55121464755491
 30
0.0
  0
SPLINE
  5
1BE
330
1F
100
AcDbEntity
  8
0
  6
Continuous
 62
     8
370
    18
100
AcDbSpline
210
0.0
220
0.0
230
1.0
 70
     8
 71
     3
 72
    13
 73
     9
 74
     0
 42
0.000000001
 43
0.00000001
 40
0.0
 40
0.0
 40
0.0
 40
0.0
 40
0.2082813210478821
 40
0.4164335121620489
 40
0.624558398397403
 40
0.7893109746308647
 40
0.9540638270275371
 40
0.9999999999999999
 40
0.9999999999999999
 40
0.9999999999999999
 40
0.9999999999999999
 10
135.3137061143942
 20
190.0650186915958
 30
0.0
 10
135.3027940214258
 20
190.023942774936
 30
0.0
 10
135.2809766007516
 20
189.9418164078001
 30
0.0
 10
135.2212656586849
 20
189.4428634370408
 30
0.0
 10
135.1846509348918
 20
188.6688512073705
 30
0.0
 10
135.2115657602037
 20
187.6071984164091
 30
0.0
 10
135.2591583606261
 20
186.7195308382461
 30
0.0
 10
135.3729760298463
 20
186.0422960824309
 30
0.0
 10
135.3977915043659
 20
185.8946397304611
 30
0.0
  0
ENDSEC
  0
SECTION
  2
OBJECTS
  0
DICTIONARY
  5
C
330
0
100
AcDbDictionary
281
     1
  3
ACAD_GROUP
350
D
  3
ACAD_LAYOUT
350
1A
  3
ACAD_MLINESTYLE
350
17
  3
ACAD_PLOTSETTINGS
350
19
  3
ACAD_PLOTSTYLENAME
350
E
  3
ACAD_SCALELIST
350
47
  0
DICTIONARY
  5
D
102
{ACAD_REACTORS
330
C
102
}
330
C
100
AcDbDictionary
281
     1
  0
DICTIONARY
  5
1A
102
{ACAD_REACTORS
330
C
102
}
330
C
100
AcDbDictionary
281
     1
  3
Layout1
350
1E
  3
Layout2
350
26
  3
Model
350
22
  0
DICTIONARY
  5
17
102
{ACAD_REACTORS
330
C
102
}
330
C
100
AcDbDictionary
281
     1
  3
Standard
350
18
  0
DICTIONARY
  5
19
102
{ACAD_REACTORS
330
C
102
}
330
C
100
AcDbDictionary
281
     1
  0
ACDBDICTIONARYWDFLT
  5
E
102
{ACAD_REACTORS
330
C
102
}
330
C
100
AcDbDictionary
281
     1
  3
Normal
350
F
100
AcDbDictionaryWithDefault
340
F
  0
DICTIONARY
  5
47
102
{ACAD_REACTORS
330
C
102
}
330
C
100
AcDbDictionary
281
     1
  3
A0
350
48
  3
A1
350
49
  3
A2
350
4A
  3
A3
350
4B
  3
A4
350
4C
  3
A5
350
4D
  3
A6
350
4E
  3
A7
350
4F
  3
A8
350
50
  3
A9
350
51
  3
B0
350
52
  3
B1
350
53
  3
B2
350
54
  3
B3
350
55
  3
B4
350
56
  3
B5
350
57
  3
B6
350
58
  3
B7
350
59
  3
B8
350
5A
  3
B9
350
5B
  3
C0
350
5C
  3
C1
350
5D
  3
C2
350
5E
  3
C3
350
5F
  3
C4
350
60
  3
C5
350
61
  3
C6
350
62
  3
C7
350
63
  3
C8
350
64
  3
C9
350
65
  3
D0
350
66
  3
D1
350
67
  3
D2
350
68
  0
LAYOUT
  5
1E
102
{ACAD_REACTORS
330
1A
102
}
330
1A
100
AcDbPlotSettings
  1

  2
none_device
  4

  6

 40
0.0
 41
0.0
 42
0.0
 43
0.0
 44
0.0
 45
0.0
 46
0.0
 47
0.0
 48
0.0
 49
0.0
140
0.0
141
0.0
142
1.0
143
1.0
 70
   688
 72
     1
 73
     0
 74
     5
  7

 75
    16
147
1.0
148
0.0
149
0.0
100
AcDbLayout
  1
Layout1
 70
     1
 71
     1
 10
0.0
 20
0.0
 11
420.0
 21
297.0
 12
0.0
 22
0.0
 32
0.0
 14
1.0000000000E+20
 24
1.0000000000E+20
 34
1.0000000000E+20
 15
-1.0000000000E+20
 25
-1.0000000000E+20
 35
-1.0000000000E+20
146
0.0
 13
0.0
 23
0.0
 33
0.0
 16
1.0
 26
0.0
 36
0.0
 17
0.0
 27
1.0
 37
0.0
 76
     0
330
1B
  0
LAYOUT
  5
26
102
{ACAD_REACTORS
330
1A
102
}
330
1A
100
AcDbPlotSettings
  1

  2
none_device
  4

  6

 40
0.0
 41
0.0
 42
0.0
 43
0.0
 44
0.0
 45
0.0
 46
0.0
 47
0.0
 48
0.0
 49
0.0
140
0.0
141
0.0
142
1.0
143
1.0
 70
   688
 72
     1
 73
     0
 74
     5
  7

 75
    16
147
1.0
148
0.0
149
0.0
100
AcDbLayout
  1
Layout2
 70
     1
 71
     2
 10
0.0
 20
0.0
 11
0.0
 21
0.0
 12
0.0
 22
0.0
 32
0.0
 14
0.0
 24
0.0
 34
0.0
 15
0.0
 25
0.0
 35
0.0
146
0.0
 13
0.0
 23
0.0
 33
0.0
 16
1.0
 26
0.0
 36
0.0
 17
0.0
 27
1.0
 37
0.0
 76
     0
330
23
  0
LAYOUT
  5
22
102
{ACAD_REACTORS
330
1A
102
}
330
1A
100
AcDbPlotSettings
  1

  2
none_device
  4
Letter_(8.50_x_11.00_Inches)
  6

 40
6.35
 41
6.35
 42
6.35000508
 43
6.35000508
 44
215.9
 45
279.4
 46
0.0
 47
0.0
 48
0.0
 49
0.0
140
0.0
141
0.0
142
1.0
143
1.0
 70
  1712
 72
     1
 73
     0
 74
     0
  7

 75
     0
147
1.0
148
0.0
149
0.0
100
AcDbLayout
  1
Model
 70
     1
 71
     0
 10
0.0
 20
0.0
 11
594.0
 21
841.0
 12
0.0
 22
0.0
 32
0.0
 14
0.0
 24
0.0
 34
0.0
 15
594.0
 25
841.0
 35
0.0
146
0.0
 13
0.0
 23
0.0
 33
0.0
 16
1.0
 26
0.0
 36
0.0
 17
0.0
 27
1.0
 37
0.0
 76
     0
330
1F
331
29
  0
MLINESTYLE
  5
18
102
{ACAD_REACTORS
330
17
102
}
330
17
100
AcDbMlineStyle
  2
Standard
 70
     0
  3

 62
   256
 51
90.0
 52
90.0
 71
     2
 49
0.5
 62
   256
  6
BYLAYER
 49
-0.5
 62
   256
  6
BYLAYER
  0
ACDBPLACEHOLDER
  5
F
102
{ACAD_REACTORS
330
E
102
}
330
E
  0
SCALE
  5
48
102
{ACAD_REACTORS
330
47
102
}
330
47
100
AcDbScale
 70
     0
300
1:1
140
1.0
141
1.0
290
     1
  0
SCALE
  5
49
102
{ACAD_REACTORS
330
47
102
}
330
47
100
AcDbScale
 70
     0
300
1:2
140
1.0
141
2.0
290
     0
  0
SCALE
  5
4A
102
{ACAD_REACTORS
330
47
102
}
330
47
100
AcDbScale
 70
     0
300
1:4
140
1.0
141
4.0
290
     0
  0
SCALE
  5
4B
102
{ACAD_REACTORS
330
47
102
}
330
47
100
AcDbScale
 70
     0
300
1:5
140
1.0
141
5.0
290
     0
  0
SCALE
  5
4C
102
{ACAD_REACTORS
330
47
102
}
330
47
100
AcDbScale
 70
     0
300
1:8
140
1.0
141
8.0
290
     0
  0
SCALE
  5
4D
102
{ACAD_REACTORS
330
47
102
}
330
47
100
AcDbScale
 70
     0
300
1:10
140
1.0
141
10.0
290
     0
  0
SCALE
  5
4E
102
{ACAD_REACTORS
330
47
102
}
330
47
100
AcDbScale
 70
     0
300
1:16
140
1.0
141
16.0
290
     0
  0
SCALE
  5
4F
102
{ACAD_REACTORS
330
47
102
}
330
47
100
AcDbScale
 70
     0
300
1:20
140
1.0
141
20.0
290
     0
  0
SCALE
  5
50
102
{ACAD_REACTORS
330
47
102
}
330
47
100
AcDbScale
 70
     0
300
1:30
140
1.0
141
30.0
290
     0
  0
SCALE
  5
51
102
{ACAD_REACTORS
330
47
102
}
330
47
100
AcDbScale
 70
     0
300
1:40
140
1.0
141
40.0
290
     0
  0
SCALE
  5
52
102
{ACAD_REACTORS
330
47
102
}
330
47
100
AcDbScale
 70
     0
300
1:50
140
1.0
141
50.0
290
     0
  0
SCALE
  5
53
102
{ACAD_REACTORS
330
47
102
}
330
47
100
AcDbScale
 70
     0
300
1:100
140
1.0
141
100.0
290
     0
  0
SCALE
  5
54
102
{ACAD_REACTORS
330
47
102
}
330
47
100
AcDbScale
 70
     0
300
2:1
140
2.0
141
1.0
290
     0
  0
SCALE
  5
55
102
{ACAD_REACTORS
330
47
102
}
330
47
100
AcDbScale
 70
     0
300
4:1
140
4.0
141
1.0
290
     0
  0
SCALE
  5
56
102
{ACAD_REACTORS
330
47
102
}
330
47
100
AcDbScale
 70
     0
300
8:1
140
8.0
141
1.0
290
     0
  0
SCALE
  5
57
102
{ACAD_REACTORS
330
47
102
}
330
47
100
AcDbScale
 70
     0
300
10:1
140
10.0
141
1.0
290
     0
  0
SCALE
  5
58
102
{ACAD_REACTORS
330
47
102
}
330
47
100
AcDbScale
 70
     0
300
100:1
140
100.0
141
1.0
290
     0
  0
SCALE
  5
59
102
{ACAD_REACTORS
330
47
102
}
330
47
100
AcDbScale
 70
     0
300
1/128" = 1'-0"
140
0.0078125
141
12.0
290
     0
  0
SCALE
  5
5A
102
{ACAD_REACTORS
330
47
102
}
330
47
100
AcDbScale
 70
     0
300
1/64" = 1'-0"
140
0.015625
141
12.0
290
     0
  0
SCALE
  5
5B
102
{ACAD_REACTORS
330
47
102
}
330
47
100
AcDbScale
 70
     0
300
1/32" = 1'-0"
140
0.03125
141
12.0
290
     0
  0
SCALE
  5
5C
102
{ACAD_REACTORS
330
47
102
}
330
47
100
AcDbScale
 70
     0
300
1/16" = 1'-0"
140
0.0625
141
12.0
290
     0
  0
SCALE
  5
5D
102
{ACAD_REACTORS
330
47
102
}
330
47
100
AcDbScale
 70
     0
300
3/32" = 1'-0"
140
0.09375
141
12.0
290
     0
  0
SCALE
  5
5E
102
{ACAD_REACTORS
330
47
102
}
330
47
100
AcDbScale
 70
     0
300
1/8" = 1'-0"
140
0.125
141
12.0
290
     0
  0
SCALE
  5
5F
102
{ACAD_REACTORS
330
47
102
}
330
47
100
AcDbScale
 70
     0
300
3/16" = 1'-0"
140
0.1875
141
12.0
290
     0
  0
SCALE
  5
60
102
{ACAD_REACTORS
330
47
102
}
330
47
100
AcDbScale
 70
     0
300
1/4" = 1'-0"
140
0.25
141
12.0
290
     0
  0
SCALE
  5
61
102
{ACAD_REACTORS
330
47
102
}
330
47
100
AcDbScale
 70
     0
300
3/8" = 1'-0"
140
0.375
141
12.0
290
     0
  0
SCALE
  5
62
102
{ACAD_REACTORS
330
47
102
}
330
47
100
AcDbScale
 70
     0
300
1/2" = 1'-0"
140
0.5
141
12.0
290
     0
  0
SCALE
  5
63
102
{ACAD_REACTORS
330
47
102
}
330
47
100
AcDbScale
 70
     0
300
3/4" = 1'-0"
140
0.75
141
12.0
290
     0
  0
SCALE
  5
64
102
{ACAD_REACTORS
330
47
102
}
330
47
100
AcDbScale
 70
     0
300
1" = 1'-0"
140
1.0
141
12.0
290
     0
  0
SCALE
  5
65
102
{ACAD_REACTORS
330
47
102
}
330
47
100
AcDbScale
 70
     0
300
1-1/2" = 1'-0"
140
1.5
141
12.0
290
     0
  0
SCALE
  5
66
102
{ACAD_REACTORS
330
47
102
}
330
47
100
AcDbScale
 70
     0
300
3" = 1'-0"
140
3.0
141
12.0
290
     0
  0
SCALE
  5
67
102
{ACAD_REACTORS
330
47
102
}
330
47
100
AcDbScale
 70
     0
300
6" = 1'-0"
140
6.0
141
12.0
290
     0
  0
SCALE
  5
68
102
{ACAD_REACTORS
330
47
102
}
330
47
100
AcDbScale
 70
     0
300
1'-0" = 1'-0"
140
12.0
141
12.0
290
     0
  0
ENDSEC
  0
EOF
