  0
SECTION
  2
HEADER
  9
$ACADVER
  1
AC1024
  9
$ACADMAINTVER
 70
     6
  9
$DWGCODEPAGE
  3
ANSI_1252
  9
$INSBASE
 10
0.0
 20
0.0
 30
0.0
  9
$EXTMIN
 10
0.0
 20
0.0
 30
0.0
  9
$EXTMAX
 10
594.0
 20
841.0
 30
0.0
  9
$LIMMIN
 10
0.0
 20
0.0
  9
$LIMMAX
 10
594.0
 20
841.0
  9
$ORTHOMODE
 70
     0
  9
$REGENMODE
 70
     1
  9
$FILLMODE
 70
     1
  9
$QTEXTMODE
 70
     0
  9
$MIRRTEXT
 70
     1
  9
$LTSCALE
 40
1.0
  9
$ATTMODE
 70
     1
  9
$TEXTSIZE
 40
10.0
  9
$TRACEWID
 40
1.0
  9
$TEXTSTYLE
  7
Standard
  9
$CLAYER
  8
0
  9
$CELTYPE
  6
ByLayer
  9
$CECOLOR
 62
   256
  9
$CELTSCALE
 40
1.0
  9
$DISPSILH
 70
     0
  9
$DIMSCALE
 40
1.0
  9
$DIMASZ
 40
2.5
  9
$DIMEXO
 40
0.0
  9
$DIMDLI
 40
3.75
  9
$DIMRND
 40
0.0
  9
$DIMDLE
 40
0.0
  9
$DIMEXE
 40
1.0
  9
$DIMTP
 40
0.0
  9
$DIMTM
 40
0.0
  9
$DIMTXT
 40
3.5
  9
$DIMCEN
 40
2.5
  9
$DIMTSZ
 40
0.0
  9
$DIMTOL
 70
     0
  9
$DIMLIM
 70
     0
  9
$DIMTIH
 70
     1
  9
$DIMTOH
 70
     1
  9
$DIMSE1
 70
     0
  9
$DIMSE2
 70
     0
  9
$DIMTAD
 70
     1
  9
$DIMZIN
 70
     0
  9
$DIMBLK
  1

  9
$DIMASO
 70
     1
  9
$DIMSHO
 70
     1
  9
$DIMPOST
  1

  9
$DIMAPOST
  1

  9
$DIMALT
 70
     0
  9
$DIMALTD
 70
     3
  9
$DIMALTF
 40
0.0393700787
  9
$DIMLFAC
 40
1.0
  9
$DIMTOFL
 70
     1
  9
$DIMTVP
 40
0.0
  9
$DIMTIX
 70
     0
  9
$DIMSOXD
 70
     0
  9
$DIMSAH
 70
     0
  9
$DIMBLK1
  1

  9
$DIMBLK2
  1

  9
$DIMSTYLE
  2
ISO-25
  9
$DIMCLRD
 70
     0
  9
$DIMCLRE
 70
     0
  9
$DIMCLRT
 70
     0
  9
$DIMTFAC
 40
1.0
  9
$DIMGAP
 40
1.5
  9
$DIMJUST
 70
     0
  9
$DIMSD1
 70
     0
  9
$DIMSD2
 70
     0
  9
$DIMTOLJ
 70
     0
  9
$DIMTZIN
 70
     0
  9
$DIMALTZ
 70
     0
  9
$DIMALTTZ
 70
     0
  9
$DIMUPT
 70
     0
  9
$DIMDEC
 70
     2
  9
$DIMTDEC
 70
     2
  9
$DIMALTU
 70
     2
  9
$DIMALTTD
 70
     3
  9
$DIMTXSTY
  7
Standard
  9
$DIMAUNIT
 70
     0
  9
$DIMADEC
 70
     2
  9
$DIMALTRND
 40
0.0
  9
$DIMAZIN
 70
     0
  9
$DIMDSEP
 70
    44
  9
$DIMATFIT
 70
     3
  9
$DIMFRAC
 70
     0
  9
$DIMLDRBLK
  1

  9
$DIMLUNIT
 70
     2
  9
$DIMLWD
 70
    -2
  9
$DIMLWE
 70
    -2
  9
$DIMTMOVE
 70
     0
  9
$DIMFXL
 40
1.0
  9
$DIMFXLON
 70
     0
  9
$DIMJOGANG
 40
0.7853981634
  9
$DIMTFILL
 70
     0
  9
$DIMTFILLCLR
 70
     0
  9
$DIMARCSYM
 70
     0
  9
$DIMLTYPE
  6

  9
$DIMLTEX1
  6

  9
$DIMLTEX2
  6

  9
$DIMTXTDIRECTION
 70
     0
  9
$LUNITS
 70
     2
  9
$LUPREC
 70
     2
  9
$SKETCHINC
 40
1.0
  9
$FILLETRAD
 40
10.0
  9
$AUNITS
 70
     0
  9
$AUPREC
 70
     2
  9
$MENU
  1
.
  9
$ELEVATION
 40
0.0
  9
$PELEVATION
 40
0.0
  9
$THICKNESS
 40
0.0
  9
$LIMCHECK
 70
     0
  9
$CHAMFERA
 40
10.0
  9
$CHAMFERB
 40
10.0
  9
$CHAMFERC
 40
20.0
  9
$CHAMFERD
 40
0.0
  9
$SKPOLY
 70
     0
  9
$TDCREATE
 40
2456168.307911111
  9
$TDUCREATE
 40
2456168.224577778
  9
$TDUPDATE
 40
2456168.307911123
  9
$TDUUPDATE
 40
2456168.224577789
  9
$TDINDWG
 40
0.0000000116
  9
$TDUSRTIMER
 40
0.0000000116
  9
$USRTIMER
 70
     1
  9
$ANGBASE
 50
0.0
  9
$ANGDIR
 70
     0
  9
$PDMODE
 70
     0
  9
$PDSIZE
 40
-1.0
  9
$PLINEWID
 40
0.0
  9
$SPLFRAME
 70
     0
  9
$SPLINETYPE
 70
     6
  9
$SPLINESEGS
 70
     8
  9
$HANDSEED
  5
1D2
  9
$SURFTAB1
 70
     6
  9
$SURFTAB2
 70
     6
  9
$SURFTYPE
 70
     6
  9
$SURFU
 70
     6
  9
$SURFV
 70
     6
  9
$UCSBASE
  2

  9
$UCSNAME
  2

  9
$UCSORG
 10
0.0
 20
0.0
 30
0.0
  9
$UCSXDIR
 10
1.0
 20
0.0
 30
0.0
  9
$UCSYDIR
 10
0.0
 20
1.0
 30
0.0
  9
$UCSORTHOREF
  2

  9
$UCSORTHOVIEW
 70
     0
  9
$UCSORGTOP
 10
0.0
 20
0.0
 30
0.0
  9
$UCSORGBOTTOM
 10
0.0
 20
0.0
 30
0.0
  9
$UCSORGLEFT
 10
0.0
 20
0.0
 30
0.0
  9
$UCSORGRIGHT
 10
0.0
 20
0.0
 30
0.0
  9
$UCSORGFRONT
 10
0.0
 20
0.0
 30
0.0
  9
$UCSORGBACK
 10
0.0
 20
0.0
 30
0.0
  9
$PUCSBASE
  2

  9
$PUCSNAME
  2

  9
$PUCSORG
 10
0.0
 20
0.0
 30
0.0
  9
$PUCSXDIR
 10
1.0
 20
0.0
 30
0.0
  9
$PUCSYDIR
 10
0.0
 20
1.0
 30
0.0
  9
$PUCSORTHOREF
  2

  9
$PUCSORTHOVIEW
 70
     0
  9
$PUCSORGTOP
 10
0.0
 20
0.0
 30
0.0
  9
$PUCSORGBOTTOM
 10
0.0
 20
0.0
 30
0.0
  9
$PUCSORGLEFT
 10
0.0
 20
0.0
 30
0.0
  9
$PUCSORGRIGHT
 10
0.0
 20
0.0
 30
0.0
  9
$PUCSORGFRONT
 10
0.0
 20
0.0
 30
0.0
  9
$PUCSORGBACK
 10
0.0
 20
0.0
 30
0.0
  9
$USERI1
 70
     0
  9
$USERI2
 70
     0
  9
$USERI3
 70
     0
  9
$USERI4
 70
     0
  9
$USERI5
 70
     0
  9
$USERR1
 40
0.0
  9
$USERR2
 40
0.0
  9
$USERR3
 40
0.0
  9
$USERR4
 40
0.0
  9
$USERR5
 40
0.0
  9
$WORLDVIEW
 70
     1
  9
$SHADEDGE
 70
     3
  9
$SHADEDIF
 70
    70
  9
$TILEMODE
 70
     1
  9
$MAXACTVP
 70
    64
  9
$PINSBASE
 10
0.0
 20
0.0
 30
0.0
  9
$PLIMCHECK
 70
     0
  9
$PEXTMIN
 10
1.0000000000E+20
 20
1.0000000000E+20
 30
1.0000000000E+20
  9
$PEXTMAX
 10
-1.0000000000E+20
 20
-1.0000000000E+20
 30
-1.0000000000E+20
  9
$PLIMMIN
 10
0.0
 20
0.0
  9
$PLIMMAX
 10
420.0
 20
297.0
  9
$UNITMODE
 70
     0
  9
$VISRETAIN
 70
     1
  9
$PLINEGEN
 70
     0
  9
$PSLTSCALE
 70
     1
  9
$TREEDEPTH
 70
  3020
  9
$CMLSTYLE
  2
Standard
  9
$CMLJUST
 70
     0
  9
$CMLSCALE
 40
20.0
  9
$PROXYGRAPHICS
 70
     1
  9
$MEASUREMENT
 70
     1
  9
$CELWEIGHT
370
    -1
  9
$ENDCAPS
280
     0
  9
$JOINSTYLE
280
     0
  9
$LWDISPLAY
290
     1
  9
$INSUNITS
 70
     4
  9
$HYPERLINKBASE
  1

  9
$STYLESHEET
  1

  9
$XEDIT
290
     1
  9
$CEPSNTYPE
380
     0
  9
$PSTYLEMODE
290
     1
  9
$FINGERPRINTGUID
  2
{4801225C-8030-4B08-984D-F8B02FD78AD3}
  9
$VERSIONGUID
  2
{FAEB1C32-E019-11D5-929B-00C0DF256EC4}
  9
$EXTNAMES
290
     1
  9
$PSVPSCALE
 40
0.0
  9
$OLESTARTUP
290
     0
  9
$SORTENTS
280
   127
  9
$INDEXCTL
280
     0
  9
$HIDETEXT
280
     1
  9
$XCLIPFRAME
280
     2
  9
$HALOGAP
280
     0
  9
$OBSCOLOR
 70
   257
  9
$OBSLTYPE
280
     0
  9
$INTERSECTIONDISPLAY
280
     0
  9
$INTERSECTIONCOLOR
 70
   257
  9
$DIMASSOC
280
     2
  9
$PROJECTNAME
  1

  9
$CAMERADISPLAY
290
     0
  9
$LENSLENGTH
 40
50.0
  9
$CAMERAHEIGHT
 40
0.0
  9
$STEPSPERSEC
 40
2.0
  9
$STEPSIZE
 40
6.0
  9
$3DDWFPREC
 40
2.0
  9
$PSOLWIDTH
 40
5.0
  9
$PSOLHEIGHT
 40
80.0
  9
$LOFTANG1
 40
1.5707963268
  9
$LOFTANG2
 40
1.5707963268
  9
$LOFTMAG1
 40
0.0
  9
$LOFTMAG2
 40
0.0
  9
$LOFTPARAM
 70
     7
  9
$LOFTNORMALS
280
     1
  9
$LATITUDE
 40
37.795
  9
$LONGITUDE
 40
-122.394
  9
$NORTHDIRECTION
 40
0.0
  9
$TIMEZONE
 70
 -8000
  9
$LIGHTGLYPHDISPLAY
280
     1
  9
$TILEMODELIGHTSYNCH
280
     1
  9
$SOLIDHIST
280
     1
  9
$SHOWHIST
280
     1
  9
$DWFFRAME
280
     2
  9
$DGNFRAME
280
     2
  9
$REALWORLDSCALE
290
     1
  9
$INTERFERECOLOR
 62
   256
  9
$CSHADOW
280
     0
  9
$SHADOWPLANELOCATION
 40
0.0
  0
ENDSEC
  0
SECTION
  2
CLASSES
  0
CLASS
  1
ACDBDICTIONARYWDFLT
  2
AcDbDictionaryWithDefault
  3
ObjectDBX Classes
 90
        0
 91
        4
280
     0
281
     0
  0
CLASS
  1
VISUALSTYLE
  2
AcDbVisualStyle
  3
ObjectDBX Classes
 90
     4095
 91
        4
280
     0
281
     0
  0
CLASS
  1
MATERIAL
  2
AcDbMaterial
  3
ObjectDBX Classes
 90
     1153
 91
        4
280
     0
281
     0
  0
ENDSEC
  0
SECTION
  2
TABLES
  0
TABLE
  2
VPORT
  5
8
330
0
100
AcDbSymbolTable
 70
     1
  0
VPORT
  5
29
330
8
100
AcDbSymbolTableRecord
100
AcDbViewportTableRecord
  2
*Active
 70
     0
 10
0.0
 20
0.0
 11
1.0
 21
1.0
 12
297.0
 22
420.5
 13
0.0
 23
0.0
 14
10.0
 24
10.0
 15
10.0
 25
10.0
 16
0.0
 26
0.0
 36
1.0
 17
0.0
 27
0.0
 37
0.0
 40
841.0
 41
0.7063020214
 42
50.0
 43
0.0
 44
0.0
 50
0.0
 51
0.0
 71
     0
 72
  2000
 73
     1
 74
     3
 75
     0
 76
     0
 77
     0
 78
     0
281
     0
 65
     1
110
0.0
120
0.0
130
0.0
111
1.0
121
0.0
131
0.0
112
0.0
122
1.0
132
0.0
 79
     0
146
0.0
 60
     3
 61
     5
292
     1
282
     1
141
0.0
142
0.0
 63
   250
  0
ENDTAB
  0
TABLE
  2
LTYPE
  5
5
330
0
100
AcDbSymbolTable
 70
     6
  0
LTYPE
  5
14
330
5
100
AcDbSymbolTableRecord
100
AcDbLinetypeTableRecord
  2
ByBlock
 70
     0
  3

 72
    65
 73
     0
 40
0.0
  0
LTYPE
  5
15
330
5
100
AcDbSymbolTableRecord
100
AcDbLinetypeTableRecord
  2
ByLayer
 70
     0
  3

 72
    65
 73
     0
 40
0.0
  0
LTYPE
  5
16
330
5
100
AcDbSymbolTableRecord
100
AcDbLinetypeTableRecord
  2
Continuous
 70
     0
  3
Solid line
 72
    65
 73
     0
 40
0.0
  0
LTYPE
  5
3F
330
5
100
AcDbSymbolTableRecord
100
AcDbLinetypeTableRecord
  2
HIDDEN
 70
     0
  3
Hidden __ __ __ __ __ __ __ __ __ __ __ __ __ __
 72
    65
 73
     2
 40
1.905
 49
1.27
 74
     0
 49
-0.635
 74
     0
  0
LTYPE
  5
40
330
5
100
AcDbSymbolTableRecord
100
AcDbLinetypeTableRecord
  2
PHANTOM
 70
     0
  3
Phantom ______  __  __  ______  __  __  ______
 72
    65
 73
     6
 40
12.7
 49
6.35
 74
     0
 49
-1.27
 74
     0
 49
1.27
 74
     0
 49
-1.27
 74
     0
 49
1.27
 74
     0
 49
-1.27
 74
     0
  0
LTYPE
  5
41
330
5
100
AcDbSymbolTableRecord
100
AcDbLinetypeTableRecord
  2
CENTER
 70
     0
  3
Center ____ _ ____ _ ____ _ ____ _ ____ _ ____
 72
    65
 73
     4
 40
10.16
 49
6.35
 74
     0
 49
-1.27
 74
     0
 49
1.27
 74
     0
 49
-1.27
 74
     0
  0
LTYPE
  5
42
330
5
100
AcDbSymbolTableRecord
100
AcDbLinetypeTableRecord
  2
CENTERX2
 70
     0
  3
Center (2x) ________  __  ________  __  _____
 72
    65
 73
     4
 40
20.32
 49
12.7
 74
     0
 49
-2.54
 74
     0
 49
2.54
 74
     0
 49
-2.54
 74
     0
  0
LTYPE
  5
43
330
5
100
AcDbSymbolTableRecord
100
AcDbLinetypeTableRecord
  2
DOT2
 70
     0
  3
Dot (.5x) ........................................
 72
    65
 73
     2
 40
0.635
 49
0.0
 74
     0
 49
-0.635
 74
     0
  0
ENDTAB
  0
TABLE
  2
LAYER
  5
2
330
0
100
AcDbSymbolTable
 70
     1
  0
LAYER
  5
10
330
2
100
AcDbSymbolTableRecord
100
AcDbLayerTableRecord
  2
0
 70
     0
 62
     7
  6
Continuous
370
    -3
390
F
347
3E
  0
ENDTAB
  0
TABLE
  2
STYLE
  5
3
330
0
100
AcDbSymbolTable
 70
     3
  0
STYLE
  5
11
330
3
100
AcDbSymbolTableRecord
100
AcDbTextStyleTableRecord
  2
Standard
 70
     0
 40
0.0
 41
1.0
 50
0.0
 71
     0
 42
2.5
  3
txt
  4

  0
STYLE
  5
47
330
3
100
AcDbSymbolTableRecord
100
AcDbTextStyleTableRecord
  2
SLDTEXTSTYLE0
 70
     0
 40
0.0
 41
0.96
 50
0.0
 71
     0
 42
0.2
  3
ISOCP3
  4

  0
STYLE
  5
5E
330
3
100
AcDbSymbolTableRecord
100
AcDbTextStyleTableRecord
  2
SLDTEXTSTYLE1
 70
     0
 40
0.0
 41
0.605
 50
0.0
 71
     0
 42
0.2
  3
TXT
  4

  0
ENDTAB
  0
TABLE
  2
VIEW
  5
6
330
0
100
AcDbSymbolTable
 70
     0
  0
ENDTAB
  0
TABLE
  2
UCS
  5
7
330
0
100
AcDbSymbolTable
 70
     0
  0
ENDTAB
  0
TABLE
  2
APPID
  5
9
330
0
100
AcDbSymbolTable
 70
     1
  0
APPID
  5
12
330
9
100
AcDbSymbolTableRecord
100
AcDbRegAppTableRecord
  2
ACAD
 70
     0
  0
ENDTAB
  0
TABLE
  2
DIMSTYLE
  5
A
330
0
100
AcDbSymbolTable
 70
     2
100
AcDbDimStyleTable
  0
DIMSTYLE
105
27
330
A
100
AcDbSymbolTableRecord
100
AcDbDimStyleTableRecord
  2
ISO-25
 70
     0
 41
2.5
 42
0.625
 43
3.75
 44
1.25
 73
     0
 74
     0
 77
     1
 78
     8
140
2.5
141
2.5
143
0.0393700787
147
0.625
171
     3
172
     1
178
     0
271
     2
272
     2
274
     3
278
    44
283
     0
284
     8
340
11
  0
DIMSTYLE
105
48
102
{ACAD_REACTORS
330
46
330
53
102
}
330
A
100
AcDbSymbolTableRecord
100
AcDbDimStyleTableRecord
  2
SLDDIMSTYLE0
 70
     0
 41
2.5
 44
0.0
 45
0.000000001
 73
     0
 74
     0
 77
     1
 78
    12
 79
     3
140
6.0
147
1.5
173
     1
178
     0
271
     2
272
     2
276
     2
284
    12
340
47
  0
ENDTAB
  0
TABLE
  2
BLOCK_RECORD
  5
1
330
0
100
AcDbSymbolTable
 70
     3
  0
BLOCK_RECORD
  5
1F
330
1
100
AcDbSymbolTableRecord
100
AcDbBlockTableRecord
  2
*Model_Space
340
22
 70
     0
280
     1
281
     0
  0
BLOCK_RECORD
  5
1B
330
1
100
AcDbSymbolTableRecord
100
AcDbBlockTableRecord
  2
*Paper_Space
340
1E
 70
     0
280
     1
281
     0
  0
BLOCK_RECORD
  5
23
330
1
100
AcDbSymbolTableRecord
100
AcDbBlockTableRecord
  2
*Paper_Space0
340
26
 70
     0
280
     1
281
     0
  0
BLOCK_RECORD
  5
49
330
1
100
AcDbSymbolTableRecord
100
AcDbBlockTableRecord
  2
*D1
340
0
 70
     0
280
     1
281
     0
  0
BLOCK_RECORD
  5
54
330
1
100
AcDbSymbolTableRecord
100
AcDbBlockTableRecord
  2
*D2
340
0
 70
     0
280
     1
281
     0
  0
ENDTAB
  0
ENDSEC
  0
SECTION
  2
BLOCKS
  0
BLOCK
  5
20
330
1F
100
AcDbEntity
  8
0
100
AcDbBlockBegin
  2
*Model_Space
 70
     0
 10
0.0
 20
0.0
 30
0.0
  3
*Model_Space
  1

  0
ENDBLK
  5
21
330
1F
100
AcDbEntity
  8
0
100
AcDbBlockEnd
  0
BLOCK
  5
1C
330
1B
100
AcDbEntity
 67
     1
  8
0
100
AcDbBlockBegin
  2
*Paper_Space
 70
     0
 10
0.0
 20
0.0
 30
0.0
  3
*Paper_Space
  1

  0
ENDBLK
  5
1D
330
1B
100
AcDbEntity
 67
     1
  8
0
100
AcDbBlockEnd
  0
BLOCK
  5
24
330
23
100
AcDbEntity
  8
0
100
AcDbBlockBegin
  2
*Paper_Space0
 70
     0
 10
0.0
 20
0.0
 30
0.0
  3
*Paper_Space0
  1

  0
ENDBLK
  5
25
330
23
100
AcDbEntity
  8
0
100
AcDbBlockEnd
  0
BLOCK
  5
4A
330
49
100
AcDbEntity
  8
0
100
AcDbBlockBegin
  2
*D1
 70
     1
 10
0.0
 20
0.0
 30
0.0
  3
*D1
  1

  0
SOLID
  5
4C
330
49
100
AcDbEntity
  8
0
  6
Continuous
 62
     7
370
     0
100
AcDbTrace
 10
42.7614395004
 20
152.0299240879
 30
0.0
 11
42.4614395004
 21
149.5299240879
 31
0.0
 12
43.0614395004
 22
149.5299240879
 32
0.0
 13
43.0614395004
 23
149.5299240879
 33
0.0
  0
SOLID
  5
4D
330
49
100
AcDbEntity
  8
0
  6
Continuous
 62
     7
370
     0
100
AcDbTrace
 10
42.7614395004
 20
52.0299240879
 30
0.0
 11
43.0614395004
 21
54.5299240879
 31
0.0
 12
42.4614395004
 22
54.5299240879
 32
0.0
 13
42.4614395004
 23
54.5299240879
 33
0.0
  0
LINE
  5
4E
330
49
100
AcDbEntity
  8
0
  6
Continuous
 62
     7
370
     0
100
AcDbLine
 10
56.6850079902
 20
152.0299240879
 30
0.0
 11
41.7614395004
 21
152.0299240879
 31
0.0
  0
LINE
  5
4F
330
49
100
AcDbEntity
  8
0
  6
Continuous
 62
     7
370
     0
100
AcDbLine
 10
56.6850079902
 20
52.0299240879
 30
0.0
 11
41.7614395004
 21
52.0299240879
 31
0.0
  0
LINE
  5
50
330
49
100
AcDbEntity
  8
0
  6
Continuous
 62
     7
370
     0
100
AcDbLine
 10
42.7614395004
 20
152.0299240879
 30
0.0
 11
42.7614395004
 21
52.0299240879
 31
0.0
  0
MTEXT
  5
51
330
49
100
AcDbEntity
  8
0
  6
Continuous
 62
     7
370
     0
100
AcDbMText
 10
35.0270332946
 20
91.6722208134
 30
0.1
 40
6.0
 41
0.0
 46
0.0
 71
     1
 72
     1
  1
100
  7
SLDTEXTSTYLE0
 11
-7.044195017643634E-15
 21
1.0
 31
0.0
 73
     1
 44
1.0
  0
MTEXT
  5
52
330
49
100
AcDbEntity
  8
0
  6
Continuous
 62
     7
370
     0
100
AcDbMText
 10
35.0270332946
 20
108.4388881795
 30
0.1
 40
6.0
 41
0.0
 46
0.0
 71
     1
 72
     1
  1
mm
  7
SLDTEXTSTYLE0
 11
-7.044195017643634E-15
 21
1.0
 31
0.0
 73
     1
 44
1.0
  0
ENDBLK
  5
4B
330
49
100
AcDbEntity
  8
0
100
AcDbBlockEnd
  0
BLOCK
  5
55
330
54
100
AcDbEntity
  8
0
100
AcDbBlockBegin
  2
*D2
 70
     1
 10
0.0
 20
0.0
 30
0.0
  3
*D2
  1

  0
SOLID
  5
57
330
54
100
AcDbEntity
  8
0
  6
Continuous
 62
     7
370
     0
100
AcDbTrace
 10
56.6850079902
 20
38.4602342313
 30
0.0
 11
59.1850079902
 21
38.1602342313
 31
0.0
 12
59.1850079902
 22
38.7602342313
 32
0.0
 13
59.1850079902
 23
38.7602342313
 33
0.0
  0
SOLID
  5
58
330
54
100
AcDbEntity
  8
0
  6
Continuous
 62
     7
370
     0
100
AcDbTrace
 10
156.6850079902
 20
38.4602342313
 30
0.0
 11
154.1850079902
 21
38.7602342313
 31
0.0
 12
154.1850079902
 22
38.1602342313
 32
0.0
 13
154.1850079902
 23
38.1602342313
 33
0.0
  0
LINE
  5
59
330
54
100
AcDbEntity
  8
0
  6
Continuous
 62
     7
370
     0
100
AcDbLine
 10
56.6850079902
 20
52.0299240879
 30
0.0
 11
56.6850079902
 21
37.4602342313
 31
0.0
  0
LINE
  5
5A
330
54
100
AcDbEntity
  8
0
  6
Continuous
 62
     7
370
     0
100
AcDbLine
 10
156.6850079902
 20
52.0299240879
 30
0.0
 11
156.6850079902
 21
37.4602342313
 31
0.0
  0
LINE
  5
5B
330
54
100
AcDbEntity
  8
0
  6
Continuous
 62
     7
370
     0
100
AcDbLine
 10
56.6850079902
 20
38.4602342313
 30
0.0
 11
156.6850079902
 21
38.4602342313
 31
0.0
  0
MTEXT
  5
5C
330
54
100
AcDbEntity
  8
0
  6
Continuous
 62
     7
370
     0
100
AcDbMText
 10
91.2668151533
 20
46.1946404371
 30
0.1
 40
6.0
 41
0.0
 46
0.0
 71
     1
 72
     1
  1
100
  7
SLDTEXTSTYLE0
 73
     1
 44
1.0
  0
MTEXT
  5
5D
330
54
100
AcDbEntity
  8
0
  6
Continuous
 62
     7
370
     0
100
AcDbMText
 10
108.0334825193
 20
46.1946404371
 30
0.1
 40
6.0
 41
0.0
 46
0.0
 71
     1
 72
     1
  1
mm
  7
SLDTEXTSTYLE0
 73
     1
 44
1.0
  0
ENDBLK
  5
56
330
54
100
AcDbEntity
  8
0
100
AcDbBlockEnd
  0
ENDSEC
  0
SECTION
  2
ENTITIES
  0
LINE
  5
44
330
1F
100
AcDbEntity
  8
0
  6
Continuous
 62
     7
370
     0
100
AcDbLine
 10
56.6850079902
 20
152.0299240879
 30
0.0
 11
56.6850079902
 21
52.0299240879
 31
0.0
  0
LINE
  5
45
330
1F
100
AcDbEntity
  8
0
  6
Continuous
 62
     7
370
     0
100
AcDbLine
 10
56.6850079902
 20
52.0299240879
 30
0.0
 11
156.6850079902
 21
52.0299240879
 31
0.0
  0
DIMENSION
  5
46
330
1F
100
AcDbEntity
  8
0
  6
Continuous
 62
     7
370
     0
100
AcDbDimension
280
     0
  2
*D1
 10
42.7614395004
 20
52.0299240879
 30
0.0
 11
42.7614395004
 21
105.4472211621
 31
0.0
 70
   160
  1
<>mm
 71
     2
 42
-1.0
 73
     0
 74
     0
 75
     0
  3
SLDDIMSTYLE0
100
AcDbAlignedDimension
 13
56.6850079902
 23
152.0299240879
 33
0.0
 14
56.6850079902
 24
52.0299240879
 34
0.0
 50
90.0
100
AcDbRotatedDimension
  0
DIMENSION
  5
53
330
1F
100
AcDbEntity
  8
0
  6
Continuous
 62
     7
370
     0
100
AcDbDimension
280
     0
  2
*D2
 10
156.6850079902
 20
38.4602342313
 30
0.0
 11
105.0418155019
 21
38.4602342313
 31
0.0
 70
   160
  1
<>mm
 71
     2
 42
-1.0
 73
     0
 74
     0
 75
     0
  3
SLDDIMSTYLE0
100
AcDbAlignedDimension
 13
56.6850079902
 23
52.0299240879
 33
0.0
 14
156.6850079902
 24
52.0299240879
 34
0.0
100
AcDbRotatedDimension
  0
MTEXT
  5
5F
330
1F
100
AcDbEntity
  8
0
  6
Continuous
 62
     7
370
     0
100
AcDbMText
 10
276.3800425235
 20
49.3034557666
 30
0.0
 40
10.0
 41
0.0
 46
0.0
 71
     1
 72
     1
  1
42 816 05 77
  7
SLDTEXTSTYLE1
 73
     1
 44
1.0
  0
MTEXT
  5
60
330
1F
100
AcDbEntity
  8
0
  6
Continuous
 62
     7
370
     0
100
AcDbMText
 10
412.8252631579
 20
48.4342449499
 30
0.0
 40
10.0
 41
0.0
 46
0.0
 71
     1
 72
     1
  1
KLUDI GmbH & Co KG
  7
SLDTEXTSTYLE1
 73
     1
 44
1.0
  0
LINE
  5
61
330
1F
100
AcDbEntity
  8
0
  6
Continuous
 62
     7
370
    15
100
AcDbLine
 10
163.940566819
 20
672.3849178566
 30
0.0
 11
163.940566819
 21
663.820459716
 31
0.0
  0
LINE
  5
62
330
1F
100
AcDbEntity
  8
0
  6
Continuous
 62
     7
370
    15
100
AcDbLine
 10
182.997566819
 20
663.820459716
 30
0.0
 11
182.997566819
 21
672.3876011375
 31
0.0
  0
SPLINE
  5
63
330
1F
100
AcDbEntity
  8
0
  6
Continuous
 62
     7
370
    15
100
AcDbSpline
210
0.0
220
0.0
230
1.0
 70
     8
 71
     3
 72
    12
 73
     8
 74
     0
 42
0.00000001
 43
0.00000001
 40
0.0
 40
0.0
 40
0.0
 40
0.0
 40
0.2647309864368617
 40
0.5214200707475688
 40
0.738443063632516
 40
0.9189930127584969
 40
1.0
 40
1.0
 40
1.0
 40
1.0
 10
161.2823012622727
 20
475.6438137741899
 30
0.0
 10
161.3206450333614
 20
475.5122839126038
 30
0.0
 10
161.3961677823334
 20
475.2532197559793
 30
0.0
 10
161.359378780435
 20
474.8675480014614
 30
0.0
 10
161.2540349383401
 20
474.5476497274875
 30
0.0
 10
161.1346536721544
 20
474.329830759838
 30
0.0
 10
161.0472016532471
 20
474.2277254807351
 30
0.0
 10
161.020116825453
 20
474.1961023811666
 30
0.0
  0
SPLINE
  5
64
330
1F
100
AcDbEntity
  8
0
  6
Continuous
 62
     7
370
    15
100
AcDbSpline
210
0.0
220
0.0
230
1.0
 70
     8
 71
     3
 72
    13
 73
     9
 74
     0
 42
0.00000001
 43
0.00000001
 40
0.0
 40
0.0
 40
0.0
 40
0.0
 40
0.0318292748050667
 40
0.2150907393102801
 40
0.4210938730370518
 40
0.6989554199358833
 40
0.9807818383281773
 40
0.9999999999999999
 40
0.9999999999999999
 40
0.9999999999999999
 40
0.9999999999999999
 10
171.9453639879524
 20
477.8614350665927
 30
0.0
 10
171.9253138551136
 20
477.8639560718812
 30
0.0
 10
171.7898223014425
 20
477.8809921147895
 30
0.0
 10
171.5380237658736
 20
477.9827837508529
 30
0.0
 10
171.1780249821312
 20
478.214790614753
 30
0.0
 10
170.8835885570835
 20
478.6041649123355
 30
0.0
 10
170.7222321856443
 20
478.9592290444703
 30
0.0
 10
170.7320378007248
 20
479.1501964773889
 30
0.0
 10
170.7326637741134
 20
479.1623875057047
 30
0.0
  0
LINE
  5
65
330
1F
100
AcDbEntity
  8
0
  6
Continuous
 62
     7
370
    15
100
AcDbLine
 10
170.7956694121
 20
478.8543588077
 30
0.0
 11
151.0660538038
 21
537.1894394547
 31
0.0
  0
LINE
  5
66
330
1F
100
AcDbEntity
  8
0
  6
Continuous
 62
     7
370
    15
100
AcDbLine
 10
141.5647574456
 20
533.9759884258
 30
0.0
 11
161.2930116613
 21
475.644933045
 31
0.0
  0
ARC
  5
67
330
1F
100
AcDbEntity
  8
0
  6
Continuous
 62
     7
370
    15
100
AcDbCircle
 10
142.0398222635
 20
534.1366609772
 30
0.0
 40
0.5015000000000206
100
AcDbArc
 50
108.6861461991
 51
198.6861461991
  0
ARC
  5
68
330
1F
100
AcDbEntity
  8
0
  6
Continuous
 62
     7
370
    15
100
AcDbCircle
 10
150.5909889858
 20
537.0287669033
 30
0.0
 40
0.5015000000000297
100
AcDbArc
 50
18.6861461991
 51
108.6861461991
  0
LINE
  5
69
330
1F
100
AcDbEntity
  8
0
  6
Continuous
 62
     7
370
    15
100
AcDbLine
 10
184.502066819
 20
637.842759716
 30
0.0
 11
184.502066819
 21
677.962759716
 31
0.0
  0
LINE
  5
6A
330
1F
100
AcDbEntity
  8
0
  6
Continuous
 62
     7
370
    15
100
AcDbLine
 10
162.436066819
 20
677.962759716
 30
0.0
 11
162.436066819
 21
637.842759716
 31
0.0
  0
LINE
  5
6B
330
1F
100
AcDbEntity
  8
0
  6
Continuous
 62
     7
370
    15
100
AcDbLine
 10
197.5410668188
 20
385.086759716
 30
0.0
 11
197.5410668188
 21
487.1926608452
 31
0.0
  0
LINE
  5
6C
330
1F
100
AcDbEntity
  8
0
  6
Continuous
 62
     7
370
    15
100
AcDbLine
 10
149.3970668191
 20
402.4197386711
 30
0.0
 11
149.3970668191
 21
385.086759716
 31
0.0
  0
LINE
  5
6D
330
1F
100
AcDbEntity
  8
0
  6
Continuous
 62
     7
370
    15
100
AcDbLine
 10
149.3970668191
 20
487.1926608452
 30
0.0
 11
149.3970668191
 21
427.9744987577
 31
0.0
  0
ARC
  5
6E
330
1F
100
AcDbEntity
  8
0
  6
Continuous
 62
     7
370
    15
100
AcDbCircle
 10
149.597666819
 20
487.593359716
 30
0.0
 40
0.200600000007604
100
AcDbArc
 50
180.0
 51
267.1348492521
  0
ARC
  5
6F
330
1F
100
AcDbEntity
  8
0
  6
Continuous
 62
     7
370
    15
100
AcDbCircle
 10
197.340466819
 20
487.593359716
 30
0.0
 40
0.2006000000000085
100
AcDbArc
 50
272.8651508341
 51
0.0
  0
LINE
  5
70
330
1F
100
AcDbEntity
  8
0
  6
Continuous
 62
     7
370
    15
100
AcDbLine
 10
149.397066819
 20
499.732161604
 30
0.0
 11
149.397066819
 21
487.593359716
 31
0.0
  0
LINE
  5
71
330
1F
100
AcDbEntity
  8
0
  6
Continuous
 62
     7
370
    15
100
AcDbLine
 10
197.541066819
 20
487.593359716
 30
0.0
 11
197.541066819
 21
499.732161604
 31
0.0
  0
ARC
  5
72
330
1F
100
AcDbEntity
  8
0
  6
Continuous
 62
     7
370
    15
100
AcDbCircle
 10
149.597666819
 20
499.732161604
 30
0.0
 40
0.2006000000000085
100
AcDbArc
 50
128.0189425932
 51
180.0
  0
ARC
  5
73
330
1F
100
AcDbEntity
  8
0
  6
Continuous
 62
     7
370
    15
100
AcDbCircle
 10
197.340466819
 20
499.732161604
 30
0.0
 40
0.2006000000000154
100
AcDbArc
 50
0.0
 51
51.9810574068
  0
ARC
  5
74
330
1F
100
AcDbEntity
  8
0
  6
Continuous
 62
     7
370
    15
100
AcDbCircle
 10
197.3404667957
 20
487.192661216
 30
0.0
 40
0.2006000232969979
100
AcDbArc
 50
359.9998940873
 51
87.1348429332
  0
ARC
  5
75
330
1F
100
AcDbEntity
  8
0
  6
Continuous
 62
     7
370
    15
100
AcDbCircle
 10
149.5976668422
 20
487.192661216
 30
0.0
 40
0.2006000232819875
100
AcDbArc
 50
92.865157153
 51
180.0001059127
  0
LINE
  5
76
330
1F
100
AcDbEntity
  8
0
  6
Continuous
 62
     7
370
    15
100
AcDbLine
 10
197.4640207654
 20
499.8901957215
 30
0.0
 11
186.6441786524
 21
508.3493450099
 31
0.0
  0
LINE
  5
77
330
1F
100
AcDbEntity
  8
0
  6
Continuous
 62
     7
370
    15
100
AcDbLine
 10
152.336186487
 20
502.1278169111
 30
0.0
 11
149.4741128725
 21
499.8901957215
 31
0.0
  0
ARC
  5
78
330
1F
100
AcDbEntity
  8
0
  6
Continuous
 62
     7
370
    15
100
AcDbCircle
 10
186.3352937862
 20
507.954259716
 30
0.0
 40
0.5014999999999588
100
AcDbArc
 50
51.9810574068
 51
90.0
  0
LINE
  5
79
330
1F
100
AcDbEntity
  8
0
  6
Continuous
 62
     7
370
    15
100
AcDbLine
 10
149.4026808176
 20
427.9850697172
 30
0.0
 11
144.582666819
 21
427.9850697172
 31
0.0
  0
LINE
  5
7A
330
1F
100
AcDbEntity
  8
0
  6
Continuous
 62
     7
370
    15
100
AcDbLine
 10
144.582666819
 20
402.4085697172
 30
0.0
 11
149.402997721
 21
402.4085697172
 31
0.0
  0
LINE
  5
7B
330
1F
100
AcDbEntity
  8
0
  6
Continuous
 62
     7
370
    15
100
AcDbLine
 10
144.582666819
 20
427.9850697172
 30
0.0
 11
144.382066819
 21
427.7844697172
 31
0.0
  0
LINE
  5
7C
330
1F
100
AcDbEntity
  8
0
  6
Continuous
 62
     7
370
    15
100
AcDbLine
 10
144.382066819
 20
402.6091697172
 30
0.0
 11
144.582666819
 21
402.4085697172
 31
0.0
  0
LINE
  5
7D
330
1F
100
AcDbEntity
  8
0
  6
Continuous
 62
     7
370
    15
100
AcDbLine
 10
144.181466819
 20
427.7343197182
 30
0.0
 11
137.862566819
 21
427.7343197182
 31
0.0
  0
LINE
  5
7E
330
1F
100
AcDbEntity
  8
0
  6
Continuous
 62
     7
370
    15
100
AcDbLine
 10
137.862566819
 20
402.6593197182
 30
0.0
 11
144.181466819
 21
402.6593197182
 31
0.0
  0
LINE
  5
7F
330
1F
100
AcDbEntity
  8
0
  6
Continuous
 62
     7
370
    15
100
AcDbLine
 10
144.181466819
 20
402.6593197182
 30
0.0
 11
144.382066819
 21
402.8599197182
 31
0.0
  0
LINE
  5
80
330
1F
100
AcDbEntity
  8
0
  6
Continuous
 62
     7
370
    15
100
AcDbLine
 10
144.382066819
 20
427.5337197182
 30
0.0
 11
144.181466819
 21
427.7343197182
 31
0.0
  0
LINE
  5
81
330
1F
100
AcDbEntity
  8
0
  6
Continuous
 62
     7
370
    15
100
AcDbLine
 10
185.454916819
 20
508.455759716
 30
0.0
 11
185.454916819
 21
508.656359716
 31
0.0
  0
LINE
  5
82
330
1F
100
AcDbEntity
  8
0
  6
Continuous
 62
     7
370
    15
100
AcDbLine
 10
161.483216819
 20
508.656359716
 30
0.0
 11
161.483216819
 21
508.455759716
 31
0.0
  0
LINE
  5
83
330
1F
100
AcDbEntity
  8
0
  6
Continuous
 62
     7
370
    15
100
AcDbLine
 10
162.436066819
 20
637.842759716
 30
0.0
 11
162.436066819
 21
508.656359716
 31
0.0
  0
LINE
  5
84
330
1F
100
AcDbEntity
  8
0
  6
Continuous
 62
     7
370
    15
100
AcDbLine
 10
184.502066819
 20
508.656359716
 30
0.0
 11
184.502066819
 21
637.842759716
 31
0.0
  0
ARC
  5
85
330
1F
100
AcDbEntity
  8
0
  6
Continuous
 62
     7
370
    15
100
AcDbCircle
 10
137.862566819
 20
403.6623197182
 30
0.0
 40
1.002999999999986
100
AcDbArc
 50
180.0
 51
270.0
  0
ARC
  5
86
330
1F
100
AcDbEntity
  8
0
  6
Continuous
 62
     7
370
    15
100
AcDbCircle
 10
137.862566819
 20
426.7313197182
 30
0.0
 40
1.003000000000014
100
AcDbArc
 50
90.0
 51
180.0
  0
CIRCLE
  5
87
330
1F
100
AcDbEntity
  8
0
  6
Continuous
 62
     7
370
    15
100
AcDbCircle
 10
173.469066819
 20
677.962759716
 30
0.0
 40
11.03300000000002
  0
LINE
  5
88
330
1F
100
AcDbEntity
  8
0
  6
Continuous
 62
     7
370
    15
100
AcDbLine
 10
173.469066819
 20
663.820459716
 30
0.0
 11
182.997566819
 21
663.820459716
 31
0.0
  0
LINE
  5
89
330
1F
100
AcDbEntity
  8
0
  6
Continuous
 62
     7
370
    15
100
AcDbLine
 10
163.940566819
 20
663.820459716
 30
0.0
 11
173.469066819
 21
663.820459716
 31
0.0
  0
CIRCLE
  5
8A
330
1F
100
AcDbEntity
  8
0
  6
Continuous
 62
     7
370
    15
100
AcDbCircle
 10
173.469066819
 20
455.2967597141
 30
0.0
 40
22.5675
  0
LINE
  5
8B
330
1F
100
AcDbEntity
  8
0
  6
Continuous
 62
     7
370
    15
100
AcDbLine
 10
141.8791497121
 20
534.6117257951
 30
0.0
 11
150.4303164344
 21
537.5038317212
 31
0.0
  0
LINE
  5
8C
330
1F
100
AcDbEntity
  8
0
  6
Continuous
 62
     7
370
    15
100
AcDbLine
 10
162.5952551926
 20
475.0718014831
 30
0.0
 11
162.5507542467
 21
475.0567507358
 31
0.0
  0
ARC
  5
8D
330
1F
100
AcDbEntity
  8
0
  6
Continuous
 62
     7
370
    15
100
AcDbCircle
 10
173.469066819
 20
455.2967597123
 30
0.0
 40
23.06899883841396
100
AcDbArc
 50
270.0000000001
 51
89.9999999999
  0
LINE
  5
8E
330
1F
100
AcDbEntity
  8
0
  6
Continuous
 62
     7
370
    15
100
AcDbLine
 10
173.469066819
 20
478.365758504
 30
0.0
 11
171.3580975764
 21
478.2689715274
 31
0.0
  0
ARC
  5
8F
330
1F
100
AcDbEntity
  8
0
  6
Continuous
 62
     7
370
    15
100
AcDbCircle
 10
173.469066819
 20
455.2967597123
 30
0.0
 40
23.0689988384139
100
AcDbArc
 50
122.0530068887
 51
270.0000000001
  0
LINE
  5
90
330
1F
100
AcDbEntity
  8
0
  6
Continuous
 62
     7
370
    15
100
AcDbLine
 10
173.469066819
 20
385.086759716
 30
0.0
 11
197.5410668188
 21
385.086759716
 31
0.0
  0
LINE
  5
91
330
1F
100
AcDbEntity
  8
0
  6
Continuous
 62
     7
370
    15
100
AcDbLine
 10
149.3970668191
 20
385.086759716
 30
0.0
 11
173.469066819
 21
385.086759716
 31
0.0
  0
SPLINE
  5
92
330
1F
100
AcDbEntity
  8
0
  6
Continuous
 62
     7
370
    15
100
AcDbSpline
210
0.0
220
0.0
230
1.0
 70
     8
 71
     3
 72
    39
 73
    35
 74
     0
 42
0.00000001
 43
0.00000001
 40
0.0
 40
0.0
 40
0.0
 40
0.0
 40
0.0162817481256181
 40
0.062896247239476
 40
0.1105019354245661
 40
0.1577701372935076
 40
0.2058848733727345
 40
0.2318205219484628
 40
0.2580770585029586
 40
0.284494257641225
 40
0.3112419166722701
 40
0.3390656130282338
 40
0.3670987009119218
 40
0.3958433468812287
 40
0.4248622262409572
 40
0.4503330413339228
 40
0.4762746846298961
 40
0.5024646338295709
 40
0.5291693194863596
 40
0.5739711248059914
 40
0.6196717214030745
 40
0.6665686011018102
 40
0.714243383205981
 40
0.7409278441723391
 40
0.7679597214655561
 40
0.7951688728329254
 40
0.82274775270033
 40
0.8503696707276536
 40
0.87845719967907
 40
0.9067915500944798
 40
0.9356497267148376
 40
0.9605456727050763
 40
0.9858578842740554
 40
1.0
 40
1.0
 40
1.0
 40
1.0
 10
149.4029980932002
 20
402.4197386710752
 30
0.0
 10
149.402640812334
 20
402.419067505861
 30
0.0
 10
149.4012606395468
 20
402.4164748006476
 30
0.0
 10
149.5137411144583
 20
402.628217568226
 30
0.0
 10
149.7838496833458
 20
403.1480718045362
 30
0.0
 10
150.1819489086083
 20
403.945995109558
 30
0.0
 10
150.5934471587223
 20
404.8240734188445
 30
0.0
 10
150.9605247035545
 20
405.6657317407875
 30
0.0
 10
151.2565042643728
 20
406.3857488791229
 30
0.0
 10
151.556926666574
 20
407.1711045294875
 30
0.0
 10
151.8570896450574
 20
408.0280053584736
 30
0.0
 10
152.1483648568212
 20
408.9569158565616
 30
0.0
 10
152.4215701642599
 20
409.9613092725049
 30
0.0
 10
152.6627074812323
 20
411.0290176614898
 30
0.0
 10
152.8512341274071
 20
412.1063133398296
 30
0.0
 10
152.9837414343632
 20
413.1765481618324
 30
0.0
 10
153.0611591200168
 20
414.2278375463965
 30
0.0
 10
153.0842418412858
 20
415.3053961448769
 30
0.0
 10
153.0417404401115
 20
416.6392274222771
 30
0.0
 10
152.8779379061173
 20
418.2174541965808
 30
0.0
 10
152.5432688874819
 20
419.9834367600758
 30
0.0
 10
152.0931051222645
 20
421.6627981049567
 30
0.0
 10
151.6477420968959
 20
422.9833055038457
 30
0.0
 10
151.2643736835923
 20
423.9884563097351
 30
0.0
 10
150.9595127369862
 20
424.7308421522118
 30
0.0
 10
150.6602486580034
 20
425.4161151465632
 30
0.0
 10
150.3755118353589
 20
426.0355927553541
 30
0.0
 10
150.1122609044993
 20
426.584729809012
 30
0.0
 10
149.8787583935998
 20
427.0554170924052
 30
0.0
 10
149.6820413713351
 20
427.4413654910986
 30
0.0
 10
149.5370808345116
 20
427.7199754717715
 30
0.0
 10
149.444901996604
 20
427.8949582230479
 30
0.0
 10
149.3994997070982
 20
427.9804927114164
 30
0.0
 10
149.4018414983119
 20
427.9760803400042
 30
0.0
 10
149.4026808962846
 20
427.9744987576679
 30
0.0
  0
LINE
  5
93
330
1F
100
AcDbEntity
  8
0
  6
Continuous
 62
     7
370
    15
100
AcDbLine
 10
173.469066819
 20
487.3930104672
 30
0.0
 11
167.9077962286
 21
487.3930104675
 31
0.0
  0
LINE
  5
94
330
1F
100
AcDbEntity
  8
0
  6
Continuous
 62
     7
370
    15
100
AcDbLine
 10
157.3196726488
 20
487.3930104698
 30
0.0
 11
149.5876397326
 21
487.3930104771
 31
0.0
  0
LINE
  5
95
330
1F
100
AcDbEntity
  8
0
  6
Continuous
 62
     7
370
    15
100
AcDbLine
 10
197.3504939057
 20
487.3930104771
 30
0.0
 11
173.469066819
 21
487.3930104672
 31
0.0
  0
LINE
  5
96
330
1F
100
AcDbEntity
  8
0
  6
Continuous
 62
     7
370
    15
100
AcDbLine
 10
160.7841248164
 20
508.455759716
 30
0.0
 11
186.3352937862
 21
508.455759716
 31
0.0
  0
LINE
  5
97
330
1F
100
AcDbEntity
  8
0
  6
Continuous
 62
     7
370
    15
100
AcDbLine
 10
144.382066819
 20
427.7844697172
 30
0.0
 11
144.382066819
 21
402.6091697172
 31
0.0
  0
LINE
  5
98
330
1F
100
AcDbEntity
  8
0
  6
Continuous
 62
     7
370
    15
100
AcDbLine
 10
126.829566819
 20
410.6833197182
 30
0.0
 11
126.829566819
 21
415.1968197182
 31
0.0
  0
LINE
  5
99
330
1F
100
AcDbEntity
  8
0
  6
Continuous
 62
     7
370
    15
100
AcDbLine
 10
126.829566819
 20
415.1968197182
 30
0.0
 11
126.829566819
 21
419.7103197182
 31
0.0
  0
LINE
  5
9A
330
1F
100
AcDbEntity
  8
0
  6
Continuous
 62
     7
370
    15
100
AcDbLine
 10
185.454916819
 20
508.656359716
 30
0.0
 11
161.483216819
 21
508.656359716
 31
0.0
  0
LINE
  5
9B
330
1F
100
AcDbEntity
  8
0
  6
Continuous
 62
     7
370
    15
100
AcDbLine
 10
132.847566819
 20
409.6803197182
 30
0.0
 11
134.853566819
 21
409.6803197182
 31
0.0
  0
LINE
  5
9C
330
1F
100
AcDbEntity
  8
0
  6
Continuous
 62
     7
370
    15
100
AcDbLine
 10
134.853566819
 20
420.7133197182
 30
0.0
 11
132.847566819
 21
420.7133197182
 31
0.0
  0
SPLINE
  5
9D
330
1F
100
AcDbEntity
  8
0
  6
Continuous
 62
     7
370
    15
100
AcDbSpline
210
0.0
220
0.0
230
1.0
 70
    24
 71
     3
 72
    14
 73
    10
 74
     0
 42
0.00000001
 43
0.00000001
 40
2.0
 40
2.0
 40
2.0
 40
2.0
 40
3.387228596819015
 40
3.387228596819015
 40
4.75360934350394
 40
4.75360934350394
 40
6.12512817442898
 40
6.12512817442898
 40
7.49281607901922
 40
7.49281607901922
 40
7.49281607901922
 40
7.49281607901922
 10
127.8325668189872
 20
409.6803197181875
 30
0.0
 10
127.8325668189872
 20
409.6803197181875
 30
0.0
 10
127.9181902707371
 20
409.6803197181875
 30
0.0
 10
128.3336358400052
 20
409.6803197181875
 30
0.0
 10
128.6607331681252
 20
409.6803197181875
 30
0.0
 10
129.5547796174294
 20
409.6803197181875
 30
0.0
 10
130.1237356187715
 20
409.6803197181875
 30
0.0
 10
131.4109957837513
 20
409.6803197181875
 30
0.0
 10
132.1292987476065
 20
409.6803197181875
 30
0.0
 10
132.8475668189873
 20
409.6803197181875
 30
0.0
  0
ARC
  5
9E
330
1F
100
AcDbEntity
  8
0
  6
Continuous
 62
     7
370
    15
100
AcDbCircle
 10
127.832566819
 20
410.6833197182
 30
0.0
 40
1.002999999999986
100
AcDbArc
 50
180.0
 51
270.0
  0
SPLINE
  5
9F
330
1F
100
AcDbEntity
  8
0
  6
Continuous
 62
     7
370
    15
100
AcDbSpline
210
0.0
220
0.0
230
1.0
 70
     8
 71
     3
 72
    20
 73
    16
 74
     0
 42
0.00000001
 43
0.00000001
 40
0.0
 40
0.0
 40
0.0
 40
0.0
 40
0.0589537588618625
 40
0.115866178658384
 40
0.1707778125127937
 40
0.2237338102936668
 40
0.2747845109053558
 40
0.407459609530187
 40
0.5313394881324991
 40
0.6288272132806838
 40
0.7238060511779953
 40
0.7931743490302363
 40
0.8620056015937714
 40
0.9307852955936905
 40
1.0
 40
1.0
 40
1.0
 40
1.0
 10
136.8595668189873
 20
407.6743197181876
 30
0.0
 10
136.858665835851
 20
407.7204844388573
 30
0.0
 10
136.8568950671155
 20
407.8112153757154
 30
0.0
 10
136.8420933566643
 20
407.9496894200535
 30
0.0
 10
136.818500776705
 20
408.0860610265238
 30
0.0
 10
136.7855304639037
 20
408.2200755491144
 30
0.0
 10
136.7208502643548
 20
408.4222797275555
 30
0.0
 10
136.5976681094138
 20
408.6900443936502
 30
0.0
 10
136.3816119369058
 20
408.990700770632
 30
0.0
 10
136.1265381113131
 20
409.236503702661
 30
0.0
 10
135.8717689001057
 20
409.411202881221
 30
0.0
 10
135.6164698491076
 20
409.5355384039013
 30
0.0
 10
135.3724481535648
 20
409.6173933336014
 30
0.0
 10
135.1163999725076
 20
409.6703242000006
 30
0.0
 10
134.9413617989479
 20
409.6769808839987
 30
0.0
 10
134.8535668189873
 20
409.6803197181875
 30
0.0
  0
ARC
  5
A0
330
1F
100
AcDbEntity
  8
0
  6
Continuous
 62
     7
370
    15
100
AcDbCircle
 10
127.832566819
 20
419.7103197182
 30
0.0
 40
1.003000000000043
100
AcDbArc
 50
90.0
 51
180.0
  0
SPLINE
  5
A1
330
1F
100
AcDbEntity
  8
0
  6
Continuous
 62
     7
370
    15
100
AcDbSpline
210
0.0
220
0.0
230
1.0
 70
    24
 71
     3
 72
    13
 73
     9
 74
     0
 42
0.00000001
 43
0.00000001
 40
2.0
 40
2.0
 40
2.0
 40
2.0
 40
2.611325931886205
 40
3.52915507243333
 40
4.825121851617491
 40
6.14974542577222
 40
6.72213389869632
 40
7.49370226584887
 40
7.49370226584887
 40
7.49370226584887
 40
7.49370226584887
 10
132.8475668189873
 20
420.7133197181876
 30
0.0
 10
132.526517041032
 20
420.7133197181876
 30
0.0
 10
131.7229694390776
 20
420.7133197181876
 30
0.0
 10
130.3191108177767
 20
420.7133197181876
 30
0.0
 10
128.903524276129
 20
420.7133197181876
 30
0.0
 10
128.1693195897449
 20
420.7133197181876
 30
0.0
 10
127.8779145187859
 20
420.7133197181876
 30
0.0
 10
127.8325668189872
 20
420.7133197181876
 30
0.0
 10
127.8325668189872
 20
420.7133197181876
 30
0.0
  0
SPLINE
  5
A2
330
1F
100
AcDbEntity
  8
0
  6
Continuous
 62
     7
370
    15
100
AcDbSpline
210
0.0
220
0.0
230
1.0
 70
     8
 71
     3
 72
    21
 73
    17
 74
     0
 42
0.00000001
 43
0.00000001
 40
0.0
 40
0.0
 40
0.0
 40
0.0
 40
0.0329216675263088
 40
0.0657179210816981
 40
0.0984404118291058
 40
0.1311411404805967
 40
0.1638722114900535
 40
0.1966855847889732
 40
0.2296328309423734
 40
0.3473556752843459
 40
0.468610670485411
 40
0.5923119009970157
 40
0.7252633218378091
 40
0.8111474441108524
 40
0.9026560147308085
 40
1.0
 40
1.0
 40
1.0
 40
1.0
 10
134.8535668189872
 20
420.7133197181876
 30
0.0
 10
134.8952880450805
 20
420.7140716073648
 30
0.0
 10
134.9785715616777
 20
420.7155725214229
 30
0.0
 10
135.1026460768638
 20
420.7276444741322
 30
0.0
 10
135.2250988423189
 20
420.7467105312745
 30
0.0
 10
135.3454819620195
 20
420.7732822190574
 30
0.0
 10
135.4633647997348
 20
420.80694635503
 30
0.0
 10
135.5783493594177
 20
420.8475199804579
 30
0.0
 10
135.7855383168029
 20
420.9350243893786
 30
0.0
 10
136.0665490955903
 20
421.1033510138425
 30
0.0
 10
136.3669453708575
 20
421.3825806608941
 30
0.0
 10
136.597461273039
 20
421.7032839198851
 30
0.0
 10
136.7348377708226
 20
422.0014857192003
 30
0.0
 10
136.8118888981354
 20
422.2657566365662
 30
0.0
 10
136.8523681378776
 20
422.4939459010748
 30
0.0
 10
136.8571183326951
 20
422.6426633566386
 30
0.0
 10
136.8595668189872
 20
422.7193197181875
 30
0.0
  0
LINE
  5
A3
330
1F
100
AcDbEntity
  8
0
  6
Continuous
 62
     7
370
    15
100
AcDbLine
 10
136.859566819
 20
407.6743197182
 30
0.0
 11
136.859566819
 21
403.6623197182
 31
0.0
  0
LINE
  5
A4
330
1F
100
AcDbEntity
  8
0
  6
Continuous
 62
     7
370
    15
100
AcDbLine
 10
136.859566819
 20
426.7313197182
 30
0.0
 11
136.859566819
 21
422.7193197182
 31
0.0
  0
CIRCLE
  5
A5
330
1F
100
AcDbEntity
  8
0
  6
Continuous
 62
     8
370
     0
100
AcDbCircle
 10
173.469066819
 20
677.962759716
 30
0.0
 40
10.03
  0
CIRCLE
  5
A6
330
1F
100
AcDbEntity
  8
0
  6
Continuous
 62
     8
370
     0
100
AcDbCircle
 10
173.469066819
 20
455.2967597141
 30
0.0
 40
22.02587999999999
  0
ARC
  5
A7
330
1F
100
AcDbEntity
  8
0
  6
Continuous
 62
     8
370
     0
100
AcDbCircle
 10
170.4019290958
 20
464.3656000177
 30
0.0
 40
14.49410786186768
100
AcDbArc
 50
88.4433375137
 51
128.8803031873
  0
LINE
  5
A8
330
1F
100
AcDbEntity
  8
0
  6
Continuous
 62
     8
370
     0
100
AcDbLine
 10
173.469066819
 20
477.9645595848
 30
0.0
 11
171.8998357801
 21
477.9101773899
 31
0.0
  0
ARC
  5
A9
330
1F
100
AcDbEntity
  8
0
  6
Continuous
 62
     8
370
     0
100
AcDbCircle
 10
173.469066819
 20
455.2967597132
 30
0.0
 40
22.66779987161317
100
AcDbArc
 50
123.1727485148
 51
90.0
  0
LINE
  5
AA
330
1F
100
AcDbEntity
  8
0
  6
Continuous
 62
     8
370
     0
100
AcDbLine
 10
173.469066819
 20
478.365758504
 30
0.0
 11
173.469066819
 21
477.9645595848
 31
0.0
  0
SPLINE
  5
AB
330
1F
100
AcDbEntity
  8
0
  6
Continuous
 62
     8
370
     0
100
AcDbSpline
210
0.0
220
0.0
230
1.0
 70
     8
 71
     3
 72
     9
 73
     5
 74
     0
 42
0.00000001
 43
0.00000001
 40
0.0
 40
0.0
 40
0.0
 40
0.0
 40
0.6893347813032452
 40
1.0
 40
1.0
 40
1.0
 40
1.0
 10
173.4690668189871
 20
484.2833925651863
 30
0.0
 10
172.4358715408318
 20
484.3152282947894
 30
0.0
 10
170.9370420806354
 20
484.3614115579391
 30
0.0
 10
169.5089605463465
 20
484.0632126130102
 30
0.0
 10
169.0653052841798
 20
483.9705725725688
 30
0.0
  0
SPLINE
  5
AC
330
1F
100
AcDbEntity
  8
0
  6
Continuous
 62
     8
370
     0
100
AcDbSpline
210
0.0
220
0.0
230
1.0
 70
     8
 71
     3
 72
    12
 73
     8
 74
     0
 42
0.00000001
 43
0.00000001
 40
0.0
 40
0.0
 40
0.0
 40
0.0
 40
0.5000000000000002
 40
0.5000000000000002
 40
0.7500000000000001
 40
0.7500000000000001
 40
1.0
 40
1.0
 40
1.0
 40
1.0
 10
185.0577318179571
 20
481.3992440393063
 30
0.0
 10
183.4131046779902
 20
482.3415607941847
 30
0.0
 10
181.583512862192
 20
483.1327868386379
 30
0.0
 10
178.6414102712428
 20
483.9095490355928
 30
0.0
 10
177.6286565481992
 20
484.1002070403697
 30
0.0
 10
175.5670210557259
 20
484.3182612333033
 30
0.0
 10
174.517939409254
 20
484.3456116226216
 30
0.0
 10
173.4690668189871
 20
484.2833925651863
 30
0.0
  0
SPLINE
  5
AD
330
1F
100
AcDbEntity
  8
0
  6
Continuous
 62
     8
370
     0
100
AcDbSpline
210
0.0
220
0.0
230
1.0
 70
     8
 71
     3
 72
    12
 73
     8
 74
     0
 42
0.00000001
 43
0.00000001
 40
0.0
 40
0.0
 40
0.0
 40
0.0
 40
0.4999999999999999
 40
0.4999999999999999
 40
0.75
 40
0.75
 40
1.0
 40
1.0
 40
1.0
 40
1.0
 10
161.8800651430072
 20
429.1943992131163
 30
0.0
 10
163.5247270754677
 20
428.2520450266364
 30
0.0
 10
165.3543539827182
 20
427.4607130685383
 30
0.0
 10
168.2965443277741
 20
426.6839116480071
 30
0.0
 10
169.3093394171626
 20
426.4932602618897
 30
0.0
 10
171.3710337842427
 20
426.2751995732736
 30
0.0
 10
172.4201563379024
 20
426.24785744572
 30
0.0
 10
173.4690668189871
 20
426.3100597160363
 30
0.0
  0
SPLINE
  5
AE
330
1F
100
AcDbEntity
  8
0
  6
Continuous
 62
     8
370
     0
100
AcDbSpline
210
0.0
220
0.0
230
1.0
 70
     8
 71
     3
 72
    12
 73
     8
 74
     0
 42
0.00000001
 43
0.00000001
 40
0.0
 40
0.0
 40
0.0
 40
0.0
 40
0.25
 40
0.25
 40
0.5
 40
0.5
 40
1.0
 40
1.0
 40
1.0
 40
1.0
 10
173.4690668189871
 20
426.3100597160363
 30
0.0
 10
174.517977275742
 20
426.2478574471628
 30
0.0
 10
175.567099805062
 20
426.2751995720051
 30
0.0
 10
177.6287941719544
 20
426.4932602529914
 30
0.0
 10
178.6415892853414
 20
426.6839116415557
 30
0.0
 10
181.583779656728
 20
427.4607130684953
 30
0.0
 10
183.4134065625065
 20
428.2520450266364
 30
0.0
 10
185.0580684949671
 20
429.1943992131164
 30
0.0
  0
SPLINE
  5
AF
330
1F
100
AcDbEntity
  8
0
  6
Continuous
 62
     8
370
     0
100
AcDbSpline
210
0.0
220
0.0
230
1.0
 70
     8
 71
     3
 72
    10
 73
     6
 74
     0
 42
0.00000001
 43
0.00000001
 40
0.0
 40
0.0
 40
0.0
 40
0.0
 40
0.5
 40
0.5
 40
1.0
 40
1.0
 40
1.0
 40
1.0
 10
188.3798311184709
 20
479.3347885298116
 30
0.0
 10
187.8801171386807
 20
479.6628706988946
 30
0.0
 10
187.3501863249093
 20
480.0033789839897
 30
0.0
 10
186.2403412928751
 20
480.6999926125331
 30
0.0
 10
185.6600599342696
 20
481.0541300325245
 30
0.0
 10
185.0577318179571
 20
481.3992440393063
 30
0.0
  0
SPLINE
  5
B0
330
1F
100
AcDbEntity
  8
0
  6
Continuous
 62
     8
370
     0
100
AcDbSpline
210
0.0
220
0.0
230
1.0
 70
     8
 71
     3
 72
    14
 73
    10
 74
     0
 42
0.00000001
 43
0.00000001
 40
0.0
 40
0.0
 40
0.0
 40
0.0
 40
0.2500000000000003
 40
0.2500000000000003
 40
0.5000000000000002
 40
0.5000000000000002
 40
0.7500000000000001
 40
0.7500000000000001
 40
1.0
 40
1.0
 40
1.0
 40
1.0
 10
192.5971196097971
 20
475.5234415358464
 30
0.0
 10
192.3251379098327
 20
475.8837718958308
 30
0.0
 10
192.0339588541975
 20
476.2528928068206
 30
0.0
 10
191.4141949058507
 20
476.9559502013851
 30
0.0
 10
191.0855528890841
 20
477.2897534689865
 30
0.0
 10
190.3878777276564
 20
477.9112867759411
 30
0.0
 10
190.0186549028417
 20
478.2006764845968
 30
0.0
 10
189.2343376727216
 20
478.7673000402851
 30
0.0
 10
188.8188336908264
 20
479.0465658224304
 30
0.0
 10
188.3798311184709
 20
479.3347885298116
 30
0.0
  0
SPLINE
  5
B1
330
1F
100
AcDbEntity
  8
0
  6
Continuous
 62
     8
370
     0
100
AcDbSpline
210
0.0
220
0.0
230
1.0
 70
     8
 71
     3
 72
    14
 73
    10
 74
     0
 42
0.00000001
 43
0.00000001
 40
0.0
 40
0.0
 40
0.0
 40
0.0
 40
0.2499999999999991
 40
0.2499999999999991
 40
0.4999999999999994
 40
0.4999999999999994
 40
0.7499999999999998
 40
0.7499999999999998
 40
1.0
 40
1.0
 40
1.0
 40
1.0
 10
158.5583029283316
 20
479.3347887982237
 30
0.0
 10
158.1193003073898
 20
479.0465660630939
 30
0.0
 10
157.7037962802789
 20
478.7673002578121
 30
0.0
 10
156.9194789679125
 20
478.2006766628279
 30
0.0
 10
156.5502561061571
 20
477.9112869385835
 30
0.0
 10
155.8525808779117
 20
477.2897535957505
 30
0.0
 10
155.5239388312521
 20
476.9559503080794
 30
0.0
 10
154.9041748289395
 20
476.2528928638098
 30
0.0
 10
154.6129957492488
 20
475.8837719237944
 30
0.0
 10
154.3410140281771
 20
475.5234415358464
 30
0.0
  0
LINE
  5
B2
330
1F
100
AcDbEntity
  8
0
  6
Continuous
 62
     8
370
     0
100
AcDbLine
 10
159.7868485462
 20
480.0982456959
 30
0.0
 11
158.558301487
 21
479.3347887982
 31
0.0
  0
SPLINE
  5
B3
330
1F
100
AcDbEntity
  8
0
  6
Continuous
 62
     8
370
     0
100
AcDbSpline
210
0.0
220
0.0
230
1.0
 70
     8
 71
     3
 72
    20
 73
    16
 74
     0
 42
0.00000001
 43
0.00000001
 40
0.0
 40
0.0
 40
0.0
 40
0.0
 40
0.1250000000000003
 40
0.1250000000000003
 40
0.2500000000000003
 40
0.2500000000000003
 40
0.3750000000000004
 40
0.3750000000000004
 40
0.5000000000000004
 40
0.5000000000000004
 40
0.6250000000000004
 40
0.6250000000000004
 40
0.7500000000000003
 40
0.7500000000000003
 40
1.0
 40
1.0
 40
1.0
 40
1.0
 10
154.3409034674871
 20
435.0701124194863
 30
0.0
 10
154.5542845335286
 20
434.7874314761033
 30
0.0
 10
154.7795126847564
 20
434.4990337332611
 30
0.0
 10
155.2530393714117
 20
433.9377339033464
 30
0.0
 10
155.5013141171417
 20
433.6650626658515
 30
0.0
 10
156.0217799906875
 20
433.1478826656093
 30
0.0
 10
156.2939312984715
 20
432.9039488803237
 30
0.0
 10
156.8644269104688
 20
432.4366421958598
 30
0.0
 10
157.1627685012978
 20
432.213617731166
 30
0.0
 10
157.7881415063411
 20
431.7706174714229
 30
0.0
 10
158.1153125722246
 20
431.5502457273508
 30
0.0
 10
158.7984782830363
 20
431.0999990677341
 30
0.0
 10
159.1546302860263
 20
430.8695435140519
 30
0.0
 10
160.2613543573184
 20
430.1628821875264
 30
0.0
 10
161.0497712292113
 20
429.6701388982989
 30
0.0
 10
161.8800651430072
 20
429.1943992131164
 30
0.0
  0
SPLINE
  5
B4
330
1F
100
AcDbEntity
  8
0
  6
Continuous
 62
     8
370
     0
100
AcDbSpline
210
0.0
220
0.0
230
1.0
 70
     8
 71
     3
 72
    20
 73
    16
 74
     0
 42
0.00000001
 43
0.00000001
 40
0.0
 40
0.0
 40
0.0
 40
0.0
 40
0.2499999999999997
 40
0.2499999999999997
 40
0.3749999999999998
 40
0.3749999999999998
 40
0.4999999999999998
 40
0.4999999999999998
 40
0.6249999999999998
 40
0.6249999999999998
 40
0.75
 40
0.75
 40
0.8750000000000002
 40
0.8750000000000002
 40
1.0
 40
1.0
 40
1.0
 40
1.0
 10
185.0580684949671
 20
429.1943992131163
 30
0.0
 10
185.888362408763
 20
429.6701388982989
 30
0.0
 10
186.6767792806558
 20
430.1628821875264
 30
0.0
 10
187.7835033519479
 20
430.8695435140519
 30
0.0
 10
188.139655354938
 20
431.0999990677341
 30
0.0
 10
188.8228210657497
 20
431.5502457273508
 30
0.0
 10
189.1499921316629
 20
431.7706174714491
 30
0.0
 10
189.7753651366376
 20
432.2136177311318
 30
0.0
 10
190.0737067271179
 20
432.4366421955229
 30
0.0
 10
190.6442023342391
 20
432.9039488756756
 30
0.0
 10
190.9163536380162
 20
433.1478826573617
 30
0.0
 10
191.4368195085412
 20
433.6650626536214
 30
0.0
 10
191.6850942548916
 20
433.9377338904649
 30
0.0
 10
192.1586209426522
 20
434.4990337197181
 30
0.0
 10
192.3838490947336
 20
434.7874314632371
 30
0.0
 10
192.5972301704871
 20
435.0701124194863
 30
0.0
  0
SPLINE
  5
B5
330
1F
100
AcDbEntity
  8
0
  6
Continuous
 62
     8
370
     0
100
AcDbSpline
210
0.0
220
0.0
230
1.0
 70
     8
 71
     3
 72
    16
 73
    12
 74
     0
 42
0.00000001
 43
0.00000001
 40
0.0
 40
0.0
 40
0.0
 40
0.0
 40
0.2499999999999999
 40
0.2499999999999999
 40
0.4999999999999997
 40
0.4999999999999997
 40
0.6249999999999996
 40
0.6249999999999996
 40
0.7499999999999993
 40
0.7499999999999993
 40
1.0
 40
1.0
 40
1.0
 40
1.0
 10
154.3410140281771
 20
475.5234415358464
 30
0.0
 10
153.8083131582061
 20
474.8177017988354
 30
0.0
 10
153.3519010102497
 20
474.153653785291
 30
0.0
 10
152.5671682934603
 20
472.859807643671
 30
0.0
 10
152.2371209649572
 20
472.2250353850362
 30
0.0
 10
151.8059521841193
 20
471.2193927278418
 30
0.0
 10
151.6731633230325
 20
470.8767225123315
 30
0.0
 10
151.4267839648293
 20
470.1770899382087
 30
0.0
 10
151.3129909586802
 20
469.8185145418121
 30
0.0
 10
150.9986525427396
 20
468.738902775484
 30
0.0
 10
150.8253138578219
 20
468.0172341418904
 30
0.0
 10
150.6850023688872
 20
467.3721187800564
 30
0.0
  0
SPLINE
  5
B6
330
1F
100
AcDbEntity
  8
0
  6
Continuous
 62
     8
370
     0
100
AcDbSpline
210
0.0
220
0.0
230
1.0
 70
     8
 71
     3
 72
    38
 73
    34
 74
     0
 42
0.00000001
 43
0.00000001
 40
0.0
 40
0.0
 40
0.0
 40
0.0
 40
0.0624999999999999
 40
0.0624999999999999
 40
0.1249999999999998
 40
0.1249999999999998
 40
0.1874999999999998
 40
0.1874999999999998
 40
0.2499999999999997
 40
0.2499999999999997
 40
0.3749999999999994
 40
0.3749999999999994
 40
0.4999999999999992
 40
0.4999999999999992
 40
0.624999999999999
 40
0.624999999999999
 40
0.7499999999999988
 40
0.7499999999999988
 40
0.8124999999999987
 40
0.8124999999999987
 40
0.8749999999999986
 40
0.8749999999999986
 40
0.9062499999999989
 40
0.9062499999999989
 40
0.9374999999999991
 40
0.9374999999999991
 40
0.9687499999999993
 40
0.9687499999999993
 40
0.9843749999999997
 40
0.9843749999999997
 40
0.9921874999999999
 40
0.9921874999999999
 40
1.0
 40
1.0
 40
1.0
 40
1.0
 10
150.6850023688871
 20
467.3721187800564
 30
0.0
 10
150.6052982643114
 20
467.0056602259637
 30
0.0
 10
150.5433847595372
 20
466.74328804779
 30
0.0
 10
150.4345863918514
 20
466.2721925179928
 30
0.0
 10
150.3877898987424
 20
466.0644928433198
 30
0.0
 10
150.303340046737
 20
465.668841714532
 30
0.0
 10
150.2660236717469
 20
465.4832828086464
 30
0.0
 10
150.1975120772752
 20
465.1174221991837
 30
0.0
 10
150.1663200586787
 20
464.9373627289413
 30
0.0
 10
150.0803721077935
 20
464.4009539092854
 30
0.0
 10
150.0330459892508
 20
464.0471604250271
 30
0.0
 10
149.9501198454031
 20
463.3180571375108
 30
0.0
 10
149.9149367907277
 20
462.9444096863342
 30
0.0
 10
149.8531672290848
 20
462.1630971967131
 30
0.0
 10
149.8265849274482
 20
461.7559937856744
 30
0.0
 10
149.7799281212257
 20
460.8896592306488
 30
0.0
 10
149.759777205813
 20
460.4338730854839
 30
0.0
 10
149.733382489518
 20
459.6831793551751
 30
0.0
 10
149.7252290396235
 20
459.4211911400926
 30
0.0
 10
149.7100765594721
 20
458.8661080070706
 30
0.0
 10
149.7030716625167
 20
458.5747738846713
 30
0.0
 10
149.6934094092488
 20
458.0925633810727
 30
0.0
 10
149.6903278620435
 20
457.9247679028696
 30
0.0
 10
149.6844494882465
 20
457.5669650856822
 30
0.0
 10
149.6816569512395
 20
457.3758395313248
 30
0.0
 10
149.6764116385833
 20
456.9509143238504
 30
0.0
 10
149.6739093448737
 20
456.7240425290922
 30
0.0
 10
149.6706915140294
 20
456.2914403865491
 30
0.0
 10
149.6696844620114
 20
456.1332935589998
 30
0.0
 10
149.6684816779482
 20
455.8523492402252
 30
0.0
 10
149.6681342351611
 20
455.7514014578051
 30
0.0
 10
149.6676633493523
 20
455.5312622012538
 30
0.0
 10
149.6675385577284
 20
455.4133998184655
 30
0.0
 10
149.6675387277471
 20
455.2961946960463
 30
0.0
  0
SPLINE
  5
B7
330
1F
100
AcDbEntity
  8
0
  6
Continuous
 62
     8
370
     0
100
AcDbSpline
210
0.0
220
0.0
230
1.0
 70
     8
 71
     3
 72
    26
 73
    22
 74
     0
 42
0.00000001
 43
0.00000001
 40
0.0
 40
0.0
 40
0.0
 40
0.0
 40
0.0156249999999999
 40
0.0156249999999999
 40
0.0312499999999998
 40
0.0312499999999998
 40
0.0624999999999994
 40
0.0624999999999994
 40
0.1249999999999997
 40
0.1249999999999997
 40
0.1874999999999998
 40
0.1874999999999998
 40
0.25
 40
0.25
 40
0.3750000000000002
 40
0.3750000000000002
 40
0.5000000000000006
 40
0.5000000000000006
 40
0.7500000000000002
 40
0.7500000000000002
 40
1.0
 40
1.0
 40
1.0
 40
1.0
 10
149.6675387277471
 20
455.2961946960463
 30
0.0
 10
149.6675388973683
 20
455.1800286446846
 30
0.0
 10
149.6676578527235
 20
455.0629840708436
 30
0.0
 10
149.6681242569537
 20
454.845018966687
 30
0.0
 10
149.668464615907
 20
454.7449424129264
 30
0.0
 10
149.6696468680639
 20
454.4660174062956
 30
0.0
 10
149.6706539751142
 20
454.308949946311
 30
0.0
 10
149.6738430006603
 20
453.879585711396
 30
0.0
 10
149.6763055249334
 20
453.6521239737536
 30
0.0
 10
149.6814930954735
 20
453.2287947749633
 30
0.0
 10
149.6842548738223
 20
453.0385502418558
 30
0.0
 10
149.6900678791474
 20
452.6827537108915
 30
0.0
 10
149.6931148525443
 20
452.5160814648324
 30
0.0
 10
149.7026618201012
 20
452.0366625544111
 30
0.0
 10
149.7095769631386
 20
451.7472468403739
 30
0.0
 10
149.724533554316
 20
451.1961225411322
 30
0.0
 10
149.7325792654136
 20
450.9356319329626
 30
0.0
 10
149.7586091351082
 20
450.1889010541595
 30
0.0
 10
149.7784566046527
 20
449.7357198532373
 30
0.0
 10
149.8243555678508
 20
448.8744922757812
 30
0.0
 10
149.8504851671129
 20
448.4694492182066
 30
0.0
 10
149.8807985314525
 20
448.0809069488135
 30
0.0
  0
SPLINE
  5
B8
330
1F
100
AcDbEntity
  8
0
  6
Continuous
 62
     8
370
     0
100
AcDbSpline
210
0.0
220
0.0
230
1.0
 70
     8
 71
     3
 72
    19
 73
    15
 74
     0
 42
0.00000001
 43
0.00000001
 40
0.0
 40
0.0
 40
0.0
 40
0.0
 40
0.2500000000000001
 40
0.2500000000000001
 40
0.5000000000000001
 40
0.5000000000000001
 40
0.6250000000000002
 40
0.6250000000000002
 40
0.7500000000000002
 40
0.8125000000000002
 40
0.8125000000000002
 40
0.8750000000000002
 40
0.8750000000000002
 40
1.0
 40
1.0
 40
1.0
 40
1.0
 10
149.8807985314525
 20
448.0809069488135
 30
0.0
 10
149.9116529797917
 20
447.6854293223681
 30
0.0
 10
149.9467949562661
 20
447.3076126422875
 30
0.0
 10
150.0298151303101
 20
446.5709542272008
 30
0.0
 10
150.0773484980596
 20
446.2132880379008
 30
0.0
 10
150.1634799620621
 20
445.672611883254
 30
0.0
 10
150.1946437541827
 20
445.4917829623088
 30
0.0
 10
150.2632415944916
 20
445.1242181886015
 30
0.0
 10
150.3196661913132
 20
444.8424806587726
 30
0.0
 10
150.3870773965296
 20
444.5342422607151
 30
0.0
 10
150.434851033374
 20
444.3209270308586
 30
0.0
 10
150.4601121528819
 20
444.2107907713966
 30
0.0
 10
150.5422240137491
 20
443.85513359291
 30
0.0
 10
150.6045605995122
 20
443.5910802535597
 30
0.0
 10
150.6849623893071
 20
443.2214130691563
 30
0.0
  0
SPLINE
  5
B9
330
1F
100
AcDbEntity
  8
0
  6
Continuous
 62
     8
370
     0
100
AcDbSpline
210
0.0
220
0.0
230
1.0
 70
     8
 71
     3
 72
    16
 73
    12
 74
     0
 42
0.00000001
 43
0.00000001
 40
0.0
 40
0.0
 40
0.0
 40
0.0
 40
0.2499999999999994
 40
0.2499999999999994
 40
0.3749999999999994
 40
0.3749999999999994
 40
0.4999999999999993
 40
0.4999999999999993
 40
0.7499999999999997
 40
0.7499999999999997
 40
1.0
 40
1.0
 40
1.0
 40
1.0
 10
150.6849623893071
 20
443.2214130691564
 30
0.0
 10
150.8252663040239
 20
442.5763309972868
 30
0.0
 10
150.9985994267501
 20
441.8546943825793
 30
0.0
 10
151.3129269326812
 20
440.7750821500467
 30
0.0
 10
151.4267203639576
 20
440.4164702324188
 30
0.0
 10
151.6730944112606
 20
439.7168209297348
 30
0.0
 10
151.8058771212594
 20
439.3741654518191
 30
0.0
 10
152.2370436819592
 20
438.3684614380957
 30
0.0
 10
152.5671005686518
 20
437.7335774308289
 30
0.0
 10
153.351821003124
 20
436.439714549531
 30
0.0
 10
153.8082097981376
 20
435.775809262175
 30
0.0
 10
154.3409034674871
 20
435.0701124194863
 30
0.0
  0
SPLINE
  5
BA
330
1F
100
AcDbEntity
  8
0
  6
Continuous
 62
     8
370
     0
100
AcDbSpline
210
0.0
220
0.0
230
1.0
 70
     8
 71
     3
 72
    16
 73
    12
 74
     0
 42
0.00000001
 43
0.00000001
 40
0.0
 40
0.0
 40
0.0
 40
0.0
 40
0.2499999999999999
 40
0.2499999999999999
 40
0.4999999999999998
 40
0.4999999999999998
 40
0.6249999999999998
 40
0.6249999999999998
 40
0.7499999999999998
 40
0.7499999999999998
 40
1.0
 40
1.0
 40
1.0
 40
1.0
 10
192.5972301704871
 20
435.0701124194863
 30
0.0
 10
193.1299238398367
 20
435.775809262175
 30
0.0
 10
193.58631263468
 20
436.4397145491718
 30
0.0
 10
194.3710330696224
 20
437.7335774314614
 30
0.0
 10
194.7010899584965
 20
438.3684614419528
 30
0.0
 10
195.1322565243013
 20
439.3741654699299
 30
0.0
 10
195.2650392358625
 20
439.7168209532333
 30
0.0
 10
195.5114132842161
 20
440.4164702625969
 30
0.0
 10
195.6252067145532
 20
440.7750821808307
 30
0.0
 10
195.9395342170576
 20
441.8546944068655
 30
0.0
 10
196.1128673363113
 20
442.5763310081418
 30
0.0
 10
196.2531712486671
 20
443.2214130691563
 30
0.0
  0
SPLINE
  5
BB
330
1F
100
AcDbEntity
  8
0
  6
Continuous
 62
     8
370
     0
100
AcDbSpline
210
0.0
220
0.0
230
1.0
 70
     8
 71
     3
 72
    39
 73
    35
 74
     0
 42
0.00000001
 43
0.00000001
 40
0.0
 40
0.0
 40
0.0
 40
0.0
 40
0.0625000000000002
 40
0.0625000000000002
 40
0.0937500000000003
 40
0.0937500000000003
 40
0.1250000000000004
 40
0.1875000000000006
 40
0.1875000000000006
 40
0.2500000000000008
 40
0.2500000000000008
 40
0.3750000000000006
 40
0.3750000000000006
 40
0.5000000000000004
 40
0.5000000000000004
 40
0.6250000000000003
 40
0.6250000000000003
 40
0.7500000000000002
 40
0.7500000000000002
 40
0.8125000000000001
 40
0.8125000000000001
 40
0.8750000000000001
 40
0.8750000000000001
 40
0.9062500000000001
 40
0.9062500000000001
 40
0.9375
 40
0.9375
 40
0.96875
 40
0.96875
 40
0.984375
 40
0.984375
 40
0.9921875
 40
0.9921875
 40
1.0
 40
1.0
 40
1.0
 40
1.0
 10
196.2531712486671
 20
443.2214130691563
 30
0.0
 10
196.332868048998
 20
443.5878388895193
 30
0.0
 10
196.3948002607551
 20
443.8503753485687
 30
0.0
 10
196.4764132837062
 20
444.2038025651096
 30
0.0
 10
196.501530082137
 20
444.3132325779995
 30
0.0
 10
196.5490328209006
 20
444.5250866731265
 30
0.0
 10
196.6160966973016
 20
444.8312632760553
 30
0.0
 10
196.6723050984268
 20
445.1111018145672
 30
0.0
 10
196.7406496018291
 20
445.4758759062016
 30
0.0
 10
196.7716999443844
 20
445.6551631765083
 30
0.0
 10
196.8576019817459
 20
446.1912857163331
 30
0.0
 10
196.9050599416048
 20
446.5456258684492
 30
0.0
 10
196.9880191985412
 20
447.274846712872
 30
0.0
 10
197.0231881281199
 20
447.6485677092107
 30
0.0
 10
197.0849572518891
 20
448.4301515508976
 30
0.0
 10
197.1115506765974
 20
448.8374922799825
 30
0.0
 10
197.1582039568599
 20
449.7036527459557
 30
0.0
 10
197.178346902843
 20
450.159503798904
 30
0.0
 10
197.2047456750455
 20
450.910410002946
 30
0.0
 10
197.2129007343775
 20
451.1723731443864
 30
0.0
 10
197.228052214108
 20
451.7267926518949
 30
0.0
 10
197.2350538221256
 20
452.0178117160617
 30
0.0
 10
197.2447157623079
 20
452.4998778236904
 30
0.0
 10
197.2477982450565
 20
452.667563417689
 30
0.0
 10
197.2536787349115
 20
453.025214439402
 30
0.0
 10
197.2564722948945
 20
453.2163602757423
 30
0.0
 10
197.2617182502675
 20
453.6419304394769
 30
0.0
 10
197.2642083940354
 20
453.8704652614604
 30
0.0
 10
197.2674352749937
 20
454.3020357327169
 30
0.0
 10
197.2684542441545
 20
454.4598987699266
 30
0.0
 10
197.2696535440796
 20
454.740543797154
 30
0.0
 10
197.2699989712622
 20
454.8412761336014
 30
0.0
 10
197.2704736524148
 20
455.0608947347944
 30
0.0
 10
197.2705947390921
 20
455.1789918525401
 30
0.0
 10
197.2705949102271
 20
455.2961946960463
 30
0.0
  0
SPLINE
  5
BC
330
1F
100
AcDbEntity
  8
0
  6
Continuous
 62
     8
370
     0
100
AcDbSpline
210
0.0
220
0.0
230
1.0
 70
     8
 71
     3
 72
    30
 73
    26
 74
     0
 42
0.00000001
 43
0.00000001
 40
0.0
 40
0.0
 40
0.0
 40
0.0
 40
0.0078124999999999
 40
0.0078124999999999
 40
0.0156249999999998
 40
0.0156249999999998
 40
0.0312499999999996
 40
0.0312499999999996
 40
0.0624999999999996
 40
0.0624999999999996
 40
0.1249999999999996
 40
0.1249999999999996
 40
0.1874999999999997
 40
0.1874999999999997
 40
0.2499999999999997
 40
0.2499999999999997
 40
0.3749999999999998
 40
0.3749999999999998
 40
0.4999999999999998
 40
0.4999999999999998
 40
0.7499999999999999
 40
0.7499999999999999
 40
0.875
 40
0.875
 40
1.0
 40
1.0
 40
1.0
 40
1.0
 10
197.2705949102271
 20
455.2961946960463
 30
0.0
 10
197.2705950648427
 20
455.4027814360795
 30
0.0
 10
197.2704918743563
 20
455.5099117400297
 30
0.0
 10
197.2701003285369
 20
455.7125491339683
 30
0.0
 10
197.2698068273553
 20
455.8067459811089
 30
0.0
 10
197.2687750267922
 20
456.0695986094107
 30
0.0
 10
197.2678869949546
 20
456.2191079579685
 30
0.0
 10
197.2650556364881
 20
456.6287588411614
 30
0.0
 10
197.2628397755764
 20
456.845536729567
 30
0.0
 10
197.2558454113902
 20
457.4461875576874
 30
0.0
 10
197.2506220041714
 20
457.7724912149113
 30
0.0
 10
197.2392770030878
 20
458.3783865579279
 30
0.0
 10
197.2331398113435
 20
458.6534118976369
 30
0.0
 10
197.2199234641919
 20
459.1742333576655
 30
0.0
 10
197.2128514125767
 20
459.4207932212714
 30
0.0
 10
197.1900987167186
 20
460.1280842686035
 30
0.0
 10
197.1728782669608
 20
460.5561678061487
 30
0.0
 10
197.1335201874982
 20
461.3711307246036
 30
0.0
 10
197.1113905517285
 20
461.7548335467069
 30
0.0
 10
197.035262238039
 20
462.8565891379547
 30
0.0
 10
196.9723486051705
 20
463.5260793340103
 30
0.0
 10
196.8423349639337
 20
464.5019517393119
 30
0.0
 10
196.7926863455584
 20
464.8234312058451
 30
0.0
 10
196.6739078972101
 20
465.483809348157
 30
0.0
 10
196.6057158203785
 20
465.8164272539011
 30
0.0
 10
196.5180698192378
 20
466.2061073255852
 30
0.0
  0
SPLINE
  5
BD
330
1F
100
AcDbEntity
  8
0
  6
Continuous
 62
     8
370
     0
100
AcDbSpline
210
0.0
220
0.0
230
1.0
 70
     8
 71
     3
 72
    10
 73
     6
 74
     0
 42
0.00000001
 43
0.00000001
 40
0.0
 40
0.0
 40
0.0
 40
0.0
 40
0.5
 40
0.5
 40
1.0
 40
1.0
 40
1.0
 40
1.0
 10
196.5180698192378
 20
466.2061073255852
 30
0.0
 10
196.4831439455529
 20
466.3613901312351
 30
0.0
 10
196.4452861943303
 20
466.5244273918336
 30
0.0
 10
196.3591689077394
 20
466.8967028703837
 30
0.0
 10
196.3108986151534
 20
467.1065196841768
 30
0.0
 10
196.2531312690871
 20
467.3721187800564
 30
0.0
  0
SPLINE
  5
BE
330
1F
100
AcDbEntity
  8
0
  6
Continuous
 62
     8
370
     0
100
AcDbSpline
210
0.0
220
0.0
230
1.0
 70
     8
 71
     3
 72
    16
 73
    12
 74
     0
 42
0.00000001
 43
0.00000001
 40
0.0
 40
0.0
 40
0.0
 40
0.0
 40
0.2499999999999993
 40
0.2499999999999993
 40
0.374999999999999
 40
0.374999999999999
 40
0.4999999999999988
 40
0.4999999999999988
 40
0.7499999999999993
 40
0.7499999999999993
 40
1.0
 40
1.0
 40
1.0
 40
1.0
 10
196.2531312690871
 20
467.3721187800564
 30
0.0
 10
196.1128197801524
 20
468.0172341418904
 30
0.0
 10
195.9394810952347
 20
468.738902775484
 30
0.0
 10
195.6251426772333
 20
469.8185145482872
 30
0.0
 10
195.5113496700375
 20
470.1770899482447
 30
0.0
 10
195.264970308162
 20
470.8767225311873
 30
0.0
 10
195.1321814447517
 20
471.2193927514574
 30
0.0
 10
194.7010126585744
 20
472.2250354158665
 30
0.0
 10
194.3709653316242
 20
472.8598076657259
 30
0.0
 10
193.5862326247219
 20
474.1536537889918
 30
0.0
 10
193.1298204797682
 20
474.8177017988355
 30
0.0
 10
192.5971196097971
 20
475.5234415358464
 30
0.0
  0
LINE
  5
BF
330
1F
100
AcDbEntity
  8
0
  6
Continuous
 62
     8
370
     0
100
AcDbLine
 10
149.397066819
 20
499.732161604
 30
0.0
 11
153.146425503
 21
499.732161604
 31
0.0
  0
LINE
  5
C0
330
1F
100
AcDbEntity
  8
0
  6
Continuous
 62
     8
370
     0
100
AcDbLine
 10
163.734549082
 20
499.732161604
 30
0.0
 11
197.541066819
 21
499.732161604
 31
0.0
  0
LINE
  5
C1
330
1F
100
AcDbEntity
  8
0
  6
Continuous
 62
     8
370
     0
100
AcDbLine
 10
149.4741128725
 20
499.8901957215
 30
0.0
 11
153.0929764916
 21
499.8901957215
 31
0.0
  0
LINE
  5
C2
330
1F
100
AcDbEntity
  8
0
  6
Continuous
 62
     8
370
     0
100
AcDbLine
 10
163.6811000705
 20
499.8901957215
 30
0.0
 11
197.4640207654
 21
499.8901957215
 31
0.0
  0
LINE
  5
C3
330
1F
100
AcDbEntity
  8
0
  6
Continuous
 62
     8
370
     0
100
AcDbLine
 10
173.469066819
 20
487.1926610306
 30
0.0
 11
173.469066819
 21
487.3930104672
 31
0.0
  0
LINE
  5
C4
330
1F
100
AcDbEntity
  8
0
  6
Continuous
 62
     8
370
     0
100
AcDbLine
 10
132.847566819
 20
420.1027979791
 30
0.0
 11
132.847566819
 21
415.1968197182
 31
0.0
  0
LINE
  5
C5
330
1F
100
AcDbEntity
  8
0
  6
Continuous
 62
     8
370
     0
100
AcDbLine
 10
132.847566819
 20
415.1968197182
 30
0.0
 11
132.847566819
 21
410.2908414573
 31
0.0
  0
SPLINE
  5
C6
330
1F
100
AcDbEntity
  8
0
  6
Continuous
 62
     8
370
     0
100
AcDbSpline
210
0.0
220
0.0
230
1.0
 70
     8
 71
     3
 72
    24
 73
    20
 74
     0
 42
0.00000001
 43
0.00000001
 40
0.0
 40
0.0
 40
0.0
 40
0.0
 40
0.0318500778814977
 40
0.0645768963670707
 40
0.0982020742895198
 40
0.1327430277761884
 40
0.1682120255469285
 40
0.2046152022086586
 40
0.2419515520547365
 40
0.3632916167768703
 40
0.4913300725637153
 40
0.6161715902641107
 40
0.7445988303080483
 40
0.7866792517993324
 40
0.8291119098584404
 40
0.8717802465943391
 40
0.9145644207701508
 40
0.9573438837582724
 40
1.0
 40
1.0
 40
1.0
 40
1.0
 10
126.8295668189873
 20
410.6833197181875
 30
0.0
 10
126.830590576214
 20
410.6737371025159
 30
0.0
 10
126.8326662717456
 20
410.654308089455
 30
0.0
 10
126.8504792316669
 20
410.6265324615148
 30
0.0
 10
126.8810018780327
 20
410.5992671647941
 30
0.0
 10
126.9269613245767
 20
410.5727067487338
 30
0.0
 10
126.989823350291
 20
410.5469099066352
 30
0.0
 10
127.071462348235
 20
410.5220015127839
 30
0.0
 10
127.249261552407
 20
410.4805200260658
 30
0.0
 10
127.614943568578
 20
410.4283117011054
 30
0.0
 10
128.3088791663129
 20
410.3761189024679
 30
0.0
 10
129.2249149767862
 20
410.3365110710732
 30
0.0
 10
130.0738146259635
 20
410.3160259522319
 30
0.0
 10
130.7322641403441
 20
410.3051169632996
 30
0.0
 10
131.1378028906809
 20
410.2997518907081
 30
0.0
 10
131.5555474255459
 20
410.2956236907926
 30
0.0
 10
131.9820893822171
 20
410.2927861657982
 30
0.0
 10
132.4137482011079
 20
410.2911187572025
 30
0.0
 10
132.7030998625311
 20
410.2909338016036
 30
0.0
 10
132.8475668189873
 20
410.290841457318
 30
0.0
  0
SPLINE
  5
C7
330
1F
100
AcDbEntity
  8
0
  6
Continuous
 62
     8
370
     0
100
AcDbSpline
210
0.0
220
0.0
230
1.0
 70
     8
 71
     3
 72
    26
 73
    22
 74
     0
 42
0.00000001
 43
0.00000001
 40
0.0
 40
0.0
 40
0.0
 40
0.0
 40
0.0232373908042084
 40
0.0465292995865108
 40
0.0698569975407355
 40
0.0932013693078059
 40
0.1165430347342979
 40
0.1398624738988058
 40
0.1631401536963647
 40
0.1863566542435528
 40
0.2094927933840228
 40
0.2325297476356431
 40
0.255449168023267
 40
0.3837512310231541
 40
0.508764712392359
 40
0.6366784170297523
 40
0.7581084169179154
 40
0.822805467811314
 40
0.8846543691725356
 40
0.9436899820811708
 40
1.0
 40
1.0
 40
1.0
 40
1.0
 10
132.8475668189873
 20
420.1027979790571
 30
0.0
 10
132.7688800436173
 20
420.1027709340849
 30
0.0
 10
132.611321883343
 20
420.1027167806893
 30
0.0
 10
132.3751907923071
 20
420.1022458711037
 30
0.0
 10
132.1395384954668
 20
420.1014556503288
 30
0.0
 10
131.9049775999226
 20
420.1003002033324
 30
0.0
 10
131.6721162776091
 20
420.0987726693502
 30
0.0
 10
131.4415523966891
 20
420.0968637825545
 30
0.0
 10
131.2138684305331
 20
420.094573186894
 30
0.0
 10
130.9896241701194
 20
420.0919064627556
 30
0.0
 10
130.7693588710195
 20
420.0888759103239
 30
0.0
 10
130.5535600983443
 20
420.0855000341888
 30
0.0
 10
130.0191733675375
 20
420.0761303201222
 30
0.0
 10
129.2250152504802
 20
420.0570943468834
 30
0.0
 10
128.3091643273775
 20
420.0174765464924
 30
0.0
 10
127.6148802291299
 20
419.9651722074898
 30
0.0
 10
127.214510935072
 20
419.9082094680404
 30
0.0
 10
127.0037228068248
 20
419.8540347947624
 30
0.0
 10
126.8981564792157
 20
419.8086362469491
 30
0.0
 10
126.8393501433722
 20
419.761401922899
 30
0.0
 10
126.8327761463554
 20
419.7270767540535
 30
0.0
 10
126.8295668189872
 20
419.7103197181876
 30
0.0
  0
LINE
  5
C8
330
1F
100
AcDbEntity
  8
0
  6
Continuous
 62
     8
370
     0
100
AcDbLine
 10
134.853566819
 20
420.1027979791
 30
0.0
 11
132.847566819
 21
420.1027979791
 31
0.0
  0
SPLINE
  5
C9
330
1F
100
AcDbEntity
  8
0
  6
Continuous
 62
     8
370
     0
100
AcDbSpline
210
0.0
220
0.0
230
1.0
 70
     8
 71
     3
 72
    24
 73
    20
 74
     0
 42
0.00000001
 43
0.00000001
 40
0.0
 40
0.0
 40
0.0
 40
0.0
 40
0.0451494880520847
 40
0.0893745504576494
 40
0.1327537531155666
 40
0.1753703405339004
 40
0.2173120984927715
 40
0.2586711102243192
 40
0.3235241462457201
 40
0.3869289494520909
 40
0.5134045450325024
 40
0.6378573135706955
 40
0.6996952877388394
 40
0.7601867549393538
 40
0.8205406439324746
 40
0.8806373600629261
 40
0.9207061923460864
 40
0.9603980123729204
 40
1.0
 40
1.0
 40
1.0
 40
1.0
 10
137.8625668189873
 20
423.3734501529701
 30
0.0
 10
137.8616400252602
 20
423.3109308140477
 30
0.0
 10
137.8598054136999
 20
423.1871722056521
 30
0.0
 10
137.8445875495591
 20
422.9998348926411
 30
0.0
 10
137.8201716094515
 20
422.8141500090355
 30
0.0
 10
137.7857149649499
 20
422.6300974481565
 30
0.0
 10
137.7414235026122
 20
422.4479875945385
 30
0.0
 10
137.6768195349042
 20
422.2333007656475
 30
0.0
 10
137.5838941699126
 20
421.9879125851138
 30
0.0
 10
137.4081787204021
 20
421.6243786940069
 30
0.0
 10
137.1223310554086
 20
421.1913423967916
 30
0.0
 10
136.7417382765261
 20
420.8101000088433
 30
0.0
 10
136.392134422884
 20
420.5557177845298
 30
0.0
 10
136.1103016342315
 20
420.3949665085188
 30
0.0
 10
135.8119692809386
 20
420.2668969074679
 30
0.0
 10
135.5338779463242
 20
420.1835239825481
 30
0.0
 10
135.2851705724037
 20
420.1343288435916
 30
0.0
 10
135.0697383328339
 20
420.1077413617204
 30
0.0
 10
134.9255695470606
 20
420.1044445282779
 30
0.0
 10
134.8535668189872
 20
420.1027979790571
 30
0.0
  0
LINE
  5
CA
330
1F
100
AcDbEntity
  8
0
  6
Continuous
 62
     8
370
     0
100
AcDbLine
 10
137.862566819
 20
427.7343197182
 30
0.0
 11
137.862566819
 21
423.373450153
 31
0.0
  0
LINE
  5
CB
330
1F
100
AcDbEntity
  8
0
  6
Continuous
 62
     8
370
     0
100
AcDbLine
 10
137.862566819
 20
407.0201892834
 30
0.0
 11
137.862566819
 21
402.6593197182
 31
0.0
  0
SPLINE
  5
CC
330
1F
100
AcDbEntity
  8
0
  6
Continuous
 62
     8
370
     0
100
AcDbSpline
210
0.0
220
0.0
230
1.0
 70
     8
 71
     3
 72
    22
 73
    18
 74
     0
 42
0.00000001
 43
0.00000001
 40
0.0
 40
0.0
 40
0.0
 40
0.0
 40
0.0296882467879076
 40
0.0593993125261814
 40
0.0892553981508125
 40
0.1193769394777382
 40
0.1794429000189173
 40
0.2398372292988606
 40
0.3003725811183942
 40
0.362195544917803
 40
0.4866802638311997
 40
0.6131612931610209
 40
0.6765249623346664
 40
0.741365689036733
 40
0.8247174226865899
 40
0.9107013582501948
 40
1.0
 40
1.0
 40
1.0
 40
1.0
 10
134.8535668189872
 20
410.290841457318
 30
0.0
 10
134.9075345214972
 20
410.2899107162595
 30
0.0
 10
135.0155114071182
 20
410.2880485187571
 30
0.0
 10
135.1770858341442
 20
410.2730921863175
 30
0.0
 10
135.3381084311699
 20
410.2492390213275
 30
0.0
 10
135.550959685318
 20
410.2047002728528
 30
0.0
 10
135.8118153364588
 20
410.1265634742865
 30
0.0
 10
136.1102568479653
 20
409.9985345831066
 30
0.0
 10
136.3923169789256
 20
409.8379373798447
 30
0.0
 10
136.7420425097539
 20
409.5835477981665
 30
0.0
 10
137.1223920262723
 20
409.2021122451815
 30
0.0
 10
137.4083160288056
 20
408.7691801834862
 30
0.0
 10
137.5840008101472
 20
408.4057446013417
 30
0.0
 10
137.6998605389996
 20
408.0996688854528
 30
0.0
 10
137.7911507156174
 20
407.7601157006552
 30
0.0
 10
137.8518203696921
 20
407.3883898217601
 30
0.0
 10
137.8589397916076
 20
407.1444604167948
 30
0.0
 10
137.8625668189873
 20
407.0201892834049
 30
0.0
  0
LINE
  5
CD
330
1F
100
AcDbEntity
  8
0
  6
Continuous
 62
     8
370
     0
100
AcDbLine
 10
132.847566819
 20
410.2908414573
 30
0.0
 11
134.853566819
 21
410.2908414573
 31
0.0
  0
SPLINE
  5
CE
330
1F
100
AcDbEntity
  8
0
  6
Continuous
 62
     7
370
    15
100
AcDbSpline
210
0.0
220
0.0
230
1.0
 70
     8
 71
     3
 72
    14
 73
    10
 74
     0
 42
0.00000001
 43
0.00000001
 40
0.0
 40
0.0
 40
0.0
 40
0.0
 40
0.0666423984062604
 40
0.2357139511316683
 40
0.4056530377529794
 40
0.5780260431185961
 40
0.7561497978367291
 40
0.8945706887208172
 40
1.0
 40
1.0
 40
1.0
 40
1.0
 10
358.8181221972922
 20
537.5163903822294
 30
0.0
 10
358.655272818388
 20
537.5173495528368
 30
0.0
 10
358.0792750833303
 20
537.5207421362238
 30
0.0
 10
357.1172453239523
 20
537.4167849115057
 30
0.0
 10
356.0275942581792
 20
537.211103341958
 30
0.0
 10
355.1081003350272
 20
536.9019718605283
 30
0.0
 10
354.4785162618011
 20
536.5271594652045
 30
0.0
 10
354.072069107638
 20
536.0887185246532
 30
0.0
 10
354.0353754996462
 20
535.7449836428129
 30
0.0
 10
354.0195109164529
 20
535.5963689132226
 30
0.0
  0
SPLINE
  5
CF
330
1F
100
AcDbEntity
  8
0
  6
Continuous
 62
     7
370
    15
100
AcDbSpline
210
0.0
220
0.0
230
1.0
 70
     8
 71
     3
 72
    15
 73
    11
 74
     0
 42
0.00000001
 43
0.00000001
 40
0.0
 40
0.0
 40
0.0
 40
0.0
 40
0.0266539927159097
 40
0.150232038335138
 40
0.2721124957204784
 40
0.4199490706817948
 40
0.5855651329256435
 40
0.7465242154018508
 40
0.9047498907249644
 40
1.0
 40
1.0
 40
1.0
 40
1.0
 10
364.0026756245799
 20
535.5186343077058
 30
0.0
 10
364.0129265956134
 20
535.5572066331664
 30
0.0
 10
364.0707049663702
 20
535.7746149268895
 30
0.0
 10
363.8703204413878
 20
536.1786130133933
 30
0.0
 10
363.4753210420515
 20
536.58365247717
 30
0.0
 10
362.8349185450039
 20
536.9355819717865
 30
0.0
 10
361.9243477514561
 20
537.2314240483246
 30
0.0
 10
360.7988908062989
 20
537.4337592118488
 30
0.0
 10
359.7333492416549
 20
537.5331230983733
 30
0.0
 10
359.0681049990244
 20
537.5209607140264
 30
0.0
 10
358.8181221972922
 20
537.5163903822294
 30
0.0
  0
LINE
  5
D0
330
1F
100
AcDbEntity
  8
0
  6
Continuous
 62
     7
370
    15
100
AcDbLine
 10
364.0295193746
 20
478.0996238411
 30
0.0
 11
364.0295193746
 21
535.5827139402
 31
0.0
  0
LINE
  5
D1
330
1F
100
AcDbEntity
  8
0
  6
Continuous
 62
     7
370
    15
100
AcDbLine
 10
353.9995193746
 20
535.5827139402
 30
0.0
 11
353.9995193746
 21
478.0975400729
 31
0.0
  0
LINE
  5
D2
330
1F
100
AcDbEntity
  8
0
  6
Continuous
 62
     7
370
    15
100
AcDbLine
 10
254.5019193738
 20
499.732161604
 30
0.0
 11
254.5019193738
 21
487.593359716
 31
0.0
  0
LINE
  5
D3
330
1F
100
AcDbEntity
  8
0
  6
Continuous
 62
     7
370
    15
100
AcDbLine
 10
302.6459193738
 20
487.593359716
 30
0.0
 11
302.6459193738
 21
499.732161604
 31
0.0
  0
ARC
  5
D4
330
1F
100
AcDbEntity
  8
0
  6
Continuous
 62
     7
370
    15
100
AcDbCircle
 10
254.7025193738
 20
499.732161604
 30
0.0
 40
0.2006000000000154
100
AcDbArc
 50
128.0189425932
 51
180.0
  0
ARC
  5
D5
330
1F
100
AcDbEntity
  8
0
  6
Continuous
 62
     7
370
    15
100
AcDbCircle
 10
302.4453193738
 20
499.732161604
 30
0.0
 40
0.2006000000000154
100
AcDbArc
 50
0.0
 51
51.9810574068
  0
ARC
  5
D6
330
1F
100
AcDbEntity
  8
0
  6
Continuous
 62
     7
370
    15
100
AcDbCircle
 10
254.7025193738
 20
487.593359716
 30
0.0
 40
0.2006000000000085
100
AcDbArc
 50
180.0
 51
267.1348207697
  0
ARC
  5
D7
330
1F
100
AcDbEntity
  8
0
  6
Continuous
 62
     7
370
    15
100
AcDbCircle
 10
302.4453193738
 20
487.593359716
 30
0.0
 40
0.2006000049543588
100
AcDbArc
 50
272.8651223512
 51
0.0
  0
LINE
  5
D8
330
1F
100
AcDbEntity
  8
0
  6
Continuous
 62
     7
370
    15
100
AcDbLine
 10
254.5019193738
 20
487.1926608452
 30
0.0
 11
254.5019193738
 21
385.086759716
 31
0.0
  0
ARC
  5
D9
330
1F
100
AcDbEntity
  8
0
  6
Continuous
 62
     7
370
    15
100
AcDbCircle
 10
254.7025193969
 20
487.192661216
 30
0.0
 40
0.2006000282438056
100
AcDbArc
 50
92.8651286701
 51
180.0001059127
  0
LINE
  5
DA
330
1F
100
AcDbEntity
  8
0
  6
Continuous
 62
     7
370
    15
100
AcDbLine
 10
302.5688733203
 20
499.8901957215
 30
0.0
 11
291.7490312072
 21
508.3493450099
 31
0.0
  0
LINE
  5
DB
330
1F
100
AcDbEntity
  8
0
  6
Continuous
 62
     7
370
    15
100
AcDbLine
 10
265.3988075405
 20
508.3493450099
 30
0.0
 11
254.5789654274
 21
499.8901957215
 31
0.0
  0
LINE
  5
DC
330
1F
100
AcDbEntity
  8
0
  6
Continuous
 62
     7
370
    15
100
AcDbLine
 10
331.5323209795
 20
478.365758538
 30
0.0
 11
308.5635522238
 21
478.3657597199
 31
0.0
  0
ARC
  5
DD
330
1F
100
AcDbEntity
  8
0
  6
Continuous
 62
     7
370
    15
100
AcDbCircle
 10
331.2314193746
 20
432.6289597104
 30
0.0
 40
0.5015000107815671
100
AcDbArc
 50
306.8701287354
 51
0.0000149883
  0
LINE
  5
DE
330
1F
100
AcDbEntity
  8
0
  6
Continuous
 62
     7
370
    15
100
AcDbLine
 10
343.2219857796
 20
432.7292597141
 30
0.0
 11
368.0013993746
 21
432.7292597141
 31
0.0
  0
LINE
  5
DF
330
1F
100
AcDbEntity
  8
0
  6
Continuous
 62
     7
370
    15
100
AcDbLine
 10
368.0013993746
 20
477.8642597141
 30
0.0
 11
364.0854534311
 21
477.8642597141
 31
0.0
  0
LINE
  5
E0
330
1F
100
AcDbEntity
  8
0
  6
Continuous
 62
     7
370
    15
100
AcDbLine
 10
353.9594801948
 20
477.8642597141
 30
0.0
 11
351.4996387728
 21
477.8642597141
 31
0.0
  0
LINE
  5
E1
330
1F
100
AcDbEntity
  8
0
  6
Continuous
 62
     7
370
    15
100
AcDbLine
 10
344.0621999765
 20
477.8642597141
 30
0.0
 11
339.4560193746
 21
477.8642597141
 31
0.0
  0
ARC
  5
E2
330
1F
100
AcDbEntity
  8
0
  6
Continuous
 62
     7
370
    15
100
AcDbCircle
 10
368.0013993746
 20
477.3226397141
 30
0.0
 40
0.5416200000000231
100
AcDbArc
 50
0.0
 51
90.0
  0
ARC
  5
E3
330
1F
100
AcDbEntity
  8
0
  6
Continuous
 62
     7
370
    15
100
AcDbCircle
 10
368.0013993746
 20
433.2708797141
 30
0.0
 40
0.5416200000000231
100
AcDbArc
 50
270.0
 51
0.0
  0
ARC
  5
E4
330
1F
100
AcDbEntity
  8
0
  6
Continuous
 62
     7
370
    15
100
AcDbCircle
 10
333.8126056774
 20
455.296882747
 30
0.0
 40
22.06600000000003
100
AcDbArc
 50
269.814578935
 51
292.6355164796
  0
ARC
  5
E5
330
1F
100
AcDbEntity
  8
0
  6
Continuous
 62
     7
370
    15
100
AcDbCircle
 10
333.8126056774
 20
455.296882747
 30
0.0
 40
22.066
100
AcDbArc
 50
75.181877441
 51
90.1843276442
  0
LINE
  5
E6
330
1F
100
AcDbEntity
  8
0
  6
Continuous
 62
     7
370
    15
100
AcDbLine
 10
333.7389193746
 20
477.3627597141
 30
0.0
 11
331.7329193746
 21
477.3627597141
 31
0.0
  0
LINE
  5
E7
330
1F
100
AcDbEntity
  8
0
  6
Continuous
 62
     7
370
    15
100
AcDbLine
 10
331.7329193746
 20
433.2307597141
 30
0.0
 11
333.7389193746
 21
433.2307597141
 31
0.0
  0
ARC
  5
E8
330
1F
100
AcDbEntity
  8
0
  6
Continuous
 62
     7
370
    15
100
AcDbCircle
 10
265.7076924066
 20
507.954259716
 30
0.0
 40
0.5014999999999763
100
AcDbArc
 50
90.0
 51
128.0189425932
  0
ARC
  5
E9
330
1F
100
AcDbEntity
  8
0
  6
Continuous
 62
     7
370
    15
100
AcDbCircle
 10
291.4401463411
 20
507.954259716
 30
0.0
 40
0.5014999999999763
100
AcDbArc
 50
51.9810574068
 51
90.0
  0
SPLINE
  5
EA
330
1F
100
AcDbEntity
  8
0
  6
Continuous
 62
     7
370
    15
100
AcDbSpline
210
0.0
220
0.0
230
1.0
 70
     8
 71
     3
 72
    10
 73
     6
 74
     0
 42
0.00000001
 43
0.00000001
 40
0.0
 40
0.0
 40
0.0
 40
0.0
 40
0.2075428282288497
 40
0.64450060111361
 40
1.0
 40
1.0
 40
1.0
 40
1.0
 10
353.975879969239
 20
478.0827689704393
 30
0.0
 10
353.9822050159858
 20
478.0239640539847
 30
0.0
 10
354.0018467278443
 20
477.8413520874481
 30
0.0
 10
353.76988257242
 20
477.4745870988071
 30
0.0
 10
353.7327839291934
 20
477.4601743014253
 30
0.0
 10
353.716141332172
 20
477.4537086639271
 30
0.0
  0
SPLINE
  5
EB
330
1F
100
AcDbEntity
  8
0
  6
Continuous
 62
     7
370
    15
100
AcDbSpline
210
0.0
220
0.0
230
1.0
 70
     8
 71
     3
 72
    11
 73
     7
 74
     0
 42
0.00000001
 43
0.00000001
 40
0.0
 40
0.0
 40
0.0
 40
0.0
 40
0.0716583647390537
 40
0.4498296567555516
 40
0.8869750172902847
 40
1.0
 40
1.0
 40
1.0
 40
1.0
 10
364.3110116859757
 20
477.4489241839192
 30
0.0
 10
364.3169401351751
 20
477.4460937205804
 30
0.0
 10
364.3541555011436
 20
477.4283257132193
 30
0.0
 10
364.1714101560381
 20
477.5457938443263
 30
0.0
 10
364.0200935855189
 20
477.9137754589831
 30
0.0
 10
364.038852260004
 20
478.0586647390166
 30
0.0
 10
364.0427059734681
 20
478.0884302626798
 30
0.0
  0
LINE
  5
EC
330
1F
100
AcDbEntity
  8
0
  6
Continuous
 62
     7
370
    15
100
AcDbLine
 10
290.5597693738
 20
508.455759716
 30
0.0
 11
290.5597693738
 21
508.656359716
 31
0.0
  0
LINE
  5
ED
330
1F
100
AcDbEntity
  8
0
  6
Continuous
 62
     7
370
    15
100
AcDbLine
 10
266.5880693738
 20
508.656359716
 30
0.0
 11
266.5880693738
 21
508.455759716
 31
0.0
  0
LINE
  5
EE
330
1F
100
AcDbEntity
  8
0
  6
Continuous
 62
     7
370
    15
100
AcDbLine
 10
351.7929193746
 20
476.6685722548
 30
0.0
 11
351.7929193746
 21
477.0547283742
 31
0.0
  0
LINE
  5
EF
330
1F
100
AcDbEntity
  8
0
  6
Continuous
 62
     7
370
    15
100
AcDbLine
 10
343.7689193746
 20
477.0547283742
 30
0.0
 11
343.7689193746
 21
476.6685722548
 31
0.0
  0
LINE
  5
F0
330
1F
100
AcDbEntity
  8
0
  6
Continuous
 62
     7
370
    15
100
AcDbLine
 10
351.7624056661
 20
477.2129574775
 30
0.0
 11
351.5448359871
 21
477.774908848
 31
0.0
  0
LINE
  5
F1
330
1F
100
AcDbEntity
  8
0
  6
Continuous
 62
     7
370
    15
100
AcDbLine
 10
344.0170027621
 20
477.774908848
 30
0.0
 11
343.7994330832
 21
477.2129574775
 31
0.0
  0
LINE
  5
F2
330
1F
100
AcDbEntity
  8
0
  6
Continuous
 62
     7
370
    15
100
AcDbLine
 10
267.5409193738
 20
637.842759716
 30
0.0
 11
267.5409193738
 21
508.656359716
 31
0.0
  0
LINE
  5
F3
330
1F
100
AcDbEntity
  8
0
  6
Continuous
 62
     7
370
    15
100
AcDbLine
 10
289.6069193738
 20
508.656359716
 30
0.0
 11
289.6069193738
 21
637.842759716
 31
0.0
  0
ARC
  5
F4
330
1F
100
AcDbEntity
  8
0
  6
Continuous
 62
     7
370
    15
100
AcDbCircle
 10
318.6939193738
 20
637.842759716
 30
0.0
 40
29.08699999999999
100
AcDbArc
 50
90.0
 51
180.0
  0
ARC
  5
F5
330
1F
100
AcDbEntity
  8
0
  6
Continuous
 62
     7
370
    15
100
AcDbCircle
 10
318.6939193738
 20
637.842759716
 30
0.0
 40
51.15300000000002
100
AcDbArc
 50
90.0
 51
180.0
  0
LINE
  5
F6
330
1F
100
AcDbEntity
  8
0
  6
Continuous
 62
     7
370
    15
100
AcDbLine
 10
498.7324193738
 20
666.929759716
 30
0.0
 11
504.2489193738
 21
666.929759716
 31
0.0
  0
LINE
  5
F7
330
1F
100
AcDbEntity
  8
0
  6
Continuous
 62
     7
370
    15
100
AcDbLine
 10
318.6939193738
 20
666.929759716
 30
0.0
 11
479.6774432513
 21
666.929759716
 31
0.0
  0
LINE
  5
F8
330
1F
100
AcDbEntity
  8
0
  6
Continuous
 62
     7
370
    15
100
AcDbLine
 10
504.2489193738
 20
688.995759716
 30
0.0
 11
318.6939193738
 21
688.995759716
 31
0.0
  0
LINE
  5
F9
330
1F
100
AcDbEntity
  8
0
  6
Continuous
 62
     7
370
    15
100
AcDbLine
 10
504.2489193738
 20
666.929759716
 30
0.0
 11
504.4495193738
 21
666.929759716
 31
0.0
  0
LINE
  5
FA
330
1F
100
AcDbEntity
  8
0
  6
Continuous
 62
     7
370
    15
100
AcDbLine
 10
504.4495193738
 20
688.995759716
 30
0.0
 11
504.2489193738
 21
688.995759716
 31
0.0
  0
ARC
  5
FB
330
1F
100
AcDbEntity
  8
0
  6
Continuous
 62
     7
370
    15
100
AcDbCircle
 10
504.4495193738
 20
667.932759716
 30
0.0
 40
1.0030000000001
100
AcDbArc
 50
270.0
 51
0.0
  0
ARC
  5
FC
330
1F
100
AcDbEntity
  8
0
  6
Continuous
 62
     7
370
    15
100
AcDbCircle
 10
504.4495193738
 20
687.992759716
 30
0.0
 40
1.0030000000001
100
AcDbArc
 50
0.0
 51
90.0
  0
LINE
  5
FD
330
1F
100
AcDbEntity
  8
0
  6
Continuous
 62
     7
370
    15
100
AcDbLine
 10
479.6754193738
 20
666.931503828
 30
0.0
 11
479.6754193738
 21
663.820459716
 31
0.0
  0
LINE
  5
FE
330
1F
100
AcDbEntity
  8
0
  6
Continuous
 62
     7
370
    15
100
AcDbLine
 10
498.7324193738
 20
663.820459716
 30
0.0
 11
498.7324193738
 21
666.929759716
 31
0.0
  0
LINE
  5
FF
330
1F
100
AcDbEntity
  8
0
  6
Continuous
 62
     7
370
    15
100
AcDbLine
 10
283.2784063813
 20
420.7133197182
 30
0.0
 11
273.8694323671
 21
420.7133197182
 31
0.0
  0
LINE
  5
100
330
1F
100
AcDbEntity
  8
0
  6
Continuous
 62
     7
370
    15
100
AcDbLine
 10
273.8694323671
 20
409.6803197182
 30
0.0
 11
283.2784063813
 21
409.6803197182
 31
0.0
  0
ARC
  5
101
330
1F
100
AcDbEntity
  8
0
  6
Continuous
 62
     7
370
    15
100
AcDbCircle
 10
278.5739193742
 20
415.1968197182
 30
0.0
 40
12.53749999999993
100
AcDbArc
 50
156.9643158941
 51
203.0356841059
  0
ARC
  5
102
330
1F
100
AcDbEntity
  8
0
  6
Continuous
 62
     7
370
    15
100
AcDbCircle
 10
267.9591651142
 20
419.7103197182
 30
0.0
 40
1.002999999999991
100
AcDbArc
 50
90.0
 51
156.9643158941
  0
SPLINE
  5
103
330
1F
100
AcDbEntity
  8
0
  6
Continuous
 62
     7
370
    15
100
AcDbSpline
210
0.0
220
0.0
230
1.0
 70
    24
 71
     3
 72
    14
 73
    10
 74
     0
 42
0.00000001
 43
0.00000001
 40
2.0
 40
2.0
 40
2.0
 40
2.0
 40
3.38722859681902
 40
3.38722859681902
 40
4.75360934350394
 40
4.75360934350394
 40
6.12512817442899
 40
6.12512817442899
 40
7.49281607901922
 40
7.49281607901922
 40
7.49281607901922
 40
7.49281607901922
 10
273.8694323670971
 20
420.7133197181876
 30
0.0
 10
273.1409021187435
 20
420.7133197181876
 30
0.0
 10
272.4090276562405
 20
420.7133197181876
 30
0.0
 10
271.0238762445618
 20
420.7133197181876
 30
0.0
 10
270.3698214075688
 20
420.7133197181876
 30
0.0
 10
269.2437100538374
 20
420.7133197181876
 30
0.0
 10
268.7729968856024
 20
420.7133197181876
 30
0.0
 10
268.1308273608296
 20
420.7133197181876
 30
0.0
 10
267.9591651142089
 20
420.7133197181876
 30
0.0
 10
267.9591651142089
 20
420.7133197181876
 30
0.0
  0
ARC
  5
104
330
1F
100
AcDbEntity
  8
0
  6
Continuous
 62
     7
370
    15
100
AcDbCircle
 10
278.5739193742
 20
415.1968197182
 30
0.0
 40
12.53750000000002
100
AcDbArc
 50
0.0
 51
23.0356841059
  0
ARC
  5
105
330
1F
100
AcDbEntity
  8
0
  6
Continuous
 62
     7
370
    15
100
AcDbCircle
 10
278.5739193742
 20
415.1968197182
 30
0.0
 40
12.53750000000014
100
AcDbArc
 50
336.9643158941
 51
0.0
  0
ARC
  5
106
330
1F
100
AcDbEntity
  8
0
  6
Continuous
 62
     7
370
    15
100
AcDbCircle
 10
289.1886736342
 20
410.6833197182
 30
0.0
 40
1.002999999999986
100
AcDbArc
 50
270.0
 51
336.9643158941
  0
SPLINE
  5
107
330
1F
100
AcDbEntity
  8
0
  6
Continuous
 62
     7
370
    15
100
AcDbSpline
210
0.0
220
0.0
230
1.0
 70
    24
 71
     3
 72
    14
 73
    10
 74
     0
 42
0.00000001
 43
0.00000001
 40
2.0
 40
2.0
 40
2.0
 40
2.0
 40
3.387228596819015
 40
3.387228596819015
 40
4.75360934350394
 40
4.75360934350394
 40
6.12512817442898
 40
6.12512817442898
 40
7.49281607901922
 40
7.49281607901922
 40
7.49281607901922
 40
7.49281607901922
 10
283.2784063813029
 20
409.6803197181875
 30
0.0
 10
284.0069366296566
 20
409.6803197181875
 30
0.0
 10
284.7388110921596
 20
409.6803197181875
 30
0.0
 10
286.1239625038382
 20
409.6803197181875
 30
0.0
 10
286.7780173408312
 20
409.6803197181875
 30
0.0
 10
287.9041286945627
 20
409.6803197181875
 30
0.0
 10
288.3748418627977
 20
409.6803197181875
 30
0.0
 10
289.0170113875705
 20
409.6803197181875
 30
0.0
 10
289.1886736341912
 20
409.6803197181875
 30
0.0
 10
289.1886736341912
 20
409.6803197181875
 30
0.0
  0
SPLINE
  5
108
330
1F
100
AcDbEntity
  8
0
  6
Continuous
 62
     7
370
    15
100
AcDbSpline
210
0.0
220
0.0
230
1.0
 70
    24
 71
     3
 72
    13
 73
     9
 74
     0
 42
0.00000001
 43
0.00000001
 40
2.0
 40
2.0
 40
2.0
 40
2.0
 40
2.611325931886205
 40
3.52915507243333
 40
4.825121851617491
 40
6.14974542577222
 40
6.72213389869632
 40
7.49370226584887
 40
7.49370226584887
 40
7.49370226584887
 40
7.49370226584887
 10
289.1886736341912
 20
420.7133197181876
 30
0.0
 10
289.1886736341912
 20
420.7133197181876
 30
0.0
 10
289.1043280097182
 20
420.7133197181876
 30
0.0
 10
288.5700060529152
 20
420.7133197181876
 30
0.0
 10
287.3022922799249
 20
420.7133197181876
 30
0.0
 10
285.7634050834446
 20
420.7133197181876
 30
0.0
 10
284.390313773344
 20
420.7133197181876
 30
0.0
 10
283.6836106103914
 20
420.7133197181876
 30
0.0
 10
283.2784063813029
 20
420.7133197181876
 30
0.0
  0
ARC
  5
109
330
1F
100
AcDbEntity
  8
0
  6
Continuous
 62
     7
370
    15
100
AcDbCircle
 10
289.1886736342
 20
419.7103197182
 30
0.0
 40
1.002999999999986
100
AcDbArc
 50
23.0356841059
 51
90.0
  0
SPLINE
  5
10A
330
1F
100
AcDbEntity
  8
0
  6
Continuous
 62
     7
370
    15
100
AcDbSpline
210
0.0
220
0.0
230
1.0
 70
    24
 71
     3
 72
    13
 73
     9
 74
     0
 42
0.00000001
 43
0.00000001
 40
2.0
 40
2.0
 40
2.0
 40
2.0
 40
2.61123569008948
 40
3.52892914194373
 40
4.8248042203825
 40
6.149585568145571
 40
6.722041962497641
 40
7.49370248670531
 40
7.49370248670531
 40
7.49370248670531
 40
7.49370248670531
 10
267.9591651142089
 20
409.6803197181875
 30
0.0
 10
267.9591651142089
 20
409.6803197181875
 30
0.0
 10
268.0434859502663
 20
409.6803197181875
 30
0.0
 10
268.5776703035523
 20
409.6803197181875
 30
0.0
 10
269.8452330785227
 20
409.6803197181875
 30
0.0
 10
271.3841448039389
 20
409.6803197181875
 30
0.0
 10
272.7573922059215
 20
409.6803197181875
 30
0.0
 10
273.4641797399275
 20
409.6803197181875
 30
0.0
 10
273.8694323670971
 20
409.6803197181875
 30
0.0
  0
ARC
  5
10B
330
1F
100
AcDbEntity
  8
0
  6
Continuous
 62
     7
370
    15
100
AcDbCircle
 10
267.9591651142
 20
410.6833197182
 30
0.0
 40
1.002999999999991
100
AcDbArc
 50
203.0356841059
 51
270.0
  0
SPLINE
  5
10C
330
1F
100
AcDbEntity
  8
0
  6
Continuous
 62
     7
370
    15
100
AcDbSpline
210
0.0
220
0.0
230
1.0
 70
     8
 71
     3
 72
    12
 73
     8
 74
     0
 42
0.00000001
 43
0.00000001
 40
0.0
 40
0.0
 40
0.0
 40
0.0
 40
0.0051865998179544
 40
0.1655005938229064
 40
0.3288860292933625
 40
0.6615926521128517
 40
1.0
 40
1.0
 40
1.0
 40
1.0
 10
289.9838988287396
 20
410.0007232857367
 30
0.0
 10
289.9828333072619
 20
409.9983237949847
 30
0.0
 10
289.9488332988782
 20
409.9217578060381
 30
0.0
 10
289.81942763378
 20
409.6471654330245
 30
0.0
 10
289.5130801719539
 20
409.0538178629278
 30
0.0
 10
288.9576530904034
 20
408.1122509164471
 30
0.0
 10
288.3730159114269
 20
407.386265436687
 30
0.0
 10
288.0782142445724
 20
407.0201892834049
 30
0.0
  0
SPLINE
  5
10D
330
1F
100
AcDbEntity
  8
0
  6
Continuous
 62
     7
370
    15
100
AcDbSpline
210
0.0
220
0.0
230
1.0
 70
     8
 71
     3
 72
    12
 73
     8
 74
     0
 42
0.00000001
 43
0.00000001
 40
0.0
 40
0.0
 40
0.0
 40
0.0
 40
0.0050757924477729
 40
0.1654082839143238
 40
0.328811201663458
 40
0.661553937915707
 40
1.0
 40
1.0
 40
1.0
 40
1.0
 10
267.1640049159071
 20
420.3930625804634
 30
0.0
 10
267.165047765165
 20
420.3954109640303
 30
0.0
 10
267.1990317997584
 20
420.4719393287681
 30
0.0
 10
267.3284202266501
 20
420.7464922656306
 30
0.0
 10
267.6347485910777
 20
421.3398021942792
 30
0.0
 10
268.190186424898
 20
422.281391111113
 30
0.0
 10
268.7748225250839
 20
423.0073741617687
 30
0.0
 10
269.0696245038276
 20
423.3734501529702
 30
0.0
  0
SPLINE
  5
10E
330
1F
100
AcDbEntity
  8
0
  6
Continuous
 62
     7
370
    15
100
AcDbSpline
210
0.0
220
0.0
230
1.0
 70
     8
 71
     3
 72
    12
 73
     8
 74
     0
 42
0.00000001
 43
0.00000001
 40
0.0
 40
0.0
 40
0.0
 40
0.0
 40
0.3391306249669222
 40
0.6726651878345463
 40
0.8363828676752331
 40
0.997028126401596
 40
1.0
 40
1.0
 40
1.0
 40
1.0
 10
269.0696245038276
 20
407.0201892834049
 30
0.0
 10
268.7748638966765
 20
407.3862010910491
 30
0.0
 10
268.1902065859578
 20
408.1121850724802
 30
0.0
 10
267.6345870839973
 20
409.0541510286382
 30
0.0
 10
267.3286064592186
 20
409.6467759178825
 30
0.0
 10
267.199557741634
 20
409.9205492990599
 30
0.0
 10
267.1658801354791
 20
409.9963551604338
 30
0.0
 10
267.1652684294361
 20
409.9977320665977
 30
0.0
  0
SPLINE
  5
10F
330
1F
100
AcDbEntity
  8
0
  6
Continuous
 62
     7
370
    15
100
AcDbSpline
210
0.0
220
0.0
230
1.0
 70
     8
 71
     3
 72
    12
 73
     8
 74
     0
 42
0.00000001
 43
0.00000001
 40
0.0
 40
0.0
 40
0.0
 40
0.0
 40
0.339130624966868
 40
0.6726651878344313
 40
0.8363828676750923
 40
0.9970281264014184
 40
1.0
 40
1.0
 40
1.0
 40
1.0
 10
288.0782142445725
 20
423.3734501529701
 30
0.0
 10
288.3729748517236
 20
423.0074383453259
 30
0.0
 10
288.9576321624423
 20
422.2814543638949
 30
0.0
 10
289.5132516644028
 20
421.3394884077368
 30
0.0
 10
289.8192322891814
 20
420.7468635184926
 30
0.0
 10
289.9482810067663
 20
420.4730901373151
 30
0.0
 10
289.981958612921
 20
420.3972842759412
 30
0.0
 10
289.9825703189641
 20
420.3959073697771
 30
0.0
  0
ARC
  5
110
330
1F
100
AcDbEntity
  8
0
  6
Continuous
 62
     7
370
    15
100
AcDbCircle
 10
278.5739193742
 20
415.1968197182
 30
0.0
 40
12.53750000000003
100
AcDbArc
 50
220.705706831
 51
319.294293169
  0
ARC
  5
111
330
1F
100
AcDbEntity
  8
0
  6
Continuous
 62
     7
370
    15
100
AcDbCircle
 10
278.5739193742
 20
415.1968197182
 30
0.0
 40
12.53750000000003
100
AcDbArc
 50
40.705706831
 51
139.294293169
  0
LINE
  5
112
330
1F
100
AcDbEntity
  8
0
  6
Continuous
 62
     7
370
    15
100
AcDbLine
 10
364.0295193746
 20
535.5827139402
 30
0.0
 11
364.0282225996
 21
535.5461775643
 31
0.0
  0
ARC
  5
113
330
1F
100
AcDbEntity
  8
0
  6
Continuous
 62
     7
370
    15
100
AcDbCircle
 10
278.5739193742
 20
415.1968197172
 30
0.0
 40
12.58764999999998
100
AcDbArc
 50
143.7820851422
 51
180.0
  0
ARC
  5
114
330
1F
100
AcDbEntity
  8
0
  6
Continuous
 62
     7
370
    15
100
AcDbCircle
 10
278.5739193742
 20
415.1968197172
 30
0.0
 40
12.58765000000008
100
AcDbArc
 50
28.4729191107
 51
139.9891370777
  0
ARC
  5
115
330
1F
100
AcDbEntity
  8
0
  6
Continuous
 62
     7
370
    15
100
AcDbCircle
 10
278.5739193742
 20
415.1968197172
 30
0.0
 40
12.5876500000001
100
AcDbArc
 50
180.0
 51
25.4160749227
  0
CIRCLE
  5
116
330
1F
100
AcDbEntity
  8
0
  6
Continuous
 62
     7
370
    15
100
AcDbCircle
 10
278.5739193742
 20
415.1968197172
 30
0.0
 40
12.78824999999989
  0
LINE
  5
117
330
1F
100
AcDbEntity
  8
0
  6
Continuous
 62
     7
370
    15
100
AcDbLine
 10
302.4553465594
 20
487.3930104672
 30
0.0
 11
254.6924921881
 21
487.393010487
 31
0.0
  0
LINE
  5
118
330
1F
100
AcDbEntity
  8
0
  6
Continuous
 62
     7
370
    15
100
AcDbLine
 10
254.5019193738
 20
385.086759716
 30
0.0
 11
302.6459193735
 21
385.086759716
 31
0.0
  0
LINE
  5
119
330
1F
100
AcDbEntity
  8
0
  6
Continuous
 62
     7
370
    15
100
AcDbLine
 10
302.6459193735
 20
426.3100593876
 30
0.0
 11
302.6459193735
 21
385.086759716
 31
0.0
  0
LINE
  5
11A
330
1F
100
AcDbEntity
  8
0
  6
Continuous
 62
     7
370
    15
100
AcDbLine
 10
302.6459193741
 20
487.1926610306
 30
0.0
 11
302.6459193735
 21
484.2833924466
 31
0.0
  0
ARC
  5
11B
330
1F
100
AcDbEntity
  8
0
  6
Continuous
 62
     7
370
    15
100
AcDbCircle
 10
302.4453193504
 20
487.192661216
 30
0.0
 40
0.2006000236564493
100
AcDbArc
 50
359.9999470437
 51
87.1348144509
  0
LINE
  5
11C
330
1F
100
AcDbEntity
  8
0
  6
Continuous
 62
     7
370
    15
100
AcDbLine
 10
331.5323209993
 20
432.2277608738
 30
0.0
 11
308.5636194208
 21
432.2277597169
 31
0.0
  0
LINE
  5
11D
330
1F
100
AcDbEntity
  8
0
  6
Continuous
 62
     7
370
    15
100
AcDbLine
 10
331.7329193742
 20
477.9645595848
 30
0.0
 11
331.7329193742
 21
432.6289598416
 31
0.0
  0
ARC
  5
11E
330
1F
100
AcDbEntity
  8
0
  6
Continuous
 62
     7
370
    15
100
AcDbCircle
 10
331.2314193746
 20
477.964559716
 30
0.0
 40
0.5014999995768962
100
AcDbArc
 50
359.9999850117
 51
53.1298716798
  0
ELLIPSE
  5
11F
330
1F
100
AcDbEntity
  8
0
  6
Continuous
 62
     7
370
    15
100
AcDbEllipse
 10
339.4524822554
 20
455.2967597141
 30
0.0
 11
-3.781082106715985
 21
22.56654339636606
 31
0.0
210
0.0
220
0.0
230
0.9999999999999999
 40
0.0549543438
 41
1.88861251039452
 42
3.132385172840155
  0
SPLINE
  5
120
330
1F
100
AcDbEntity
  8
0
  6
Continuous
 62
     7
370
    15
100
AcDbSpline
210
0.0
220
0.0
230
1.0
 70
     8
 71
     3
 72
    12
 73
     8
 74
     0
 42
0.00000001
 43
0.00000001
 40
0.0
 40
0.0
 40
0.0
 40
0.0
 40
0.1859877659811194
 40
0.4199488836669507
 40
0.6566517935925301
 40
0.8957344225925667
 40
1.0
 40
1.0
 40
1.0
 40
1.0
 10
351.7561761164709
 20
476.6697184828369
 30
0.0
 10
351.7438505445348
 20
476.5539425086859
 30
0.0
 10
351.7160201646826
 20
476.2925275126852
 30
0.0
 10
351.1517426526754
 20
475.8343284197173
 30
0.0
 10
350.2209399487045
 20
475.4024444740483
 30
0.0
 10
349.2239030395614
 20
475.1532233484135
 30
0.0
 10
348.5866075633259
 20
475.0907676054746
 30
0.0
 10
348.3930781387685
 20
475.0718014830998
 30
0.0
  0
SPLINE
  5
121
330
1F
100
AcDbEntity
  8
0
  6
Continuous
 62
     7
370
    15
100
AcDbSpline
210
0.0
220
0.0
230
1.0
 70
     8
 71
     3
 72
    12
 73
     8
 74
     0
 42
0.00000001
 43
0.00000001
 40
0.0
 40
0.0
 40
0.0
 40
0.0
 40
0.2368413231657266
 40
0.473582294331272
 40
0.7125114206623483
 40
0.9509775528141076
 40
1.0
 40
1.0
 40
1.0
 40
1.0
 10
347.1687606105075
 20
475.0718014830998
 30
0.0
 10
346.7318345325671
 20
475.1266154315044
 30
0.0
 10
345.8581675065666
 20
475.236220103104
 30
0.0
 10
344.7720299938216
 20
475.6349299612769
 30
0.0
 10
344.0526274211168
 20
476.1044554669881
 30
0.0
 10
343.7277870085564
 20
476.4775437603521
 30
0.0
 10
343.7943178227515
 20
476.6397642485711
 30
0.0
 10
343.8056626328049
 20
476.6674260267695
 30
0.0
  0
LINE
  5
122
330
1F
100
AcDbEntity
  8
0
  6
Continuous
 62
     7
370
    15
100
AcDbLine
 10
339.4560193746
 20
477.8642597141
 30
0.0
 11
339.4560193746
 21
448.0474951628
 31
0.0
  0
LINE
  5
123
330
1F
100
AcDbEntity
  8
0
  6
Continuous
 62
     7
370
    15
100
AcDbLine
 10
368.5430193746
 20
477.3226397141
 30
0.0
 11
368.5430193746
 21
433.2708797141
 31
0.0
  0
LINE
  5
124
330
1F
100
AcDbEntity
  8
0
  6
Continuous
 62
     7
370
    15
100
AcDbLine
 10
278.5739193738
 20
508.455759716
 30
0.0
 11
291.4401463411
 21
508.455759716
 31
0.0
  0
LINE
  5
125
330
1F
100
AcDbEntity
  8
0
  6
Continuous
 62
     7
370
    15
100
AcDbLine
 10
265.7076924066
 20
508.455759716
 30
0.0
 11
278.5739193738
 21
508.455759716
 31
0.0
  0
LINE
  5
126
330
1F
100
AcDbEntity
  8
0
  6
Continuous
 62
     7
370
    15
100
AcDbLine
 10
290.5597693738
 20
508.656359716
 30
0.0
 11
266.5880693738
 21
508.656359716
 31
0.0
  0
ARC
  5
127
330
1F
100
AcDbEntity
  8
0
  6
Continuous
 62
     7
370
    15
100
AcDbCircle
 10
308.5636193746
 20
426.310059716
 30
0.0
 40
5.917699999432159
100
AcDbArc
 50
90.0
 51
180.0
  0
ARC
  5
128
330
1F
100
AcDbEntity
  8
0
  6
Continuous
 62
     7
370
    15
100
AcDbCircle
 10
308.5635522238
 20
484.2833925652
 30
0.0
 40
5.917632848582116
100
AcDbArc
 50
180.0
 51
270.0
  0
ARC
  5
129
330
1F
100
AcDbEntity
  8
0
  6
Continuous
 62
     7
370
    15
100
AcDbCircle
 10
347.7809193746
 20
487.5024562582
 30
0.0
 40
12.44571880171291
100
AcDbArc
 50
267.1806954688
 51
272.8193045312
  0
LWPOLYLINE
  5
12A
330
1F
100
AcDbEntity
  8
0
  6
Continuous
 62
     7
370
    15
100
AcDbPolyline
 90
       14
 70
   128
 43
0.0
 10
351.7624056661
 20
477.2129574775
 10
351.7817010089
 20
477.1507849727
 10
351.6923301583
 20
476.7687043246
 10
351.2554132946
 20
476.4120381685
 10
350.5097723986
 20
476.1124778575
 10
349.521660936
 20
475.89664064
 10
348.3788769465
 20
475.7837045999
 10
347.1829618027
 20
475.7837045999
 10
346.0401778133
 20
475.89664064
 10
345.0520663507
 20
476.1124778575
 10
344.3064254547
 20
476.4120381685
 10
343.869508591
 20
476.7687043246
 10
343.7801377403
 20
477.1507849727
 10
343.7994330832
 20
477.2129574775
  0
LWPOLYLINE
  5
12B
330
1F
100
AcDbEntity
  8
0
  6
Continuous
 62
     7
370
    15
100
AcDbPolyline
 90
        5
 70
   128
 43
0.0
 10
344.773256113
 20
476.8850373872
 10
344.7125097418
 20
476.9110846452
 10
344.1737875143
 20
477.2498272064
 10
343.9881564857
 20
477.6253262281
 10
344.0170027621
 20
477.774908848
  0
LWPOLYLINE
  5
12C
330
1F
100
AcDbEntity
  8
0
  6
Continuous
 62
     7
370
    15
100
AcDbPolyline
 90
        5
 70
   128
 43
0.0
 10
351.5448359871
 20
477.774908848
 10
351.5736822636
 20
477.6253262281
 10
351.388051235
 20
477.2498272064
 10
350.8493290075
 20
476.9110846452
 10
350.6778894924
 20
476.8410321747
  0
LWPOLYLINE
  5
12D
330
1F
100
AcDbEntity
  8
0
  6
Continuous
 62
     7
370
    15
100
AcDbPolyline
 90
       21
 70
   128
 43
0.0
 10
347.7809193746
 20
476.6019095231
 10
348.8873211248
 20
476.6580525885
 10
349.885420563
 20
476.8209861102
 10
350.6775167619
 20
477.07476102
 10
351.1860738267
 20
477.3945360616
 10
351.3613106487
 20
477.7490094257
 10
351.1860738267
 20
478.1034827899
 10
350.6775167619
 20
478.4232578314
 10
349.885420563
 20
478.6770327412
 10
348.8873211248
 20
478.839966263
 10
347.7809193746
 20
478.8961093284
 10
346.6745176244
 20
478.839966263
 10
345.6764181863
 20
478.6770327412
 10
344.8843219874
 20
478.4232578314
 10
344.3757649225
 20
478.1034827899
 10
344.2005281005
 20
477.7490094257
 10
344.3757649225
 20
477.3945360616
 10
344.8843219874
 20
477.07476102
 10
345.6764181863
 20
476.8209861102
 10
346.6745176244
 20
476.6580525885
 10
347.7809193746
 20
476.6019095231
  0
SPLINE
  5
12E
330
1F
100
AcDbEntity
  8
0
  6
Continuous
 62
     7
370
    15
100
AcDbSpline
210
0.0
220
0.0
230
1.0
 70
     8
 71
     3
 72
    36
 73
    32
 74
     0
 42
0.00000001
 43
0.00000001
 40
0.0
 40
0.0
 40
0.0
 40
0.0
 40
0.0409275965668697
 40
0.0832452933257196
 40
0.1241360013503231
 40
0.1660309923806495
 40
0.1941963192956344
 40
0.2225787163130458
 40
0.2515673149935108
 40
0.2807365310317967
 40
0.3095784930905641
 40
0.3385782719626347
 40
0.3681026124317673
 40
0.3978459465031436
 40
0.4281282843925858
 40
0.4589518673870994
 40
0.4846996339793336
 40
0.5111784472420855
 40
0.5369365415315664
 40
0.5633400922257147
 40
0.6062115106877379
 40
0.6501918881333628
 40
0.6822672470267587
 40
0.7145662736746494
 40
0.7475615276782906
 40
0.7808137720956128
 40
0.8295055703333799
 40
0.8794285296844547
 40
0.9195559504354085
 40
0.9607828530793022
 40
1.0
 40
1.0
 40
1.0
 40
1.0
 10
498.7324193738244
 20
666.9297597160354
 30
0.0
 10
498.7146366674071
 20
666.9451358536606
 30
0.0
 10
498.6784672673936
 20
666.9764103773122
 30
0.0
 10
498.3919689212149
 20
667.2229637008204
 30
0.0
 10
497.9528701626935
 20
667.596717259801
 30
0.0
 10
497.4359999970592
 20
668.0294722844827
 30
0.0
 10
496.9004878721091
 20
668.4682831437697
 30
0.0
 10
496.3860755817373
 20
668.8808024576815
 30
0.0
 10
495.8203846211314
 20
669.3219039178579
 30
0.0
 10
495.2091486802757
 20
669.7812874298652
 30
0.0
 10
494.5575197754639
 20
670.2479143184728
 30
0.0
 10
493.8633001103977
 20
670.713997917257
 30
0.0
 10
493.1197894155376
 20
671.170316176629
 30
0.0
 10
492.3189520629433
 20
671.6015576429253
 30
0.0
 10
491.4542945397588
 20
671.9821559651505
 30
0.0
 10
490.5739222704126
 20
672.2563493619793
 30
0.0
 10
489.6932918066726
 20
672.4004973395386
 30
0.0
 10
488.8506547862884
 20
672.4110282048965
 30
0.0
 10
488.0126090711823
 20
672.2936411770715
 30
0.0
 10
487.0386197159738
 20
672.0218747969735
 30
0.0
 10
485.9543354381266
 20
671.5482639000181
 30
0.0
 10
484.9152475674675
 20
670.952424660032
 30
0.0
 10
484.0373422911919
 20
670.378164707428
 30
0.0
 10
483.2981513853043
 20
669.8551931305283
 30
0.0
 10
482.6011186410371
 20
669.333219141937
 30
0.0
 10
481.8520237938591
 20
668.7480237149111
 30
0.0
 10
481.091733857563
 20
668.1302097581874
 30
0.0
 10
480.4422039630688
 20
667.5860530866764
 30
0.0
 10
479.9939691654121
 20
667.2041638226962
 30
0.0
 10
479.724704027803
 20
666.9723709110144
 30
0.0
 10
479.6929322558295
 20
666.9448986508901
 30
0.0
 10
479.6774432512834
 20
666.9315056943275
 30
0.0
  0
LINE
  5
12F
330
1F
100
AcDbEntity
  8
0
  6
Continuous
 62
     7
370
    15
100
AcDbLine
 10
505.4525193738
 20
677.962759716
 30
0.0
 11
505.4525193738
 21
687.992759716
 31
0.0
  0
LINE
  5
130
330
1F
100
AcDbEntity
  8
0
  6
Continuous
 62
     7
370
    15
100
AcDbLine
 10
505.4525193738
 20
667.932759716
 30
0.0
 11
505.4525193738
 21
677.962759716
 31
0.0
  0
LINE
  5
131
330
1F
100
AcDbEntity
  8
0
  6
Continuous
 62
     7
370
    15
100
AcDbLine
 10
479.6754193738
 20
663.820459716
 30
0.0
 11
498.7324193738
 21
663.820459716
 31
0.0
  0
ARC
  5
132
330
1F
100
AcDbEntity
  8
0
  6
Continuous
 62
     8
370
     0
100
AcDbCircle
 10
278.5739193742
 20
415.1968197182
 30
0.0
 40
6.51950000000005
100
AcDbArc
 50
0.0
 51
43.8130614604
  0
ARC
  5
133
330
1F
100
AcDbEntity
  8
0
  6
Continuous
 62
     8
370
     0
100
AcDbCircle
 10
278.5739193742
 20
415.1968197182
 30
0.0
 40
6.51950000000005
100
AcDbArc
 50
316.1869385396
 51
0.0
  0
LINE
  5
134
330
1F
100
AcDbEntity
  8
0
  6
Continuous
 62
     8
370
     0
100
AcDbLine
 10
273.8694323671
 20
410.6833197182
 30
0.0
 11
283.2784063813
 21
410.6833197182
 31
0.0
  0
ARC
  5
135
330
1F
100
AcDbEntity
  8
0
  6
Continuous
 62
     8
370
     0
100
AcDbCircle
 10
278.5739193742
 20
415.1968197182
 30
0.0
 40
6.519500000000014
100
AcDbArc
 50
136.1869385396
 51
223.8130614604
  0
LINE
  5
136
330
1F
100
AcDbEntity
  8
0
  6
Continuous
 62
     8
370
     0
100
AcDbLine
 10
283.2784063813
 20
419.7103197182
 30
0.0
 11
273.8694323671
 21
419.7103197182
 31
0.0
  0
SPLINE
  5
137
330
1F
100
AcDbEntity
  8
0
  6
Continuous
 62
     8
370
     0
100
AcDbSpline
210
0.0
220
0.0
230
1.0
 70
     8
 71
     3
 72
    27
 73
    23
 74
     0
 42
0.00000001
 43
0.00000001
 40
0.0
 40
0.0
 40
0.0
 40
0.0
 40
0.0233183238423894
 40
0.0466762861789885
 40
0.0700542770076734
 40
0.0934323508542409
 40
0.1167903472101497
 40
0.1401080137376512
 40
0.1633651304680247
 40
0.1865416332067865
 40
0.2096177343954903
 40
0.2325740397610594
 40
0.2553916592068848
 40
0.3844616651100435
 40
0.5086494390066458
 40
0.5902328915187922
 40
0.6684165606416385
 40
0.7428255859975896
 40
0.8132344834734372
 40
0.879547452940917
 40
0.9417733385079275
 40
1.0
 40
1.0
 40
1.0
 40
1.0
 10
267.0361430046444
 20
410.290841457318
 30
0.0
 10
267.0371066770595
 20
410.2908697663094
 30
0.0
 10
267.0390356600229
 20
410.2909264324142
 30
0.0
 10
267.0546317284319
 20
410.2914120229863
 30
0.0
 10
267.0795141755934
 20
410.2922184490894
 30
0.0
 10
267.1145271531194
 20
410.2933888731903
 30
0.0
 10
267.1593017679008
 20
410.2949269564084
 30
0.0
 10
267.2137271797426
 20
410.2968401757827
 30
0.0
 10
267.2775579736148
 20
410.299128032514
 30
0.0
 10
267.3505240000837
 20
410.3017850776301
 30
0.0
 10
267.4322986395314
 20
410.3048002805147
 30
0.0
 10
267.5225351546196
 20
410.3081567246758
 30
0.0
 10
267.7735320910788
 20
410.3175520779033
 30
0.0
 10
268.2846194013887
 20
410.3366473806319
 30
0.0
 10
269.0950547832948
 20
410.371439640477
 30
0.0
 10
269.8827992738495
 20
410.4093057948191
 30
0.0
 10
270.5841876725045
 20
410.4465120481722
 30
0.0
 10
271.2875997380545
 20
410.4879590243563
 30
0.0
 10
271.9763133763012
 20
410.5328984200375
 30
0.0
 10
272.6384355522123
 20
410.5806994584918
 30
0.0
 10
273.26652110652
 20
410.6301366858883
 30
0.0
 10
273.672960096126
 20
410.6659888242132
 30
0.0
 10
273.8694323670971
 20
410.6833197181875
 30
0.0
  0
SPLINE
  5
138
330
1F
100
AcDbEntity
  8
0
  6
Continuous
 62
     8
370
     0
100
AcDbSpline
210
0.0
220
0.0
230
1.0
 70
     8
 71
     3
 72
    28
 73
    24
 74
     0
 42
0.00000001
 43
0.00000001
 40
0.0
 40
0.0
 40
0.0
 40
0.0
 40
0.0308504924188471
 40
0.0628464995912869
 40
0.0960088032684232
 40
0.1303533971118188
 40
0.1658904490413779
 40
0.2026231764880023
 40
0.2405466608421672
 40
0.2796466389507025
 40
0.3198983222590112
 40
0.3612653072267727
 40
0.4036986526075214
 40
0.4471362082734884
 40
0.4915022843445659
 40
0.6155100057134627
 40
0.7446848809126931
 40
0.7865903070399157
 40
0.8289174271706989
 40
0.8715461218846262
 40
0.9143525700330722
 40
0.9572117484481941
 40
1.0
 40
1.0
 40
1.0
 40
1.0
 10
273.8694323670972
 20
419.7103197181876
 30
0.0
 10
273.7653481401344
 20
419.7196148479075
 30
0.0
 10
273.5533149175048
 20
419.7385502463513
 30
0.0
 10
273.2296084156887
 20
419.7658062949835
 30
0.0
 10
272.8948765932663
 20
419.7927740354559
 30
0.0
 10
272.5496372223308
 20
419.8192250272607
 30
0.0
 10
272.1946913762692
 20
419.8450826305783
 30
0.0
 10
271.8311451519432
 20
419.8702173474786
 30
0.0
 10
271.4604553023958
 20
419.8945073309104
 30
0.0
 10
271.0844629217253
 20
419.9178256308725
 30
0.0
 10
270.7054221076693
 20
419.9400495830141
 30
0.0
 10
270.3260115256484
 20
419.961066341823
 30
0.0
 10
269.9493457097988
 20
419.9807783213067
 30
0.0
 10
269.5789015836721
 20
419.9991204433898
 30
0.0
 10
269.0052408552405
 20
420.0260546433104
 30
0.0
 10
268.284659362356
 20
420.0570546514692
 30
0.0
 10
267.7384929563059
 20
420.0775712512785
 30
0.0
 10
267.4429947895998
 20
420.0884921441373
 30
0.0
 10
267.2971223758749
 20
420.0938280829646
 30
0.0
 10
267.1814014492562
 20
420.097951936022
 30
0.0
 10
267.0983025588198
 20
420.1008074031366
 30
0.0
 10
267.0458909125139
 20
420.1025084349092
 30
0.0
 10
267.0393905128843
 20
420.1027015176401
 30
0.0
 10
267.0361430046445
 20
420.1027979790571
 30
0.0
  0
SPLINE
  5
139
330
1F
100
AcDbEntity
  8
0
  6
Continuous
 62
     8
370
     0
100
AcDbSpline
210
0.0
220
0.0
230
1.0
 70
     8
 71
     3
 72
    24
 73
    20
 74
     0
 42
0.00000001
 43
0.00000001
 40
0.0
 40
0.0
 40
0.0
 40
0.0
 40
0.0318500778814977
 40
0.0645768963670707
 40
0.0982020742895198
 40
0.1327430277761884
 40
0.1682120255469285
 40
0.2046152022086586
 40
0.2419515520547365
 40
0.3632916167768703
 40
0.4913300725637153
 40
0.6161715902641107
 40
0.7445988303080483
 40
0.7866792517993324
 40
0.8291119098584404
 40
0.8717802465943391
 40
0.9145644207701508
 40
0.9573438837582724
 40
1.0
 40
1.0
 40
1.0
 40
1.0
 10
283.2784063813029
 20
410.6833197181875
 30
0.0
 10
283.3858279982391
 20
410.6737371025159
 30
0.0
 10
283.6036282387998
 20
410.654308089455
 30
0.0
 10
283.9346038029219
 20
410.6265324615148
 30
0.0
 10
284.273835984508
 20
410.5992671647941
 30
0.0
 10
284.6208169530084
 20
410.5727067487338
 30
0.0
 10
284.974781007188
 20
410.5469099066352
 30
0.0
 10
285.33474164514
 20
410.5220015127839
 30
0.0
 10
285.969692844228
 20
410.4805200260658
 30
0.0
 10
286.8735551671215
 20
410.4283117011054
 30
0.0
 10
287.942946877283
 20
410.3761189024679
 30
0.0
 10
288.864763380802
 20
410.3365110710732
 30
0.0
 10
289.4107524840788
 20
410.3160259522319
 30
0.0
 10
289.7053922514131
 20
410.3051169632996
 30
0.0
 10
289.8514276097999
 20
410.2997518907081
 30
0.0
 10
289.9670176960676
 20
410.2956236907926
 30
0.0
 10
290.0498535348268
 20
410.2927861657982
 30
0.0
 10
290.1020052322728
 20
410.2911187572025
 30
0.0
 10
290.1084686837754
 20
410.2909338016036
 30
0.0
 10
290.1116957437556
 20
410.290841457318
 30
0.0
  0
SPLINE
  5
13A
330
1F
100
AcDbEntity
  8
0
  6
Continuous
 62
     8
370
     0
100
AcDbSpline
210
0.0
220
0.0
230
1.0
 70
     8
 71
     3
 72
    26
 73
    22
 74
     0
 42
0.00000001
 43
0.00000001
 40
0.0
 40
0.0
 40
0.0
 40
0.0
 40
0.0232373908042084
 40
0.0465292995865108
 40
0.0698569975407355
 40
0.0932013693078059
 40
0.1165430347342979
 40
0.1398624738988058
 40
0.1631401536963647
 40
0.1863566542435528
 40
0.2094927933840228
 40
0.2325297476356431
 40
0.255449168023267
 40
0.3837512310231541
 40
0.508764712392359
 40
0.6366784170297523
 40
0.7581084169179154
 40
0.822805467811314
 40
0.8846543691725356
 40
0.9436899820811708
 40
1.0
 40
1.0
 40
1.0
 40
1.0
 10
290.1116957437556
 20
420.1027979790571
 30
0.0
 10
290.1107386873471
 20
420.1027709340849
 30
0.0
 10
290.1088223291495
 20
420.1027167806893
 30
0.0
 10
290.0933228905515
 20
420.1022458711037
 30
0.0
 10
290.0685728818597
 20
420.1014556503288
 30
0.0
 10
290.0337124938367
 20
420.1003002033324
 30
0.0
 10
289.9890869633113
 20
420.0987726693502
 30
0.0
 10
289.9347833957073
 20
420.0968637825545
 30
0.0
 10
289.8710221586532
 20
420.094573186894
 30
0.0
 10
289.7980477012495
 20
420.0919064627556
 30
0.0
 10
289.7161607783291
 20
420.0888759103239
 30
0.0
 10
289.6256818533595
 20
420.0855000341888
 30
0.0
 10
289.37563372457
 20
420.0761303201222
 30
0.0
 10
288.8648878196735
 20
420.0570943468834
 30
0.0
 10
287.9433548888152
 20
420.0174765464924
 30
0.0
 10
286.8735253988223
 20
419.9651722074898
 30
0.0
 10
285.8836926803056
 20
419.9082094680404
 30
0.0
 10
285.0717770137603
 20
419.8540347947624
 30
0.0
 10
284.4533894359669
 20
419.8086362469491
 30
0.0
 10
283.8574817744279
 20
419.761401922899
 30
0.0
 10
283.4683666069138
 20
419.7270767540535
 30
0.0
 10
283.2784063813029
 20
419.7103197181876
 30
0.0
  0
SPLINE
  5
13B
330
1F
100
AcDbEntity
  8
0
  6
Continuous
 62
     8
370
     0
100
AcDbSpline
210
0.0
220
0.0
230
1.0
 70
     8
 71
     3
 72
    20
 73
    16
 74
     0
 42
0.00000001
 43
0.00000001
 40
0.0
 40
0.0
 40
0.0
 40
0.0
 40
0.0589537588618625
 40
0.115866178658384
 40
0.1707778125127937
 40
0.2237338102936668
 40
0.2747845109053558
 40
0.407459609530187
 40
0.5313394881324991
 40
0.6288272132806838
 40
0.7238060511779953
 40
0.7931743490302363
 40
0.8620056015937714
 40
0.9307852955936905
 40
1.0
 40
1.0
 40
1.0
 40
1.0
 10
287.3178706549426
 20
407.6743197181876
 30
0.0
 10
287.3766156946348
 20
407.7204844388573
 30
0.0
 10
287.4920716620858
 20
407.8112153757154
 30
0.0
 10
287.6578956898306
 20
407.9496894200535
 30
0.0
 10
287.8143476105489
 20
408.0860610265238
 30
0.0
 10
287.9611679317453
 20
408.2200755491144
 30
0.0
 10
288.1731349945105
 20
408.4222797275555
 30
0.0
 10
288.4314679806649
 20
408.6900443936502
 30
0.0
 10
288.6900792297816
 20
408.990700770632
 30
0.0
 10
288.8820843017458
 20
409.236503702661
 30
0.0
 10
289.0086918730165
 20
409.411202881221
 30
0.0
 10
289.0942351379613
 20
409.5355384039013
 30
0.0
 10
289.1485435941207
 20
409.6173933336014
 30
0.0
 10
289.1824613615987
 20
409.6703242000006
 30
0.0
 10
289.1865985293558
 20
409.6769808839987
 30
0.0
 10
289.1886736341912
 20
409.6803197181875
 30
0.0
  0
LINE
  5
13C
330
1F
100
AcDbEntity
  8
0
  6
Continuous
 62
     8
370
     0
100
AcDbLine
 10
269.8299680935
 20
407.6743197182
 30
0.0
 11
287.3178706549
 21
407.6743197182
 31
0.0
  0
SPLINE
  5
13D
330
1F
100
AcDbEntity
  8
0
  6
Continuous
 62
     8
370
     0
100
AcDbSpline
210
0.0
220
0.0
230
1.0
 70
     8
 71
     3
 72
    21
 73
    17
 74
     0
 42
0.00000001
 43
0.00000001
 40
0.0
 40
0.0
 40
0.0
 40
0.0
 40
0.0329216675290003
 40
0.0657179210861811
 40
0.0984404118344814
 40
0.1311411404859731
 40
0.1638722114945458
 40
0.1966855847917108
 40
0.2296328309425052
 40
0.347355675288905
 40
0.4686106704854078
 40
0.5923119009964752
 40
0.7252633218378237
 40
0.8111474441118675
 40
0.9026560147318212
 40
1.0
 40
1.0
 40
1.0
 40
1.0
 10
267.9591651142089
 20
409.6803197181875
 30
0.0
 10
267.9596365936048
 20
409.6795678290102
 30
0.0
 10
267.9605777563117
 20
409.6780669149518
 30
0.0
 10
267.9682290084065
 20
409.665994962241
 30
0.0
 10
267.9804554286872
 20
409.646928905097
 30
0.0
 10
267.9977009783631
 20
409.6203572173128
 30
0.0
 10
268.0198428795856
 20
409.5866930813402
 30
0.0
 10
268.0469286351054
 20
409.5461194559137
 30
0.0
 10
268.1062271542701
 20
409.458615046993
 30
0.0
 10
268.2248109568702
 20
409.2902884225306
 30
0.0
 10
268.4402172272045
 20
409.0110587754773
 30
0.0
 10
268.7162705129344
 20
408.6903555164898
 30
0.0
 10
269.0037238633009
 20
408.3921537171744
 30
0.0
 10
269.2850629150255
 20
408.1278827998076
 30
0.0
 10
269.5457210766425
 20
407.8996935352988
 30
0.0
 10
269.7332871996019
 20
407.7509760797357
 30
0.0
 10
269.8299680934575
 20
407.6743197181876
 30
0.0
  0
SPLINE
  5
13E
330
1F
100
AcDbEntity
  8
0
  6
Continuous
 62
     8
370
     0
100
AcDbSpline
210
0.0
220
0.0
230
1.0
 70
     8
 71
     3
 72
    20
 73
    16
 74
     0
 42
0.00000001
 43
0.00000001
 40
0.0
 40
0.0
 40
0.0
 40
0.0
 40
0.0589500629549235
 40
0.1158607365172695
 40
0.170772572929324
 40
0.2237307164152398
 40
0.2747854940165828
 40
0.4074531095717532
 40
0.5313400237327819
 40
0.6288165948570779
 40
0.7238066110003882
 40
0.793172253642231
 40
0.8620024880808937
 40
0.9307828696169875
 40
1.0
 40
1.0
 40
1.0
 40
1.0
 10
269.8299680934575
 20
422.7193197181875
 30
0.0
 10
269.7712267662677
 20
422.6731578387953
 30
0.0
 10
269.6557762800245
 20
422.5824310595976
 30
0.0
 10
269.4899576958546
 20
422.4439607316899
 30
0.0
 10
269.333505376612
 20
422.3075882449369
 30
0.0
 10
269.1866791255999
 20
422.1735681540789
 30
0.0
 10
268.9747108739546
 20
421.9713670701428
 30
0.0
 10
268.716375258376
 20
421.7035989750409
 30
0.0
 10
268.4577675906173
 20
421.4029535882892
 30
0.0
 10
268.2657579584453
 20
421.1571432161863
 30
0.0
 10
268.1391543429359
 20
420.982442691626
 30
0.0
 10
268.0536025030164
 20
420.8581037362161
 30
0.0
 10
267.9992947839889
 20
420.7762486475175
 30
0.0
 10
267.9653771421712
 20
420.7233158452541
 30
0.0
 10
267.9612401545855
 20
420.7166587835297
 30
0.0
 10
267.9591651142089
 20
420.7133197181876
 30
0.0
  0
LINE
  5
13F
330
1F
100
AcDbEntity
  8
0
  6
Continuous
 62
     8
370
     0
100
AcDbLine
 10
287.3178706549
 20
422.7193197182
 30
0.0
 11
269.8299680935
 21
422.7193197182
 31
0.0
  0
SPLINE
  5
140
330
1F
100
AcDbEntity
  8
0
  6
Continuous
 62
     8
370
     0
100
AcDbSpline
210
0.0
220
0.0
230
1.0
 70
     8
 71
     3
 72
    21
 73
    17
 74
     0
 42
0.00000001
 43
0.00000001
 40
0.0
 40
0.0
 40
0.0
 40
0.0
 40
0.0329216675263088
 40
0.0657179210816981
 40
0.0984404118291058
 40
0.1311411404805967
 40
0.1638722114900535
 40
0.1966855847889732
 40
0.2296328309423734
 40
0.3473556752843459
 40
0.468610670485411
 40
0.5923119009970157
 40
0.7252633218378091
 40
0.8111474441108524
 40
0.9026560147308085
 40
1.0
 40
1.0
 40
1.0
 40
1.0
 10
289.1886736341912
 20
420.7133197181876
 30
0.0
 10
289.1882021547954
 20
420.7140716073648
 30
0.0
 10
289.1872609920883
 20
420.7155725214229
 30
0.0
 10
289.1796097399935
 20
420.7276444741322
 30
0.0
 10
289.1673833197127
 20
420.7467105312745
 30
0.0
 10
289.1501377700367
 20
420.7732822190574
 30
0.0
 10
289.1279958688142
 20
420.80694635503
 30
0.0
 10
289.1009101132942
 20
420.8475199804579
 30
0.0
 10
289.0416115941351
 20
420.9350243893786
 30
0.0
 10
288.9230277915367
 20
421.1033510138425
 30
0.0
 10
288.7076215211978
 20
421.3825806608941
 30
0.0
 10
288.4315682354644
 20
421.7032839198851
 30
0.0
 10
288.1441148850994
 20
422.0014857192003
 30
0.0
 10
287.8627758333767
 20
422.2657566365662
 30
0.0
 10
287.6021176717597
 20
422.4939459010748
 30
0.0
 10
287.4145515487992
 20
422.6426633566386
 30
0.0
 10
287.3178706549426
 20
422.7193197181875
 30
0.0
  0
ARC
  5
141
330
1F
100
AcDbEntity
  8
0
  6
Continuous
 62
     8
370
     0
100
AcDbCircle
 10
278.5739193742
 20
415.1968197182
 30
0.0
 40
11.53449999999998
100
AcDbArc
 50
220.705706831
 51
319.294293169
  0
ARC
  5
142
330
1F
100
AcDbEntity
  8
0
  6
Continuous
 62
     8
370
     0
100
AcDbCircle
 10
278.5739193742
 20
415.1968197182
 30
0.0
 40
11.53449999999998
100
AcDbArc
 50
40.705706831
 51
139.294293169
  0
LWPOLYLINE
  5
143
330
1F
100
AcDbEntity
  8
0
  6
Continuous
 62
     8
370
     0
100
AcDbPolyline
 90
       23
 70
   128
 43
0.0
 10
359.0145193746
 20
534.6117257951
 10
360.2861192699
 20
534.6703011007
 10
361.4547017042
 20
534.8412815944
 10
362.4255950785
 20
535.1108154535
 10
363.1201433857
 20
535.4570666477
 10
363.4820784526
 20
535.8519839646
 10
363.4820784526
 20
536.2635735517
 10
363.1201433857
 20
536.6584908686
 10
362.4255950785
 20
537.0047420628
 10
361.4547017042
 20
537.2742759219
 10
360.2861192699
 20
537.4452564156
 10
359.0145193746
 20
537.5038317212
 10
357.7429194793
 20
537.4452564156
 10
356.5743370451
 20
537.2742759219
 10
355.6034436708
 20
537.0047420628
 10
354.9088953636
 20
536.6584908686
 10
354.5469602967
 20
536.2635735517
 10
354.5469602967
 20
535.8519839646
 10
354.9088953636
 20
535.4570666477
 10
355.6034436708
 20
535.1108154535
 10
356.5743370451
 20
534.8412815944
 10
357.7429194793
 20
534.6703011007
 10
359.0145193746
 20
534.6117257951
  0
LWPOLYLINE
  5
144
330
1F
100
AcDbEntity
  8
0
  6
Continuous
 62
     8
370
     0
100
AcDbPolyline
 90
        7
 70
   128
 43
0.0
 10
359.0145193746
 20
533.9759884258
 10
357.6614885673
 20
534.0355701664
 10
356.4088058652
 20
534.2098964829
 10
355.3493770138
 20
534.4860383901
 10
354.5617750044
 20
534.8435157058
 10
354.1044126749
 20
535.255815973
 10
353.999584955
 20
535.5909308138
  0
LWPOLYLINE
  5
145
330
1F
100
AcDbEntity
  8
0
  6
Continuous
 62
     8
370
     0
100
AcDbPolyline
 90
        7
 70
   128
 43
0.0
 10
364.0282225996
 20
535.5461775643
 10
363.9246260744
 20
535.255815973
 10
363.4672637449
 20
534.8435157058
 10
362.6796617355
 20
534.4860383901
 10
361.6202328841
 20
534.2098964829
 10
360.367550182
 20
534.0355701664
 10
359.0145193746
 20
533.9759884258
  0
SPLINE
  5
146
330
1F
100
AcDbEntity
  8
0
  6
Continuous
 62
     8
370
     0
100
AcDbSpline
210
0.0
220
0.0
230
1.0
 70
     8
 71
     3
 72
    42
 73
    38
 74
     0
 42
0.00000001
 43
0.00000001
 40
0.0
 40
0.0
 40
0.0
 40
0.0
 40
0.0060544076340045
 40
0.0326915838405077
 40
0.0591715035088692
 40
0.0858590486760289
 40
0.11319174249623
 40
0.1407418724919231
 40
0.1673745318259799
 40
0.1941966222532608
 40
0.2216038948900793
 40
0.2492091199679708
 40
0.2752760036359833
 40
0.3282398955522685
 40
0.3552017194186937
 40
0.3811654196104857
 40
0.434001873016604
 40
0.4609533709620027
 40
0.4826902016917385
 40
0.5267340382733036
 40
0.5490793680974666
 40
0.575680356865391
 40
0.6024900181150257
 40
0.6299442916633973
 40
0.6576145115645633
 40
0.6841434709818199
 40
0.7108558790330679
 40
0.738136844371105
 40
0.7656114852194859
 40
0.7913274799339608
 40
0.843565545767347
 40
0.8701523507089148
 40
0.895524545184597
 40
0.9471287824562568
 40
0.9734323794642402
 40
0.9994332248060649
 40
1.0
 40
1.0
 40
1.0
 40
1.0
 10
354.0065388026703
 20
478.0973971350877
 30
0.0
 10
354.0041510550715
 20
478.0879519733509
 30
0.0
 10
353.9912580925337
 20
478.0369515591942
 30
0.0
 10
354.0243382419469
 20
477.9255627965562
 30
0.0
 10
354.0805560769081
 20
477.7731562597266
 30
0.0
 10
354.1786088855961
 20
477.6085015143706
 30
0.0
 10
354.3112544242134
 20
477.4352340657669
 30
0.0
 10
354.4785490928255
 20
477.257068673812
 30
0.0
 10
354.6767851575921
 20
477.0777148866343
 30
0.0
 10
354.9047903850778
 20
476.8987300413282
 30
0.0
 10
355.1647093890847
 20
476.7201941222138
 30
0.0
 10
355.4497988513018
 20
476.548531875124
 30
0.0
 10
355.8574436630317
 20
476.3329833448742
 30
0.0
 10
356.3082386915972
 20
476.1379448393627
 30
0.0
 10
356.7950165122901
 20
475.9727293296014
 30
0.0
 10
357.3026709352106
 20
475.8299524981314
 30
0.0
 10
357.8388378176901
 20
475.7242544119877
 30
0.0
 10
358.3682667934523
 20
475.6654294627739
 30
0.0
 10
358.8570322146501
 20
475.6362740643755
 30
0.0
 10
359.3252942347925
 20
475.6409689356976
 30
0.0
 10
359.8136225092099
 20
475.6801641149798
 30
0.0
 10
360.2062344976538
 20
475.7320420242227
 30
0.0
 10
360.6157849466277
 20
475.8094644556087
 30
0.0
 10
361.0179428352608
 20
475.9089184111766
 30
0.0
 10
361.4028357699658
 20
476.0272113426669
 30
0.0
 10
361.7661703009344
 20
476.1608042691215
 30
0.0
 10
362.1079411730689
 20
476.3074629464696
 30
0.0
 10
362.4313117850533
 20
476.4674288254755
 30
0.0
 10
362.7263168271596
 20
476.6344827681227
 30
0.0
 10
363.0792000300913
 20
476.8614088459309
 30
0.0
 10
363.377730150414
 20
477.0941638378611
 30
0.0
 10
363.6164429384023
 20
477.3240239156405
 30
0.0
 10
363.8129700098473
 20
477.5481884747639
 30
0.0
 10
363.9513822946718
 20
477.763540213259
 30
0.0
 10
364.0122288895734
 20
477.9583562435739
 30
0.0
 10
364.0407329929952
 20
478.0577475237135
 30
0.0
 10
364.0290234996899
 20
478.09872989099
 30
0.0
 10
364.0287736974793
 20
478.0996041803954
 30
0.0
  0
LINE
  5
147
330
1F
100
AcDbEntity
  8
0
  6
Continuous
 62
     8
370
     0
100
AcDbLine
 10
278.5739193738
 20
499.732161604
 30
0.0
 11
302.6459193738
 21
499.732161604
 31
0.0
  0
LINE
  5
148
330
1F
100
AcDbEntity
  8
0
  6
Continuous
 62
     8
370
     0
100
AcDbLine
 10
254.5019193738
 20
499.732161604
 30
0.0
 11
278.5739193738
 21
499.732161604
 31
0.0
  0
LINE
  5
149
330
1F
100
AcDbEntity
  8
0
  6
Continuous
 62
     8
370
     0
100
AcDbLine
 10
278.5739193738
 20
499.8901957215
 30
0.0
 11
302.5688733203
 21
499.8901957215
 31
0.0
  0
LINE
  5
14A
330
1F
100
AcDbEntity
  8
0
  6
Continuous
 62
     8
370
     0
100
AcDbLine
 10
254.5789654274
 20
499.8901957215
 30
0.0
 11
278.5739193738
 21
499.8901957215
 31
0.0
  0
SPLINE
  5
14B
330
1F
100
AcDbEntity
  8
0
  6
Continuous
 62
     8
370
     0
100
AcDbSpline
210
0.0
220
0.0
230
1.0
 70
     8
 71
     3
 72
    10
 73
     6
 74
     0
 42
0.00000001
 43
0.00000001
 40
0.0
 40
0.0
 40
0.0
 40
0.0
 40
0.5
 40
0.5
 40
1.0
 40
1.0
 40
1.0
 40
1.0
 10
299.672829954148
 20
481.3992440393063
 30
0.0
 10
299.3419987571078
 20
481.0541300795822
 30
0.0
 10
298.9895139217625
 20
480.6999927091092
 30
0.0
 10
298.2518597769421
 20
480.0033791723719
 30
0.0
 10
297.8660929470688
 20
479.6628709286964
 30
0.0
 10
297.4718079372363
 20
479.3347887982237
 30
0.0
  0
SPLINE
  5
14C
330
1F
100
AcDbEntity
  8
0
  6
Continuous
 62
     8
370
     0
100
AcDbSpline
210
0.0
220
0.0
230
1.0
 70
     8
 71
     3
 72
    14
 73
    10
 74
     0
 42
0.00000001
 43
0.00000001
 40
0.0
 40
0.0
 40
0.0
 40
0.0
 40
0.2499999999999991
 40
0.2499999999999991
 40
0.4999999999999994
 40
0.4999999999999994
 40
0.7499999999999998
 40
0.7499999999999998
 40
1.0
 40
1.0
 40
1.0
 40
1.0
 10
297.4718079372363
 20
479.3347887982237
 30
0.0
 10
297.1254254512691
 20
479.0465660630939
 30
0.0
 10
296.7727476801574
 20
478.7673002578121
 30
0.0
 10
296.0625660117617
 20
478.2006766628279
 30
0.0
 10
295.7047585746175
 20
477.9112869385835
 30
0.0
 10
294.9864576175418
 20
477.2897535957505
 30
0.0
 10
294.6256994541343
 20
476.9559503080794
 30
0.0
 10
293.9046794926846
 20
476.2528928638098
 30
0.0
 10
293.5442389117269
 20
475.8837719237944
 30
0.0
 10
293.188254133308
 20
475.5234415358464
 30
0.0
  0
SPLINE
  5
14D
330
1F
100
AcDbEntity
  8
0
  6
Continuous
 62
     8
370
     0
100
AcDbSpline
210
0.0
220
0.0
230
1.0
 70
     8
 71
     3
 72
    16
 73
    12
 74
     0
 42
0.00000001
 43
0.00000001
 40
0.0
 40
0.0
 40
0.0
 40
0.0
 40
0.2499999999999999
 40
0.2499999999999999
 40
0.4999999999999997
 40
0.4999999999999997
 40
0.6249999999999996
 40
0.6249999999999996
 40
0.7499999999999993
 40
0.7499999999999993
 40
1.0
 40
1.0
 40
1.0
 40
1.0
 10
293.188254133308
 20
475.5234415358464
 30
0.0
 10
292.4910256577218
 20
474.8177017988354
 30
0.0
 10
291.8147672930269
 20
474.153653785291
 30
0.0
 10
290.5381772345928
 20
472.859807643671
 30
0.0
 10
289.9350810005457
 20
472.2250353850362
 30
0.0
 10
289.0751493341166
 20
471.2193927278418
 30
0.0
 10
288.7960014004568
 20
470.8767225123315
 30
0.0
 10
288.2531738367301
 20
470.1770899382087
 30
0.0
 10
287.9890863507199
 20
469.8185145418121
 30
0.0
 10
287.2249319729293
 20
468.738902775484
 30
0.0
 10
286.7538139189367
 20
468.0172341418904
 30
0.0
 10
286.3422905820379
 20
467.3721187800564
 30
0.0
  0
SPLINE
  5
14E
330
1F
100
AcDbEntity
  8
0
  6
Continuous
 62
     8
370
     0
100
AcDbSpline
210
0.0
220
0.0
230
1.0
 70
     8
 71
     3
 72
    38
 73
    34
 74
     0
 42
0.00000001
 43
0.00000001
 40
0.0
 40
0.0
 40
0.0
 40
0.0
 40
0.0624999999999999
 40
0.0624999999999999
 40
0.1249999999999998
 40
0.1249999999999998
 40
0.1874999999999998
 40
0.1874999999999998
 40
0.2499999999999997
 40
0.2499999999999997
 40
0.3749999999999994
 40
0.3749999999999994
 40
0.4999999999999992
 40
0.4999999999999992
 40
0.624999999999999
 40
0.624999999999999
 40
0.7499999999999988
 40
0.7499999999999988
 40
0.8124999999999987
 40
0.8124999999999987
 40
0.8749999999999986
 40
0.8749999999999986
 40
0.9062499999999989
 40
0.9062499999999989
 40
0.9374999999999991
 40
0.9374999999999991
 40
0.9687499999999993
 40
0.9687499999999993
 40
0.9843749999999997
 40
0.9843749999999997
 40
0.9921874999999999
 40
0.9921874999999999
 40
1.0
 40
1.0
 40
1.0
 40
1.0
 10
286.3422905820379
 20
467.3721187800564
 30
0.0
 10
286.108524255263
 20
467.0056602259637
 30
0.0
 10
285.9161431899654
 20
466.74328804779
 30
0.0
 10
285.5673042727488
 20
466.2721925179928
 30
0.0
 10
285.4106494066754
 20
466.0644928433198
 30
0.0
 10
285.118944135866
 20
465.668841714532
 30
0.0
 10
284.9847056543196
 20
465.4832828086464
 30
0.0
 10
284.7312273798894
 20
465.1174221991837
 30
0.0
 10
284.6120162366454
 20
464.9373627289413
 30
0.0
 10
284.2738180599574
 20
464.4009539092854
 30
0.0
 10
284.0738098657673
 20
464.0471604250271
 30
0.0
 10
283.7077824281998
 20
463.3180571375108
 30
0.0
 10
283.5426513715763
 20
462.9444096863342
 30
0.0
 10
283.2401828962787
 20
462.1630971967131
 30
0.0
 10
283.1028375360651
 20
461.7559937856744
 30
0.0
 10
282.8520028823816
 20
460.8896592306488
 30
0.0
 10
282.7382929475867
 20
460.4338730854839
 30
0.0
 10
282.5840896583214
 20
459.6831793551751
 30
0.0
 10
282.5354373046795
 20
459.4211911400926
 30
0.0
 10
282.4435043422766
 20
458.8661080070706
 30
0.0
 10
282.4001887942561
 20
458.5747738846713
 30
0.0
 10
282.3395160442872
 20
458.0925633810727
 30
0.0
 10
282.3199995809148
 20
457.9247679028696
 30
0.0
 10
282.2824925484049
 20
457.5669650856822
 30
0.0
 10
282.2645301759196
 20
457.3758395313248
 30
0.0
 10
282.2305627560621
 20
456.9509143238504
 30
0.0
 10
282.2142278379484
 20
456.7240425290922
 30
0.0
 10
282.1931134790028
 20
456.2914403865491
 30
0.0
 10
282.1864822265905
 20
456.1332935589998
 30
0.0
 10
282.1785466064911
 20
455.8523492402252
 30
0.0
 10
282.1762511792711
 20
455.7514014578051
 30
0.0
 10
282.1731387959128
 20
455.5312622012538
 30
0.0
 10
282.1723129718221
 20
455.4133998184655
 30
0.0
 10
282.1723141001279
 20
455.2961946960463
 30
0.0
  0
SPLINE
  5
14F
330
1F
100
AcDbEntity
  8
0
  6
Continuous
 62
     8
370
     0
100
AcDbSpline
210
0.0
220
0.0
230
1.0
 70
     8
 71
     3
 72
    26
 73
    22
 74
     0
 42
0.00000001
 43
0.00000001
 40
0.0
 40
0.0
 40
0.0
 40
0.0
 40
0.0156249999999999
 40
0.0156249999999999
 40
0.0312499999999998
 40
0.0312499999999998
 40
0.0624999999999994
 40
0.0624999999999994
 40
0.1249999999999997
 40
0.1249999999999997
 40
0.1874999999999998
 40
0.1874999999999998
 40
0.25
 40
0.25
 40
0.3750000000000002
 40
0.3750000000000002
 40
0.5000000000000006
 40
0.5000000000000006
 40
0.7500000000000002
 40
0.7500000000000002
 40
1.0
 40
1.0
 40
1.0
 40
1.0
 10
282.1723141001279
 20
455.2961946960463
 30
0.0
 10
282.1723152196275
 20
455.1800286446846
 30
0.0
 10
282.1731023802718
 20
455.0629840708436
 30
0.0
 10
282.1761852135691
 20
454.845018966687
 30
0.0
 10
282.17843378129
 20
454.7449424129264
 30
0.0
 10
282.1862340597978
 20
454.4660174062956
 30
0.0
 10
282.1928669048116
 20
454.308949946311
 30
0.0
 10
282.2137952143018
 20
453.879585711396
 30
0.0
 10
282.2298714291133
 20
453.6521239737536
 30
0.0
 10
282.2634728977258
 20
453.2287947749633
 30
0.0
 10
282.2812429201392
 20
453.0385502418558
 30
0.0
 10
282.3183477545261
 20
452.6827537108915
 30
0.0
 10
282.3376544694568
 20
452.5160814648324
 30
0.0
 10
282.3976373638073
 20
452.0366625544111
 30
0.0
 10
282.4404303908358
 20
451.7472468403739
 30
0.0
 10
282.5312543522466
 20
451.1961225411322
 30
0.0
 10
282.5793169063759
 20
450.9356319329626
 30
0.0
 10
282.7315995583047
 20
450.1889010541595
 30
0.0
 10
282.8437928502065
 20
449.7357198532373
 30
0.0
 10
283.0911314178902
 20
448.8744922757812
 30
0.0
 10
283.2265176790544
 20
448.4694492182066
 30
0.0
 10
283.3754601231446
 20
448.0809069488135
 30
0.0
  0
SPLINE
  5
150
330
1F
100
AcDbEntity
  8
0
  6
Continuous
 62
     8
370
     0
100
AcDbSpline
210
0.0
220
0.0
230
1.0
 70
     8
 71
     3
 72
    19
 73
    15
 74
     0
 42
0.00000001
 43
0.00000001
 40
0.0
 40
0.0
 40
0.0
 40
0.0
 40
0.2500000000000001
 40
0.2500000000000001
 40
0.5000000000000001
 40
0.5000000000000001
 40
0.6250000000000002
 40
0.6250000000000002
 40
0.7500000000000002
 40
0.8125000000000002
 40
0.8125000000000002
 40
0.8750000000000002
 40
0.8750000000000002
 40
1.0
 40
1.0
 40
1.0
 40
1.0
 10
283.3754601231446
 20
448.0809069488135
 30
0.0
 10
283.5270611429198
 20
447.6854293223681
 30
0.0
 10
283.692628644929
 20
447.3076126422875
 30
0.0
 10
284.0600567292244
 20
446.5709542272008
 30
0.0
 10
284.2611888202809
 20
446.2132880379008
 30
0.0
 10
284.6009090255102
 20
445.672611883254
 30
0.0
 10
284.7204448637947
 20
445.4917829623088
 30
0.0
 10
284.9749042045522
 20
445.1242181886015
 30
0.0
 10
285.177919374576
 20
444.8424806587726
 30
0.0
 10
285.4069383384913
 20
444.5342422607151
 30
0.0
 10
285.5662571349893
 20
444.3209270308586
 30
0.0
 10
285.6491275392399
 20
444.2107907713966
 30
0.0
 10
285.9125772164125
 20
443.85513359291
 30
0.0
 10
286.1063567969225
 20
443.5910802535597
 30
0.0
 10
286.3421733213079
 20
443.2214130691563
 30
0.0
  0
SPLINE
  5
151
330
1F
100
AcDbEntity
  8
0
  6
Continuous
 62
     8
370
     0
100
AcDbSpline
210
0.0
220
0.0
230
1.0
 70
     8
 71
     3
 72
    16
 73
    12
 74
     0
 42
0.00000001
 43
0.00000001
 40
0.0
 40
0.0
 40
0.0
 40
0.0
 40
0.2499999999999994
 40
0.2499999999999994
 40
0.3749999999999994
 40
0.3749999999999994
 40
0.4999999999999993
 40
0.4999999999999993
 40
0.7499999999999997
 40
0.7499999999999997
 40
1.0
 40
1.0
 40
1.0
 40
1.0
 10
286.3421733213079
 20
443.2214130691564
 30
0.0
 10
286.7536813644984
 20
442.5763309972868
 30
0.0
 10
287.224785894021
 20
441.8546943825793
 30
0.0
 10
287.9889327937809
 20
440.7750821500467
 30
0.0
 10
288.2530268401304
 20
440.4164702324188
 30
0.0
 10
288.7958548889793
 20
439.7168209297348
 30
0.0
 10
289.0749977154409
 20
439.3741654518191
 30
0.0
 10
289.9349386530504
 20
438.3684614380957
 30
0.0
 10
290.5380549081165
 20
437.7335774308289
 30
0.0
 10
291.8146501126224
 20
436.439714549531
 30
0.0
 10
292.4908794446115
 20
435.775809262175
 30
0.0
 10
293.188109420468
 20
435.0701124194863
 30
0.0
  0
SPLINE
  5
152
330
1F
100
AcDbEntity
  8
0
  6
Continuous
 62
     8
370
     0
100
AcDbSpline
210
0.0
220
0.0
230
1.0
 70
     8
 71
     3
 72
    20
 73
    16
 74
     0
 42
0.00000001
 43
0.00000001
 40
0.0
 40
0.0
 40
0.0
 40
0.0
 40
0.1250000000000003
 40
0.1250000000000003
 40
0.2500000000000003
 40
0.2500000000000003
 40
0.3750000000000004
 40
0.3750000000000004
 40
0.5000000000000004
 40
0.5000000000000004
 40
0.6250000000000004
 40
0.6250000000000004
 40
0.7500000000000003
 40
0.7500000000000003
 40
1.0
 40
1.0
 40
1.0
 40
1.0
 10
293.188109420468
 20
435.0701124194863
 30
0.0
 10
293.4673987940656
 20
434.7874314761033
 30
0.0
 10
293.7494758517415
 20
434.4990337332611
 30
0.0
 10
294.3147527407377
 20
433.9377339033464
 30
0.0
 10
294.5979172688543
 20
433.6650626658515
 30
0.0
 10
295.1630976200635
 20
433.1478826656093
 30
0.0
 10
295.4450808873964
 20
432.9039488803237
 30
0.0
 10
296.0068515882434
 20
432.4366421958598
 30
0.0
 10
296.2866659886806
 20
432.213617731166
 30
0.0
 10
296.8425970145445
 20
431.7706174714229
 30
0.0
 10
297.1188386486041
 20
431.5502457273508
 30
0.0
 10
297.6638640241458
 20
431.0999990677341
 30
0.0
 10
297.9327286627195
 20
430.8695435140519
 30
0.0
 10
298.7193555018538
 20
430.1628821875264
 30
0.0
 10
299.2165853718652
 20
429.6701388982989
 30
0.0
 10
299.672645031038
 20
429.1943992131164
 30
0.0
  0
SPLINE
  5
153
330
1F
100
AcDbEntity
  8
0
  6
Continuous
 62
     8
370
     0
100
AcDbSpline
210
0.0
220
0.0
230
1.0
 70
     8
 71
     3
 72
    12
 73
     8
 74
     0
 42
0.00000001
 43
0.00000001
 40
0.0
 40
0.0
 40
0.0
 40
0.0
 40
0.4999999999999999
 40
0.4999999999999999
 40
0.75
 40
0.75
 40
1.0
 40
1.0
 40
1.0
 40
1.0
 10
299.672645031038
 20
429.1943992131163
 30
0.0
 10
300.5760166448495
 20
428.2520450266364
 30
0.0
 10
301.3276212778872
 20
427.4607130685383
 30
0.0
 10
302.1054754447044
 20
426.6839116480071
 30
0.0
 10
302.3065910095436
 20
426.4932602618897
 30
0.0
 10
302.5768220126542
 20
426.2751995732736
 30
0.0
 10
302.645919374638
 20
426.24785744572
 30
0.0
 10
302.645919374638
 20
426.3100597160363
 30
0.0
  0
SPLINE
  5
154
330
1F
100
AcDbEntity
  8
0
  6
Continuous
 62
     8
370
     0
100
AcDbSpline
210
0.0
220
0.0
230
1.0
 70
     8
 71
     3
 72
    12
 73
     8
 74
     0
 42
0.00000001
 43
0.00000001
 40
0.0
 40
0.0
 40
0.0
 40
0.0
 40
0.2499999999999998
 40
0.2499999999999998
 40
0.4999999999999996
 40
0.4999999999999996
 40
1.0
 40
1.0
 40
1.0
 40
1.0
 10
302.645919374638
 20
484.2833925651863
 30
0.0
 10
302.645919374638
 20
484.3456116226216
 30
0.0
 10
302.5768219757734
 20
484.3182612333033
 30
0.0
 10
302.306618674659
 20
484.1002070403697
 30
0.0
 10
302.1055136071911
 20
483.9095490355928
 30
0.0
 10
301.3277101646212
 20
483.1327868386379
 30
0.0
 10
300.5761483003316
 20
482.3415607941847
 30
0.0
 10
299.672829954148
 20
481.3992440393063
 30
0.0
  0
SPLINE
  5
155
330
1F
100
AcDbEntity
  8
0
  6
Continuous
 62
     8
370
     0
100
AcDbSpline
210
0.0
220
0.0
230
1.0
 70
     8
 71
     3
 72
    17
 73
    13
 74
     0
 42
0.00000001
 43
0.00000001
 40
0.0
 40
0.0
 40
0.0
 40
0.0
 40
0.056353814663835
 40
0.1149636980182022
 40
0.1759409394675254
 40
0.2393843707904126
 40
0.3053817445039635
 40
0.3740110162909314
 40
0.4846732050839238
 40
0.6229912083000086
 40
0.800835937020425
 40
1.0
 40
1.0
 40
1.0
 40
1.0
 10
294.1104520621379
 20
461.2060594503423
 30
0.0
 10
294.0666960218462
 20
461.1555200777412
 30
0.0
 10
293.977432211888
 20
461.0524180392298
 30
0.0
 10
293.8505703632126
 20
460.8867282287063
 30
0.0
 10
293.7255224077605
 20
460.7093438900767
 30
0.0
 10
293.6030372201944
 20
460.519550216531
 30
0.0
 10
293.4829325012805
 20
460.3174575167391
 30
0.0
 10
293.342614163089
 20
460.0620753835823
 30
0.0
 10
293.1751842384009
 20
459.7233470764988
 30
0.0
 10
292.9639429259143
 20
459.2603371417151
 30
0.0
 10
292.7200529388171
 20
458.6943748905372
 30
0.0
 10
292.550450467515
 20
458.2746342343675
 30
0.0
 10
292.4608538373579
 20
458.052896024753
 30
0.0
  0
SPLINE
  5
156
330
1F
100
AcDbEntity
  8
0
  6
Continuous
 62
     8
370
     0
100
AcDbSpline
210
0.0
220
0.0
230
1.0
 70
     8
 71
     3
 72
    16
 73
    12
 74
     0
 42
0.00000001
 43
0.00000001
 40
0.0
 40
0.0
 40
0.0
 40
0.0
 40
0.1456446914930264
 40
0.2730426942910886
 40
0.3822728532919585
 40
0.4734612287852308
 40
0.6899564737939368
 40
0.7481680001955109
 40
0.8102478408626459
 40
0.9051103832177912
 40
1.0
 40
1.0
 40
1.0
 40
1.0
 10
292.4608538373579
 20
458.052896024753
 30
0.0
 10
292.4104758373769
 20
457.9250031007393
 30
0.0
 10
292.3160313045428
 20
457.6852399607617
 30
0.0
 10
292.1923535821331
 20
457.3456102233949
 30
0.0
 10
292.0940668600313
 20
457.0512817801333
 30
0.0
 10
291.9839865400161
 20
456.6721456740183
 30
0.0
 10
291.9204535297978
 20
456.3289008847257
 30
0.0
 10
291.9030177183503
 20
456.0097635783453
 30
0.0
 10
291.902990510866
 20
455.8055615043459
 30
0.0
 10
291.9089417091077
 20
455.5666357680362
 30
0.0
 10
291.9149579427429
 20
455.3866285135742
 30
0.0
 10
291.9179664887679
 20
455.2966120443464
 30
0.0
  0
SPLINE
  5
157
330
1F
100
AcDbEntity
  8
0
  6
Continuous
 62
     8
370
     0
100
AcDbSpline
210
0.0
220
0.0
230
1.0
 70
     8
 71
     3
 72
    16
 73
    12
 74
     0
 42
0.00000001
 43
0.00000001
 40
0.0
 40
0.0
 40
0.0
 40
0.0
 40
0.0451079396551953
 40
0.1054423885481425
 40
0.1728786906099818
 40
0.2840101300585386
 40
0.3822398838888195
 40
0.4950071303974025
 40
0.6208833611186588
 40
0.7891735579132969
 40
1.0
 40
1.0
 40
1.0
 40
1.0
 10
291.9179664887679
 20
455.2966120443464
 30
0.0
 10
291.917400589704
 20
455.2417885142574
 30
0.0
 10
291.9160777682794
 20
455.1136353774614
 30
0.0
 10
291.9075765761409
 20
454.9036944371467
 30
0.0
 10
291.8987640833988
 20
454.6134951052521
 30
0.0
 10
291.9202340678811
 20
454.2768778309804
 30
0.0
 10
291.9938954581401
 20
453.8922458575991
 30
0.0
 10
292.1040842881593
 20
453.4984455711513
 30
0.0
 10
292.2681738238306
 20
453.033447145813
 30
0.0
 10
292.4891302370469
 20
452.4639765412965
 30
0.0
 10
292.6647482550685
 20
452.0422912449154
 30
0.0
 10
292.7624092862885
 20
451.8077924084133
 30
0.0
  0
SPLINE
  5
158
330
1F
100
AcDbEntity
  8
0
  6
Continuous
 62
     8
370
     0
100
AcDbSpline
210
0.0
220
0.0
230
1.0
 70
     8
 71
     3
 72
    15
 73
    11
 74
     0
 42
0.00000001
 43
0.00000001
 40
0.0
 40
0.0
 40
0.0
 40
0.0
 40
0.1495663411710862
 40
0.2791435943512536
 40
0.388760906357512
 40
0.5275572288900283
 40
0.6577666855645646
 40
0.7796696681445568
 40
0.8936079251357589
 40
1.0
 40
1.0
 40
1.0
 40
1.0
 10
292.7624092862885
 20
451.8077924084133
 30
0.0
 10
292.8169255540296
 20
451.6793234653337
 30
0.0
 10
292.9186721556294
 20
451.4395550638807
 30
0.0
 10
293.0654423241077
 20
451.1088841857385
 30
0.0
 10
293.2132902947803
 20
450.7903617469461
 30
0.0
 10
293.371739100732
 20
450.4769358360184
 30
0.0
 10
293.5494642695698
 20
450.1614907351833
 30
0.0
 10
293.7309777453169
 20
449.8756509141331
 30
0.0
 10
293.9145070929976
 20
449.617631785599
 30
0.0
 10
294.0466770391812
 20
449.4624895832813
 30
0.0
 10
294.1104986414579
 20
449.387575245956
 30
0.0
  0
SPLINE
  5
159
330
1F
100
AcDbEntity
  8
0
  6
Continuous
 62
     8
370
     0
100
AcDbSpline
210
0.0
220
0.0
230
1.0
 70
     8
 71
     3
 72
    29
 73
    25
 74
     0
 42
0.00000001
 43
0.00000001
 40
0.0
 40
0.0
 40
0.0
 40
0.0
 40
0.0387733510723908
 40
0.0770524170461501
 40
0.1148432504013195
 40
0.1521521412352678
 40
0.1889856265560599
 40
0.2253504997558727
 40
0.261253820235301
 40
0.2967029231437042
 40
0.3317054291943488
 40
0.3662692545062428
 40
0.4004026204171024
 40
0.4341140632037816
 40
0.467412443638086
 40
0.5003069562968673
 40
0.5652984949265288
 40
0.6293975305067668
 40
0.6926851678084099
 40
0.755245667444459
 40
0.8171662585535667
 40
0.8785368989567425
 40
0.9394499830830944
 40
1.0
 40
1.0
 40
1.0
 40
1.0
 10
305.826437941288
 20
435.2849484247196
 30
0.0
 10
305.8950769964294
 20
435.2132062085491
 30
0.0
 10
306.0314800917548
 20
435.070636350456
 30
0.0
 10
306.2280225427716
 20
434.865685356304
 30
0.0
 10
306.4169486944694
 20
434.668945056012
 30
0.0
 10
306.5977936136331
 20
434.4808537444166
 30
0.0
 10
306.7706794415164
 20
434.3011835245277
 30
0.0
 10
306.9355740048912
 20
434.1298764430758
 30
0.0
 10
307.0924856815331
 20
433.9668249827333
 30
0.0
 10
307.2414121681663
 20
433.8119300121057
 30
0.0
 10
307.3823539933479
 20
433.6650858006969
 30
0.0
 10
307.5153107898158
 20
433.5261842152606
 30
0.0
 10
307.6402829135022
 20
433.3951138154691
 30
0.0
 10
307.7572686726846
 20
433.2717604847468
 30
0.0
 10
307.8662736437813
 20
433.1560069244746
 30
0.0
 10
308.0005286119389
 20
433.012090279052
 30
0.0
 10
308.1496077203885
 20
432.8494459706665
 30
0.0
 10
308.2992303703099
 20
432.6809279728826
 30
0.0
 10
308.4189499169199
 20
432.5393996279251
 30
0.0
 10
308.5087124574469
 20
432.4245650997451
 30
0.0
 10
308.5687176571724
 20
432.3358791977667
 30
0.0
 10
308.5982053793555
 20
432.273549931695
 30
0.0
 10
308.5999625854928
 20
432.234873529071
 30
0.0
 10
308.5757096132797
 20
432.2301262575533
 30
0.0
 10
308.5636193746379
 20
432.2277597168653
 30
0.0
  0
SPLINE
  5
15A
330
1F
100
AcDbEntity
  8
0
  6
Continuous
 62
     8
370
     0
100
AcDbSpline
210
0.0
220
0.0
230
1.0
 70
     8
 71
     3
 72
    14
 73
    10
 74
     0
 42
0.00000001
 43
0.00000001
 40
0.0
 40
0.0
 40
0.0
 40
0.0
 40
0.1172106750887379
 40
0.23803433540572
 40
0.3624725273286194
 40
0.4905266653604758
 40
0.7219089093148797
 40
0.8917343070858854
 40
1.0
 40
1.0
 40
1.0
 40
1.0
 10
303.8998716233685
 20
437.5617452376801
 30
0.0
 10
303.9738172477322
 20
437.4622356084098
 30
0.0
 10
304.1239878489872
 20
437.2601489942692
 30
0.0
 10
304.354988180991
 20
436.9629610440039
 30
0.0
 10
304.5944012031316
 20
436.6651660037989
 30
0.0
 10
304.9072902015229
 20
436.2914191754676
 30
0.0
 10
305.2501806315788
 20
435.900942034166
 30
0.0
 10
305.5793966721637
 20
435.543655835401
 30
0.0
 10
305.7572115285123
 20
435.3574439476881
 30
0.0
 10
305.826437941288
 20
435.2849484247196
 30
0.0
  0
SPLINE
  5
15B
330
1F
100
AcDbEntity
  8
0
  6
Continuous
 62
     8
370
     0
100
AcDbSpline
210
0.0
220
0.0
230
1.0
 70
     8
 71
     3
 72
    17
 73
    13
 74
     0
 42
0.00000001
 43
0.00000001
 40
0.0
 40
0.0
 40
0.0
 40
0.0
 40
0.0785198924556773
 40
0.1453703545944144
 40
0.2005531538915442
 40
0.2440715683492472
 40
0.3702713948005694
 40
0.4913176338110103
 40
0.6077052835256654
 40
0.7408201869766516
 40
0.8153278988879723
 40
1.0
 40
1.0
 40
1.0
 40
1.0
 10
300.495233084048
 20
442.0049807775037
 30
0.0
 10
300.5989974594792
 20
441.8828719110085
 30
0.0
 10
300.7911050080117
 20
441.6568016927952
 30
0.0
 10
301.054164288346
 20
441.3490823575935
 30
0.0
 10
301.2695828719005
 20
441.0968261091482
 30
0.0
 10
301.5578687526273
 20
440.7552297997061
 30
0.0
 10
301.9163962203403
 20
440.3138624236145
 30
0.0
 10
302.3393143050516
 20
439.7653070749076
 30
0.0
 10
302.7399255786676
 20
439.2098609228964
 30
0.0
 10
303.0733568267248
 20
438.7340701833701
 30
0.0
 10
303.4604095035642
 20
438.1680727322805
 30
0.0
 10
303.7170259704856
 20
437.8140180539594
 30
0.0
 10
303.8998716233685
 20
437.5617452376801
 30
0.0
  0
SPLINE
  5
15C
330
1F
100
AcDbEntity
  8
0
  6
Continuous
 62
     8
370
     0
100
AcDbSpline
210
0.0
220
0.0
230
1.0
 70
     8
 71
     3
 72
     8
 73
     4
 74
     0
 42
0.00000001
 43
0.00000001
 40
0.0
 40
0.0
 40
0.0
 40
0.0
 40
1.0
 40
1.0
 40
1.0
 40
1.0
 10
300.495233084048
 20
442.0049807774263
 30
0.0
 10
300.2983990698098
 20
442.237113263152
 30
0.0
 10
300.1066853682819
 20
442.4673427141256
 30
0.0
 10
299.9195660557911
 20
442.6949960948681
 30
0.0
  0
SPLINE
  5
15D
330
1F
100
AcDbEntity
  8
0
  6
Continuous
 62
     8
370
     0
100
AcDbSpline
210
0.0
220
0.0
230
1.0
 70
     8
 71
     3
 72
    18
 73
    14
 74
     0
 42
0.00000001
 43
0.00000001
 40
0.0
 40
0.0
 40
0.0
 40
0.0
 40
0.045028598820909
 40
0.1016858951961789
 40
0.1579963091052573
 40
0.2143690592055786
 40
0.2995374660684811
 40
0.3804509236618355
 40
0.4571372425838574
 40
0.5791689112749473
 40
0.7144457095324492
 40
0.8189310604131603
 40
1.0
 40
1.0
 40
1.0
 40
1.0
 10
294.1104986414579
 20
449.387575245956
 30
0.0
 10
294.2030666137956
 20
449.2850500937393
 30
0.0
 10
294.412108364597
 20
449.0535225277862
 30
0.0
 10
294.7427000749539
 20
448.7006106892296
 30
0.0
 10
295.0976625501837
 20
448.3247314673013
 30
0.0
 10
295.5136840232665
 20
447.8890769675946
 30
0.0
 10
295.977843213166
 20
447.3996132483078
 30
0.0
 10
296.4732426317328
 20
446.8612105976044
 30
0.0
 10
297.031524329245
 20
446.2373484497947
 30
0.0
 10
297.6727953165282
 20
445.4829047657538
 30
0.0
 10
298.3399026553688
 20
444.6634733219045
 30
0.0
 10
299.0909531405529
 20
443.7128621795211
 30
0.0
 10
299.5980302808305
 20
443.0899691906964
 30
0.0
 10
299.9195660557911
 20
442.6949950063552
 30
0.0
  0
SPLINE
  5
15E
330
1F
100
AcDbEntity
  8
0
  6
Continuous
 62
     8
370
     0
100
AcDbSpline
210
0.0
220
0.0
230
1.0
 70
     8
 71
     3
 72
     8
 73
     4
 74
     0
 42
0.00000001
 43
0.00000001
 40
0.0
 40
0.0
 40
0.0
 40
0.0
 40
1.0
 40
1.0
 40
1.0
 40
1.0
 10
294.1104520621379
 20
461.2060594506164
 30
0.0
 10
294.3325552083007
 20
461.4550241639214
 30
0.0
 10
294.5803621778064
 20
461.7208767575793
 30
0.0
 10
294.8435373357967
 20
461.9994277133327
 30
0.0
  0
SPLINE
  5
15F
330
1F
100
AcDbEntity
  8
0
  6
Continuous
 62
     8
370
     0
100
AcDbSpline
210
0.0
220
0.0
230
1.0
 70
     8
 71
     3
 72
    19
 73
    15
 74
     0
 42
0.00000001
 43
0.00000001
 40
0.0
 40
0.0
 40
0.0
 40
0.0
 40
0.0408220227067232
 40
0.0900089647237831
 40
0.1475608190123495
 40
0.2333603357917989
 40
0.2859025352178577
 40
0.4160332044162404
 40
0.5400683301081634
 40
0.777537329946065
 40
0.8916957581795006
 40
0.9467983377205927
 40
0.9736638793205789
 40
1.0
 40
1.0
 40
1.0
 40
1.0
 10
300.495249834148
 20
468.5886862683717
 30
0.0
 10
300.4232700754702
 20
468.5034579457927
 30
0.0
 10
300.2645610471058
 20
468.3155370008756
 30
0.0
 10
300.0050229591805
 20
468.0031320403799
 30
0.0
 10
299.6668043613164
 20
467.5907600816547
 30
0.0
 10
299.3227488217621
 20
467.1646861823283
 30
0.0
 10
298.8504180851926
 20
466.5732682183876
 30
0.0
 10
298.3054934332751
 20
465.8889562230669
 30
0.0
 10
297.4080055514102
 20
464.7835636927682
 30
0.0
 10
296.4786144571265
 20
463.7261220725667
 30
0.0
 10
295.6415208165719
 20
462.8393490292836
 30
0.0
 10
295.2341472746497
 20
462.4112220125187
 30
0.0
 10
295.0088594873444
 20
462.174200717394
 30
0.0
 10
294.8982779128178
 20
462.0573338076447
 30
0.0
 10
294.8435373357967
 20
461.9994818363581
 30
0.0
  0
SPLINE
  5
160
330
1F
100
AcDbEntity
  8
0
  6
Continuous
 62
     8
370
     0
100
AcDbSpline
210
0.0
220
0.0
230
1.0
 70
     8
 71
     3
 72
    17
 73
    13
 74
     0
 42
0.00000001
 43
0.00000001
 40
0.0
 40
0.0
 40
0.0
 40
0.0
 40
0.0774617055604176
 40
0.145914135712237
 40
0.2053588834139642
 40
0.255798439799031
 40
0.3845362588792297
 40
0.5056491445340304
 40
0.6257324929360809
 40
0.7545880759908193
 40
0.8526809920680268
 40
1.0
 40
1.0
 40
1.0
 40
1.0
 10
303.5148092848774
 20
472.495902465003
 30
0.0
 10
303.448204742932
 20
472.4009490914519
 30
0.0
 10
303.3227421791768
 20
472.2220860089204
 30
0.0
 10
303.1442597300473
 20
471.9648194975347
 30
0.0
 10
302.9875807560639
 20
471.7387098983494
 30
0.0
 10
302.7746342913443
 20
471.4331943229641
 30
0.0
 10
302.4965467511208
 20
471.0442388194729
 30
0.0
 10
302.1348570530951
 20
470.5594546146033
 30
0.0
 10
301.7498618620888
 20
470.0728302966861
 30
0.0
 10
301.3712382754262
 20
469.6140661990694
 30
0.0
 10
300.9466698551418
 20
469.1187706934464
 30
0.0
 10
300.664583961523
 20
468.787528542486
 30
0.0
 10
300.495249834148
 20
468.5886862683717
 30
0.0
  0
SPLINE
  5
161
330
1F
100
AcDbEntity
  8
0
  6
Continuous
 62
     8
370
     0
100
AcDbSpline
210
0.0
220
0.0
230
1.0
 70
     8
 71
     3
 72
    14
 73
    10
 74
     0
 42
0.00000001
 43
0.00000001
 40
0.0
 40
0.0
 40
0.0
 40
0.0
 40
0.1420404257341144
 40
0.2642153313241595
 40
0.3665245764962341
 40
0.4489681148234763
 40
0.511546067488532
 40
0.7022720428544704
 40
1.0
 40
1.0
 40
1.0
 40
1.0
 10
305.1873838860781
 20
474.6181304868066
 30
0.0
 10
305.1069959065086
 20
474.527243268229
 30
0.0
 10
304.9574628665541
 20
474.3581801550659
 30
0.0
 10
304.7503636083705
 20
474.1145166235064
 30
0.0
 10
304.5772604175515
 20
473.9058781625744
 30
0.0
 10
304.4381326039983
 20
473.7343542202617
 30
0.0
 10
304.2501682147496
 20
473.4977682665061
 30
0.0
 10
303.9462877754273
 20
473.0995298860599
 30
0.0
 10
303.6782106697635
 20
472.7244968415853
 30
0.0
 10
303.5148092848747
 20
472.4959024649993
 30
0.0
  0
SPLINE
  5
162
330
1F
100
AcDbEntity
  8
0
  6
Continuous
 62
     8
370
     0
100
AcDbSpline
210
0.0
220
0.0
230
1.0
 70
     8
 71
     3
 72
    10
 73
     6
 74
     0
 42
0.00000001
 43
0.00000001
 40
0.0
 40
0.0
 40
0.0
 40
0.0
 40
0.2844722076583527
 40
0.6178045841992483
 40
1.0
 40
1.0
 40
1.0
 40
1.0
 10
305.8265512702579
 20
475.308761194887
 30
0.0
 10
305.7665009482923
 20
475.2456807829431
 30
0.0
 10
305.6360862251865
 20
475.1086854399078
 30
0.0
 10
305.4228335502102
 20
474.879570120507
 30
0.0
 10
305.2693606372442
 20
474.7091561923467
 30
0.0
 10
305.1873838860781
 20
474.6181304868066
 30
0.0
  0
SPLINE
  5
163
330
1F
100
AcDbEntity
  8
0
  6
Continuous
 62
     8
370
     0
100
AcDbSpline
210
0.0
220
0.0
230
1.0
 70
     8
 71
     3
 72
    30
 73
    26
 74
     0
 42
0.00000001
 43
0.00000001
 40
0.0
 40
0.0
 40
0.0
 40
0.0
 40
0.0302333116997198
 40
0.0605460324354669
 40
0.0909501454457869
 40
0.1214575262729832
 40
0.1520799303157382
 40
0.1828289810521587
 40
0.2137161589811251
 40
0.2447527913211833
 40
0.2759500424975299
 40
0.3073189054389889
 40
0.3388701936984544
 40
0.3706145344022018
 40
0.4025623620258607
 40
0.4347239129878079
 40
0.4671092210443354
 40
0.4997281134652218
 40
0.5659183610609221
 40
0.6337597321181848
 40
0.7033218349533058
 40
0.7746692414302516
 40
0.8478617982188327
 40
0.9229549402955652
 40
1.0
 40
1.0
 40
1.0
 40
1.0
 10
308.563552223788
 20
478.3657597199375
 30
0.0
 10
308.5703192739832
 20
478.3651702800568
 30
0.0
 10
308.5838711483092
 20
478.3639898521074
 30
0.0
 10
308.5946794102211
 20
478.3544054913797
 30
0.0
 10
308.5985576655466
 20
478.3390285947445
 30
0.0
 10
308.5948157285374
 20
478.3172393731704
 30
0.0
 10
308.58363952014
 20
478.2891312484532
 30
0.0
 10
308.5649790880532
 20
478.2546076787839
 30
0.0
 10
308.5388480345234
 20
478.213625433237
 30
0.0
 10
308.5052428416082
 20
478.1661291187298
 30
0.0
 10
308.4641646145629
 20
478.1120689015399
 30
0.0
 10
308.4156132266335
 20
478.0513958007269
 30
0.0
 10
308.3595888562119
 20
477.9840630266353
 30
0.0
 10
308.2960917260021
 20
477.9100257074138
 30
0.0
 10
308.2251215854504
 20
477.8292409783648
 30
0.0
 10
308.1466800596195
 20
477.7416682472033
 30
0.0
 10
308.0607616797817
 20
477.6472683799957
 30
0.0
 10
307.9355894430454
 20
477.5115227527321
 30
0.0
 10
307.7591447435956
 20
477.3234087147366
 30
0.0
 10
307.516870812659
 20
477.0687894626781
 30
0.0
 10
307.2426429688481
 20
476.7828109616127
 30
0.0
 10
306.9365761288008
 20
476.464735842694
 30
0.0
 10
306.5982138329852
 20
476.1132191813264
 30
0.0
 10
306.2293457797822
 20
475.7295119923571
 30
0.0
 10
305.9619596191651
 20
475.4502059500652
 30
0.0
 10
305.8265512702579
 20
475.308761194887
 30
0.0
  0
SPLINE
  5
164
330
1F
100
AcDbEntity
  8
0
  6
Continuous
 62
     8
370
     0
100
AcDbSpline
210
0.0
220
0.0
230
1.0
 70
     8
 71
     3
 72
    22
 73
    18
 74
     0
 42
0.00000001
 43
0.00000001
 40
0.0
 40
0.0
 40
0.0
 40
0.0
 40
0.0039654601535196
 40
0.081100277012483
 40
0.155686763757602
 40
0.2285362793213645
 40
0.3031705294805108
 40
0.3817710797933367
 40
0.4624138738593346
 40
0.5286020726123032
 40
0.607366795845951
 40
0.6847719487654329
 40
0.7623152917668593
 40
0.8385131338994442
 40
0.9120000535203644
 40
0.9851804590984944
 40
0.9999999999999999
 40
0.9999999999999999
 40
0.9999999999999999
 40
0.9999999999999999
 10
364.3437198493922
 20
477.5336629699613
 30
0.0
 10
364.3694882754523
 20
477.5301338570512
 30
0.0
 10
364.8964955862662
 20
477.4579576092686
 30
0.0
 10
365.4088583804712
 20
477.1457219508667
 30
0.0
 10
365.6425998088982
 20
476.5389060839782
 30
0.0
 10
365.0884283491913
 20
475.7647896864194
 30
0.0
 10
363.9009700036488
 20
474.9651340821594
 30
0.0
 10
362.161431699603
 20
474.2824626184923
 30
0.0
 10
360.1686331190036
 20
473.9156557012784
 30
0.0
 10
358.0854137016265
 20
473.897250589816
 30
0.0
 10
356.100354473573
 20
474.2215199125496
 30
0.0
 10
354.3112454361424
 20
474.8722378814995
 30
0.0
 10
353.0246067231722
 20
475.6827456808725
 30
0.0
 10
352.4004869480164
 20
476.483483629549
 30
0.0
 10
352.5748180006803
 20
477.1017029249297
 30
0.0
 10
353.0845900044458
 20
477.432597913756
 30
0.0
 10
353.6430091917516
 20
477.5153613097922
 30
0.0
 10
353.7370492033371
 20
477.5292989947769
 30
0.0
  0
LINE
  5
165
330
1F
100
AcDbEntity
  8
0
  6
Continuous
 62
     8
370
     0
100
AcDbLine
 10
368.0013993746
 20
432.7292597141
 30
0.0
 11
368.0013993746
 21
477.8642597141
 31
0.0
  0
ARC
  5
166
330
1F
100
AcDbEntity
  8
0
  6
Continuous
 62
     8
370
     0
100
AcDbCircle
 10
347.5508828704
 20
484.7157058698
 30
0.0
 40
8.30870503070465
100
AcDbArc
 50
250.4698279561
 51
271.5865053792
  0
ARC
  5
167
330
1F
100
AcDbEntity
  8
0
  6
Continuous
 62
     8
370
     0
100
AcDbCircle
 10
347.9941601757
 20
484.9312754516
 30
0.0
 40
8.523757347820872
100
AcDbArc
 50
268.5664687269
 51
288.3519308773
  0
LINE
  5
168
330
1F
100
AcDbEntity
  8
0
  6
Continuous
 62
     8
370
     0
100
AcDbLine
 10
504.2489193738
 20
688.995759716
 30
0.0
 11
504.2489193738
 21
666.929759716
 31
0.0
  0
LINE
  5
169
330
1F
100
AcDbEntity
  8
0
  6
Continuous
 62
     8
370
     0
100
AcDbLine
 10
504.4495193738
 20
677.962759716
 30
0.0
 11
504.4495193738
 21
688.995759716
 31
0.0
  0
LINE
  5
16A
330
1F
100
AcDbEntity
  8
0
  6
Continuous
 62
     8
370
     0
100
AcDbLine
 10
504.4495193738
 20
666.929759716
 30
0.0
 11
504.4495193738
 21
677.962759716
 31
0.0
  0
LINE
  5
16B
330
1F
100
AcDbEntity
  8
0
  6
Continuous
 62
     7
370
    15
100
AcDbLine
 10
184.502066819
 20
269.7164403118
 30
0.0
 11
184.502066819
 21
309.8364403118
 31
0.0
  0
LINE
  5
16C
330
1F
100
AcDbEntity
  8
0
  6
Continuous
 62
     7
370
    15
100
AcDbLine
 10
162.436066819
 20
309.8364403118
 30
0.0
 11
162.436066819
 21
269.7164403118
 31
0.0
  0
LINE
  5
16D
330
1F
100
AcDbEntity
  8
0
  6
Continuous
 62
     7
370
    15
100
AcDbLine
 10
162.436066819
 20
269.7164403118
 30
0.0
 11
162.436066819
 21
84.1614403118
 31
0.0
  0
LINE
  5
16E
330
1F
100
AcDbEntity
  8
0
  6
Continuous
 62
     7
370
    15
100
AcDbLine
 10
184.502066819
 20
84.1614403118
 30
0.0
 11
184.502066819
 21
269.7164403118
 31
0.0
  0
ARC
  5
16F
330
1F
100
AcDbEntity
  8
0
  6
Continuous
 62
     7
370
    15
100
AcDbCircle
 10
163.439066819
 20
83.9608403118
 30
0.0
 40
1.003000000000029
100
AcDbArc
 50
180.0
 51
270.0
  0
ARC
  5
170
330
1F
100
AcDbEntity
  8
0
  6
Continuous
 62
     7
370
    15
100
AcDbCircle
 10
183.499066819
 20
83.9608403118
 30
0.0
 40
1.003000000000029
100
AcDbArc
 50
270.0
 51
0.0
  0
LINE
  5
171
330
1F
100
AcDbEntity
  8
0
  6
Continuous
 62
     7
370
    15
100
AcDbLine
 10
162.436066819
 20
84.1614403118
 30
0.0
 11
162.436066819
 21
83.9608403118
 31
0.0
  0
LINE
  5
172
330
1F
100
AcDbEntity
  8
0
  6
Continuous
 62
     7
370
    15
100
AcDbLine
 10
184.502066819
 20
83.9608403118
 30
0.0
 11
184.502066819
 21
84.1614403118
 31
0.0
  0
LINE
  5
173
330
1F
100
AcDbEntity
  8
0
  6
Continuous
 62
     7
370
    15
100
AcDbLine
 10
162.436066819
 20
234.410840311
 30
0.0
 11
146.3154056247
 21
234.410840311
 31
0.0
  0
LINE
  5
174
330
1F
100
AcDbEntity
  8
0
  6
Continuous
 62
     7
370
    15
100
AcDbLine
 10
146.3154056247
 20
224.380840311
 30
0.0
 11
162.436066819
 21
224.380840311
 31
0.0
  0
LINE
  5
175
330
1F
100
AcDbEntity
  8
0
  6
Continuous
 62
     7
370
    15
100
AcDbLine
 10
150.4000668175
 20
296.5331576098
 30
0.0
 11
150.4000679932
 21
256.8780387063
 31
0.0
  0
LINE
  5
176
330
1F
100
AcDbEntity
  8
0
  6
Continuous
 62
     7
370
    15
100
AcDbLine
 10
196.5380656298
 20
256.8780386863
 30
0.0
 11
196.5380668205
 21
296.5331576098
 31
0.0
  0
ARC
  5
177
330
1F
100
AcDbEntity
  8
0
  6
Continuous
 62
     7
370
    15
100
AcDbCircle
 10
150.8012668162
 20
257.178940311
 30
0.0
 40
0.5015000103922505
100
AcDbArc
 50
216.8701259309
 51
270.0000149883
  0
ARC
  5
178
330
1F
100
AcDbEntity
  8
0
  6
Continuous
 62
     7
370
    15
100
AcDbCircle
 10
196.1368668218
 20
257.178940311
 30
0.0
 40
0.5015000104154972
100
AcDbArc
 50
269.9999850117
 51
323.1298712175
  0
LINE
  5
179
330
1F
100
AcDbEntity
  8
0
  6
Continuous
 62
     7
370
    15
100
AcDbLine
 10
150.901566819
 20
248.954340311
 30
0.0
 11
150.901566819
 21
234.410840311
 31
0.0
  0
LINE
  5
17A
330
1F
100
AcDbEntity
  8
0
  6
Continuous
 62
     7
370
    15
100
AcDbLine
 10
150.901566819
 20
224.380840311
 30
0.0
 11
150.901566819
 21
220.408960311
 31
0.0
  0
LINE
  5
17B
330
1F
100
AcDbEntity
  8
0
  6
Continuous
 62
     7
370
    15
100
AcDbLine
 10
196.036566819
 20
220.408960311
 30
0.0
 11
196.036566819
 21
247.6829866657
 31
0.0
  0
ARC
  5
17C
330
1F
100
AcDbEntity
  8
0
  6
Continuous
 62
     7
370
    15
100
AcDbCircle
 10
195.494946819
 20
220.408960311
 30
0.0
 40
0.5416200000000231
100
AcDbArc
 50
270.0
 51
0.0
  0
ARC
  5
17D
330
1F
100
AcDbEntity
  8
0
  6
Continuous
 62
     7
370
    15
100
AcDbCircle
 10
151.443186819
 20
220.408960311
 30
0.0
 40
0.5416200000000231
100
AcDbArc
 50
180.0
 51
270.0
  0
LINE
  5
17E
330
1F
100
AcDbEntity
  8
0
  6
Continuous
 62
     7
370
    15
100
AcDbLine
 10
195.535066819
 20
254.671440311
 30
0.0
 11
195.535066819
 21
256.677440311
 31
0.0
  0
LINE
  5
17F
330
1F
100
AcDbEntity
  8
0
  6
Continuous
 62
     7
370
    15
100
AcDbLine
 10
151.403066819
 20
256.677440311
 30
0.0
 11
151.403066819
 21
254.671440311
 31
0.0
  0
ARC
  5
180
330
1F
100
AcDbEntity
  8
0
  6
Continuous
 62
     7
370
    15
100
AcDbCircle
 10
173.469066819
 20
254.5977540082
 30
0.0
 40
22.06600000000002
100
AcDbArc
 50
179.8145617156
 51
194.818122559
  0
ARC
  5
181
330
1F
100
AcDbEntity
  8
0
  6
Continuous
 62
     7
370
    15
100
AcDbCircle
 10
173.469066819
 20
254.5977540082
 30
0.0
 40
22.06600000000001
100
AcDbArc
 50
345.181877441
 51
0.1843083425
  0
SPLINE
  5
182
330
1F
100
AcDbEntity
  8
0
  6
Continuous
 62
     7
370
    15
100
AcDbSpline
210
0.0
220
0.0
230
1.0
 70
     8
 71
     3
 72
    11
 73
     7
 74
     0
 42
0.00000001
 43
0.00000001
 40
0.0
 40
0.0
 40
0.0
 40
0.0
 40
0.2553011245690744
 40
0.4996294268298402
 40
0.742962009560242
 40
0.9999999999999999
 40
0.9999999999999999
 40
0.9999999999999999
 40
0.9999999999999999
 10
149.9298417882709
 20
304.7998732524774
 30
0.0
 10
149.9861393789225
 20
304.4606751065841
 30
0.0
 10
150.0963148941954
 20
303.7968575245014
 30
0.0
 10
150.2612513486748
 20
301.8188688015024
 30
0.0
 10
150.3982349612901
 20
299.3222036804804
 30
0.0
 10
150.408935475817
 20
297.4586937987053
 30
0.0
 10
150.4144322793825
 20
296.5014176100968
 30
0.0
  0
SPLINE
  5
183
330
1F
100
AcDbEntity
  8
0
  6
Continuous
 62
     7
370
    15
100
AcDbSpline
210
0.0
220
0.0
230
1.0
 70
     8
 71
     3
 72
    11
 73
     7
 74
     0
 42
0.00000001
 43
0.00000001
 40
0.0
 40
0.0
 40
0.0
 40
0.0
 40
0.2570379904394613
 40
0.5003705730447356
 40
0.744698875311056
 40
1.0
 40
1.0
 40
1.0
 40
1.0
 10
196.5237013583641
 20
296.5014176096801
 30
0.0
 10
196.5291981618446
 20
297.4586937979043
 30
0.0
 10
196.5398986762033
 20
299.3222036784667
 30
0.0
 10
196.6768822893046
 20
301.8188688021264
 30
0.0
 10
196.8418187436704
 20
303.7968575242811
 30
0.0
 10
196.9519942587706
 20
304.4606751053554
 30
0.0
 10
197.0082918493462
 20
304.7998732508077
 30
0.0
  0
LINE
  5
184
330
1F
100
AcDbEntity
  8
0
  6
Continuous
 62
     7
370
    15
100
AcDbLine
 10
144.582666819
 20
322.6246903114
 30
0.0
 11
144.382066819
 21
322.4240903114
 31
0.0
  0
LINE
  5
185
330
1F
100
AcDbEntity
  8
0
  6
Continuous
 62
     7
370
    15
100
AcDbLine
 10
144.382066819
 20
297.2487903114
 30
0.0
 11
144.582666819
 21
297.0481903114
 31
0.0
  0
LINE
  5
186
330
1F
100
AcDbEntity
  8
0
  6
Continuous
 62
     7
370
    15
100
AcDbLine
 10
153.0749047636
 20
322.6246903114
 30
0.0
 11
144.582666819
 21
322.6246903114
 31
0.0
  0
LINE
  5
187
330
1F
100
AcDbEntity
  8
0
  6
Continuous
 62
     7
370
    15
100
AcDbLine
 10
144.582666819
 20
297.0481903114
 30
0.0
 11
150.3976976492
 21
297.0481903114
 31
0.0
  0
LINE
  5
188
330
1F
100
AcDbEntity
  8
0
  6
Continuous
 62
     7
370
    15
100
AcDbLine
 10
144.181466819
 20
322.3739403114
 30
0.0
 11
132.847566819
 21
322.3739403114
 31
0.0
  0
LINE
  5
189
330
1F
100
AcDbEntity
  8
0
  6
Continuous
 62
     7
370
    15
100
AcDbLine
 10
132.847566819
 20
297.2989403114
 30
0.0
 11
144.181466819
 21
297.2989403114
 31
0.0
  0
LINE
  5
18A
330
1F
100
AcDbEntity
  8
0
  6
Continuous
 62
     7
370
    15
100
AcDbLine
 10
144.181466819
 20
297.2989403114
 30
0.0
 11
144.382066819
 21
297.4995403114
 31
0.0
  0
LINE
  5
18B
330
1F
100
AcDbEntity
  8
0
  6
Continuous
 62
     7
370
    15
100
AcDbLine
 10
144.382066819
 20
322.1733403114
 30
0.0
 11
144.181466819
 21
322.3739403114
 31
0.0
  0
ARC
  5
18C
330
1F
100
AcDbEntity
  8
0
  6
Continuous
 62
     7
370
    15
100
AcDbCircle
 10
132.847566819
 20
303.3169403114
 30
0.0
 40
6.018000000000058
100
AcDbArc
 50
180.0
 51
270.0
  0
ARC
  5
18D
330
1F
100
AcDbEntity
  8
0
  6
Continuous
 62
     7
370
    15
100
AcDbCircle
 10
132.847566819
 20
316.3559403114
 30
0.0
 40
6.018000000000143
100
AcDbArc
 50
90.0
 51
180.0
  0
ARC
  5
18E
330
1F
100
AcDbEntity
  8
0
  6
Continuous
 62
     7
370
    15
100
AcDbCircle
 10
173.469066819
 20
309.8364403118
 30
0.0
 40
11.03300000000002
100
AcDbArc
 50
0.0
 51
180.0
  0
LINE
  5
18F
330
1F
100
AcDbEntity
  8
0
  6
Continuous
 62
     7
370
    15
100
AcDbLine
 10
163.439066819
 20
82.9578403118
 30
0.0
 11
183.4990665831
 21
82.9578403118
 31
0.0
  0
ARC
  5
190
330
1F
100
AcDbEntity
  8
0
  6
Continuous
 62
     7
370
    15
100
AcDbCircle
 10
146.4453362546
 20
229.5301431483
 30
0.0
 40
4.882426319225301
100
AcDbArc
 50
91.524929452
 51
181.576256556
  0
ARC
  5
191
330
1F
100
AcDbEntity
  8
0
  6
Continuous
 62
     7
370
    15
100
AcDbCircle
 10
146.4453362546
 20
229.2615374737
 30
0.0
 40
4.88242631922524
100
AcDbArc
 50
178.423743444
 51
268.475070548
  0
ARC
  5
192
330
1F
100
AcDbEntity
  8
0
  6
Continuous
 62
     7
370
    15
100
AcDbCircle
 10
173.469066819
 20
309.8364403118
 30
0.0
 40
11.98585000000003
100
AcDbArc
 50
336.9995950787
 51
0.0
  0
ARC
  5
193
330
1F
100
AcDbEntity
  8
0
  6
Continuous
 62
     7
370
    15
100
AcDbCircle
 10
173.469066819
 20
309.8364403118
 30
0.0
 40
11.98585000000003
100
AcDbArc
 50
0.0
 51
203.0004049214
  0
ARC
  5
194
330
1F
100
AcDbEntity
  8
0
  6
Continuous
 62
     7
370
    15
100
AcDbCircle
 10
173.469066819
 20
309.8364403118
 30
0.0
 40
24.07199999999997
100
AcDbArc
 50
180.0
 51
242.720387264
  0
ARC
  5
195
330
1F
100
AcDbEntity
  8
0
  6
Continuous
 62
     7
370
    15
100
AcDbCircle
 10
173.469066819
 20
309.8364403118
 30
0.0
 40
24.07199999999998
100
AcDbArc
 50
297.279612736
 51
180.0
  0
LWPOLYLINE
  5
196
330
1F
100
AcDbEntity
  8
0
  6
Continuous
 62
     7
370
    15
100
AcDbPolyline
 90
        3
 70
   128
 43
0.0
 10
162.436066819
 20
239.6913806862
 10
162.3244430977
 20
240.629440311
 10
162.436066819
 20
241.5674999358
  0
ARC
  5
197
330
1F
100
AcDbEntity
  8
0
  6
Continuous
 62
     7
370
    15
100
AcDbCircle
 10
166.5353422796
 20
240.629440311
 30
0.0
 40
4.225669436631744
100
AcDbArc
 50
165.9511246674
 51
194.0488753326
  0
LINE
  5
198
330
1F
100
AcDbEntity
  8
0
  6
Continuous
 62
     7
370
    15
100
AcDbLine
 10
196.5380668201
 20
296.4923931969
 30
0.0
 11
196.5109005209
 21
296.4350110858
 31
0.0
  0
LINE
  5
199
330
1F
100
AcDbEntity
  8
0
  6
Continuous
 62
     7
370
    15
100
AcDbLine
 10
162.436066819
 20
256.6774403114
 30
0.0
 11
150.8012670786
 21
256.6774403114
 31
0.0
  0
LINE
  5
19A
330
1F
100
AcDbEntity
  8
0
  6
Continuous
 62
     7
370
    15
100
AcDbLine
 10
196.1368665594
 20
256.6774403114
 30
0.0
 11
184.502066819
 21
256.6774403114
 31
0.0
  0
ELLIPSE
  5
19B
330
1F
100
AcDbEntity
  8
0
  6
Continuous
 62
     7
370
    15
100
AcDbEllipse
 10
173.469066819
 20
248.9578774302
 30
0.0
 11
22.56644402607304
 21
-1.311296338947813
 31
0.0
210
0.0
220
0.0
230
0.9999999999999997
 40
0.1664858746
 41
0.0096738993224953
 42
0.3349197863410622
  0
LINE
  5
19C
330
1F
100
AcDbEntity
  8
0
  6
Continuous
 62
     7
370
    15
100
AcDbLine
 10
194.8534020812
 20
248.954340311
 30
0.0
 11
184.502066819
 21
248.954340311
 31
0.0
  0
LINE
  5
19D
330
1F
100
AcDbEntity
  8
0
  6
Continuous
 62
     7
370
    15
100
AcDbLine
 10
162.436066819
 20
248.954340311
 30
0.0
 11
150.901566819
 21
248.954340311
 31
0.0
  0
LINE
  5
19E
330
1F
100
AcDbEntity
  8
0
  6
Continuous
 62
     7
370
    15
100
AcDbLine
 10
194.3339136214
 20
219.867340311
 30
0.0
 11
184.502066819
 21
219.867340311
 31
0.0
  0
LINE
  5
19F
330
1F
100
AcDbEntity
  8
0
  6
Continuous
 62
     7
370
    15
100
AcDbLine
 10
162.436066819
 20
219.867340311
 30
0.0
 11
151.443186819
 21
219.867340311
 31
0.0
  0
LINE
  5
1A0
330
1F
100
AcDbEntity
  8
0
  6
Continuous
 62
     7
370
    15
100
AcDbLine
 10
195.494946819
 20
219.867340311
 30
0.0
 11
194.3339136214
 21
219.867340311
 31
0.0
  0
ARC
  5
1A1
330
1F
100
AcDbEntity
  8
0
  6
Continuous
 62
     7
370
    15
100
AcDbCircle
 10
85.2050666787
 20
296.4923931792
 30
0.0
 40
65.19500014157553
100
AcDbArc
 50
0.0003674951
 51
8.5970630209
  0
ARC
  5
1A2
330
1F
100
AcDbEntity
  8
0
  6
Continuous
 62
     7
370
    15
100
AcDbCircle
 10
261.7330669592
 20
296.4923931792
 30
0.0
 40
65.19500014157552
100
AcDbArc
 50
171.4029369791
 51
179.9996325049
  0
LINE
  5
1A3
330
1F
100
AcDbEntity
  8
0
  6
Continuous
 62
     7
370
    15
100
AcDbLine
 10
144.582666819
 20
322.6246903114
 30
0.0
 11
144.582666819
 21
297.0481903114
 31
0.0
  0
LINE
  5
1A4
330
1F
100
AcDbEntity
  8
0
  6
Continuous
 62
     7
370
    15
100
AcDbLine
 10
144.382066819
 20
322.4240903114
 30
0.0
 11
144.382066819
 21
297.2487903114
 31
0.0
  0
LINE
  5
1A5
330
1F
100
AcDbEntity
  8
0
  6
Continuous
 62
     7
370
    15
100
AcDbLine
 10
136.859566819
 20
318.5803915922
 30
0.0
 11
136.859566819
 21
301.0924890307
 31
0.0
  0
LINE
  5
1A6
330
1F
100
AcDbEntity
  8
0
  6
Continuous
 62
     7
370
    15
100
AcDbLine
 10
144.181466819
 20
297.2989403114
 30
0.0
 11
144.181466819
 21
322.3739403114
 31
0.0
  0
LINE
  5
1A7
330
1F
100
AcDbEntity
  8
0
  6
Continuous
 62
     7
370
    15
100
AcDbLine
 10
126.829566819
 20
303.3169403114
 30
0.0
 11
126.829566819
 21
305.1319533043
 31
0.0
  0
LINE
  5
1A8
330
1F
100
AcDbEntity
  8
0
  6
Continuous
 62
     7
370
    15
100
AcDbLine
 10
126.829566819
 20
314.5409273186
 30
0.0
 11
126.829566819
 21
316.3559403114
 31
0.0
  0
LINE
  5
1A9
330
1F
100
AcDbEntity
  8
0
  6
Continuous
 62
     7
370
    15
100
AcDbLine
 10
126.829566819
 20
305.1319533043
 30
0.0
 11
126.829566819
 21
314.5409273186
 31
0.0
  0
LINE
  5
1AA
330
1F
100
AcDbEntity
  8
0
  6
Continuous
 62
     8
370
     0
100
AcDbLine
 10
173.469066819
 20
84.1614403118
 30
0.0
 11
162.436066819
 21
84.1614403118
 31
0.0
  0
LINE
  5
1AB
330
1F
100
AcDbEntity
  8
0
  6
Continuous
 62
     8
370
     0
100
AcDbLine
 10
184.502066819
 20
84.1614403118
 30
0.0
 11
173.469066819
 21
84.1614403118
 31
0.0
  0
LINE
  5
1AC
330
1F
100
AcDbEntity
  8
0
  6
Continuous
 62
     8
370
     0
100
AcDbLine
 10
162.436066819
 20
83.9608403118
 30
0.0
 11
184.502066819
 21
83.9608403118
 31
0.0
  0
LWPOLYLINE
  5
1AD
330
1F
100
AcDbEntity
  8
0
  6
Continuous
 62
     8
370
     0
100
AcDbPolyline
 90
       23
 70
   128
 43
0.0
 10
141.8791497121
 20
229.395840311
 10
142.0523408801
 20
228.1242404157
 10
142.5578834658
 20
226.9556579814
 10
143.3548214153
 20
225.9847646072
 10
144.3785915557
 20
225.2902163
 10
145.5462541187
 20
224.9282812331
 10
146.7632120278
 20
224.9282812331
 10
147.9308745908
 20
225.2902163
 10
148.9546447312
 20
225.9847646072
 10
149.7515826807
 20
226.9556579814
 10
150.2571252664
 20
228.1242404157
 10
150.4303164344
 20
229.395840311
 10
150.2571252664
 20
230.6674402063
 10
149.7515826807
 20
231.8360226406
 10
148.9546447312
 20
232.8069160149
 10
147.9308745908
 20
233.501464322
 10
146.7632120278
 20
233.8633993889
 10
145.5462541187
 20
233.8633993889
 10
144.3785915557
 20
233.501464322
 10
143.3548214153
 20
232.8069160149
 10
142.5578834658
 20
231.8360226406
 10
142.0523408801
 20
230.6674402063
 10
141.8791497121
 20
229.395840311
  0
ARC
  5
1AE
330
1F
100
AcDbEntity
  8
0
  6
Continuous
 62
     8
370
    15
100
AcDbCircle
 10
146.1212216083
 20
229.395840311
 30
0.0
 40
5.01875805675401
100
AcDbArc
 50
272.2174215881
 51
87.7825784119
  0
ARC
  5
1AF
330
1F
100
AcDbEntity
  8
0
  6
Continuous
 62
     8
370
     0
100
AcDbCircle
 10
173.469066819
 20
309.8364403118
 30
0.0
 40
13.17511183337001
100
AcDbArc
 50
180.0
 51
213.1321403097
  0
ARC
  5
1B0
330
1F
100
AcDbEntity
  8
0
  6
Continuous
 62
     8
370
     0
100
AcDbCircle
 10
173.469066819
 20
309.8364403118
 30
0.0
 40
13.17511183337001
100
AcDbArc
 50
326.8678596903
 51
180.0
  0
ARC
  5
1B1
330
1F
100
AcDbEntity
  8
0
  6
Continuous
 62
     8
370
     0
100
AcDbCircle
 10
173.469066819
 20
309.8364403118
 30
0.0
 40
23.99495394645933
100
AcDbArc
 50
180.0
 51
242.6254742346
  0
ARC
  5
1B2
330
1F
100
AcDbEntity
  8
0
  6
Continuous
 62
     8
370
     0
100
AcDbCircle
 10
173.469066819
 20
309.8364403118
 30
0.0
 40
23.99495394645933
100
AcDbArc
 50
297.3745257654
 51
180.0
  0
LINE
  5
1B3
330
1F
100
AcDbEntity
  8
0
  6
Continuous
 62
     8
370
     0
100
AcDbLine
 10
162.436066819
 20
282.3752531753
 30
0.0
 11
161.9930676043
 21
282.5838084154
 31
0.0
  0
LINE
  5
1B4
330
1F
100
AcDbEntity
  8
0
  6
Continuous
 62
     8
370
     0
100
AcDbLine
 10
184.9450660337
 20
282.5838084154
 30
0.0
 11
184.502066819
 21
282.3640864994
 31
0.0
  0
SPLINE
  5
1B5
330
1F
100
AcDbEntity
  8
0
  6
Continuous
 62
     8
370
     0
100
AcDbSpline
210
0.0
220
0.0
230
1.0
 70
     8
 71
     3
 72
    16
 73
    12
 74
     0
 42
0.00000001
 43
0.00000001
 40
0.0
 40
0.0
 40
0.0
 40
0.0
 40
0.1036665090622322
 40
0.1854733428942127
 40
0.2454236206767318
 40
0.3742566143602686
 40
0.4943707195643787
 40
0.594318207310356
 40
0.7118692412557802
 40
0.8470835714063857
 40
1.0
 40
1.0
 40
1.0
 40
1.0
 10
192.3238659338297
 20
287.9151098514999
 30
0.0
 10
192.2237241240438
 20
287.7959305126207
 30
0.0
 10
192.0445569427382
 20
287.5827026284583
 30
0.0
 10
191.7980487788608
 20
287.3026126548705
 30
0.0
 10
191.5197268206803
 20
286.9974596752597
 30
0.0
 10
191.1886228160708
 20
286.6607278006569
 30
0.0
 10
190.7952836231395
 20
286.2969733526028
 30
0.0
 10
190.3950319312812
 20
285.9674987138586
 30
0.0
 10
189.958911369114
 20
285.6401017430355
 30
0.0
 10
189.4383862245152
 20
285.2765793673154
 30
0.0
 10
189.0496493480813
 20
285.0276578640172
 30
0.0
 10
188.8433393551254
 20
284.8955505268817
 30
0.0
  0
SPLINE
  5
1B6
330
1F
100
AcDbEntity
  8
0
  6
Continuous
 62
     8
370
     0
100
AcDbSpline
210
0.0
220
0.0
230
1.0
 70
     8
 71
     3
 72
    14
 73
    10
 74
     0
 42
0.00000001
 43
0.00000001
 40
0.0
 40
0.0
 40
0.0
 40
0.0
 40
0.1319268462747994
 40
0.2467380459343433
 40
0.3444335378349171
 40
0.4250133478416461
 40
0.4884776568461973
 40
0.6821455681505076
 40
1.0
 40
1.0
 40
1.0
 40
1.0
 10
188.8433393551254
 20
284.8955505268817
 30
0.0
 10
188.7278072721549
 20
284.8231931118663
 30
0.0
 10
188.5117317636453
 20
284.6878656353605
 30
0.0
 10
188.2038812270219
 20
284.4985842919233
 30
0.0
 10
187.9388272892853
 20
284.3371737176233
 30
0.0
 10
187.7179184013869
 20
284.2036409566777
 30
0.0
 10
187.4069456228227
 20
284.0161758579553
 30
0.0
 10
186.8722920422373
 20
283.6921452737876
 30
0.0
 10
186.3794290089482
 20
283.4027826988799
 30
0.0
 10
186.073169269716
 20
283.222975935643
 30
0.0
  0
SPLINE
  5
1B7
330
1F
100
AcDbEntity
  8
0
  6
Continuous
 62
     8
370
     0
100
AcDbSpline
210
0.0
220
0.0
230
1.0
 70
     8
 71
     3
 72
     8
 73
     4
 74
     0
 42
0.00000001
 43
0.00000001
 40
0.0
 40
0.0
 40
0.0
 40
0.0
 40
1.0
 40
1.0
 40
1.0
 40
1.0
 10
184.9450660315571
 20
282.5838084153899
 30
0.0
 10
185.330828737067
 20
282.7953475463817
 30
0.0
 10
185.7071817672897
 20
283.0097737724883
 30
0.0
 10
186.073138049447
 20
283.2229759356427
 30
0.0
  0
SPLINE
  5
1B8
330
1F
100
AcDbEntity
  8
0
  6
Continuous
 62
     8
370
     0
100
AcDbSpline
210
0.0
220
0.0
230
1.0
 70
     8
 71
     3
 72
    10
 73
     6
 74
     0
 42
0.00000001
 43
0.00000001
 40
0.0
 40
0.0
 40
0.0
 40
0.0
 40
0.2844722076583527
 40
0.6178045841992483
 40
1.0
 40
1.0
 40
1.0
 40
1.0
 10
161.9930676042778
 20
282.5838084153899
 30
0.0
 10
161.8843287744417
 20
282.6438587373555
 30
0.0
 10
161.6481744305562
 20
282.7742734604612
 30
0.0
 10
161.2714532902866
 20
282.9875261354377
 30
0.0
 10
161.0064921856021
 20
283.1409990484036
 30
0.0
 10
160.8649646018243
 20
283.2229757995697
 30
0.0
  0
SPLINE
  5
1B9
330
1F
100
AcDbEntity
  8
0
  6
Continuous
 62
     8
370
     0
100
AcDbSpline
210
0.0
220
0.0
230
1.0
 70
     8
 71
     3
 72
    14
 73
    10
 74
     0
 42
0.00000001
 43
0.00000001
 40
0.0
 40
0.0
 40
0.0
 40
0.0
 40
0.1420404257341144
 40
0.2642153313241595
 40
0.3665245764962341
 40
0.4489681148234763
 40
0.511546067488532
 40
0.7022720428544704
 40
1.0
 40
1.0
 40
1.0
 40
1.0
 10
160.8649646018243
 20
283.2229757995697
 30
0.0
 10
160.7274841911241
 20
283.3033637791392
 30
0.0
 10
160.4717511343131
 20
283.4528968190937
 30
0.0
 10
160.1229771805603
 20
283.6599960772773
 30
0.0
 10
159.8340155360202
 20
283.8330992680964
 30
0.0
 10
159.603428581622
 20
283.9722270816495
 30
0.0
 10
159.2927079143054
 20
284.1601914708983
 30
0.0
 10
158.7874411191432
 20
284.4640719102206
 30
0.0
 10
158.3571005356374
 20
284.7321490158843
 30
0.0
 10
158.0947944832627
 20
284.8955504007731
 30
0.0
  0
SPLINE
  5
1BA
330
1F
100
AcDbEntity
  8
0
  6
Continuous
 62
     8
370
     0
100
AcDbSpline
210
0.0
220
0.0
230
1.0
 70
     8
 71
     3
 72
    17
 73
    13
 74
     0
 42
0.00000001
 43
0.00000001
 40
0.0
 40
0.0
 40
0.0
 40
0.0
 40
0.0774617055604176
 40
0.145914135712237
 40
0.2053588834139642
 40
0.255798439799031
 40
0.3845362588792297
 40
0.5056491445340304
 40
0.6257324929360809
 40
0.7545880759908193
 40
0.8526809920680268
 40
1.0
 40
1.0
 40
1.0
 40
1.0
 10
158.0947944832669
 20
284.8955504007704
 30
0.0
 10
157.9896909772154
 20
284.9621549427158
 30
0.0
 10
157.7917081528652
 20
285.0876175064711
 30
0.0
 10
157.5193879547731
 20
285.2660999556005
 30
0.0
 10
157.2866192845576
 20
285.4227789295839
 30
0.0
 10
156.9803518798938
 20
285.6357253943035
 30
0.0
 10
156.6065349852086
 20
285.913812934527
 30
0.0
 10
156.166987094741
 20
286.2755026325527
 30
0.0
 10
155.7494124067785
 20
286.6604978235591
 30
0.0
 10
155.377787686902
 20
287.0391214102216
 30
0.0
 10
154.9950839002956
 20
287.4636898305061
 30
0.0
 10
154.7571173237152
 20
287.7457757241248
 30
0.0
 10
154.6142677041446
 20
287.9151098514999
 30
0.0
  0
SPLINE
  5
1BB
330
1F
100
AcDbEntity
  8
0
  6
Continuous
 62
     8
370
     0
100
AcDbSpline
210
0.0
220
0.0
230
1.0
 70
     8
 71
     3
 72
    16
 73
    12
 74
     0
 42
0.00000001
 43
0.00000001
 40
0.0
 40
0.0
 40
0.0
 40
0.0
 40
0.1456446914930264
 40
0.2730426942910886
 40
0.3822728532919585
 40
0.4734612287852308
 40
0.6899564737939368
 40
0.7481680001955109
 40
0.8102478408626459
 40
0.9051103832177912
 40
1.0
 40
1.0
 40
1.0
 40
1.0
 10
150.565301326569
 20
295.9495058482899
 30
0.0
 10
150.5505289322716
 20
295.999883848271
 30
0.0
 10
150.5228348618683
 20
296.0943283811051
 30
0.0
 10
150.4905465507208
 20
296.2180061035147
 30
0.0
 10
150.4663358173862
 20
296.3162928256165
 30
0.0
 10
150.4397391938439
 20
296.4263731456318
 30
0.0
 10
150.421945138316
 20
296.48990615585
 30
0.0
 10
150.4108717274554
 20
296.5073419672976
 30
0.0
 10
150.4053359663619
 20
296.5073691747818
 30
0.0
 10
150.400975649759
 20
296.5014179765402
 30
0.0
 10
150.4003697906841
 20
296.495401742905
 30
0.0
 10
150.4000668179237
 20
296.4923931968798
 30
0.0
  0
SPLINE
  5
1BC
330
1F
100
AcDbEntity
  8
0
  6
Continuous
 62
     8
370
     0
100
AcDbSpline
210
0.0
220
0.0
230
1.0
 70
     8
 71
     3
 72
    17
 73
    13
 74
     0
 42
0.00000001
 43
0.00000001
 40
0.0
 40
0.0
 40
0.0
 40
0.0
 40
0.056353814663835
 40
0.1149636980182022
 40
0.1759409394675254
 40
0.2393843707904126
 40
0.3053817445039635
 40
0.3740110162909314
 40
0.4846732050839238
 40
0.6229912083000086
 40
0.800835937020425
 40
1.0
 40
1.0
 40
1.0
 40
1.0
 10
151.1697632928912
 20
294.2999076235099
 30
0.0
 10
151.156474379761
 20
294.3436636638016
 30
0.0
 10
151.1293645451348
 20
294.4329274737598
 30
0.0
 10
151.0873594046651
 20
294.5597893224353
 30
0.0
 10
151.0437522259288
 20
294.6848372778874
 30
0.0
 10
150.9987607981137
 20
294.8073224654534
 30
0.0
 10
150.9527048171898
 20
294.9274271843674
 30
0.0
 10
150.8969897894768
 20
295.0677455225588
 30
0.0
 10
150.8274769560875
 20
295.235175447247
 30
0.0
 10
150.7412359014242
 20
295.4464167597335
 30
0.0
 10
150.6479299859627
 20
295.6903067468307
 30
0.0
 10
150.5938633447025
 20
295.8599092181328
 30
0.0
 10
150.565301326569
 20
295.9495058482899
 30
0.0
  0
SPLINE
  5
1BD
330
1F
100
AcDbEntity
  8
0
  6
Continuous
 62
     8
370
     0
100
AcDbSpline
210
0.0
220
0.0
230
1.0
 70
     8
 71
     3
 72
     8
 73
     4
 74
     0
 42
0.00000001
 43
0.00000001
 40
0.0
 40
0.0
 40
0.0
 40
0.0
 40
1.0
 40
1.0
 40
1.0
 40
1.0
 10
151.1697632918571
 20
294.2999076235099
 30
0.0
 10
151.23573876688
 20
294.0778044773472
 30
0.0
 10
151.3108333225501
 20
293.8299975078414
 30
0.0
 10
151.3954534220044
 20
293.5668223498512
 30
0.0
  0
SPLINE
  5
1BE
330
1F
100
AcDbEntity
  8
0
  6
Continuous
 62
     8
370
     0
100
AcDbSpline
210
0.0
220
0.0
230
1.0
 70
     8
 71
     3
 72
    19
 73
    15
 74
     0
 42
0.00000001
 43
0.00000001
 40
0.0
 40
0.0
 40
0.0
 40
0.0
 40
0.0408220227067232
 40
0.0900089647237831
 40
0.1475608190123495
 40
0.2333603357917989
 40
0.2859025352178577
 40
0.4160332044162404
 40
0.5400683301081634
 40
0.777537329946065
 40
0.8916957581795006
 40
0.9467983377205927
 40
0.9736638793205789
 40
1.0
 40
1.0
 40
1.0
 40
1.0
 10
154.6142677041446
 20
287.9151098514999
 30
0.0
 10
154.5546884720544
 20
287.9870896101776
 30
0.0
 10
154.4233215126558
 20
288.145798638542
 30
0.0
 10
154.2134444586013
 20
288.4053367264673
 30
0.0
 10
153.9462686690208
 20
288.7435553243315
 30
0.0
 10
153.6845774380068
 20
289.0876108638857
 30
0.0
 10
153.3396924742502
 20
289.5599416004552
 30
0.0
 10
152.9680136855021
 20
290.1048662523727
 30
0.0
 10
152.426167119109
 20
291.0023541342377
 30
0.0
 10
151.9830415947391
 20
291.9317452285213
 30
0.0
 10
151.6652246983714
 20
292.7688388690759
 30
0.0
 10
151.5239287091031
 20
293.1762124109981
 30
0.0
 10
151.4487649320635
 20
293.4015001983034
 30
0.0
 10
151.4129864181383
 20
293.5120817728301
 30
0.0
 10
151.3952751809308
 20
293.5668223498512
 30
0.0
  0
SPLINE
  5
1BF
330
1F
100
AcDbEntity
  8
0
  6
Continuous
 62
     8
370
     0
100
AcDbSpline
210
0.0
220
0.0
230
1.0
 70
     8
 71
     3
 72
    20
 73
    16
 74
     0
 42
0.00000001
 43
0.00000001
 40
0.0
 40
0.0
 40
0.0
 40
0.0
 40
0.0437151794859232
 40
0.100224959310661
 40
0.1560037281490511
 40
0.2117860088060835
 40
0.2941874687861326
 40
0.37413602853989
 40
0.4516708032489383
 40
0.568344698545226
 40
0.7084165334618524
 40
0.7654219890233566
 40
0.8487956302218176
 40
0.9374756594550782
 40
1.0
 40
1.0
 40
1.0
 40
1.0
 10
195.7683703450831
 20
294.2999076235099
 30
0.0
 10
195.7386418492089
 20
294.2002767733833
 30
0.0
 10
195.6704838929934
 20
293.9718550210894
 30
0.0
 10
195.5577942485458
 20
293.6097460310849
 30
0.0
 10
195.4292328195847
 20
293.2193381552502
 30
0.0
 10
195.2721229771446
 20
292.7678413972851
 30
0.0
 10
195.0816145955975
 20
292.2655236434342
 30
0.0
 10
194.8512820981964
 20
291.7280903592221
 30
0.0
 10
194.5646616058957
 20
291.1294740801061
 30
0.0
 10
194.1763906894012
 20
290.4314385357728
 30
0.0
 10
193.7671134253617
 20
289.800968992262
 30
0.0
 10
193.3725368184495
 20
289.2476003867974
 30
0.0
 10
193.034711141381
 20
288.7972587947613
 30
0.0
 10
192.671527014841
 20
288.3364619892441
 30
0.0
 10
192.4255709400991
 20
288.0383724890268
 30
0.0
 10
192.3238659338297
 20
287.9151098514999
 30
0.0
  0
SPLINE
  5
1C0
330
1F
100
AcDbEntity
  8
0
  6
Continuous
 62
     8
370
     0
100
AcDbSpline
210
0.0
220
0.0
230
1.0
 70
     8
 71
     3
 72
    16
 73
    12
 74
     0
 42
0.00000001
 43
0.00000001
 40
0.0
 40
0.0
 40
0.0
 40
0.0
 40
0.1351377619873028
 40
0.2608071674629256
 40
0.3770254609824759
 40
0.5153163987958074
 40
0.6260111288965768
 40
0.7279499300926541
 40
0.8240596235261832
 40
0.9146282584350903
 40
1.0
 40
1.0
 40
1.0
 40
1.0
 10
196.3728323389452
 20
295.949505939661
 30
0.0
 10
196.3538458774556
 20
295.8888930972751
 30
0.0
 10
196.317203230956
 20
295.7719142195576
 30
0.0
 10
196.2543717547373
 20
295.5972302692231
 30
0.0
 10
196.1846001682576
 20
295.4159985560236
 30
0.0
 10
196.1106267865302
 20
295.2351913557192
 30
0.0
 10
196.0338766241048
 20
295.0501576998424
 30
0.0
 10
195.9632304979808
 20
294.8711857426963
 30
0.0
 10
195.8952261004124
 20
294.6881601618511
 30
0.0
 10
195.8301523838323
 20
294.5010315293282
 30
0.0
 10
195.7885547907377
 20
294.3656156290892
 30
0.0
 10
195.7683703450831
 20
294.2999076235099
 30
0.0
  0
SPLINE
  5
1C1
330
1F
100
AcDbEntity
  8
0
  6
Continuous
 62
     8
370
     0
100
AcDbSpline
210
0.0
220
0.0
230
1.0
 70
     8
 71
     3
 72
     9
 73
     5
 74
     0
 42
0.00000001
 43
0.00000001
 40
0.0
 40
0.0
 40
0.0
 40
0.0
 40
0.3252096907377203
 40
1.0
 40
1.0
 40
1.0
 40
1.0
 10
196.5109005208805
 20
296.4350110858305
 30
0.0
 10
196.5058577068972
 20
296.4294236652961
 30
0.0
 10
196.4903513609089
 20
296.4122426873193
 30
0.0
 10
196.42018196638
 20
296.1359473534502
 30
0.0
 10
196.3728323389452
 20
295.949505939661
 30
0.0
  0
LINE
  5
1C2
330
1F
100
AcDbEntity
  8
0
  6
Continuous
 62
     8
370
     0
100
AcDbLine
 10
137.862566819
 20
319.3407351818
 30
0.0
 11
137.862566819
 21
300.3321454411
 31
0.0
  0
LINE
  5
1C3
330
1F
100
AcDbEntity
  8
0
  6
Continuous
 62
     8
370
     0
100
AcDbLine
 10
134.853566819
 20
298.2986639419
 30
0.0
 11
132.847566819
 21
298.2986639419
 31
0.0
  0
SPLINE
  5
1C4
330
1F
100
AcDbEntity
  8
0
  6
Continuous
 62
     8
370
     0
100
AcDbSpline
210
0.0
220
0.0
230
1.0
 70
     8
 71
     3
 72
    24
 73
    20
 74
     0
 42
0.00000001
 43
0.00000001
 40
0.0
 40
0.0
 40
0.0
 40
0.0
 40
0.0451494880520847
 40
0.0893745504576494
 40
0.1327537531155666
 40
0.1753703405339004
 40
0.2173120984927715
 40
0.2586711102243192
 40
0.3235241462457201
 40
0.3869289494520909
 40
0.5134045450325024
 40
0.6378573135706955
 40
0.6996952877388394
 40
0.7601867549393538
 40
0.8205406439324746
 40
0.8806373600629261
 40
0.9207061923460864
 40
0.9603980123729204
 40
1.0
 40
1.0
 40
1.0
 40
1.0
 10
137.8625668189873
 20
300.3321454410754
 30
0.0
 10
137.8616400252602
 20
300.2789726215868
 30
0.0
 10
137.8598054136999
 20
300.1737156841686
 30
0.0
 10
137.8445875495591
 20
300.0221961806621
 30
0.0
 10
137.8201716094515
 20
299.8773442659066
 30
0.0
 10
137.7857149649499
 20
299.7392914394264
 30
0.0
 10
137.7414235026122
 20
299.6077606860629
 30
0.0
 10
137.6768195349042
 20
299.4584154781916
 30
0.0
 10
137.5838941699126
 20
299.2957561001501
 30
0.0
 10
137.4081787204021
 20
299.0682799064708
 30
0.0
 10
137.1223310554086
 20
298.8201054619657
 30
0.0
 10
136.7417382765261
 20
298.6239904151495
 30
0.0
 10
136.392134422884
 20
298.5013778859974
 30
0.0
 10
136.1103016342315
 20
298.4269482755024
 30
0.0
 10
135.8119692809386
 20
298.3696157654513
 30
0.0
 10
135.5338779463242
 20
298.3332602699576
 30
0.0
 10
135.2851705724037
 20
298.3121020695737
 30
0.0
 10
135.0697383328339
 20
298.3007638195631
 30
0.0
 10
134.9255695470606
 20
298.2993633722576
 30
0.0
 10
134.8535668189872
 20
298.2986639418922
 30
0.0
  0
SPLINE
  5
1C5
330
1F
100
AcDbEntity
  8
0
  6
Continuous
 62
     8
370
     0
100
AcDbSpline
210
0.0
220
0.0
230
1.0
 70
     8
 71
     3
 72
    22
 73
    18
 74
     0
 42
0.00000001
 43
0.00000001
 40
0.0
 40
0.0
 40
0.0
 40
0.0
 40
0.0296894036913802
 40
0.059400931222463
 40
0.0892567594041765
 40
0.1193773089695157
 40
0.1794447469430009
 40
0.2398372748456944
 40
0.3003694262361866
 40
0.3621960075990284
 40
0.4866802210819945
 40
0.6131605774206825
 40
0.6765241995041413
 40
0.7413648293012098
 40
0.8247174197943298
 40
0.9107016428578414
 40
0.9999999999999999
 40
0.9999999999999999
 40
0.9999999999999999
 40
0.9999999999999999
 10
134.8535668189872
 20
321.3742166810034
 30
0.0
 10
134.9075366742685
 20
321.373821210342
 30
0.0
 10
135.0155166018876
 20
321.3730299743239
 30
0.0
 10
135.1770938501205
 20
321.366660661712
 30
0.0
 10
135.338115695614
 20
321.3564545205889
 30
0.0
 10
135.5509685901032
 20
321.3372647780722
 30
0.0
 10
135.8118238714916
 20
321.3031912732444
 30
0.0
 10
136.1102578731112
 20
321.2458742964799
 30
0.0
 10
136.392308096032
 20
321.1715098701619
 30
0.0
 10
136.7420346001708
 20
321.0488972921183
 30
0.0
 10
137.1224015949845
 20
320.8526798624774
 30
0.0
 10
137.4083079227739
 20
320.6045580017926
 30
0.0
 10
137.5839993391826
 20
320.3771256508476
 30
0.0
 10
137.699859113358
 20
320.1743068074299
 30
0.0
 10
137.7911496488324
 20
319.933390642781
 30
0.0
 10
137.8518201684102
 20
319.6503889271356
 30
0.0
 10
137.8589397313712
 20
319.4452460018995
 30
0.0
 10
137.8625668189872
 20
319.3407351818202
 30
0.0
  0
LINE
  5
1C6
330
1F
100
AcDbEntity
  8
0
  6
Continuous
 62
     8
370
     0
100
AcDbLine
 10
132.847566819
 20
321.374216681
 30
0.0
 11
134.853566819
 21
321.374216681
 31
0.0
  0
SPLINE
  5
1C7
330
1F
100
AcDbEntity
  8
0
  6
Continuous
 62
     8
370
     0
100
AcDbSpline
210
0.0
220
0.0
230
1.0
 70
     8
 71
     3
 72
    26
 73
    22
 74
     0
 42
0.00000001
 43
0.00000001
 40
0.0
 40
0.0
 40
0.0
 40
0.0
 40
0.0232373908042084
 40
0.0465292995865108
 40
0.0698569975407355
 40
0.0932013693078059
 40
0.1165430347342979
 40
0.1398624738988058
 40
0.1631401536963647
 40
0.1863566542435528
 40
0.2094927933840228
 40
0.2325297476356431
 40
0.255449168023267
 40
0.3837512310231541
 40
0.508764712392359
 40
0.6366784170297523
 40
0.7581084169179154
 40
0.822805467811314
 40
0.8846543691725356
 40
0.9436899820811708
 40
1.0
 40
1.0
 40
1.0
 40
1.0
 10
132.8475668189873
 20
298.2986639418922
 30
0.0
 10
132.7688800436173
 20
298.2996209983008
 30
0.0
 10
132.611321883343
 20
298.3015373564983
 30
0.0
 10
132.3751907923071
 20
298.3170367950964
 30
0.0
 10
132.1395384954668
 20
298.3417868037881
 30
0.0
 10
131.9049775999226
 20
298.3766471918111
 30
0.0
 10
131.6721162776091
 20
298.4212727223365
 30
0.0
 10
131.4415523966891
 20
298.4755762899405
 30
0.0
 10
131.2138684305331
 20
298.5393375269947
 30
0.0
 10
130.9896241701194
 20
298.6123119843983
 30
0.0
 10
130.7693588710195
 20
298.6941989073187
 30
0.0
 10
130.5535600983443
 20
298.7846778322884
 30
0.0
 10
130.0191733675375
 20
299.0347259610778
 30
0.0
 10
129.2250152504802
 20
299.5454718659744
 30
0.0
 10
128.3091643273775
 20
300.4670047968326
 30
0.0
 10
127.6148802291299
 20
301.5368342868256
 30
0.0
 10
127.214510935072
 20
302.5266670053422
 30
0.0
 10
127.0037228068248
 20
303.3385826718875
 30
0.0
 10
126.8981564792157
 20
303.9569702496809
 30
0.0
 10
126.8393501433722
 20
304.5528779112199
 30
0.0
 10
126.8327761463554
 20
304.941993078734
 30
0.0
 10
126.8295668189872
 20
305.1319533043449
 30
0.0
  0
SPLINE
  5
1C8
330
1F
100
AcDbEntity
  8
0
  6
Continuous
 62
     8
370
     0
100
AcDbSpline
210
0.0
220
0.0
230
1.0
 70
     8
 71
     3
 72
    28
 73
    24
 74
     0
 42
0.00000001
 43
0.00000001
 40
0.0
 40
0.0
 40
0.0
 40
0.0
 40
0.0308504924188471
 40
0.0628464995912869
 40
0.0960088032684232
 40
0.1303533971118188
 40
0.1658904490413779
 40
0.2026231764880023
 40
0.2405466608421672
 40
0.2796466389507025
 40
0.3198983222590112
 40
0.3612653072267727
 40
0.4036986526075214
 40
0.4471362082734884
 40
0.4915022843445659
 40
0.6155100057134627
 40
0.7446848809126931
 40
0.7865903070399157
 40
0.8289174271706989
 40
0.8715461218846262
 40
0.9143525700330722
 40
0.9572117484481941
 40
1.0
 40
1.0
 40
1.0
 40
1.0
 10
126.8295668189872
 20
314.5409273185506
 30
0.0
 10
126.8305286905599
 20
314.6450115455135
 30
0.0
 10
126.8324881491184
 20
314.8570447681431
 30
0.0
 10
126.8494057874495
 20
315.1807512699592
 30
0.0
 10
126.8787582598712
 20
315.5154830923816
 30
0.0
 10
126.9235022898333
 20
315.860722463317
 30
0.0
 10
126.9854405564024
 20
316.2156683093787
 30
0.0
 10
127.0667967181416
 20
316.5792145337047
 30
0.0
 10
127.1697176697788
 20
316.949904383252
 30
0.0
 10
127.2963454738859
 20
317.3258967639225
 30
0.0
 10
127.4487108897776
 20
317.7049375779785
 30
0.0
 10
127.6286662237474
 20
318.0843481599994
 30
0.0
 10
127.8377735236263
 20
318.4610139758491
 30
0.0
 10
128.0772718725669
 20
318.8314581019757
 30
0.0
 10
128.5079545729512
 20
319.4051188304074
 30
0.0
 10
129.2228496386411
 20
320.1257003232918
 30
0.0
 10
130.070901818251
 20
320.6718667293419
 30
0.0
 10
130.730976866054
 20
320.967364896048
 30
0.0
 10
131.1355719303053
 20
321.1132373097729
 30
0.0
 10
131.5530003022035
 20
321.2289582363916
 30
0.0
 10
131.979856476265
 20
321.3120571268281
 30
0.0
 10
132.4124351832531
 20
321.364468773134
 30
0.0
 10
132.7026030389241
 20
321.3709691727635
 30
0.0
 10
132.8475668189872
 20
321.3742166810034
 30
0.0
  0
SPLINE
  5
1C9
330
1F
100
AcDbEntity
  8
0
  6
Continuous
 62
     8
370
    15
100
AcDbSpline
210
0.0
220
0.0
230
1.0
 70
     8
 71
     3
 72
    20
 73
    16
 74
     0
 42
0.00000001
 43
0.00000001
 40
0.0
 40
0.0
 40
0.0
 40
0.0
 40
0.0589500629549235
 40
0.1158607365172695
 40
0.170772572929324
 40
0.2237307164152398
 40
0.2747854940165828
 40
0.4074531095717532
 40
0.5313400237327819
 40
0.6288165948570779
 40
0.7238066110003882
 40
0.793172253642231
 40
0.8620024880808937
 40
0.9307828696169875
 40
1.0
 40
1.0
 40
1.0
 40
1.0
 10
136.8595668189872
 20
318.5803915921904
 30
0.0
 10
136.8586659459637
 20
318.6391329193802
 30
0.0
 10
136.8568953658019
 20
318.7545834056234
 30
0.0
 10
136.8420948063008
 20
318.9204019897933
 30
0.0
 10
136.8185029164659
 20
319.0768543090358
 30
0.0
 10
136.7855318363039
 20
319.2236805600479
 30
0.0
 10
136.7208528324365
 20
319.4356488116932
 30
0.0
 10
136.5976701073826
 20
319.6939844272719
 30
0.0
 10
136.3816243000379
 20
319.9525920950305
 30
0.0
 10
136.1265472936724
 20
320.1446017272025
 30
0.0
 10
135.8717809490517
 20
320.2712053427119
 30
0.0
 10
135.6164755388434
 20
320.3567571826315
 30
0.0
 10
135.3724576485887
 20
320.411064901659
 30
0.0
 10
135.1164070626456
 20
320.4449825434767
 30
0.0
 10
134.9413648974101
 20
320.4491195310623
 30
0.0
 10
134.8535668189872
 20
320.4511945714389
 30
0.0
  0
SPLINE
  5
1CA
330
1F
100
AcDbEntity
  8
0
  6
Continuous
 62
     8
370
    15
100
AcDbSpline
210
0.0
220
0.0
230
1.0
 70
     8
 71
     3
 72
    21
 73
    17
 74
     0
 42
0.00000001
 43
0.00000001
 40
0.0
 40
0.0
 40
0.0
 40
0.0
 40
0.0329216675263088
 40
0.0657179210816981
 40
0.0984404118291058
 40
0.1311411404805967
 40
0.1638722114900535
 40
0.1966855847889732
 40
0.2296328309423734
 40
0.3473556752843459
 40
0.468610670485411
 40
0.5923119009970157
 40
0.7252633218378091
 40
0.8111474441108524
 40
0.9026560147308085
 40
1.0
 40
1.0
 40
1.0
 40
1.0
 10
134.8535668189872
 20
299.2216860514567
 30
0.0
 10
134.8952880450805
 20
299.2221575308525
 30
0.0
 10
134.9785715616777
 20
299.2230986935595
 30
0.0
 10
135.1026460768638
 20
299.2307499456543
 30
0.0
 10
135.2250988423189
 20
299.2429763659352
 30
0.0
 10
135.3454819620195
 20
299.2602219156111
 30
0.0
 10
135.4633647997348
 20
299.2823638168337
 30
0.0
 10
135.5783493594177
 20
299.3094495723537
 30
0.0
 10
135.7855383168029
 20
299.3687480915127
 30
0.0
 10
136.0665490955903
 20
299.4873318941112
 30
0.0
 10
136.3669453708575
 20
299.7027381644501
 30
0.0
 10
136.597461273039
 20
299.9787914501835
 30
0.0
 10
136.7348377708226
 20
300.2662448005484
 30
0.0
 10
136.8118888981354
 20
300.5475838522711
 30
0.0
 10
136.8523681378776
 20
300.8082420138882
 30
0.0
 10
136.8571183326951
 20
300.9958081368486
 30
0.0
 10
136.8595668189872
 20
301.0924890307052
 30
0.0
  0
LINE
  5
1CB
330
1F
100
AcDbEntity
  8
0
  6
Continuous
 62
     8
370
    15
100
AcDbLine
 10
132.847566819
 20
320.4511945714
 30
0.0
 11
134.853566819
 21
320.4511945714
 31
0.0
  0
LINE
  5
1CC
330
1F
100
AcDbEntity
  8
0
  6
Continuous
 62
     8
370
    15
100
AcDbLine
 10
127.832566819
 20
305.1319533043
 30
0.0
 11
127.832566819
 21
314.5409273186
 31
0.0
  0
SPLINE
  5
1CD
330
1F
100
AcDbEntity
  8
0
  6
Continuous
 62
     8
370
    15
100
AcDbSpline
210
0.0
220
0.0
230
1.0
 70
     8
 71
     3
 72
    14
 73
    10
 74
     0
 42
0.00000001
 43
0.00000001
 40
2.0
 40
2.0
 40
2.0
 40
2.0
 40
3.38722859681902
 40
3.38722859681902
 40
4.75360934350394
 40
4.75360934350394
 40
6.12512817442899
 40
6.12512817442899
 40
7.49281607901922
 40
7.49281607901922
 40
7.49281607901922
 40
7.49281607901922
 10
127.8325668189872
 20
314.5409273185506
 30
0.0
 10
127.8325668189872
 20
315.2694575669044
 30
0.0
 10
127.9181902707371
 20
316.0013320294073
 30
0.0
 10
128.3336358400051
 20
317.3864834410859
 30
0.0
 10
128.6607331681251
 20
318.040538278079
 30
0.0
 10
129.5547796174294
 20
319.1666496318104
 30
0.0
 10
130.1237356187715
 20
319.6373628000455
 30
0.0
 10
131.4109957837513
 20
320.2795323248182
 30
0.0
 10
132.1292987476065
 20
320.4511945714389
 30
0.0
 10
132.8475668189872
 20
320.4511945714389
 30
0.0
  0
LINE
  5
1CE
330
1F
100
AcDbEntity
  8
0
  6
Continuous
 62
     8
370
    15
100
AcDbLine
 10
134.853566819
 20
299.2216860515
 30
0.0
 11
132.847566819
 21
299.2216860515
 31
0.0
  0
SPLINE
  5
1CF
330
1F
100
AcDbEntity
  8
0
  6
Continuous
 62
     8
370
    15
100
AcDbSpline
210
0.0
220
0.0
230
1.0
 70
     8
 71
     3
 72
    13
 73
     9
 74
     0
 42
0.00000001
 43
0.00000001
 40
2.0
 40
2.0
 40
2.0
 40
2.0
 40
2.611325931886205
 40
3.52915507243333
 40
4.825121851617491
 40
6.14974542577222
 40
6.72213389869632
 40
7.49370226584887
 40
7.49370226584887
 40
7.49370226584887
 40
7.49370226584887
 10
132.8475668189873
 20
299.2216860514567
 30
0.0
 10
132.526517041032
 20
299.2216860514567
 30
0.0
 10
131.7229694390776
 20
299.3060316759296
 30
0.0
 10
130.3191108177767
 20
299.8403536327327
 30
0.0
 10
128.903524276129
 20
301.1080674057229
 30
0.0
 10
128.1693195897449
 20
302.6469546022032
 30
0.0
 10
127.8779145187859
 20
304.0200459123039
 30
0.0
 10
127.8325668189872
 20
304.7267490752564
 30
0.0
 10
127.8325668189872
 20
305.1319533043449
 30
0.0
  0
ENDSEC
  0
SECTION
  2
OBJECTS
  0
DICTIONARY
  5
C
330
0
100
AcDbDictionary
281
     1
  3
ACAD_GROUP
350
D
  3
ACAD_LAYOUT
350
1A
  3
ACAD_MATERIAL
350
3B
  3
ACAD_MLEADERSTYLE
350
1D1
  3
ACAD_MLINESTYLE
350
17
  3
ACAD_PLOTSETTINGS
350
19
  3
ACAD_PLOTSTYLENAME
350
E
  3
ACAD_TABLESTYLE
350
1D0
  3
ACAD_VISUALSTYLE
350
2A
  0
DICTIONARY
  5
D
102
{ACAD_REACTORS
330
C
102
}
330
C
100
AcDbDictionary
281
     1
  0
DICTIONARY
  5
1A
102
{ACAD_REACTORS
330
C
102
}
330
C
100
AcDbDictionary
281
     1
  3
Layout1
350
1E
  3
Layout2
350
26
  3
Model
350
22
  0
DICTIONARY
  5
3B
102
{ACAD_REACTORS
330
C
102
}
330
C
100
AcDbDictionary
281
     1
  3
ByBlock
350
3D
  3
ByLayer
350
3C
  3
Global
350
3E
  0
DICTIONARY
  5
1D1
102
{ACAD_REACTORS
330
C
102
}
330
C
100
AcDbDictionary
281
     1
  0
DICTIONARY
  5
17
102
{ACAD_REACTORS
330
C
102
}
330
C
100
AcDbDictionary
281
     1
  3
Standard
350
18
  0
DICTIONARY
  5
19
102
{ACAD_REACTORS
330
C
102
}
330
C
100
AcDbDictionary
281
     1
  0
ACDBDICTIONARYWDFLT
  5
E
102
{ACAD_REACTORS
330
C
102
}
330
C
100
AcDbDictionary
281
     1
  3
Normal
350
F
100
AcDbDictionaryWithDefault
340
F
  0
DICTIONARY
  5
1D0
102
{ACAD_REACTORS
330
C
102
}
330
C
100
AcDbDictionary
281
     1
  0
DICTIONARY
  5
2A
102
{ACAD_REACTORS
330
C
102
}
330
C
100
AcDbDictionary
281
     1
  3
2dWireframe
350
2F
  3
3D Hidden
350
31
  3
3dWireframe
350
30
  3
Basic
350
32
  3
Brighten
350
36
  3
ColorChange
350
3A
  3
Conceptual
350
34
  3
Dim
350
35
  3
Facepattern
350
39
  3
Flat
350
2B
  3
FlatWithEdges
350
2C
  3
Gouraud
350
2D
  3
GouraudWithEdges
350
2E
  3
Linepattern
350
38
  3
Realistic
350
33
  3
Thicken
350
37
  0
LAYOUT
  5
1E
102
{ACAD_REACTORS
330
1A
102
}
330
1A
100
AcDbPlotSettings
  1

  2
none_device
  4

  6

 40
0.0
 41
0.0
 42
0.0
 43
0.0
 44
0.0
 45
0.0
 46
0.0
 47
0.0
 48
0.0
 49
0.0
140
0.0
141
0.0
142
1.0
143
1.0
 70
   688
 72
     0
 73
     0
 74
     5
  7

 75
    16
 76
     0
 77
     2
 78
   300
147
1.0
148
0.0
149
0.0
100
AcDbLayout
  1
Layout1
 70
     1
 71
     1
 10
0.0
 20
0.0
 11
420.0
 21
297.0
 12
0.0
 22
0.0
 32
0.0
 14
1.0000000000E+20
 24
1.0000000000E+20
 34
1.0000000000E+20
 15
-1.0000000000E+20
 25
-1.0000000000E+20
 35
-1.0000000000E+20
146
0.0
 13
0.0
 23
0.0
 33
0.0
 16
1.0
 26
0.0
 36
0.0
 17
0.0
 27
1.0
 37
0.0
 76
     0
330
1B
  0
LAYOUT
  5
26
102
{ACAD_REACTORS
330
1A
102
}
330
1A
100
AcDbPlotSettings
  1

  2
none_device
  4

  6

 40
0.0
 41
0.0
 42
0.0
 43
0.0
 44
0.0
 45
0.0
 46
0.0
 47
0.0
 48
0.0
 49
0.0
140
0.0
141
0.0
142
1.0
143
1.0
 70
   688
 72
     0
 73
     0
 74
     5
  7

 75
    16
 76
     0
 77
     2
 78
   300
147
1.0
148
0.0
149
0.0
100
AcDbLayout
  1
Layout2
 70
     1
 71
     2
 10
0.0
 20
0.0
 11
0.0
 21
0.0
 12
0.0
 22
0.0
 32
0.0
 14
0.0
 24
0.0
 34
0.0
 15
0.0
 25
0.0
 35
0.0
146
0.0
 13
0.0
 23
0.0
 33
0.0
 16
1.0
 26
0.0
 36
0.0
 17
0.0
 27
1.0
 37
0.0
 76
     0
330
23
  0
LAYOUT
  5
22
102
{ACAD_REACTORS
330
1A
102
}
330
1A
100
AcDbPlotSettings
  1

  2
none_device
  4

  6

 40
0.0
 41
0.0
 42
0.0
 43
0.0
 44
0.0
 45
0.0
 46
0.0
 47
0.0
 48
0.0
 49
0.0
140
0.0
141
0.0
142
1.0
143
1.0
 70
  1712
 72
     0
 73
     0
 74
     0
  7

 75
     0
 76
     0
 77
     2
 78
   300
147
1.0
148
0.0
149
0.0
100
AcDbLayout
  1
Model
 70
     1
 71
     0
 10
0.0
 20
0.0
 11
594.0
 21
841.0
 12
0.0
 22
0.0
 32
0.0
 14
0.0
 24
0.0
 34
0.0
 15
594.0
 25
841.0
 35
0.0
146
0.0
 13
0.0
 23
0.0
 33
0.0
 16
1.0
 26
0.0
 36
0.0
 17
0.0
 27
1.0
 37
0.0
 76
     0
330
1F
331
29
  0
MATERIAL
  5
3D
102
{ACAD_REACTORS
330
3B
102
}
330
3B
100
AcDbMaterial
  1
ByBlock
 72
     1
 94
      127
  0
MATERIAL
  5
3C
102
{ACAD_REACTORS
330
3B
102
}
330
3B
100
AcDbMaterial
  1
ByLayer
 72
     1
 94
      127
  0
MATERIAL
  5
3E
102
{ACAD_REACTORS
330
3B
102
}
330
3B
100
AcDbMaterial
  1
Global
 72
     1
 94
      127
  0
MLINESTYLE
  5
18
102
{ACAD_REACTORS
330
17
102
}
330
17
100
AcDbMlineStyle
  2
Standard
 70
     0
  3

 62
   256
 51
90.0
 52
90.0
 71
     2
 49
0.5
 62
   256
  6
BYLAYER
 49
-0.5
 62
   256
  6
BYLAYER
  0
ACDBPLACEHOLDER
  5
F
102
{ACAD_REACTORS
330
E
102
}
330
E
  0
VISUALSTYLE
  5
2F
102
{ACAD_REACTORS
330
2A
102
}
330
2A
100
AcDbVisualStyle
  2
2dWireframe
 70
     4
177
     2
291
     0
 71
     0
176
     1
 72
     2
176
     1
 73
     0
176
     1
 90
        0
176
     1
 40
-0.6
176
     1
 41
-30.0
176
     1
 62
     5
 63
     7
421
 16777215
176
     1
 74
     1
176
     1
 91
        4
176
     1
 64
     7
176
     1
 65
   257
176
     1
 75
     1
176
     1
175
     1
176
     1
 42
1.0
176
     1
 92
        0
176
     1
 66
   257
176
     1
 43
1.0
176
     1
 76
     1
176
     1
 77
     6
176
     1
 78
     2
176
     1
 67
     7
176
     1
 79
     5
176
     1
170
     0
176
     1
171
     0
176
     1
290
     0
176
     1
 93
        1
176
     1
 44
0.0
176
     1
173
     0
176
     1
  0
VISUALSTYLE
  5
31
102
{ACAD_REACTORS
330
2A
102
}
330
2A
100
AcDbVisualStyle
  2
3D Hidden
 70
     6
177
     2
291
     0
 71
     1
176
     1
 72
     2
176
     1
 73
     2
176
     1
 90
        0
176
     1
 40
-0.6
176
     1
 41
-30.0
176
     1
 62
     5
 63
     7
421
 16777215
176
     1
 74
     2
176
     1
 91
        2
176
     1
 64
     7
176
     1
 65
   257
176
     1
 75
     2
176
     1
175
     1
176
     1
 42
40.0
176
     1
 92
        0
176
     1
 66
   257
176
     1
 43
1.0
176
     1
 76
     1
176
     1
 77
     6
176
     1
 78
     2
176
     1
 67
     7
176
     1
 79
     3
176
     1
170
     0
176
     1
171
     0
176
     1
290
     0
176
     1
 93
        1
176
     1
 44
0.0
176
     1
173
     0
176
     1
  0
VISUALSTYLE
  5
30
102
{ACAD_REACTORS
330
2A
102
}
330
2A
100
AcDbVisualStyle
  2
3dWireframe
 70
     5
177
     2
291
     0
 71
     0
176
     1
 72
     2
176
     1
 73
     0
176
     1
 90
        0
176
     1
 40
-0.6
176
     1
 41
-30.0
176
     1
 62
     5
 63
     7
421
 16777215
176
     1
 74
     1
176
     1
 91
        4
176
     1
 64
     7
176
     1
 65
   257
176
     1
 75
     1
176
     1
175
     1
176
     1
 42
1.0
176
     1
 92
        0
176
     1
 66
   257
176
     1
 43
1.0
176
     1
 76
     1
176
     1
 77
     6
176
     1
 78
     2
176
     1
 67
     7
176
     1
 79
     5
176
     1
170
     0
176
     1
171
     0
176
     1
290
     0
176
     1
 93
        1
176
     1
 44
0.0
176
     1
173
     0
176
     1
  0
VISUALSTYLE
  5
32
102
{ACAD_REACTORS
330
2A
102
}
330
2A
100
AcDbVisualStyle
  2
Basic
 70
     7
177
     2
291
     1
 71
     1
176
     1
 72
     0
176
     1
 73
     1
176
     1
 90
        0
176
     1
 40
-0.6
176
     1
 41
-30.0
176
     1
 62
     5
 63
     7
421
 16777215
176
     1
 74
     0
176
     1
 91
        4
176
     1
 64
     7
176
     1
 65
   257
176
     1
 75
     1
176
     1
175
     1
176
     1
 42
1.0
176
     1
 92
        8
176
     1
 66
     7
176
     1
 43
1.0
176
     1
 76
     1
176
     1
 77
     6
176
     1
 78
     2
176
     1
 67
     7
176
     1
 79
     5
176
     1
170
     0
176
     1
171
     0
176
     1
290
     0
176
     1
 93
        1
176
     1
 44
0.0
176
     1
173
     0
176
     1
  0
VISUALSTYLE
  5
36
102
{ACAD_REACTORS
330
2A
102
}
330
2A
100
AcDbVisualStyle
  2
Brighten
 70
    12
177
     2
291
     1
 71
     2
176
     1
 72
     2
176
     1
 73
     0
176
     1
 90
        0
176
     1
 40
-0.6
176
     1
 41
-30.0
176
     1
 62
     5
 63
     7
421
 16777215
176
     1
 74
     1
176
     1
 91
        4
176
     1
 64
     7
176
     1
 65
   257
176
     1
 75
     1
176
     1
175
     1
176
     1
 42
1.0
176
     1
 92
        8
176
     1
 66
     7
176
     1
 43
1.0
176
     1
 76
     1
176
     1
 77
     6
176
     1
 78
     2
176
     1
 67
     7
176
     1
 79
     5
176
     1
170
     0
176
     1
171
     0
176
     1
290
     0
176
     1
 93
        1
176
     1
 44
50.0
176
     1
173
     0
176
     1
  0
VISUALSTYLE
  5
3A
102
{ACAD_REACTORS
330
2A
102
}
330
2A
100
AcDbVisualStyle
  2
ColorChange
 70
    16
177
     2
291
     1
 71
     2
176
     1
 72
     2
176
     1
 73
     3
176
     1
 90
        0
176
     1
 40
-0.6
176
     1
 41
-30.0
176
     1
 62
     5
 63
     8
421
  8421504
176
     1
 74
     1
176
     1
 91
        4
176
     1
 64
     7
176
     1
 65
   257
176
     1
 75
     1
176
     1
175
     1
176
     1
 42
1.0
176
     1
 92
        8
176
     1
 66
     8
424
  8421504
176
     1
 43
1.0
176
     1
 76
     1
176
     1
 77
     6
176
     1
 78
     2
176
     1
 67
     7
176
     1
 79
     5
176
     1
170
     0
176
     1
171
     0
176
     1
290
     0
176
     1
 93
        1
176
     1
 44
0.0
176
     1
173
     0
176
     1
  0
VISUALSTYLE
  5
34
102
{ACAD_REACTORS
330
2A
102
}
330
2A
100
AcDbVisualStyle
  2
Conceptual
 70
     9
177
     2
291
     0
 71
     3
176
     1
 72
     2
176
     1
 73
     0
176
     1
 90
        0
176
     1
 40
-0.6
176
     1
 41
-30.0
176
     1
 62
     5
 63
     7
421
 16777215
176
     1
 74
     2
176
     1
 91
        2
176
     1
 64
     7
176
     1
 65
   257
176
     1
 75
     1
176
     1
175
     1
176
     1
 42
40.0
176
     1
 92
        8
176
     1
 66
     7
176
     1
 43
1.0
176
     1
 76
     1
176
     1
 77
     6
176
     1
 78
     2
176
     1
 67
     7
176
     1
 79
     3
176
     1
170
     0
176
     1
171
     0
176
     1
290
     0
176
     1
 93
        1
176
     1
 44
0.0
176
     1
173
     0
176
     1
  0
VISUALSTYLE
  5
35
102
{ACAD_REACTORS
330
2A
102
}
330
2A
100
AcDbVisualStyle
  2
Dim
 70
    11
177
     2
291
     1
 71
     2
176
     1
 72
     2
176
     1
 73
     0
176
     1
 90
        0
176
     1
 40
-0.6
176
     1
 41
-30.0
176
     1
 62
     5
 63
     7
421
 16777215
176
     1
 74
     1
176
     1
 91
        4
176
     1
 64
     7
176
     1
 65
   257
176
     1
 75
     1
176
     1
175
     1
176
     1
 42
1.0
176
     1
 92
        8
176
     1
 66
     7
176
     1
 43
1.0
176
     1
 76
     1
176
     1
 77
     6
176
     1
 78
     2
176
     1
 67
     7
176
     1
 79
     5
176
     1
170
     0
176
     1
171
     0
176
     1
290
     0
176
     1
 93
        1
176
     1
 44
-50.0
176
     1
173
     0
176
     1
  0
VISUALSTYLE
  5
39
102
{ACAD_REACTORS
330
2A
102
}
330
2A
100
AcDbVisualStyle
  2
Facepattern
 70
    15
177
     2
291
     1
 71
     2
176
     1
 72
     2
176
     1
 73
     0
176
     1
 90
        0
176
     1
 40
-0.6
176
     1
 41
-30.0
176
     1
 62
     5
 63
     7
421
 16777215
176
     1
 74
     1
176
     1
 91
        4
176
     1
 64
     7
176
     1
 65
   257
176
     1
 75
     1
176
     1
175
     1
176
     1
 42
1.0
176
     1
 92
        8
176
     1
 66
     7
176
     1
 43
1.0
176
     1
 76
     1
176
     1
 77
     6
176
     1
 78
     2
176
     1
 67
     7
176
     1
 79
     5
176
     1
170
     0
176
     1
171
     0
176
     1
290
     0
176
     1
 93
        1
176
     1
 44
0.0
176
     1
173
     0
176
     1
  0
VISUALSTYLE
  5
2B
102
{ACAD_REACTORS
330
2A
102
}
330
2A
100
AcDbVisualStyle
  2
Flat
 70
     0
177
     2
291
     1
 71
     2
176
     1
 72
     1
176
     1
 73
     1
176
     1
 90
        2
176
     1
 40
-0.6
176
     1
 41
30.0
176
     1
 62
     5
 63
     7
421
 16777215
176
     1
 74
     0
176
     1
 91
        4
176
     1
 64
     7
176
     1
 65
   257
176
     1
 75
     1
176
     1
175
     1
176
     1
 42
1.0
176
     1
 92
        8
176
     1
 66
     7
176
     1
 43
1.0
176
     1
 76
     1
176
     1
 77
     6
176
     1
 78
     2
176
     1
 67
     7
176
     1
 79
     5
176
     1
170
     0
176
     1
171
     0
176
     1
290
     0
176
     1
 93
       13
176
     1
 44
0.0
176
     1
173
     0
176
     1
  0
VISUALSTYLE
  5
2C
102
{ACAD_REACTORS
330
2A
102
}
330
2A
100
AcDbVisualStyle
  2
FlatWithEdges
 70
     1
177
     2
291
     1
 71
     2
176
     1
 72
     1
176
     1
 73
     1
176
     1
 90
        2
176
     1
 40
-0.6
176
     1
 41
30.0
176
     1
 62
     5
 63
     7
421
 16777215
176
     1
 74
     1
176
     1
 91
        4
176
     1
 64
     7
176
     1
 65
   257
176
     1
 75
     1
176
     1
175
     1
176
     1
 42
1.0
176
     1
 92
        0
176
     1
 66
   257
176
     1
 43
1.0
176
     1
 76
     1
176
     1
 77
     6
176
     1
 78
     2
176
     1
 67
     7
176
     1
 79
     5
176
     1
170
     0
176
     1
171
     0
176
     1
290
     0
176
     1
 93
       13
176
     1
 44
0.0
176
     1
173
     0
176
     1
  0
VISUALSTYLE
  5
2D
102
{ACAD_REACTORS
330
2A
102
}
330
2A
100
AcDbVisualStyle
  2
Gouraud
 70
     2
177
     2
291
     1
 71
     2
176
     1
 72
     2
176
     1
 73
     1
176
     1
 90
        2
176
     1
 40
-0.6
176
     1
 41
30.0
176
     1
 62
     5
 63
     7
421
 16777215
176
     1
 74
     0
176
     1
 91
        4
176
     1
 64
     7
176
     1
 65
   257
176
     1
 75
     1
176
     1
175
     1
176
     1
 42
1.0
176
     1
 92
        0
176
     1
 66
     7
176
     1
 43
1.0
176
     1
 76
     1
176
     1
 77
     6
176
     1
 78
     2
176
     1
 67
     7
176
     1
 79
     5
176
     1
170
     0
176
     1
171
     0
176
     1
290
     0
176
     1
 93
       13
176
     1
 44
0.0
176
     1
173
     0
176
     1
  0
VISUALSTYLE
  5
2E
102
{ACAD_REACTORS
330
2A
102
}
330
2A
100
AcDbVisualStyle
  2
GouraudWithEdges
 70
     3
177
     2
291
     1
 71
     2
176
     1
 72
     2
176
     1
 73
     1
176
     1
 90
        2
176
     1
 40
-0.6
176
     1
 41
30.0
176
     1
 62
     5
 63
     7
421
 16777215
176
     1
 74
     1
176
     1
 91
        4
176
     1
 64
     7
176
     1
 65
   257
176
     1
 75
     1
176
     1
175
     1
176
     1
 42
1.0
176
     1
 92
        0
176
     1
 66
   257
176
     1
 43
1.0
176
     1
 76
     1
176
     1
 77
     6
176
     1
 78
     2
176
     1
 67
     7
176
     1
 79
     5
176
     1
170
     0
176
     1
171
     0
176
     1
290
     0
176
     1
 93
       13
176
     1
 44
0.0
176
     1
173
     0
176
     1
  0
VISUALSTYLE
  5
38
102
{ACAD_REACTORS
330
2A
102
}
330
2A
100
AcDbVisualStyle
  2
Linepattern
 70
    14
177
     2
291
     1
 71
     2
176
     1
 72
     2
176
     1
 73
     0
176
     1
 90
        0
176
     1
 40
-0.6
176
     1
 41
-30.0
176
     1
 62
     5
 63
     7
421
 16777215
176
     1
 74
     1
176
     1
 91
        4
176
     1
 64
     7
176
     1
 65
   257
176
     1
 75
     7
176
     1
175
     7
176
     1
 42
1.0
176
     1
 92
        8
176
     1
 66
     7
176
     1
 43
1.0
176
     1
 76
     1
176
     1
 77
     6
176
     1
 78
     2
176
     1
 67
     7
176
     1
 79
     5
176
     1
170
     0
176
     1
171
     0
176
     1
290
     0
176
     1
 93
        1
176
     1
 44
0.0
176
     1
173
     0
176
     1
  0
VISUALSTYLE
  5
33
102
{ACAD_REACTORS
330
2A
102
}
330
2A
100
AcDbVisualStyle
  2
Realistic
 70
     8
177
     2
291
     0
 71
     2
176
     1
 72
     2
176
     1
 73
     0
176
     1
 90
        0
176
     1
 40
-0.6
176
     1
 41
-30.0
176
     1
 62
     5
 63
     7
421
 16777215
176
     1
 74
     1
176
     1
 91
        0
176
     1
 64
     7
176
     1
 65
   257
176
     1
 75
     1
176
     1
175
     1
176
     1
 42
1.0
176
     1
 92
        8
176
     1
 66
     8
424
  7895160
176
     1
 43
1.0
176
     1
 76
     1
176
     1
 77
     6
176
     1
 78
     2
176
     1
 67
     7
176
     1
 79
     5
176
     1
170
     0
176
     1
171
     0
176
     1
290
     0
176
     1
 93
       13
176
     1
 44
0.0
176
     1
173
     0
176
     1
  0
VISUALSTYLE
  5
37
102
{ACAD_REACTORS
330
2A
102
}
330
2A
100
AcDbVisualStyle
  2
Thicken
 70
    13
177
     2
291
     1
 71
     2
176
     1
 72
     2
176
     1
 73
     0
176
     1
 90
        0
176
     1
 40
-0.6
176
     1
 41
-30.0
176
     1
 62
     5
 63
     7
421
 16777215
176
     1
 74
     1
176
     1
 91
        4
176
     1
 64
     7
176
     1
 65
   257
176
     1
 75
     1
176
     1
175
     1
176
     1
 42
1.0
176
     1
 92
       12
176
     1
 66
     7
176
     1
 43
1.0
176
     1
 76
     1
176
     1
 77
     6
176
     1
 78
     2
176
     1
 67
     7
176
     1
 79
     5
176
     1
170
     0
176
     1
171
     0
176
     1
290
     0
176
     1
 93
        1
176
     1
 44
0.0
176
     1
173
     0
176
     1
  0
ENDSEC
  0
EOF
