  0
SECTION
  2
HEADER
  9
$ACADVER
  1
AC1015
  9
$ACADMAINTVER
 70
     6
  9
$DWGCODEPAGE
  3
ANSI_1252
  9
$INSBASE
 10
0.0
 20
0.0
 30
0.0
  9
$EXTMIN
 10
0.0
 20
0.0
 30
0.0
  9
$EXTMAX
 10
594.0
 20
841.0
 30
0.0
  9
$LIMMIN
 10
0.0
 20
0.0
  9
$LIMMAX
 10
594.0
 20
841.0
  9
$ORTHOMODE
 70
     0
  9
$REGENMODE
 70
     1
  9
$FILLMODE
 70
     1
  9
$QTEXTMODE
 70
     0
  9
$MIRRTEXT
 70
     1
  9
$LTSCALE
 40
1.0
  9
$ATTMODE
 70
     1
  9
$TEXTSIZE
 40
10.0
  9
$TRACEWID
 40
1.0
  9
$TEXTSTYLE
  7
Standard
  9
$CLAYER
  8
0
  9
$CELTYPE
  6
ByLayer
  9
$CECOLOR
 62
   256
  9
$CELTSCALE
 40
1.0
  9
$DISPSILH
 70
     0
  9
$DIMSCALE
 40
1.0
  9
$DIMASZ
 40
2.5
  9
$DIMEXO
 40
0.0
  9
$DIMDLI
 40
3.75
  9
$DIMRND
 40
0.0
  9
$DIMDLE
 40
0.0
  9
$DIMEXE
 40
1.0
  9
$DIMTP
 40
0.0
  9
$DIMTM
 40
0.0
  9
$DIMTXT
 40
3.5
  9
$DIMCEN
 40
2.5
  9
$DIMTSZ
 40
0.0
  9
$DIMTOL
 70
     0
  9
$DIMLIM
 70
     0
  9
$DIMTIH
 70
     1
  9
$DIMTOH
 70
     1
  9
$DIMSE1
 70
     0
  9
$DIMSE2
 70
     0
  9
$DIMTAD
 70
     1
  9
$DIMZIN
 70
     0
  9
$DIMBLK
  1

  9
$DIMASO
 70
     1
  9
$DIMSHO
 70
     1
  9
$DIMPOST
  1

  9
$DIMAPOST
  1

  9
$DIMALT
 70
     0
  9
$DIMALTD
 70
     3
  9
$DIMALTF
 40
0.0393700787
  9
$DIMLFAC
 40
1.0
  9
$DIMTOFL
 70
     1
  9
$DIMTVP
 40
0.0
  9
$DIMTIX
 70
     0
  9
$DIMSOXD
 70
     0
  9
$DIMSAH
 70
     0
  9
$DIMBLK1
  1

  9
$DIMBLK2
  1

  9
$DIMSTYLE
  2
ISO-25
  9
$DIMCLRD
 70
     0
  9
$DIMCLRE
 70
     0
  9
$DIMCLRT
 70
     0
  9
$DIMTFAC
 40
1.0
  9
$DIMGAP
 40
1.5
  9
$DIMJUST
 70
     0
  9
$DIMSD1
 70
     0
  9
$DIMSD2
 70
     0
  9
$DIMTOLJ
 70
     0
  9
$DIMTZIN
 70
     0
  9
$DIMALTZ
 70
     0
  9
$DIMALTTZ
 70
     0
  9
$DIMUPT
 70
     0
  9
$DIMDEC
 70
     2
  9
$DIMTDEC
 70
     2
  9
$DIMALTU
 70
     2
  9
$DIMALTTD
 70
     3
  9
$DIMTXSTY
  7
Standard
  9
$DIMAUNIT
 70
     0
  9
$DIMADEC
 70
     2
  9
$DIMALTRND
 40
0.0
  9
$DIMAZIN
 70
     0
  9
$DIMDSEP
 70
    44
  9
$DIMATFIT
 70
     3
  9
$DIMFRAC
 70
     0
  9
$DIMLDRBLK
  1

  9
$DIMLUNIT
 70
     2
  9
$DIMLWD
 70
    -2
  9
$DIMLWE
 70
    -2
  9
$DIMTMOVE
 70
     0
  9
$LUNITS
 70
     2
  9
$LUPREC
 70
     2
  9
$SKETCHINC
 40
1.0
  9
$FILLETRAD
 40
10.0
  9
$AUNITS
 70
     0
  9
$AUPREC
 70
     2
  9
$MENU
  1
.
  9
$ELEVATION
 40
0.0
  9
$PELEVATION
 40
0.0
  9
$THICKNESS
 40
0.0
  9
$LIMCHECK
 70
     0
  9
$CHAMFERA
 40
0.0
  9
$CHAMFERB
 40
0.0
  9
$CHAMFERC
 40
0.0
  9
$CHAMFERD
 40
0.0
  9
$SKPOLY
 70
     0
  9
$TDCREATE
 40
2460006.414062882
  9
$TDUCREATE
 40
2460006.372396215
  9
$TDUPDATE
 40
2460006.414064479
  9
$TDUUPDATE
 40
2460006.372397813
  9
$TDINDWG
 40
0.0000000116
  9
$TDUSRTIMER
 40
0.0000000116
  9
$USRTIMER
 70
     1
  9
$ANGBASE
 50
0.0
  9
$ANGDIR
 70
     0
  9
$PDMODE
 70
     0
  9
$PDSIZE
 40
-1.0
  9
$PLINEWID
 40
0.0
  9
$SPLFRAME
 70
     0
  9
$SPLINETYPE
 70
     6
  9
$SPLINESEGS
 70
     8
  9
$HANDSEED
  5
1AD
  9
$SURFTAB1
 70
     6
  9
$SURFTAB2
 70
     6
  9
$SURFTYPE
 70
     6
  9
$SURFU
 70
     6
  9
$SURFV
 70
     6
  9
$UCSBASE
  2

  9
$UCSNAME
  2

  9
$UCSORG
 10
0.0
 20
0.0
 30
0.0
  9
$UCSXDIR
 10
1.0
 20
0.0
 30
0.0
  9
$UCSYDIR
 10
0.0
 20
1.0
 30
0.0
  9
$UCSORTHOREF
  2

  9
$UCSORTHOVIEW
 70
     0
  9
$UCSORGTOP
 10
0.0
 20
0.0
 30
0.0
  9
$UCSORGBOTTOM
 10
0.0
 20
0.0
 30
0.0
  9
$UCSORGLEFT
 10
0.0
 20
0.0
 30
0.0
  9
$UCSORGRIGHT
 10
0.0
 20
0.0
 30
0.0
  9
$UCSORGFRONT
 10
0.0
 20
0.0
 30
0.0
  9
$UCSORGBACK
 10
0.0
 20
0.0
 30
0.0
  9
$PUCSBASE
  2

  9
$PUCSNAME
  2

  9
$PUCSORG
 10
0.0
 20
0.0
 30
0.0
  9
$PUCSXDIR
 10
1.0
 20
0.0
 30
0.0
  9
$PUCSYDIR
 10
0.0
 20
1.0
 30
0.0
  9
$PUCSORTHOREF
  2

  9
$PUCSORTHOVIEW
 70
     0
  9
$PUCSORGTOP
 10
0.0
 20
0.0
 30
0.0
  9
$PUCSORGBOTTOM
 10
0.0
 20
0.0
 30
0.0
  9
$PUCSORGLEFT
 10
0.0
 20
0.0
 30
0.0
  9
$PUCSORGRIGHT
 10
0.0
 20
0.0
 30
0.0
  9
$PUCSORGFRONT
 10
0.0
 20
0.0
 30
0.0
  9
$PUCSORGBACK
 10
0.0
 20
0.0
 30
0.0
  9
$USERI1
 70
     0
  9
$USERI2
 70
     0
  9
$USERI3
 70
     0
  9
$USERI4
 70
     0
  9
$USERI5
 70
     0
  9
$USERR1
 40
0.0
  9
$USERR2
 40
0.0
  9
$USERR3
 40
0.0
  9
$USERR4
 40
0.0
  9
$USERR5
 40
0.0
  9
$WORLDVIEW
 70
     1
  9
$SHADEDGE
 70
     3
  9
$SHADEDIF
 70
    70
  9
$TILEMODE
 70
     1
  9
$MAXACTVP
 70
    64
  9
$PINSBASE
 10
0.0
 20
0.0
 30
0.0
  9
$PLIMCHECK
 70
     0
  9
$PEXTMIN
 10
1.0000000000E+20
 20
1.0000000000E+20
 30
1.0000000000E+20
  9
$PEXTMAX
 10
-1.0000000000E+20
 20
-1.0000000000E+20
 30
-1.0000000000E+20
  9
$PLIMMIN
 10
0.0
 20
0.0
  9
$PLIMMAX
 10
420.0
 20
297.0
  9
$UNITMODE
 70
     0
  9
$VISRETAIN
 70
     1
  9
$PLINEGEN
 70
     0
  9
$PSLTSCALE
 70
     1
  9
$TREEDEPTH
 70
  3020
  9
$CMLSTYLE
  2
Standard
  9
$CMLJUST
 70
     0
  9
$CMLSCALE
 40
20.0
  9
$PROXYGRAPHICS
 70
     1
  9
$MEASUREMENT
 70
     1
  9
$CELWEIGHT
370
    -1
  9
$ENDCAPS
280
     0
  9
$JOINSTYLE
280
     0
  9
$LWDISPLAY
290
     1
  9
$INSUNITS
 70
     4
  9
$HYPERLINKBASE
  1

  9
$STYLESHEET
  1

  9
$XEDIT
290
     1
  9
$CEPSNTYPE
380
     0
  9
$PSTYLEMODE
290
     1
  9
$FINGERPRINTGUID
  2
{119851a6-caa4-42af-a1d7-c5a86a730827}
  9
$VERSIONGUID
  2
{FAEB1C32-E019-11D5-929B-00C0DF256EC4}
  9
$EXTNAMES
290
     1
  9
$PSVPSCALE
 40
0.0
  9
$OLESTARTUP
290
     0
  0
ENDSEC
  0
SECTION
  2
CLASSES
  0
CLASS
  1
ACDBDICTIONARYWDFLT
  2
AcDbDictionaryWithDefault
  3
ObjectDBX Classes
 90
        0
280
     0
281
     0
  0
CLASS
  1
VISUALSTYLE
  2
AcDbVisualStyle
  3
ObjectDBX Classes
 90
     4095
280
     0
281
     0
  0
CLASS
  1
MATERIAL
  2
AcDbMaterial
  3
ObjectDBX Classes
 90
     1153
280
     0
281
     0
  0
CLASS
  1
SCALE
  2
AcDbScale
  3
ObjectDBX Classes
 90
     1153
280
     0
281
     0
  0
CLASS
  1
TABLESTYLE
  2
AcDbTableStyle
  3
ObjectDBX Classes
 90
     4095
280
     0
281
     0
  0
CLASS
  1
MLEADERSTYLE
  2
AcDbMLeaderStyle
  3
ACDB_MLEADERSTYLE_CLASS
 90
     4095
280
     0
281
     0
  0
CLASS
  1
SUN
  2
AcDbSun
  3
SCENEOE
 90
     1153
280
     0
281
     0
  0
CLASS
  1
ACDBPLACEHOLDER
  2
AcDbPlaceHolder
  3
ObjectDBX Classes
 90
        0
280
     0
281
     0
  0
CLASS
  1
LAYOUT
  2
AcDbLayout
  3
ObjectDBX Classes
 90
        0
280
     0
281
     0
  0
ENDSEC
  0
SECTION
  2
TABLES
  0
TABLE
  2
VPORT
  5
8
330
0
100
AcDbSymbolTable
 70
     1
  0
VPORT
  5
29
330
8
100
AcDbSymbolTableRecord
100
AcDbViewportTableRecord
  2
*Active
 70
     0
 10
0.0
 20
0.0
 11
1.0
 21
1.0
 12
297.0
 22
420.5
 13
0.0
 23
0.0
 14
10.0
 24
10.0
 15
10.0
 25
10.0
 16
0.0
 26
0.0
 36
1.0
 17
0.0
 27
0.0
 37
0.0
 40
841.0
 41
0.7063020214
 42
50.0
 43
0.0
 44
0.0
 50
0.0
 51
0.0
 71
     0
 72
  2000
 73
     1
 74
     3
 75
     0
 76
     0
 77
     0
 78
     0
281
     0
 65
     1
110
0.0
120
0.0
130
0.0
111
1.0
121
0.0
131
0.0
112
0.0
122
1.0
132
0.0
 79
     0
146
0.0
  0
ENDTAB
  0
TABLE
  2
LTYPE
  5
5
330
0
100
AcDbSymbolTable
 70
     6
  0
LTYPE
  5
14
330
5
100
AcDbSymbolTableRecord
100
AcDbLinetypeTableRecord
  2
ByBlock
 70
     0
  3

 72
    65
 73
     0
 40
0.0
  0
LTYPE
  5
15
330
5
100
AcDbSymbolTableRecord
100
AcDbLinetypeTableRecord
  2
ByLayer
 70
     0
  3

 72
    65
 73
     0
 40
0.0
  0
LTYPE
  5
16
330
5
100
AcDbSymbolTableRecord
100
AcDbLinetypeTableRecord
  2
Continuous
 70
     0
  3
Solid line
 72
    65
 73
     0
 40
0.0
  0
LTYPE
  5
6E
330
5
100
AcDbSymbolTableRecord
100
AcDbLinetypeTableRecord
  2
HIDDEN
 70
     0
  3
Hidden __ __ __ __ __ __ __ __ __ __ __ __ __ __
 72
    65
 73
     2
 40
1.905
 49
1.27
 74
     0
 49
-0.635
 74
     0
  0
LTYPE
  5
6F
330
5
100
AcDbSymbolTableRecord
100
AcDbLinetypeTableRecord
  2
PHANTOM
 70
     0
  3
Phantom ______  __  __  ______  __  __  ______
 72
    65
 73
     6
 40
12.7
 49
6.35
 74
     0
 49
-1.27
 74
     0
 49
1.27
 74
     0
 49
-1.27
 74
     0
 49
1.27
 74
     0
 49
-1.27
 74
     0
  0
LTYPE
  5
70
330
5
100
AcDbSymbolTableRecord
100
AcDbLinetypeTableRecord
  2
CENTER
 70
     0
  3
Center ____ _ ____ _ ____ _ ____ _ ____ _ ____
 72
    65
 73
     4
 40
10.16
 49
6.35
 74
     0
 49
-1.27
 74
     0
 49
1.27
 74
     0
 49
-1.27
 74
     0
  0
LTYPE
  5
71
330
5
100
AcDbSymbolTableRecord
100
AcDbLinetypeTableRecord
  2
CENTERX2
 70
     0
  3
Center (2x) ________  __  ________  __  _____
 72
    65
 73
     4
 40
20.32
 49
12.7
 74
     0
 49
-2.54
 74
     0
 49
2.54
 74
     0
 49
-2.54
 74
     0
  0
LTYPE
  5
72
330
5
100
AcDbSymbolTableRecord
100
AcDbLinetypeTableRecord
  2
DOT2
 70
     0
  3
Dot (.5x) ........................................
 72
    65
 73
     2
 40
0.635
 49
0.0
 74
     0
 49
-0.635
 74
     0
  0
ENDTAB
  0
TABLE
  2
LAYER
  5
2
330
0
100
AcDbSymbolTable
 70
     1
  0
LAYER
  5
10
330
2
100
AcDbSymbolTableRecord
100
AcDbLayerTableRecord
  2
0
 70
     0
 62
     7
  6
Continuous
370
    -3
390
F
  0
ENDTAB
  0
TABLE
  2
STYLE
  5
3
330
0
100
AcDbSymbolTable
 70
     3
  0
STYLE
  5
11
330
3
100
AcDbSymbolTableRecord
100
AcDbTextStyleTableRecord
  2
Standard
 70
     0
 40
0.0
 41
1.0
 50
0.0
 71
     0
 42
10.0
  3
txt
  4

  0
STYLE
  5
76
330
3
100
AcDbSymbolTableRecord
100
AcDbTextStyleTableRecord
  2
SLDTEXTSTYLE0
 70
     0
 40
0.0
 41
0.96
 50
0.0
 71
     0
 42
10.0
  3
ISOCP3
  4

  0
STYLE
  5
8D
330
3
100
AcDbSymbolTableRecord
100
AcDbTextStyleTableRecord
  2
SLDTEXTSTYLE1
 70
     0
 40
0.0
 41
0.605
 50
0.0
 71
     0
 42
10.0
  3
TXT
  4

  0
ENDTAB
  0
TABLE
  2
VIEW
  5
6
330
0
100
AcDbSymbolTable
 70
     0
  0
ENDTAB
  0
TABLE
  2
UCS
  5
7
330
0
100
AcDbSymbolTable
 70
     0
  0
ENDTAB
  0
TABLE
  2
APPID
  5
9
330
0
100
AcDbSymbolTable
 70
     1
  0
APPID
  5
12
330
9
100
AcDbSymbolTableRecord
100
AcDbRegAppTableRecord
  2
ACAD
 70
     0
  0
ENDTAB
  0
TABLE
  2
DIMSTYLE
  5
A
330
0
100
AcDbSymbolTable
 70
     2
100
AcDbDimStyleTable
  0
DIMSTYLE
105
27
330
A
100
AcDbSymbolTableRecord
100
AcDbDimStyleTableRecord
  2
ISO-25
 70
     0
 41
2.5
 42
0.625
 43
3.75
 44
1.25
 73
     0
 74
     0
 77
     1
 78
     8
140
2.5
141
2.5
143
0.0393700787
147
0.625
171
     3
172
     1
178
     0
271
     2
272
     2
274
     3
278
    44
283
     0
284
     8
340
11
  0
DIMSTYLE
105
77
102
{ACAD_REACTORS
330
75
330
82
102
}
330
A
100
AcDbSymbolTableRecord
100
AcDbDimStyleTableRecord
  2
SLDDIMSTYLE0
 70
     0
 41
2.5
 44
0.0
 45
0.000000001
 73
     0
 74
     0
 77
     1
 78
    12
 79
     3
140
6.0
147
1.5
173
     1
178
     0
271
     2
272
     2
276
     2
284
    12
340
76
  0
ENDTAB
  0
TABLE
  2
BLOCK_RECORD
  5
1
330
0
100
AcDbSymbolTable
 70
     3
  0
BLOCK_RECORD
  5
1F
330
1
100
AcDbSymbolTableRecord
100
AcDbBlockTableRecord
  2
*Model_Space
340
22
  0
BLOCK_RECORD
  5
1B
330
1
100
AcDbSymbolTableRecord
100
AcDbBlockTableRecord
  2
*Paper_Space
340
1E
  0
BLOCK_RECORD
  5
23
330
1
100
AcDbSymbolTableRecord
100
AcDbBlockTableRecord
  2
*Paper_Space0
340
26
  0
BLOCK_RECORD
  5
78
330
1
100
AcDbSymbolTableRecord
100
AcDbBlockTableRecord
  2
_D
340
0
  0
BLOCK_RECORD
  5
83
330
1
100
AcDbSymbolTableRecord
100
AcDbBlockTableRecord
  2
_D_1
340
0
  0
ENDTAB
  0
ENDSEC
  0
SECTION
  2
BLOCKS
  0
BLOCK
  5
20
330
1F
100
AcDbEntity
  8
0
100
AcDbBlockBegin
  2
*Model_Space
 70
     0
 10
0.0
 20
0.0
 30
0.0
  3
*Model_Space
  1

  0
ENDBLK
  5
21
330
1F
100
AcDbEntity
  8
0
100
AcDbBlockEnd
  0
BLOCK
  5
1C
330
1B
100
AcDbEntity
 67
     1
  8
0
100
AcDbBlockBegin
  2
*Paper_Space
 70
     0
 10
0.0
 20
0.0
 30
0.0
  3
*Paper_Space
  1

  0
ENDBLK
  5
1D
330
1B
100
AcDbEntity
 67
     1
  8
0
100
AcDbBlockEnd
  0
BLOCK
  5
24
330
23
100
AcDbEntity
  8
0
100
AcDbBlockBegin
  2
*Paper_Space0
 70
     0
 10
0.0
 20
0.0
 30
0.0
  3
*Paper_Space0
  1

  0
ENDBLK
  5
25
330
23
100
AcDbEntity
  8
0
100
AcDbBlockEnd
  0
BLOCK
  5
79
330
78
100
AcDbEntity
  8
0
100
AcDbBlockBegin
  2
_D
 70
     0
 10
0.0
 20
0.0
 30
0.0
  3
_D
  1

  0
SOLID
  5
7B
330
78
100
AcDbEntity
  8
0
  6
Continuous
 62
     7
370
    18
100
AcDbTrace
 10
42.7614395004
 20
152.0299240879
 30
0.0
 11
42.4614395004
 21
149.5299240879
 31
0.0
 12
43.0614395004
 22
149.5299240879
 32
0.0
 13
43.0614395004
 23
149.5299240879
 33
0.0
  0
SOLID
  5
7C
330
78
100
AcDbEntity
  8
0
  6
Continuous
 62
     7
370
    18
100
AcDbTrace
 10
42.7614395004
 20
52.0299240879
 30
0.0
 11
43.0614395004
 21
54.5299240879
 31
0.0
 12
42.4614395004
 22
54.5299240879
 32
0.0
 13
42.4614395004
 23
54.5299240879
 33
0.0
  0
LINE
  5
7D
330
78
100
AcDbEntity
  8
0
  6
Continuous
 62
     7
370
     0
100
AcDbLine
 10
56.6850079902
 20
152.0299240879
 30
0.0
 11
41.7614395004
 21
152.0299240879
 31
0.0
  0
LINE
  5
7E
330
78
100
AcDbEntity
  8
0
  6
Continuous
 62
     7
370
     0
100
AcDbLine
 10
56.6850079902
 20
52.0299240879
 30
0.0
 11
41.7614395004
 21
52.0299240879
 31
0.0
  0
LINE
  5
7F
330
78
100
AcDbEntity
  8
0
  6
Continuous
 62
     7
370
     0
100
AcDbLine
 10
42.7614395004
 20
152.0299240879
 30
0.0
 11
42.7614395004
 21
52.0299240879
 31
0.0
  0
MTEXT
  5
80
330
78
100
AcDbEntity
  8
0
  6
Continuous
 62
     7
370
    18
100
AcDbMText
 10
35.0270332946
 20
94.3680541463
 30
0.0
 40
6.0
 41
0.0
 71
     1
 72
     1
  1
100
  7
SLDTEXTSTYLE0
 11
-7.044195017643634E-15
 21
1.0
 31
0.0
 73
     1
 44
1.0
  0
MTEXT
  5
81
330
78
100
AcDbEntity
  8
0
  6
Continuous
 62
     7
370
    18
100
AcDbMText
 10
35.0270332946
 20
105.7430548466
 30
0.0
 40
6.0
 41
0.0
 71
     1
 72
     1
  1
mm
  7
SLDTEXTSTYLE0
 11
-7.044195017643634E-15
 21
1.0
 31
0.0
 73
     1
 44
1.0
  0
ENDBLK
  5
7A
330
78
100
AcDbEntity
  8
0
100
AcDbBlockEnd
  0
BLOCK
  5
84
330
83
100
AcDbEntity
  8
0
100
AcDbBlockBegin
  2
_D_1
 70
     0
 10
0.0
 20
0.0
 30
0.0
  3
_D_1
  1

  0
SOLID
  5
86
330
83
100
AcDbEntity
  8
0
  6
Continuous
 62
     7
370
    18
100
AcDbTrace
 10
56.6850079902
 20
38.4602342313
 30
0.0
 11
59.1850079902
 21
38.1602342313
 31
0.0
 12
59.1850079902
 22
38.7602342313
 32
0.0
 13
59.1850079902
 23
38.7602342313
 33
0.0
  0
SOLID
  5
87
330
83
100
AcDbEntity
  8
0
  6
Continuous
 62
     7
370
    18
100
AcDbTrace
 10
156.6850079902
 20
38.4602342313
 30
0.0
 11
154.1850079902
 21
38.7602342313
 31
0.0
 12
154.1850079902
 22
38.1602342313
 32
0.0
 13
154.1850079902
 23
38.1602342313
 33
0.0
  0
LINE
  5
88
330
83
100
AcDbEntity
  8
0
  6
Continuous
 62
     7
370
     0
100
AcDbLine
 10
56.6850079902
 20
52.0299240879
 30
0.0
 11
56.6850079902
 21
37.4602342313
 31
0.0
  0
LINE
  5
89
330
83
100
AcDbEntity
  8
0
  6
Continuous
 62
     7
370
     0
100
AcDbLine
 10
156.6850079902
 20
52.0299240879
 30
0.0
 11
156.6850079902
 21
37.4602342313
 31
0.0
  0
LINE
  5
8A
330
83
100
AcDbEntity
  8
0
  6
Continuous
 62
     7
370
     0
100
AcDbLine
 10
56.6850079902
 20
38.4602342313
 30
0.0
 11
156.6850079902
 21
38.4602342313
 31
0.0
  0
MTEXT
  5
8B
330
83
100
AcDbEntity
  8
0
  6
Continuous
 62
     7
370
    18
100
AcDbMText
 10
93.9626484861
 20
46.1946404371
 30
0.0
 40
6.0
 41
0.0
 71
     1
 72
     1
  1
100
  7
SLDTEXTSTYLE0
 73
     1
 44
1.0
  0
MTEXT
  5
8C
330
83
100
AcDbEntity
  8
0
  6
Continuous
 62
     7
370
    18
100
AcDbMText
 10
105.3376491864
 20
46.1946404371
 30
0.0
 40
6.0
 41
0.0
 71
     1
 72
     1
  1
mm
  7
SLDTEXTSTYLE0
 73
     1
 44
1.0
  0
ENDBLK
  5
85
330
83
100
AcDbEntity
  8
0
100
AcDbBlockEnd
  0
ENDSEC
  0
SECTION
  2
ENTITIES
  0
LINE
  5
73
330
1F
100
AcDbEntity
  8
0
  6
Continuous
 62
     7
370
    18
100
AcDbLine
 10
56.6850079902
 20
152.0299240879
 30
0.0
 11
56.6850079902
 21
52.0299240879
 31
0.0
  0
LINE
  5
74
330
1F
100
AcDbEntity
  8
0
  6
Continuous
 62
     7
370
    18
100
AcDbLine
 10
56.6850079902
 20
52.0299240879
 30
0.0
 11
156.6850079902
 21
52.0299240879
 31
0.0
  0
DIMENSION
  5
75
330
1F
100
AcDbEntity
  8
0
  6
Continuous
 62
     7
370
    18
100
AcDbDimension
  2
_D
 10
42.7614395004
 20
52.0299240879
 30
0.0
 11
42.7614395004
 21
105.4472211621
 31
0.0
 70
   160
  1
<>mm
 71
     2
 42
-1.0
  3
SLDDIMSTYLE0
100
AcDbAlignedDimension
 13
56.6850079902
 23
152.0299240879
 33
0.0
 14
56.6850079902
 24
52.0299240879
 34
0.0
 50
90.0
100
AcDbRotatedDimension
  0
DIMENSION
  5
82
330
1F
100
AcDbEntity
  8
0
  6
Continuous
 62
     7
370
    18
100
AcDbDimension
  2
_D_1
 10
156.6850079902
 20
38.4602342313
 30
0.0
 11
105.0418155019
 21
38.4602342313
 31
0.0
 70
   160
  1
<>mm
 71
     2
 42
-1.0
  3
SLDDIMSTYLE0
100
AcDbAlignedDimension
 13
56.6850079902
 23
52.0299240879
 33
0.0
 14
156.6850079902
 24
52.0299240879
 34
0.0
100
AcDbRotatedDimension
  0
MTEXT
  5
8E
330
1F
100
AcDbEntity
  8
0
  6
Continuous
 62
     7
370
     0
100
AcDbMText
 10
412.8252631579
 20
48.4342449499
 30
0.0
 40
10.0
 41
0.0
 71
     1
 72
     1
  1
KLUDI GmbH & Co KG
  7
SLDTEXTSTYLE1
 73
     1
 44
1.0
  0
MTEXT
  5
8F
330
1F
100
AcDbEntity
  8
0
  6
Continuous
 62
     7
370
     0
100
AcDbMText
 10
210.0873490389
 20
48.4342449499
 30
0.0
 40
10.0
 41
0.0
 71
     1
 72
     1
  1
40 755 .. 75
  7
SLDTEXTSTYLE1
 73
     1
 44
1.0
  0
SPLINE
  5
90
330
1F
100
AcDbEntity
  8
0
  6
Continuous
 62
     7
370
    25
100
AcDbSpline
210
0.0
220
0.0
230
1.0
 70
     8
 71
     3
 72
    19
 73
    15
 74
     0
 42
0.00000001
 43
0.00000001
 40
0.0
 40
0.0
 40
0.0
 40
0.0
 40
0.1480189123268092
 40
0.2741212699893515
 40
0.3441532625289887
 40
0.400945846487183
 40
0.4492050845336108
 40
0.4935739342677625
 40
0.5463685904534372
 40
0.6070278640758314
 40
0.6745320489252533
 40
0.7743370374835281
 40
0.8828233227459638
 40
1.0
 40
1.0
 40
1.0
 40
1.0
 10
157.8165015801894
 20
283.7416489392086
 30
0.0
 10
157.8349473662543
 20
282.5982443689722
 30
0.0
 10
157.8691077463205
 20
280.4807344644757
 30
0.0
 10
158.2851789346236
 20
277.8390956109312
 30
0.0
 10
158.9234311401097
 20
275.9863643789723
 30
0.0
 10
159.5335058008795
 20
274.7755253012052
 30
0.0
 10
160.1779429596738
 20
273.8151625595294
 30
0.0
 10
160.9093262200235
 20
272.9594686760348
 30
0.0
 10
161.8233172646302
 20
272.1466510918121
 30
0.0
 10
162.9956118941504
 20
271.3764188271427
 30
0.0
 10
164.6018050521286
 20
270.6390829757834
 30
0.0
 10
166.6758315637834
 20
270.1007766882488
 30
0.0
 10
169.1841685271203
 20
269.8567391956355
 30
0.0
 10
170.9274427964212
 20
269.8548898714211
 30
0.0
 10
171.8326471070499
 20
269.85392960012
 30
0.0
  0
SPLINE
  5
91
330
1F
100
AcDbEntity
  8
0
  6
Continuous
 62
     7
370
    25
100
AcDbSpline
210
0.0
220
0.0
230
1.0
 70
     8
 71
     3
 72
    19
 73
    15
 74
     0
 42
0.00000001
 43
0.00000001
 40
0.0
 40
0.0
 40
0.0
 40
0.0
 40
0.1481948662424593
 40
0.2737343860778056
 40
0.34357053285129
 40
0.4002290946858398
 40
0.4485856620723846
 40
0.4930779820800044
 40
0.5458528438298893
 40
0.6064294373909016
 40
0.6740145478307034
 40
0.7742782256473801
 40
0.8829215268401748
 40
1.0
 40
1.0
 40
1.0
 40
1.0
 10
190.4768390589513
 20
269.85392960012
 30
0.0
 10
191.6218613354332
 20
269.856177664404
 30
0.0
 10
193.7368601734186
 20
269.8603301192916
 30
0.0
 10
196.3795436432132
 20
270.2440915377327
 30
0.0
 10
198.2316692055879
 20
270.8636728363306
 30
0.0
 10
199.4454470849665
 20
271.4641444870645
 30
0.0
 10
200.410338650265
 20
272.1031531531776
 30
0.0
 10
201.2711992626641
 20
272.8309331110329
 30
0.0
 10
202.0886456834639
 20
273.7409850352756
 30
0.0
 10
202.8655567941775
 20
274.908462328991
 30
0.0
 10
203.6166451258437
 20
276.5119451613113
 30
0.0
 10
204.1754424651333
 20
278.5855982866294
 30
0.0
 10
204.4530730362764
 20
281.0939541496309
 30
0.0
 10
204.479353372547
 20
282.83736702691
 30
0.0
 10
204.4929845858118
 20
283.7416489392086
 30
0.0
  0
LINE
  5
92
330
1F
100
AcDbEntity
  8
0
  6
Continuous
 62
     7
370
    25
100
AcDbLine
 10
204.5082104589
 20
283.706049577
 30
0.0
 11
204.5086980835
 21
283.7391700486
 31
0.0
  0
LINE
  5
93
330
1F
100
AcDbEntity
  8
0
  6
Continuous
 62
     7
370
    25
100
AcDbLine
 10
157.8007880825
 20
283.7391700486
 30
0.0
 11
157.8012757071
 21
283.706049577
 31
0.0
  0
SPLINE
  5
94
330
1F
100
AcDbEntity
  8
0
  6
Continuous
 62
     7
370
    25
100
AcDbSpline
210
0.0
220
0.0
230
1.0
 70
     8
 71
     3
 72
    21
 73
    17
 74
     0
 42
0.00000001
 43
0.00000001
 40
0.0
 40
0.0
 40
0.0
 40
0.0
 40
0.0829420036379444
 40
0.1581661164605893
 40
0.2256724928307136
 40
0.285461151973531
 40
0.3375320559439557
 40
0.3818851557851776
 40
0.4185204145955993
 40
0.4524015028678122
 40
0.5092143535280028
 40
0.5797888386016006
 40
0.6641286868480613
 40
0.7622515129444417
 40
0.874190533296765
 40
1.0
 40
1.0
 40
1.0
 40
1.0
 10
204.4927367886494
 20
283.7415058546912
 30
0.0
 10
204.5172500191914
 20
285.4034115323405
 30
0.0
 10
204.5639954835723
 20
288.5725798117205
 30
0.0
 10
204.6307011094353
 20
293.0943699230189
 30
0.0
 10
204.6905668948203
 20
297.1522370813453
 30
0.0
 10
204.7435924992884
 20
300.7461841264268
 30
0.0
 10
204.7897723414066
 20
303.8762099314013
 30
0.0
 10
204.8291157371197
 20
306.5423119825692
 30
0.0
 10
204.8630572536944
 20
308.8439459717546
 30
0.0
 10
204.9007685102153
 20
311.3952343035007
 30
0.0
 10
204.9479541678917
 20
314.6265698368088
 30
0.0
 10
205.0135286524584
 20
318.8688928937905
 30
0.0
 10
205.0947084012045
 20
323.9388895431198
 30
0.0
 10
205.1845122972751
 20
329.8377564056985
 30
0.0
 10
205.2746730558913
 20
336.5677546886477
 30
0.0
 10
205.3068169719277
 20
341.3319345498392
 30
0.0
 10
205.3238265814709
 20
343.8529976070133
 30
0.0
  0
SPLINE
  5
95
330
1F
100
AcDbEntity
  8
0
  6
Continuous
 62
     7
370
    25
100
AcDbSpline
210
0.0
220
0.0
230
1.0
 70
     8
 71
     3
 72
     9
 73
     5
 74
     0
 42
0.00000001
 43
0.00000001
 40
0.0
 40
0.0
 40
0.0
 40
0.0
 40
0.4525738345018781
 40
0.9999999999999999
 40
0.9999999999999999
 40
0.9999999999999999
 40
0.9999999999999999
 10
156.9854095361144
 20
343.8529778555058
 30
0.0
 10
157.0959085051655
 20
334.7844776323274
 30
0.0
 10
157.3400652827501
 20
314.7468627022474
 30
0.0
 10
157.6479616126607
 20
294.7101205835518
 30
0.0
 10
157.8165121199146
 20
283.7414836764397
 30
0.0
  0
SPLINE
  5
96
330
1F
100
AcDbEntity
  8
0
  6
Continuous
 62
     7
370
    25
100
AcDbSpline
210
0.0
220
0.0
230
1.0
 70
     8
 71
     3
 72
    16
 73
    12
 74
     0
 42
0.00000001
 43
0.00000001
 40
0.0
 40
0.0
 40
0.0
 40
0.0
 40
0.0508954872030329
 40
0.1122047809482383
 40
0.1695896947040124
 40
0.226067758073166
 40
0.2849759515575457
 40
0.4210317452033446
 40
0.6388074574114325
 40
0.8470566884920429
 40
1.0
 40
1.0
 40
1.0
 40
1.0
 10
157.0774666030752
 20
359.0137356479708
 30
0.0
 10
157.0696053103864
 20
359.0331484130313
 30
0.0
 10
157.0522742134151
 20
359.0759460198706
 30
0.0
 10
157.0490021750664
 20
358.8612874938983
 30
0.0
 10
157.0477006781482
 20
358.4980336421422
 30
0.0
 10
157.049949065843
 20
357.9469223267474
 30
0.0
 10
157.0533080001053
 20
356.9411433650143
 30
0.0
 10
157.0617506882647
 20
354.9588713323993
 30
0.0
 10
157.1153168445
 20
352.2150773288806
 30
0.0
 10
157.0246027614712
 20
349.4300621195515
 30
0.0
 10
156.9865491649779
 20
347.8390520720241
 30
0.0
 10
156.9704357562658
 20
347.165355036179
 30
0.0
  0
SPLINE
  5
97
330
1F
100
AcDbEntity
  8
0
  6
Continuous
 62
     7
370
    25
100
AcDbSpline
210
0.0
220
0.0
230
1.0
 70
     8
 71
     3
 72
    20
 73
    16
 74
     0
 42
0.00000001
 43
0.00000001
 40
0.0
 40
0.0
 40
0.0
 40
0.0
 40
0.073234676618697
 40
0.1620612338949565
 40
0.2399856430276539
 40
0.3089592688928933
 40
0.3914417555422994
 40
0.4694991223360404
 40
0.5451261354161171
 40
0.6587620577008241
 40
0.7794901091990842
 40
0.8881124801440092
 40
0.937548586585018
 40
0.9860474723217217
 40
1.0
 40
1.0
 40
1.0
 40
1.0
 10
205.3406142132922
 20
346.8895333356782
 30
0.0
 10
205.3320555798257
 20
347.1771795414077
 30
0.0
 10
205.3131161543503
 20
347.8137126863335
 30
0.0
 10
205.2112312535665
 20
348.8918799835487
 30
0.0
 10
205.1363385344634
 20
350.01443417459
 30
0.0
 10
205.1089555389856
 20
351.1753585229701
 30
0.0
 10
205.1730518911962
 20
352.365920948967
 30
0.0
 10
205.2238704515797
 20
353.5766574175042
 30
0.0
 10
205.2406484779925
 20
354.9588897522463
 30
0.0
 10
205.2377008285962
 20
356.4903189314969
 30
0.0
 10
205.2365702391453
 20
357.9591065101832
 30
0.0
 10
205.2625704562587
 20
358.9179641863676
 30
0.0
 10
205.2724577321414
 20
359.2896597175924
 30
0.0
 10
205.2797565508006
 20
359.4410084632343
 30
0.0
 10
205.2680894674073
 20
359.3854160530949
 30
0.0
 10
205.265482876218
 20
359.3729959236093
 30
0.0
  0
SPLINE
  5
98
330
1F
100
AcDbEntity
  8
0
  6
Continuous
 62
     7
370
    25
100
AcDbSpline
210
0.0
220
0.0
230
1.0
 70
     8
 71
     3
 72
    11
 73
     7
 74
     0
 42
0.00000001
 43
0.00000001
 40
0.0
 40
0.0
 40
0.0
 40
0.0
 40
0.2960530006022245
 40
0.5801874129520006
 40
0.849055785292961
 40
1.0
 40
1.0
 40
1.0
 40
1.0
 10
157.2853761274279
 20
373.8670321019896
 30
0.0
 10
157.2700297318953
 20
373.7212717726064
 30
0.0
 10
157.239954760508
 20
373.4356191757951
 30
0.0
 10
157.1809372870463
 20
373.1167333897347
 30
0.0
 10
157.136149782545
 20
372.9186793869441
 30
0.0
 10
157.1212904844873
 20
372.861475665951
 30
0.0
 10
157.1159478026678
 20
372.8409079864435
 30
0.0
  0
SPLINE
  5
99
330
1F
100
AcDbEntity
  8
0
  6
Continuous
 62
     7
370
    25
100
AcDbSpline
210
0.0
220
0.0
230
1.0
 70
     8
 71
     3
 72
    11
 73
     7
 74
     0
 42
0.00000001
 43
0.00000001
 40
0.0
 40
0.0
 40
0.0
 40
0.0
 40
0.1509442147070377
 40
0.4198125870479973
 40
0.7039469993977744
 40
1.0
 40
1.0
 40
1.0
 40
1.0
 10
205.1935383633334
 20
372.8409079864437
 30
0.0
 10
205.1881956815139
 20
372.8614756659511
 30
0.0
 10
205.1733363834562
 20
372.9186793869441
 30
0.0
 10
205.1285488789549
 20
373.1167333897347
 30
0.0
 10
205.0695314054932
 20
373.4356191757951
 30
0.0
 10
205.0394564341059
 20
373.7212717726064
 30
0.0
 10
205.0241100385733
 20
373.8670321019896
 30
0.0
  0
LINE
  5
9A
330
1F
100
AcDbEntity
  8
0
  6
Continuous
 62
     7
370
    25
100
AcDbLine
 10
171.8332248404
 20
269.8373577431
 30
0.0
 11
171.8326533068
 21
269.877467948
 31
0.0
  0
LINE
  5
9B
330
1F
100
AcDbEntity
  8
0
  6
Continuous
 62
     7
370
    25
100
AcDbLine
 10
157.8030233934
 20
283.7049369735
 30
0.0
 11
157.8409715141
 21
283.7088610171
 31
0.0
  0
LINE
  5
9C
330
1F
100
AcDbEntity
  8
0
  6
Continuous
 62
     7
370
    25
100
AcDbLine
 10
190.4704374255
 20
269.8373575921
 30
0.0
 11
190.4709849722
 21
269.8775580613
 31
0.0
  0
LINE
  5
9D
330
1F
100
AcDbEntity
  8
0
  6
Continuous
 62
     7
370
    25
100
AcDbLine
 10
204.5064628789
 20
283.7049449168
 30
0.0
 11
204.4685211632
 21
283.70886658
 31
0.0
  0
LINE
  5
9E
330
1F
100
AcDbEntity
  8
0
  6
Continuous
 62
     7
370
    25
100
AcDbLine
 10
181.1547360004
 20
269.8371770416
 30
0.0
 11
171.8390487405
 21
269.8373575921
 31
0.0
  0
SPLINE
  5
9F
330
1F
100
AcDbEntity
  8
0
  6
Continuous
 62
     7
370
    25
100
AcDbSpline
210
0.0
220
0.0
230
1.0
 70
     8
 71
     3
 72
     8
 73
     4
 74
     0
 42
0.00000001
 43
0.00000001
 40
0.0
 40
0.0
 40
0.0
 40
0.0
 40
1.0
 40
1.0
 40
1.0
 40
1.0
 10
190.470437425489
 20
269.8373575921136
 30
0.0
 10
187.3652045701911
 20
269.8372345741279
 30
0.0
 10
184.2599774952841
 20
269.8371767282936
 30
0.0
 10
181.1547501655666
 20
269.8371770415984
 30
0.0
  0
LINE
  5
A0
330
1F
100
AcDbEntity
  8
0
  6
Continuous
 62
     7
370
    25
100
AcDbLine
 10
204.5069479139
 20
283.7380580859
 30
0.0
 11
204.4688104945
 21
283.7419914433
 31
0.0
  0
LINE
  5
A1
330
1F
100
AcDbEntity
  8
0
  6
Continuous
 62
     7
370
    25
100
AcDbLine
 10
157.8025409092
 20
283.7378775555
 30
0.0
 11
157.8404673041
 21
283.7418028729
 31
0.0
  0
LINE
  5
A2
330
1F
100
AcDbEntity
  8
0
  6
Continuous
 62
     7
370
    25
100
AcDbLine
 10
205.3412390672
 20
343.8496402744
 30
0.0
 11
205.3002454852
 21
343.8530657803
 31
0.0
  0
LINE
  5
A3
330
1F
100
AcDbEntity
  8
0
  6
Continuous
 62
     7
370
    25
100
AcDbLine
 10
156.9684338551
 20
343.8497096775
 30
0.0
 11
157.0090854185
 21
343.853029517
 31
0.0
  0
LINE
  5
A4
330
1F
100
AcDbEntity
  8
0
  6
Continuous
 62
     7
370
    25
100
AcDbLine
 10
156.9684580691
 20
343.8496582367
 30
0.0
 11
157.0123260027
 21
354.7745763151
 31
0.0
  0
LINE
  5
A5
330
1F
100
AcDbEntity
  8
0
  6
Continuous
 62
     7
370
    25
100
AcDbLine
 10
205.3410280969
 20
343.8496582367
 30
0.0
 11
205.2971601633
 21
354.7745763151
 31
0.0
  0
SPLINE
  5
A6
330
1F
100
AcDbEntity
  8
0
  6
Continuous
 62
     7
370
    25
100
AcDbSpline
210
0.0
220
0.0
230
1.0
 70
     8
 71
     3
 72
    14
 73
    10
 74
     0
 42
0.00000001
 43
0.00000001
 40
0.0
 40
0.0
 40
0.0
 40
0.0
 40
0.1542782276229592
 40
0.3140502126956324
 40
0.4756985493211379
 40
0.6363818076274802
 40
0.7970416564506987
 40
0.9545054237395986
 40
1.0
 40
1.0
 40
1.0
 40
1.0
 10
205.0208293064774
 20
373.9036110488455
 30
0.0
 10
204.9232913768429
 20
374.7635355035458
 30
0.0
 10
204.7247422489489
 20
376.5140058198164
 30
0.0
 10
203.8528609278532
 20
379.0574882107699
 30
0.0
 10
202.4271073900078
 20
381.3752555243052
 30
0.0
 10
200.4850891125216
 20
383.3005934767387
 30
0.0
 10
198.1644525031806
 20
384.6739639077023
 30
0.0
 10
196.2317133969035
 20
385.3890819111406
 30
0.0
 10
195.1060308864181
 20
385.5503312112506
 30
0.0
 10
194.8537010342786
 20
385.5864764046558
 30
0.0
  0
SPLINE
  5
A7
330
1F
100
AcDbEntity
  8
0
  6
Continuous
 62
     7
370
    25
100
AcDbSpline
210
0.0
220
0.0
230
1.0
 70
     8
 71
     3
 72
    14
 73
    10
 74
     0
 42
0.00000001
 43
0.00000001
 40
0.0
 40
0.0
 40
0.0
 40
0.0
 40
0.1542782276229591
 40
0.3140502126956323
 40
0.4756985493211378
 40
0.6363818076274801
 40
0.7970416564506985
 40
0.9545054237395986
 40
1.0
 40
1.0
 40
1.0
 40
1.0
 10
157.2886568595238
 20
373.9036110488455
 30
0.0
 10
157.3861947891583
 20
374.7635355035458
 30
0.0
 10
157.5847439170523
 20
376.5140058198164
 30
0.0
 10
158.456625238148
 20
379.0574882107699
 30
0.0
 10
159.8823787759934
 20
381.3752555243052
 30
0.0
 10
161.8243970534796
 20
383.3005934767387
 30
0.0
 10
164.1450336628206
 20
384.6739639077023
 30
0.0
 10
166.0777727690977
 20
385.3890819111406
 30
0.0
 10
167.2034552795831
 20
385.5503312112506
 30
0.0
 10
167.4557851317226
 20
385.5864764046558
 30
0.0
  0
SPLINE
  5
A8
330
1F
100
AcDbEntity
  8
0
  6
Continuous
 62
     7
370
    25
100
AcDbSpline
210
0.0
220
0.0
230
1.0
 70
     8
 71
     3
 72
     8
 73
     4
 74
     0
 42
0.00000001
 43
0.00000001
 40
0.0
 40
0.0
 40
0.0
 40
0.0
 40
1.0
 40
1.0
 40
1.0
 40
1.0
 10
156.0849140143176
 20
364.2902327075586
 30
0.0
 10
156.070772401458
 20
365.4296925315234
 30
0.0
 10
156.1190934494171
 20
366.5407884077363
 30
0.0
 10
156.2182203386387
 20
367.6242501297369
 30
0.0
  0
SPLINE
  5
A9
330
1F
100
AcDbEntity
  8
0
  6
Continuous
 62
     7
370
    25
100
AcDbSpline
210
0.0
220
0.0
230
1.0
 70
     8
 71
     3
 72
     9
 73
     5
 74
     0
 42
0.00000001
 43
0.00000001
 40
0.0
 40
0.0
 40
0.0
 40
0.0
 40
0.7168137819047434
 40
0.9999999999999999
 40
0.9999999999999999
 40
0.9999999999999999
 40
0.9999999999999999
 10
156.2182203386387
 20
367.6242501297368
 30
0.0
 10
156.3507203999539
 20
368.8847515547133
 30
0.0
 10
156.5355662618222
 20
370.6432297770866
 30
0.0
 10
157.0331696252335
 20
372.3434642438381
 30
0.0
 10
157.1740840398295
 20
372.8249472123526
 30
0.0
  0
SPLINE
  5
AA
330
1F
100
AcDbEntity
  8
0
  6
Continuous
 62
     7
370
    25
100
AcDbSpline
210
0.0
220
0.0
230
1.0
 70
     8
 71
     3
 72
    12
 73
     8
 74
     0
 42
0.00000001
 43
0.00000001
 40
0.0
 40
0.0
 40
0.0
 40
0.0
 40
0.0447507520811178
 40
0.2680941785625218
 40
0.4978489394653706
 40
0.7470013427684884
 40
1.0
 40
1.0
 40
1.0
 40
1.0
 10
165.325152881616
 20
384.9953740017875
 30
0.0
 10
165.5186755578519
 20
385.1417920970687
 30
0.0
 10
166.6780371441027
 20
386.0189581145238
 30
0.0
 10
169.2468197527119
 20
387.0770632895434
 30
0.0
 10
172.942695268902
 20
388.2134432077061
 30
0.0
 10
176.965906514079
 20
388.8614277031089
 30
0.0
 10
179.7513524673828
 20
388.935999301916
 30
0.0
 10
181.1547430830006
 20
388.9735706939702
 30
0.0
  0
SPLINE
  5
AB
330
1F
100
AcDbEntity
  8
0
  6
Continuous
 62
     7
370
    25
100
AcDbSpline
210
0.0
220
0.0
230
1.0
 70
     8
 71
     3
 72
     9
 73
     5
 74
     0
 42
0.00000001
 43
0.00000001
 40
0.0
 40
0.0
 40
0.0
 40
0.0
 40
0.7168137819047363
 40
1.0
 40
1.0
 40
1.0
 40
1.0
 10
206.0912658273625
 20
367.6242501297368
 30
0.0
 10
205.9587657660473
 20
368.8847515547133
 30
0.0
 10
205.773919904179
 20
370.6432297770866
 30
0.0
 10
205.2763165407677
 20
372.3434642438381
 30
0.0
 10
205.1354021261717
 20
372.8249472123527
 30
0.0
  0
SPLINE
  5
AC
330
1F
100
AcDbEntity
  8
0
  6
Continuous
 62
     7
370
    25
100
AcDbSpline
210
0.0
220
0.0
230
1.0
 70
     8
 71
     3
 72
    12
 73
     8
 74
     0
 42
0.00000001
 43
0.00000001
 40
0.0
 40
0.0
 40
0.0
 40
0.0
 40
0.0447507520811177
 40
0.2680941785625216
 40
0.4978489394653705
 40
0.7470013427684881
 40
1.0
 40
1.0
 40
1.0
 40
1.0
 10
196.9843332843852
 20
384.9953740017875
 30
0.0
 10
196.7908106081493
 20
385.1417920970688
 30
0.0
 10
195.6314490218985
 20
386.0189581145238
 30
0.0
 10
193.0626664132893
 20
387.0770632895434
 30
0.0
 10
189.3667908970992
 20
388.2134432077061
 30
0.0
 10
185.3435796519222
 20
388.8614277031089
 30
0.0
 10
182.5581336986184
 20
388.935999301916
 30
0.0
 10
181.1547430830006
 20
388.9735706939702
 30
0.0
  0
SPLINE
  5
AD
330
1F
100
AcDbEntity
  8
0
  6
Continuous
 62
     7
370
    25
100
AcDbSpline
210
0.0
220
0.0
230
1.0
 70
     8
 71
     3
 72
     8
 73
     4
 74
     0
 42
0.00000001
 43
0.00000001
 40
0.0
 40
0.0
 40
0.0
 40
0.0
 40
1.0
 40
1.0
 40
1.0
 40
1.0
 10
206.2245721516836
 20
364.2902327075586
 30
0.0
 10
206.2387137645432
 20
365.4296925315234
 30
0.0
 10
206.1903927165841
 20
366.5407884077363
 30
0.0
 10
206.0912658273625
 20
367.6242501297369
 30
0.0
  0
SPLINE
  5
AE
330
1F
100
AcDbEntity
  8
0
  6
Continuous
 62
     7
370
    25
100
AcDbSpline
210
0.0
220
0.0
230
1.0
 70
     8
 71
     3
 72
     9
 73
     5
 74
     0
 42
0.00000001
 43
0.00000001
 40
0.0
 40
0.0
 40
0.0
 40
0.0
 40
0.4826697420373676
 40
1.0
 40
1.0
 40
1.0
 40
1.0
 10
156.3667838254381
 20
360.7838472632117
 30
0.0
 10
156.4377419445138
 20
360.3102479901175
 30
0.0
 10
156.5847536854533
 20
359.3290402784115
 30
0.0
 10
156.8914096899809
 20
358.3852957199774
 30
0.0
 10
157.050052119909
 20
357.8970681041118
 30
0.0
  0
SPLINE
  5
AF
330
1F
100
AcDbEntity
  8
0
  6
Continuous
 62
     7
370
    25
100
AcDbSpline
210
0.0
220
0.0
230
1.0
 70
     8
 71
     3
 72
     8
 73
     4
 74
     0
 42
0.00000001
 43
0.00000001
 40
0.0
 40
0.0
 40
0.0
 40
0.0
 40
1.0
 40
1.0
 40
1.0
 40
1.0
 10
156.3667838254328
 20
360.7838472632234
 30
0.0
 10
156.1920777307116
 20
361.9552731632515
 30
0.0
 10
156.0994003000114
 20
363.1242700872763
 30
0.0
 10
156.0849140143176
 20
364.2902327075586
 30
0.0
  0
SPLINE
  5
B0
330
1F
100
AcDbEntity
  8
0
  6
Continuous
 62
     7
370
    25
100
AcDbSpline
210
0.0
220
0.0
230
1.0
 70
     8
 71
     3
 72
     8
 73
     4
 74
     0
 42
0.00000001
 43
0.00000001
 40
0.0
 40
0.0
 40
0.0
 40
0.0
 40
1.0
 40
1.0
 40
1.0
 40
1.0
 10
205.9427023405684
 20
360.7838472632234
 30
0.0
 10
206.1174084352895
 20
361.9552731632515
 30
0.0
 10
206.2100858659898
 20
363.1242700872763
 30
0.0
 10
206.2245721516836
 20
364.2902327075586
 30
0.0
  0
SPLINE
  5
B1
330
1F
100
AcDbEntity
  8
0
  6
Continuous
 62
     7
370
    25
100
AcDbSpline
210
0.0
220
0.0
230
1.0
 70
     8
 71
     3
 72
     9
 73
     5
 74
     0
 42
0.00000001
 43
0.00000001
 40
0.0
 40
0.0
 40
0.0
 40
0.0
 40
0.4730001590565133
 40
1.0
 40
1.0
 40
1.0
 40
1.0
 10
205.9427023405631
 20
360.7838472632117
 30
0.0
 10
205.8714958567803
 20
360.3103062729826
 30
0.0
 10
205.720953658391
 20
359.3091628670828
 30
0.0
 10
205.4075035749864
 20
358.3462484769229
 30
0.0
 10
205.2423154308884
 20
357.8387927464665
 30
0.0
  0
ARC
  5
B2
330
1F
100
AcDbEntity
  8
0
  6
Continuous
 62
     7
370
    25
100
AcDbCircle
 10
10106.654743083
 20
349.2908285958
 30
0.0
 40
10000.0
100
AcDbArc
 50
179.5831904602
 51
180.4168095398
  0
ARC
  5
B3
330
1F
100
AcDbEntity
  8
0
  6
Continuous
 62
     7
370
    25
100
AcDbCircle
 10
181.154743083
 20
-9576.2091714042
 30
0.0
 40
10000.0
100
AcDbArc
 50
89.5831904602
 51
90.4168095398
  0
ARC
  5
B4
330
1F
100
AcDbEntity
  8
0
  6
Continuous
 62
     7
370
    25
100
AcDbCircle
 10
-9744.345256917
 20
349.2908285958
 30
0.0
 40
9999.999999999995
100
AcDbArc
 50
359.5831904602
 51
0.4168095398
  0
ARC
  5
B5
330
1F
100
AcDbEntity
  8
0
  6
Continuous
 62
     7
370
    25
100
AcDbCircle
 10
181.154743083
 20
10274.7908285958
 30
0.0
 40
10000.0
100
AcDbArc
 50
270.1241943358
 51
270.4168095398
  0
ARC
  5
B6
330
1F
100
AcDbEntity
  8
0
  6
Continuous
 62
     7
370
    25
100
AcDbCircle
 10
181.154743083
 20
10274.7908285958
 30
0.0
 40
10000.0
100
AcDbArc
 50
269.5831904602
 51
269.8761684228
  0
ARC
  5
B7
330
1F
100
AcDbEntity
  8
0
  6
Continuous
 62
     7
370
    25
100
AcDbCircle
 10
108.4193084402
 20
276.555393953
 30
0.0
 40
1.500000000000152
100
AcDbArc
 50
180.4168095398
 51
269.5831904602
  0
ARC
  5
B8
330
1F
100
AcDbEntity
  8
0
  6
Continuous
 62
     7
370
    25
100
AcDbCircle
 10
108.4193084402
 20
422.0262632387
 30
0.0
 40
1.500000000000095
100
AcDbArc
 50
90.4168095398
 51
179.5831904602
  0
ARC
  5
B9
330
1F
100
AcDbEntity
  8
0
  6
Continuous
 62
     7
370
    25
100
AcDbCircle
 10
253.8901777258
 20
422.0262632387
 30
0.0
 40
1.500000000000095
100
AcDbArc
 50
0.4168095398
 51
89.5831904602
  0
ARC
  5
BA
330
1F
100
AcDbEntity
  8
0
  6
Continuous
 62
     7
370
    25
100
AcDbCircle
 10
253.8901777258
 20
276.555393953
 30
0.0
 40
1.500000000000152
100
AcDbArc
 50
270.4168095398
 51
359.5831904602
  0
SPLINE
  5
BB
330
1F
100
AcDbEntity
  8
0
  6
Continuous
 62
     8
370
    18
100
AcDbSpline
210
0.0
220
0.0
230
1.0
 70
     8
 71
     3
 72
    18
 73
    14
 74
     0
 42
0.00000001
 43
0.00000001
 40
0.0
 40
0.0
 40
0.0
 40
0.0
 40
0.25
 40
0.25
 40
0.375
 40
0.375
 40
0.5
 40
0.5
 40
0.625
 40
0.625
 40
0.75
 40
0.75
 40
1.0
 40
1.0
 40
1.0
 40
1.0
 10
190.4795035436753
 20
271.1410893744638
 30
0.0
 10
192.2240132520399
 20
271.1442731684373
 30
0.0
 10
193.9982855598427
 20
271.1546368694983
 30
0.0
 10
196.5788249689892
 20
271.6651785504595
 30
0.0
 10
197.4362014866456
 20
271.9321849142061
 30
0.0
 10
199.0312574865999
 20
272.6985189715536
 30
0.0
 10
199.7833852261176
 20
273.2085393517176
 30
0.0
 10
201.034931353378
 20
274.4515468809921
 30
0.0
 10
201.5477118197312
 20
275.1959723757323
 30
0.0
 10
202.3287236904331
 20
276.786767198764
 30
0.0
 10
202.6036844079286
 20
277.6394272781333
 30
0.0
 10
203.1455863154135
 20
280.2366636336609
 30
0.0
 10
203.1775193396699
 20
281.9908553027348
 30
0.0
 10
203.205504950106
 20
283.7418053725738
 30
0.0
  0
SPLINE
  5
BC
330
1F
100
AcDbEntity
  8
0
  6
Continuous
 62
     8
370
    18
100
AcDbSpline
210
0.0
220
0.0
230
1.0
 70
     8
 71
     3
 72
    20
 73
    16
 74
     0
 42
0.00000001
 43
0.00000001
 40
0.0
 40
0.0
 40
0.0
 40
0.0
 40
0.1271633062611262
 40
0.2488038395655184
 40
0.2788311678001018
 40
0.3317609662596642
 40
0.4058961790524503
 40
0.5000739734647816
 40
0.584656441931107
 40
0.6652689227937725
 40
0.7423104311591308
 40
0.8153055178108691
 40
0.8833234888897978
 40
0.9452007290830211
 40
0.9999999999999999
 40
0.9999999999999999
 40
0.9999999999999999
 40
0.9999999999999999
 10
159.1039812158951
 20
283.7418053725737
 30
0.0
 10
159.1188840176196
 20
282.845905093686
 30
0.0
 10
159.1480423841197
 20
281.0930139821784
 30
0.0
 10
159.3723552319049
 20
279.1327588183993
 30
0.0
 10
159.7028618160755
 20
277.7289427551806
 30
0.0
 10
160.0354613021688
 20
276.6711082447216
 30
0.0
 10
160.7016447952397
 20
275.253964286088
 30
0.0
 10
161.793835605612
 20
273.8186230983302
 30
0.0
 10
163.2540654252283
 20
272.6909079934924
 30
0.0
 10
164.8015654856931
 20
271.9475978829173
 30
0.0
 10
166.3698495751501
 20
271.4971888550664
 30
0.0
 10
167.8929136935194
 20
271.272699010561
 30
0.0
 10
169.3201558023682
 20
271.1761724528048
 30
0.0
 10
170.6215607304585
 20
271.1448498294583
 30
0.0
 10
171.4438019159218
 20
271.1422911196291
 30
0.0
 10
171.8299826223259
 20
271.1410893744638
 30
0.0
  0
SPLINE
  5
BD
330
1F
100
AcDbEntity
  8
0
  6
Continuous
 62
     8
370
    18
100
AcDbSpline
210
0.0
220
0.0
230
1.0
 70
     8
 71
     3
 72
     8
 73
     4
 74
     0
 42
0.00000001
 43
0.00000001
 40
0.0
 40
0.0
 40
0.0
 40
0.0
 40
1.0
 40
1.0
 40
1.0
 40
1.0
 10
181.1547430830006
 20
271.1362975537895
 30
0.0
 10
184.2609192607039
 20
271.1362900999271
 30
0.0
 10
187.3670812287651
 20
271.1378268998533
 30
0.0
 10
190.4733106974707
 20
271.1410791395507
 30
0.0
  0
SPLINE
  5
BE
330
1F
100
AcDbEntity
  8
0
  6
Continuous
 62
     8
370
    18
100
AcDbSpline
210
0.0
220
0.0
230
1.0
 70
     8
 71
     3
 72
     8
 73
     4
 74
     0
 42
0.00000001
 43
0.00000001
 40
0.0
 40
0.0
 40
0.0
 40
0.0
 40
1.0
 40
1.0
 40
1.0
 40
1.0
 10
171.8361754685305
 20
271.1410791395508
 30
0.0
 10
174.9161528787535
 20
271.1394461058796
 30
0.0
 10
178.0224364202963
 20
271.1378523830579
 30
0.0
 10
181.1547430830006
 20
271.1362975537895
 30
0.0
  0
SPLINE
  5
BF
330
1F
100
AcDbEntity
  8
0
  6
Continuous
 62
     8
370
    18
100
AcDbSpline
210
0.0
220
0.0
230
1.0
 70
     8
 71
     3
 72
    10
 73
     6
 74
     0
 42
0.00000001
 43
0.00000001
 40
0.0
 40
0.0
 40
0.0
 40
0.0
 40
0.5
 40
0.5
 40
1.0
 40
1.0
 40
1.0
 40
1.0
 10
204.0327848257065
 20
343.8711248354232
 30
0.0
 10
204.037854796454
 20
347.2763353294023
 30
0.0
 10
204.0411487333219
 20
350.6785322248556
 30
0.0
 10
203.9814785937764
 20
357.4854907798846
 30
0.0
 10
203.9375313560794
 20
360.8888996036744
 30
0.0
 10
203.89682481633
 20
364.2919151073286
 30
0.0
  0
SPLINE
  5
C0
330
1F
100
AcDbEntity
  8
0
  6
Continuous
 62
     8
370
    18
100
AcDbSpline
210
0.0
220
0.0
230
1.0
 70
     8
 71
     3
 72
    10
 73
     6
 74
     0
 42
0.00000001
 43
0.00000001
 40
0.0
 40
0.0
 40
0.0
 40
0.0
 40
0.4999999999999999
 40
0.4999999999999999
 40
1.0
 40
1.0
 40
1.0
 40
1.0
 10
203.2060311749484
 20
283.7750050203073
 30
0.0
 10
203.3525673241516
 20
293.7907963585543
 30
0.0
 10
203.4994035890406
 20
303.8065827979408
 30
0.0
 10
203.7934788698283
 20
323.8381490466488
 30
0.0
 10
203.9863773246388
 20
333.8532677374901
 30
0.0
 10
204.0322651987631
 20
343.871127586722
 30
0.0
  0
SPLINE
  5
C1
330
1F
100
AcDbEntity
  8
0
  6
Continuous
 62
     8
370
    18
100
AcDbSpline
210
0.0
220
0.0
230
1.0
 70
     8
 71
     3
 72
    10
 73
     6
 74
     0
 42
0.00000001
 43
0.00000001
 40
0.0
 40
0.0
 40
0.0
 40
0.0
 40
0.5000000000000001
 40
0.5000000000000001
 40
1.0
 40
1.0
 40
1.0
 40
1.0
 10
158.4126613462423
 20
364.2919149637943
 30
0.0
 10
158.3693902281989
 20
360.888548694083
 30
0.0
 10
158.3261166120545
 20
357.4851824081416
 30
0.0
 10
158.2751647258248
 20
350.6782331314597
 30
0.0
 10
158.2676743735467
 20
347.2746473864075
 30
0.0
 10
158.2767013402947
 20
343.8711248354232
 30
0.0
  0
SPLINE
  5
C2
330
1F
100
AcDbEntity
  8
0
  6
Continuous
 62
     8
370
    18
100
AcDbSpline
210
0.0
220
0.0
230
1.0
 70
     8
 71
     3
 72
    25
 73
    21
 74
     0
 42
0.00000001
 43
0.00000001
 40
0.0
 40
0.0
 40
0.0
 40
0.0
 40
0.0555558203716307
 40
0.1111116733085091
 40
0.1666674155576483
 40
0.2222229718255979
 40
0.2777785046164367
 40
0.3333340291163399
 40
0.3888895462146106
 40
0.4444450568004377
 40
0.5000005617628908
 40
0.5555560619909093
 40
0.6111115583732989
 40
0.6666670517987204
 40
0.7222225431556848
 40
0.777778033332544
 40
0.8333335232174847
 40
0.8888890136985187
 40
0.9444445056634766
 40
1.0
 40
1.0
 40
1.0
 40
1.0
 10
158.2772209669128
 20
343.871127659834
 30
0.0
 10
158.2833435718
 20
342.7581389686939
 30
0.0
 10
158.2955887851635
 20
340.5321609340112
 30
0.0
 10
158.3270642131869
 20
337.1932884535
 30
0.0
 10
158.3679505657803
 20
333.8545272076508
 30
0.0
 10
158.4180465596478
 20
330.5159004706005
 30
0.0
 10
158.4664585836403
 20
327.1772551998013
 30
0.0
 10
158.5153623104246
 20
323.8386174674015
 30
0.0
 10
158.564174582038
 20
320.4999789853267
 30
0.0
 10
158.6130514493729
 20
317.16134182615
 30
0.0
 10
158.6619508916536
 20
313.8227053630584
 30
0.0
 10
158.710883961451
 20
310.4840696925457
 30
0.0
 10
158.7598474890878
 20
307.1454347172825
 30
0.0
 10
158.8088421200166
 20
303.8068003919452
 30
0.0
 10
158.8578674608597
 20
300.4681666570325
 30
0.0
 10
158.9069234578437
 20
297.1295334577733
 30
0.0
 10
158.95600973699
 20
293.7909007346805
 30
0.0
 10
159.0051268648876
 20
290.4522684424293
 30
0.0
 10
159.0542719653809
 20
287.113636483794
 30
0.0
 10
159.0870606489289
 20
284.8878821906384
 30
0.0
 10
159.1034549910528
 20
283.7750050203073
 30
0.0
  0
SPLINE
  5
C3
330
1F
100
AcDbEntity
  8
0
  6
Continuous
 62
     8
370
    18
100
AcDbSpline
210
0.0
220
0.0
230
1.0
 70
     8
 71
     3
 72
    11
 73
     7
 74
     0
 42
0.00000001
 43
0.00000001
 40
0.0
 40
0.0
 40
0.0
 40
0.0
 40
0.129902722770234
 40
0.4265570412545556
 40
0.7238453541226316
 40
1.0
 40
1.0
 40
1.0
 40
1.0
 10
171.8326533067668
 20
269.8774679480192
 30
0.0
 10
171.8324803499467
 20
269.8854701160729
 30
0.0
 10
171.8319124176673
 20
269.9117465562879
 30
0.0
 10
171.8310651422557
 20
270.1751909400559
 30
0.0
 10
171.830307735777
 20
270.6127273500226
 30
0.0
 10
171.8301506086599
 20
270.9693418314281
 30
0.0
 10
171.8300749404828
 20
271.1410777370232
 30
0.0
  0
SPLINE
  5
C4
330
1F
100
AcDbEntity
  8
0
  6
Continuous
 62
     8
370
    18
100
AcDbSpline
210
0.0
220
0.0
230
1.0
 70
     8
 71
     3
 72
    13
 73
     9
 74
     0
 42
0.00000001
 43
0.00000001
 40
0.0
 40
0.0
 40
0.0
 40
0.0
 40
0.1254761074485189
 40
0.2737029388472016
 40
0.4250817708061387
 40
0.5764608585611593
 40
0.7246884235373251
 40
1.0
 40
1.0
 40
1.0
 40
1.0
 10
157.8409715141008
 20
283.7088610170721
 30
0.0
 10
157.8469327093275
 20
283.7099013513285
 30
0.0
 10
157.8599359550112
 20
283.7121706482421
 30
0.0
 10
157.9828082213055
 20
283.7169145700985
 30
0.0
 10
158.145996103996
 20
283.7221279939438
 30
0.0
 10
158.3573963110619
 20
283.727560641871
 30
0.0
 10
158.6679382625132
 20
283.7344645776275
 30
0.0
 10
158.9321963698644
 20
283.7389137921045
 30
0.0
 10
159.1039710867908
 20
283.7418058984811
 30
0.0
  0
SPLINE
  5
C5
330
1F
100
AcDbEntity
  8
0
  6
Continuous
 62
     8
370
    18
100
AcDbSpline
210
0.0
220
0.0
230
1.0
 70
     8
 71
     3
 72
    11
 73
     7
 74
     0
 42
0.00000001
 43
0.00000001
 40
0.0
 40
0.0
 40
0.0
 40
0.0
 40
0.1296177347064011
 40
0.4263671087894231
 40
0.7237506840341745
 40
1.0
 40
1.0
 40
1.0
 40
1.0
 10
190.4709849722055
 20
269.8775580613299
 30
0.0
 10
190.471150401713
 20
269.8855467358688
 30
0.0
 10
190.4716945687668
 20
269.9118248379659
 30
0.0
 10
190.4724781335956
 20
270.175201591142
 30
0.0
 10
190.4731532678503
 20
270.6127189930693
 30
0.0
 10
190.47325952582
 20
270.9693379465544
 30
0.0
 10
190.4733106973827
 20
271.1410779975002
 30
0.0
  0
SPLINE
  5
C6
330
1F
100
AcDbEntity
  8
0
  6
Continuous
 62
     8
370
    18
100
AcDbSpline
210
0.0
220
0.0
230
1.0
 70
     8
 71
     3
 72
    13
 73
     9
 74
     0
 42
0.00000001
 43
0.00000001
 40
0.0
 40
0.0
 40
0.0
 40
0.0
 40
0.1254981955827986
 40
0.2737212738557445
 40
0.4250962737688352
 40
0.576471530310642
 40
0.7246953445538288
 40
1.0
 40
1.0
 40
1.0
 40
1.0
 10
204.4685211632272
 20
283.7088665800185
 30
0.0
 10
204.4625592414268
 20
283.7099066296901
 30
0.0
 10
204.4495558287304
 20
283.7121750584884
 30
0.0
 10
204.3266785930478
 20
283.7169177697608
 30
0.0
 10
204.1634900370776
 20
283.7221298161396
 30
0.0
 10
203.9520900031314
 20
283.7275613476097
 30
0.0
 10
203.641547959181
 20
283.7344642021255
 30
0.0
 10
203.3772898181911
 20
283.7389132300308
 30
0.0
 10
203.2055150694771
 20
283.7418052152978
 30
0.0
  0
SPLINE
  5
C7
330
1F
100
AcDbEntity
  8
0
  6
Continuous
 62
     8
370
    18
100
AcDbSpline
210
0.0
220
0.0
230
1.0
 70
     8
 71
     3
 72
    14
 73
    10
 74
     0
 42
0.00000001
 43
0.00000001
 40
0.0
 40
0.0
 40
0.0
 40
0.0
 40
0.25
 40
0.25
 40
0.5
 40
0.5
 40
0.75
 40
0.75
 40
1.0
 40
1.0
 40
1.0
 40
1.0
 10
181.1547501655665
 20
269.8371770415958
 30
0.0
 10
181.1547493493635
 20
269.831386441057
 30
0.0
 10
181.154748472552
 20
269.8541117895415
 30
0.0
 10
181.1547467722334
 20
269.9723700006347
 30
0.0
 10
181.1547459534
 20
270.0683253457834
 30
0.0
 10
181.154744583296
 20
270.3196368289261
 30
0.0
 10
181.1547440361124
 20
270.4742433141378
 30
0.0
 10
181.1547433055273
 20
270.8018739279224
 30
0.0
 10
181.1547431203899
 20
270.9739366666167
 30
0.0
 10
181.1547430830006
 20
271.1362975537894
 30
0.0
  0
SPLINE
  5
C8
330
1F
100
AcDbEntity
  8
0
  6
Continuous
 62
     8
370
    18
100
AcDbSpline
210
0.0
220
0.0
230
1.0
 70
     8
 71
     3
 72
    13
 73
     9
 74
     0
 42
0.00000001
 43
0.00000001
 40
0.0
 40
0.0
 40
0.0
 40
0.0
 40
0.1248023100214811
 40
0.273143482598994
 40
0.424638876412793
 40
0.5761341198283884
 40
0.7244748574869448
 40
1.0
 40
1.0
 40
1.0
 40
1.0
 10
204.4688104944871
 20
283.7419914433115
 30
0.0
 10
204.4628733175
 20
283.7430234978607
 30
0.0
 10
204.4498791573855
 20
283.7452822619314
 30
0.0
 10
204.3271596319993
 20
283.7499906802951
 30
0.0
 10
204.1639923584293
 20
283.7551679061446
 30
0.0
 10
203.9525853454041
 20
283.7605551845858
 30
0.0
 10
203.6420410740111
 20
283.767393319136
 30
0.0
 10
203.3777789003692
 20
283.7717877636767
 30
0.0
 10
203.2060008062607
 20
283.7746442803604
 30
0.0
  0
SPLINE
  5
C9
330
1F
100
AcDbEntity
  8
0
  6
Continuous
 62
     8
370
    18
100
AcDbSpline
210
0.0
220
0.0
230
1.0
 70
     8
 71
     3
 72
    13
 73
     9
 74
     0
 42
0.00000001
 43
0.00000001
 40
0.0
 40
0.0
 40
0.0
 40
0.0
 40
0.1255312784933132
 40
0.2737488848203768
 40
0.4251180854013738
 40
0.5764871393595561
 40
0.7247043214630623
 40
1.0
 40
1.0
 40
1.0
 40
1.0
 10
157.840467304118
 20
283.7418028729392
 30
0.0
 10
157.8464285208791
 20
283.742844269313
 30
0.0
 10
157.8594282804618
 20
283.7451152658279
 30
0.0
 10
157.9823110905942
 20
283.7498675492662
 30
0.0
 10
158.1454998889239
 20
283.7550909915886
 30
0.0
 10
158.3569000706373
 20
283.760536257448
 30
0.0
 10
158.667444845749
 20
283.7674584941281
 30
0.0
 10
158.9317055639169
 20
283.7719228895122
 30
0.0
 10
159.1034827175285
 20
283.774824876372
 30
0.0
  0
SPLINE
  5
CA
330
1F
100
AcDbEntity
  8
0
  6
Continuous
 62
     8
370
    18
100
AcDbSpline
210
0.0
220
0.0
230
1.0
 70
     8
 71
     3
 72
    13
 73
     9
 74
     0
 42
0.00000001
 43
0.00000001
 40
0.0
 40
0.0
 40
0.0
 40
0.0
 40
0.1299736398738836
 40
0.2773561136982385
 40
0.4277526454537737
 40
0.5781491585093324
 40
0.7255315806302197
 40
0.9999999999999999
 40
0.9999999999999999
 40
0.9999999999999999
 40
0.9999999999999999
 10
205.3002454851845
 20
343.8530657802951
 30
0.0
 10
205.2927569463137
 20
343.8540855843924
 30
0.0
 10
205.2767768441907
 20
343.8562617864393
 30
0.0
 10
205.1509431238437
 20
343.8597714223905
 30
0.0
 10
204.9867377873672
 20
343.8632962343763
 30
0.0
 10
204.7758675107323
 20
343.8665518250061
 30
0.0
 10
204.4665778190831
 20
343.8702787642058
 30
0.0
 10
204.2034641287028
 20
343.8720517463586
 30
0.0
 10
204.0322747138423
 20
343.8732053000825
 30
0.0
  0
SPLINE
  5
CB
330
1F
100
AcDbEntity
  8
0
  6
Continuous
 62
     8
370
    18
100
AcDbSpline
210
0.0
220
0.0
230
1.0
 70
     8
 71
     3
 72
    13
 73
     9
 74
     0
 42
0.00000001
 43
0.00000001
 40
0.0
 40
0.0
 40
0.0
 40
0.0
 40
0.1307380500284421
 40
0.2780111258851914
 40
0.4282922926971213
 40
0.5785657404293025
 40
0.7258165769101023
 40
1.0
 40
1.0
 40
1.0
 40
1.0
 10
157.009085418465
 20
343.8530295170447
 30
0.0
 10
157.0165741880184
 20
343.8540373903462
 30
0.0
 10
157.0324988652992
 20
343.8561806071928
 30
0.0
 10
157.1584910451131
 20
343.8594859938565
 30
0.0
 10
157.3227230697744
 20
343.862743095645
 30
0.0
 10
157.5336173401306
 20
343.8656638864531
 30
0.0
 10
157.8429309654141
 20
343.8689068079858
 30
0.0
 10
158.1060380677817
 20
343.8702779425307
 30
0.0
 10
158.2772144833865
 20
343.8711699971146
 30
0.0
  0
SPLINE
  5
CC
330
1F
100
AcDbEntity
  8
0
  6
Continuous
 62
     8
370
    18
100
AcDbSpline
210
0.0
220
0.0
230
1.0
 70
     8
 71
     3
 72
    29
 73
    25
 74
     0
 42
0.00000001
 43
0.00000001
 40
0.0
 40
0.0
 40
0.0
 40
0.0
 40
0.0773560840184947
 40
0.1580364312942317
 40
0.2476674645234845
 40
0.2788288539501292
 40
0.3202755315212129
 40
0.3721704940376173
 40
0.4346133994485554
 40
0.497793505450997
 40
0.5146529542311955
 40
0.5356805009822008
 40
0.5608948439673878
 40
0.5903099647497267
 40
0.6239558437650363
 40
0.6660728053269662
 40
0.7081511654289014
 40
0.7501539294203066
 40
0.7906842590257075
 40
0.8752457846331353
 40
0.9052374978256917
 40
0.9359896736065182
 40
0.9675550429180162
 40
1.0
 40
1.0
 40
1.0
 40
1.0
 10
181.1547426976734
 20
384.740719419966
 30
0.0
 10
180.1720302605858
 20
384.7397736412956
 30
0.0
 10
178.1643747734149
 20
384.7378414405158
 30
0.0
 10
175.0181745782801
 20
384.7133337058644
 30
0.0
 10
172.458863056757
 20
384.6787567168472
 30
0.0
 10
170.3986169673497
 20
384.6197861742233
 30
0.0
 10
168.8193520790852
 20
384.521261410598
 30
0.0
 10
166.8579603175976
 20
384.2213447193554
 30
0.0
 10
164.7019711242674
 20
383.5103589762429
 30
0.0
 10
163.1311622721253
 20
382.5748347327926
 30
0.0
 10
162.1383667617624
 20
381.7597713126657
 30
0.0
 10
161.5602464677215
 20
381.2029946834664
 30
0.0
 10
160.9275869705606
 20
380.4777179573558
 30
0.0
 10
160.2789360939805
 20
379.5600615101434
 30
0.0
 10
159.6430359146799
 20
378.3810611143284
 30
0.0
 10
159.1150638650479
 20
376.9746335407584
 30
0.0
 10
158.7609168580055
 20
375.4064425568077
 30
0.0
 10
158.5970625220559
 20
373.8298642773052
 30
0.0
 10
158.5010082451278
 20
371.7090887365622
 30
0.0
 10
158.496716445955
 20
369.7386483106748
 30
0.0
 10
158.4653412671834
 20
367.8931363082729
 30
0.0
 10
158.4482265069814
 20
366.7206610000754
 30
0.0
 10
158.4301963154255
 20
365.5170424676658
 30
0.0
 10
158.4183073106367
 20
364.7040180865557
 30
0.0
 10
158.4122811228035
 20
364.2919198730648
 30
0.0
  0
SPLINE
  5
CD
330
1F
100
AcDbEntity
  8
0
  6
Continuous
 62
     8
370
    18
100
AcDbSpline
210
0.0
220
0.0
230
1.0
 70
     8
 71
     3
 72
    28
 73
    24
 74
     0
 42
0.00000001
 43
0.00000001
 40
0.0
 40
0.0
 40
0.0
 40
0.0
 40
0.1249999999999999
 40
0.1249999999999999
 40
0.1874999999999999
 40
0.1874999999999999
 40
0.2499999999999999
 40
0.2499999999999999
 40
0.3124999999999999
 40
0.3124999999999999
 40
0.375
 40
0.375
 40
0.4375
 40
0.4375
 40
0.5
 40
0.5
 40
0.5625
 40
0.5625
 40
0.6249999999999999
 40
0.6249999999999999
 40
0.7499999999999999
 40
0.7499999999999999
 40
1.0
 40
1.0
 40
1.0
 40
1.0
 10
203.897205081674
 20
364.291917239362
 30
0.0
 10
203.8740573742526
 20
365.8764897282477
 30
0.0
 10
203.8505070185564
 20
367.4610309572291
 30
0.0
 10
203.8137929149612
 20
369.8378829714641
 30
0.0
 10
203.8016766338395
 20
370.6294837215096
 30
0.0
 10
203.7751708411914
 20
372.2162752480295
 30
0.0
 10
203.7581457270695
 20
373.0129194368968
 30
0.0
 10
203.6389341750893
 20
374.6078359694035
 30
0.0
 10
203.5365957822668
 20
375.4006294964318
 30
0.0
 10
203.1838891875061
 20
376.9674308326574
 30
0.0
 10
202.9282423602645
 20
377.7390028437651
 30
0.0
 10
202.2554411950917
 20
379.1913571970061
 30
0.0
 10
201.8287790196929
 20
379.8880352419183
 30
0.0
 10
200.8295773155733
 20
381.1458277758579
 30
0.0
 10
200.2623004898545
 20
381.7055113999099
 30
0.0
 10
198.9958419096905
 20
382.6864006136166
 30
0.0
 10
198.2966291082591
 20
383.1041363754194
 30
0.0
 10
196.8483534795543
 20
383.7623390065582
 30
0.0
 10
196.0868284530284
 20
384.0127620666869
 30
0.0
 10
193.7510516077566
 20
384.552459104642
 30
0.0
 10
192.1694134330055
 20
384.622547759071
 30
0.0
 10
187.4404289297306
 20
384.7227901747888
 30
0.0
 10
184.304380613358
 20
384.7407146737099
 30
0.0
 10
181.1547434683278
 20
384.740719419966
 30
0.0
  0
LINE
  5
CE
330
1F
100
AcDbEntity
  8
0
  6
Continuous
 62
     8
370
    18
100
AcDbLine
 10
157.0123260027
 20
354.7745763151
 30
0.0
 11
157.0505416918
 21
364.2918532641
 31
0.0
  0
SPLINE
  5
CF
330
1F
100
AcDbEntity
  8
0
  6
Continuous
 62
     8
370
    18
100
AcDbSpline
210
0.0
220
0.0
230
1.0
 70
     8
 71
     3
 72
     9
 73
     5
 74
     0
 42
0.00000001
 43
0.00000001
 40
0.0
 40
0.0
 40
0.0
 40
0.0
 40
0.8812892353584193
 40
0.9999999999999999
 40
0.9999999999999999
 40
0.9999999999999999
 40
0.9999999999999999
 10
156.5490502890136
 20
364.2909833041526
 30
0.0
 10
156.5701988770842
 20
362.7272254546561
 30
0.0
 10
156.5941962064762
 20
360.9528274627637
 30
0.0
 10
157.0710192994586
 20
359.2600108862569
 30
0.0
 10
157.1276233334252
 20
359.0590553360618
 30
0.0
  0
SPLINE
  5
D0
330
1F
100
AcDbEntity
  8
0
  6
Continuous
 62
     8
370
    18
100
AcDbSpline
210
0.0
220
0.0
230
1.0
 70
    24
 71
     3
 72
     8
 73
     4
 74
     0
 42
0.00000001
 43
0.00000001
 40
0.0065267719864844
 40
0.0065267719864844
 40
0.0065267719864844
 40
0.0065267719864844
 40
0.3605259330301008
 40
0.3605259330301008
 40
0.3605259330301008
 40
0.3605259330301008
 10
156.5490502888117
 20
364.2909987048826
 30
0.0
 10
156.7011398114959
 20
364.2912497091108
 30
0.0
 10
156.8755397815019
 20
364.2915375338677
 30
0.0
 10
157.050343648119
 20
364.2918260252039
 30
0.0
  0
SPLINE
  5
D1
330
1F
100
AcDbEntity
  8
0
  6
Continuous
 62
     8
370
    18
100
AcDbSpline
210
0.0
220
0.0
230
1.0
 70
     8
 71
     3
 72
     9
 73
     5
 74
     0
 42
0.00000001
 43
0.00000001
 40
0.0
 40
0.0
 40
0.0
 40
0.0
 40
0.9421391924535237
 40
0.9999999999999999
 40
0.9999999999999999
 40
0.9999999999999999
 40
0.9999999999999999
 10
205.7604358769876
 20
364.2909833041526
 30
0.0
 10
205.7473817625953
 20
362.7257671484541
 30
0.0
 10
205.7335259390643
 20
361.0644243572447
 30
0.0
 10
205.296091015819
 20
359.4793938814137
 30
0.0
 10
205.270780677911
 20
359.3876827380963
 30
0.0
  0
LINE
  5
D2
330
1F
100
AcDbEntity
  8
0
  6
Continuous
 62
     8
370
    18
100
AcDbLine
 10
205.2971601633
 20
354.7745763151
 30
0.0
 11
205.2589444742
 21
364.2918532641
 31
0.0
  0
SPLINE
  5
D3
330
1F
100
AcDbEntity
  8
0
  6
Continuous
 62
     8
370
    18
100
AcDbSpline
210
0.0
220
0.0
230
1.0
 70
     8
 71
     3
 72
    11
 73
     7
 74
     0
 42
0.00000001
 43
0.00000001
 40
0.0
 40
0.0
 40
0.0
 40
0.0
 40
0.2493850630140931
 40
0.4992827905605636
 40
0.7495482998587405
 40
1.0
 40
1.0
 40
1.0
 40
1.0
 10
205.7605570944041
 20
364.29096592618
 30
0.0
 10
205.7226780500918
 20
364.2910321315176
 30
0.0
 10
205.6468420929602
 20
364.2911646782923
 30
0.0
 10
205.5221749306151
 20
364.2913811460593
 30
0.0
 10
205.392174036301
 20
364.2916522162469
 30
0.0
 10
205.3033682679299
 20
364.291804401919
 30
0.0
 10
205.2589488726073
 20
364.2918805230499
 30
0.0
  0
SPLINE
  5
D4
330
1F
100
AcDbEntity
  8
0
  6
Continuous
 62
     8
370
    18
100
AcDbSpline
210
0.0
220
0.0
230
1.0
 70
     8
 71
     3
 72
    14
 73
    10
 74
     0
 42
0.00000001
 43
0.00000001
 40
0.0
 40
0.0
 40
0.0
 40
0.0
 40
0.25
 40
0.25
 40
0.5
 40
0.5
 40
0.75
 40
0.75
 40
1.0
 40
1.0
 40
1.0
 40
1.0
 10
203.8968169521143
 20
364.2925943452896
 30
0.0
 10
204.0584860723281
 20
364.294364282464
 30
0.0
 10
204.2294416471207
 20
364.2959012685184
 30
0.0
 10
204.5572423589016
 20
364.2979986700184
 30
0.0
 10
204.7132884769478
 20
364.2985466010123
 30
0.0
 10
204.9736099788252
 20
364.2984101826293
 30
0.0
 10
205.0772338817262
 20
364.2977261746564
 30
0.0
 10
205.2161278831197
 20
364.2953842074776
 30
0.0
 10
205.2516731365659
 20
364.293739007249
 30
0.0
 10
205.2589441579417
 20
364.2918805391872
 30
0.0
  0
SPLINE
  5
D5
330
1F
100
AcDbEntity
  8
0
  6
Continuous
 62
     8
370
    18
100
AcDbSpline
210
0.0
220
0.0
230
1.0
 70
     8
 71
     3
 72
    14
 73
    10
 74
     0
 42
0.00000001
 43
0.00000001
 40
0.0
 40
0.0
 40
0.0
 40
0.0
 40
0.25
 40
0.25
 40
0.5
 40
0.5
 40
0.75
 40
0.75
 40
1.0
 40
1.0
 40
1.0
 40
1.0
 10
157.0503729496303
 20
364.2942809557648
 30
0.0
 10
157.0576029204709
 20
364.2961465917681
 30
0.0
 10
157.0931080709009
 20
364.2977366710286
 30
0.0
 10
157.2319379306223
 20
364.2998135137502
 30
0.0
 10
157.3355382440004
 20
364.3002867723291
 30
0.0
 10
157.5958308824245
 20
364.2998743994631
 30
0.0
 10
157.7518713295687
 20
364.2989898007665
 30
0.0
 10
158.0796654833457
 20
364.2961737013262
 30
0.0
 10
158.2506196252019
 20
364.294256535558
 30
0.0
 10
158.4122840948752
 20
364.2921233257773
 30
0.0
  0
SPLINE
  5
D6
330
1F
100
AcDbEntity
  8
0
  6
Continuous
 62
     8
370
    18
100
AcDbSpline
210
0.0
220
0.0
230
1.0
 70
     8
 71
     3
 72
    12
 73
     8
 74
     0
 42
0.00000001
 43
0.00000001
 40
0.0
 40
0.0
 40
0.0
 40
0.0
 40
0.2499999999999997
 40
0.2499999999999997
 40
0.4999999999999993
 40
0.4999999999999993
 40
1.0
 40
1.0
 40
1.0
 40
1.0
 10
205.0208293064773
 20
373.903611048846
 30
0.0
 10
205.0897047266518
 20
373.0593146747485
 30
0.0
 10
205.1122021950761
 20
372.2376250982693
 30
0.0
 10
205.148371249081
 20
370.6408773863164
 30
0.0
 10
205.1644880824023
 20
369.8511289028641
 30
0.0
 10
205.2107189936979
 20
367.4697483726133
 30
0.0
 10
205.2371331953441
 20
365.8820077898835
 30
0.0
 10
205.2591160754465
 20
364.2940744322423
 30
0.0
  0
SPLINE
  5
D7
330
1F
100
AcDbEntity
  8
0
  6
Continuous
 62
     8
370
    18
100
AcDbSpline
210
0.0
220
0.0
230
1.0
 70
     8
 71
     3
 72
    10
 73
     6
 74
     0
 42
0.00000001
 43
0.00000001
 40
0.0
 40
0.0
 40
0.0
 40
0.0
 40
0.1308241262750767
 40
0.309097126220868
 40
1.0
 40
1.0
 40
1.0
 40
1.0
 10
194.8537010342786
 20
385.5864764046558
 30
0.0
 10
194.2639988529471
 20
385.6934675825763
 30
0.0
 10
192.8707141831723
 20
385.9462547906228
 30
0.0
 10
188.2871983973076
 20
386.0765175520244
 30
0.0
 10
184.3134515018158
 20
386.1188068846016
 30
0.0
 10
181.1547430830005
 20
386.1524224304202
 30
0.0
  0
SPLINE
  5
D8
330
1F
100
AcDbEntity
  8
0
  6
Continuous
 62
     8
370
    18
100
AcDbSpline
210
0.0
220
0.0
230
1.0
 70
     8
 71
     3
 72
    14
 73
    10
 74
     0
 42
0.00000001
 43
0.00000001
 40
0.0
 40
0.0
 40
0.0
 40
0.0
 40
0.25
 40
0.25
 40
0.5
 40
0.5
 40
0.75
 40
0.75
 40
1.0
 40
1.0
 40
1.0
 40
1.0
 10
181.1547430830007
 20
386.1524224304202
 30
0.0
 10
181.154743072952
 20
386.1286856943318
 30
0.0
 10
181.1547430561586
 20
386.0783216962757
 30
0.0
 10
181.1547430084569
 20
385.9189748525278
 30
0.0
 10
181.1547429775364
 20
385.8098868724646
 30
0.0
 10
181.1547429057632
 20
385.5469353356355
 30
0.0
 10
181.1547428650276
 20
385.3935007034076
 30
0.0
 10
181.1547427812472
 20
385.071143861325
 30
0.0
 10
181.1547427383312
 20
384.9027534941974
 30
0.0
 10
181.1547426976734
 20
384.740719419966
 30
0.0
  0
SPLINE
  5
D9
330
1F
100
AcDbEntity
  8
0
  6
Continuous
 62
     8
370
    18
100
AcDbSpline
210
0.0
220
0.0
230
1.0
 70
     8
 71
     3
 72
    18
 73
    14
 74
     0
 42
0.00000001
 43
0.00000001
 40
0.0
 40
0.0
 40
0.0
 40
0.0
 40
0.0827606510416989
 40
0.1668503807843845
 40
0.2523620482544118
 40
0.3393994183017152
 40
0.428076707919458
 40
0.5185234080719159
 40
0.6108832735093029
 40
0.7053232041750407
 40
0.8017894870671189
 40
0.9000249363232907
 40
1.0
 40
1.0
 40
1.0
 40
1.0
 10
157.0503700905547
 20
364.2940744322423
 30
0.0
 10
157.0541131216587
 20
364.559265004998
 30
0.0
 10
157.0616592943523
 20
365.0939049273256
 30
0.0
 10
157.0740355630421
 20
365.9025283244778
 30
0.0
 10
157.0873462911947
 20
366.7248374940696
 30
0.0
 10
157.1017192619226
 20
367.5618251657087
 30
0.0
 10
157.1171985535813
 20
368.4146030393206
 30
0.0
 10
157.1338653678075
 20
369.284411157737
 30
0.0
 10
157.151802914246
 20
370.1726544030339
 30
0.0
 10
157.1710927110462
 20
371.0801654803305
 30
0.0
 10
157.1918028366007
 20
372.0064342300628
 30
0.0
 10
157.222093362538
 20
372.9503560444628
 30
0.0
 10
157.2663395833988
 20
373.5840056177348
 30
0.0
 10
157.2886568595238
 20
373.9036110488455
 30
0.0
  0
SPLINE
  5
DA
330
1F
100
AcDbEntity
  8
0
  6
Continuous
 62
     8
370
    18
100
AcDbSpline
210
0.0
220
0.0
230
1.0
 70
     8
 71
     3
 72
    10
 73
     6
 74
     0
 42
0.00000001
 43
0.00000001
 40
0.0
 40
0.0
 40
0.0
 40
0.0
 40
0.1308241262750767
 40
0.309097126220868
 40
1.0
 40
1.0
 40
1.0
 40
1.0
 10
167.4557851317226
 20
385.5864764046558
 30
0.0
 10
168.0454873130541
 20
385.6934675825763
 30
0.0
 10
169.4387719828289
 20
385.9462547906228
 30
0.0
 10
174.0222877686936
 20
386.0765175520244
 30
0.0
 10
177.9960346641853
 20
386.1188068846016
 30
0.0
 10
181.1547430830007
 20
386.1524224304202
 30
0.0
  0
SPLINE
  5
DB
330
1F
100
AcDbEntity
  8
0
  6
Continuous
 62
     8
370
    18
100
AcDbSpline
210
0.0
220
0.0
230
1.0
 70
    24
 71
     3
 72
     8
 73
     4
 74
     0
 42
0.00000001
 43
0.00000001
 40
0.000002477809812
 40
0.000002477809812
 40
0.000002477809812
 40
0.000002477809812
 40
0.8538414347134714
 40
0.8538414347134714
 40
0.8538414347134714
 40
0.8538414347134714
 10
156.5490482465603
 20
364.2909987015121
 30
0.0
 10
156.3144658620097
 20
364.2906115534078
 30
0.0
 10
156.1329601302262
 20
364.2903120015035
 30
0.0
 10
156.0849140143176
 20
364.2902327075586
 30
0.0
  0
SPLINE
  5
DC
330
1F
100
AcDbEntity
  8
0
  6
Continuous
 62
     8
370
    18
100
AcDbSpline
210
0.0
220
0.0
230
1.0
 70
    24
 71
     3
 72
     8
 73
     4
 74
     0
 42
0.00000001
 43
0.00000001
 40
0.000002477809812
 40
0.000002477809812
 40
0.000002477809812
 40
0.000002477809812
 40
0.8538414347134714
 40
0.8538414347134714
 40
0.8538414347134714
 40
0.8538414347134714
 10
205.7604379194409
 20
364.2909987015121
 30
0.0
 10
205.9950203039916
 20
364.2906115534078
 30
0.0
 10
206.176526035775
 20
364.2903120015035
 30
0.0
 10
206.2245721516836
 20
364.2902327075586
 30
0.0
  0
SPLINE
  5
DD
330
1F
100
AcDbEntity
  8
0
  6
Continuous
 62
     8
370
    18
100
AcDbSpline
210
0.0
220
0.0
230
1.0
 70
     8
 71
     3
 72
     8
 73
     4
 74
     0
 42
0.00000001
 43
0.00000001
 40
0.0
 40
0.0
 40
0.0
 40
0.0
 40
1.0
 40
1.0
 40
1.0
 40
1.0
 10
108.5406649435971
 20
421.9049067352464
 30
0.0
 10
108.2022127860548
 20
373.4955213089733
 30
0.0
 10
108.2022127860554
 20
325.0861358827001
 30
0.0
 10
108.5406649435976
 20
276.6767504564269
 30
0.0
  0
SPLINE
  5
DE
330
1F
100
AcDbEntity
  8
0
  6
Continuous
 62
     8
370
    18
100
AcDbSpline
210
0.0
220
0.0
230
1.0
 70
     8
 71
     3
 72
     8
 73
     4
 74
     0
 42
0.00000001
 43
0.00000001
 40
0.0
 40
0.0
 40
0.0
 40
0.0
 40
1.0
 40
1.0
 40
1.0
 40
1.0
 10
253.7688212224117
 20
421.9049067352464
 30
0.0
 10
205.3594357961398
 20
422.2433588927886
 30
0.0
 10
156.950050369868
 20
422.2433588927892
 30
0.0
 10
108.5406649435961
 20
421.9049067352469
 30
0.0
  0
SPLINE
  5
DF
330
1F
100
AcDbEntity
  8
0
  6
Continuous
 62
     8
370
    18
100
AcDbSpline
210
0.0
220
0.0
230
1.0
 70
     8
 71
     3
 72
     8
 73
     4
 74
     0
 42
0.00000001
 43
0.00000001
 40
0.0
 40
0.0
 40
0.0
 40
0.0
 40
1.0
 40
1.0
 40
1.0
 40
1.0
 10
253.7688212224126
 20
276.6767504564278
 30
0.0
 10
254.1072733799548
 20
325.0861358827005
 30
0.0
 10
254.1072733799549
 20
373.495521308973
 30
0.0
 10
253.7688212224126
 20
421.9049067352456
 30
0.0
  0
LINE
  5
E0
330
1F
100
AcDbEntity
  8
0
  6
Continuous
 62
     8
370
    18
100
AcDbLine
 10
108.5406649436
 20
276.6767504564
 30
0.0
 11
158.7861111159
 21
276.5010943563
 31
0.0
  0
LINE
  5
E1
330
1F
100
AcDbEntity
  8
0
  6
Continuous
 62
     8
370
    18
100
AcDbLine
 10
203.5323821369
 20
276.5011530658
 30
0.0
 11
253.7688212224
 21
276.6767504564
 31
0.0
  0
SPLINE
  5
E2
330
1F
100
AcDbEntity
  8
0
  6
Continuous
 62
     8
370
    18
100
AcDbSpline
210
0.0
220
0.0
230
1.0
 70
     8
 71
     3
 72
     8
 73
     4
 74
     0
 42
0.00000001
 43
0.00000001
 40
0.0
 40
0.0
 40
0.0
 40
0.0
 40
1.0
 40
1.0
 40
1.0
 40
1.0
 10
255.2517562487571
 20
422.036168487068
 30
0.0
 10
255.5914569786039
 20
373.539275226247
 30
0.0
 10
255.591456978603
 20
325.042381965426
 30
0.0
 10
255.2517562487562
 20
276.545488704605
 30
0.0
  0
SPLINE
  5
E3
330
1F
100
AcDbEntity
  8
0
  6
Continuous
 62
     8
370
    18
100
AcDbSpline
210
0.0
220
0.0
230
1.0
 70
     8
 71
     3
 72
    21
 73
    17
 74
     0
 42
0.00000001
 43
0.00000001
 40
0.0
 40
0.0
 40
0.0
 40
0.0
 40
0.0527050579358412
 40
0.1061279058763858
 40
0.160271478903095
 40
0.2151385958224227
 40
0.2707319647143871
 40
0.3270541881744337
 40
0.3841077682619067
 40
0.4418951111699762
 40
0.500418531640711
 40
0.6190410088376326
 40
0.7500271579310275
 40
0.8150588915860751
 40
0.8983884735131833
 40
1.0
 40
1.0
 40
1.0
 40
1.0
 10
255.2517562487579
 20
276.5454887046051
 30
0.0
 10
255.2497468588982
 20
276.5453118750511
 30
0.0
 10
255.2457007133052
 20
276.5449558077021
 30
0.0
 10
255.2269383652895
 20
276.5457026861575
 30
0.0
 10
255.1985293732587
 20
276.5473897245458
 30
0.0
 10
255.1593515335227
 20
276.5501232437985
 30
0.0
 10
255.1095390395455
 20
276.5538882165561
 30
0.0
 10
255.0489974979943
 20
276.5587024683443
 30
0.0
 10
254.9778234410507
 20
276.5645746325156
 30
0.0
 10
254.8961847408838
 20
276.5715143935578
 30
0.0
 10
254.7733883377403
 20
276.5822447929932
 30
0.0
 10
254.5896644373103
 20
276.5988631868668
 30
0.0
 10
254.3760692863263
 20
276.6185697753987
 30
0.0
 10
254.1746284073673
 20
276.6376911848917
 30
0.0
 10
253.9880143394841
 20
276.6555023795773
 30
0.0
 10
253.8465470727738
 20
276.6692158911833
 30
0.0
 10
253.7688212224118
 20
276.676750456428
 30
0.0
  0
SPLINE
  5
E4
330
1F
100
AcDbEntity
  8
0
  6
Continuous
 62
     8
370
    18
100
AcDbSpline
210
0.0
220
0.0
230
1.0
 70
     8
 71
     3
 72
    21
 73
    17
 74
     0
 42
0.00000001
 43
0.00000001
 40
0.0
 40
0.0
 40
0.0
 40
0.0
 40
0.0527015852614037
 40
0.1061218296409175
 40
0.1602636681733066
 40
0.2151299194778015
 40
0.2707232913178549
 40
0.3270463858584027
 40
0.384101704625707
 40
0.4418916531887749
 40
0.5004185455848447
 40
0.6190205634992474
 40
0.7500271669111318
 40
0.8150462982106014
 40
0.8983758845579066
 40
1.0
 40
1.0
 40
1.0
 40
1.0
 10
255.2517562487584
 20
422.036168487068
 30
0.0
 10
255.2497470528937
 20
422.0363452977261
 30
0.0
 10
255.2457012629956
 20
422.0367013301006
 30
0.0
 10
255.2269407623165
 20
422.0359544147597
 30
0.0
 10
255.1985339763644
 20
422.0342673618777
 30
0.0
 10
255.1593582882808
 20
422.0315338424724
 30
0.0
 10
255.1095473718254
 20
422.0277688820858
 30
0.0
 10
255.0490063514241
 20
422.0229546446411
 30
0.0
 10
254.9778312974181
 20
422.0170825076619
 30
0.0
 10
254.8961896794038
 20
422.0101427157749
 30
0.0
 10
254.7734010618829
 20
421.9994138070541
 30
0.0
 10
254.58967796754
 20
421.9827952390117
 30
0.0
 10
254.3760925510034
 20
421.9630895251331
 30
0.0
 10
254.1746468480048
 20
421.9439679161942
 30
0.0
 10
253.9880336434487
 20
421.9261566736154
 30
0.0
 10
253.8465567170746
 20
421.912442231925
 30
0.0
 10
253.7688212224123
 20
421.9049067352461
 30
0.0
  0
SPLINE
  5
E5
330
1F
100
AcDbEntity
  8
0
  6
Continuous
 62
     8
370
    18
100
AcDbSpline
210
0.0
220
0.0
230
1.0
 70
     8
 71
     3
 72
    26
 73
    22
 74
     0
 42
0.00000001
 43
0.00000001
 40
0.0
 40
0.0
 40
0.0
 40
0.0
 40
0.03125
 40
0.03125
 40
0.0625
 40
0.0625
 40
0.125
 40
0.125
 40
0.25
 40
0.25
 40
0.375
 40
0.375
 40
0.5
 40
0.5
 40
0.625
 40
0.625
 40
0.75
 40
0.75
 40
0.875
 40
0.875
 40
1.0
 40
1.0
 40
1.0
 40
1.0
 10
107.0577299172503
 20
276.5454887046047
 30
0.0
 10
107.0583661251914
 20
276.5453239028574
 30
0.0
 10
107.0595954113918
 20
276.5452174831981
 30
0.0
 10
107.0632219428071
 20
276.5451201091006
 30
0.0
 10
107.0656191880221
 20
276.5451291546622
 30
0.0
 10
107.0745355659337
 20
276.5453275407452
 30
0.0
 10
107.0827793408968
 20
276.5456881306645
 30
0.0
 10
107.1141908648076
 20
276.5474393105486
 30
0.0
 10
107.1440388127769
 20
276.5494993106393
 30
0.0
 10
107.2203839325356
 20
276.5553212713382
 30
0.0
 10
107.2676084282827
 20
276.5591402780909
 30
0.0
 10
107.3765167464275
 20
276.5683046075696
 30
0.0
 10
107.4378898386511
 20
276.5736195916329
 30
0.0
 10
107.5743245246146
 20
276.5856993784247
 30
0.0
 10
107.6500509054102
 20
276.5925269127069
 30
0.0
 10
107.8092536298251
 20
276.6071007672821
 30
0.0
 10
107.8933101346924
 20
276.6148968885876
 30
0.0
 10
108.0704681206229
 20
276.6315229135313
 30
0.0
 10
108.1629653054781
 20
276.6402982227499
 30
0.0
 10
108.3493941541375
 20
276.6581618692452
 30
0.0
 10
108.4442054046076
 20
276.6673324890544
 30
0.0
 10
108.5406649435961
 20
276.6767504564277
 30
0.0
  0
SPLINE
  5
E6
330
1F
100
AcDbEntity
  8
0
  6
Continuous
 62
     8
370
    18
100
AcDbSpline
210
0.0
220
0.0
230
1.0
 70
     8
 71
     3
 72
     8
 73
     4
 74
     0
 42
0.00000001
 43
0.00000001
 40
0.0
 40
0.0
 40
0.0
 40
0.0
 40
1.0
 40
1.0
 40
1.0
 40
1.0
 10
107.0577299172506
 20
276.5454887046048
 30
0.0
 10
106.7180291874038
 20
325.0423819654259
 30
0.0
 10
106.7180291874048
 20
373.5392752262471
 30
0.0
 10
107.0577299172516
 20
422.0361684870683
 30
0.0
  0
SPLINE
  5
E7
330
1F
100
AcDbEntity
  8
0
  6
Continuous
 62
     8
370
    18
100
AcDbSpline
210
0.0
220
0.0
230
1.0
 70
     8
 71
     3
 72
    26
 73
    22
 74
     0
 42
0.00000001
 43
0.00000001
 40
0.0
 40
0.0
 40
0.0
 40
0.0
 40
0.03125
 40
0.03125
 40
0.0625
 40
0.0625
 40
0.125
 40
0.125
 40
0.25
 40
0.25
 40
0.375
 40
0.375
 40
0.5
 40
0.5
 40
0.625
 40
0.625
 40
0.75
 40
0.75
 40
0.875
 40
0.875
 40
1.0
 40
1.0
 40
1.0
 40
1.0
 10
107.0577299172501
 20
422.0361684870683
 30
0.0
 10
107.0583661251912
 20
422.0363332888157
 30
0.0
 10
107.0595954113915
 20
422.0364397084749
 30
0.0
 10
107.0632219428069
 20
422.0365370825725
 30
0.0
 10
107.0656191880219
 20
422.0365280370108
 30
0.0
 10
107.0745355659335
 20
422.0363296509279
 30
0.0
 10
107.0827793408965
 20
422.0359690610086
 30
0.0
 10
107.1141908648073
 20
422.0342178811245
 30
0.0
 10
107.1440388127765
 20
422.0321578810338
 30
0.0
 10
107.2203839325351
 20
422.026335920335
 30
0.0
 10
107.2676084282824
 20
422.0225169135823
 30
0.0
 10
107.376516746427
 20
422.0133525841035
 30
0.0
 10
107.4378898386509
 20
422.0080376000403
 30
0.0
 10
107.5743245246143
 20
421.9959578132487
 30
0.0
 10
107.6500509054104
 20
421.9891302789662
 30
0.0
 10
107.8092536298252
 20
421.9745564243913
 30
0.0
 10
107.8933101346926
 20
421.9667603030858
 30
0.0
 10
108.070468120623
 20
421.9501342781422
 30
0.0
 10
108.1629653054783
 20
421.9413589689237
 30
0.0
 10
108.3493941541376
 20
421.9234953224286
 30
0.0
 10
108.4442054046076
 20
421.9143247026193
 30
0.0
 10
108.5406649435961
 20
421.9049067352462
 30
0.0
  0
SPLINE
  5
E8
330
1F
100
AcDbEntity
  8
0
  6
Continuous
 62
     8
370
    18
100
AcDbSpline
210
0.0
220
0.0
230
1.0
 70
     8
 71
     3
 72
    26
 73
    22
 74
     0
 42
0.00000001
 43
0.00000001
 40
0.0
 40
0.0
 40
0.0
 40
0.0
 40
0.03125
 40
0.03125
 40
0.0625
 40
0.0625
 40
0.125
 40
0.125
 40
0.25
 40
0.25
 40
0.375
 40
0.375
 40
0.5
 40
0.5
 40
0.625
 40
0.625
 40
0.75
 40
0.75
 40
0.875
 40
0.875
 40
1.0
 40
1.0
 40
1.0
 40
1.0
 10
253.9000829742384
 20
275.1938154300806
 30
0.0
 10
253.9002477759858
 20
275.1944516380217
 30
0.0
 10
253.900354195645
 20
275.1956809242221
 30
0.0
 10
253.9004515697426
 20
275.1993074556374
 30
0.0
 10
253.9004425241809
 20
275.2017047008524
 30
0.0
 10
253.900244138098
 20
275.210621078764
 30
0.0
 10
253.8998835481786
 20
275.218864853727
 30
0.0
 10
253.8981323682945
 20
275.2502763776379
 30
0.0
 10
253.8960723682036
 20
275.2801243256072
 30
0.0
 10
253.8902504075045
 20
275.356469445366
 30
0.0
 10
253.8864314007517
 20
275.4036939411135
 30
0.0
 10
253.8772670712726
 20
275.5126022592582
 30
0.0
 10
253.8719520872091
 20
275.5739753514821
 30
0.0
 10
253.859872300417
 20
275.7104100374456
 30
0.0
 10
253.8530447661343
 20
275.7861364182428
 30
0.0
 10
253.8384709115587
 20
275.9453391426578
 30
0.0
 10
253.8306747902532
 20
276.0293956475236
 30
0.0
 10
253.814048765309
 20
276.2065536334542
 30
0.0
 10
253.8052734560901
 20
276.2990508183099
 30
0.0
 10
253.7874098095944
 20
276.4854796669694
 30
0.0
 10
253.7782391897848
 20
276.5802909174396
 30
0.0
 10
253.7688212224113
 20
276.6767504564279
 30
0.0
  0
LINE
  5
E9
330
1F
100
AcDbEntity
  8
0
  6
Continuous
 62
     8
370
    18
100
AcDbLine
 10
253.9000829742
 20
275.1938154301
 30
0.0
 11
202.8706352961
 21
275.0150834191
 31
0.0
  0
LINE
  5
EA
330
1F
100
AcDbEntity
  8
0
  6
Continuous
 62
     8
370
    18
100
AcDbLine
 10
159.4449963023
 20
275.0150896987
 30
0.0
 11
108.4094031918
 21
275.1938154301
 31
0.0
  0
SPLINE
  5
EB
330
1F
100
AcDbEntity
  8
0
  6
Continuous
 62
     8
370
    18
100
AcDbSpline
210
0.0
220
0.0
230
1.0
 70
     8
 71
     3
 72
    21
 73
    17
 74
     0
 42
0.00000001
 43
0.00000001
 40
0.0
 40
0.0
 40
0.0
 40
0.0
 40
0.0527050586770538
 40
0.1061279071732645
 40
0.1602714805700909
 40
0.2151385976737326
 40
0.2707319665646346
 40
0.3270541898388635
 40
0.3841077695545805
 40
0.4418951119050637
 40
0.5004185316338944
 40
0.6190410166257039
 40
0.7500271579267194
 40
0.8150588969040475
 40
0.8983884788292009
 40
1.0
 40
1.0
 40
1.0
 40
1.0
 10
108.409403191774
 20
275.1938154300814
 30
0.0
 10
108.4092263622161
 20
275.1958248199822
 30
0.0
 10
108.4088702948597
 20
275.1998709656505
 30
0.0
 10
108.4096171733074
 20
275.2186333140618
 30
0.0
 10
108.4113042116927
 20
275.2470423065649
 30
0.0
 10
108.4140377309454
 20
275.2862201467594
 30
0.0
 10
108.4178027037058
 20
275.3360326410726
 30
0.0
 10
108.4226169554966
 20
275.3965741827406
 30
0.0
 10
108.4284891196745
 20
275.4677482394671
 30
0.0
 10
108.4354288807062
 20
275.549386939012
 30
0.0
 10
108.4461592806342
 20
275.6721833456028
 30
0.0
 10
108.4627776743729
 20
275.8559072466944
 30
0.0
 10
108.4824842633883
 20
276.0695024017311
 30
0.0
 10
108.5016056729184
 20
276.2709432792554
 30
0.0
 10
108.5194168675767
 20
276.4575573475031
 30
0.0
 10
108.5331303787608
 20
276.5990246101367
 30
0.0
 10
108.5406649435961
 20
276.6767504564275
 30
0.0
  0
SPLINE
  5
EC
330
1F
100
AcDbEntity
  8
0
  6
Continuous
 62
     8
370
    18
100
AcDbSpline
210
0.0
220
0.0
230
1.0
 70
     8
 71
     3
 72
     8
 73
     4
 74
     0
 42
0.00000001
 43
0.00000001
 40
0.0
 40
0.0
 40
0.0
 40
0.0
 40
1.0
 40
1.0
 40
1.0
 40
1.0
 10
108.4094031917751
 20
423.3878417615917
 30
0.0
 10
156.9062964525946
 20
423.7275424914384
 30
0.0
 10
205.4031897134142
 20
423.7275424914392
 30
0.0
 10
253.9000829742337
 20
423.3878417615924
 30
0.0
  0
SPLINE
  5
ED
330
1F
100
AcDbEntity
  8
0
  6
Continuous
 62
     8
370
    18
100
AcDbSpline
210
0.0
220
0.0
230
1.0
 70
     8
 71
     3
 72
    26
 73
    22
 74
     0
 42
0.00000001
 43
0.00000001
 40
0.0
 40
0.0
 40
0.0
 40
0.0
 40
0.03125
 40
0.03125
 40
0.0625
 40
0.0625
 40
0.125
 40
0.125
 40
0.25
 40
0.25
 40
0.375
 40
0.375
 40
0.5
 40
0.5
 40
0.625
 40
0.625
 40
0.75
 40
0.75
 40
0.875
 40
0.875
 40
1.0
 40
1.0
 40
1.0
 40
1.0
 10
253.9000829742338
 20
423.3878417615928
 30
0.0
 10
253.9002477759812
 20
423.3872055536517
 30
0.0
 10
253.9003541956404
 20
423.3859762674513
 30
0.0
 10
253.900451569738
 20
423.382349736036
 30
0.0
 10
253.9004425241763
 20
423.379952490821
 30
0.0
 10
253.9002441380934
 20
423.3710361129095
 30
0.0
 10
253.899883548174
 20
423.3627923379464
 30
0.0
 10
253.8981323682901
 20
423.3313808140358
 30
0.0
 10
253.8960723681993
 20
423.3015328660665
 30
0.0
 10
253.8902504075005
 20
423.2251877463078
 30
0.0
 10
253.8864314007477
 20
423.1779632505603
 30
0.0
 10
253.8772670712691
 20
423.0690549324155
 30
0.0
 10
253.8719520872058
 20
423.0076818401917
 30
0.0
 10
253.8598723004141
 20
422.8712471542283
 30
0.0
 10
253.8530447661315
 20
422.795520773431
 30
0.0
 10
253.8384709115565
 20
422.6363180490161
 30
0.0
 10
253.8306747902512
 20
422.5522615441503
 30
0.0
 10
253.8140487653075
 20
422.3751035582196
 30
0.0
 10
253.8052734560889
 20
422.2826063733638
 30
0.0
 10
253.7874098095938
 20
422.0961775247044
 30
0.0
 10
253.7782391897845
 20
422.0013662742344
 30
0.0
 10
253.7688212224114
 20
421.9049067352461
 30
0.0
  0
SPLINE
  5
EE
330
1F
100
AcDbEntity
  8
0
  6
Continuous
 62
     8
370
    18
100
AcDbSpline
210
0.0
220
0.0
230
1.0
 70
     8
 71
     3
 72
    21
 73
    17
 74
     0
 42
0.00000001
 43
0.00000001
 40
0.0
 40
0.0
 40
0.0
 40
0.0
 40
0.0527015849058565
 40
0.1061218290188388
 40
0.1602636673753432
 40
0.2151299185915027
 40
0.2707232904326237
 40
0.3270463850644278
 40
0.3841017040111696
 40
0.4418916528430614
 40
0.5004185455963103
 40
0.6190205570890294
 40
0.7500271669238351
 40
0.8150462880619287
 40
0.8983758744116809
 40
0.9999999999999999
 40
0.9999999999999999
 40
0.9999999999999999
 40
0.9999999999999999
 10
108.409403191775
 20
423.3878417615938
 30
0.0
 10
108.4092263811189
 20
423.3858325657492
 30
0.0
 10
108.408870348748
 20
423.381786775888
 30
0.0
 10
108.4096172640929
 20
423.3630262753961
 30
0.0
 10
108.4113043169763
 20
423.3346194896709
 30
0.0
 10
108.4140378363817
 20
423.29544380181
 30
0.0
 10
108.4178027967668
 20
423.2456328855156
 30
0.0
 10
108.4226170342102
 20
423.1850918651691
 30
0.0
 10
108.4284891711854
 20
423.1139168110599
 30
0.0
 10
108.4354289630802
 20
423.0322751927462
 30
0.0
 10
108.4461578714263
 20
422.9094865782783
 30
0.0
 10
108.4627764396184
 20
422.7257634846374
 30
0.0
 10
108.4824821526516
 20
422.5121780753416
 30
0.0
 10
108.5016037611595
 20
422.3107323757067
 30
0.0
 10
108.5194150037584
 20
422.1241191718494
 30
0.0
 10
108.5331294461778
 20
421.9826422376858
 30
0.0
 10
108.540664943596
 20
421.9049067352477
 30
0.0
  0
LINE
  5
EF
330
1F
100
AcDbEntity
  8
0
  6
Continuous
 62
     8
370
    18
100
AcDbLine
 10
106.9193481309
 20
422.0371751906
 30
0.0
 11
107.0577299173
 21
422.0361684871
 31
0.0
  0
LINE
  5
F0
330
1F
100
AcDbEntity
  8
0
  6
Continuous
 62
     8
370
    18
100
AcDbLine
 10
106.9193481309
 20
276.544482001
 30
0.0
 11
107.0577299173
 21
276.5454887046
 31
0.0
  0
LINE
  5
F1
330
1F
100
AcDbEntity
  8
0
  6
Continuous
 62
     8
370
    18
100
AcDbLine
 10
253.9010896778
 20
423.5262235479
 30
0.0
 11
253.9000829742
 21
423.3878417616
 31
0.0
  0
LINE
  5
F2
330
1F
100
AcDbEntity
  8
0
  6
Continuous
 62
     8
370
    18
100
AcDbLine
 10
108.4083964882
 20
423.5262235479
 30
0.0
 11
108.4094031918
 21
423.3878417616
 31
0.0
  0
LINE
  5
F3
330
1F
100
AcDbEntity
  8
0
  6
Continuous
 62
     8
370
    18
100
AcDbLine
 10
255.3901380351
 20
276.544482001
 30
0.0
 11
255.2517562488
 21
276.5454887046
 31
0.0
  0
LINE
  5
F4
330
1F
100
AcDbEntity
  8
0
  6
Continuous
 62
     8
370
    18
100
AcDbLine
 10
255.3901380351
 20
422.0371751906
 30
0.0
 11
255.2517562488
 21
422.0361684871
 31
0.0
  0
LINE
  5
F5
330
1F
100
AcDbEntity
  8
0
  6
Continuous
 62
     8
370
    18
100
AcDbLine
 10
108.4083964882
 20
275.0554336438
 30
0.0
 11
108.4094031918
 21
275.1938154301
 31
0.0
  0
LINE
  5
F6
330
1F
100
AcDbEntity
  8
0
  6
Continuous
 62
     8
370
    18
100
AcDbLine
 10
253.9010896778
 20
275.0554336438
 30
0.0
 11
253.9000829742
 21
275.1938154301
 31
0.0
  0
SPLINE
  5
F7
330
1F
100
AcDbEntity
  8
0
  6
Continuous
 62
     8
370
    18
100
AcDbSpline
210
0.0
220
0.0
230
1.0
 70
     8
 71
     3
 72
    25
 73
    21
 74
     0
 42
0.00000001
 43
0.00000001
 40
0.0
 40
0.0
 40
0.0
 40
0.0
 40
0.0555740769933564
 40
0.1111416178191766
 40
0.1667034389905847
 40
0.2222603572237524
 40
0.2778131894090243
 40
0.3333627525819133
 40
0.3889098638941326
 40
0.4444553405845488
 40
0.4999999999501493
 40
0.555544659316977
 40
0.6110901360110873
 40
0.6666372473294613
 40
0.7221868105109713
 40
0.7777396427073171
 40
0.8332965609540267
 40
0.8888583821414351
 40
0.9444259229857195
 40
1.0
 40
1.0
 40
1.0
 40
1.0
 10
253.9000829742338
 20
423.3878417615915
 30
0.0
 10
253.9393131865435
 20
423.3865508275316
 30
0.0
 10
254.0177689972268
 20
423.383969111241
 30
0.0
 10
254.1344764000391
 20
423.3672408670415
 30
0.0
 10
254.249355018226
 20
423.3412349342015
 30
0.0
 10
254.3615425209771
 20
423.3052210877271
 30
0.0
 10
254.4702049758145
 20
423.259716131744
 30
0.0
 10
254.5745324951217
 20
423.2049932912503
 30
0.0
 10
254.673748075261
 20
423.1414785020581
 30
0.0
 10
254.7671125968668
 20
423.0696405271693
 30
0.0
 10
254.8539305537039
 20
422.9900160666871
 30
0.0
 10
254.9335550142012
 20
422.9031981098602
 30
0.0
 10
255.0053929891088
 20
422.809833588259
 30
0.0
 10
255.0689077783221
 20
422.7106180081175
 30
0.0
 10
255.1236306188379
 20
422.6062904888013
 30
0.0
 10
255.1691355748426
 20
422.4976280339474
 30
0.0
 10
255.2051494213364
 20
422.3854405311723
 30
0.0
 10
255.2311553541923
 20
422.2705619129541
 30
0.0
 10
255.2478835984028
 20
422.1538545101035
 30
0.0
 10
255.2504653146951
 20
422.0753986993925
 30
0.0
 10
255.2517562487557
 20
422.036168487068
 30
0.0
  0
SPLINE
  5
F8
330
1F
100
AcDbEntity
  8
0
  6
Continuous
 62
     8
370
    18
100
AcDbSpline
210
0.0
220
0.0
230
1.0
 70
     8
 71
     3
 72
    25
 73
    21
 74
     0
 42
0.00000001
 43
0.00000001
 40
0.0
 40
0.0
 40
0.0
 40
0.0
 40
0.0555740770039922
 40
0.1111416178392036
 40
0.1667034390187421
 40
0.2222603572587847
 40
0.2778131894496885
 40
0.3333627526269554
 40
0.3889098639422989
 40
0.4444553406345923
 40
0.5000000000008087
 40
0.5555446593670124
 40
0.6110901360592386
 40
0.6666372473744843
 40
0.7221868105516143
 40
0.7777396427423313
 40
0.8332965609821635
 40
0.8888583821614408
 40
0.944425922996349
 40
1.0
 40
1.0
 40
1.0
 40
1.0
 10
107.0577299172519
 20
422.0361684870683
 30
0.0
 10
107.0590208513122
 20
422.0753986993855
 30
0.0
 10
107.0616025676037
 20
422.1538545100829
 30
0.0
 10
107.0783308118087
 20
422.2705619129147
 30
0.0
 10
107.1043367446568
 20
422.3854405311175
 30
0.0
 10
107.140350591141
 20
422.4976280338809
 30
0.0
 10
107.1858555471352
 20
422.6062904887268
 30
0.0
 10
107.24057838764
 20
422.7106180080386
 30
0.0
 10
107.304093176843
 20
422.809833588179
 30
0.0
 10
107.3759311517413
 20
422.9031981097826
 30
0.0
 10
107.4555556122313
 20
422.9900160666145
 30
0.0
 10
107.5423735690633
 20
423.0696405271042
 30
0.0
 10
107.6357380906669
 20
423.1414785020023
 30
0.0
 10
107.7349536708073
 20
423.2049932912049
 30
0.0
 10
107.839281190119
 20
423.2597161317094
 30
0.0
 10
107.9479436449646
 20
423.3052210877032
 30
0.0
 10
108.0601311477275
 20
423.3412349341871
 30
0.0
 10
108.1750097659299
 20
423.3672408670349
 30
0.0
 10
108.291717168761
 20
423.3839691112398
 30
0.0
 10
108.370172979458
 20
423.3865508275313
 30
0.0
 10
108.409403191775
 20
423.3878417615915
 30
0.0
  0
SPLINE
  5
F9
330
1F
100
AcDbEntity
  8
0
  6
Continuous
 62
     8
370
    18
100
AcDbSpline
210
0.0
220
0.0
230
1.0
 70
     8
 71
     3
 72
    25
 73
    21
 74
     0
 42
0.00000001
 43
0.00000001
 40
0.0
 40
0.0
 40
0.0
 40
0.0
 40
0.0555740769952393
 40
0.1111416178227193
 40
0.16670343899556
 40
0.2222603572299378
 40
0.2778131894161982
 40
0.3333627525898604
 40
0.3889098639026278
 40
0.4444553405933716
 40
0.4999999999590711
 40
0.5555446593257899
 40
0.6110901360195596
 40
0.6666372473373773
 40
0.7221868105181175
 40
0.77773964271347
 40
0.83329656095897
 40
0.8888583821449411
 40
0.9444259229875819
 40
1.0
 40
1.0
 40
1.0
 40
1.0
 10
108.4094031917739
 20
275.1938154300818
 30
0.0
 10
108.3701729794629
 20
275.1951063641417
 30
0.0
 10
108.2917171687772
 20
275.1976880804326
 30
0.0
 10
108.1750097659614
 20
275.214416324633
 30
0.0
 10
108.0601311477718
 20
275.2404222574745
 30
0.0
 10
107.9479436450186
 20
275.2764361039506
 30
0.0
 10
107.8392811901797
 20
275.3219410599357
 30
0.0
 10
107.7349536708718
 20
275.3766639004313
 30
0.0
 10
107.6357380907322
 20
275.4401786896253
 30
0.0
 10
107.5423735691269
 20
275.5120166645158
 30
0.0
 10
107.4555556122908
 20
275.5916411249995
 30
0.0
 10
107.3759311517948
 20
275.6784590818271
 30
0.0
 10
107.3040931768889
 20
275.7718236034288
 30
0.0
 10
107.2405783876775
 20
275.87103918357
 30
0.0
 10
107.1858555471637
 20
275.9753667028853
 30
0.0
 10
107.1403505911609
 20
276.0840291577378
 30
0.0
 10
107.1043367446687
 20
276.1962166605106
 30
0.0
 10
107.0783308118143
 20
276.311095278726
 30
0.0
 10
107.0616025676047
 20
276.427802681573
 30
0.0
 10
107.0590208513126
 20
276.5062584922816
 30
0.0
 10
107.0577299172519
 20
276.5454887046047
 30
0.0
  0
SPLINE
  5
FA
330
1F
100
AcDbEntity
  8
0
  6
Continuous
 62
     8
370
    18
100
AcDbSpline
210
0.0
220
0.0
230
1.0
 70
     8
 71
     3
 72
    25
 73
    21
 74
     0
 42
0.00000001
 43
0.00000001
 40
0.0
 40
0.0
 40
0.0
 40
0.0
 40
0.0555740770111256
 40
0.1111416178526282
 40
0.1667034390376245
 40
0.2222603572822917
 40
0.2778131894769694
 40
0.3333627526571793
 40
0.3889098639746268
 40
0.4444553406681825
 40
0.5000000000348251
 40
0.5555446594006128
 40
0.6110901360915849
 40
0.6666372474047328
 40
0.7221868105789203
 40
0.7777396427658616
 40
0.8332965610010724
 40
0.8888583821748844
 40
0.9444259230034925
 40
1.0
 40
1.0
 40
1.0
 40
1.0
 10
255.2517562487557
 20
276.545488704605
 30
0.0
 10
255.2504653146952
 20
276.5062584922828
 30
0.0
 10
255.2478835984032
 20
276.4278026815761
 30
0.0
 10
255.2311553541944
 20
276.3110952787317
 30
0.0
 10
255.205149421341
 20
276.1962166605184
 30
0.0
 10
255.1691355748503
 20
276.0840291577472
 30
0.0
 10
255.123630618849
 20
275.9753667028959
 30
0.0
 10
255.0689077783369
 20
275.8710391835813
 30
0.0
 10
255.005392989127
 20
275.7718236034403
 30
0.0
 10
254.9335550142225
 20
275.6784590818384
 30
0.0
 10
254.8539305537278
 20
275.5916411250101
 30
0.0
 10
254.7671125968927
 20
275.5120166645256
 30
0.0
 10
254.673748075288
 20
275.440178689634
 30
0.0
 10
254.5745324951486
 20
275.3766639004385
 30
0.0
 10
254.4702049758404
 20
275.3219410599414
 30
0.0
 10
254.3615425210008
 20
275.2764361039548
 30
0.0
 10
254.2493550182465
 20
275.2404222574773
 30
0.0
 10
254.1344764000553
 20
275.2144163246345
 30
0.0
 10
254.0177689972375
 20
275.1976880804331
 30
0.0
 10
253.9393131865502
 20
275.1951063641419
 30
0.0
 10
253.9000829742384
 20
275.1938154300818
 30
0.0
  0
ARC
  5
FB
330
1F
100
AcDbEntity
  8
0
  6
Continuous
 62
     7
370
    25
100
AcDbCircle
 10
-6659.1480262474
 20
349.2908285959
 30
0.0
 40
7000.0
100
AcDbArc
 50
0.3226958348
 51
0.5964432739
  0
ARC
  5
FC
330
1F
100
AcDbEntity
  8
0
  6
Continuous
 62
     7
370
    25
100
AcDbCircle
 10
-6659.1480262474
 20
349.2908285959
 30
0.0
 40
7000.0
100
AcDbArc
 50
359.4035577662
 51
359.9228462212
  0
ARC
  5
FD
330
1F
100
AcDbEntity
  8
0
  6
Continuous
 62
     7
370
    25
100
AcDbCircle
 10
338.9727781118
 20
422.143128465
 30
0.0
 40
1.499999999999997
100
AcDbArc
 50
0.6099342096
 51
88.489888219
  0
ARC
  5
FE
330
1F
100
AcDbEntity
  8
0
  6
Continuous
 62
     7
370
    25
100
AcDbCircle
 10
338.9727781117
 20
276.4385287267
 30
0.0
 40
1.500000000000043
100
AcDbArc
 50
271.5235157126
 51
359.4065979697
  0
LINE
  5
FF
330
1F
100
AcDbEntity
  8
0
  6
Continuous
 62
     7
370
    25
100
AcDbLine
 10
333.3519737526
 20
274.7908285958
 30
0.0
 11
339.0120148795
 21
274.9390419889
 31
0.0
  0
LINE
  5
100
330
1F
100
AcDbEntity
  8
0
  6
Continuous
 62
     7
370
    25
100
AcDbLine
 10
339.0120148795
 20
423.6426152028
 30
0.0
 11
333.3519737526
 21
423.7908285958
 31
0.0
  0
SPLINE
  5
101
330
1F
100
AcDbEntity
  8
0
  6
Continuous
 62
     7
370
    25
100
AcDbSpline
210
0.0
220
0.0
230
1.0
 70
     8
 71
     3
 72
    19
 73
    15
 74
     0
 42
0.00000001
 43
0.00000001
 40
0.0
 40
0.0
 40
0.0
 40
0.0
 40
0.0888374628777847
 40
0.1907609281064233
 40
0.280247452868272
 40
0.3363454350417682
 40
0.3614776643387743
 40
0.3858631839668797
 40
0.436374510555803
 40
0.4939466709350868
 40
0.6352191870845006
 40
0.8038505789003373
 40
0.9810900434019922
 40
1.0
 40
1.0
 40
1.0
 40
1.0
 10
410.1639613072785
 20
386.1516764310072
 30
0.0
 10
409.9848954864567
 20
386.1775208959182
 30
0.0
 10
409.6003869574468
 20
386.2330167864259
 30
0.0
 10
408.9816013759833
 20
386.3057849014164
 30
0.0
 10
408.3073696694422
 20
386.370970738466
 30
0.0
 10
407.6655259815427
 20
386.4298163717054
 30
0.0
 10
407.1709831390375
 20
386.4804747888974
 30
0.0
 10
406.660321060191
 20
386.5373324516182
 30
0.0
 10
405.9499534913423
 20
386.6271739943644
 30
0.0
 10
404.712149735529
 20
386.8091690722969
 30
0.0
 10
403.1164829582395
 20
387.0847104069082
 30
0.0
 10
401.1603607693547
 20
387.4192768654463
 30
0.0
 10
399.7556240718191
 20
387.630041273805
 30
0.0
 10
398.890806800801
 20
387.7353118985997
 30
0.0
 10
398.8074333349581
 20
387.7454606053089
 30
0.0
  0
LINE
  5
102
330
1F
100
AcDbEntity
  8
0
  6
Continuous
 62
     7
370
    25
100
AcDbLine
 10
370.3519737526
 20
388.7908285958
 30
0.0
 11
340.7406879102
 21
388.7908285958
 31
0.0
  0
LINE
  5
103
330
1F
100
AcDbEntity
  8
0
  6
Continuous
 62
     7
370
    25
100
AcDbLine
 10
340.8453693591
 20
339.7908285958
 30
0.0
 11
370.3519737526
 21
339.7908285958
 31
0.0
  0
ARC
  5
104
330
1F
100
AcDbEntity
  8
0
  6
Continuous
 62
     7
370
    25
100
AcDbCircle
 10
370.3519737526
 20
364.2908285958
 30
0.0
 40
24.50000000000006
100
AcDbArc
 50
54.560918439
 51
90.0
  0
ARC
  5
105
330
1F
100
AcDbEntity
  8
0
  6
Continuous
 62
     7
370
    25
100
AcDbCircle
 10
370.3519737526
 20
364.2908285958
 30
0.0
 40
24.49999999999999
100
AcDbArc
 50
270.0
 51
286.4745381361
  0
SPLINE
  5
106
330
1F
100
AcDbEntity
  8
0
  6
Continuous
 62
     7
370
    25
100
AcDbSpline
210
0.0
220
0.0
230
1.0
 70
     8
 71
     3
 72
     9
 73
     5
 74
     0
 42
0.00000001
 43
0.00000001
 40
0.0
 40
0.0
 40
0.0
 40
0.0
 40
0.498474920164931
 40
1.0
 40
1.0
 40
1.0
 40
1.0
 10
411.4287306666781
 20
269.8373498271666
 30
0.0
 10
411.4470344171718
 20
269.8368571349271
 30
0.0
 10
411.4837539185014
 20
269.8358687356723
 30
0.0
 10
411.5209616304449
 20
269.8370849454026
 30
0.0
 10
411.5396222311478
 20
269.8376949050846
 30
0.0
  0
SPLINE
  5
107
330
1F
100
AcDbEntity
  8
0
  6
Continuous
 62
     7
370
    25
100
AcDbSpline
210
0.0
220
0.0
230
1.0
 70
     8
 71
     3
 72
    13
 73
     9
 74
     0
 42
0.00000001
 43
0.00000001
 40
0.0
 40
0.0
 40
0.0
 40
0.0
 40
0.2963040932576856
 40
0.553140821803333
 40
0.668294763031732
 40
0.7776227135261905
 40
0.8861171733801425
 40
1.0
 40
1.0
 40
1.0
 40
1.0
 10
407.6179968992557
 20
273.5296110212407
 30
0.0
 10
407.7555071363503
 20
272.9973796047814
 30
0.0
 10
408.0122114049842
 20
272.0038093848998
 30
0.0
 10
408.702443967957
 20
271.0229863622914
 30
0.0
 10
409.4253963966252
 20
270.4570868726225
 30
0.0
 10
410.0383882914888
 20
270.156430963134
 30
0.0
 10
410.7379419691965
 20
269.9610206546514
 30
0.0
 10
411.2331752389164
 20
269.9279280332497
 30
0.0
 10
411.4867918086939
 20
269.910980793155
 30
0.0
  0
LINE
  5
108
330
1F
100
AcDbEntity
  8
0
  6
Continuous
 62
     7
370
    25
100
AcDbLine
 10
412.2999096281
 20
364.2919172394
 30
0.0
 11
412.2999097297
 21
364.2919172394
 31
0.0
  0
SPLINE
  5
109
330
1F
100
AcDbEntity
  8
0
  6
Continuous
 62
     7
370
    25
100
AcDbSpline
210
0.0
220
0.0
230
1.0
 70
     8
 71
     3
 72
    11
 73
     7
 74
     0
 42
0.00000001
 43
0.00000001
 40
0.0
 40
0.0
 40
0.0
 40
0.0
 40
0.0947155144789688
 40
0.3999073163215463
 40
0.7019108042246296
 40
1.0
 40
1.0
 40
1.0
 40
1.0
 10
412.009669821772
 20
377.6251868955635
 30
0.0
 10
412.0001920966047
 20
377.8545843607768
 30
0.0
 10
411.9601752983293
 20
378.8231450573959
 30
0.0
 10
411.858763469222
 20
380.5500988339963
 30
0.0
 10
411.7018211204208
 20
382.7766539316937
 30
0.0
 10
411.5581497233832
 20
384.2363525105559
 30
0.0
 10
411.486782595665
 20
384.9614411298343
 30
0.0
  0
SPLINE
  5
10A
330
1F
100
AcDbEntity
  8
0
  6
Continuous
 62
     7
370
    25
100
AcDbSpline
210
0.0
220
0.0
230
1.0
 70
     8
 71
     3
 72
    12
 73
     8
 74
     0
 42
0.00000001
 43
0.00000001
 40
0.0
 40
0.0
 40
0.0
 40
0.0
 40
0.0276851807715879
 40
0.1922827659797311
 40
0.448361133668173
 40
0.7767788904003254
 40
1.0
 40
1.0
 40
1.0
 40
1.0
 10
412.299085176546
 20
364.3709941414045
 30
0.0
 10
412.2984685158099
 20
364.4300230069973
 30
0.0
 10
412.294185602399
 20
364.8399980634174
 30
0.0
 10
412.2838253389516
 20
365.8050680744881
 30
0.0
 10
412.2641777727382
 20
367.5073056219329
 30
0.0
 10
412.2416857717445
 20
369.3255551769937
 30
0.0
 10
412.2191644322485
 20
370.5345760613677
 30
0.0
 10
412.2100511541625
 20
371.023807331698
 30
0.0
  0
LINE
  5
10B
330
1F
100
AcDbEntity
  8
0
  6
Continuous
 62
     7
370
    25
100
AcDbLine
 10
391.9011683496
 20
339.0038001375
 30
0.0
 11
398.1570246482
 21
339.0038001375
 31
0.0
  0
LINE
  5
10C
330
1F
100
AcDbEntity
  8
0
  6
Continuous
 62
     7
370
    25
100
AcDbLine
 10
377.2999097297
 20
339.0038001374
 30
0.0
 11
383.9653786744
 21
339.0038001374
 31
0.0
  0
SPLINE
  5
10D
330
1F
100
AcDbEntity
  8
0
  6
Continuous
 62
     7
370
    25
100
AcDbSpline
210
0.0
220
0.0
230
1.0
 70
     8
 71
     3
 72
    15
 73
    11
 74
     0
 42
0.00000001
 43
0.00000001
 40
0.0
 40
0.0
 40
0.0
 40
0.0
 40
0.1309665662969869
 40
0.2554281106828115
 40
0.3747430451051929
 40
0.4927264612356957
 40
0.6117969653072649
 40
0.7343930929345026
 40
0.863010149164237
 40
1.0
 40
1.0
 40
1.0
 40
1.0
 10
398.1570246481823
 20
339.0039402325979
 30
0.0
 10
398.6551030259636
 20
339.0038819541863
 30
0.0
 10
399.6265205610323
 20
339.003768292013
 30
0.0
 10
401.0508427562165
 20
338.8606018976707
 30
0.0
 10
402.3707649247224
 20
338.4235658092614
 30
0.0
 10
403.517584550052
 20
337.6748603414773
 30
0.0
 10
404.4618925306402
 20
336.6673063327485
 30
0.0
 10
405.165665794877
 20
335.4356756139773
 30
0.0
 10
405.6276904456414
 20
334.0184652335942
 30
0.0
 10
405.7056976131684
 20
333.0083627328496
 30
0.0
 10
405.7459307168995
 20
332.4873906224681
 30
0.0
  0
SPLINE
  5
10E
330
1F
100
AcDbEntity
  8
0
  6
Continuous
 62
     7
370
    25
100
AcDbSpline
210
0.0
220
0.0
230
1.0
 70
     8
 71
     3
 72
    12
 73
     8
 74
     0
 42
0.00000001
 43
0.00000001
 40
0.0
 40
0.0
 40
0.0
 40
0.0
 40
0.2223809944295428
 40
0.4586410760074092
 40
0.6846625100282309
 40
0.913118975223534
 40
1.0
 40
1.0
 40
1.0
 40
1.0
 10
411.3430063872543
 20
269.8539250712892
 30
0.0
 10
411.0683023101618
 20
269.8770369407904
 30
0.0
 10
410.5017495171749
 20
269.9247031216339
 30
0.0
 10
409.6969836868779
 20
270.2343099549097
 30
0.0
 10
409.0085555818412
 20
270.7378045100808
 30
0.0
 10
408.5196610342049
 20
271.2248438877618
 30
0.0
 10
408.3752606941077
 20
271.5888402487103
 30
0.0
 10
408.3354758606366
 20
271.6891276482737
 30
0.0
  0
SPLINE
  5
10F
330
1F
100
AcDbEntity
  8
0
  6
Continuous
 62
     7
370
    25
100
AcDbSpline
210
0.0
220
0.0
230
1.0
 70
     8
 71
     3
 72
    10
 73
     6
 74
     0
 42
0.00000001
 43
0.00000001
 40
0.0
 40
0.0
 40
0.0
 40
0.0
 40
0.3753398874069377
 40
0.7077206247533833
 40
0.9999999999999999
 40
0.9999999999999999
 40
0.9999999999999999
 40
0.9999999999999999
 10
412.8800858338182
 20
271.0606951236862
 30
0.0
 10
412.9746146366609
 20
272.5571284667265
 30
0.0
 10
413.1528530431013
 20
275.3787223765955
 30
0.0
 10
413.1774391177862
 20
279.369209257407
 30
0.0
 10
413.1566800913045
 20
281.808063980689
 30
0.0
 10
413.1469669126198
 20
282.949207653012
 30
0.0
  0
SPLINE
  5
110
330
1F
100
AcDbEntity
  8
0
  6
Continuous
 62
     7
370
    25
100
AcDbSpline
210
0.0
220
0.0
230
1.0
 70
     8
 71
     3
 72
    11
 73
     7
 74
     0
 42
0.00000001
 43
0.00000001
 40
0.0
 40
0.0
 40
0.0
 40
0.0
 40
0.3174374530964084
 40
0.5862992337392352
 40
0.8120827990429332
 40
0.9999999999999999
 40
0.9999999999999999
 40
0.9999999999999999
 40
0.9999999999999999
 10
411.6793321692729
 20
269.8507509416665
 30
0.0
 10
411.6991729315044
 20
269.8517016954498
 30
0.0
 10
411.7358183354405
 20
269.8534577144993
 30
0.0
 10
412.0489343071644
 20
269.9416681817173
 30
0.0
 10
412.6126688911456
 20
270.2423837588371
 30
0.0
 10
412.8008055118372
 20
270.8571297426792
 30
0.0
 10
412.8862636739708
 20
271.1363686370794
 30
0.0
  0
LINE
  5
111
330
1F
100
AcDbEntity
  8
0
  6
Continuous
 62
     7
370
    25
100
AcDbLine
 10
383.9435755715
 20
338.9669726031
 30
0.0
 11
384.1640425318
 21
338.3671148892
 31
0.0
  0
LINE
  5
112
330
1F
100
AcDbEntity
  8
0
  6
Continuous
 62
     7
370
    25
100
AcDbLine
 10
391.7268424769
 20
338.3908742041
 30
0.0
 11
391.9435360931
 21
338.992105303
 31
0.0
  0
ARC
  5
113
330
1F
100
AcDbEntity
  8
0
  6
Continuous
 62
     7
370
    25
100
AcDbCircle
 10
391.538689983
 20
338.4586874699
 30
0.0
 40
0.1999999999999963
100
AcDbArc
 50
270.18
 51
340.18
  0
ARC
  5
114
330
1F
100
AcDbEntity
  8
0
  6
Continuous
 62
     7
370
    25
100
AcDbCircle
 10
384.3517652313
 20
338.4361090057
 30
0.0
 40
0.2000000000000113
100
AcDbArc
 50
200.18
 51
270.18
  0
LINE
  5
115
330
1F
100
AcDbEntity
  8
0
  6
Continuous
 62
     7
370
    25
100
AcDbLine
 10
384.3523935488
 20
338.2361099926
 30
0.0
 11
391.5393183005
 21
338.2586884569
 31
0.0
  0
LINE
  5
116
330
1F
100
AcDbEntity
  8
0
  6
Continuous
 62
     7
370
    25
100
AcDbLine
 10
411.5089339358
 20
384.7487608502
 30
0.0
 11
411.5028405626
 21
384.7687834417
 31
0.0
  0
LINE
  5
117
330
1F
100
AcDbEntity
  8
0
  6
Continuous
 62
     7
370
    25
100
AcDbLine
 10
333.3519737526
 20
422.0371751906
 30
0.0
 11
333.3519737526
 21
276.544482001
 31
0.0
  0
SPLINE
  5
118
330
1F
100
AcDbEntity
  8
0
  6
Continuous
 62
     7
370
    25
100
AcDbSpline
210
0.0
220
0.0
230
1.0
 70
     8
 71
     3
 72
    12
 73
     8
 74
     0
 42
0.00000001
 43
0.00000001
 40
0.0
 40
0.0
 40
0.0
 40
0.0
 40
0.2117399607768063
 40
0.4296203859755206
 40
0.6413603497846118
 40
0.8592408020153226
 40
1.0
 40
1.0
 40
1.0
 40
1.0
 10
340.7559008396323
 20
381.6162136673278
 30
0.0
 10
340.7539435013831
 20
382.5296254028841
 30
0.0
 10
340.7499720620242
 20
384.38293783831
 30
0.0
 10
340.7455207754421
 20
386.4601736677595
 30
0.0
 10
340.7423647747889
 20
387.9329512030764
 30
0.0
 10
340.7406828682253
 20
388.7178284703079
 30
0.0
 10
340.7406865771724
 20
388.7160976545835
 30
0.0
 10
340.7406880328631
 20
388.7154183425412
 30
0.0
  0
SPLINE
  5
119
330
1F
100
AcDbEntity
  8
0
  6
Continuous
 62
     7
370
    25
100
AcDbSpline
210
0.0
220
0.0
230
1.0
 70
     8
 71
     3
 72
    22
 73
    18
 74
     0
 42
0.00000001
 43
0.00000001
 40
0.0
 40
0.0
 40
0.0
 40
0.0
 40
0.0515343283855792
 40
0.1220983056429681
 40
0.1947086412244873
 40
0.2652726555144739
 40
0.3378830241166997
 40
0.408447163244661
 40
0.4810576582355745
 40
0.5516219552970605
 40
0.6242326146552498
 40
0.6947970335311643
 40
0.7674078232010609
 40
0.8379722743855215
 40
0.9105831032008275
 40
0.9550433649100769
 40
0.9999999999999999
 40
0.9999999999999999
 40
0.9999999999999999
 40
0.9999999999999999
 10
340.8453691531358
 20
339.8646402441399
 30
0.0
 10
340.8453574906682
 20
339.8700827255333
 30
0.0
 10
340.8453298592318
 20
339.8829773877408
 30
0.0
 10
340.8435497118656
 20
340.7137119969145
 30
0.0
 10
340.8403660731946
 20
342.1994080139914
 30
0.0
 10
340.8357490662576
 20
344.3540071008552
 30
0.0
 10
340.8299807544382
 20
347.0458787484762
 30
0.0
 10
340.8231022527601
 20
350.2558346796349
 30
0.0
 10
340.8154369547921
 20
353.832957150207
 30
0.0
 10
340.8070625255544
 20
357.7410014860326
 30
0.0
 10
340.798367153913
 20
361.7988130846487
 30
0.0
 10
340.7894400563654
 20
365.964757386807
 30
0.0
 10
340.7806957772026
 20
370.0453819457869
 30
0.0
 10
340.7722200695264
 20
374.0006694438559
 30
0.0
 10
340.7653740953052
 20
377.1954191025868
 30
0.0
 10
340.7599360898735
 20
379.733122436004
 30
0.0
 10
340.7572508917597
 20
380.9861978886436
 30
0.0
 10
340.7559008396323
 20
381.6162136673278
 30
0.0
  0
LINE
  5
11A
330
1F
100
AcDbEntity
  8
0
  6
Continuous
 62
     7
370
    18
100
AcDbLine
 10
333.3519737526
 20
275.0554336438
 30
0.0
 11
338.6367008031
 21
275.1938154301
 31
0.0
  0
LINE
  5
11B
330
1F
100
AcDbEntity
  8
0
  6
Continuous
 62
     7
370
    25
100
AcDbLine
 10
333.3519737526
 20
275.0554336438
 30
0.0
 11
333.3519737526
 21
276.544482001
 31
0.0
  0
LINE
  5
11C
330
1F
100
AcDbEntity
  8
0
  6
Continuous
 62
     7
370
    18
100
AcDbLine
 10
333.3519737526
 20
423.5262235479
 30
0.0
 11
338.6367008031
 21
423.3878417616
 31
0.0
  0
LINE
  5
11D
330
1F
100
AcDbEntity
  8
0
  6
Continuous
 62
     7
370
    25
100
AcDbLine
 10
333.3519737526
 20
423.5262235479
 30
0.0
 11
333.3519737526
 21
422.0371751906
 31
0.0
  0
LINE
  5
11E
330
1F
100
AcDbEntity
  8
0
  6
Continuous
 62
     7
370
    25
100
AcDbLine
 10
333.3519737526
 20
274.7908285958
 30
0.0
 11
333.3519737526
 21
275.0554336438
 31
0.0
  0
LINE
  5
11F
330
1F
100
AcDbEntity
  8
0
  6
Continuous
 62
     7
370
    25
100
AcDbLine
 10
333.3519737526
 20
423.7908285958
 30
0.0
 11
333.3519737526
 21
423.5262235479
 31
0.0
  0
SPLINE
  5
120
330
1F
100
AcDbEntity
  8
0
  6
Continuous
 62
     7
370
    25
100
AcDbSpline
210
0.0
220
0.0
230
1.0
 70
     8
 71
     3
 72
     8
 73
     4
 74
     0
 42
0.00000001
 43
0.00000001
 40
0.0033194910093246
 40
0.0033194910093246
 40
0.0033194910093246
 40
0.0033194910093246
 40
0.6901881950548778
 40
0.6901881950548778
 40
0.6901881950548778
 40
0.6901881950548778
 10
410.1650924590321
 20
386.1524224304203
 30
0.0
 10
402.6102776101466
 20
387.2713192200281
 30
0.0
 10
395.049631615829
 20
388.3876648358781
 30
0.0
 10
386.2765745230627
 20
388.973570692671
 30
0.0
  0
SPLINE
  5
121
330
1F
100
AcDbEntity
  8
0
  6
Continuous
 62
     7
370
    25
100
AcDbSpline
210
0.0
220
0.0
230
1.0
 70
     8
 71
     3
 72
     8
 73
     4
 74
     0
 42
0.00000001
 43
0.00000001
 40
0.0
 40
0.0
 40
0.0
 40
0.0
 40
1.0
 40
1.0
 40
1.0
 40
1.0
 10
377.6096770973201
 20
364.2902327075586
 30
0.0
 10
377.8125891408575
 20
365.4296925315235
 30
0.0
 10
378.1117094971692
 20
366.5407884077364
 30
0.0
 10
378.5060573139442
 20
367.6242501297369
 30
0.0
  0
SPLINE
  5
122
330
1F
100
AcDbEntity
  8
0
  6
Continuous
 62
     7
370
    25
100
AcDbSpline
210
0.0
220
0.0
230
1.0
 70
    24
 71
     3
 72
    36
 73
    32
 74
     0
 42
0.00000001
 43
0.00000001
 40
0.0
 40
0.0
 40
0.0
 40
0.0
 40
0.1250000000000009
 40
0.1250000000000009
 40
0.1875000000000014
 40
0.1875000000000014
 40
0.2500000000000018
 40
0.2500000000000018
 40
0.3750000000000018
 40
0.3750000000000018
 40
0.4062500000000017
 40
0.4062500000000017
 40
0.4375000000000015
 40
0.4375000000000015
 40
0.500000000000001
 40
0.500000000000001
 40
0.5625000000000004
 40
0.5625000000000004
 40
0.5937500000000003
 40
0.5937500000000003
 40
0.6250000000000002
 40
0.6250000000000002
 40
0.6875000000000002
 40
0.6875000000000002
 40
0.7500000000000002
 40
0.7500000000000002
 40
0.8125000000000002
 40
0.8125000000000002
 40
0.8750000000000002
 40
0.8750000000000002
 40
1.0
 40
1.0
 40
1.0
 40
1.0
 10
378.5060573139442
 20
367.6242501297369
 30
0.0
 10
379.0429192724566
 20
369.099266238114
 30
0.0
 10
379.5749019258495
 20
370.5608765658525
 30
0.0
 10
380.3652165830023
 20
372.7322482406439
 30
0.0
 10
380.6273359328682
 20
373.4524152356024
 30
0.0
 10
381.1484543646477
 20
374.8841763597781
 30
0.0
 10
381.4080545391657
 20
375.597421977353
 30
0.0
 10
382.1676247188881
 20
377.6843238946314
 30
0.0
 10
382.6525655902025
 20
379.0166879883384
 30
0.0
 10
383.2226191345508
 20
380.5828972293152
 30
0.0
 10
383.3352061031888
 20
380.8922273833732
 30
0.0
 10
383.5541415732064
 20
381.4937476435645
 30
0.0
 10
383.6604416345708
 20
381.7858046618495
 30
0.0
 10
383.9698385677349
 20
382.6358657493662
 30
0.0
 10
384.1634249643209
 20
383.1677400026995
 30
0.0
 10
384.5247117594648
 20
384.1603673143046
 30
0.0
 10
384.6923554487514
 20
384.6209645651338
 30
0.0
 10
384.9239124427822
 20
385.2571621775504
 30
0.0
 10
384.9980708381142
 20
385.460910694188
 30
0.0
 10
385.1381139038024
 20
385.8456758549174
 30
0.0
 10
385.2041277903895
 20
386.0270475176856
 30
0.0
 10
385.3911176123741
 20
386.5407978312564
 30
0.0
 10
385.5010707172038
 20
386.842891503975
 30
0.0
 10
385.6964051660344
 20
387.3795684913788
 30
0.0
 10
385.7824250700035
 20
387.6159062351572
 30
0.0
 10
385.9326857822113
 20
388.0287441489795
 30
0.0
 10
385.9968862617236
 20
388.2051335167578
 30
0.0
 10
386.1036479120584
 20
388.4984587403164
 30
0.0
 10
386.1464093033102
 20
388.6159446972048
 30
0.0
 10
386.2467621566639
 20
388.8916618957717
 30
0.0
 10
386.2765793787146
 20
388.9735840402083
 30
0.0
 10
386.2765745206667
 20
388.973570692831
 30
0.0
  0
SPLINE
  5
123
330
1F
100
AcDbEntity
  8
0
  6
Continuous
 62
     7
370
    25
100
AcDbSpline
210
0.0
220
0.0
230
1.0
 70
     8
 71
     3
 72
     8
 73
     4
 74
     0
 42
0.00000001
 43
0.00000001
 40
0.0
 40
0.0
 40
0.0
 40
0.0
 40
1.0
 40
1.0
 40
1.0
 40
1.0
 10
377.2999097296624
 20
360.7838472632235
 30
0.0
 10
377.2999097296624
 20
361.9552731632516
 30
0.0
 10
377.4020455047059
 20
363.1242700872764
 30
0.0
 10
377.6096770973201
 20
364.2902327075586
 30
0.0
  0
SPLINE
  5
124
330
1F
100
AcDbEntity
  8
0
  6
Continuous
 62
     7
370
    25
100
AcDbSpline
210
0.0
220
0.0
230
1.0
 70
    24
 71
     3
 72
    18
 73
    14
 74
     0
 42
0.00000001
 43
0.00000001
 40
0.0
 40
0.0
 40
0.0
 40
0.0
 40
0.1250000000000001
 40
0.1250000000000001
 40
0.2500000000000001
 40
0.2500000000000001
 40
0.5000000000000002
 40
0.5000000000000002
 40
0.6250000000000002
 40
0.6250000000000002
 40
0.7500000000000003
 40
0.7500000000000003
 40
1.0
 40
1.0
 40
1.0
 40
1.0
 10
377.2999097296624
 20
360.7838472632118
 30
0.0
 10
377.2999097296624
 20
360.1838414635436
 30
0.0
 10
377.2999097296624
 20
359.584536522123
 30
0.0
 10
377.2999097296625
 20
358.3982219376994
 30
0.0
 10
377.2999097296624
 20
357.8126968500385
 30
0.0
 10
377.2999097296623
 20
356.0782082113498
 30
0.0
 10
377.2999097296625
 20
354.9511156061384
 30
0.0
 10
377.2999097296625
 20
353.3046053100792
 30
0.0
 10
377.2999097296621
 20
352.7631759597982
 30
0.0
 10
377.2999097296623
 20
351.6958353105459
 30
0.0
 10
377.2999097296623
 20
351.168540255242
 30
0.0
 10
377.2999097296624
 20
349.6217972115338
 30
0.0
 10
377.2999097296624
 20
348.6437400910893
 30
0.0
 10
377.2999097296624
 20
347.7187799824347
 30
0.0
  0
LINE
  5
125
330
1F
100
AcDbEntity
  8
0
  6
Continuous
 62
     7
370
    25
100
AcDbLine
 10
405.56201735
 20
338.718503331
 30
0.0
 11
407.1861104133
 21
283.6931014485
 31
0.0
  0
SPLINE
  5
126
330
1F
100
AcDbEntity
  8
0
  6
Continuous
 62
     7
370
    25
100
AcDbSpline
210
0.0
220
0.0
230
1.0
 70
     8
 71
     3
 72
    14
 73
    10
 74
     0
 42
0.00000001
 43
0.00000001
 40
0.0
 40
0.0
 40
0.0
 40
0.0
 40
0.25
 40
0.25
 40
0.5
 40
0.5
 40
0.75
 40
0.75
 40
1.0
 40
1.0
 40
1.0
 40
1.0
 10
410.1650924590321
 20
386.1524224304203
 30
0.0
 10
410.3253634044234
 20
386.1286856943318
 30
0.0
 10
410.4908199276179
 20
386.0783216962757
 30
0.0
 10
410.8048625558456
 20
385.9189748525278
 30
0.0
 10
410.9529147583989
 20
385.8098868724647
 30
0.0
 10
411.2033840595945
 20
385.5469353356355
 30
0.0
 10
411.3053925946261
 20
385.3935007034077
 30
0.0
 10
411.4501873134936
 20
385.0711438613251
 30
0.0
 10
411.4931009471794
 20
384.9027534941975
 30
0.0
 10
411.5097823238945
 20
384.7407194199661
 30
0.0
  0
LINE
  5
127
330
1F
100
AcDbEntity
  8
0
  6
Continuous
 62
     7
370
    25
100
AcDbLine
 10
411.4288027086
 20
269.8373577431
 30
0.0
 11
411.6803826936
 21
269.8750277379
 31
0.0
  0
SPLINE
  5
128
330
1F
100
AcDbEntity
  8
0
  6
Continuous
 62
     7
370
    25
100
AcDbSpline
210
0.0
220
0.0
230
1.0
 70
    24
 71
     3
 72
    15
 73
    11
 74
     0
 42
0.00000001
 43
0.00000001
 40
0.0
 40
0.0
 40
0.0
 40
0.0
 40
0.1875
 40
0.25
 40
0.25
 40
0.5
 40
0.5
 40
0.75
 40
0.75
 40
1.0
 40
1.0
 40
1.0
 40
1.0
 10
407.4364195215523
 20
275.2124548709651
 30
0.0
 10
407.4364195215523
 20
275.2124548709651
 30
0.0
 10
407.4311901718616
 20
275.38962887338
 30
0.0
 10
407.4199770583218
 20
275.7695369542843
 30
0.0
 10
407.404193730028
 20
276.3042870877831
 30
0.0
 10
407.3859128710125
 20
276.9236552981614
 30
0.0
 10
407.3406792999671
 20
278.4562001267952
 30
0.0
 10
407.3137265879374
 20
279.3693767450507
 30
0.0
 10
407.2537858506111
 20
281.4002105901575
 30
0.0
 10
407.2207978253144
 20
282.5178678170088
 30
0.0
 10
407.186110413258
 20
283.6931014485175
 30
0.0
  0
LINE
  5
129
330
1F
100
AcDbEntity
  8
0
  6
Continuous
 62
     7
370
    25
100
AcDbLine
 10
407.6374113797
 20
273.5260706102
 30
0.0
 11
407.4364195216
 21
275.212454871
 31
0.0
  0
LINE
  5
12A
330
1F
100
AcDbEntity
  8
0
  6
Continuous
 62
     7
370
    25
100
AcDbLine
 10
413.1387988688
 20
283.7418053726
 30
0.0
 11
412.2999097297
 21
364.2919172394
 31
0.0
  0
SPLINE
  5
12B
330
1F
100
AcDbEntity
  8
0
  6
Continuous
 62
     7
370
    25
100
AcDbSpline
210
0.0
220
0.0
230
1.0
 70
     8
 71
     3
 72
     9
 73
     5
 74
     0
 42
0.00000001
 43
0.00000001
 40
0.0
 40
0.0
 40
0.0
 40
0.0
 40
0.6102156396201044
 40
1.0
 40
1.0
 40
1.0
 40
1.0
 10
411.9948126492015
 20
377.6246002194065
 30
0.0
 10
412.057557886869
 20
376.282525996004
 30
0.0
 10
412.1603825829167
 20
374.0831818031249
 30
0.0
 10
412.1847423353943
 20
371.8816728489981
 30
0.0
 10
412.1942373859329
 20
371.0235590894432
 30
0.0
  0
LINE
  5
12C
330
1F
100
AcDbEntity
  8
0
  6
Continuous
 62
     7
370
    25
100
AcDbLine
 10
412.2576168165
 20
366.9861013016
 30
0.0
 11
412.2999097297
 21
364.2919172394
 31
0.0
  0
SPLINE
  5
12D
330
1F
100
AcDbEntity
  8
0
  6
Continuous
 62
     7
370
    25
100
AcDbSpline
210
0.0
220
0.0
230
1.0
 70
     8
 71
     3
 72
    12
 73
     8
 74
     0
 42
0.00000001
 43
0.00000001
 40
0.0
 40
0.0
 40
0.0
 40
0.0
 40
0.2093254337109969
 40
0.4185853106012946
 40
0.6295888462987281
 40
0.8419919005424785
 40
1.0
 40
1.0
 40
1.0
 40
1.0
 10
387.8387224632887
 20
339.3319323167216
 30
0.0
 10
388.2857584190549
 20
339.3266434652446
 30
0.0
 10
389.1796903272656
 20
339.3160674186601
 30
0.0
 10
390.3903097159971
 20
339.2165115151795
 30
0.0
 10
391.3175727244406
 20
339.1030619291263
 30
0.0
 10
391.8742252427621
 20
339.0154340607832
 30
0.0
 10
391.893111812895
 20
339.0121127096618
 30
0.0
 10
391.9011683495899
 20
339.0106959046519
 30
0.0
  0
SPLINE
  5
12E
330
1F
100
AcDbEntity
  8
0
  6
Continuous
 62
     7
370
    25
100
AcDbSpline
210
0.0
220
0.0
230
1.0
 70
     8
 71
     3
 72
    12
 73
     8
 74
     0
 42
0.00000001
 43
0.00000001
 40
0.0
 40
0.0
 40
0.0
 40
0.0
 40
0.1920639060430976
 40
0.4076825655237186
 40
0.6255377508223683
 40
0.8448576557800579
 40
1.0
 40
1.0
 40
1.0
 40
1.0
 10
383.9653786744043
 20
339.0073170309356
 30
0.0
 10
383.9909431782973
 20
339.011647231409
 30
0.0
 10
384.0452074216323
 20
339.0208386889534
 30
0.0
 10
384.6615078789197
 20
339.1151992792219
 30
0.0
 10
385.6269231475935
 20
339.2289833049528
 30
0.0
 10
386.751813717125
 20
339.3140596261084
 30
0.0
 10
387.5203234672542
 20
339.3266966915895
 30
0.0
 10
387.8387224632887
 20
339.3319323167216
 30
0.0
  0
SPLINE
  5
12F
330
1F
100
AcDbEntity
  8
0
  6
Continuous
 62
     7
370
    25
100
AcDbSpline
210
0.0
220
0.0
230
1.0
 70
    24
 71
     3
 72
    13
 73
     9
 74
     0
 42
0.00000001
 43
0.00000001
 40
0.0
 40
0.0
 40
0.0
 40
0.0
 40
0.1527793199840309
 40
0.347829198803555
 40
0.5428810107643798
 40
0.7378972412598602
 40
0.9329154959453713
 40
1.0
 40
1.0
 40
1.0
 40
1.0
 10
377.2999097296624
 20
339.0666188804327
 30
0.0
 10
377.2999097296624
 20
339.0831085294303
 30
0.0
 10
377.2999097296624
 20
339.1206501378103
 30
0.0
 10
377.2999097296624
 20
340.0249757888088
 30
0.0
 10
377.2999097296624
 20
341.5797185145909
 30
0.0
 10
377.2999097296623
 20
343.8030059254847
 30
0.0
 10
377.2999097296624
 20
345.9566897119759
 30
0.0
 10
377.2999097296623
 20
347.358519132171
 30
0.0
 10
377.2999097296623
 20
347.7173136441975
 30
0.0
  0
SPLINE
  5
130
330
1F
100
AcDbEntity
  8
0
  6
Continuous
 62
     7
370
    25
100
AcDbSpline
210
0.0
220
0.0
230
1.0
 70
     8
 71
     3
 72
     9
 73
     5
 74
     0
 42
0.00000001
 43
0.00000001
 40
0.0
 40
0.0
 40
0.0
 40
0.0
 40
0.3838369481461476
 40
1.0
 40
1.0
 40
1.0
 40
1.0
 10
412.6262447174114
 20
270.4607340907061
 30
0.0
 10
412.6825448932748
 20
270.5372626614471
 30
0.0
 10
412.8292222158602
 20
270.736640473069
 30
0.0
 10
412.8646009187655
 20
270.9839280720906
 30
0.0
 10
412.8863999683183
 20
271.1362975537894
 30
0.0
  0
LINE
  5
131
330
1F
100
AcDbEntity
  8
0
  6
Continuous
 62
     7
370
    25
100
AcDbLine
 10
387.8398305671
 20
338.9792130894
 30
0.0
 11
391.9435360931
 21
338.992105303
 31
0.0
  0
LINE
  5
132
330
1F
100
AcDbEntity
  8
0
  6
Continuous
 62
     7
370
    25
100
AcDbLine
 10
383.9435755715
 20
338.9669726031
 30
0.0
 11
387.8398305671
 21
338.9792130894
 31
0.0
  0
SPLINE
  5
133
330
1F
100
AcDbEntity
  8
0
  6
Continuous
 62
     8
370
    18
100
AcDbSpline
210
0.0
220
0.0
230
1.0
 70
     8
 71
     3
 72
     8
 73
     4
 74
     0
 42
0.00000001
 43
0.00000001
 40
0.0
 40
0.0
 40
0.0
 40
0.0
 40
1.0
 40
1.0
 40
1.0
 40
1.0
 10
340.0986754564722
 20
421.9049067352465
 30
0.0
 10
340.5973900543955
 20
373.4955213089733
 30
0.0
 10
340.5973900543956
 20
325.0861358827001
 30
0.0
 10
340.0986754564713
 20
276.676750456427
 30
0.0
  0
LINE
  5
134
330
1F
100
AcDbEntity
  8
0
  6
Continuous
 62
     8
370
    18
100
AcDbLine
 10
340.4726655077
 20
422.1587217552
 30
0.0
 11
340.0986754565
 21
421.9049067352
 31
0.0
  0
SPLINE
  5
135
330
1F
100
AcDbEntity
  8
0
  6
Continuous
 62
     8
370
    18
100
AcDbSpline
210
0.0
220
0.0
230
1.0
 70
    24
 71
     3
 72
     9
 73
     5
 74
     0
 42
0.00000001
 43
0.00000001
 40
0.0
 40
0.0
 40
0.0
 40
0.0
 40
0.9999205653576928
 40
1.0
 40
1.0
 40
1.0
 40
1.0
 10
340.0986754564713
 20
276.6767504564277
 30
0.0
 10
340.3480034785456
 20
276.5075395465134
 30
0.0
 10
340.5973513074755
 20
276.3383151943232
 30
0.0
 10
340.4726770313254
 20
276.4229276158232
 30
0.0
 10
340.4726671278688
 20
276.4229343369807
 30
0.0
  0
SPLINE
  5
136
330
1F
100
AcDbEntity
  8
0
  6
Continuous
 62
     8
370
    18
100
AcDbSpline
210
0.0
220
0.0
230
1.0
 70
     8
 71
     3
 72
    21
 73
    17
 74
     0
 42
0.00000001
 43
0.00000001
 40
0.0
 40
0.0
 40
0.0
 40
0.0
 40
0.0527015849058565
 40
0.1061218290188388
 40
0.1602636673753432
 40
0.2151299185915027
 40
0.2707232904326237
 40
0.3270463850644278
 40
0.3841017040111696
 40
0.4418916528430614
 40
0.5004185455963103
 40
0.6190205570890294
 40
0.7500271669238351
 40
0.8150462880619287
 40
0.8983758744116809
 40
0.9999999999999999
 40
0.9999999999999999
 40
0.9999999999999999
 40
0.9999999999999999
 10
338.6367008030911
 20
423.3878417615938
 30
0.0
 10
338.6771551000187
 20
423.3858325657492
 30
0.0
 10
338.7586153443227
 20
423.381786775888
 30
0.0
 10
338.8804933113399
 20
423.3630262753961
 30
0.0
 10
339.0020889716089
 20
423.334619489671
 30
0.0
 10
339.1224441584399
 20
423.2954438018101
 30
0.0
 10
339.2405821009358
 20
423.2456328855156
 30
0.0
 10
339.355476972085
 20
423.1850918651691
 30
0.0
 10
339.4660702104779
 20
423.1139168110599
 30
0.0
 10
339.5712853001354
 20
423.0322751927462
 30
0.0
 10
339.7033693025849
 20
422.9094865782784
 30
0.0
 10
339.8537877235497
 20
422.7257634846374
 30
0.0
 10
339.9691063619019
 20
422.5121780753416
 30
0.0
 10
340.041004466629
 20
422.3107323757067
 30
0.0
 10
340.0864473861974
 20
422.1241191718495
 30
0.0
 10
340.0943392281021
 20
421.9826422376858
 30
0.0
 10
340.098675456472
 20
421.9049067352477
 30
0.0
  0
SPLINE
  5
137
330
1F
100
AcDbEntity
  8
0
  6
Continuous
 62
     8
370
    18
100
AcDbSpline
210
0.0
220
0.0
230
1.0
 70
     8
 71
     3
 72
    21
 73
    17
 74
     0
 42
0.00000001
 43
0.00000001
 40
0.0
 40
0.0
 40
0.0
 40
0.0
 40
0.0527050586770538
 40
0.1061279071732645
 40
0.1602714805700909
 40
0.2151385976737326
 40
0.2707319665646346
 40
0.3270541898388635
 40
0.3841077695545805
 40
0.4418951119050637
 40
0.5004185316338944
 40
0.6190410166257039
 40
0.7500271579267194
 40
0.8150588969040475
 40
0.8983884788292009
 40
1.0
 40
1.0
 40
1.0
 40
1.0
 10
338.6367008030894
 20
275.1938154300815
 30
0.0
 10
338.6771577685333
 20
275.1958248199822
 30
0.0
 10
338.7586226825458
 20
275.1998709656505
 30
0.0
 10
338.8805064767619
 20
275.2186333140618
 30
0.0
 10
339.0021057449329
 20
275.247042306565
 30
0.0
 10
339.1224623462986
 20
275.2862201467595
 30
0.0
 10
339.2405996231413
 20
275.3360326410727
 30
0.0
 10
339.3554919482547
 20
275.3965741827406
 30
0.0
 10
339.466081045126
 20
275.4677482394672
 30
0.0
 10
339.5712907760891
 20
275.5493869390121
 30
0.0
 10
339.7033824863391
 20
275.6721833456028
 30
0.0
 10
339.8537967033902
 20
275.8559072466944
 30
0.0
 10
339.9691162284122
 20
276.0695024017311
 30
0.0
 10
340.0410103984239
 20
276.2709432792555
 30
0.0
 10
340.0864495861856
 20
276.4575573475032
 30
0.0
 10
340.0943401645488
 20
276.5990246101368
 30
0.0
 10
340.0986754564713
 20
276.6767504564276
 30
0.0
  0
SPLINE
  5
138
330
1F
100
AcDbEntity
  8
0
  6
Continuous
 62
     8
370
    18
100
AcDbSpline
210
0.0
220
0.0
230
1.0
 70
    24
 71
     3
 72
     9
 73
     5
 74
     0
 42
0.00000001
 43
0.00000001
 40
0.0
 40
0.0
 40
0.0
 40
0.0
 40
0.9999208183683612
 40
1.0
 40
1.0
 40
1.0
 40
1.0
 10
338.6367008030911
 20
423.3878417615917
 30
0.0
 10
338.8869096530069
 20
423.5576768927714
 30
0.0
 10
339.1371383164364
 20
423.7275254728389
 30
0.0
 10
339.0120237207412
 20
423.6426010036025
 30
0.0
 10
339.0120138139634
 20
423.6425942791445
 30
0.0
  0
LINE
  5
139
330
1F
100
AcDbEntity
  8
0
  6
Continuous
 62
     8
370
    18
100
AcDbLine
 10
339.0120139076
 20
274.939062849
 30
0.0
 11
338.6367008031
 21
275.1938154301
 31
0.0
  0
SPLINE
  5
13A
330
1F
100
AcDbEntity
  8
0
  6
Continuous
 62
     8
370
    18
100
AcDbSpline
210
0.0
220
0.0
230
1.0
 70
     8
 71
     3
 72
    43
 73
    39
 74
     0
 42
0.00000001
 43
0.00000001
 40
0.0
 40
0.0
 40
0.0
 40
0.0
 40
0.0204727243745503
 40
0.040654460333902
 40
0.060550175203468
 40
0.0801578743314164
 40
0.0994739223335951
 40
0.1405498569988646
 40
0.1799696178205094
 40
0.2071413115013784
 40
0.2338511577366721
 40
0.2860862986639678
 40
0.3115316088535082
 40
0.349297043442421
 40
0.3742513530255508
 40
0.3866803316982879
 40
0.4371784694968331
 40
0.4623754025692974
 40
0.4749736361896472
 40
0.5001500697333684
 40
0.5379560958915209
 40
0.5886421047634811
 40
0.6294125127613774
 40
0.6704874417583931
 40
0.6981113296447028
 40
0.7249212638848462
 40
0.7451688897599336
 40
0.7519217942189101
 40
0.7654650098829797
 40
0.8065011522276471
 40
0.819392739185035
 40
0.8453610119538303
 40
0.8650313059721894
 40
0.871622880574492
 40
0.8845424814565194
 40
0.9109875418780059
 40
0.9550697694704877
 40
1.0
 40
1.0
 40
1.0
 40
1.0
 10
410.5127428843429
 20
343.8496317590438
 30
0.0
 10
410.4449345859525
 20
343.8462656971911
 30
0.0
 10
410.3102817802591
 20
343.8395814168983
 30
0.0
 10
410.1106194383385
 20
343.8215612063718
 30
0.0
 10
409.9149014456623
 20
343.7978969789818
 30
0.0
 10
409.7234958260093
 20
343.7681848072244
 30
0.0
 10
409.4656906133599
 20
343.7193020217122
 30
0.0
 10
409.1498067988913
 20
343.6415834297508
 30
0.0
 10
408.8208403327182
 20
343.5343211682996
 30
0.0
 10
408.5462969167511
 20
343.425420766515
 30
0.0
 10
408.2448443195219
 20
343.2876256023623
 30
0.0
 10
407.9650085716401
 20
343.1329656405562
 30
0.0
 10
407.6761768091468
 20
342.9450473222078
 30
0.0
 10
407.4684467222653
 20
342.7918646139678
 30
0.0
 10
407.3026089386533
 20
342.654490467976
 30
0.0
 10
407.1164495404544
 20
342.4896789568768
 30
0.0
 10
406.942752780992
 20
342.3176905873283
 30
0.0
 10
406.78416090369
 20
342.1397474545681
 30
0.0
 10
406.6764145810309
 20
342.0110629337168
 30
0.0
 10
406.5534377076751
 20
341.854699236635
 30
0.0
 10
406.3841039323282
 20
341.6155951842543
 30
0.0
 10
406.2154097117055
 20
341.3394372431693
 30
0.0
 10
406.0662164384866
 20
341.0539115058926
 30
0.0
 10
405.9595465960015
 20
340.8172437049384
 30
0.0
 10
405.877953884934
 20
340.610911081284
 30
0.0
 10
405.8210286881499
 20
340.4498918726317
 30
0.0
 10
405.7841803029007
 20
340.3341778004043
 30
0.0
 10
405.7581763919522
 20
340.2471824566632
 30
0.0
 10
405.7208390977022
 20
340.1157564148805
 30
0.0
 10
405.6855498110774
 20
339.9719340466403
 30
0.0
 10
405.6502630928095
 20
339.8028260763128
 30
0.0
 10
405.6277896713285
 20
339.6796037271417
 30
0.0
 10
405.6111774219805
 20
339.5703616546345
 30
0.0
 10
405.6001598734318
 20
339.4887885579205
 30
0.0
 10
405.5884908610411
 20
339.3932886277764
 30
0.0
 10
405.5719090312646
 20
339.2210981420083
 30
0.0
 10
405.5588215130521
 20
338.9859019425108
 30
0.0
 10
405.5609115144648
 20
338.8081943037934
 30
0.0
 10
405.5619664706726
 20
338.7184939928158
 30
0.0
  0
LINE
  5
13B
330
1F
100
AcDbEntity
  8
0
  6
Continuous
 62
     8
370
    18
100
AcDbLine
 10
370.3519737526
 20
388.7908285958
 30
0.0
 11
370.3519737526
 21
339.7908285958
 31
0.0
  0
SPLINE
  5
13C
330
1F
100
AcDbEntity
  8
0
  6
Continuous
 62
     8
370
    18
100
AcDbSpline
210
0.0
220
0.0
230
1.0
 70
     8
 71
     3
 72
    25
 73
    21
 74
     0
 42
0.00000001
 43
0.00000001
 40
0.0
 40
0.0
 40
0.0
 40
0.0
 40
0.0555558203716307
 40
0.1111116733085091
 40
0.1666674155576483
 40
0.2222229718255979
 40
0.2777785046164367
 40
0.3333340291163399
 40
0.3888895462146106
 40
0.4444450568004377
 40
0.5000005617628908
 40
0.5555560619909093
 40
0.6111115583732989
 40
0.6666670517987204
 40
0.7222225431556848
 40
0.777778033332544
 40
0.8333335232174847
 40
0.8888890136985187
 40
0.9444445056634766
 40
1.0
 40
1.0
 40
1.0
 40
1.0
 10
411.9511956197641
 20
343.871127659834
 30
0.0
 10
411.9644838044092
 20
342.7581389686939
 30
0.0
 10
411.9910601814887
 20
340.5321609340112
 30
0.0
 10
412.0309342819394
 20
337.1932884535
 30
0.0
 10
412.0708165626237
 20
333.8545272076508
 30
0.0
 10
412.1107079425377
 20
330.5159004706006
 30
0.0
 10
412.1505997575118
 20
327.1772551998014
 30
0.0
 10
412.190493684727
 20
323.8386174674016
 30
0.0
 10
412.2303892016961
 20
320.4999789853267
 30
0.0
 10
412.2702863616854
 20
317.16134182615
 30
0.0
 10
412.3101850629052
 20
313.8227053630585
 30
0.0
 10
412.3500852452565
 20
310.4840696925457
 30
0.0
 10
412.3899868375624
 20
307.1454347172826
 30
0.0
 10
412.4298897718693
 20
303.8068003919452
 30
0.0
 10
412.4697939790052
 20
300.4681666570326
 30
0.0
 10
412.5096993920175
 20
297.1295334577733
 30
0.0
 10
412.5496059368507
 20
293.7909007346806
 30
0.0
 10
412.5895135661829
 20
290.4522684424293
 30
0.0
 10
412.6294221333784
 20
287.113636483794
 30
0.0
 10
412.656028618968
 20
284.8878821906385
 30
0.0
 10
412.6693318620469
 20
283.7750050203073
 30
0.0
  0
SPLINE
  5
13D
330
1F
100
AcDbEntity
  8
0
  6
Continuous
 62
     8
370
    18
100
AcDbSpline
210
0.0
220
0.0
230
1.0
 70
     8
 71
     3
 72
    14
 73
    10
 74
     0
 42
0.00000001
 43
0.00000001
 40
0.0
 40
0.0
 40
0.0
 40
0.0
 40
0.2499999999999865
 40
0.2499999999999865
 40
0.4999999999999729
 40
0.4999999999999729
 40
0.7499999999999865
 40
0.7499999999999865
 40
1.0
 40
1.0
 40
1.0
 40
1.0
 10
410.5140964113342
 20
343.8497096775358
 30
0.0
 10
410.6760087347928
 20
343.8516328326825
 30
0.0
 10
410.8512601377066
 20
343.8538087048329
 30
0.0
 10
411.1934147755234
 20
343.8582986131251
 30
0.0
 10
411.3593517235623
 20
343.8606025152923
 30
0.0
 10
411.6384862237115
 20
343.8647709754605
 30
0.0
 10
411.7508034457955
 20
343.8666223819413
 30
0.0
 10
411.9021716971812
 20
343.8695023245413
 30
0.0
 10
411.9415196424738
 20
343.8705311105081
 30
0.0
 10
411.9511947383276
 20
343.8711699971146
 30
0.0
  0
SPLINE
  5
13E
330
1F
100
AcDbEntity
  8
0
  6
Continuous
 62
     8
370
    18
100
AcDbSpline
210
0.0
220
0.0
230
1.0
 70
     8
 71
     3
 72
    10
 73
     6
 74
     0
 42
0.00000001
 43
0.00000001
 40
0.0
 40
0.0
 40
0.0
 40
0.0
 40
0.5000000000000001
 40
0.5000000000000001
 40
1.0
 40
1.0
 40
1.0
 40
1.0
 10
411.7099123971134
 20
364.2919149637943
 30
0.0
 10
411.7500936859699
 20
360.8885486940831
 30
0.0
 10
411.7902868971485
 20
357.4851824081417
 30
0.0
 10
411.8707021535871
 20
350.6782331314598
 30
0.0
 10
411.9109241942745
 20
347.2746473864076
 30
0.0
 10
411.9511645370951
 20
343.8711248354233
 30
0.0
  0
SPLINE
  5
13F
330
1F
100
AcDbEntity
  8
0
  6
Continuous
 62
     8
370
    18
100
AcDbSpline
210
0.0
220
0.0
230
1.0
 70
     8
 71
     3
 72
    29
 73
    25
 74
     0
 42
0.00000001
 43
0.00000001
 40
0.0
 40
0.0
 40
0.0
 40
0.0
 40
0.0773560840184947
 40
0.1580364312942317
 40
0.2476674645234845
 40
0.2788288539501292
 40
0.3202755315212129
 40
0.3721704940376173
 40
0.4346133994485554
 40
0.497793505450997
 40
0.5146529542311955
 40
0.5356805009822008
 40
0.5608948439673878
 40
0.5903099647497267
 40
0.6239558437650363
 40
0.6660728053269662
 40
0.7081511654289014
 40
0.7501539294203066
 40
0.7906842590257075
 40
0.8752457846331353
 40
0.9052374978256917
 40
0.9359896736065182
 40
0.9675550429180162
 40
1.0
 40
1.0
 40
1.0
 40
1.0
 10
411.5097823238945
 20
384.7407194199661
 30
0.0
 10
411.509704177583
 20
384.7397736412957
 30
0.0
 10
411.5095445267381
 20
384.7378414405159
 30
0.0
 10
411.5081988306229
 20
384.7133337058644
 30
0.0
 10
411.508308811055
 20
384.6787567168473
 30
0.0
 10
411.5064892830826
 20
384.6197861742233
 30
0.0
 10
411.5035832265957
 20
384.521261410598
 30
0.0
 10
411.5010447841443
 20
384.2213447193555
 30
0.0
 10
411.5023700124151
 20
383.510358976243
 30
0.0
 10
411.5074420473864
 20
382.5748347327927
 30
0.0
 10
411.5137828870553
 20
381.7597713126658
 30
0.0
 10
411.5191227251595
 20
381.2029946834665
 30
0.0
 10
411.5266227974648
 20
380.4777179573559
 30
0.0
 10
411.536663684409
 20
379.5600615101434
 30
0.0
 10
411.5500328162282
 20
378.3810611143284
 30
0.0
 10
411.5663413336779
 20
376.9746335407585
 30
0.0
 10
411.5845471006583
 20
375.4064425568077
 30
0.0
 10
411.6038084918892
 20
373.8298642773053
 30
0.0
 10
411.6266148647618
 20
371.7090887365623
 30
0.0
 10
411.6477847029876
 20
369.7386483106748
 30
0.0
 10
411.6681501359049
 20
367.8931363082729
 30
0.0
 10
411.681419203418
 20
366.7206610000754
 30
0.0
 10
411.6953210414863
 20
365.5170424676659
 30
0.0
 10
411.7049883353269
 20
364.7040180865558
 30
0.0
 10
411.7098884030415
 20
364.2919198730648
 30
0.0
  0
SPLINE
  5
140
330
1F
100
AcDbEntity
  8
0
  6
Continuous
 62
     8
370
    18
100
AcDbSpline
210
0.0
220
0.0
230
1.0
 70
     8
 71
     3
 72
    20
 73
    16
 74
     0
 42
0.00000001
 43
0.00000001
 40
0.0
 40
0.0
 40
0.0
 40
0.0
 40
0.1271633062611262
 40
0.2488038395655184
 40
0.2788311678001018
 40
0.3317609662596642
 40
0.4058961790524503
 40
0.5000739734647816
 40
0.584656441931107
 40
0.6652689227937725
 40
0.7423104311591308
 40
0.8153055178108691
 40
0.8833234888897978
 40
0.9452007290830211
 40
0.9999999999999999
 40
0.9999999999999999
 40
0.9999999999999999
 40
0.9999999999999999
 10
412.6697306389921
 20
283.7418053725737
 30
0.0
 10
412.6809369574632
 20
282.8459050936861
 30
0.0
 10
412.7028628977757
 20
281.0930139821784
 30
0.0
 10
412.7321939689825
 20
279.1327588183994
 30
0.0
 10
412.7534325352522
 20
277.7289427551807
 30
0.0
 10
412.7695128528179
 20
276.6711082447217
 30
0.0
 10
412.7920046473388
 20
275.2539642860881
 30
0.0
 10
412.8161131726401
 20
273.8186230983303
 30
0.0
 10
412.8366906717131
 20
272.6909079934925
 30
0.0
 10
412.8515881366952
 20
271.9475978829173
 30
0.0
 10
412.8617858636297
 20
271.4971888550666
 30
0.0
 10
412.868105755181
 20
271.2726990105611
 30
0.0
 10
412.8721553044539
 20
271.1761724528049
 30
0.0
 10
412.8749433480191
 20
271.1448498294584
 30
0.0
 10
412.8765456821944
 20
271.1422911196292
 30
0.0
 10
412.8772982479313
 20
271.1410893744638
 30
0.0
  0
SPLINE
  5
141
330
1F
100
AcDbEntity
  8
0
  6
Continuous
 62
     8
370
    18
100
AcDbSpline
210
0.0
220
0.0
230
1.0
 70
     8
 71
     3
 72
    11
 73
     7
 74
     0
 42
0.00000001
 43
0.00000001
 40
0.0
 40
0.0
 40
0.0
 40
0.0
 40
0.137504088132116
 40
0.4315667678192689
 40
0.7262579031727544
 40
1.0
 40
1.0
 40
1.0
 40
1.0
 10
411.6803826935938
 20
269.8750277379374
 30
0.0
 10
411.7671125614414
 20
269.8833852049676
 30
0.0
 10
412.0393206772061
 20
269.9096157344184
 30
0.0
 10
412.436359948077
 20
270.1748187117199
 30
0.0
 10
412.7813381030726
 20
270.612812806439
 30
0.0
 10
412.8461067521607
 20
270.9693696083266
 30
0.0
 10
412.8772975847972
 20
271.1410777370232
 30
0.0
  0
SPLINE
  5
142
330
1F
100
AcDbEntity
  8
0
  6
Continuous
 62
     8
370
    18
100
AcDbSpline
210
0.0
220
0.0
230
1.0
 70
     8
 71
     3
 72
     9
 73
     5
 74
     0
 42
0.00000001
 43
0.00000001
 40
0.0
 40
0.0
 40
0.0
 40
0.0
 40
0.7249529025587672
 40
1.0
 40
1.0
 40
1.0
 40
1.0
 10
411.4262639192414
 20
269.8374516661503
 30
0.0
 10
410.9512357346248
 20
269.8709695175666
 30
0.0
 10
410.2959818789055
 20
269.917204040248
 30
0.0
 10
409.7673885150442
 20
270.2835635116623
 30
0.0
 10
409.6220004445876
 20
270.3843296208948
 30
0.0
  0
SPLINE
  5
143
330
1F
100
AcDbEntity
  8
0
  6
Continuous
 62
     8
370
    18
100
AcDbSpline
210
0.0
220
0.0
230
1.0
 70
    24
 71
     3
 72
     8
 73
     4
 74
     0
 42
0.00000001
 43
0.00000001
 40
0.0
 40
0.0
 40
0.0
 40
0.0
 40
0.9317346629283825
 40
0.9317346629283825
 40
0.9317346629283825
 40
0.9317346629283825
 10
412.2999097296624
 20
364.2919172393622
 30
0.0
 10
412.2999097296624
 20
364.2919172393622
 30
0.0
 10
412.1032399539404
 20
364.2919172393621
 30
0.0
 10
411.7099004024964
 20
364.291917239362
 30
0.0
  0
SPLINE
  5
144
330
1F
100
AcDbEntity
  8
0
  6
Continuous
 62
     8
370
    18
100
AcDbSpline
210
0.0
220
0.0
230
1.0
 70
     8
 71
     3
 72
     9
 73
     5
 74
     0
 42
0.00000001
 43
0.00000001
 40
0.0
 40
0.0
 40
0.0
 40
0.0
 40
0.7626773110903344
 40
1.0
 40
1.0
 40
1.0
 40
1.0
 10
411.509782323897
 20
384.7407194199424
 30
0.0
 10
411.6750682714614
 20
382.9340647891265
 30
0.0
 10
411.8917863318534
 20
380.5652325129533
 30
0.0
 10
411.975051852054
 20
378.1886234683572
 30
0.0
 10
411.9948126492015
 20
377.6246002194065
 30
0.0
  0
LINE
  5
145
330
1F
100
AcDbEntity
  8
0
  6
Continuous
 62
     8
370
    18
100
AcDbLine
 10
412.1942373859
 20
371.0235590894
 30
0.0
 11
412.2576168165
 21
366.9861013016
 31
0.0
  0
LINE
  5
146
330
1F
100
AcDbEntity
  8
0
  6
Continuous
 62
     8
370
    25
100
AcDbLine
 10
412.8863999683
 20
271.1362975538
 30
0.0
 11
412.8933539934
 21
271.3131014637
 31
0.0
  0
LINE
  5
147
330
1F
100
AcDbEntity
  8
0
  6
Continuous
 62
     8
370
    25
100
AcDbLine
 10
413.1607179399
 20
278.9181903557
 30
0.0
 11
413.1387988688
 21
283.7418053726
 31
0.0
  0
SPLINE
  5
148
330
1F
100
AcDbEntity
  8
0
  6
Continuous
 62
     8
370
    18
100
AcDbSpline
210
0.0
220
0.0
230
1.0
 70
     8
 71
     3
 72
     8
 73
     4
 74
     0
 42
0.00000001
 43
0.00000001
 40
0.0
 40
0.0
 40
0.0
 40
0.0
 40
1.0
 40
1.0
 40
1.0
 40
1.0
 10
412.8773116260767
 20
271.1410791395508
 30
0.0
 10
412.8835238649808
 20
271.1394461058797
 30
0.0
 10
412.88654189599
 20
271.137852383058
 30
0.0
 10
412.8863999683183
 20
271.1362975537896
 30
0.0
  0
LINE
  5
149
330
1F
100
AcDbEntity
  8
0
  6
Continuous
 62
     8
370
    18
100
AcDbLine
 10
384.1640425318
 20
338.3671148892
 30
0.0
 11
391.7268424769
 21
338.3908742041
 31
0.0
  0
ARC
  5
14A
330
1F
100
AcDbEntity
  8
0
  6
Continuous
 62
     7
370
    25
100
AcDbCircle
 10
181.154743083
 20
7191.2956151802
 30
0.0
 40
7000.0
100
AcDbArc
 50
269.4035581035
 51
269.8422049091
  0
ARC
  5
14B
330
1F
100
AcDbEntity
  8
0
  6
Continuous
 62
     7
370
    25
100
AcDbCircle
 10
181.154743083
 20
7191.2956151802
 30
0.0
 40
7000.0
100
AcDbArc
 50
270.1581696305
 51
270.5964431116
  0
ARC
  5
14C
330
1F
100
AcDbEntity
  8
0
  6
Continuous
 62
     7
370
    25
100
AcDbCircle
 10
254.0070429522
 20
193.1748108211
 30
0.0
 40
1.50000000000001
100
AcDbArc
 50
270.6099342096
 51
358.489888219
  0
ARC
  5
14D
330
1F
100
AcDbEntity
  8
0
  6
Continuous
 62
     7
370
    25
100
AcDbCircle
 10
108.3024432138
 20
193.1748108211
 30
0.0
 40
1.49999999999999
100
AcDbArc
 50
181.5235157126
 51
269.4065979697
  0
LINE
  5
14E
330
1F
100
AcDbEntity
  8
0
  6
Continuous
 62
     7
370
    25
100
AcDbLine
 10
106.654743083
 20
198.7956151802
 30
0.0
 11
106.802956476
 21
193.1355740533
 31
0.0
  0
LINE
  5
14F
330
1F
100
AcDbEntity
  8
0
  6
Continuous
 62
     7
370
    25
100
AcDbLine
 10
255.50652969
 20
193.1355740533
 30
0.0
 11
255.654743083
 21
198.7956151802
 31
0.0
  0
SPLINE
  5
150
330
1F
100
AcDbEntity
  8
0
  6
Continuous
 62
     7
370
    25
100
AcDbSpline
210
0.0
220
0.0
230
1.0
 70
     8
 71
     3
 72
    16
 73
    12
 74
     0
 42
0.00000001
 43
0.00000001
 40
0.0
 40
0.0
 40
0.0
 40
0.0
 40
0.1557212967018842
 40
0.3559251746688244
 40
0.5493938060052199
 40
0.6745634874191053
 40
0.7287249717968333
 40
0.778066419376167
 40
0.8253767351753686
 40
0.8755198431207365
 40
1.0
 40
1.0
 40
1.0
 40
1.0
 10
156.2545989124626
 20
143.3528054268701
 30
0.0
 10
156.2673118326949
 20
142.7930056087906
 30
0.0
 10
156.2963691835522
 20
141.5134963043506
 30
0.0
 10
156.3583417172493
 20
139.6168797481832
 30
0.0
 10
156.432958475859
 20
137.8277661095797
 30
0.0
 10
156.4892013401893
 20
136.4843511460778
 30
0.0
 10
156.5185725464258
 20
135.6400322109008
 30
0.0
 10
156.5337386429153
 20
135.0909468693565
 30
0.0
 10
156.5426238530148
 20
134.6085414785992
 30
0.0
 10
156.5457605229052
 20
134.0604806810349
 30
0.0
 10
156.5478967172788
 20
133.8910142679934
 30
0.0
 10
156.5494195029798
 20
133.7702101718018
 30
0.0
  0
LINE
  5
151
330
1F
100
AcDbEntity
  8
0
  6
Continuous
 62
     7
370
    25
100
AcDbLine
 10
156.0836498262
 20
154.437181235
 30
0.0
 11
156.1045645882
 21
152.1476616744
 31
0.0
  0
LINE
  5
152
330
1F
100
AcDbEntity
  8
0
  6
Continuous
 62
     7
370
    25
100
AcDbLine
 10
206.2049215778
 20
152.1476616744
 30
0.0
 11
206.2258363398
 21
154.437181235
 31
0.0
  0
SPLINE
  5
153
330
1F
100
AcDbEntity
  8
0
  6
Continuous
 62
     7
370
    25
100
AcDbSpline
210
0.0
220
0.0
230
1.0
 70
     8
 71
     3
 72
    16
 73
    12
 74
     0
 42
0.00000001
 43
0.00000001
 40
0.0
 40
0.0
 40
0.0
 40
0.0
 40
0.1244808606167861
 40
0.1746242520417699
 40
0.2219348353056394
 40
0.2712765618324676
 40
0.3545558247455561
 40
0.4506030880458162
 40
0.6440728131399563
 40
0.8442778229417625
 40
1.0
 40
1.0
 40
1.0
 40
1.0
 10
205.7600666630213
 20
133.7702101718018
 30
0.0
 10
205.7615892282699
 20
133.8910132791386
 30
0.0
 10
205.7637251133884
 20
134.0604783049947
 30
0.0
 10
205.766863044335
 20
134.6085447591143
 30
0.0
 10
205.7757448358429
 20
135.0909348155416
 30
0.0
 10
205.7938553510966
 20
135.7461045239192
 30
0.0
 10
205.824908566781
 20
136.5932143275344
 30
0.0
 10
205.8805967213595
 20
137.9262710365088
 30
0.0
 10
205.9511867369598
 20
139.6175602965226
 30
0.0
 10
206.0131089870531
 20
141.5133676336483
 30
0.0
 10
206.0421718998811
 20
142.7929664474353
 30
0.0
 10
206.0548872535385
 20
143.3528054268679
 30
0.0
  0
LINE
  5
154
330
1F
100
AcDbEntity
  8
0
  6
Continuous
 62
     7
370
    25
100
AcDbLine
 10
205.654743083
 20
161.7956151802
 30
0.0
 11
205.654743083
 21
191.3545599602
 31
0.0
  0
LINE
  5
155
330
1F
100
AcDbEntity
  8
0
  6
Continuous
 62
     7
370
    25
100
AcDbLine
 10
156.654743083
 20
191.3545647604
 30
0.0
 11
156.654743083
 21
161.7956151802
 31
0.0
  0
ARC
  5
156
330
1F
100
AcDbEntity
  8
0
  6
Continuous
 62
     7
370
    25
100
AcDbCircle
 10
181.154743083
 20
161.7956151802
 30
0.0
 40
24.49999999999998
100
AcDbArc
 50
180.0
 51
197.3289428165
  0
ARC
  5
157
330
1F
100
AcDbEntity
  8
0
  6
Continuous
 62
     7
370
    25
100
AcDbCircle
 10
181.154743083
 20
161.7956151802
 30
0.0
 40
24.5
100
AcDbArc
 50
342.6733995939
 51
0.0
  0
SPLINE
  5
158
330
1F
100
AcDbEntity
  8
0
  6
Continuous
 62
     7
370
    25
100
AcDbSpline
210
0.0
220
0.0
230
1.0
 70
     8
 71
     3
 72
    14
 73
    10
 74
     0
 42
0.00000001
 43
0.00000001
 40
0.0
 40
0.0
 40
0.0
 40
0.0
 40
0.2127496933792201
 40
0.3808140094168806
 40
0.5412012026230079
 40
0.692136057973693
 40
0.8338661331001068
 40
0.971427775176844
 40
1.0
 40
1.0
 40
1.0
 40
1.0
 10
156.7064920968912
 20
129.7679252891203
 30
0.0
 10
156.7364301873568
 20
129.0388188713268
 30
0.0
 10
156.7900182517315
 20
127.7337456002854
 30
0.0
 10
156.8658157525906
 20
125.9915663335657
 30
0.0
 10
156.9287913399664
 20
124.5811989586443
 30
0.0
 10
156.9744897319237
 20
123.4050083810712
 30
0.0
 10
156.9959337379054
 20
122.5068979230495
 30
0.0
 10
157.0006107215645
 20
121.9803979505604
 30
0.0
 10
156.9998333020051
 20
121.8034039351454
 30
0.0
 10
156.9996995989447
 20
121.7729639478319
 30
0.0
  0
SPLINE
  5
159
330
1F
100
AcDbEntity
  8
0
  6
Continuous
 62
     7
370
    25
100
AcDbSpline
210
0.0
220
0.0
230
1.0
 70
     8
 71
     3
 72
    19
 73
    15
 74
     0
 42
0.00000001
 43
0.00000001
 40
0.0
 40
0.0
 40
0.0
 40
0.0
 40
0.0009510758090722
 40
0.107742221608117
 40
0.2206565245627932
 40
0.3399312744978012
 40
0.4558870831096337
 40
0.5234700744925811
 40
0.5886031128502156
 40
0.6569308221606227
 40
0.7358393658211636
 40
0.8550444435876144
 40
0.9761590075621616
 40
1.0
 40
1.0
 40
1.0
 40
1.0
 10
205.3519251978477
 20
121.6975520609892
 30
0.0
 10
205.3519129423751
 20
121.6988982494758
 30
0.0
 10
205.3505245863287
 20
121.8514006440003
 30
0.0
 10
205.3354934686167
 20
122.1145649487646
 30
0.0
 10
205.3244960419859
 20
122.4374085784861
 30
0.0
 10
205.3214392941976
 20
122.6505303308062
 30
0.0
 10
205.3225610860754
 20
123.0207418439825
 30
0.0
 10
205.3454087272423
 20
123.694892895658
 30
0.0
 10
205.3838594095779
 20
124.5837012255274
 30
0.0
 10
205.4412962498035
 20
125.9023028231639
 30
0.0
 10
205.5207477204112
 20
127.7763175670947
 30
0.0
 10
205.6161305649952
 20
130.0568532271399
 30
0.0
 10
205.6907091091296
 20
131.9451105382386
 30
0.0
 10
205.7304613235545
 20
132.9813746583154
 30
0.0
 10
205.7369994119655
 20
133.151810105302
 30
0.0
  0
LINE
  5
15A
330
1F
100
AcDbEntity
  8
0
  6
Continuous
 62
     7
370
    25
100
AcDbLine
 10
205.292373004
 20
121.218212797
 30
0.0
 11
205.3499480589
 21
121.6794542844
 31
0.0
  0
LINE
  5
15B
330
1F
100
AcDbEntity
  8
0
  6
Continuous
 62
     7
370
    25
100
AcDbLine
 10
156.9595381071
 20
121.6794542844
 30
0.0
 11
157.017113162
 21
121.218212797
 31
0.0
  0
SPLINE
  5
15C
330
1F
100
AcDbEntity
  8
0
  6
Continuous
 62
     7
370
    25
100
AcDbSpline
210
0.0
220
0.0
230
1.0
 70
     8
 71
     3
 72
    21
 73
    17
 74
     0
 42
0.00000001
 43
0.00000001
 40
0.0
 40
0.0
 40
0.0
 40
0.0
 40
0.1015156151338452
 40
0.1913667595448222
 40
0.2696011349960449
 40
0.3374470207859412
 40
0.4021216087643081
 40
0.4648412850518657
 40
0.5106011969819466
 40
0.5552634769969736
 40
0.6043614296134852
 40
0.6634694573716134
 40
0.73258741246958
 40
0.8117151031281629
 40
0.9008524878154339
 40
1.0
 40
1.0
 40
1.0
 40
1.0
 10
157.0559523231561
 20
121.098239858817
 30
0.0
 10
157.1135006899657
 20
120.9763106939921
 30
0.0
 10
157.2219849311233
 20
120.7464624175887
 30
0.0
 10
157.4324751551051
 20
120.5084284499315
 30
0.0
 10
157.5987742942112
 20
120.3561305943061
 30
0.0
 10
157.6907862399808
 20
120.2830330133571
 30
0.0
 10
157.7725684803083
 20
120.2192667521937
 30
0.0
 10
157.8374746850024
 20
120.169169179643
 30
0.0
 10
157.886933436002
 20
120.1290852038881
 30
0.0
 10
157.9259919245281
 20
120.0969852575946
 30
0.0
 10
157.967048475638
 20
120.0633180340691
 30
0.0
 10
158.0168822385758
 20
120.0224662624728
 30
0.0
 10
158.0757306052474
 20
119.9742364947607
 30
0.0
 10
158.1440270602361
 20
119.9182574325688
 30
0.0
 10
158.2215801586713
 20
119.8546781555919
 30
0.0
 10
158.2766369194273
 20
119.8095198563552
 30
0.0
 10
158.3056288404395
 20
119.7857402909297
 30
0.0
  0
SPLINE
  5
15D
330
1F
100
AcDbEntity
  8
0
  6
Continuous
 62
     7
370
    25
100
AcDbSpline
210
0.0
220
0.0
230
1.0
 70
     8
 71
     3
 72
    21
 73
    17
 74
     0
 42
0.00000001
 43
0.00000001
 40
0.0
 40
0.0
 40
0.0
 40
0.0
 40
0.099147714092786
 40
0.1882852658578713
 40
0.2674130887657538
 40
0.3365311412935283
 40
0.3956392316790275
 40
0.4447372123267399
 40
0.4893995907169003
 40
0.5351595824075507
 40
0.5978793371911773
 40
0.6625539726907677
 40
0.7303999250112885
 40
0.8086342458165006
 40
0.8984850501018414
 40
1.0
 40
1.0
 40
1.0
 40
1.0
 10
204.0038298715074
 20
119.7857178875641
 30
0.0
 10
204.0328217228148
 20
119.8094974019059
 30
0.0
 10
204.0878783469749
 20
119.8546556006681
 30
0.0
 10
204.1654300322927
 20
119.9182337718741
 30
0.0
 10
204.2337242204044
 20
119.9742110591216
 30
0.0
 10
204.2925691816905
 20
120.0224381779073
 30
0.0
 10
204.342399095468
 20
120.0632869679578
 30
0.0
 10
204.3834492077833
 20
120.096949278779
 30
0.0
 10
204.422504044527
 20
120.1290464674597
 30
0.0
 10
204.4719672034631
 20
120.1691336100312
 30
0.0
 10
204.5368870779812
 20
120.2192416447029
 30
0.0
 10
204.6186935749479
 20
120.2830267420759
 30
0.0
 10
204.7107468447053
 20
120.356162846756
 30
0.0
 10
204.876941106961
 20
120.5083630455196
 30
0.0
 10
205.0872507025972
 20
120.7461419542508
 30
0.0
 10
205.195705382365
 20
120.9756840994739
 30
0.0
 10
205.2532379927833
 20
121.0974507105965
 30
0.0
  0
SPLINE
  5
15E
330
1F
100
AcDbEntity
  8
0
  6
Continuous
 62
     7
370
    25
100
AcDbSpline
210
0.0
220
0.0
230
1.0
 70
     8
 71
     3
 72
    11
 73
     7
 74
     0
 42
0.00000001
 43
0.00000001
 40
0.0
 40
0.0
 40
0.0
 40
0.0
 40
0.3025440090802135
 40
0.6570132929039089
 40
0.8941007063398508
 40
1.0
 40
1.0
 40
1.0
 40
1.0
 10
202.8044073110813
 20
119.4111486286405
 30
0.0
 10
202.9267554838891
 20
119.4199701886662
 30
0.0
 10
203.1924503034349
 20
119.4391273427563
 30
0.0
 10
203.3421895116537
 20
119.4748760380191
 30
0.0
 10
203.4497837586695
 20
119.5032326055313
 30
0.0
 10
203.5450137734111
 20
119.5381988718948
 30
0.0
 10
203.57441663681
 20
119.5489949255995
 30
0.0
  0
SPLINE
  5
15F
330
1F
100
AcDbEntity
  8
0
  6
Continuous
 62
     7
370
    25
100
AcDbSpline
210
0.0
220
0.0
230
1.0
 70
     8
 71
     3
 72
     9
 73
     5
 74
     0
 42
0.00000001
 43
0.00000001
 40
0.0
 40
0.0
 40
0.0
 40
0.0
 40
0.7994111621285125
 40
1.0
 40
1.0
 40
1.0
 40
1.0
 10
158.3317307419601
 20
119.7649607134541
 30
0.0
 10
158.4362549569531
 20
119.6667846088789
 30
0.0
 10
158.5670064649941
 20
119.5439740837998
 30
0.0
 10
159.0138778400483
 20
119.4889979418412
 30
0.0
 10
159.1035152498485
 20
119.477970341415
 30
0.0
  0
SPLINE
  5
160
330
1F
100
AcDbEntity
  8
0
  6
Continuous
 62
     7
370
    25
100
AcDbSpline
210
0.0
220
0.0
230
1.0
 70
     8
 71
     3
 72
    17
 73
    13
 74
     0
 42
0.00000001
 43
0.00000001
 40
0.0
 40
0.0
 40
0.0
 40
0.0
 40
0.1315079788850002
 40
0.2622594905647407
 40
0.3638276822842967
 40
0.4330736762878815
 40
0.4719270727854528
 40
0.5355242367730526
 40
0.6251858588089348
 40
0.8022488231695393
 40
0.9022254885852201
 40
1.0
 40
1.0
 40
1.0
 40
1.0
 10
159.7599758041075
 20
119.3930062607606
 30
0.0
 10
160.280539715528
 20
119.3648996985181
 30
0.0
 10
161.3186731228927
 20
119.3088482500985
 30
0.0
 10
162.8485787174197
 20
119.2442973746553
 30
0.0
 10
164.0958775331961
 20
119.1986992830373
 30
0.0
 10
164.9668906120149
 20
119.170698461864
 30
0.0
 10
165.6790724709403
 20
119.1495081996078
 30
0.0
 10
166.47647100508
 20
119.1278060029952
 30
0.0
 10
167.8535017910749
 20
119.0948937159143
 30
0.0
 10
169.3542048744844
 20
119.0672564944483
 30
0.0
 10
170.8058232947187
 20
119.0474843792291
 30
0.0
 10
171.5001196864526
 20
119.0405192761055
 30
0.0
 10
171.8434020454599
 20
119.0370755061831
 30
0.0
  0
SPLINE
  5
161
330
1F
100
AcDbEntity
  8
0
  6
Continuous
 62
     7
370
    25
100
AcDbSpline
210
0.0
220
0.0
230
1.0
 70
     8
 71
     3
 72
    17
 73
    13
 74
     0
 42
0.00000001
 43
0.00000001
 40
0.0
 40
0.0
 40
0.0
 40
0.0
 40
0.0977745114147798
 40
0.1977511768304601
 40
0.3748141411910637
 40
0.4644757632269457
 40
0.5280729272145455
 40
0.5669263237121167
 40
0.6361723177157012
 40
0.7377405094352584
 40
0.8684920211149985
 40
1.0
 40
1.0
 40
1.0
 40
1.0
 10
190.4660841205413
 20
119.0370755061831
 30
0.0
 10
190.8093664795486
 20
119.0405192761055
 30
0.0
 10
191.5036628712824
 20
119.0474843792292
 30
0.0
 10
192.9552812915168
 20
119.0672564944482
 30
0.0
 10
194.4559843749263
 20
119.0948937159145
 30
0.0
 10
195.8330151609212
 20
119.1278060029952
 30
0.0
 10
196.6304136950609
 20
119.1495081996077
 30
0.0
 10
197.3425955539863
 20
119.1706984618639
 30
0.0
 10
198.2136086328051
 20
119.1986992830373
 30
0.0
 10
199.4609074485816
 20
119.2442973746552
 30
0.0
 10
200.9908130431085
 20
119.3088482500984
 30
0.0
 10
202.0289464504732
 20
119.3648996985181
 30
0.0
 10
202.5495103618937
 20
119.3930062607607
 30
0.0
  0
SPLINE
  5
162
330
1F
100
AcDbEntity
  8
0
  6
Continuous
 62
     7
370
    25
100
AcDbSpline
210
0.0
220
0.0
230
1.0
 70
     8
 71
     3
 72
     9
 73
     5
 74
     0
 42
0.00000001
 43
0.00000001
 40
0.0
 40
0.0
 40
0.0
 40
0.0
 40
0.5117227400386072
 40
1.0
 40
1.0
 40
1.0
 40
1.0
 10
181.1547430830006
 20
118.9791062801181
 30
0.0
 10
182.7535726581455
 20
118.9814562767741
 30
0.0
 10
185.8779786109165
 20
118.9860486008434
 30
0.0
 10
188.9606140224887
 20
119.0200515914592
 30
0.0
 10
190.4657947947111
 20
119.0366544785475
 30
0.0
  0
SPLINE
  5
163
330
1F
100
AcDbEntity
  8
0
  6
Continuous
 62
     7
370
    25
100
AcDbSpline
210
0.0
220
0.0
230
1.0
 70
     8
 71
     3
 72
     9
 73
     5
 74
     0
 42
0.00000001
 43
0.00000001
 40
0.0
 40
0.0
 40
0.0
 40
0.0
 40
0.4882772599613937
 40
1.0
 40
1.0
 40
1.0
 40
1.0
 10
171.8436913712901
 20
119.0366544785475
 30
0.0
 10
173.3488721435125
 20
119.0200515914592
 30
0.0
 10
176.4315075550847
 20
118.9860486008435
 30
0.0
 10
179.5559135078557
 20
118.9814562767741
 30
0.0
 10
181.1547430830006
 20
118.9791062801181
 30
0.0
  0
LINE
  5
164
330
1F
100
AcDbEntity
  8
0
  6
Continuous
 62
     7
370
    25
100
AcDbLine
 10
253.9010896778
 20
198.7956151802
 30
0.0
 11
108.4083964882
 21
198.7956151802
 31
0.0
  0
SPLINE
  5
165
330
1F
100
AcDbEntity
  8
0
  6
Continuous
 62
     7
370
    25
100
AcDbSpline
210
0.0
220
0.0
230
1.0
 70
     8
 71
     3
 72
    21
 73
    17
 74
     0
 42
0.00000001
 43
0.00000001
 40
0.0
 40
0.0
 40
0.0
 40
0.0
 40
0.0705704150357917
 40
0.143187373960497
 40
0.2137577900069133
 40
0.2863747579410621
 40
0.3569450856391134
 40
0.4295619599419992
 40
0.5001322520055483
 40
0.5727490837290649
 40
0.6433194441063214
 40
0.7159363417868684
 40
0.7865068444863256
 40
0.8591238877533856
 40
0.929694544408922
 40
1.0
 40
1.0
 40
1.0
 40
1.0
 10
163.8318959693053
 20
191.3916880931744
 30
0.0
 10
164.8383528124733
 20
191.3936462147324
 30
0.0
 10
166.8804537736865
 20
191.3976192434251
 30
0.0
 10
170.463197095753
 20
191.4020584603739
 30
0.0
 10
174.3480208527216
 20
191.405259776193
 30
0.0
 10
178.3994288804577
 20
191.4069796094157
 30
0.0
 10
182.5637501914
 20
191.4072258308206
 30
0.0
 10
186.6513420493421
 20
191.4059801973617
 30
0.0
 10
190.6192467556966
 20
191.4032573873914
 30
0.0
 10
194.283873233148
 20
191.3991829855826
 30
0.0
 10
197.6077460048653
 20
191.3937991218379
 30
0.0
 10
200.4356546897948
 20
191.3873550377658
 30
0.0
 10
202.7433965667415
 20
191.3799172022698
 30
0.0
 10
204.4056812981312
 20
191.3718298554737
 30
0.0
 10
205.4628754298195
 20
191.3632695981494
 30
0.0
 10
205.5835102988955
 20
191.3574595270043
 30
0.0
 10
205.6437141850995
 20
191.3545599601978
 30
0.0
  0
SPLINE
  5
166
330
1F
100
AcDbEntity
  8
0
  6
Continuous
 62
     7
370
    25
100
AcDbSpline
210
0.0
220
0.0
230
1.0
 70
     8
 71
     3
 72
    13
 73
     9
 74
     0
 42
0.00000001
 43
0.00000001
 40
0.0
 40
0.0
 40
0.0
 40
0.0
 40
0.0845715387218521
 40
0.3023609797248513
 40
0.5140126150811665
 40
0.7318021734972504
 40
0.8651566734073217
 40
1.0
 40
1.0
 40
1.0
 40
1.0
 10
156.7359386423756
 20
191.354564760396
 30
0.0
 10
156.7157589292081
 20
191.3557266739679
 30
0.0
 10
156.6436122243462
 20
191.3598807585604
 30
0.0
 10
157.2472545871811
 20
191.3668936619015
 30
0.0
 10
158.5250369233922
 20
191.3753687228053
 30
0.0
 10
160.2430490335627
 20
191.382214859434
 30
0.0
 10
162.0603334157071
 20
191.387652838537
 30
0.0
 10
163.2391937448313
 20
191.3903380395762
 30
0.0
 10
163.8318959693053
 20
191.3916880931744
 30
0.0
  0
LINE
  5
167
330
1F
100
AcDbEntity
  8
0
  6
Continuous
 62
     7
370
    18
100
AcDbLine
 10
255.3901380351
 20
198.7956151802
 30
0.0
 11
255.2517562488
 21
193.5108881297
 31
0.0
  0
LINE
  5
168
330
1F
100
AcDbEntity
  8
0
  6
Continuous
 62
     7
370
    25
100
AcDbLine
 10
253.9010896778
 20
198.7956151802
 30
0.0
 11
255.3901380351
 21
198.7956151802
 31
0.0
  0
LINE
  5
169
330
1F
100
AcDbEntity
  8
0
  6
Continuous
 62
     7
370
    18
100
AcDbLine
 10
106.9193481309
 20
198.7956151802
 30
0.0
 11
107.0577299173
 21
193.5108881297
 31
0.0
  0
LINE
  5
16A
330
1F
100
AcDbEntity
  8
0
  6
Continuous
 62
     7
370
    25
100
AcDbLine
 10
108.4083964882
 20
198.7956151802
 30
0.0
 11
106.9193481309
 21
198.7956151802
 31
0.0
  0
LINE
  5
16B
330
1F
100
AcDbEntity
  8
0
  6
Continuous
 62
     7
370
    25
100
AcDbLine
 10
106.9193481309
 20
198.7956151802
 30
0.0
 11
106.654743083
 21
198.7956151802
 31
0.0
  0
LINE
  5
16C
330
1F
100
AcDbEntity
  8
0
  6
Continuous
 62
     7
370
    25
100
AcDbLine
 10
255.3901380351
 20
198.7956151802
 30
0.0
 11
255.654743083
 21
198.7956151802
 31
0.0
  0
SPLINE
  5
16D
330
1F
100
AcDbEntity
  8
0
  6
Continuous
 62
     7
370
    25
100
AcDbSpline
210
0.0
220
0.0
230
1.0
 70
     8
 71
     3
 72
    36
 73
    32
 74
     0
 42
0.00000001
 43
0.00000001
 40
0.0
 40
0.0
 40
0.0
 40
0.0
 40
0.1250000000000006
 40
0.1250000000000006
 40
0.1875000000000009
 40
0.1875000000000009
 40
0.2500000000000012
 40
0.2500000000000012
 40
0.3750000000000025
 40
0.3750000000000025
 40
0.4062500000000023
 40
0.4062500000000023
 40
0.4375000000000021
 40
0.4375000000000021
 40
0.5000000000000017
 40
0.5000000000000017
 40
0.5625000000000013
 40
0.5625000000000013
 40
0.5937500000000011
 40
0.5937500000000011
 40
0.6250000000000009
 40
0.6250000000000009
 40
0.6875000000000008
 40
0.6875000000000008
 40
0.7500000000000007
 40
0.7500000000000007
 40
0.8125000000000006
 40
0.8125000000000006
 40
0.8750000000000003
 40
0.8750000000000003
 40
1.0
 40
1.0
 40
1.0
 40
1.0
 10
206.0912658273625
 20
153.6415316188624
 30
0.0
 10
205.956315274513
 20
153.1046696603499
 30
0.0
 10
205.7258219362411
 20
152.5726870069571
 30
0.0
 10
205.2301029810367
 20
151.7823723498043
 30
0.0
 10
205.0390382512492
 20
151.5202529999384
 30
0.0
 10
204.5958101138692
 20
150.9991345681589
 30
0.0
 10
204.3427412984173
 20
150.7395343936409
 30
0.0
 10
203.489356697706
 20
149.9799642139185
 30
0.0
 10
202.7932943763583
 20
149.4950233426042
 30
0.0
 10
201.709002184226
 20
148.9249697982559
 30
0.0
 10
201.4803880960021
 20
148.8123828296178
 30
0.0
 10
201.0049608821314
 20
148.5934473596001
 30
0.0
 10
200.7584622819891
 20
148.4871472982358
 30
0.0
 10
199.9926108640907
 20
148.1777503650717
 30
0.0
 10
199.4468823935614
 20
147.9841639684859
 30
0.0
 10
198.2836351286431
 20
147.6228771733419
 30
0.0
 10
197.6659590609299
 20
147.4552334840554
 30
0.0
 10
196.6842320784275
 20
147.2236764900245
 30
0.0
 10
196.3465200287735
 20
147.1495180946924
 30
0.0
 10
195.6621949379747
 20
147.0094750290043
 30
0.0
 10
195.3152356342997
 20
146.9434611424173
 30
0.0
 10
194.2611297607959
 20
146.7564713204325
 30
0.0
 10
193.5407899472632
 20
146.6465182156028
 30
0.0
 10
192.070700339989
 20
146.4511837667721
 30
0.0
 10
191.3217148397042
 20
146.3651638628032
 30
0.0
 10
189.7976764042915
 20
146.2149031505952
 30
0.0
 10
189.0204414318328
 20
146.150702671083
 30
0.0
 10
187.4639445950226
 20
146.0439410207482
 30
0.0
 10
186.6822187354512
 20
146.0011796294964
 30
0.0
 10
184.3278947630437
 20
145.9008267761427
 30
0.0
 10
182.7462016940805
 20
145.8710095540919
 30
0.0
 10
181.1547430830006
 20
145.87101441214
 30
0.0
  0
SPLINE
  5
16E
330
1F
100
AcDbEntity
  8
0
  6
Continuous
 62
     7
370
    25
100
AcDbSpline
210
0.0
220
0.0
230
1.0
 70
     8
 71
     3
 72
    36
 73
    32
 74
     0
 42
0.00000001
 43
0.00000001
 40
0.0
 40
0.0
 40
0.0
 40
0.0
 40
0.1250000000000009
 40
0.1250000000000009
 40
0.1875000000000014
 40
0.1875000000000014
 40
0.2500000000000018
 40
0.2500000000000018
 40
0.3750000000000018
 40
0.3750000000000018
 40
0.4062500000000017
 40
0.4062500000000017
 40
0.4375000000000015
 40
0.4375000000000015
 40
0.500000000000001
 40
0.500000000000001
 40
0.5625000000000004
 40
0.5625000000000004
 40
0.5937500000000003
 40
0.5937500000000003
 40
0.6250000000000002
 40
0.6250000000000002
 40
0.6875000000000002
 40
0.6875000000000002
 40
0.7500000000000002
 40
0.7500000000000002
 40
0.8125000000000002
 40
0.8125000000000002
 40
0.8750000000000002
 40
0.8750000000000002
 40
1.0
 40
1.0
 40
1.0
 40
1.0
 10
156.2182203386387
 20
153.6415316188624
 30
0.0
 10
156.3531708914882
 20
153.1046696603501
 30
0.0
 10
156.5836642297601
 20
152.5726870069571
 30
0.0
 10
157.0793831849645
 20
151.7823723498043
 30
0.0
 10
157.2704479147519
 20
151.5202529999384
 30
0.0
 10
157.713676052132
 20
150.999134568159
 30
0.0
 10
157.9667448675839
 20
150.739534393641
 30
0.0
 10
158.8201294682952
 20
149.9799642139185
 30
0.0
 10
159.5161917896429
 20
149.4950233426041
 30
0.0
 10
160.6004839817751
 20
148.9249697982559
 30
0.0
 10
160.8290980699991
 20
148.8123828296179
 30
0.0
 10
161.3045252838698
 20
148.5934473596002
 30
0.0
 10
161.551023884012
 20
148.4871472982358
 30
0.0
 10
162.3168753019105
 20
148.1777503650717
 30
0.0
 10
162.8626037724398
 20
147.9841639684858
 30
0.0
 10
164.0258510373581
 20
147.6228771733419
 30
0.0
 10
164.6435271050712
 20
147.4552334840553
 30
0.0
 10
165.6252540875736
 20
147.2236764900244
 30
0.0
 10
165.9629661372277
 20
147.1495180946924
 30
0.0
 10
166.6472912280264
 20
147.0094750290042
 30
0.0
 10
166.9942505317015
 20
146.9434611424172
 30
0.0
 10
168.0483564052053
 20
146.7564713204325
 30
0.0
 10
168.768696218738
 20
146.6465182156028
 30
0.0
 10
170.2387858260122
 20
146.4511837667722
 30
0.0
 10
170.9877713262969
 20
146.3651638628032
 30
0.0
 10
172.5118097617097
 20
146.2149031505954
 30
0.0
 10
173.2890447341684
 20
146.150702671083
 30
0.0
 10
174.8455415709786
 20
146.0439410207483
 30
0.0
 10
175.62726743055
 20
146.0011796294964
 30
0.0
 10
177.9815914029575
 20
145.9008267761428
 30
0.0
 10
179.5632844719208
 20
145.871009554092
 30
0.0
 10
181.1547430830006
 20
145.87101441214
 30
0.0
  0
LWPOLYLINE
  5
16F
330
1F
100
AcDbEntity
  8
0
  6
Continuous
 62
     7
370
    25
100
AcDbPolyline
 90
       27
 70
   128
 43
0.0
 10
158.2932203395
 20
153.6415316189
 10
159.0095070092
 20
152.8609244706
 10
159.9530055943
 20
152.1091050038
 10
161.1140357228
 20
151.3937869471
 10
162.4806851316
 20
150.7223095215
 10
164.0389318871
 20
150.1015621399
 10
165.7727882513
 20
149.5379137207
 10
167.6644647177
 20
149.0371473422
 10
169.6945525325
 20
148.6044009081
 10
171.8422228303
 20
148.2441144319
 10
174.0854403399
 20
147.9599844819
 10
176.4011894682
 20
147.7549262545
 10
178.7657104414
 20
147.6310436636
 10
181.154743083
 20
147.5896077548
 10
183.5437757246
 20
147.6310436636
 10
185.9082966978
 20
147.7549262545
 10
188.2240458261
 20
147.9599844819
 10
190.4672633357
 20
148.2441144319
 10
192.6149336335
 20
148.6044009081
 10
194.6450214483
 20
149.0371473422
 10
196.5366979147
 20
149.5379137207
 10
198.2705542789
 20
150.1015621399
 10
199.8288010344
 20
150.7223095215
 10
201.1954504432
 20
151.3937869471
 10
202.3564805717
 20
152.1091050038
 10
203.2999791568
 20
152.8609244706
 10
204.0162658265
 20
153.6415316189
  0
LINE
  5
170
330
1F
100
AcDbEntity
  8
0
  6
Continuous
 62
     7
370
    25
100
AcDbLine
 10
156.5490502888
 20
133.7801562337
 30
0.0
 11
156.7172655702
 21
129.7683770224
 31
0.0
  0
SPLINE
  5
171
330
1F
100
AcDbEntity
  8
0
  6
Continuous
 62
     7
370
    25
100
AcDbSpline
210
0.0
220
0.0
230
1.0
 70
     8
 71
     3
 72
     9
 73
     5
 74
     0
 42
0.00000001
 43
0.00000001
 40
0.0
 40
0.0
 40
0.0
 40
0.0
 40
0.7953548591789908
 40
0.9999999999999999
 40
0.9999999999999999
 40
0.9999999999999999
 40
0.9999999999999999
 10
156.5490482465603
 20
133.7802112571588
 30
0.0
 10
156.4824899656583
 20
135.5853327837808
 30
0.0
 10
156.3988062109998
 20
137.8549128407698
 30
0.0
 10
156.3417966884739
 20
140.1252886479507
 30
0.0
 10
156.3301299667085
 20
140.5899100247279
 30
0.0
  0
SPLINE
  5
172
330
1F
100
AcDbEntity
  8
0
  6
Continuous
 62
     7
370
    25
100
AcDbSpline
210
0.0
220
0.0
230
1.0
 70
     8
 71
     3
 72
    10
 73
     6
 74
     0
 42
0.00000001
 43
0.00000001
 40
0.0
 40
0.0
 40
0.0
 40
0.0
 40
0.1735053785805996
 40
0.708321458768441
 40
1.0
 40
1.0
 40
1.0
 40
1.0
 10
156.2585345271941
 20
143.3529074087087
 30
0.0
 10
156.244959816798
 20
143.8614555043912
 30
0.0
 10
156.1895421764414
 20
145.9375613400406
 30
0.0
 10
156.1393153940499
 20
148.8692943267869
 30
0.0
 10
156.1170127150337
 20
151.292524839419
 30
0.0
 10
156.1091418678287
 20
152.1477080707128
 30
0.0
  0
SPLINE
  5
173
330
1F
100
AcDbEntity
  8
0
  6
Continuous
 62
     7
370
    25
100
AcDbSpline
210
0.0
220
0.0
230
1.0
 70
     8
 71
     3
 72
     8
 73
     4
 74
     0
 42
0.00000001
 43
0.00000001
 40
0.0
 40
0.0
 40
0.0
 40
0.0
 40
1.0
 40
1.0
 40
1.0
 40
1.0
 10
156.0849140143176
 20
154.5379118354865
 30
0.0
 10
156.070772401458
 20
154.3349997919491
 30
0.0
 10
156.1190934494171
 20
154.0358794356375
 30
0.0
 10
156.2182203386387
 20
153.6415316188625
 30
0.0
  0
LINE
  5
174
330
1F
100
AcDbEntity
  8
0
  6
Continuous
 62
     7
370
    25
100
AcDbLine
 10
206.2096280563
 20
154.4374245441
 30
0.0
 11
206.0912658274
 21
153.6415316189
 31
0.0
  0
SPLINE
  5
175
330
1F
100
AcDbEntity
  8
0
  6
Continuous
 62
     7
370
    25
100
AcDbSpline
210
0.0
220
0.0
230
1.0
 70
     8
 71
     3
 72
     9
 73
     5
 74
     0
 42
0.00000001
 43
0.00000001
 40
0.0
 40
0.0
 40
0.0
 40
0.0
 40
0.7953548591790653
 40
1.0
 40
1.0
 40
1.0
 40
1.0
 10
205.7604379194409
 20
133.7802112571588
 30
0.0
 10
205.8269962003429
 20
135.5853327837806
 30
0.0
 10
205.9106799550014
 20
137.8549128407693
 30
0.0
 10
205.9676894775272
 20
140.1252886479503
 30
0.0
 10
205.9793561992927
 20
140.5899100247272
 30
0.0
  0
SPLINE
  5
176
330
1F
100
AcDbEntity
  8
0
  6
Continuous
 62
     7
370
    25
100
AcDbSpline
210
0.0
220
0.0
230
1.0
 70
     8
 71
     3
 72
    10
 73
     6
 74
     0
 42
0.00000001
 43
0.00000001
 40
0.0
 40
0.0
 40
0.0
 40
0.0
 40
0.1735053785807725
 40
0.7083214587683979
 40
1.0
 40
1.0
 40
1.0
 40
1.0
 10
206.050951638807
 20
143.3529074087065
 30
0.0
 10
206.0645263492031
 20
143.8614555043897
 30
0.0
 10
206.1199439895598
 20
145.9375613400399
 30
0.0
 10
206.1701707719513
 20
148.8692943267874
 30
0.0
 10
206.1924734509675
 20
151.2925248394199
 30
0.0
 10
206.2003442981725
 20
152.1477080707142
 30
0.0
  0
LINE
  5
177
330
1F
100
AcDbEntity
  8
0
  6
Continuous
 62
     7
370
    25
100
AcDbLine
 10
205.7604358772
 20
133.7801562337
 30
0.0
 11
205.7340942133
 21
133.1519318607
 31
0.0
  0
SPLINE
  5
178
330
1F
100
AcDbEntity
  8
0
  6
Continuous
 62
     7
370
    25
100
AcDbSpline
210
0.0
220
0.0
230
1.0
 70
     8
 71
     3
 72
     9
 73
     5
 74
     0
 42
0.00000001
 43
0.00000001
 40
0.0
 40
0.0
 40
0.0
 40
0.0
 40
0.6301978434910289
 40
1.0
 40
1.0
 40
1.0
 40
1.0
 10
158.2932203394767
 20
153.6415316188624
 30
0.0
 10
158.1241619531315
 20
153.8744862903274
 30
0.0
 10
157.8558995525358
 20
154.2441395252139
 30
0.0
 10
157.8086608322897
 20
154.4352209325676
 30
0.0
 10
157.791191851672
 20
154.5058832490758
 30
0.0
  0
SPLINE
  5
179
330
1F
100
AcDbEntity
  8
0
  6
Continuous
 62
     7
370
    25
100
AcDbSpline
210
0.0
220
0.0
230
1.0
 70
     8
 71
     3
 72
     9
 73
     5
 74
     0
 42
0.00000001
 43
0.00000001
 40
0.0
 40
0.0
 40
0.0
 40
0.0
 40
0.264618496540498
 40
1.0
 40
1.0
 40
1.0
 40
1.0
 10
204.5188649967566
 20
154.5065609956928
 30
0.0
 10
204.5113477247003
 20
154.4602415686053
 30
0.0
 10
204.4829397632215
 20
154.285199280583
 30
0.0
 10
204.2140225621528
 20
153.91429083167
 30
0.0
 10
204.0162658265249
 20
153.6415316188624
 30
0.0
  0
SPLINE
  5
17A
330
1F
100
AcDbEntity
  8
0
  6
Continuous
 62
     7
370
    25
100
AcDbSpline
210
0.0
220
0.0
230
1.0
 70
     8
 71
     3
 72
     8
 73
     4
 74
     0
 42
0.00000001
 43
0.00000001
 40
0.0
 40
0.0
 40
0.0
 40
0.0
 40
1.0
 40
1.0
 40
1.0
 40
1.0
 10
156.3667838254328
 20
154.8476792031443
 30
0.0
 10
156.1920777307116
 20
154.8476792031443
 30
0.0
 10
156.0994003000114
 20
154.7455434281007
 30
0.0
 10
156.0849140143176
 20
154.5379118354865
 30
0.0
  0
LINE
  5
17B
330
1F
100
AcDbEntity
  8
0
  6
Continuous
 62
     7
370
    25
100
AcDbLine
 10
156.3667838254
 20
154.8476792031
 30
0.0
 11
157.6605696424
 21
154.8476792031
 31
0.0
  0
SPLINE
  5
17C
330
1F
100
AcDbEntity
  8
0
  6
Continuous
 62
     7
370
    25
100
AcDbSpline
210
0.0
220
0.0
230
1.0
 70
     8
 71
     3
 72
     8
 73
     4
 74
     0
 42
0.00000001
 43
0.00000001
 40
0.0
 40
0.0
 40
0.0
 40
0.0
 40
1.0
 40
1.0
 40
1.0
 40
1.0
 10
205.9427023405684
 20
154.8476792031443
 30
0.0
 10
206.1174084352895
 20
154.8476792031443
 30
0.0
 10
206.2100858659898
 20
154.7455434281007
 30
0.0
 10
206.2245721516836
 20
154.5379118354865
 30
0.0
  0
LINE
  5
17D
330
1F
100
AcDbEntity
  8
0
  6
Continuous
 62
     7
370
    25
100
AcDbLine
 10
204.6489165236
 20
154.8476792031
 30
0.0
 11
205.9427023406
 21
154.8476792031
 31
0.0
  0
SPLINE
  5
17E
330
1F
100
AcDbEntity
  8
0
  6
Continuous
 62
     7
370
    25
100
AcDbSpline
210
0.0
220
0.0
230
1.0
 70
     8
 71
     3
 72
     9
 73
     5
 74
     0
 42
0.00000001
 43
0.00000001
 40
0.0
 40
0.0
 40
0.0
 40
0.0
 40
0.7648498991495868
 40
1.0
 40
1.0
 40
1.0
 40
1.0
 10
205.2779417699467
 20
121.2204376048725
 30
0.0
 10
205.2764164143013
 20
121.187733561067
 30
0.0
 10
205.274422094047
 20
121.1449747872974
 30
0.0
 10
205.2553437562958
 20
121.1073980322228
 30
0.0
 10
205.2508574832495
 20
121.0985618544774
 30
0.0
  0
SPLINE
  5
17F
330
1F
100
AcDbEntity
  8
0
  6
Continuous
 62
     7
370
    25
100
AcDbSpline
210
0.0
220
0.0
230
1.0
 70
     8
 71
     3
 72
     9
 73
     5
 74
     0
 42
0.00000001
 43
0.00000001
 40
0.0
 40
0.0
 40
0.0
 40
0.0
 40
0.7707113066387941
 40
1.0
 40
1.0
 40
1.0
 40
1.0
 10
157.0315685369153
 20
121.2204301209422
 30
0.0
 10
157.0330550735888
 20
121.1876850582207
 30
0.0
 10
157.0349838589339
 20
121.1451982509824
 30
0.0
 10
157.0538959371025
 20
121.1078571750874
 30
0.0
 10
157.0582322627945
 20
121.0992952885868
 30
0.0
  0
SPLINE
  5
180
330
1F
100
AcDbEntity
  8
0
  6
Continuous
 62
     7
370
    25
100
AcDbSpline
210
0.0
220
0.0
230
1.0
 70
     8
 71
     3
 72
     9
 73
     5
 74
     0
 42
0.00000001
 43
0.00000001
 40
0.0
 40
0.0
 40
0.0
 40
0.0
 40
0.66476044192774
 40
0.9999999999999999
 40
0.9999999999999999
 40
0.9999999999999999
 40
0.9999999999999999
 10
203.9451517513599
 20
119.7403931971338
 30
0.0
 10
203.8687151144562
 20
119.6854598513581
 30
0.0
 10
203.7537313818472
 20
119.602823547645
 30
0.0
 10
203.6161285721229
 20
119.576016229905
 30
0.0
 10
203.5699986670014
 20
119.5670293565527
 30
0.0
  0
SPLINE
  5
181
330
1F
100
AcDbEntity
  8
0
  6
Continuous
 62
     7
370
    25
100
AcDbSpline
210
0.0
220
0.0
230
1.0
 70
     8
 71
     3
 72
    10
 73
     6
 74
     0
 42
0.00000001
 43
0.00000001
 40
0.0
 40
0.0
 40
0.0
 40
0.0
 40
0.056711143150091
 40
0.3868374446886309
 40
1.0
 40
1.0
 40
1.0
 40
1.0
 10
158.3289689084911
 20
119.7723102856334
 30
0.0
 10
158.3406296525696
 20
119.7615229887043
 30
0.0
 10
158.4201697956863
 20
119.6879407939645
 30
0.0
 10
158.6718996646208
 20
119.551214012716
 30
0.0
 10
158.9337569604617
 20
119.5067570293415
 30
0.0
 10
159.1039710867908
 20
119.4778588214071
 30
0.0
  0
SPLINE
  5
182
330
1F
100
AcDbEntity
  8
0
  6
Continuous
 62
     7
370
    25
100
AcDbSpline
210
0.0
220
0.0
230
1.0
 70
     8
 71
     3
 72
     9
 73
     5
 74
     0
 42
0.00000001
 43
0.00000001
 40
0.0
 40
0.0
 40
0.0
 40
0.0
 40
0.1771983666224732
 40
1.0
 40
1.0
 40
1.0
 40
1.0
 10
202.804535472232
 20
119.4081718703375
 30
0.0
 10
202.798693509663
 20
119.4074134930305
 30
0.0
 10
202.765725019714
 20
119.4031336719388
 30
0.0
 10
202.6470472698109
 20
119.3987398913678
 30
0.0
 10
202.5493990233452
 20
119.3951246815371
 30
0.0
  0
SPLINE
  5
183
330
1F
100
AcDbEntity
  8
0
  6
Continuous
 62
     7
370
    25
100
AcDbSpline
210
0.0
220
0.0
230
1.0
 70
     8
 71
     3
 72
    10
 73
     6
 74
     0
 42
0.00000001
 43
0.00000001
 40
0.0
 40
0.0
 40
0.0
 40
0.0
 40
0.4381268778564653
 40
0.8771769832090645
 40
1.0
 40
1.0
 40
1.0
 40
1.0
 10
159.1039812158951
 20
119.4778582938145
 30
0.0
 10
159.127657545826
 20
119.4667858825159
 30
0.0
 10
159.1750600968034
 20
119.4446177279686
 30
0.0
 10
159.295741822867
 20
119.415120202332
 30
0.0
 10
159.6767913713406
 20
119.398711542988
 30
0.0
 10
159.7600871426561
 20
119.3951246815371
 30
0.0
  0
LINE
  5
184
330
1F
100
AcDbEntity
  8
0
  6
Continuous
 62
     7
370
    25
100
AcDbLine
 10
190.4689927341
 20
119.0497808751
 30
0.0
 11
190.4682968618
 21
119.0481749628
 31
0.0
  0
SPLINE
  5
185
330
1F
100
AcDbEntity
  8
0
  6
Continuous
 62
     8
370
    18
100
AcDbSpline
210
0.0
220
0.0
230
1.0
 70
     8
 71
     3
 72
     8
 73
     4
 74
     0
 42
0.00000001
 43
0.00000001
 40
0.0
 40
0.0
 40
0.0
 40
0.0
 40
1.0
 40
1.0
 40
1.0
 40
1.0
 10
253.7688212224117
 20
192.0489134763345
 30
0.0
 10
205.3594357961398
 20
191.5501988784107
 30
0.0
 10
156.950050369868
 20
191.5501988784101
 30
0.0
 10
108.5406649435961
 20
192.0489134763339
 30
0.0
  0
SPLINE
  5
186
330
1F
100
AcDbEntity
  8
0
  6
Continuous
 62
     8
370
    18
100
AcDbSpline
210
0.0
220
0.0
230
1.0
 70
    24
 71
     3
 72
     9
 73
     5
 74
     0
 42
0.00000001
 43
0.00000001
 40
0.0
 40
0.0
 40
0.0
 40
0.0
 40
0.9999168018385755
 40
0.9999999999999999
 40
0.9999999999999999
 40
0.9999999999999999
 40
0.9999999999999999
 10
108.5406649435961
 20
192.0489134763336
 30
0.0
 10
108.3714543520426
 20
191.7995859234405
 30
0.0
 10
108.2022296813077
 20
191.5502376252275
 30
0.0
 10
108.2868427398231
 20
191.6749128398347
 30
0.0
 10
108.286849779474
 20
191.6749232125833
 30
0.0
  0
LINE
  5
187
330
1F
100
AcDbEntity
  8
0
  6
Continuous
 62
     8
370
    18
100
AcDbLine
 10
254.0226371053
 20
191.6749221535
 30
0.0
 11
253.7688212224
 21
192.0489134763
 31
0.0
  0
SPLINE
  5
188
330
1F
100
AcDbEntity
  8
0
  6
Continuous
 62
     8
370
    18
100
AcDbSpline
210
0.0
220
0.0
230
1.0
 70
     8
 71
     3
 72
    21
 73
    17
 74
     0
 42
0.00000001
 43
0.00000001
 40
0.0
 40
0.0
 40
0.0
 40
0.0
 40
0.0527015852614037
 40
0.1061218296409175
 40
0.1602636681733066
 40
0.2151299194778015
 40
0.2707232913178549
 40
0.3270463858584027
 40
0.384101704625707
 40
0.4418916531887749
 40
0.5004185455848447
 40
0.6190205634992474
 40
0.7500271669111318
 40
0.8150462982106014
 40
0.8983758845579066
 40
1.0
 40
1.0
 40
1.0
 40
1.0
 10
255.2517562487584
 20
193.5108881297154
 30
0.0
 10
255.2497470528937
 20
193.4704338325138
 30
0.0
 10
255.2457012629956
 20
193.3889735877303
 30
0.0
 10
255.2269407623165
 20
193.2670956201152
 30
0.0
 10
255.1985339763644
 20
193.145499959476
 30
0.0
 10
255.1593582882808
 20
193.0251447725006
 30
0.0
 10
255.1095473718254
 20
192.9070068300727
 30
0.0
 10
255.0490063514241
 20
192.7921119591853
 30
0.0
 10
254.9778312974181
 20
192.6815187212181
 30
0.0
 10
254.8961896794038
 20
192.5763036321081
 30
0.0
 10
254.7734010618829
 20
192.4442196264422
 30
0.0
 10
254.58967796754
 20
192.2938012064332
 30
0.0
 10
254.3760925510034
 20
192.1784825655406
 30
0.0
 10
254.1746468480048
 20
192.1065844614037
 30
0.0
 10
253.9880336434487
 20
192.0611415448369
 30
0.0
 10
253.8465567170746
 20
192.0532497039501
 30
0.0
 10
253.7688212224123
 20
192.0489134763343
 30
0.0
  0
SPLINE
  5
189
330
1F
100
AcDbEntity
  8
0
  6
Continuous
 62
     8
370
    18
100
AcDbSpline
210
0.0
220
0.0
230
1.0
 70
     8
 71
     3
 72
    26
 73
    22
 74
     0
 42
0.00000001
 43
0.00000001
 40
0.0
 40
0.0
 40
0.0
 40
0.0
 40
0.03125
 40
0.03125
 40
0.0625
 40
0.0625
 40
0.125
 40
0.125
 40
0.25
 40
0.25
 40
0.375
 40
0.375
 40
0.5
 40
0.5
 40
0.625
 40
0.625
 40
0.75
 40
0.75
 40
0.875
 40
0.875
 40
1.0
 40
1.0
 40
1.0
 40
1.0
 10
107.0577299172501
 20
193.5108881297156
 30
0.0
 10
107.0583661251912
 20
193.4866387546251
 30
0.0
 10
107.0595954113915
 20
193.4624334809461
 30
0.0
 10
107.0632219428069
 20
193.4141623861485
 30
0.0
 10
107.0656191880219
 20
193.3900965650299
 30
0.0
 10
107.0745355659335
 20
193.3181851551209
 30
0.0
 10
107.0827793408965
 20
193.2706256197775
 30
0.0
 10
107.1141908648073
 20
193.129706224384
 30
0.0
 10
107.1440388127765
 20
193.0381055749711
 30
0.0
 10
107.2203839325351
 20
192.8628754877091
 30
0.0
 10
107.2676084282824
 20
192.7777456287212
 30
0.0
 10
107.376516746427
 20
192.6195597466258
 30
0.0
 10
107.4378898386509
 20
192.5465072544413
 30
0.0
 10
107.5743245246143
 20
192.412352767585
 30
0.0
 10
107.6500509054104
 20
192.3510107478114
 30
0.0
 10
107.8092536298252
 20
192.2455566385908
 30
0.0
 10
107.8933101346926
 20
192.200706799656
 30
0.0
 10
108.070468120623
 20
192.1269997024303
 30
0.0
 10
108.1629653054783
 20
192.0986201243678
 30
0.0
 10
108.3493941541376
 20
192.0603233825719
 30
0.0
 10
108.4442054046076
 20
192.0500119084718
 30
0.0
 10
108.5406649435961
 20
192.0489134763337
 30
0.0
  0
SPLINE
  5
18A
330
1F
100
AcDbEntity
  8
0
  6
Continuous
 62
     8
370
    18
100
AcDbSpline
210
0.0
220
0.0
230
1.0
 70
    24
 71
     3
 72
     9
 73
     5
 74
     0
 42
0.00000001
 43
0.00000001
 40
0.0
 40
0.0
 40
0.0
 40
0.0
 40
0.9999208183646874
 40
1.0
 40
1.0
 40
1.0
 40
1.0
 10
255.2517562487571
 20
193.5108881297156
 30
0.0
 10
255.4215913799608
 20
193.260679279823
 30
0.0
 10
255.5914399600527
 20
193.0104506164156
 30
0.0
 10
255.5065154907655
 20
193.135565212067
 30
0.0
 10
255.5065087663072
 20
193.1355751188453
 30
0.0
  0
LINE
  5
18B
330
1F
100
AcDbEntity
  8
0
  6
Continuous
 62
     8
370
    18
100
AcDbLine
 10
106.8029773362
 20
193.1355750252
 30
0.0
 11
107.0577299173
 21
193.5108881297
 31
0.0
  0
LINE
  5
18C
330
1F
100
AcDbEntity
  8
0
  6
Continuous
 62
     8
370
    18
100
AcDbLine
 10
206.0912658274
 20
153.6415316189
 30
0.0
 11
204.0162658265
 21
153.6415316189
 31
0.0
  0
LINE
  5
18D
330
1F
100
AcDbEntity
  8
0
  6
Continuous
 62
     8
370
    18
100
AcDbLine
 10
158.2932203395
 20
153.6415316189
 30
0.0
 11
156.2182203386
 21
153.6415316189
 31
0.0
  0
LINE
  5
18E
330
1F
100
AcDbEntity
  8
0
  6
Continuous
 62
     8
370
    18
100
AcDbLine
 10
156.7172655702
 20
129.7683770224
 30
0.0
 11
157.0503436481
 21
121.8247722704
 31
0.0
  0
LINE
  5
18F
330
1F
100
AcDbEntity
  8
0
  6
Continuous
 62
     8
370
    18
100
AcDbLine
 10
156.1091418678
 20
152.1477080707
 30
0.0
 11
156.0849140143
 21
154.5379118355
 31
0.0
  0
LINE
  5
190
330
1F
100
AcDbEntity
  8
0
  6
Continuous
 62
     8
370
    18
100
AcDbLine
 10
205.7340942133
 20
133.1519318607
 30
0.0
 11
205.2591425179
 21
121.8247722704
 31
0.0
  0
LINE
  5
191
330
1F
100
AcDbEntity
  8
0
  6
Continuous
 62
     8
370
    18
100
AcDbLine
 10
199.7774803259
 20
161.7956151802
 30
0.0
 11
156.654743083
 21
161.7956151802
 31
0.0
  0
LINE
  5
192
330
1F
100
AcDbEntity
  8
0
  6
Continuous
 62
     8
370
    18
100
AcDbLine
 10
205.654743083
 20
161.7956151802
 30
0.0
 11
199.7774803259
 21
161.7956151802
 31
0.0
  0
SPLINE
  5
193
330
1F
100
AcDbEntity
  8
0
  6
Continuous
 62
     8
370
    18
100
AcDbSpline
210
0.0
220
0.0
230
1.0
 70
     8
 71
     3
 72
    29
 73
    25
 74
     0
 42
0.00000001
 43
0.00000001
 40
0.0
 40
0.0
 40
0.0
 40
0.0
 40
0.0773560840184947
 40
0.1580364312942317
 40
0.2476674645234845
 40
0.2788288539501292
 40
0.3202755315212129
 40
0.3721704940376173
 40
0.4346133994485554
 40
0.497793505450997
 40
0.5146529542311955
 40
0.5356805009822008
 40
0.5608948439673878
 40
0.5903099647497267
 40
0.6239558437650363
 40
0.6660728053269662
 40
0.7081511654289014
 40
0.7501539294203066
 40
0.7906842590257075
 40
0.8752457846331353
 40
0.9052374978256917
 40
0.9359896736065182
 40
0.9675550429180162
 40
1.0
 40
1.0
 40
1.0
 40
1.0
 10
181.1547426976734
 20
120.6378066089122
 30
0.0
 10
180.1720302605858
 20
120.6378847552236
 30
0.0
 10
178.1643747734149
 20
120.6380444060686
 30
0.0
 10
175.0181745782801
 20
120.6393901021838
 30
0.0
 10
172.458863056757
 20
120.6392801217516
 30
0.0
 10
170.3986169673497
 20
120.6410996497241
 30
0.0
 10
168.8193520790852
 20
120.6440057062109
 30
0.0
 10
166.8579603175976
 20
120.6465441486624
 30
0.0
 10
164.7019711242674
 20
120.6452189203916
 30
0.0
 10
163.1311622721253
 20
120.6401468854202
 30
0.0
 10
162.1383667617624
 20
120.6338060457513
 30
0.0
 10
161.5602464677215
 20
120.6284662076471
 30
0.0
 10
160.9275869705606
 20
120.6209661353419
 30
0.0
 10
160.2789360939805
 20
120.6109252483977
 30
0.0
 10
159.6430359146799
 20
120.5975561165785
 30
0.0
 10
159.1150638650479
 20
120.5812475991288
 30
0.0
 10
158.7609168580055
 20
120.5630418321484
 30
0.0
 10
158.5970625220559
 20
120.5437804409174
 30
0.0
 10
158.5010082451278
 20
120.5209740680448
 30
0.0
 10
158.496716445955
 20
120.4998042298191
 30
0.0
 10
158.4653412671834
 20
120.4794387969018
 30
0.0
 10
158.4482265069814
 20
120.4661697293886
 30
0.0
 10
158.4301963154255
 20
120.4522678913203
 30
0.0
 10
158.4183073106367
 20
120.4426005974797
 30
0.0
 10
158.4122811228035
 20
120.4377005297652
 30
0.0
  0
SPLINE
  5
194
330
1F
100
AcDbEntity
  8
0
  6
Continuous
 62
     8
370
    18
100
AcDbSpline
210
0.0
220
0.0
230
1.0
 70
     8
 71
     3
 72
    14
 73
    10
 74
     0
 42
0.00000001
 43
0.00000001
 40
0.0
 40
0.0
 40
0.0
 40
0.0
 40
0.25
 40
0.25
 40
0.5
 40
0.5
 40
0.75
 40
0.75
 40
1.0
 40
1.0
 40
1.0
 40
1.0
 10
157.0503729496303
 20
121.8249049789711
 30
0.0
 10
157.0576029204709
 20
121.6630770293141
 30
0.0
 10
157.0931080709009
 20
121.4914379256643
 30
0.0
 10
157.2319379306223
 20
121.1610299317471
 30
0.0
 10
157.3355382440004
 20
121.0030556916703
 30
0.0
 10
157.5958308824245
 20
120.737929384729
 30
0.0
 10
157.7518713295687
 20
120.6314413012246
 30
0.0
 10
158.0796654833457
 20
120.4865600123639
 30
0.0
 10
158.2506196252019
 20
120.4479058475256
 30
0.0
 10
158.4122840948752
 20
120.4377029647032
 30
0.0
  0
SPLINE
  5
195
330
1F
100
AcDbEntity
  8
0
  6
Continuous
 62
     8
370
    18
100
AcDbSpline
210
0.0
220
0.0
230
1.0
 70
     8
 71
     3
 72
    14
 73
    10
 74
     0
 42
0.00000001
 43
0.00000001
 40
0.0
 40
0.0
 40
0.0
 40
0.0
 40
0.25
 40
0.25
 40
0.5
 40
0.5
 40
0.75
 40
0.75
 40
1.0
 40
1.0
 40
1.0
 40
1.0
 10
203.8968169521143
 20
120.4376846051732
 30
0.0
 10
204.0584860723281
 20
120.4478823484151
 30
0.0
 10
204.2294416471207
 20
120.4865268329036
 30
0.0
 10
204.5572423589016
 20
120.6313746435994
 30
0.0
 10
204.7132884769478
 20
120.7378387087413
 30
0.0
 10
204.9736099788252
 20
121.0029120478502
 30
0.0
 10
205.0772338817262
 20
121.1608579486692
 30
0.0
 10
205.2161278831197
 20
121.4912237576792
 30
0.0
 10
205.2516731365659
 20
121.6628495003908
 30
0.0
 10
205.2589441579417
 20
121.8246756705579
 30
0.0
  0
SPLINE
  5
196
330
1F
100
AcDbEntity
  8
0
  6
Continuous
 62
     8
370
    18
100
AcDbSpline
210
0.0
220
0.0
230
1.0
 70
     8
 71
     3
 72
    28
 73
    24
 74
     0
 42
0.00000001
 43
0.00000001
 40
0.0
 40
0.0
 40
0.0
 40
0.0
 40
0.1249999999999999
 40
0.1249999999999999
 40
0.1874999999999999
 40
0.1874999999999999
 40
0.2499999999999999
 40
0.2499999999999999
 40
0.3124999999999999
 40
0.3124999999999999
 40
0.375
 40
0.375
 40
0.4375
 40
0.4375
 40
0.5
 40
0.5
 40
0.5625
 40
0.5625
 40
0.6249999999999999
 40
0.6249999999999999
 40
0.7499999999999999
 40
0.7499999999999999
 40
1.0
 40
1.0
 40
1.0
 40
1.0
 10
203.897205081674
 20
120.4377004982449
 30
0.0
 10
203.8740573742526
 20
120.4566648210886
 30
0.0
 10
203.8505070185564
 20
120.4748049163582
 30
0.0
 10
203.8137929149612
 20
120.5007884608213
 30
0.0
 10
203.8016766338395
 20
120.5091136725905
 30
0.0
 10
203.7751708411914
 20
120.5259852285213
 30
0.0
 10
203.7581457270695
 20
120.5347773694045
 30
0.0
 10
203.6389341750893
 20
120.5531014409354
 30
0.0
 10
203.5365957822668
 20
120.5624462616055
 30
0.0
 10
203.1838891875061
 20
120.5810484491339
 30
0.0
 10
202.9282423602645
 20
120.5901355727588
 30
0.0
 10
202.2554411950917
 20
120.6067929510121
 30
0.0
 10
201.8287790196929
 20
120.6146780512106
 30
0.0
 10
200.8295773155733
 20
120.628020377929
 30
0.0
 10
200.2623004898545
 20
120.6333382867565
 30
0.0
 10
198.9958419096905
 20
120.6409504976551
 30
0.0
 10
198.2966291082591
 20
120.6432935469028
 30
0.0
 10
196.8483534795543
 20
120.6459277263049
 30
0.0
 10
196.0868284530284
 20
120.6462218180968
 30
0.0
 10
193.7510516077566
 20
120.6449942826073
 30
0.0
 10
192.1694134330055
 20
120.6412853573831
 30
0.0
 10
187.4404289297306
 20
120.637520513816
 30
0.0
 10
184.304380613358
 20
120.6378061205664
 30
0.0
 10
181.1547434683278
 20
120.6378066089121
 30
0.0
  0
SPLINE
  5
197
330
1F
100
AcDbEntity
  8
0
  6
Continuous
 62
     8
370
    18
100
AcDbSpline
210
0.0
220
0.0
230
1.0
 70
     8
 71
     3
 72
     8
 73
     4
 74
     0
 42
0.00000001
 43
0.00000001
 40
0.0
 40
0.0
 40
0.0
 40
0.0
 40
0.9317346629283825
 40
0.9317346629283825
 40
0.9317346629283825
 40
0.9317346629283825
 10
181.1547430830006
 20
119.8476792031443
 30
0.0
 10
172.2426183911962
 20
119.8476792031443
 30
0.0
 10
164.6618611068075
 20
120.0443489788663
 30
0.0
 10
158.4124712298347
 20
120.4376885303103
 30
0.0
  0
SPLINE
  5
198
330
1F
100
AcDbEntity
  8
0
  6
Continuous
 62
     8
370
    18
100
AcDbSpline
210
0.0
220
0.0
230
1.0
 70
     8
 71
     3
 72
     8
 73
     4
 74
     0
 42
0.00000001
 43
0.00000001
 40
0.0
 40
0.0
 40
0.0
 40
0.0
 40
0.9317346629283825
 40
0.9317346629283825
 40
0.9317346629283825
 40
0.9317346629283825
 10
181.1547430830006
 20
119.8476792031443
 30
0.0
 10
190.066867774805
 20
119.8476792031443
 30
0.0
 10
197.6476250591937
 20
120.0443489788663
 30
0.0
 10
203.8970149361665
 20
120.4376885303103
 30
0.0
  0
LINE
  5
199
330
1F
100
AcDbEntity
  8
0
  6
Continuous
 62
     8
370
    18
100
AcDbLine
 10
156.9905593041
 20
121.685481201
 30
0.0
 11
157.0505416918
 21
121.8246753571
 31
0.0
  0
LINE
  5
19A
330
1F
100
AcDbEntity
  8
0
  6
Continuous
 62
     8
370
    18
100
AcDbLine
 10
205.3189268619
 20
121.685481201
 30
0.0
 11
205.2589444742
 21
121.8246753571
 31
0.0
  0
SPLINE
  5
19B
330
1F
100
AcDbEntity
  8
0
  6
Continuous
 62
     8
370
    18
100
AcDbSpline
210
0.0
220
0.0
230
1.0
 70
     8
 71
     3
 72
     9
 73
     5
 74
     0
 42
0.00000001
 43
0.00000001
 40
0.1055971148082074
 40
0.1055971148082074
 40
0.1055971148082074
 40
0.1055971148082074
 40
0.125
 40
1.0
 40
1.0
 40
1.0
 40
1.0
 10
203.2056861577554
 20
119.4778676263967
 30
0.0
 10
203.1242662969109
 20
119.4736742994672
 30
0.0
 10
199.3605088368872
 20
119.2816730705697
 30
0.0
 10
195.1083082173273
 20
119.1494121975229
 30
0.0
 10
190.4808726800303
 20
119.0771970437276
 30
0.0
  0
SPLINE
  5
19C
330
1F
100
AcDbEntity
  8
0
  6
Continuous
 62
     8
370
    18
100
AcDbSpline
210
0.0
220
0.0
230
1.0
 70
     8
 71
     3
 72
     8
 73
     4
 74
     0
 42
0.00000001
 43
0.00000001
 40
0.0
 40
0.0
 40
0.0
 40
0.0
 40
0.3559074851186003
 40
0.3559074851186003
 40
0.3559074851186003
 40
0.3559074851186003
 10
190.4808726800303
 20
119.0771970437276
 30
0.0
 10
187.5585969304603
 20
119.03159239057
 30
0.0
 10
184.4498870647837
 20
119.0087900639911
 30
0.0
 10
181.1547430830006
 20
119.0087900639911
 30
0.0
  0
SPLINE
  5
19D
330
1F
100
AcDbEntity
  8
0
  6
Continuous
 62
     8
370
    18
100
AcDbSpline
210
0.0
220
0.0
230
1.0
 70
     8
 71
     3
 72
    10
 73
     6
 74
     0
 42
0.00000001
 43
0.00000001
 40
0.0
 40
0.0
 40
0.0
 40
0.0
 40
0.5
 40
0.5
 40
1.0
 40
1.0
 40
1.0
 40
1.0
 10
204.0327848257065
 20
120.1964243957116
 30
0.0
 10
204.037854796454
 20
120.2364474746014
 30
0.0
 10
204.0411487333219
 20
120.2773080962289
 30
0.0
 10
203.9814785937764
 20
120.3571910859436
 30
0.0
 10
203.9375313560794
 20
120.397338256527
 30
0.0
 10
203.89682481633
 20
120.4376765372868
 30
0.0
  0
SPLINE
  5
19E
330
1F
100
AcDbEntity
  8
0
  6
Continuous
 62
     8
370
    18
100
AcDbSpline
210
0.0
220
0.0
230
1.0
 70
     8
 71
     3
 72
    10
 73
     6
 74
     0
 42
0.00000001
 43
0.00000001
 40
0.0
 40
0.0
 40
0.0
 40
0.0
 40
0.4999999999999999
 40
0.4999999999999999
 40
1.0
 40
1.0
 40
1.0
 40
1.0
 10
203.2060311749484
 20
119.4782570707598
 30
0.0
 10
203.3525673241516
 20
119.5979323523755
 30
0.0
 10
203.4994035890406
 20
119.7176278219475
 30
0.0
 10
203.7934788698283
 20
119.9570506346314
 30
0.0
 10
203.9863773246388
 20
120.0767946803314
 30
0.0
 10
204.0322651987631
 20
120.1963933121723
 30
0.0
  0
SPLINE
  5
19F
330
1F
100
AcDbEntity
  8
0
  6
Continuous
 62
     8
370
    18
100
AcDbSpline
210
0.0
220
0.0
230
1.0
 70
     8
 71
     3
 72
    10
 73
     6
 74
     0
 42
0.00000001
 43
0.00000001
 40
0.0
 40
0.0
 40
0.0
 40
0.0
 40
0.5000000000000001
 40
0.5000000000000001
 40
1.0
 40
1.0
 40
1.0
 40
1.0
 10
158.4126613462423
 20
120.4376765356932
 30
0.0
 10
158.3693902281989
 20
120.3974952468368
 30
0.0
 10
158.3261166120545
 20
120.3573020356582
 30
0.0
 10
158.2751647258248
 20
120.2768867792195
 30
0.0
 10
158.2676743735467
 20
120.2366647385322
 30
0.0
 10
158.2767013402947
 20
120.1964243957116
 30
0.0
  0
SPLINE
  5
1A0
330
1F
100
AcDbEntity
  8
0
  6
Continuous
 62
     8
370
    18
100
AcDbSpline
210
0.0
220
0.0
230
1.0
 70
     8
 71
     3
 72
     9
 73
     5
 74
     0
 42
0.00000001
 43
0.00000001
 40
0.0
 40
0.0
 40
0.0
 40
0.0
 40
0.5
 40
1.0
 40
1.0
 40
1.0
 40
1.0
 10
181.1547430830006
 20
119.0087900639911
 30
0.0
 10
179.507171092109
 20
119.0087900639911
 30
0.0
 10
176.3052441683792
 20
119.0201912272805
 30
0.0
 10
173.2897513607559
 20
119.0543947171488
 30
0.0
 10
171.8286134859709
 20
119.0771970437275
 30
0.0
  0
SPLINE
  5
1A1
330
1F
100
AcDbEntity
  8
0
  6
Continuous
 62
     8
370
    18
100
AcDbSpline
210
0.0
220
0.0
230
1.0
 70
     8
 71
     3
 72
     8
 73
     4
 74
     0
 42
0.00000001
 43
0.00000001
 40
0.3559074851186002
 40
0.3559074851186002
 40
0.3559074851186002
 40
0.3559074851186002
 40
0.9319856887589617
 40
0.9319856887589617
 40
0.9319856887589617
 40
0.9319856887589617
 10
171.8286134859709
 20
119.0771970437275
 30
0.0
 10
167.0985658338595
 20
119.1510135487665
 30
0.0
 10
162.8569613412845
 20
119.2845704096562
 30
0.0
 10
159.1038000082458
 20
119.4778676263967
 30
0.0
  0
SPLINE
  5
1A2
330
1F
100
AcDbEntity
  8
0
  6
Continuous
 62
     8
370
    18
100
AcDbSpline
210
0.0
220
0.0
230
1.0
 70
     8
 71
     3
 72
    25
 73
    21
 74
     0
 42
0.00000001
 43
0.00000001
 40
0.0
 40
0.0
 40
0.0
 40
0.0
 40
0.0555558203716307
 40
0.1111116733085091
 40
0.1666674155576483
 40
0.2222229718255979
 40
0.2777785046164367
 40
0.3333340291163399
 40
0.3888895462146106
 40
0.4444450568004377
 40
0.5000005617628908
 40
0.5555560619909093
 40
0.6111115583732989
 40
0.6666670517987204
 40
0.7222225431556848
 40
0.777778033332544
 40
0.8333335232174847
 40
0.8888890136985187
 40
0.9444445056634766
 40
1.0
 40
1.0
 40
1.0
 40
1.0
 10
158.2772209669128
 20
120.1963933130426
 30
0.0
 10
158.2833435718
 20
120.1831051283974
 30
0.0
 10
158.2955887851635
 20
120.156528751318
 30
0.0
 10
158.3270642131869
 20
120.1166546508673
 30
0.0
 10
158.3679505657803
 20
120.076772370183
 30
0.0
 10
158.4180465596478
 20
120.036880990269
 30
0.0
 10
158.4664585836403
 20
119.9969891752948
 30
0.0
 10
158.5153623104246
 20
119.9570952480797
 30
0.0
 10
158.564174582038
 20
119.9171997311106
 30
0.0
 10
158.6130514493729
 20
119.8773025711213
 30
0.0
 10
158.6619508916536
 20
119.8374038699014
 30
0.0
 10
158.710883961451
 20
119.7975036875501
 30
0.0
 10
158.7598474890878
 20
119.7576020952443
 30
0.0
 10
158.8088421200166
 20
119.7176991609374
 30
0.0
 10
158.8578674608597
 20
119.6777949538015
 30
0.0
 10
158.9069234578437
 20
119.6378895407892
 30
0.0
 10
158.95600973699
 20
119.5979829959559
 30
0.0
 10
159.0051268648876
 20
119.5580753666238
 30
0.0
 10
159.0542719653809
 20
119.5181667994283
 30
0.0
 10
159.0870606489289
 20
119.4915603138386
 30
0.0
 10
159.1034549910528
 20
119.4782570707598
 30
0.0
  0
SPLINE
  5
1A3
330
1F
100
AcDbEntity
  8
0
  6
Continuous
 62
     8
370
    18
100
AcDbSpline
210
0.0
220
0.0
230
1.0
 70
     8
 71
     3
 72
    12
 73
     8
 74
     0
 42
0.00000001
 43
0.00000001
 40
0.0
 40
0.0
 40
0.0
 40
0.0
 40
0.1540473715583257
 40
0.3301068992991842
 40
0.5061664051491853
 40
0.678697508978661
 40
1.0
 40
1.0
 40
1.0
 40
1.0
 10
205.2508574832495
 20
121.0985618544774
 30
0.0
 10
205.2189620268845
 20
121.0225920393023
 30
0.0
 10
205.1506135046353
 20
120.8597969206704
 30
0.0
 10
204.9851961259438
 20
120.642525295164
 30
0.0
 10
204.7762614004532
 20
120.4552049545056
 30
0.0
 10
204.4663776229418
 20
120.2682533681818
 30
0.0
 10
204.2033852173162
 20
120.2247334444229
 30
0.0
 10
204.0322747138423
 20
120.1964181170362
 30
0.0
  0
SPLINE
  5
1A4
330
1F
100
AcDbEntity
  8
0
  6
Continuous
 62
     8
370
    18
100
AcDbSpline
210
0.0
220
0.0
230
1.0
 70
     8
 71
     3
 72
    12
 73
     8
 74
     0
 42
0.00000001
 43
0.00000001
 40
0.0
 40
0.0
 40
0.0
 40
0.0
 40
0.1545619359352056
 40
0.3305389118832764
 40
0.5065068489055784
 40
0.6789353538169333
 40
1.0
 40
1.0
 40
1.0
 40
1.0
 10
157.0582322627945
 20
121.0992952885868
 30
0.0
 10
157.0902312592609
 20
121.0230151879367
 30
0.0
 10
157.1586628133132
 20
120.8598861399295
 30
0.0
 10
157.324255702289
 20
120.642309025893
 30
0.0
 10
157.533225797056
 20
120.4549876597826
 30
0.0
 10
157.8431299299747
 20
120.2680882491309
 30
0.0
 10
158.1061164912974
 20
120.2246529949806
 30
0.0
 10
158.2772144833865
 20
120.1963941944792
 30
0.0
  0
SPLINE
  5
1A5
330
1F
100
AcDbEntity
  8
0
  6
Continuous
 62
     8
370
    18
100
AcDbSpline
210
0.0
220
0.0
230
1.0
 70
     8
 71
     3
 72
    10
 73
     6
 74
     0
 42
0.00000001
 43
0.00000001
 40
0.0
 40
0.0
 40
0.0
 40
0.0
 40
0.0847107471698503
 40
0.4050353617729547
 40
1.0
 40
1.0
 40
1.0
 40
1.0
 10
158.3093960097197
 20
119.7899146436191
 30
0.0
 10
158.3272645889356
 20
119.7732129326514
 30
0.0
 10
158.4127012860358
 20
119.6933554910632
 30
0.0
 10
158.6708838778129
 20
119.5509958775402
 30
0.0
 10
158.9330603708669
 20
119.5069104416318
 30
0.0
 10
159.1034827175285
 20
119.4782536259365
 30
0.0
  0
SPLINE
  5
1A6
330
1F
100
AcDbEntity
  8
0
  6
Continuous
 62
     8
370
    18
100
AcDbSpline
210
0.0
220
0.0
230
1.0
 70
     8
 71
     3
 72
    10
 73
     6
 74
     0
 42
0.00000001
 43
0.00000001
 40
0.0
 40
0.0
 40
0.0
 40
0.0
 40
0.0846732238437553
 40
0.4050109899283291
 40
1.0
 40
1.0
 40
1.0
 40
1.0
 10
204.0000644582383
 20
119.7898911966807
 30
0.0
 10
203.9822043471963
 20
119.7731976272599
 30
0.0
 10
203.8967754367924
 20
119.6933485466454
 30
0.0
 10
203.6386007511804
 20
119.5509957752605
 30
0.0
 10
203.3764235849484
 20
119.5069090929894
 30
0.0
 10
203.2060008062607
 20
119.4782514680568
 30
0.0
  0
LINE
  5
1A7
330
1F
100
AcDbEntity
  8
0
  6
Continuous
 62
     8
370
    18
100
AcDbLine
 10
203.569998667
 20
119.5670293566
 30
0.0
 11
203.2055150695
 21
119.4778588133
 31
0.0
  0
SPLINE
  5
1A8
330
1F
100
AcDbEntity
  8
0
  6
Continuous
 62
     8
370
    18
100
AcDbSpline
210
0.0
220
0.0
230
1.0
 70
     8
 71
     3
 72
     9
 73
     5
 74
     0
 42
0.00000001
 43
0.00000001
 40
0.0
 40
0.0
 40
0.0
 40
0.0
 40
0.5150036046598294
 40
1.0
 40
1.0
 40
1.0
 40
1.0
 10
203.205504950106
 20
119.4778582938145
 30
0.0
 10
203.1983621110992
 20
119.4667868254694
 30
0.0
 10
203.1844926178721
 20
119.4452889791537
 30
0.0
 10
202.9286285990554
 20
119.4202942324104
 30
0.0
 10
202.804535472232
 20
119.4081718703375
 30
0.0
  0
LINE
  5
1A9
330
1F
100
AcDbEntity
  8
0
  6
Continuous
 62
     8
370
    18
100
AcDbLine
 10
171.828613486
 20
119.0771970437
 30
0.0
 11
171.8411885641
 21
119.0480207294
 31
0.0
  0
LINE
  5
1AA
330
1F
100
AcDbEntity
  8
0
  6
Continuous
 62
     8
370
    18
100
AcDbLine
 10
190.48087268
 20
119.0771970437
 30
0.0
 11
190.4689927341
 21
119.0497808751
 31
0.0
  0
LINE
  5
1AB
330
1F
100
AcDbEntity
  8
0
  6
Continuous
 62
     8
370
    18
100
AcDbLine
 10
181.154743083
 20
118.9894246518
 30
0.0
 11
181.154743083
 21
119.008790064
 31
0.0
  0
ENDSEC
  0
SECTION
  2
OBJECTS
  0
DICTIONARY
  5
C
330
0
100
AcDbDictionary
281
     1
  3
ACAD_GROUP
350
D
  3
ACAD_LAYOUT
350
1A
  3
ACAD_MLINESTYLE
350
17
  3
ACAD_PLOTSETTINGS
350
19
  3
ACAD_PLOTSTYLENAME
350
E
  3
ACAD_SCALELIST
350
47
  3
DWGPROPS
350
1AC
  0
DICTIONARY
  5
D
102
{ACAD_REACTORS
330
C
102
}
330
C
100
AcDbDictionary
281
     1
  0
DICTIONARY
  5
1A
102
{ACAD_REACTORS
330
C
102
}
330
C
100
AcDbDictionary
281
     1
  3
Layout1
350
1E
  3
Layout2
350
26
  3
Model
350
22
  0
DICTIONARY
  5
17
102
{ACAD_REACTORS
330
C
102
}
330
C
100
AcDbDictionary
281
     1
  3
Standard
350
18
  0
DICTIONARY
  5
19
102
{ACAD_REACTORS
330
C
102
}
330
C
100
AcDbDictionary
281
     1
  0
ACDBDICTIONARYWDFLT
  5
E
102
{ACAD_REACTORS
330
C
102
}
330
C
100
AcDbDictionary
281
     1
  3
Normal
350
F
100
AcDbDictionaryWithDefault
340
F
  0
DICTIONARY
  5
47
102
{ACAD_REACTORS
330
C
102
}
330
C
100
AcDbDictionary
281
     1
  3
A0
350
48
  3
A1
350
49
  3
A2
350
4A
  3
A3
350
4B
  3
A4
350
4C
  3
A5
350
4D
  3
A6
350
4E
  3
A7
350
4F
  3
A8
350
50
  3
A9
350
51
  3
B0
350
52
  3
B1
350
53
  3
B2
350
54
  3
B3
350
55
  3
B4
350
56
  3
B5
350
57
  3
B6
350
58
  3
B7
350
59
  3
B8
350
5A
  3
B9
350
5B
  3
C0
350
5C
  3
C1
350
5D
  3
C2
350
5E
  3
C3
350
5F
  3
C4
350
60
  3
C5
350
61
  3
C6
350
62
  3
C7
350
63
  3
C8
350
64
  3
C9
350
65
  3
D0
350
66
  3
D1
350
67
  3
D2
350
68
  0
XRECORD
  5
1AC
102
{ACAD_REACTORS
330
C
102
}
330
C
100
AcDbXrecord
280
     1
  1
DWGPROPS COOKIE
  2

  3

  4

  6

  7

  8
estudent
  9

300
=
301
=
302
=
303
=
304
=
305
=
306
=
307
=
308
=
309
=
 40
0.0
 41
2460006.372396215
 42
2460006.372397813
  1

 90
        0
  0
LAYOUT
  5
1E
102
{ACAD_REACTORS
330
1A
102
}
330
1A
100
AcDbPlotSettings
  1

  2
none_device
  4

  6

 40
0.0
 41
0.0
 42
0.0
 43
0.0
 44
0.0
 45
0.0
 46
0.0
 47
0.0
 48
0.0
 49
0.0
140
0.0
141
0.0
142
1.0
143
1.0
 70
   688
 72
     1
 73
     0
 74
     5
  7

 75
    16
147
1.0
148
0.0
149
0.0
100
AcDbLayout
  1
Layout1
 70
     1
 71
     1
 10
0.0
 20
0.0
 11
420.0
 21
297.0
 12
0.0
 22
0.0
 32
0.0
 14
1.0000000000E+20
 24
1.0000000000E+20
 34
1.0000000000E+20
 15
-1.0000000000E+20
 25
-1.0000000000E+20
 35
-1.0000000000E+20
146
0.0
 13
0.0
 23
0.0
 33
0.0
 16
1.0
 26
0.0
 36
0.0
 17
0.0
 27
1.0
 37
0.0
 76
     0
330
1B
  0
LAYOUT
  5
26
102
{ACAD_REACTORS
330
1A
102
}
330
1A
100
AcDbPlotSettings
  1

  2
none_device
  4

  6

 40
0.0
 41
0.0
 42
0.0
 43
0.0
 44
0.0
 45
0.0
 46
0.0
 47
0.0
 48
0.0
 49
0.0
140
0.0
141
0.0
142
1.0
143
1.0
 70
   688
 72
     1
 73
     0
 74
     5
  7

 75
    16
147
1.0
148
0.0
149
0.0
100
AcDbLayout
  1
Layout2
 70
     1
 71
     2
 10
0.0
 20
0.0
 11
0.0
 21
0.0
 12
0.0
 22
0.0
 32
0.0
 14
0.0
 24
0.0
 34
0.0
 15
0.0
 25
0.0
 35
0.0
146
0.0
 13
0.0
 23
0.0
 33
0.0
 16
1.0
 26
0.0
 36
0.0
 17
0.0
 27
1.0
 37
0.0
 76
     0
330
23
  0
LAYOUT
  5
22
102
{ACAD_REACTORS
330
1A
102
}
330
1A
100
AcDbPlotSettings
  1

  2
none_device
  4
Letter_(8.50_x_11.00_Inches)
  6

 40
6.35
 41
6.35
 42
6.35000508
 43
6.35000508
 44
215.9
 45
279.4
 46
0.0
 47
0.0
 48
0.0
 49
0.0
140
0.0
141
0.0
142
1.0
143
1.0
 70
  1712
 72
     1
 73
     0
 74
     0
  7

 75
     0
147
1.0
148
0.0
149
0.0
100
AcDbLayout
  1
Model
 70
     1
 71
     0
 10
0.0
 20
0.0
 11
594.0
 21
841.0
 12
0.0
 22
0.0
 32
0.0
 14
0.0
 24
0.0
 34
0.0
 15
594.0
 25
841.0
 35
0.0
146
0.0
 13
0.0
 23
0.0
 33
0.0
 16
1.0
 26
0.0
 36
0.0
 17
0.0
 27
1.0
 37
0.0
 76
     0
330
1F
331
29
  0
MLINESTYLE
  5
18
102
{ACAD_REACTORS
330
17
102
}
330
17
100
AcDbMlineStyle
  2
Standard
 70
     0
  3

 62
   256
 51
90.0
 52
90.0
 71
     2
 49
0.5
 62
   256
  6
BYLAYER
 49
-0.5
 62
   256
  6
BYLAYER
  0
ACDBPLACEHOLDER
  5
F
102
{ACAD_REACTORS
330
E
102
}
330
E
  0
SCALE
  5
48
102
{ACAD_REACTORS
330
47
102
}
330
47
100
AcDbScale
 70
     0
300
1:1
140
1.0
141
1.0
290
     1
  0
SCALE
  5
49
102
{ACAD_REACTORS
330
47
102
}
330
47
100
AcDbScale
 70
     0
300
1:2
140
1.0
141
2.0
290
     0
  0
SCALE
  5
4A
102
{ACAD_REACTORS
330
47
102
}
330
47
100
AcDbScale
 70
     0
300
1:4
140
1.0
141
4.0
290
     0
  0
SCALE
  5
4B
102
{ACAD_REACTORS
330
47
102
}
330
47
100
AcDbScale
 70
     0
300
1:5
140
1.0
141
5.0
290
     0
  0
SCALE
  5
4C
102
{ACAD_REACTORS
330
47
102
}
330
47
100
AcDbScale
 70
     0
300
1:8
140
1.0
141
8.0
290
     0
  0
SCALE
  5
4D
102
{ACAD_REACTORS
330
47
102
}
330
47
100
AcDbScale
 70
     0
300
1:10
140
1.0
141
10.0
290
     0
  0
SCALE
  5
4E
102
{ACAD_REACTORS
330
47
102
}
330
47
100
AcDbScale
 70
     0
300
1:16
140
1.0
141
16.0
290
     0
  0
SCALE
  5
4F
102
{ACAD_REACTORS
330
47
102
}
330
47
100
AcDbScale
 70
     0
300
1:20
140
1.0
141
20.0
290
     0
  0
SCALE
  5
50
102
{ACAD_REACTORS
330
47
102
}
330
47
100
AcDbScale
 70
     0
300
1:30
140
1.0
141
30.0
290
     0
  0
SCALE
  5
51
102
{ACAD_REACTORS
330
47
102
}
330
47
100
AcDbScale
 70
     0
300
1:40
140
1.0
141
40.0
290
     0
  0
SCALE
  5
52
102
{ACAD_REACTORS
330
47
102
}
330
47
100
AcDbScale
 70
     0
300
1:50
140
1.0
141
50.0
290
     0
  0
SCALE
  5
53
102
{ACAD_REACTORS
330
47
102
}
330
47
100
AcDbScale
 70
     0
300
1:100
140
1.0
141
100.0
290
     0
  0
SCALE
  5
54
102
{ACAD_REACTORS
330
47
102
}
330
47
100
AcDbScale
 70
     0
300
2:1
140
2.0
141
1.0
290
     0
  0
SCALE
  5
55
102
{ACAD_REACTORS
330
47
102
}
330
47
100
AcDbScale
 70
     0
300
4:1
140
4.0
141
1.0
290
     0
  0
SCALE
  5
56
102
{ACAD_REACTORS
330
47
102
}
330
47
100
AcDbScale
 70
     0
300
8:1
140
8.0
141
1.0
290
     0
  0
SCALE
  5
57
102
{ACAD_REACTORS
330
47
102
}
330
47
100
AcDbScale
 70
     0
300
10:1
140
10.0
141
1.0
290
     0
  0
SCALE
  5
58
102
{ACAD_REACTORS
330
47
102
}
330
47
100
AcDbScale
 70
     0
300
100:1
140
100.0
141
1.0
290
     0
  0
SCALE
  5
59
102
{ACAD_REACTORS
330
47
102
}
330
47
100
AcDbScale
 70
     0
300
1/128" = 1'-0"
140
0.0078125
141
12.0
290
     0
  0
SCALE
  5
5A
102
{ACAD_REACTORS
330
47
102
}
330
47
100
AcDbScale
 70
     0
300
1/64" = 1'-0"
140
0.015625
141
12.0
290
     0
  0
SCALE
  5
5B
102
{ACAD_REACTORS
330
47
102
}
330
47
100
AcDbScale
 70
     0
300
1/32" = 1'-0"
140
0.03125
141
12.0
290
     0
  0
SCALE
  5
5C
102
{ACAD_REACTORS
330
47
102
}
330
47
100
AcDbScale
 70
     0
300
1/16" = 1'-0"
140
0.0625
141
12.0
290
     0
  0
SCALE
  5
5D
102
{ACAD_REACTORS
330
47
102
}
330
47
100
AcDbScale
 70
     0
300
3/32" = 1'-0"
140
0.09375
141
12.0
290
     0
  0
SCALE
  5
5E
102
{ACAD_REACTORS
330
47
102
}
330
47
100
AcDbScale
 70
     0
300
1/8" = 1'-0"
140
0.125
141
12.0
290
     0
  0
SCALE
  5
5F
102
{ACAD_REACTORS
330
47
102
}
330
47
100
AcDbScale
 70
     0
300
3/16" = 1'-0"
140
0.1875
141
12.0
290
     0
  0
SCALE
  5
60
102
{ACAD_REACTORS
330
47
102
}
330
47
100
AcDbScale
 70
     0
300
1/4" = 1'-0"
140
0.25
141
12.0
290
     0
  0
SCALE
  5
61
102
{ACAD_REACTORS
330
47
102
}
330
47
100
AcDbScale
 70
     0
300
3/8" = 1'-0"
140
0.375
141
12.0
290
     0
  0
SCALE
  5
62
102
{ACAD_REACTORS
330
47
102
}
330
47
100
AcDbScale
 70
     0
300
1/2" = 1'-0"
140
0.5
141
12.0
290
     0
  0
SCALE
  5
63
102
{ACAD_REACTORS
330
47
102
}
330
47
100
AcDbScale
 70
     0
300
3/4" = 1'-0"
140
0.75
141
12.0
290
     0
  0
SCALE
  5
64
102
{ACAD_REACTORS
330
47
102
}
330
47
100
AcDbScale
 70
     0
300
1" = 1'-0"
140
1.0
141
12.0
290
     0
  0
SCALE
  5
65
102
{ACAD_REACTORS
330
47
102
}
330
47
100
AcDbScale
 70
     0
300
1-1/2" = 1'-0"
140
1.5
141
12.0
290
     0
  0
SCALE
  5
66
102
{ACAD_REACTORS
330
47
102
}
330
47
100
AcDbScale
 70
     0
300
3" = 1'-0"
140
3.0
141
12.0
290
     0
  0
SCALE
  5
67
102
{ACAD_REACTORS
330
47
102
}
330
47
100
AcDbScale
 70
     0
300
6" = 1'-0"
140
6.0
141
12.0
290
     0
  0
SCALE
  5
68
102
{ACAD_REACTORS
330
47
102
}
330
47
100
AcDbScale
 70
     0
300
1'-0" = 1'-0"
140
12.0
141
12.0
290
     0
  0
ENDSEC
  0
EOF
