  0
SECTION
  2
HEADER
  9
$ACADVER
  1
AC1015
  9
$ACADMAINTVER
 70
     6
  9
$DWGCODEPAGE
  3
ANSI_1252
  9
$INSBASE
 10
0.0
 20
0.0
 30
0.0
  9
$EXTMIN
 10
0.0
 20
0.0
 30
0.0
  9
$EXTMAX
 10
594.0
 20
841.0
 30
0.0
  9
$LIMMIN
 10
0.0
 20
0.0
  9
$LIMMAX
 10
594.0
 20
841.0
  9
$ORTHOMODE
 70
     0
  9
$REGENMODE
 70
     1
  9
$FILLMODE
 70
     1
  9
$QTEXTMODE
 70
     0
  9
$MIRRTEXT
 70
     1
  9
$LTSCALE
 40
1.0
  9
$ATTMODE
 70
     1
  9
$TEXTSIZE
 40
10.0
  9
$TRACEWID
 40
1.0
  9
$TEXTSTYLE
  7
Standard
  9
$CLAYER
  8
0
  9
$CELTYPE
  6
ByLayer
  9
$CECOLOR
 62
   256
  9
$CELTSCALE
 40
1.0
  9
$DISPSILH
 70
     0
  9
$DIMSCALE
 40
1.0
  9
$DIMASZ
 40
2.5
  9
$DIMEXO
 40
0.0
  9
$DIMDLI
 40
3.75
  9
$DIMRND
 40
0.0
  9
$DIMDLE
 40
0.0
  9
$DIMEXE
 40
1.0
  9
$DIMTP
 40
0.0
  9
$DIMTM
 40
0.0
  9
$DIMTXT
 40
3.5
  9
$DIMCEN
 40
2.5
  9
$DIMTSZ
 40
0.0
  9
$DIMTOL
 70
     0
  9
$DIMLIM
 70
     0
  9
$DIMTIH
 70
     1
  9
$DIMTOH
 70
     1
  9
$DIMSE1
 70
     0
  9
$DIMSE2
 70
     0
  9
$DIMTAD
 70
     1
  9
$DIMZIN
 70
     0
  9
$DIMBLK
  1

  9
$DIMASO
 70
     1
  9
$DIMSHO
 70
     1
  9
$DIMPOST
  1

  9
$DIMAPOST
  1

  9
$DIMALT
 70
     0
  9
$DIMALTD
 70
     3
  9
$DIMALTF
 40
0.0393700787
  9
$DIMLFAC
 40
1.0
  9
$DIMTOFL
 70
     1
  9
$DIMTVP
 40
0.0
  9
$DIMTIX
 70
     0
  9
$DIMSOXD
 70
     0
  9
$DIMSAH
 70
     0
  9
$DIMBLK1
  1

  9
$DIMBLK2
  1

  9
$DIMSTYLE
  2
ISO-25
  9
$DIMCLRD
 70
     0
  9
$DIMCLRE
 70
     0
  9
$DIMCLRT
 70
     0
  9
$DIMTFAC
 40
1.0
  9
$DIMGAP
 40
1.5
  9
$DIMJUST
 70
     0
  9
$DIMSD1
 70
     0
  9
$DIMSD2
 70
     0
  9
$DIMTOLJ
 70
     0
  9
$DIMTZIN
 70
     0
  9
$DIMALTZ
 70
     0
  9
$DIMALTTZ
 70
     0
  9
$DIMUPT
 70
     0
  9
$DIMDEC
 70
     2
  9
$DIMTDEC
 70
     2
  9
$DIMALTU
 70
     2
  9
$DIMALTTD
 70
     3
  9
$DIMTXSTY
  7
Standard
  9
$DIMAUNIT
 70
     0
  9
$DIMADEC
 70
     2
  9
$DIMALTRND
 40
0.0
  9
$DIMAZIN
 70
     0
  9
$DIMDSEP
 70
    44
  9
$DIMATFIT
 70
     3
  9
$DIMFRAC
 70
     0
  9
$DIMLDRBLK
  1

  9
$DIMLUNIT
 70
     2
  9
$DIMLWD
 70
    -2
  9
$DIMLWE
 70
    -2
  9
$DIMTMOVE
 70
     0
  9
$LUNITS
 70
     2
  9
$LUPREC
 70
     2
  9
$SKETCHINC
 40
1.0
  9
$FILLETRAD
 40
0.0
  9
$AUNITS
 70
     0
  9
$AUPREC
 70
     2
  9
$MENU
  1
.
  9
$ELEVATION
 40
0.0
  9
$PELEVATION
 40
0.0
  9
$THICKNESS
 40
0.0
  9
$LIMCHECK
 70
     0
  9
$CHAMFERA
 40
0.0
  9
$CHAMFERB
 40
0.0
  9
$CHAMFERC
 40
0.0
  9
$CHAMFERD
 40
0.0
  9
$SKPOLY
 70
     0
  9
$TDCREATE
 40
2460336.413353032
  9
$TDUCREATE
 40
2460336.371686366
  9
$TDUPDATE
 40
2460336.41335412
  9
$TDUUPDATE
 40
2460336.371687454
  9
$TDINDWG
 40
0.0000000116
  9
$TDUSRTIMER
 40
0.0000000116
  9
$USRTIMER
 70
     1
  9
$ANGBASE
 50
0.0
  9
$ANGDIR
 70
     0
  9
$PDMODE
 70
     0
  9
$PDSIZE
 40
-1.0
  9
$PLINEWID
 40
0.0
  9
$SPLFRAME
 70
     0
  9
$SPLINETYPE
 70
     6
  9
$SPLINESEGS
 70
     8
  9
$HANDSEED
  5
21A
  9
$SURFTAB1
 70
     6
  9
$SURFTAB2
 70
     6
  9
$SURFTYPE
 70
     6
  9
$SURFU
 70
     6
  9
$SURFV
 70
     6
  9
$UCSBASE
  2

  9
$UCSNAME
  2

  9
$UCSORG
 10
0.0
 20
0.0
 30
0.0
  9
$UCSXDIR
 10
1.0
 20
0.0
 30
0.0
  9
$UCSYDIR
 10
0.0
 20
1.0
 30
0.0
  9
$UCSORTHOREF
  2

  9
$UCSORTHOVIEW
 70
     0
  9
$UCSORGTOP
 10
0.0
 20
0.0
 30
0.0
  9
$UCSORGBOTTOM
 10
0.0
 20
0.0
 30
0.0
  9
$UCSORGLEFT
 10
0.0
 20
0.0
 30
0.0
  9
$UCSORGRIGHT
 10
0.0
 20
0.0
 30
0.0
  9
$UCSORGFRONT
 10
0.0
 20
0.0
 30
0.0
  9
$UCSORGBACK
 10
0.0
 20
0.0
 30
0.0
  9
$PUCSBASE
  2

  9
$PUCSNAME
  2

  9
$PUCSORG
 10
0.0
 20
0.0
 30
0.0
  9
$PUCSXDIR
 10
1.0
 20
0.0
 30
0.0
  9
$PUCSYDIR
 10
0.0
 20
1.0
 30
0.0
  9
$PUCSORTHOREF
  2

  9
$PUCSORTHOVIEW
 70
     0
  9
$PUCSORGTOP
 10
0.0
 20
0.0
 30
0.0
  9
$PUCSORGBOTTOM
 10
0.0
 20
0.0
 30
0.0
  9
$PUCSORGLEFT
 10
0.0
 20
0.0
 30
0.0
  9
$PUCSORGRIGHT
 10
0.0
 20
0.0
 30
0.0
  9
$PUCSORGFRONT
 10
0.0
 20
0.0
 30
0.0
  9
$PUCSORGBACK
 10
0.0
 20
0.0
 30
0.0
  9
$USERI1
 70
     0
  9
$USERI2
 70
     0
  9
$USERI3
 70
     0
  9
$USERI4
 70
     0
  9
$USERI5
 70
     0
  9
$USERR1
 40
0.0
  9
$USERR2
 40
0.0
  9
$USERR3
 40
0.0
  9
$USERR4
 40
0.0
  9
$USERR5
 40
0.0
  9
$WORLDVIEW
 70
     1
  9
$SHADEDGE
 70
     3
  9
$SHADEDIF
 70
    70
  9
$TILEMODE
 70
     1
  9
$MAXACTVP
 70
    64
  9
$PINSBASE
 10
0.0
 20
0.0
 30
0.0
  9
$PLIMCHECK
 70
     0
  9
$PEXTMIN
 10
1.0000000000E+20
 20
1.0000000000E+20
 30
1.0000000000E+20
  9
$PEXTMAX
 10
-1.0000000000E+20
 20
-1.0000000000E+20
 30
-1.0000000000E+20
  9
$PLIMMIN
 10
0.0
 20
0.0
  9
$PLIMMAX
 10
420.0
 20
297.0
  9
$UNITMODE
 70
     0
  9
$VISRETAIN
 70
     1
  9
$PLINEGEN
 70
     0
  9
$PSLTSCALE
 70
     1
  9
$TREEDEPTH
 70
  3020
  9
$CMLSTYLE
  2
Standard
  9
$CMLJUST
 70
     0
  9
$CMLSCALE
 40
20.0
  9
$PROXYGRAPHICS
 70
     1
  9
$MEASUREMENT
 70
     1
  9
$CELWEIGHT
370
    -1
  9
$ENDCAPS
280
     0
  9
$JOINSTYLE
280
     0
  9
$LWDISPLAY
290
     1
  9
$INSUNITS
 70
     4
  9
$HYPERLINKBASE
  1

  9
$STYLESHEET
  1

  9
$XEDIT
290
     1
  9
$CEPSNTYPE
380
     0
  9
$PSTYLEMODE
290
     1
  9
$FINGERPRINTGUID
  2
{78b8b726-53e1-4f11-b8b0-ba8ff7ad74f4}
  9
$VERSIONGUID
  2
{FAEB1C32-E019-11D5-929B-00C0DF256EC4}
  9
$EXTNAMES
290
     1
  9
$PSVPSCALE
 40
0.0
  9
$OLESTARTUP
290
     0
  0
ENDSEC
  0
SECTION
  2
CLASSES
  0
CLASS
  1
ACDBDICTIONARYWDFLT
  2
AcDbDictionaryWithDefault
  3
ObjectDBX Classes
 90
        0
280
     0
281
     0
  0
CLASS
  1
VISUALSTYLE
  2
AcDbVisualStyle
  3
ObjectDBX Classes
 90
     4095
280
     0
281
     0
  0
CLASS
  1
MATERIAL
  2
AcDbMaterial
  3
ObjectDBX Classes
 90
     1153
280
     0
281
     0
  0
CLASS
  1
SCALE
  2
AcDbScale
  3
ObjectDBX Classes
 90
     1153
280
     0
281
     0
  0
CLASS
  1
TABLESTYLE
  2
AcDbTableStyle
  3
ObjectDBX Classes
 90
     4095
280
     0
281
     0
  0
CLASS
  1
MLEADERSTYLE
  2
AcDbMLeaderStyle
  3
ACDB_MLEADERSTYLE_CLASS
 90
     4095
280
     0
281
     0
  0
CLASS
  1
SUN
  2
AcDbSun
  3
SCENEOE
 90
     1153
280
     0
281
     0
  0
CLASS
  1
ACDBPLACEHOLDER
  2
AcDbPlaceHolder
  3
ObjectDBX Classes
 90
        0
280
     0
281
     0
  0
CLASS
  1
LAYOUT
  2
AcDbLayout
  3
ObjectDBX Classes
 90
        0
280
     0
281
     0
  0
ENDSEC
  0
SECTION
  2
TABLES
  0
TABLE
  2
VPORT
  5
8
330
0
100
AcDbSymbolTable
 70
     1
  0
VPORT
  5
29
330
8
100
AcDbSymbolTableRecord
100
AcDbViewportTableRecord
  2
*Active
 70
     0
 10
0.0
 20
0.0
 11
1.0
 21
1.0
 12
297.0
 22
420.5
 13
0.0
 23
0.0
 14
10.0
 24
10.0
 15
10.0
 25
10.0
 16
0.0
 26
0.0
 36
1.0
 17
0.0
 27
0.0
 37
0.0
 40
841.0
 41
0.7063020214
 42
50.0
 43
0.0
 44
0.0
 50
0.0
 51
0.0
 71
     0
 72
  2000
 73
     1
 74
     3
 75
     0
 76
     0
 77
     0
 78
     0
281
     0
 65
     1
110
0.0
120
0.0
130
0.0
111
1.0
121
0.0
131
0.0
112
0.0
122
1.0
132
0.0
 79
     0
146
0.0
  0
ENDTAB
  0
TABLE
  2
LTYPE
  5
5
330
0
100
AcDbSymbolTable
 70
     6
  0
LTYPE
  5
14
330
5
100
AcDbSymbolTableRecord
100
AcDbLinetypeTableRecord
  2
ByBlock
 70
     0
  3

 72
    65
 73
     0
 40
0.0
  0
LTYPE
  5
15
330
5
100
AcDbSymbolTableRecord
100
AcDbLinetypeTableRecord
  2
ByLayer
 70
     0
  3

 72
    65
 73
     0
 40
0.0
  0
LTYPE
  5
16
330
5
100
AcDbSymbolTableRecord
100
AcDbLinetypeTableRecord
  2
Continuous
 70
     0
  3
Solid line
 72
    65
 73
     0
 40
0.0
  0
LTYPE
  5
5E
330
5
100
AcDbSymbolTableRecord
100
AcDbLinetypeTableRecord
  2
HIDDEN
 70
     0
  3
Hidden __ __ __ __ __ __ __ __ __ __ __ __ __ __
 72
    65
 73
     2
 40
1.905
 49
1.27
 74
     0
 49
-0.635
 74
     0
  0
LTYPE
  5
5F
330
5
100
AcDbSymbolTableRecord
100
AcDbLinetypeTableRecord
  2
PHANTOM
 70
     0
  3
Phantom ______  __  __  ______  __  __  ______
 72
    65
 73
     6
 40
12.7
 49
6.35
 74
     0
 49
-1.27
 74
     0
 49
1.27
 74
     0
 49
-1.27
 74
     0
 49
1.27
 74
     0
 49
-1.27
 74
     0
  0
LTYPE
  5
60
330
5
100
AcDbSymbolTableRecord
100
AcDbLinetypeTableRecord
  2
CENTER
 70
     0
  3
Center ____ _ ____ _ ____ _ ____ _ ____ _ ____
 72
    65
 73
     4
 40
10.16
 49
6.35
 74
     0
 49
-1.27
 74
     0
 49
1.27
 74
     0
 49
-1.27
 74
     0
  0
LTYPE
  5
61
330
5
100
AcDbSymbolTableRecord
100
AcDbLinetypeTableRecord
  2
CENTERX2
 70
     0
  3
Center (2x) ________  __  ________  __  _____
 72
    65
 73
     4
 40
20.32
 49
12.7
 74
     0
 49
-2.54
 74
     0
 49
2.54
 74
     0
 49
-2.54
 74
     0
  0
LTYPE
  5
62
330
5
100
AcDbSymbolTableRecord
100
AcDbLinetypeTableRecord
  2
DOT2
 70
     0
  3
Dot (.5x) ........................................
 72
    65
 73
     2
 40
0.635
 49
0.0
 74
     0
 49
-0.635
 74
     0
  0
ENDTAB
  0
TABLE
  2
LAYER
  5
2
330
0
100
AcDbSymbolTable
 70
     1
  0
LAYER
  5
10
330
2
100
AcDbSymbolTableRecord
100
AcDbLayerTableRecord
  2
0
 70
     0
 62
     7
  6
Continuous
370
    -3
390
F
  0
ENDTAB
  0
TABLE
  2
STYLE
  5
3
330
0
100
AcDbSymbolTable
 70
     3
  0
STYLE
  5
11
330
3
100
AcDbSymbolTableRecord
100
AcDbTextStyleTableRecord
  2
Standard
 70
     0
 40
0.0
 41
1.0
 50
0.0
 71
     0
 42
10.0
  3
txt
  4

  0
STYLE
  5
66
330
3
100
AcDbSymbolTableRecord
100
AcDbTextStyleTableRecord
  2
SLDTEXTSTYLE0
 70
     0
 40
0.0
 41
0.96
 50
0.0
 71
     0
 42
10.0
  3
ISOCP3
  4

  0
STYLE
  5
7D
330
3
100
AcDbSymbolTableRecord
100
AcDbTextStyleTableRecord
  2
SLDTEXTSTYLE1
 70
     0
 40
0.0
 41
0.605
 50
0.0
 71
     0
 42
10.0
  3
TXT
  4

  0
ENDTAB
  0
TABLE
  2
VIEW
  5
6
330
0
100
AcDbSymbolTable
 70
     0
  0
ENDTAB
  0
TABLE
  2
UCS
  5
7
330
0
100
AcDbSymbolTable
 70
     0
  0
ENDTAB
  0
TABLE
  2
APPID
  5
9
330
0
100
AcDbSymbolTable
 70
     1
  0
APPID
  5
12
330
9
100
AcDbSymbolTableRecord
100
AcDbRegAppTableRecord
  2
ACAD
 70
     0
  0
ENDTAB
  0
TABLE
  2
DIMSTYLE
  5
A
330
0
100
AcDbSymbolTable
 70
     2
100
AcDbDimStyleTable
  0
DIMSTYLE
105
27
330
A
100
AcDbSymbolTableRecord
100
AcDbDimStyleTableRecord
  2
ISO-25
 70
     0
 41
2.5
 42
0.625
 43
3.75
 44
1.25
 73
     0
 74
     0
 77
     1
 78
     8
140
2.5
141
2.5
143
0.0393700787
147
0.625
171
     3
172
     1
178
     0
271
     2
272
     2
274
     3
278
    44
283
     0
284
     8
340
11
  0
DIMSTYLE
105
67
102
{ACAD_REACTORS
330
65
330
72
102
}
330
A
100
AcDbSymbolTableRecord
100
AcDbDimStyleTableRecord
  2
SLDDIMSTYLE0
 70
     0
 41
2.5
 44
0.0
 45
0.000000001
 73
     0
 74
     0
 77
     1
 78
    12
 79
     3
140
6.0
147
1.5
173
     1
178
     0
271
     2
272
     2
276
     2
284
    12
340
66
  0
ENDTAB
  0
TABLE
  2
BLOCK_RECORD
  5
1
330
0
100
AcDbSymbolTable
 70
     3
  0
BLOCK_RECORD
  5
1F
330
1
100
AcDbSymbolTableRecord
100
AcDbBlockTableRecord
  2
*Model_Space
340
22
  0
BLOCK_RECORD
  5
1B
330
1
100
AcDbSymbolTableRecord
100
AcDbBlockTableRecord
  2
*Paper_Space
340
1E
  0
BLOCK_RECORD
  5
23
330
1
100
AcDbSymbolTableRecord
100
AcDbBlockTableRecord
  2
*Paper_Space0
340
26
  0
BLOCK_RECORD
  5
68
330
1
100
AcDbSymbolTableRecord
100
AcDbBlockTableRecord
  2
_D
340
0
  0
BLOCK_RECORD
  5
73
330
1
100
AcDbSymbolTableRecord
100
AcDbBlockTableRecord
  2
_D_1
340
0
  0
ENDTAB
  0
ENDSEC
  0
SECTION
  2
BLOCKS
  0
BLOCK
  5
20
330
1F
100
AcDbEntity
  8
0
100
AcDbBlockBegin
  2
*Model_Space
 70
     0
 10
0.0
 20
0.0
 30
0.0
  3
*Model_Space
  1

  0
ENDBLK
  5
21
330
1F
100
AcDbEntity
  8
0
100
AcDbBlockEnd
  0
BLOCK
  5
1C
330
1B
100
AcDbEntity
 67
     1
  8
0
100
AcDbBlockBegin
  2
*Paper_Space
 70
     0
 10
0.0
 20
0.0
 30
0.0
  3
*Paper_Space
  1

  0
ENDBLK
  5
1D
330
1B
100
AcDbEntity
 67
     1
  8
0
100
AcDbBlockEnd
  0
BLOCK
  5
24
330
23
100
AcDbEntity
  8
0
100
AcDbBlockBegin
  2
*Paper_Space0
 70
     0
 10
0.0
 20
0.0
 30
0.0
  3
*Paper_Space0
  1

  0
ENDBLK
  5
25
330
23
100
AcDbEntity
  8
0
100
AcDbBlockEnd
  0
BLOCK
  5
69
330
68
100
AcDbEntity
  8
0
100
AcDbBlockBegin
  2
_D
 70
     0
 10
0.0
 20
0.0
 30
0.0
  3
_D
  1

  0
SOLID
  5
6B
330
68
100
AcDbEntity
  8
0
  6
Continuous
 62
     7
370
    18
100
AcDbTrace
 10
42.7614395004
 20
152.0299240879
 30
0.0
 11
42.4614395004
 21
149.5299240879
 31
0.0
 12
43.0614395004
 22
149.5299240879
 32
0.0
 13
43.0614395004
 23
149.5299240879
 33
0.0
  0
SOLID
  5
6C
330
68
100
AcDbEntity
  8
0
  6
Continuous
 62
     7
370
    18
100
AcDbTrace
 10
42.7614395004
 20
52.0299240879
 30
0.0
 11
43.0614395004
 21
54.5299240879
 31
0.0
 12
42.4614395004
 22
54.5299240879
 32
0.0
 13
42.4614395004
 23
54.5299240879
 33
0.0
  0
LINE
  5
6D
330
68
100
AcDbEntity
  8
0
  6
Continuous
 62
     7
370
     0
100
AcDbLine
 10
56.6850079902
 20
152.0299240879
 30
0.0
 11
41.7614395004
 21
152.0299240879
 31
0.0
  0
LINE
  5
6E
330
68
100
AcDbEntity
  8
0
  6
Continuous
 62
     7
370
     0
100
AcDbLine
 10
56.6850079902
 20
52.0299240879
 30
0.0
 11
41.7614395004
 21
52.0299240879
 31
0.0
  0
LINE
  5
6F
330
68
100
AcDbEntity
  8
0
  6
Continuous
 62
     7
370
     0
100
AcDbLine
 10
42.7614395004
 20
152.0299240879
 30
0.0
 11
42.7614395004
 21
52.0299240879
 31
0.0
  0
MTEXT
  5
70
330
68
100
AcDbEntity
  8
0
  6
Continuous
 62
     7
370
    18
100
AcDbMText
 10
35.0270332946
 20
94.3680541463
 30
0.0
 40
6.0
 41
0.0
 71
     1
 72
     1
  1
100
  7
SLDTEXTSTYLE0
 11
-7.044195017643634E-15
 21
1.0
 31
0.0
 73
     1
 44
1.0
  0
MTEXT
  5
71
330
68
100
AcDbEntity
  8
0
  6
Continuous
 62
     7
370
    18
100
AcDbMText
 10
35.0270332946
 20
105.7430548466
 30
0.0
 40
6.0
 41
0.0
 71
     1
 72
     1
  1
mm
  7
SLDTEXTSTYLE0
 11
-7.044195017643634E-15
 21
1.0
 31
0.0
 73
     1
 44
1.0
  0
ENDBLK
  5
6A
330
68
100
AcDbEntity
  8
0
100
AcDbBlockEnd
  0
BLOCK
  5
74
330
73
100
AcDbEntity
  8
0
100
AcDbBlockBegin
  2
_D_1
 70
     0
 10
0.0
 20
0.0
 30
0.0
  3
_D_1
  1

  0
SOLID
  5
76
330
73
100
AcDbEntity
  8
0
  6
Continuous
 62
     7
370
    18
100
AcDbTrace
 10
56.6850079902
 20
38.4602342313
 30
0.0
 11
59.1850079902
 21
38.1602342313
 31
0.0
 12
59.1850079902
 22
38.7602342313
 32
0.0
 13
59.1850079902
 23
38.7602342313
 33
0.0
  0
SOLID
  5
77
330
73
100
AcDbEntity
  8
0
  6
Continuous
 62
     7
370
    18
100
AcDbTrace
 10
156.6850079902
 20
38.4602342313
 30
0.0
 11
154.1850079902
 21
38.7602342313
 31
0.0
 12
154.1850079902
 22
38.1602342313
 32
0.0
 13
154.1850079902
 23
38.1602342313
 33
0.0
  0
LINE
  5
78
330
73
100
AcDbEntity
  8
0
  6
Continuous
 62
     7
370
     0
100
AcDbLine
 10
56.6850079902
 20
52.0299240879
 30
0.0
 11
56.6850079902
 21
37.4602342313
 31
0.0
  0
LINE
  5
79
330
73
100
AcDbEntity
  8
0
  6
Continuous
 62
     7
370
     0
100
AcDbLine
 10
156.6850079902
 20
52.0299240879
 30
0.0
 11
156.6850079902
 21
37.4602342313
 31
0.0
  0
LINE
  5
7A
330
73
100
AcDbEntity
  8
0
  6
Continuous
 62
     7
370
     0
100
AcDbLine
 10
56.6850079902
 20
38.4602342313
 30
0.0
 11
156.6850079902
 21
38.4602342313
 31
0.0
  0
MTEXT
  5
7B
330
73
100
AcDbEntity
  8
0
  6
Continuous
 62
     7
370
    18
100
AcDbMText
 10
93.9626484861
 20
46.1946404371
 30
0.0
 40
6.0
 41
0.0
 71
     1
 72
     1
  1
100
  7
SLDTEXTSTYLE0
 73
     1
 44
1.0
  0
MTEXT
  5
7C
330
73
100
AcDbEntity
  8
0
  6
Continuous
 62
     7
370
    18
100
AcDbMText
 10
105.3376491864
 20
46.1946404371
 30
0.0
 40
6.0
 41
0.0
 71
     1
 72
     1
  1
mm
  7
SLDTEXTSTYLE0
 73
     1
 44
1.0
  0
ENDBLK
  5
75
330
73
100
AcDbEntity
  8
0
100
AcDbBlockEnd
  0
ENDSEC
  0
SECTION
  2
ENTITIES
  0
LINE
  5
63
330
1F
100
AcDbEntity
  8
0
  6
Continuous
 62
     7
370
    18
100
AcDbLine
 10
56.6850079902
 20
152.0299240879
 30
0.0
 11
56.6850079902
 21
52.0299240879
 31
0.0
  0
LINE
  5
64
330
1F
100
AcDbEntity
  8
0
  6
Continuous
 62
     7
370
    18
100
AcDbLine
 10
56.6850079902
 20
52.0299240879
 30
0.0
 11
156.6850079902
 21
52.0299240879
 31
0.0
  0
DIMENSION
  5
65
330
1F
100
AcDbEntity
  8
0
  6
Continuous
 62
     7
370
    18
100
AcDbDimension
  2
_D
 10
42.7614395004
 20
52.0299240879
 30
0.0
 11
42.7614395004
 21
105.4472211621
 31
0.0
 70
   160
  1
<>mm
 71
     2
 42
-1.0
  3
SLDDIMSTYLE0
100
AcDbAlignedDimension
 13
56.6850079902
 23
152.0299240879
 33
0.0
 14
56.6850079902
 24
52.0299240879
 34
0.0
 50
90.0
100
AcDbRotatedDimension
  0
DIMENSION
  5
72
330
1F
100
AcDbEntity
  8
0
  6
Continuous
 62
     7
370
    18
100
AcDbDimension
  2
_D_1
 10
156.6850079902
 20
38.4602342313
 30
0.0
 11
105.0418155019
 21
38.4602342313
 31
0.0
 70
   160
  1
<>mm
 71
     2
 42
-1.0
  3
SLDDIMSTYLE0
100
AcDbAlignedDimension
 13
56.6850079902
 23
52.0299240879
 33
0.0
 14
156.6850079902
 24
52.0299240879
 34
0.0
100
AcDbRotatedDimension
  0
MTEXT
  5
7E
330
1F
100
AcDbEntity
  8
0
  6
Continuous
 62
     7
370
     0
100
AcDbMText
 10
412.8252631579
 20
48.4342449499
 30
0.0
 40
10.0
 41
0.0
 71
     1
 72
     1
  1
KLUDI GmbH & Co KG
  7
SLDTEXTSTYLE1
 73
     1
 44
1.0
  0
MTEXT
  5
7F
330
1F
100
AcDbEntity
  8
0
  6
Continuous
 62
     7
370
     0
100
AcDbMText
 10
210.0873490389
 20
48.4342449499
 30
0.0
 40
10.0
 41
0.0
 71
     1
 72
     1
  1
54 810 .. 75
  7
SLDTEXTSTYLE1
 73
     1
 44
1.0
  0
LINE
  5
80
330
1F
100
AcDbEntity
  8
0
  6
Continuous
 62
     7
370
    25
100
AcDbLine
 10
208.045306392
 20
371.4409091961
 30
0.0
 11
208.045306392
 21
366.7853175205
 31
0.0
  0
SPLINE
  5
81
330
1F
100
AcDbEntity
  8
0
  6
Continuous
 62
     7
370
    25
100
AcDbSpline
210
0.0
220
0.0
230
1.0
 70
     8
 71
     3
 72
    18
 73
    14
 74
     0
 42
0.00000001
 43
0.00000001
 40
0.0
 40
0.0
 40
0.0
 40
0.0
 40
0.1552373298604953
 40
0.2890551747041537
 40
0.3658286761933231
 40
0.3901638520057485
 40
0.40909161020867
 40
0.4333562665161289
 40
0.5090418987938494
 40
0.6061773589306096
 40
0.7340994940439267
 40
0.8845458372017784
 40
1.0
 40
1.0
 40
1.0
 40
1.0
 10
208.7698107857725
 20
372.2311193418462
 30
0.0
 10
208.7604745828973
 20
372.229938079971
 30
0.0
 10
208.7430903766912
 20
372.2277385455033
 30
0.0
 10
208.7352078756381
 20
372.2265010516644
 30
0.0
 10
208.7240860408173
 20
372.2249852660323
 30
0.0
 10
208.701512232398
 20
372.2211004690752
 30
0.0
 10
208.6764587762596
 20
372.2161810030599
 30
0.0
 10
208.6119146958968
 20
372.2008988050782
 30
0.0
 10
208.4969814167208
 20
372.159767254406
 30
0.0
 10
208.3398473389216
 20
372.0648666728337
 30
0.0
 10
208.1802295181223
 20
371.8986570418753
 30
0.0
 10
208.0648697510965
 20
371.6794360003327
 30
0.0
 10
208.0592718625765
 20
371.5164651055819
 30
0.0
 10
208.0568412559471
 20
371.4457030431094
 30
0.0
  0
SPLINE
  5
82
330
1F
100
AcDbEntity
  8
0
  6
Continuous
 62
     7
370
    25
100
AcDbSpline
210
0.0
220
0.0
230
1.0
 70
     8
 71
     3
 72
    20
 73
    16
 74
     0
 42
0.00000001
 43
0.00000001
 40
0.0
 40
0.0
 40
0.0
 40
0.0
 40
0.0967916965418165
 40
0.2203635410381327
 40
0.3233030142231106
 40
0.4101539132029712
 40
0.4812037228176292
 40
0.5350792885134928
 40
0.5629639093103637
 40
0.5795065793218809
 40
0.5946161158391015
 40
0.6170198154488701
 40
0.6629723725558948
 40
0.8077203178645939
 40
1.0
 40
1.0
 40
1.0
 40
1.0
 10
219.9303047470031
 20
371.4433504512027
 30
0.0
 10
219.9309478489604
 20
371.5053286143511
 30
0.0
 10
219.9324119851373
 20
371.6464329444374
 30
0.0
 10
219.8439080503103
 20
371.8384142391134
 30
0.0
 10
219.7226725536985
 20
371.9969242591451
 30
0.0
 10
219.5929552488464
 20
372.1020791945584
 30
0.0
 10
219.4743516267666
 20
372.1661332236873
 30
0.0
 10
219.3832530979617
 20
372.1990202328928
 30
0.0
 10
219.3250931978299
 20
372.2137901894831
 30
0.0
 10
219.2984088696057
 20
372.2193140684176
 30
0.0
 10
219.2829652693698
 20
372.2221751855305
 30
0.0
 10
219.2694612504757
 20
372.2244465003665
 30
0.0
 10
219.2545437554806
 20
372.2267045791583
 30
0.0
 10
219.2462569206375
 20
372.2278579118982
 30
0.0
 10
219.231484758216
 20
372.2297948327418
 30
0.0
 10
219.2230570019623
 20
372.2308998772361
 30
0.0
  0
LINE
  5
83
330
1F
100
AcDbEntity
  8
0
  6
Continuous
 62
     7
370
    25
100
AcDbLine
 10
219.945306392
 20
366.7853175205
 30
0.0
 11
219.945306392
 21
371.4409091961
 31
0.0
  0
ELLIPSE
  5
84
330
1F
100
AcDbEntity
  8
0
  6
Continuous
 62
     7
370
    25
100
AcDbEllipse
 10
190.1909886522
 20
317.2689864177
 30
0.0
 11
0.848538909463059
 21
0.8485389094630023
 31
0.0
210
0.0
220
0.0
230
0.9999999999999998
 40
0.9999873052
 41
2.356232566403317
 42
3.926952740776397
  0
ELLIPSE
  5
85
330
1F
100
AcDbEntity
  8
0
  6
Continuous
 62
     7
370
    25
100
AcDbEllipse
 10
237.7996241318
 20
317.2689864177
 30
0.0
 11
0.8485389094630591
 21
-0.8485389094630591
 31
0.0
210
0.0
220
0.0
230
0.9999999999999998
 40
0.9999873052
 41
5.497825219993067
 42
7.068545394366095
  0
ELLIPSE
  5
86
330
1F
100
AcDbEntity
  8
0
  6
Continuous
 62
     7
370
    25
100
AcDbEllipse
 10
190.1909886522
 20
365.8776218974
 30
0.0
 11
0.8485389094630307
 21
-0.8485389094630591
 31
0.0
210
0.0
220
0.0
230
1.0
 40
0.9999873052
 41
2.35623256640327
 42
3.926952740776316
  0
ELLIPSE
  5
87
330
1F
100
AcDbEntity
  8
0
  6
Continuous
 62
     7
370
    25
100
AcDbEllipse
 10
237.7996241318
 20
365.8776218974
 30
0.0
 11
0.8485389094630307
 21
0.8485389094630591
 31
0.0
210
0.0
220
0.0
230
1.0
 40
0.9999873052
 41
5.497825219993091
 42
7.068545394366086
  0
LINE
  5
88
330
1F
100
AcDbEntity
  8
0
  6
Continuous
 62
     7
370
    25
100
AcDbLine
 10
238.9996317482
 20
317.268933109
 30
0.0
 11
238.9996317482
 21
365.8776752061
 31
0.0
  0
LINE
  5
89
330
1F
100
AcDbEntity
  8
0
  6
Continuous
 62
     7
370
    25
100
AcDbLine
 10
188.9909810358
 20
365.8776752061
 30
0.0
 11
188.9909810358
 21
317.268933109
 31
0.0
  0
LINE
  5
8A
330
1F
100
AcDbEntity
  8
0
  6
Continuous
 62
     7
370
    25
100
AcDbLine
 10
190.1909353434
 20
316.0689788013
 30
0.0
 11
237.7996774406
 21
316.0689788013
 31
0.0
  0
LINE
  5
8B
330
1F
100
AcDbEntity
  8
0
  6
Continuous
 62
     7
370
    25
100
AcDbLine
 10
237.7996774406
 20
367.0776295138
 30
0.0
 11
219.945306392
 21
367.0776295138
 31
0.0
  0
LINE
  5
8C
330
1F
100
AcDbEntity
  8
0
  6
Continuous
 62
     7
370
    25
100
AcDbLine
 10
208.045306392
 20
367.0776295138
 30
0.0
 11
190.1909353434
 21
367.0776295138
 31
0.0
  0
ELLIPSE
  5
8D
330
1F
100
AcDbEntity
  8
0
  6
Continuous
 62
     7
370
    25
100
AcDbEllipse
 10
217.5462854542
 20
366.7543285956
 30
0.0
 11
2.0
 21
0.0
 31
0.0
210
0.0
220
0.0
230
1.0
 40
0.0087268678
 41
4.936188716340811
 42
6.059385571224619
  0
ELLIPSE
  5
8E
330
1F
100
AcDbEntity
  8
0
  6
Continuous
 62
     7
370
    25
100
AcDbEllipse
 10
201.945306392
 20
366.7853175205
 30
0.0
 11
18.00000000000003
 21
0.0
 31
0.0
210
0.0
220
0.0
230
1.0
 40
0.0087268678
 41
6.059385571225006
 42
6.283185307179586
  0
ELLIPSE
  5
8F
330
1F
100
AcDbEntity
  8
0
  6
Continuous
 62
     7
370
    25
100
AcDbEllipse
 10
226.045306392
 20
366.7853175205
 30
0.0
 11
17.99999999999997
 21
0.0
 31
0.0
210
0.0
220
0.0
230
1.0
 40
0.0087268678
 41
3.141592653589779
 42
3.365392389547429
  0
ELLIPSE
  5
90
330
1F
100
AcDbEntity
  8
0
  6
Continuous
 62
     7
370
    25
100
AcDbEllipse
 10
210.4443273298
 20
366.7543285956
 30
0.0
 11
2.0
 21
0.0
 31
0.0
210
0.0
220
0.0
230
1.0
 40
0.0087268678
 41
3.365392389547768
 42
4.488589244428741
  0
ELLIPSE
  5
91
330
1F
100
AcDbEntity
  8
0
  6
Continuous
 62
     7
370
    25
100
AcDbEllipse
 10
213.995306392
 20
366.8904762773
 30
0.0
 11
17.99999999999997
 21
0.0
 31
0.0
210
0.0
220
0.0
230
1.0
 40
0.0087268678
 41
4.488589244428731
 42
4.936188716340807
  0
SPLINE
  5
92
330
1F
100
AcDbEntity
  8
0
  6
Continuous
 62
     7
370
    25
100
AcDbSpline
210
0.0
220
0.0
230
1.0
 70
     8
 71
     3
 72
    12
 73
     8
 74
     0
 42
0.00000001
 43
0.00000001
 40
0.0
 40
0.0
 40
0.0
 40
0.0
 40
0.25
 40
0.25
 40
0.5
 40
0.5
 40
1.0
 40
1.0
 40
1.0
 40
1.0
 10
210.100099767625
 20
372.3831944532208
 30
0.0
 10
210.7414115160356
 20
372.4459437286431
 30
0.0
 10
211.3892106173199
 20
372.4936932992908
 30
0.0
 10
212.6979238227126
 20
372.5576261210861
 30
0.0
 10
213.3562088070681
 20
372.5735227915925
 30
0.0
 10
215.3141230059549
 20
372.5728600140362
 30
0.0
 10
216.6080606021378
 20
372.5086762644549
 30
0.0
 10
217.8905130163643
 20
372.3831944532208
 30
0.0
  0
SPLINE
  5
93
330
1F
100
AcDbEntity
  8
0
  6
Continuous
 62
     7
370
    25
100
AcDbSpline
210
0.0
220
0.0
230
1.0
 70
     8
 71
     3
 72
    14
 73
    10
 74
     0
 42
0.00000001
 43
0.00000001
 40
0.0
 40
0.0
 40
0.0
 40
0.0
 40
0.25
 40
0.25
 40
0.5
 40
0.5
 40
0.75
 40
0.75
 40
1.0
 40
1.0
 40
1.0
 40
1.0
 10
217.8905130163643
 20
372.3831944532208
 30
0.0
 10
218.0020166306615
 20
372.3722843599293
 30
0.0
 10
218.1096116044996
 20
372.3612727751901
 30
0.0
 10
218.3080419290951
 20
372.3402535789853
 30
0.0
 10
218.4012182487003
 20
372.329996366646
 30
0.0
 10
218.5630974327622
 20
372.3117228440772
 30
0.0
 10
218.6333434700879
 20
372.3035419735746
 30
0.0
 10
218.745432640233
 20
372.2902965598133
 30
0.0
 10
218.7867363263467
 20
372.2853033968398
 30
0.0
 10
218.8127068939153
 20
372.2821526979442
 30
0.0
  0
SPLINE
  5
94
330
1F
100
AcDbEntity
  8
0
  6
Continuous
 62
     7
370
    25
100
AcDbSpline
210
0.0
220
0.0
230
1.0
 70
     8
 71
     3
 72
    14
 73
    10
 74
     0
 42
0.00000001
 43
0.00000001
 40
0.0
 40
0.0
 40
0.0
 40
0.0
 40
0.25
 40
0.25
 40
0.5
 40
0.5
 40
0.75
 40
0.75
 40
1.0
 40
1.0
 40
1.0
 40
1.0
 10
209.177905890074
 20
372.2821526979443
 30
0.0
 10
209.2038780713794
 20
372.2853035926153
 30
0.0
 10
209.2461649843731
 20
372.2904139655237
 30
0.0
 10
209.3577385357834
 20
372.3035963788169
 30
0.0
 10
209.4286726797637
 20
372.3118559708012
 30
0.0
 10
209.5906619144465
 20
372.3301369124682
 30
0.0
 10
209.6832533432104
 20
372.3403291924957
 30
0.0
 10
209.8829514038093
 20
372.3614759938719
 30
0.0
 10
209.9885883446305
 20
372.3722835958857
 30
0.0
 10
210.100099767625
 20
372.3831944532208
 30
0.0
  0
SPLINE
  5
95
330
1F
100
AcDbEntity
  8
0
  6
Continuous
 62
     7
370
    25
100
AcDbSpline
210
0.0
220
0.0
230
1.0
 70
     8
 71
     3
 72
     9
 73
     5
 74
     0
 42
0.00000001
 43
0.00000001
 40
0.0
 40
0.0
 40
0.0
 40
0.0
 40
0.0473850149783314
 40
1.0
 40
1.0
 40
1.0
 40
1.0
 10
208.7698884175193
 20
372.230518715838
 30
0.0
 10
208.7682754727836
 20
372.2303084101138
 30
0.0
 10
208.7342363417131
 20
372.2258701773877
 30
0.0
 10
208.9614544834176
 20
372.2546943547029
 30
0.0
 10
209.177905890074
 20
372.2821526979443
 30
0.0
  0
SPLINE
  5
96
330
1F
100
AcDbEntity
  8
0
  6
Continuous
 62
     7
370
    25
100
AcDbSpline
210
0.0
220
0.0
230
1.0
 70
     8
 71
     3
 72
     9
 73
     5
 74
     0
 42
0.00000001
 43
0.00000001
 40
0.0
 40
0.0
 40
0.0
 40
0.0
 40
0.5165252492073684
 40
1.0
 40
1.0
 40
1.0
 40
1.0
 10
218.8127068939153
 20
372.2821526979442
 30
0.0
 10
218.9459404843449
 20
372.2654536805906
 30
0.0
 10
219.2038825513282
 20
372.2331241528873
 30
0.0
 10
219.1979363660495
 20
372.2336307396894
 30
0.0
 10
219.1950615356038
 20
372.2338756616172
 30
0.0
  0
ELLIPSE
  5
97
330
1F
100
AcDbEntity
  8
0
  6
Continuous
 62
     7
370
    25
100
AcDbEllipse
 10
227.790897264
 20
418.3688950296
 30
0.0
 11
0.8485389094630308
 21
0.8485389094630023
 31
0.0
210
0.0
220
0.0
230
1.0
 40
0.9999873052
 41
5.497825219993142
 42
7.068545394366103
  0
ELLIPSE
  5
98
330
1F
100
AcDbEntity
  8
0
  6
Continuous
 62
     7
370
    25
100
AcDbEllipse
 10
200.19971552
 20
390.7777132855
 30
0.0
 11
0.8485389094630308
 21
0.8485389094630023
 31
0.0
210
0.0
220
0.0
230
1.0
 40
0.9999873052
 41
2.356232566403334
 42
3.926952740776299
  0
ELLIPSE
  5
99
330
1F
100
AcDbEntity
  8
0
  6
Continuous
 62
     7
370
    25
100
AcDbEllipse
 10
200.19971552
 20
418.3688950296
 30
0.0
 11
0.8485389094630307
 21
-0.8485389094630591
 31
0.0
210
0.0
220
0.0
230
1.0
 40
0.9999873052
 41
2.356232566403317
 42
3.926952740776316
  0
ELLIPSE
  5
9A
330
1F
100
AcDbEntity
  8
0
  6
Continuous
 62
     7
370
    25
100
AcDbEllipse
 10
227.790897264
 20
390.7777132855
 30
0.0
 11
0.8485389094630307
 21
-0.8485389094630591
 31
0.0
210
0.0
220
0.0
230
1.0
 40
0.9999873052
 41
5.497825219993101
 42
7.068545394366096
  0
LINE
  5
9B
330
1F
100
AcDbEntity
  8
0
  6
Continuous
 62
     7
370
    25
100
AcDbLine
 10
198.9997079036
 20
418.3689483383
 30
0.0
 11
198.9997079036
 21
390.7776599768
 31
0.0
  0
LINE
  5
9C
330
1F
100
AcDbEntity
  8
0
  6
Continuous
 62
     7
370
    25
100
AcDbLine
 10
227.7909505728
 20
419.568902646
 30
0.0
 11
200.1996622112
 21
419.568902646
 31
0.0
  0
LINE
  5
9D
330
1F
100
AcDbEntity
  8
0
  6
Continuous
 62
     7
370
    25
100
AcDbLine
 10
228.9909048804
 20
390.7776599768
 30
0.0
 11
228.9909048804
 21
418.3689483383
 31
0.0
  0
LINE
  5
9E
330
1F
100
AcDbEntity
  8
0
  6
Continuous
 62
     7
370
    25
100
AcDbLine
 10
200.1996622112
 20
389.5777056691
 30
0.0
 11
227.7909505728
 21
389.5777056691
 31
0.0
  0
ARC
  5
9F
330
1F
100
AcDbEntity
  8
0
  6
Continuous
 62
     7
370
    25
100
AcDbCircle
 10
213.995306392
 20
-9551.9266958425
 30
0.0
 40
10000.0
100
AcDbArc
 50
89.5831904602
 51
90.4168095398
  0
ARC
  5
A0
330
1F
100
AcDbEntity
  8
0
  6
Continuous
 62
     7
370
    25
100
AcDbCircle
 10
10139.495306392
 20
373.5733041576
 30
0.0
 40
10000.0
100
AcDbArc
 50
179.5831904602
 51
180.4168095398
  0
ARC
  5
A1
330
1F
100
AcDbEntity
  8
0
  6
Continuous
 62
     7
370
    25
100
AcDbCircle
 10
213.995306392
 20
10299.0733041575
 30
0.0
 40
10000.0
100
AcDbArc
 50
269.5831904602
 51
270.4168095398
  0
ARC
  5
A2
330
1F
100
AcDbEntity
  8
0
  6
Continuous
 62
     7
370
    25
100
AcDbCircle
 10
-9711.504693608
 20
373.5733041576
 30
0.0
 40
10000.0
100
AcDbArc
 50
359.5831904602
 51
0.4168095398
  0
ARC
  5
A3
330
1F
100
AcDbEntity
  8
0
  6
Continuous
 62
     7
370
    25
100
AcDbCircle
 10
286.7307410348
 20
446.3087388004
 30
0.0
 40
1.500000000000095
100
AcDbArc
 50
0.4168095398
 51
89.5831904602
  0
ARC
  5
A4
330
1F
100
AcDbEntity
  8
0
  6
Continuous
 62
     7
370
    25
100
AcDbCircle
 10
286.7307410348
 20
300.8378695147
 30
0.0
 40
1.500000000000095
100
AcDbArc
 50
270.4168095398
 51
359.5831904602
  0
ARC
  5
A5
330
1F
100
AcDbEntity
  8
0
  6
Continuous
 62
     7
370
    25
100
AcDbCircle
 10
141.2598717492
 20
300.8378695147
 30
0.0
 40
1.500000000000096
100
AcDbArc
 50
180.4168095398
 51
269.5831904602
  0
ARC
  5
A6
330
1F
100
AcDbEntity
  8
0
  6
Continuous
 62
     7
370
    25
100
AcDbCircle
 10
141.2598717492
 20
446.3087388004
 30
0.0
 40
1.500000000000096
100
AcDbArc
 50
90.4168095398
 51
179.5831904602
  0
LINE
  5
A7
330
1F
100
AcDbEntity
  8
0
  6
Continuous
 62
     8
370
    18
100
AcDbLine
 10
237.360662682
 20
316.5079935599
 30
0.0
 11
237.360662682
 21
317.7079478676
 31
0.0
  0
LINE
  5
A8
330
1F
100
AcDbEntity
  8
0
  6
Continuous
 62
     8
370
    18
100
AcDbLine
 10
238.5606169896
 20
317.7079478676
 30
0.0
 11
237.360662682
 21
317.7079478676
 31
0.0
  0
ARC
  5
A9
330
1F
100
AcDbEntity
  8
0
  6
Continuous
 62
     8
370
    18
100
AcDbCircle
 10
237.3605556501
 20
317.7080548994
 30
0.0
 40
1.200061344288043
100
AcDbArc
 50
270.0051101326
 51
359.9948898674
  0
LINE
  5
AA
330
1F
100
AcDbEntity
  8
0
  6
Continuous
 62
     8
370
    18
100
AcDbLine
 10
237.360662682
 20
365.4386604475
 30
0.0
 11
190.629950102
 21
365.4386604475
 31
0.0
  0
LINE
  5
AB
330
1F
100
AcDbEntity
  8
0
  6
Continuous
 62
     8
370
    18
100
AcDbLine
 10
237.360662682
 20
317.7079478676
 30
0.0
 11
237.360662682
 21
365.4386604475
 31
0.0
  0
LINE
  5
AC
330
1F
100
AcDbEntity
  8
0
  6
Continuous
 62
     8
370
    18
100
AcDbLine
 10
190.629950102
 20
317.7079478676
 30
0.0
 11
237.360662682
 21
317.7079478676
 31
0.0
  0
LINE
  5
AD
330
1F
100
AcDbEntity
  8
0
  6
Continuous
 62
     8
370
    18
100
AcDbLine
 10
190.629950102
 20
365.4386604475
 30
0.0
 11
190.629950102
 21
317.7079478676
 31
0.0
  0
LINE
  5
AE
330
1F
100
AcDbEntity
  8
0
  6
Continuous
 62
     8
370
    18
100
AcDbLine
 10
237.360662682
 20
316.5079935599
 30
0.0
 11
190.629950102
 21
316.5079935599
 31
0.0
  0
LINE
  5
AF
330
1F
100
AcDbEntity
  8
0
  6
Continuous
 62
     8
370
    18
100
AcDbLine
 10
190.629950102
 20
316.5079935599
 30
0.0
 11
190.629950102
 21
317.7079478676
 31
0.0
  0
LINE
  5
B0
330
1F
100
AcDbEntity
  8
0
  6
Continuous
 62
     8
370
    18
100
AcDbLine
 10
238.5606169896
 20
365.4386604475
 30
0.0
 11
238.5606169896
 21
317.7079478676
 31
0.0
  0
LINE
  5
B1
330
1F
100
AcDbEntity
  8
0
  6
Continuous
 62
     8
370
    18
100
AcDbLine
 10
238.5606169896
 20
365.4386604475
 30
0.0
 11
237.360662682
 21
365.4386604475
 31
0.0
  0
LINE
  5
B2
330
1F
100
AcDbEntity
  8
0
  6
Continuous
 62
     8
370
    18
100
AcDbLine
 10
237.360662682
 20
365.4386604475
 30
0.0
 11
237.360662682
 21
366.6386147552
 31
0.0
  0
ARC
  5
B3
330
1F
100
AcDbEntity
  8
0
  6
Continuous
 62
     8
370
    18
100
AcDbCircle
 10
237.3605556501
 20
365.4385534157
 30
0.0
 40
1.200061344288185
100
AcDbArc
 50
0.0051101326
 51
89.9948898674
  0
LINE
  5
B4
330
1F
100
AcDbEntity
  8
0
  6
Continuous
 62
     8
370
    18
100
AcDbLine
 10
190.629950102
 20
365.4386604475
 30
0.0
 11
190.629950102
 21
366.6386147552
 31
0.0
  0
LINE
  5
B5
330
1F
100
AcDbEntity
  8
0
  6
Continuous
 62
     8
370
    18
100
AcDbLine
 10
190.629950102
 20
366.6386147552
 30
0.0
 11
237.360662682
 21
366.6386147552
 31
0.0
  0
ARC
  5
B6
330
1F
100
AcDbEntity
  8
0
  6
Continuous
 62
     8
370
    18
100
AcDbCircle
 10
190.6300571339
 20
317.7080548994
 30
0.0
 40
1.200061344288128
100
AcDbArc
 50
180.0051101326
 51
269.9948898674
  0
LINE
  5
B7
330
1F
100
AcDbEntity
  8
0
  6
Continuous
 62
     8
370
    18
100
AcDbLine
 10
190.629950102
 20
317.7079478676
 30
0.0
 11
189.4299957944
 21
317.7079478676
 31
0.0
  0
LINE
  5
B8
330
1F
100
AcDbEntity
  8
0
  6
Continuous
 62
     8
370
    18
100
AcDbLine
 10
189.4299957944
 20
317.7079478676
 30
0.0
 11
189.4299957944
 21
365.4386604475
 31
0.0
  0
LINE
  5
B9
330
1F
100
AcDbEntity
  8
0
  6
Continuous
 62
     8
370
    18
100
AcDbLine
 10
190.629950102
 20
365.4386604475
 30
0.0
 11
189.4299957944
 21
365.4386604475
 31
0.0
  0
ARC
  5
BA
330
1F
100
AcDbEntity
  8
0
  6
Continuous
 62
     8
370
    18
100
AcDbCircle
 10
190.6300571339
 20
365.4385534157
 30
0.0
 40
1.200061344288157
100
AcDbArc
 50
90.0051101326
 51
179.9948898674
  0
LINE
  5
BB
330
1F
100
AcDbEntity
  8
0
  6
Continuous
 62
     8
370
    18
100
AcDbLine
 10
190.629950102
 20
316.5079935599
 30
0.0
 11
190.1909353434
 21
316.0689788013
 31
0.0
  0
LINE
  5
BC
330
1F
100
AcDbEntity
  8
0
  6
Continuous
 62
     8
370
    18
100
AcDbLine
 10
188.9909810358
 20
317.268933109
 30
0.0
 11
189.4299957944
 21
317.7079478676
 31
0.0
  0
LINE
  5
BD
330
1F
100
AcDbEntity
  8
0
  6
Continuous
 62
     8
370
    18
100
AcDbLine
 10
238.5606169896
 20
317.7079478676
 30
0.0
 11
238.9996317482
 21
317.268933109
 31
0.0
  0
LINE
  5
BE
330
1F
100
AcDbEntity
  8
0
  6
Continuous
 62
     8
370
    18
100
AcDbLine
 10
237.7996774406
 20
316.0689788013
 30
0.0
 11
237.360662682
 21
316.5079935599
 31
0.0
  0
LINE
  5
BF
330
1F
100
AcDbEntity
  8
0
  6
Continuous
 62
     8
370
    18
100
AcDbLine
 10
189.4299957944
 20
365.4386604475
 30
0.0
 11
188.9909810358
 21
365.8776752061
 31
0.0
  0
LINE
  5
C0
330
1F
100
AcDbEntity
  8
0
  6
Continuous
 62
     8
370
    18
100
AcDbLine
 10
190.1909353434
 20
367.0776295138
 30
0.0
 11
190.629950102
 21
366.6386147552
 31
0.0
  0
LINE
  5
C1
330
1F
100
AcDbEntity
  8
0
  6
Continuous
 62
     8
370
    18
100
AcDbLine
 10
237.360662682
 20
366.6386147552
 30
0.0
 11
237.7996774406
 21
367.0776295138
 31
0.0
  0
LINE
  5
C2
330
1F
100
AcDbEntity
  8
0
  6
Continuous
 62
     8
370
    18
100
AcDbLine
 10
238.9996317482
 20
365.8776752061
 30
0.0
 11
238.5606169896
 21
365.4386604475
 31
0.0
  0
ARC
  5
C3
330
1F
100
AcDbEntity
  8
0
  6
Continuous
 62
     8
370
    18
100
AcDbCircle
 10
216.9999348619
 20
371.8674036339
 30
0.0
 40
1.029159666187897
100
AcDbArc
 50
344.1891721808
 51
30.0778787596
  0
SPLINE
  5
C4
330
1F
100
AcDbEntity
  8
0
  6
Continuous
 62
     8
370
    18
100
AcDbSpline
210
0.0
220
0.0
230
1.0
 70
     8
 71
     3
 72
    12
 73
     8
 74
     0
 42
0.00000001
 43
0.00000001
 40
0.0
 40
0.0
 40
0.0
 40
0.0
 40
0.5
 40
0.5
 40
0.75
 40
0.75
 40
1.0
 40
1.0
 40
1.0
 40
1.0
 10
217.9901578369877
 20
371.5869966473073
 30
0.0
 10
216.6752282146687
 20
371.7099379951919
 30
0.0
 10
215.3482832420523
 20
371.772859937113
 30
0.0
 10
213.3400726067015
 20
371.7735227601499
 30
0.0
 10
212.6647598524529
 20
371.7579421310223
 30
0.0
 10
211.3223540400157
 20
371.6952754056663
 30
0.0
 10
210.6580121347167
 20
371.6484759581364
 30
0.0
 10
210.0004549470016
 20
371.5869966473073
 30
0.0
  0
ARC
  5
C5
330
1F
100
AcDbEntity
  8
0
  6
Continuous
 62
     8
370
    18
100
AcDbCircle
 10
210.9906779221
 20
371.8674036339
 30
0.0
 40
1.029159666187808
100
AcDbArc
 50
149.9221212404
 51
195.8108278192
  0
LINE
  5
C6
330
1F
100
AcDbEntity
  8
0
  6
Continuous
 62
     8
370
    18
100
AcDbLine
 10
217.990157837
 20
371.5869966473
 30
0.0
 11
217.990157837
 21
366.7373101354
 31
0.0
  0
LINE
  5
C7
330
1F
100
AcDbEntity
  8
0
  6
Continuous
 62
     8
370
    18
100
AcDbLine
 10
210.000454947
 20
371.5869966473
 30
0.0
 11
210.000454947
 21
366.7373101354
 31
0.0
  0
ARC
  5
C8
330
1F
100
AcDbEntity
  8
0
  6
Continuous
 62
     8
370
    18
100
AcDbCircle
 10
218.7093202639
 20
371.5017629618
 30
0.0
 40
0.7872083177606786
100
AcDbArc
 50
358.996465446
 51
82.4533572427
  0
SPLINE
  5
C9
330
1F
100
AcDbEntity
  8
0
  6
Continuous
 62
     8
370
    18
100
AcDbSpline
210
0.0
220
0.0
230
1.0
 70
     8
 71
     3
 72
    14
 73
    10
 74
     0
 42
0.00000001
 43
0.00000001
 40
0.0
 40
0.0
 40
0.0
 40
0.0
 40
0.25
 40
0.25
 40
0.5
 40
0.5
 40
0.75
 40
0.75
 40
1.0
 40
1.0
 40
1.0
 40
1.0
 10
219.4964078369877
 20
371.4879757271363
 30
0.0
 10
219.4544609760993
 20
371.4910290742284
 30
0.0
 10
219.3879043010694
 20
371.4958569961917
 30
0.0
 10
219.2067941462286
 20
371.5087019213859
 30
0.0
 10
219.0929305259522
 20
371.5166629524923
 30
0.0
 10
218.8293686806934
 20
371.534525498427
 30
0.0
 10
218.6769954730614
 20
371.5445985179541
 30
0.0
 10
218.3513477288702
 20
371.5653079899748
 30
0.0
 10
218.174161573455
 20
371.5761943180187
 30
0.0
 10
217.9901578369877
 20
371.5869966473073
 30
0.0
  0
LINE
  5
CA
330
1F
100
AcDbEntity
  8
0
  6
Continuous
 62
     8
370
    18
100
AcDbLine
 10
219.496407837
 20
371.4879757271
 30
0.0
 11
219.496407837
 21
366.75045498
 31
0.0
  0
SPLINE
  5
CB
330
1F
100
AcDbEntity
  8
0
  6
Continuous
 62
     8
370
    18
100
AcDbSpline
210
0.0
220
0.0
230
1.0
 70
     8
 71
     3
 72
    14
 73
    10
 74
     0
 42
0.00000001
 43
0.00000001
 40
0.0
 40
0.0
 40
0.0
 40
0.0
 40
0.25
 40
0.25
 40
0.5
 40
0.5
 40
0.75
 40
0.75
 40
1.0
 40
1.0
 40
1.0
 40
1.0
 10
210.0004549470016
 20
371.5869966473073
 30
0.0
 10
209.8164229899235
 20
371.576192661268
 30
0.0
 10
209.6425622756604
 20
371.5655143165417
 30
0.0
 10
209.3146792994567
 20
371.5446693696336
 30
0.0
 10
209.163361404068
 20
371.5346665357417
 30
0.0
 10
208.8995196451027
 20
371.5167899021756
 30
0.0
 10
208.7846099560582
 20
371.5087570511949
 30
0.0
 10
208.6042508873671
 20
371.4959673688738
 30
0.0
 10
208.5361580660196
 20
371.4910295297629
 30
0.0
 10
208.4942049470016
 20
371.4879757271363
 30
0.0
  0
LINE
  5
CC
330
1F
100
AcDbEntity
  8
0
  6
Continuous
 62
     8
370
    18
100
AcDbLine
 10
208.494204947
 20
371.4879757271
 30
0.0
 11
208.494204947
 21
366.75045498
 31
0.0
  0
ARC
  5
CD
330
1F
100
AcDbEntity
  8
0
  6
Continuous
 62
     8
370
    18
100
AcDbCircle
 10
209.2812925201
 20
371.5017629618
 30
0.0
 40
0.7872083177607295
100
AcDbArc
 50
97.5466427573
 51
181.003534554
  0
SPLINE
  5
CE
330
1F
100
AcDbEntity
  8
0
  6
Continuous
 62
     8
370
    18
100
AcDbSpline
210
0.0
220
0.0
230
1.0
 70
     8
 71
     3
 72
     9
 73
     5
 74
     0
 42
0.00000001
 43
0.00000001
 40
0.0
 40
0.0
 40
0.0
 40
0.0
 40
0.7378079172866941
 40
1.0
 40
1.0
 40
1.0
 40
1.0
 10
208.4942049470016
 20
371.4879757271363
 30
0.0
 10
208.2939420714554
 20
371.4637238869102
 30
0.0
 10
208.0225125152606
 20
371.4308537595261
 30
0.0
 10
208.0870761268395
 20
371.4388204047714
 30
0.0
 10
208.1040041946268
 20
371.4409091960806
 30
0.0
  0
SPLINE
  5
CF
330
1F
100
AcDbEntity
  8
0
  6
Continuous
 62
     8
370
    18
100
AcDbSpline
210
0.0
220
0.0
230
1.0
 70
     8
 71
     3
 72
     9
 73
     5
 74
     0
 42
0.00000001
 43
0.00000001
 40
0.0
 40
0.0
 40
0.0
 40
0.0
 40
0.4951301770344832
 40
1.0
 40
1.0
 40
1.0
 40
1.0
 10
219.8862738229135
 20
371.4409510207932
 30
0.0
 10
219.8919200803437
 20
371.4403818781781
 30
0.0
 10
219.9033236620525
 20
371.4392323974121
 30
0.0
 10
219.6329243099923
 20
371.4716227935649
 30
0.0
 10
219.4964078369877
 20
371.4879757271363
 30
0.0
  0
LINE
  5
D0
330
1F
100
AcDbEntity
  8
0
  6
Continuous
 62
     8
370
    18
100
AcDbLine
 10
199.1987337979
 20
390.9766858711
 30
0.0
 11
199.1987337979
 21
418.169922444
 31
0.0
  0
LINE
  5
D1
330
1F
100
AcDbEntity
  8
0
  6
Continuous
 62
     8
370
    18
100
AcDbLine
 10
199.1987337979
 20
418.169922444
 30
0.0
 11
200.3986881056
 21
418.169922444
 31
0.0
  0
LINE
  5
D2
330
1F
100
AcDbEntity
  8
0
  6
Continuous
 62
     8
370
    18
100
AcDbLine
 10
200.3986881056
 20
418.169922444
 30
0.0
 11
200.3986881056
 21
390.9766858711
 31
0.0
  0
LINE
  5
D3
330
1F
100
AcDbEntity
  8
0
  6
Continuous
 62
     8
370
    18
100
AcDbLine
 10
199.1987337979
 20
390.9766858711
 30
0.0
 11
200.3986881056
 21
390.9766858711
 31
0.0
  0
LINE
  5
D4
330
1F
100
AcDbEntity
  8
0
  6
Continuous
 62
     8
370
    18
100
AcDbLine
 10
200.3986881056
 20
390.9766858711
 30
0.0
 11
200.3986881056
 21
389.7767315635
 31
0.0
  0
ARC
  5
D5
330
1F
100
AcDbEntity
  8
0
  6
Continuous
 62
     8
370
    18
100
AcDbCircle
 10
200.3987951374
 20
390.976792903
 30
0.0
 40
1.200061344288071
100
AcDbArc
 50
180.0051101326
 51
269.9948898674
  0
LINE
  5
D6
330
1F
100
AcDbEntity
  8
0
  6
Continuous
 62
     8
370
    18
100
AcDbLine
 10
200.3986881056
 20
419.3698767516
 30
0.0
 11
200.3986881056
 21
418.169922444
 31
0.0
  0
ARC
  5
D7
330
1F
100
AcDbEntity
  8
0
  6
Continuous
 62
     8
370
    18
100
AcDbCircle
 10
200.3987951374
 20
418.1698154121
 30
0.0
 40
1.200061344288128
100
AcDbArc
 50
90.0051101326
 51
179.9948898674
  0
LINE
  5
D8
330
1F
100
AcDbEntity
  8
0
  6
Continuous
 62
     8
370
    18
100
AcDbLine
 10
200.3986881056
 20
390.9766858711
 30
0.0
 11
227.5919246784
 21
390.9766858711
 31
0.0
  0
LINE
  5
D9
330
1F
100
AcDbEntity
  8
0
  6
Continuous
 62
     8
370
    18
100
AcDbLine
 10
227.5919246784
 20
418.169922444
 30
0.0
 11
200.3986881056
 21
418.169922444
 31
0.0
  0
LINE
  5
DA
330
1F
100
AcDbEntity
  8
0
  6
Continuous
 62
     8
370
    18
100
AcDbLine
 10
227.5919246784
 20
390.9766858711
 30
0.0
 11
227.5919246784
 21
418.169922444
 31
0.0
  0
ARC
  5
DB
330
1F
100
AcDbEntity
  8
0
  6
Continuous
 62
     8
370
    18
100
AcDbCircle
 10
227.5918176466
 20
418.1698154121
 30
0.0
 40
1.200061344288071
100
AcDbArc
 50
0.0051101326
 51
89.9948898674
  0
LINE
  5
DC
330
1F
100
AcDbEntity
  8
0
  6
Continuous
 62
     8
370
    18
100
AcDbLine
 10
227.5919246784
 20
418.169922444
 30
0.0
 11
228.7918789861
 21
418.169922444
 31
0.0
  0
LINE
  5
DD
330
1F
100
AcDbEntity
  8
0
  6
Continuous
 62
     8
370
    18
100
AcDbLine
 10
227.5919246784
 20
419.3698767516
 30
0.0
 11
227.5919246784
 21
418.169922444
 31
0.0
  0
LINE
  5
DE
330
1F
100
AcDbEntity
  8
0
  6
Continuous
 62
     8
370
    18
100
AcDbLine
 10
227.5919246784
 20
390.9766858711
 30
0.0
 11
227.5919246784
 21
389.7767315635
 31
0.0
  0
LINE
  5
DF
330
1F
100
AcDbEntity
  8
0
  6
Continuous
 62
     8
370
    18
100
AcDbLine
 10
227.5919246784
 20
389.7767315635
 30
0.0
 11
200.3986881056
 21
389.7767315635
 31
0.0
  0
LINE
  5
E0
330
1F
100
AcDbEntity
  8
0
  6
Continuous
 62
     8
370
    18
100
AcDbLine
 10
228.7918789861
 20
418.169922444
 30
0.0
 11
228.7918789861
 21
390.9766858711
 31
0.0
  0
LINE
  5
E1
330
1F
100
AcDbEntity
  8
0
  6
Continuous
 62
     8
370
    18
100
AcDbLine
 10
227.5919246784
 20
390.9766858711
 30
0.0
 11
228.7918789861
 21
390.9766858711
 31
0.0
  0
LINE
  5
E2
330
1F
100
AcDbEntity
  8
0
  6
Continuous
 62
     8
370
    18
100
AcDbLine
 10
200.3986881056
 20
419.3698767516
 30
0.0
 11
227.5919246784
 21
419.3698767516
 31
0.0
  0
ARC
  5
E3
330
1F
100
AcDbEntity
  8
0
  6
Continuous
 62
     8
370
    18
100
AcDbCircle
 10
227.5918176466
 20
390.976792903
 30
0.0
 40
1.2000613442881
100
AcDbArc
 50
270.0051101326
 51
359.9948898674
  0
LINE
  5
E4
330
1F
100
AcDbEntity
  8
0
  6
Continuous
 62
     8
370
    18
100
AcDbLine
 10
227.5919246784
 20
419.3698767516
 30
0.0
 11
227.7909505728
 21
419.568902646
 31
0.0
  0
LINE
  5
E5
330
1F
100
AcDbEntity
  8
0
  6
Continuous
 62
     8
370
    18
100
AcDbLine
 10
228.9909048804
 20
418.3689483383
 30
0.0
 11
228.7918789861
 21
418.169922444
 31
0.0
  0
LINE
  5
E6
330
1F
100
AcDbEntity
  8
0
  6
Continuous
 62
     8
370
    18
100
AcDbLine
 10
200.3986881056
 20
389.7767315635
 30
0.0
 11
200.1996622112
 21
389.5777056691
 31
0.0
  0
LINE
  5
E7
330
1F
100
AcDbEntity
  8
0
  6
Continuous
 62
     8
370
    18
100
AcDbLine
 10
198.9997079036
 20
390.7776599768
 30
0.0
 11
199.1987337979
 21
390.9766858711
 31
0.0
  0
LINE
  5
E8
330
1F
100
AcDbEntity
  8
0
  6
Continuous
 62
     8
370
    18
100
AcDbLine
 10
199.1987337979
 20
418.169922444
 30
0.0
 11
198.9997079036
 21
418.3689483383
 31
0.0
  0
LINE
  5
E9
330
1F
100
AcDbEntity
  8
0
  6
Continuous
 62
     8
370
    18
100
AcDbLine
 10
200.1996622112
 20
419.568902646
 30
0.0
 11
200.3986881056
 21
419.3698767516
 31
0.0
  0
LINE
  5
EA
330
1F
100
AcDbEntity
  8
0
  6
Continuous
 62
     8
370
    18
100
AcDbLine
 10
228.7918789861
 20
390.9766858711
 30
0.0
 11
228.9909048804
 21
390.7776599768
 31
0.0
  0
LINE
  5
EB
330
1F
100
AcDbEntity
  8
0
  6
Continuous
 62
     8
370
    18
100
AcDbLine
 10
227.7909505728
 20
389.5777056691
 30
0.0
 11
227.5919246784
 21
389.7767315635
 31
0.0
  0
SPLINE
  5
EC
330
1F
100
AcDbEntity
  8
0
  6
Continuous
 62
     8
370
    18
100
AcDbSpline
210
0.0
220
0.0
230
1.0
 70
     8
 71
     3
 72
     8
 73
     4
 74
     0
 42
0.00000001
 43
0.00000001
 40
0.0
 40
0.0
 40
0.0
 40
0.0
 40
1.0
 40
1.0
 40
1.0
 40
1.0
 10
286.6093845314015
 20
300.9592260181386
 30
0.0
 10
286.9478366889438
 20
349.3686114444118
 30
0.0
 10
286.9478366889455
 20
397.7779968706849
 30
0.0
 10
286.6093845314032
 20
446.1873822969581
 30
0.0
  0
SPLINE
  5
ED
330
1F
100
AcDbEntity
  8
0
  6
Continuous
 62
     8
370
    18
100
AcDbSpline
210
0.0
220
0.0
230
1.0
 70
     8
 71
     3
 72
     8
 73
     4
 74
     0
 42
0.00000001
 43
0.00000001
 40
0.0
 40
0.0
 40
0.0
 40
0.0
 40
1.0
 40
1.0
 40
1.0
 40
1.0
 10
141.3812282525868
 20
300.9592260181399
 30
0.0
 10
189.7906136788587
 20
300.6207738605976
 30
0.0
 10
238.1999991051306
 20
300.6207738605976
 30
0.0
 10
286.6093845314025
 20
300.9592260181399
 30
0.0
  0
SPLINE
  5
EE
330
1F
100
AcDbEntity
  8
0
  6
Continuous
 62
     8
370
    18
100
AcDbSpline
210
0.0
220
0.0
230
1.0
 70
     8
 71
     3
 72
     8
 73
     4
 74
     0
 42
0.00000001
 43
0.00000001
 40
0.0
 40
0.0
 40
0.0
 40
0.0
 40
1.0
 40
1.0
 40
1.0
 40
1.0
 10
141.3812282525883
 20
446.1873822969571
 30
0.0
 10
141.0427760950461
 20
397.7779968706845
 30
0.0
 10
141.042776095046
 20
349.368611444412
 30
0.0
 10
141.3812282525882
 20
300.9592260181394
 30
0.0
  0
SPLINE
  5
EF
330
1F
100
AcDbEntity
  8
0
  6
Continuous
 62
     8
370
    18
100
AcDbSpline
210
0.0
220
0.0
230
1.0
 70
     8
 71
     3
 72
     8
 73
     4
 74
     0
 42
0.00000001
 43
0.00000001
 40
0.0
 40
0.0
 40
0.0
 40
0.0
 40
1.0
 40
1.0
 40
1.0
 40
1.0
 10
286.6093845314016
 20
446.1873822969578
 30
0.0
 10
238.1999991051303
 20
446.5258344545
 30
0.0
 10
189.790613678859
 20
446.5258344545001
 30
0.0
 10
141.3812282525876
 20
446.1873822969579
 30
0.0
  0
SPLINE
  5
F0
330
1F
100
AcDbEntity
  8
0
  6
Continuous
 62
     8
370
    18
100
AcDbSpline
210
0.0
220
0.0
230
1.0
 70
     8
 71
     3
 72
    26
 73
    22
 74
     0
 42
0.00000001
 43
0.00000001
 40
0.0
 40
0.0
 40
0.0
 40
0.0
 40
0.03125
 40
0.03125
 40
0.0625
 40
0.0625
 40
0.125
 40
0.125
 40
0.25
 40
0.25
 40
0.375
 40
0.375
 40
0.5
 40
0.5
 40
0.625
 40
0.625
 40
0.75
 40
0.75
 40
0.875
 40
0.875
 40
1.0
 40
1.0
 40
1.0
 40
1.0
 10
288.0923195577482
 20
446.3186440487803
 30
0.0
 10
288.0916833498071
 20
446.3188088505277
 30
0.0
 10
288.0904540636068
 20
446.3189152701869
 30
0.0
 10
288.0868275321914
 20
446.3190126442845
 30
0.0
 10
288.0844302869764
 20
446.3190035987228
 30
0.0
 10
288.0755139090649
 20
446.3188052126399
 30
0.0
 10
288.0672701341017
 20
446.3184446227205
 30
0.0
 10
288.0358586101909
 20
446.3166934428365
 30
0.0
 10
288.0060106622216
 20
446.3146334427457
 30
0.0
 10
287.9296655424629
 20
446.3088114820468
 30
0.0
 10
287.8824410467158
 20
446.3049924752942
 30
0.0
 10
287.7735327285711
 20
446.2958281458154
 30
0.0
 10
287.7121596363475
 20
446.2905131617521
 30
0.0
 10
287.575724950384
 20
446.2784333749603
 30
0.0
 10
287.4999985695883
 20
446.271605840678
 30
0.0
 10
287.3407958451735
 20
446.2570319861028
 30
0.0
 10
287.2567393403062
 20
446.2492358647974
 30
0.0
 10
287.0795813543756
 20
446.2326098398537
 30
0.0
 10
286.9870841695205
 20
446.2238345306351
 30
0.0
 10
286.8006553208611
 20
446.2059708841398
 30
0.0
 10
286.705844070391
 20
446.1968002643305
 30
0.0
 10
286.6093845314024
 20
446.1873822969574
 30
0.0
  0
SPLINE
  5
F1
330
1F
100
AcDbEntity
  8
0
  6
Continuous
 62
     8
370
    18
100
AcDbSpline
210
0.0
220
0.0
230
1.0
 70
     8
 71
     3
 72
     8
 73
     4
 74
     0
 42
0.00000001
 43
0.00000001
 40
0.0
 40
0.0
 40
0.0
 40
0.0
 40
1.0
 40
1.0
 40
1.0
 40
1.0
 10
288.0923195577479
 20
446.3186440487802
 30
0.0
 10
288.4320202875948
 20
397.821750787959
 30
0.0
 10
288.4320202875938
 20
349.3248575271379
 30
0.0
 10
288.0923195577469
 20
300.8279642663168
 30
0.0
  0
SPLINE
  5
F2
330
1F
100
AcDbEntity
  8
0
  6
Continuous
 62
     8
370
    18
100
AcDbSpline
210
0.0
220
0.0
230
1.0
 70
     8
 71
     3
 72
    26
 73
    22
 74
     0
 42
0.00000001
 43
0.00000001
 40
0.0
 40
0.0
 40
0.0
 40
0.0
 40
0.03125
 40
0.03125
 40
0.0625
 40
0.0625
 40
0.125
 40
0.125
 40
0.25
 40
0.25
 40
0.375
 40
0.375
 40
0.5
 40
0.5
 40
0.625
 40
0.625
 40
0.75
 40
0.75
 40
0.875
 40
0.875
 40
1.0
 40
1.0
 40
1.0
 40
1.0
 10
288.0923195577485
 20
300.8279642663167
 30
0.0
 10
288.0916833498073
 20
300.8277994645694
 30
0.0
 10
288.0904540636071
 20
300.8276930449101
 30
0.0
 10
288.0868275321917
 20
300.8275956708125
 30
0.0
 10
288.0844302869767
 20
300.8276047163742
 30
0.0
 10
288.075513909065
 20
300.8278031024571
 30
0.0
 10
288.067270134102
 20
300.8281636923764
 30
0.0
 10
288.0358586101913
 20
300.8299148722605
 30
0.0
 10
288.006010662222
 20
300.8319748723512
 30
0.0
 10
287.9296655424634
 20
300.83779683305
 30
0.0
 10
287.8824410467162
 20
300.8416158398027
 30
0.0
 10
287.7735327285715
 20
300.8507801692814
 30
0.0
 10
287.7121596363476
 20
300.8560951533447
 30
0.0
 10
287.5757249503843
 20
300.8681749401363
 30
0.0
 10
287.4999985695882
 20
300.8750024744187
 30
0.0
 10
287.3407958451734
 20
300.8895763289938
 30
0.0
 10
287.256739340306
 20
300.8973724502993
 30
0.0
 10
287.0795813543756
 20
300.9139984752428
 30
0.0
 10
286.9870841695202
 20
300.9227737844614
 30
0.0
 10
286.800655320861
 20
300.9406374309564
 30
0.0
 10
286.705844070391
 20
300.9498080507657
 30
0.0
 10
286.6093845314025
 20
300.9592260181388
 30
0.0
  0
SPLINE
  5
F3
330
1F
100
AcDbEntity
  8
0
  6
Continuous
 62
     8
370
    18
100
AcDbSpline
210
0.0
220
0.0
230
1.0
 70
     8
 71
     3
 72
     8
 73
     4
 74
     0
 42
0.00000001
 43
0.00000001
 40
0.0
 40
0.0
 40
0.0
 40
0.0
 40
1.0
 40
1.0
 40
1.0
 40
1.0
 10
139.8982932262415
 20
300.827964266317
 30
0.0
 10
139.5585924963946
 20
349.324857527138
 30
0.0
 10
139.5585924963956
 20
397.8217507879589
 30
0.0
 10
139.8982932262424
 20
446.31864404878
 30
0.0
  0
SPLINE
  5
F4
330
1F
100
AcDbEntity
  8
0
  6
Continuous
 62
     8
370
    18
100
AcDbSpline
210
0.0
220
0.0
230
1.0
 70
     8
 71
     3
 72
    21
 73
    17
 74
     0
 42
0.00000001
 43
0.00000001
 40
0.0
 40
0.0
 40
0.0
 40
0.0
 40
0.0527050579358642
 40
0.1061279058763471
 40
0.1602714789030613
 40
0.2151385958223941
 40
0.2707319647143637
 40
0.3270541881749243
 40
0.3841077682623132
 40
0.4418951111702219
 40
0.5004185316408531
 40
0.6190410088378983
 40
0.7500271579309465
 40
0.8150588915857995
 40
0.8983884735132021
 40
1.0
 40
1.0
 40
1.0
 40
1.0
 10
139.8982932262407
 20
446.3186440487799
 30
0.0
 10
139.9003026161009
 20
446.3188208783338
 30
0.0
 10
139.904348761695
 20
446.3191769456828
 30
0.0
 10
139.9231111097086
 20
446.3184300672275
 30
0.0
 10
139.95152010174
 20
446.3167430288391
 30
0.0
 10
139.9906979414759
 20
446.3140095095865
 30
0.0
 10
140.0405104354533
 20
446.3102445368288
 30
0.0
 10
140.1010519770044
 20
446.3054302850407
 30
0.0
 10
140.1722260339505
 20
446.2995581208693
 30
0.0
 10
140.2538647341139
 20
446.2926183598273
 30
0.0
 10
140.3766611372598
 20
446.2818879603918
 30
0.0
 10
140.5603850376888
 20
446.2652695665182
 30
0.0
 10
140.7739801886724
 20
446.2455629779864
 30
0.0
 10
140.9754210676312
 20
446.2264415684932
 30
0.0
 10
141.1620351355142
 20
446.2086303738076
 30
0.0
 10
141.3035024022248
 20
446.1949168622018
 30
0.0
 10
141.3812282525868
 20
446.187382296957
 30
0.0
  0
SPLINE
  5
F5
330
1F
100
AcDbEntity
  8
0
  6
Continuous
 62
     8
370
    18
100
AcDbSpline
210
0.0
220
0.0
230
1.0
 70
     8
 71
     3
 72
    21
 73
    17
 74
     0
 42
0.00000001
 43
0.00000001
 40
0.0
 40
0.0
 40
0.0
 40
0.0
 40
0.0527015852617802
 40
0.1061218296410597
 40
0.1602636681738284
 40
0.2151299194777453
 40
0.270723291317805
 40
0.3270463858586206
 40
0.3841017046256616
 40
0.4418916531890824
 40
0.5004185455849606
 40
0.6190205634991496
 40
0.750027166911088
 40
0.8150462982105621
 40
0.8983758845578522
 40
1.0
 40
1.0
 40
1.0
 40
1.0
 10
139.8982932262402
 20
300.827964266317
 30
0.0
 10
139.9003024221043
 20
300.8277874556588
 30
0.0
 10
139.9043482120011
 20
300.8274314232845
 30
0.0
 10
139.9231087126843
 20
300.8281783386254
 30
0.0
 10
139.951515498636
 20
300.8298653915074
 30
0.0
 10
139.9906911867175
 20
300.8325989109127
 30
0.0
 10
140.0405021031733
 20
300.8363638712993
 30
0.0
 10
140.1010431235747
 20
300.8411781087439
 30
0.0
 10
140.1722181775803
 20
300.8470502457232
 30
0.0
 10
140.2538597955966
 20
300.8539900376102
 30
0.0
 10
140.3766484131146
 20
300.8647189463309
 30
0.0
 10
140.5603715074593
 20
300.8813375143734
 30
0.0
 10
140.7739569239951
 20
300.901043228252
 30
0.0
 10
140.9754026269937
 20
300.9201648371908
 30
0.0
 10
141.1620158315499
 20
300.9379760797696
 30
0.0
 10
141.3034927579239
 20
300.9516905214601
 30
0.0
 10
141.3812282525863
 20
300.9592260181389
 30
0.0
  0
SPLINE
  5
F6
330
1F
100
AcDbEntity
  8
0
  6
Continuous
 62
     8
370
    18
100
AcDbSpline
210
0.0
220
0.0
230
1.0
 70
     8
 71
     3
 72
    26
 73
    22
 74
     0
 42
0.00000001
 43
0.00000001
 40
0.0
 40
0.0
 40
0.0
 40
0.0
 40
0.03125
 40
0.03125
 40
0.0625
 40
0.0625
 40
0.125
 40
0.125
 40
0.25
 40
0.25
 40
0.375
 40
0.375
 40
0.5
 40
0.5
 40
0.625
 40
0.625
 40
0.75
 40
0.75
 40
0.875
 40
0.875
 40
1.0
 40
1.0
 40
1.0
 40
1.0
 10
141.2499665007602
 20
447.6703173233044
 30
0.0
 10
141.2498016990127
 20
447.6696811153633
 30
0.0
 10
141.2496952793535
 20
447.668451829163
 30
0.0
 10
141.249597905256
 20
447.6648252977477
 30
0.0
 10
141.2496069508176
 20
447.6624280525326
 30
0.0
 10
141.2498053369006
 20
447.653511674621
 30
0.0
 10
141.25016592682
 20
447.6452678996579
 30
0.0
 10
141.2519171067041
 20
447.6138563757471
 30
0.0
 10
141.2539771067949
 20
447.5840084277779
 30
0.0
 10
141.259799067494
 20
447.5076633080191
 30
0.0
 10
141.2636180742469
 20
447.4604388122715
 30
0.0
 10
141.272782403726
 20
447.3515304941267
 30
0.0
 10
141.2780973877894
 20
447.2901574019029
 30
0.0
 10
141.2901771745816
 20
447.1537227159394
 30
0.0
 10
141.2970047088643
 20
447.0779963351422
 30
0.0
 10
141.3115785634398
 20
446.9187936107272
 30
0.0
 10
141.3193746847454
 20
446.8347371058613
 30
0.0
 10
141.3360007096896
 20
446.6575791199307
 30
0.0
 10
141.3447760189085
 20
446.5650819350751
 30
0.0
 10
141.3626396654042
 20
446.3786530864157
 30
0.0
 10
141.3718102852138
 20
446.2838418359455
 30
0.0
 10
141.3812282525872
 20
446.1873822969571
 30
0.0
  0
SPLINE
  5
F7
330
1F
100
AcDbEntity
  8
0
  6
Continuous
 62
     8
370
    18
100
AcDbSpline
210
0.0
220
0.0
230
1.0
 70
     8
 71
     3
 72
     8
 73
     4
 74
     0
 42
0.00000001
 43
0.00000001
 40
0.0
 40
0.0
 40
0.0
 40
0.0
 40
1.0
 40
1.0
 40
1.0
 40
1.0
 10
141.2499665007603
 20
447.6703173233034
 30
0.0
 10
189.7468597615817
 20
448.0100180531502
 30
0.0
 10
238.2437530224031
 20
448.0100180531514
 30
0.0
 10
286.7406462832245
 20
447.6703173233046
 30
0.0
  0
SPLINE
  5
F8
330
1F
100
AcDbEntity
  8
0
  6
Continuous
 62
     8
370
    18
100
AcDbSpline
210
0.0
220
0.0
230
1.0
 70
     8
 71
     3
 72
    21
 73
    17
 74
     0
 42
0.00000001
 43
0.00000001
 40
0.0
 40
0.0
 40
0.0
 40
0.0
 40
0.0527050586770384
 40
0.1061279071732433
 40
0.1602714805703957
 40
0.2151385976737722
 40
0.2707319665646847
 40
0.3270541898389354
 40
0.3841077695543139
 40
0.4418951119051209
 40
0.5004185316339599
 40
0.6190410166258709
 40
0.7500271579267147
 40
0.8150588969040702
 40
0.8983884788292124
 40
0.9999999999999999
 40
0.9999999999999999
 40
0.9999999999999999
 40
0.9999999999999999
 10
286.7406462832245
 20
447.6703173233054
 30
0.0
 10
286.7408231127825
 20
447.6683079334046
 30
0.0
 10
286.7411791801389
 20
447.6642617877365
 30
0.0
 10
286.7404323016911
 20
447.6454994393245
 30
0.0
 10
286.7387452633059
 20
447.6170904468234
 30
0.0
 10
286.7360117440531
 20
447.5779126066269
 30
0.0
 10
286.7322467712928
 20
447.5281001123142
 30
0.0
 10
286.7274325195019
 20
447.4675585706465
 30
0.0
 10
286.721560355324
 20
447.3963845139191
 30
0.0
 10
286.7146205942923
 20
447.3147458143751
 30
0.0
 10
286.7038901943643
 20
447.191949407784
 30
0.0
 10
286.6872718006258
 20
447.0082255066915
 30
0.0
 10
286.6675652116102
 20
446.7946303516556
 30
0.0
 10
286.6484438020801
 20
446.5931894741314
 30
0.0
 10
286.6306326074218
 20
446.4065754058838
 30
0.0
 10
286.6169190962378
 20
446.26510814325
 30
0.0
 10
286.6093845314024
 20
446.1873822969593
 30
0.0
  0
SPLINE
  5
F9
330
1F
100
AcDbEntity
  8
0
  6
Continuous
 62
     8
370
    18
100
AcDbSpline
210
0.0
220
0.0
230
1.0
 70
     8
 71
     3
 72
     8
 73
     4
 74
     0
 42
0.00000001
 43
0.00000001
 40
0.0
 40
0.0
 40
0.0
 40
0.0
 40
1.0
 40
1.0
 40
1.0
 40
1.0
 10
286.7406462832235
 20
299.4762909917933
 30
0.0
 10
238.243753022404
 20
299.1365902619465
 30
0.0
 10
189.7468597615844
 20
299.1365902619459
 30
0.0
 10
141.2499665007649
 20
299.4762909917926
 30
0.0
  0
SPLINE
  5
FA
330
1F
100
AcDbEntity
  8
0
  6
Continuous
 62
     8
370
    18
100
AcDbSpline
210
0.0
220
0.0
230
1.0
 70
     8
 71
     3
 72
    26
 73
    22
 74
     0
 42
0.00000001
 43
0.00000001
 40
0.0
 40
0.0
 40
0.0
 40
0.0
 40
0.03125
 40
0.03125
 40
0.0625
 40
0.0625
 40
0.125
 40
0.125
 40
0.25
 40
0.25
 40
0.375
 40
0.375
 40
0.5
 40
0.5
 40
0.625
 40
0.625
 40
0.75
 40
0.75
 40
0.875
 40
0.875
 40
1.0
 40
1.0
 40
1.0
 40
1.0
 10
141.2499665007647
 20
299.4762909917922
 30
0.0
 10
141.2498016990174
 20
299.4769271997333
 30
0.0
 10
141.2496952793581
 20
299.4781564859337
 30
0.0
 10
141.2495979052606
 20
299.481783017349
 30
0.0
 10
141.2496069508222
 20
299.484180262564
 30
0.0
 10
141.2498053369052
 20
299.4930966404756
 30
0.0
 10
141.2501659268245
 20
299.5013404154386
 30
0.0
 10
141.2519171067085
 20
299.5327519393493
 30
0.0
 10
141.2539771067993
 20
299.5625998873184
 30
0.0
 10
141.2597990674981
 20
299.6389450070772
 30
0.0
 10
141.2636180742508
 20
299.6861695028248
 30
0.0
 10
141.2727824037295
 20
299.7950778209695
 30
0.0
 10
141.2780973877928
 20
299.8564509131933
 30
0.0
 10
141.2901771745845
 20
299.9928855991567
 30
0.0
 10
141.297004708867
 20
300.068611979954
 30
0.0
 10
141.3115785634421
 20
300.2278147043689
 30
0.0
 10
141.3193746847474
 20
300.3118712092348
 30
0.0
 10
141.336000709691
 20
300.4890291951654
 30
0.0
 10
141.3447760189096
 20
300.5815263800212
 30
0.0
 10
141.3626396654048
 20
300.7679552286805
 30
0.0
 10
141.371810285214
 20
300.8627664791505
 30
0.0
 10
141.3812282525872
 20
300.959226018139
 30
0.0
  0
SPLINE
  5
FB
330
1F
100
AcDbEntity
  8
0
  6
Continuous
 62
     8
370
    18
100
AcDbSpline
210
0.0
220
0.0
230
1.0
 70
     8
 71
     3
 72
    21
 73
    17
 74
     0
 42
0.00000001
 43
0.00000001
 40
0.0
 40
0.0
 40
0.0
 40
0.0
 40
0.0527015849058808
 40
0.1061218290191977
 40
0.1602636673753207
 40
0.2151299185915188
 40
0.2707232904326046
 40
0.3270463850647936
 40
0.3841017040108068
 40
0.4418916528430497
 40
0.5004185455965674
 40
0.6190205570883749
 40
0.7500271669238981
 40
0.8150462880617746
 40
0.8983758744117143
 40
1.0
 40
1.0
 40
1.0
 40
1.0
 10
286.7406462832235
 20
299.476290991793
 30
0.0
 10
286.7408230938797
 20
299.4783001876371
 30
0.0
 10
286.7411791262506
 20
299.4823459774973
 30
0.0
 10
286.7404322109056
 20
299.5011064779914
 30
0.0
 10
286.7387451580223
 20
299.5295132637148
 30
0.0
 10
286.736011638617
 20
299.5686889515768
 30
0.0
 10
286.7322466782317
 20
299.6184998678709
 30
0.0
 10
286.7274324407884
 20
299.6790408882184
 30
0.0
 10
286.7215603038131
 20
299.7502159423271
 30
0.0
 10
286.7146205119184
 20
299.8318575606406
 30
0.0
 10
286.7038916035724
 20
299.9546461751077
 30
0.0
 10
286.6872730353799
 20
300.1383692687482
 30
0.0
 10
286.6675673223471
 20
300.3519546780447
 30
0.0
 10
286.648445713839
 20
300.5534003776798
 30
0.0
 10
286.6306344712402
 20
300.7400135815373
 30
0.0
 10
286.6169200288208
 20
300.881490515701
 30
0.0
 10
286.6093845314026
 20
300.9592260181391
 30
0.0
  0
LINE
  5
FC
330
1F
100
AcDbEntity
  8
0
  6
Continuous
 62
     8
370
    18
100
AcDbLine
 10
286.7416529868
 20
447.8086991096
 30
0.0
 11
286.7406462832
 21
447.6703173233
 31
0.0
  0
LINE
  5
FD
330
1F
100
AcDbEntity
  8
0
  6
Continuous
 62
     8
370
    18
100
AcDbLine
 10
141.2489597972
 20
447.8086991096
 30
0.0
 11
141.2499665008
 21
447.6703173233
 31
0.0
  0
LINE
  5
FE
330
1F
100
AcDbEntity
  8
0
  6
Continuous
 62
     8
370
    18
100
AcDbLine
 10
139.7599114399
 20
446.3196507524
 30
0.0
 11
139.8982932262
 21
446.3186440488
 31
0.0
  0
LINE
  5
FF
330
1F
100
AcDbEntity
  8
0
  6
Continuous
 62
     8
370
    18
100
AcDbLine
 10
139.7599114399
 20
300.8269575627
 30
0.0
 11
139.8982932262
 21
300.8279642663
 31
0.0
  0
LINE
  5
100
330
1F
100
AcDbEntity
  8
0
  6
Continuous
 62
     8
370
    18
100
AcDbLine
 10
141.2489597972
 20
299.3379092055
 30
0.0
 11
141.2499665008
 21
299.4762909918
 31
0.0
  0
LINE
  5
101
330
1F
100
AcDbEntity
  8
0
  6
Continuous
 62
     8
370
    18
100
AcDbLine
 10
286.7416529868
 20
299.3379092055
 30
0.0
 11
286.7406462832
 21
299.4762909918
 31
0.0
  0
LINE
  5
102
330
1F
100
AcDbEntity
  8
0
  6
Continuous
 62
     8
370
    18
100
AcDbLine
 10
288.2307013441
 20
300.8269575627
 30
0.0
 11
288.0923195577
 21
300.8279642663
 31
0.0
  0
LINE
  5
103
330
1F
100
AcDbEntity
  8
0
  6
Continuous
 62
     8
370
    18
100
AcDbLine
 10
288.2307013441
 20
446.3196507524
 30
0.0
 11
288.0923195577
 21
446.3186440488
 31
0.0
  0
SPLINE
  5
104
330
1F
100
AcDbEntity
  8
0
  6
Continuous
 62
     8
370
    18
100
AcDbSpline
210
0.0
220
0.0
230
1.0
 70
     8
 71
     3
 72
    25
 73
    21
 74
     0
 42
0.00000001
 43
0.00000001
 40
0.0
 40
0.0
 40
0.0
 40
0.0
 40
0.0555740769933564
 40
0.1111416178191766
 40
0.166703438990585
 40
0.2222603572237527
 40
0.2778131894090246
 40
0.3333627525819136
 40
0.3889098638941328
 40
0.444455340584549
 40
0.4999999999501494
 40
0.5555446593169772
 40
0.6110901360110875
 40
0.6666372473294614
 40
0.7221868105109714
 40
0.7777396427073173
 40
0.8332965609540269
 40
0.8888583821414353
 40
0.9444259229857195
 40
1.0
 40
1.0
 40
1.0
 40
1.0
 10
141.2499665007647
 20
299.4762909917935
 30
0.0
 10
141.2107362884551
 20
299.4775819258533
 30
0.0
 10
141.1322804777718
 20
299.480163642144
 30
0.0
 10
141.0155730749595
 20
299.4968918863435
 30
0.0
 10
140.9006944567726
 20
299.5228978191836
 30
0.0
 10
140.7885069540215
 20
299.5589116656578
 30
0.0
 10
140.679844499184
 20
299.6044166216411
 30
0.0
 10
140.5755169798769
 20
299.6591394621347
 30
0.0
 10
140.4763013997375
 20
299.7226542513268
 30
0.0
 10
140.3829368781317
 20
299.7944922262157
 30
0.0
 10
140.2961189212947
 20
299.874116686698
 30
0.0
 10
140.2164944607973
 20
299.9609346435248
 30
0.0
 10
140.1446564858898
 20
300.0542991651261
 30
0.0
 10
140.0811416966764
 20
300.1535147452674
 30
0.0
 10
140.0264188561607
 20
300.2578422645837
 30
0.0
 10
139.9809139001559
 20
300.3665047194376
 30
0.0
 10
139.9449000536621
 20
300.4786922222127
 30
0.0
 10
139.9188941208063
 20
300.5935708404309
 30
0.0
 10
139.9021658765957
 20
300.7102782432813
 30
0.0
 10
139.8995841603034
 20
300.7887340539925
 30
0.0
 10
139.8982932262428
 20
300.827964266317
 30
0.0
  0
SPLINE
  5
105
330
1F
100
AcDbEntity
  8
0
  6
Continuous
 62
     8
370
    18
100
AcDbSpline
210
0.0
220
0.0
230
1.0
 70
     8
 71
     3
 72
    25
 73
    21
 74
     0
 42
0.00000001
 43
0.00000001
 40
0.0
 40
0.0
 40
0.0
 40
0.0
 40
0.0555740770039925
 40
0.1111416178392036
 40
0.166703439018742
 40
0.2222603572587847
 40
0.2778131894496884
 40
0.3333627526269553
 40
0.3889098639422989
 40
0.4444553406345922
 40
0.5000000000008086
 40
0.5555446593670121
 40
0.6110901360592383
 40
0.6666372473744842
 40
0.722186810551614
 40
0.7777396427423311
 40
0.8332965609821633
 40
0.8888583821614406
 40
0.944425922996349
 40
1.0
 40
1.0
 40
1.0
 40
1.0
 10
288.0923195577466
 20
300.8279642663167
 30
0.0
 10
288.0910286236863
 20
300.7887340539995
 30
0.0
 10
288.0884469073949
 20
300.7102782433021
 30
0.0
 10
288.0717186631898
 20
300.5935708404703
 30
0.0
 10
288.0457127303417
 20
300.4786922222674
 30
0.0
 10
288.0096988838575
 20
300.3665047195041
 30
0.0
 10
287.9641939278634
 20
300.2578422646582
 30
0.0
 10
287.9094710873585
 20
300.1535147453465
 30
0.0
 10
287.8459562981556
 20
300.0542991652059
 30
0.0
 10
287.7741183232572
 20
299.9609346436024
 30
0.0
 10
287.6944938627672
 20
299.8741166867705
 30
0.0
 10
287.6076759059352
 20
299.7944922262809
 30
0.0
 10
287.5143113843316
 20
299.7226542513828
 30
0.0
 10
287.4150958041911
 20
299.6591394621801
 30
0.0
 10
287.3107682848795
 20
299.6044166216756
 30
0.0
 10
287.2021058300339
 20
299.5589116656818
 30
0.0
 10
287.0899183272711
 20
299.5228978191979
 30
0.0
 10
286.9750397090687
 20
299.4968918863501
 30
0.0
 10
286.8583323062375
 20
299.4801636421452
 30
0.0
 10
286.7798764955405
 20
299.4775819258537
 30
0.0
 10
286.7406462832236
 20
299.4762909917935
 30
0.0
  0
SPLINE
  5
106
330
1F
100
AcDbEntity
  8
0
  6
Continuous
 62
     8
370
    18
100
AcDbSpline
210
0.0
220
0.0
230
1.0
 70
     8
 71
     3
 72
    25
 73
    21
 74
     0
 42
0.00000001
 43
0.00000001
 40
0.0
 40
0.0
 40
0.0
 40
0.0
 40
0.0555740769952394
 40
0.1111416178227194
 40
0.1667034389955598
 40
0.2222603572299373
 40
0.277813189416198
 40
0.3333627525898602
 40
0.3889098639026276
 40
0.4444553405933713
 40
0.4999999999590709
 40
0.5555446593257898
 40
0.6110901360195594
 40
0.6666372473373772
 40
0.7221868105181174
 40
0.7777396427134698
 40
0.8332965609589699
 40
0.888858382144941
 40
0.9444259229875819
 40
1.0
 40
1.0
 40
1.0
 40
1.0
 10
286.7406462832246
 20
447.6703173233032
 30
0.0
 10
286.7798764955356
 20
447.6690263892433
 30
0.0
 10
286.8583323062214
 20
447.6664446729525
 30
0.0
 10
286.9750397090371
 20
447.649716428752
 30
0.0
 10
287.0899183272268
 20
447.6237104959105
 30
0.0
 10
287.20210582998
 20
447.5876966494344
 30
0.0
 10
287.3107682848188
 20
447.5421916934494
 30
0.0
 10
287.4150958041268
 20
447.4874688529537
 30
0.0
 10
287.5143113842664
 20
447.4239540637597
 30
0.0
 10
287.6076759058716
 20
447.3521160888691
 30
0.0
 10
287.6944938627078
 20
447.2724916283856
 30
0.0
 10
287.7741183232038
 20
447.1856736715579
 30
0.0
 10
287.8459562981097
 20
447.0923091499562
 30
0.0
 10
287.9094710873211
 20
446.993093569815
 30
0.0
 10
287.9641939278349
 20
446.8887660504997
 30
0.0
 10
288.0096988838376
 20
446.7801035956472
 30
0.0
 10
288.0457127303299
 20
446.6679160928743
 30
0.0
 10
288.0717186631842
 20
446.553037474659
 30
0.0
 10
288.0884469073939
 20
446.436330071812
 30
0.0
 10
288.091028623686
 20
446.3578742611034
 30
0.0
 10
288.0923195577466
 20
446.3186440487802
 30
0.0
  0
SPLINE
  5
107
330
1F
100
AcDbEntity
  8
0
  6
Continuous
 62
     8
370
    18
100
AcDbSpline
210
0.0
220
0.0
230
1.0
 70
     8
 71
     3
 72
    25
 73
    21
 74
     0
 42
0.00000001
 43
0.00000001
 40
0.0
 40
0.0
 40
0.0
 40
0.0
 40
0.0555740770111256
 40
0.1111416178526283
 40
0.1667034390376182
 40
0.2222603572822918
 40
0.2778131894769693
 40
0.3333627526571793
 40
0.3889098639746268
 40
0.4444553406681825
 40
0.5000000000348251
 40
0.5555446594006127
 40
0.6110901360915849
 40
0.6666372474047328
 40
0.7221868105789203
 40
0.7777396427658617
 40
0.8332965610010725
 40
0.8888583821748843
 40
0.9444259230034925
 40
1.0
 40
1.0
 40
1.0
 40
1.0
 10
139.8982932262428
 20
446.31864404878
 30
0.0
 10
139.8995841603034
 20
446.3578742611022
 30
0.0
 10
139.9021658765953
 20
446.4363300718088
 30
0.0
 10
139.9188941208041
 20
446.5530374746534
 30
0.0
 10
139.9449000536575
 20
446.6679160928666
 30
0.0
 10
139.9809139001482
 20
446.7801035956378
 30
0.0
 10
140.0264188561495
 20
446.888766050489
 30
0.0
 10
140.0811416966617
 20
446.9930935698038
 30
0.0
 10
140.1446564858715
 20
447.0923091499448
 30
0.0
 10
140.216494460776
 20
447.1856736715466
 30
0.0
 10
140.2961189212708
 20
447.2724916283748
 30
0.0
 10
140.3829368781059
 20
447.3521160888594
 30
0.0
 10
140.4763013997106
 20
447.423954063751
 30
0.0
 10
140.57551697985
 20
447.4874688529466
 30
0.0
 10
140.6798444991581
 20
447.5421916934436
 30
0.0
 10
140.7885069539977
 20
447.5876966494302
 30
0.0
 10
140.900694456752
 20
447.6237104959077
 30
0.0
 10
141.0155730749433
 20
447.6497164287504
 30
0.0
 10
141.132280477761
 20
447.6664446729519
 30
0.0
 10
141.2107362884483
 20
447.6690263892431
 30
0.0
 10
141.2499665007602
 20
447.6703173233032
 30
0.0
  0
ARC
  5
108
330
1F
100
AcDbEntity
  8
0
  6
Continuous
 62
     7
370
    25
100
AcDbCircle
 10
213.995306392
 20
7199.2802282002
 30
0.0
 40
7000.000000000001
100
AcDbArc
 50
269.4035566638
 51
269.8854083646
  0
ARC
  5
109
330
1F
100
AcDbEntity
  8
0
  6
Continuous
 62
     7
370
    25
100
AcDbCircle
 10
213.995306392
 20
7199.2802282002
 30
0.0
 40
7000.000000000001
100
AcDbArc
 50
270.1145916354
 51
270.5964431916
  0
ARC
  5
10A
330
1F
100
AcDbEntity
  8
0
  6
Continuous
 62
     7
370
    25
100
AcDbCircle
 10
286.8476062612
 20
201.1594238411
 30
0.0
 40
1.500000000000016
100
AcDbArc
 50
270.6103433351
 51
358.4893102131
  0
ARC
  5
10B
330
1F
100
AcDbEntity
  8
0
  6
Continuous
 62
     7
370
    25
100
AcDbCircle
 10
141.1430065228
 20
201.1594238411
 30
0.0
 40
1.500000000000002
100
AcDbArc
 50
181.5241076745
 51
269.4062135039
  0
LINE
  5
10C
330
1F
100
AcDbEntity
  8
0
  6
Continuous
 62
     7
370
    25
100
AcDbLine
 10
288.3470926238
 20
201.1201727446
 30
0.0
 11
288.495306392
 21
206.7802282002
 31
0.0
  0
LINE
  5
10D
330
1F
100
AcDbEntity
  8
0
  6
Continuous
 62
     7
370
    25
100
AcDbLine
 10
139.495306392
 20
206.7802282002
 30
0.0
 11
139.6435201602
 21
201.1201727446
 31
0.0
  0
LINE
  5
10E
330
1F
100
AcDbEntity
  8
0
  6
Continuous
 62
     7
370
    25
100
AcDbLine
 10
227.995306392
 20
184.2802282002
 30
0.0
 11
227.995306392
 21
199.3628782242
 31
0.0
  0
LINE
  5
10F
330
1F
100
AcDbEntity
  8
0
  6
Continuous
 62
     7
370
    25
100
AcDbLine
 10
199.995306392
 20
199.3628767227
 30
0.0
 11
199.995306392
 21
184.2802282002
 31
0.0
  0
ARC
  5
110
330
1F
100
AcDbEntity
  8
0
  6
Continuous
 62
     7
370
    25
100
AcDbCircle
 10
200.495306392
 20
184.2802282002
 30
0.0
 40
0.5
100
AcDbArc
 50
180.0
 51
270.0
  0
ARC
  5
111
330
1F
100
AcDbEntity
  8
0
  6
Continuous
 62
     7
370
    25
100
AcDbCircle
 10
227.495306392
 20
184.2802282002
 30
0.0
 40
0.5
100
AcDbArc
 50
270.0
 51
0.0
  0
LINE
  5
112
330
1F
100
AcDbEntity
  8
0
  6
Continuous
 62
     7
370
    25
100
AcDbLine
 10
225.995306392
 20
182.8707876026
 30
0.0
 11
225.995306392
 21
183.7802282002
 31
0.0
  0
LINE
  5
113
330
1F
100
AcDbEntity
  8
0
  6
Continuous
 62
     7
370
    25
100
AcDbLine
 10
201.995306392
 20
183.7802282002
 30
0.0
 11
201.995306392
 21
182.8707876026
 31
0.0
  0
LINE
  5
114
330
1F
100
AcDbEntity
  8
0
  6
Continuous
 62
     7
370
    25
100
AcDbLine
 10
236.8953063903
 20
175.7802282002
 30
0.0
 11
236.8953063903
 21
199.3176861576
 31
0.0
  0
LINE
  5
115
330
1F
100
AcDbEntity
  8
0
  6
Continuous
 62
     7
370
    25
100
AcDbLine
 10
191.0953063903
 20
199.3176861576
 30
0.0
 11
191.0953063903
 21
175.7802282002
 31
0.0
  0
ARC
  5
116
330
1F
100
AcDbEntity
  8
0
  6
Continuous
 62
     7
370
    25
100
AcDbCircle
 10
192.0953063903
 20
175.7802282002
 30
0.0
 40
1.0
100
AcDbArc
 50
180.0
 51
270.0
  0
ARC
  5
117
330
1F
100
AcDbEntity
  8
0
  6
Continuous
 62
     7
370
    25
100
AcDbCircle
 10
235.8953063903
 20
175.7802282002
 30
0.0
 40
1.0
100
AcDbArc
 50
270.0
 51
0.0
  0
LINE
  5
118
330
1F
100
AcDbEntity
  8
0
  6
Continuous
 62
     7
370
    25
100
AcDbLine
 10
190.745306392
 20
174.7802282002
 30
0.0
 11
190.745306392
 21
173.7802282002
 31
0.0
  0
LWPOLYLINE
  5
119
330
1F
100
AcDbEntity
  8
0
  6
Continuous
 62
     7
370
    25
100
AcDbPolyline
 90
        3
 70
   128
 43
0.0
 10
236.3066919124
 20
173.7802282002
 10
236.3084939718
 20
174.0264424863
 10
236.3140700271
 20
174.7893009752
  0
LINE
  5
11A
330
1F
100
AcDbEntity
  8
0
  6
Continuous
 62
     7
370
    25
100
AcDbLine
 10
236.8778513306
 20
173.7802282002
 30
0.0
 11
236.8953063955
 21
174.7802282002
 31
0.0
  0
LINE
  5
11B
330
1F
100
AcDbEntity
  8
0
  6
Continuous
 62
     7
370
    25
100
AcDbLine
 10
141.2489597972
 20
206.7802282002
 30
0.0
 11
286.7416529868
 21
206.7802282002
 31
0.0
  0
SPLINE
  5
11C
330
1F
100
AcDbEntity
  8
0
  6
Continuous
 62
     7
370
    25
100
AcDbSpline
210
0.0
220
0.0
230
1.0
 70
     8
 71
     3
 72
    27
 73
    23
 74
     0
 42
0.00000001
 43
0.00000001
 40
0.0
 40
0.0
 40
0.0
 40
0.0
 40
0.018549761780621
 40
0.0722455869452951
 40
0.1259415381258448
 40
0.1796374875464665
 40
0.233333223753646
 40
0.2870289575000834
 40
0.3407242322436
 40
0.3944195049040646
 40
0.4481142739411342
 40
0.5018090421857818
 40
0.5555034829104658
 40
0.6091979244805814
 40
0.6628923581710532
 40
0.7165867939742239
 40
0.7702815449865327
 40
0.8239762984529007
 40
0.8776715520735722
 40
0.9313668074141817
 40
0.9850625286596408
 40
1.0
 40
1.0
 40
1.0
 40
1.0
 10
200.0412325409696
 20
199.3628767226774
 30
0.0
 10
200.0292283307218
 20
199.3640796789326
 30
0.0
 10
199.9824756432521
 20
199.3687648216185
 30
0.0
 10
200.305134220126
 20
199.3768935893536
 30
0.0
 10
201.0136522503384
 20
199.3868772571307
 30
0.0
 10
202.1101174925731
 20
199.3961954849753
 30
0.0
 10
203.5436854411383
 20
199.4045477254103
 30
0.0
 10
205.2697735827557
 20
199.4117413784882
 30
0.0
 10
207.248136719021
 20
199.417519123989
 30
0.0
 10
209.4142178337988
 20
199.4217775148741
 30
0.0
 10
211.7129791047881
 20
199.4243292803517
 30
0.0
 10
214.075192333984
 20
199.425172376961
 30
0.0
 10
216.4350864465631
 20
199.4242105246552
 30
0.0
 10
218.7271336733852
 20
199.4215433380644
 30
0.0
 10
220.882133686005
 20
199.4171763584256
 30
0.0
 10
222.845513503135
 20
199.4112996256602
 30
0.0
 10
224.5530753993535
 20
199.4040198156789
 30
0.0
 10
225.9649461419122
 20
199.3955962155045
 30
0.0
 10
227.0381439995166
 20
199.3862236798433
 30
0.0
 10
227.7184853983806
 20
199.376205049371
 30
0.0
 10
228.0189022234396
 20
199.3682945830327
 30
0.0
 10
227.9658728436009
 20
199.3638463474825
 30
0.0
 10
227.9543314186476
 20
199.3628782242095
 30
0.0
  0
LINE
  5
11D
330
1F
100
AcDbEntity
  8
0
  6
Continuous
 62
     7
370
    25
100
AcDbLine
 10
288.2307013441
 20
206.7802282002
 30
0.0
 11
288.0923195577
 21
201.4955011498
 31
0.0
  0
LINE
  5
11E
330
1F
100
AcDbEntity
  8
0
  6
Continuous
 62
     7
370
    25
100
AcDbLine
 10
286.7416529868
 20
206.7802282002
 30
0.0
 11
288.2307013441
 21
206.7802282002
 31
0.0
  0
LINE
  5
11F
330
1F
100
AcDbEntity
  8
0
  6
Continuous
 62
     7
370
    25
100
AcDbLine
 10
139.7599114399
 20
206.7802282002
 30
0.0
 11
139.8982932262
 21
201.4955011498
 31
0.0
  0
LINE
  5
120
330
1F
100
AcDbEntity
  8
0
  6
Continuous
 62
     7
370
    25
100
AcDbLine
 10
141.2489597972
 20
206.7802282002
 30
0.0
 11
139.7599114399
 21
206.7802282002
 31
0.0
  0
LINE
  5
121
330
1F
100
AcDbEntity
  8
0
  6
Continuous
 62
     7
370
    25
100
AcDbLine
 10
288.495306392
 20
206.7802282002
 30
0.0
 11
288.2307013441
 21
206.7802282002
 31
0.0
  0
LINE
  5
122
330
1F
100
AcDbEntity
  8
0
  6
Continuous
 62
     7
370
    25
100
AcDbLine
 10
139.495306392
 20
206.7802282002
 30
0.0
 11
139.7599114399
 21
206.7802282002
 31
0.0
  0
ARC
  5
123
330
1F
100
AcDbEntity
  8
0
  6
Continuous
 62
     7
370
    25
100
AcDbCircle
 10
199.4996888651
 20
182.3707876026
 30
0.0
 40
0.5000000000000027
100
AcDbArc
 50
90.0
 51
180.5
  0
LINE
  5
124
330
1F
100
AcDbEntity
  8
0
  6
Continuous
 62
     7
370
    25
100
AcDbLine
 10
199.4996888651
 20
182.8707876026
 30
0.0
 11
200.1996622112
 21
182.8707876026
 31
0.0
  0
LINE
  5
125
330
1F
100
AcDbEntity
  8
0
  6
Continuous
 62
     7
370
    25
100
AcDbLine
 10
200.1996622112
 20
182.8707876026
 30
0.0
 11
227.7909505728
 21
182.8707876026
 31
0.0
  0
LINE
  5
126
330
1F
100
AcDbEntity
  8
0
  6
Continuous
 62
     7
370
    25
100
AcDbLine
 10
227.7909505728
 20
182.8707876026
 30
0.0
 11
228.4909239189
 21
182.8707876026
 31
0.0
  0
ARC
  5
127
330
1F
100
AcDbEntity
  8
0
  6
Continuous
 62
     7
370
    25
100
AcDbCircle
 10
228.4909239189
 20
182.3707876026
 30
0.0
 40
0.5000000000000027
100
AcDbArc
 50
359.5
 51
90.0
  0
LINE
  5
128
330
1F
100
AcDbEntity
  8
0
  6
Continuous
 62
     7
370
    25
100
AcDbLine
 10
228.9909048804
 20
182.3664243348
 30
0.0
 11
228.7918789861
 21
159.56031576
 31
0.0
  0
LINE
  5
129
330
1F
100
AcDbEntity
  8
0
  6
Continuous
 62
     7
370
    25
100
AcDbLine
 10
199.1987337979
 20
159.56031576
 30
0.0
 11
198.9997079036
 21
182.3664243348
 31
0.0
  0
ARC
  5
12A
330
1F
100
AcDbEntity
  8
0
  6
Continuous
 62
     7
370
    25
100
AcDbCircle
 10
227.5919246784
 20
159.5707876026
 30
0.0
 40
1.200000000000045
100
AcDbArc
 50
270.0
 51
359.5
  0
ARC
  5
12B
330
1F
100
AcDbEntity
  8
0
  6
Continuous
 62
     7
370
    25
100
AcDbCircle
 10
200.3986881056
 20
159.5707876026
 30
0.0
 40
1.200000000000045
100
AcDbArc
 50
180.5
 51
270.0
  0
LINE
  5
12C
330
1F
100
AcDbEntity
  8
0
  6
Continuous
 62
     7
370
    25
100
AcDbLine
 10
227.5919246784
 20
158.3707876026
 30
0.0
 11
200.3986881056
 21
158.3707876026
 31
0.0
  0
LINE
  5
12D
330
1F
100
AcDbEntity
  8
0
  6
Continuous
 62
     7
370
    25
100
AcDbLine
 10
227.495306392
 20
183.7802282002
 30
0.0
 11
200.495306392
 21
183.7802282002
 31
0.0
  0
SPLINE
  5
12E
330
1F
100
AcDbEntity
  8
0
  6
Continuous
 62
     7
370
    25
100
AcDbSpline
210
0.0
220
0.0
230
1.0
 70
     8
 71
     3
 72
    12
 73
     8
 74
     0
 42
0.00000001
 43
0.00000001
 40
0.0
 40
0.0
 40
0.0
 40
0.0
 40
0.5
 40
0.5
 40
0.75
 40
0.75
 40
1.0
 40
1.0
 40
1.0
 40
1.0
 10
210.0004549470016
 20
145.2813296452119
 30
0.0
 10
211.3153845693206
 20
145.5806241663136
 30
0.0
 10
212.642329541937
 20
145.7291687017823
 30
0.0
 10
214.6505401772879
 20
145.7307495835153
 30
0.0
 10
215.3258529315364
 20
145.6936855691048
 30
0.0
 10
216.6682587439737
 20
145.5434671101342
 30
0.0
 10
217.3326006492726
 20
145.4309979318287
 30
0.0
 10
217.9901578369877
 20
145.2813296452119
 30
0.0
  0
SPLINE
  5
12F
330
1F
100
AcDbEntity
  8
0
  6
Continuous
 62
     7
370
    25
100
AcDbSpline
210
0.0
220
0.0
230
1.0
 70
     8
 71
     3
 72
    12
 73
     8
 74
     0
 42
0.00000001
 43
0.00000001
 40
0.0
 40
0.0
 40
0.0
 40
0.0
 40
0.5
 40
0.5
 40
0.75
 40
0.75
 40
1.0
 40
1.0
 40
1.0
 40
1.0
 10
217.9901578369877
 20
134.2791267552257
 30
0.0
 10
216.6752282146687
 20
133.9798322341242
 30
0.0
 10
215.3482832420523
 20
133.8312876986554
 30
0.0
 10
213.3400726067015
 20
133.8297068169223
 30
0.0
 10
212.6647598524529
 20
133.8667708313328
 30
0.0
 10
211.3223540400157
 20
134.0169892903035
 30
0.0
 10
210.6580121347167
 20
134.129458468609
 30
0.0
 10
210.0004549470016
 20
134.2791267552257
 30
0.0
  0
SPLINE
  5
130
330
1F
100
AcDbEntity
  8
0
  6
Continuous
 62
     7
370
    25
100
AcDbSpline
210
0.0
220
0.0
230
1.0
 70
     8
 71
     3
 72
    12
 73
     8
 74
     0
 42
0.00000001
 43
0.00000001
 40
0.0
 40
0.0
 40
0.0
 40
0.0
 40
0.5
 40
0.5
 40
0.75
 40
0.75
 40
1.0
 40
1.0
 40
1.0
 40
1.0
 10
208.4942049470016
 20
135.7853767552257
 30
0.0
 10
208.1940407613802
 20
137.1041271880101
 30
0.0
 10
208.0462617154425
 20
138.4315690377714
 30
0.0
 10
208.0448355688413
 20
140.4353410500753
 30
0.0
 10
208.081411902129
 20
141.1053852944057
 30
0.0
 10
208.2315325771
 20
142.4498740642001
 30
0.0
 10
208.3441182572574
 20
143.1156842325125
 30
0.0
 10
208.4942049470016
 20
143.7750796452119
 30
0.0
  0
SPLINE
  5
131
330
1F
100
AcDbEntity
  8
0
  6
Continuous
 62
     7
370
    25
100
AcDbSpline
210
0.0
220
0.0
230
1.0
 70
     8
 71
     3
 72
    12
 73
     8
 74
     0
 42
0.00000001
 43
0.00000001
 40
0.0
 40
0.0
 40
0.0
 40
0.0
 40
0.5
 40
0.5
 40
0.75
 40
0.75
 40
1.0
 40
1.0
 40
1.0
 40
1.0
 10
219.4964078369877
 20
143.7750796452119
 30
0.0
 10
219.796572022609
 20
142.4563292124276
 30
0.0
 10
219.9443510685468
 20
141.1288873626663
 30
0.0
 10
219.945777215148
 20
139.1251153503621
 30
0.0
 10
219.9092008818603
 20
138.4550711060318
 30
0.0
 10
219.7590802068894
 20
137.1105823362374
 30
0.0
 10
219.6464945267319
 20
136.444772167925
 30
0.0
 10
219.4964078369877
 20
135.7853767552257
 30
0.0
  0
SPLINE
  5
132
330
1F
100
AcDbEntity
  8
0
  6
Continuous
 62
     7
370
    25
100
AcDbSpline
210
0.0
220
0.0
230
1.0
 70
     8
 71
     3
 72
    14
 73
    10
 74
     0
 42
0.00000001
 43
0.00000001
 40
0.0
 40
0.0
 40
0.0
 40
0.0
 40
0.25
 40
0.25
 40
0.5
 40
0.5
 40
0.75
 40
0.75
 40
1.0
 40
1.0
 40
1.0
 40
1.0
 10
217.9901578369877
 20
145.2813296452119
 30
0.0
 10
218.1741897940658
 20
145.2394416570442
 30
0.0
 10
218.348050508329
 20
145.1730055693354
 30
0.0
 10
218.6759334845326
 20
144.9922140453521
 30
0.0
 10
218.8272513799213
 20
144.878420040082
 30
0.0
 10
219.0910931388867
 20
144.6150726368073
 30
0.0
 10
219.2060028279311
 20
144.4625882373281
 30
0.0
 10
219.3863618966222
 20
144.136690568942
 30
0.0
 10
219.4544547179697
 20
143.959397750142
 30
0.0
 10
219.4964078369877
 20
143.7750796452119
 30
0.0
  0
SPLINE
  5
133
330
1F
100
AcDbEntity
  8
0
  6
Continuous
 62
     7
370
    25
100
AcDbSpline
210
0.0
220
0.0
230
1.0
 70
     8
 71
     3
 72
    14
 73
    10
 74
     0
 42
0.00000001
 43
0.00000001
 40
0.0
 40
0.0
 40
0.0
 40
0.0
 40
0.25
 40
0.25
 40
0.5
 40
0.5
 40
0.75
 40
0.75
 40
1.0
 40
1.0
 40
1.0
 40
1.0
 10
210.0004549470016
 20
134.2791267552257
 30
0.0
 10
209.8164229899235
 20
134.3210147433934
 30
0.0
 10
209.6425622756604
 20
134.387450831102
 30
0.0
 10
209.3146792994567
 20
134.5682423550855
 30
0.0
 10
209.163361404068
 20
134.6820363603555
 30
0.0
 10
208.8995196451027
 20
134.9453837636302
 30
0.0
 10
208.7846099560582
 20
135.0978681631094
 30
0.0
 10
208.6042508873671
 20
135.4237658314955
 30
0.0
 10
208.5361580660196
 20
135.6010586502955
 30
0.0
 10
208.4942049470016
 20
135.7853767552257
 30
0.0
  0
SPLINE
  5
134
330
1F
100
AcDbEntity
  8
0
  6
Continuous
 62
     7
370
    25
100
AcDbSpline
210
0.0
220
0.0
230
1.0
 70
     8
 71
     3
 72
    14
 73
    10
 74
     0
 42
0.00000001
 43
0.00000001
 40
0.0
 40
0.0
 40
0.0
 40
0.0
 40
0.25
 40
0.25
 40
0.5
 40
0.5
 40
0.75
 40
0.75
 40
1.0
 40
1.0
 40
1.0
 40
1.0
 10
208.4942049470016
 20
143.7750796452119
 30
0.0
 10
208.53615180789
 20
143.9593702554859
 30
0.0
 10
208.6027084829199
 20
144.1334336541559
 30
0.0
 10
208.7838186377607
 20
144.4616222501329
 30
0.0
 10
208.8976822580372
 20
144.6128676847779
 30
0.0
 10
209.1612441032959
 20
144.8766721925001
 30
0.0
 10
209.3136173109279
 20
144.9913621932083
 30
0.0
 10
209.6392650551191
 20
145.1714502558521
 30
0.0
 10
209.8164512105343
 20
145.2394480804101
 30
0.0
 10
210.0004549470016
 20
145.2813296452119
 30
0.0
  0
SPLINE
  5
135
330
1F
100
AcDbEntity
  8
0
  6
Continuous
 62
     7
370
    25
100
AcDbSpline
210
0.0
220
0.0
230
1.0
 70
     8
 71
     3
 72
    14
 73
    10
 74
     0
 42
0.00000001
 43
0.00000001
 40
0.0
 40
0.0
 40
0.0
 40
0.0
 40
0.25
 40
0.25
 40
0.5
 40
0.5
 40
0.75
 40
0.75
 40
1.0
 40
1.0
 40
1.0
 40
1.0
 10
219.4964078369877
 20
135.7853767552257
 30
0.0
 10
219.4544609760993
 20
135.6010861449517
 30
0.0
 10
219.3879043010694
 20
135.4270227462815
 30
0.0
 10
219.2067941462286
 20
135.0988341503049
 30
0.0
 10
219.0929305259522
 20
134.9475887156596
 30
0.0
 10
218.8293686806934
 20
134.6837842079374
 30
0.0
 10
218.6769954730614
 20
134.5690942072293
 30
0.0
 10
218.3513477288702
 20
134.3890061445855
 30
0.0
 10
218.174161573455
 20
134.3210083200275
 30
0.0
 10
217.9901578369877
 20
134.2791267552257
 30
0.0
  0
SPLINE
  5
136
330
1F
100
AcDbEntity
  8
0
  6
Continuous
 62
     7
370
    25
100
AcDbSpline
210
0.0
220
0.0
230
1.0
 70
    24
 71
     3
 72
    12
 73
     8
 74
     0
 42
0.00000001
 43
0.00000001
 40
0.0
 40
0.0
 40
0.0
 40
0.0
 40
0.2490749208441525
 40
0.499916936051966
 40
0.6666007504179969
 40
0.8330412199552857
 40
1.0
 40
1.0
 40
1.0
 40
1.0
 10
238.0675496702416
 20
173.7802282002188
 30
0.0
 10
238.0462138459333
 20
173.7802282002187
 30
0.0
 10
238.0033908275412
 20
173.7802282002187
 30
0.0
 10
237.9439212473843
 20
173.7802282002188
 30
0.0
 10
237.891137259953
 20
173.7802282002187
 30
0.0
 10
237.84551710706
 20
173.7802282002189
 30
0.0
 10
237.8149731575081
 20
173.7802282002188
 30
0.0
 10
237.7996774405522
 20
173.7802282002188
 30
0.0
  0
ARC
  5
137
330
1F
100
AcDbEntity
  8
0
  6
Continuous
 62
     7
370
    25
100
AcDbCircle
 10
238.4996507867
 20
173.2802282002
 30
0.0
 40
0.5000000000000027
100
AcDbArc
 50
359.5
 51
90.0
  0
LINE
  5
138
330
1F
100
AcDbEntity
  8
0
  6
Continuous
 62
     7
370
    25
100
AcDbLine
 10
190.1909353434
 20
173.7802282002
 30
0.0
 11
199.074638502
 21
173.7802282002
 31
0.0
  0
LINE
  5
139
330
1F
100
AcDbEntity
  8
0
  6
Continuous
 62
     7
370
    25
100
AcDbLine
 10
228.9159742819
 20
173.7802282002
 30
0.0
 11
237.7996774406
 21
173.7802282002
 31
0.0
  0
SPLINE
  5
13A
330
1F
100
AcDbEntity
  8
0
  6
Continuous
 62
     7
370
    25
100
AcDbSpline
210
0.0
220
0.0
230
1.0
 70
    24
 71
     3
 72
    12
 73
     8
 74
     0
 42
0.00000001
 43
0.00000001
 40
0.0
 40
0.0
 40
0.0
 40
0.0
 40
0.2491022919049267
 40
0.4999679642927476
 40
0.6666461908156183
 40
0.8330649339569394
 40
1.0
 40
1.0
 40
1.0
 40
1.0
 10
190.1909353434371
 20
173.7802282002187
 30
0.0
 10
190.1681102285806
 20
173.7802282002187
 30
0.0
 10
190.1222984212212
 20
173.7802282002187
 30
0.0
 10
190.0617862274304
 20
173.7802282002188
 30
0.0
 10
190.0096792338883
 20
173.7802282002188
 30
0.0
 10
189.9657379796085
 20
173.7802282002187
 30
0.0
 10
189.9373027489498
 20
173.7802282002188
 30
0.0
 10
189.9230631123319
 20
173.7802282002187
 30
0.0
  0
ARC
  5
13B
330
1F
100
AcDbEntity
  8
0
  6
Continuous
 62
     7
370
    25
100
AcDbCircle
 10
189.4909619973
 20
173.2802282002
 30
0.0
 40
0.5000000000000027
100
AcDbArc
 50
90.0
 51
180.5
  0
LINE
  5
13C
330
1F
100
AcDbEntity
  8
0
  6
Continuous
 62
     7
370
    25
100
AcDbLine
 10
238.9996317482
 20
173.2758649325
 30
0.0
 11
238.5606169896
 21
122.9697563576
 31
0.0
  0
LINE
  5
13D
330
1F
100
AcDbEntity
  8
0
  6
Continuous
 62
     7
370
    25
100
AcDbLine
 10
189.4299957944
 20
122.9697563576
 30
0.0
 11
188.9909810358
 21
173.2758649325
 31
0.0
  0
LINE
  5
13E
330
1F
100
AcDbEntity
  8
0
  6
Continuous
 62
     7
370
    25
100
AcDbLine
 10
237.360662682
 20
121.7802282002
 30
0.0
 11
190.629950102
 21
121.7802282002
 31
0.0
  0
ARC
  5
13F
330
1F
100
AcDbEntity
  8
0
  6
Continuous
 62
     7
370
    25
100
AcDbCircle
 10
237.360662682
 20
122.9802282002
 30
0.0
 40
1.200000000000045
100
AcDbArc
 50
270.0
 51
359.5
  0
ARC
  5
140
330
1F
100
AcDbEntity
  8
0
  6
Continuous
 62
     7
370
    25
100
AcDbCircle
 10
190.629950102
 20
122.9802282002
 30
0.0
 40
1.200000000000045
100
AcDbArc
 50
180.5
 51
270.0
  0
LINE
  5
141
330
1F
100
AcDbEntity
  8
0
  6
Continuous
 62
     7
370
    25
100
AcDbLine
 10
193.2350359587
 20
173.7802282002
 30
0.0
 11
193.2219552871
 21
174.7802282002
 31
0.0
  0
LINE
  5
142
330
1F
100
AcDbEntity
  8
0
  6
Continuous
 62
     7
370
    25
100
AcDbLine
 10
199.0659116343
 20
174.7802282002
 30
0.0
 11
193.2219552871
 21
174.7802282002
 31
0.0
  0
LINE
  5
143
330
1F
100
AcDbEntity
  8
0
  6
Continuous
 62
     7
370
    25
100
AcDbLine
 10
228.9247011497
 20
174.7802282002
 30
0.0
 11
236.3018217817
 21
174.7802282002
 31
0.0
  0
LINE
  5
144
330
1F
100
AcDbEntity
  8
0
  6
Continuous
 62
     7
370
    25
100
AcDbLine
 10
192.8462882063
 20
174.7802282002
 30
0.0
 11
193.2219552871
 21
174.7802282002
 31
0.0
  0
SPLINE
  5
145
330
1F
100
AcDbEntity
  8
0
  6
Continuous
 62
     7
370
    25
100
AcDbSpline
210
0.0
220
0.0
230
1.0
 70
    24
 71
     3
 72
     8
 73
     4
 74
     0
 42
0.00000001
 43
0.00000001
 40
0.0
 40
0.0
 40
0.0
 40
0.0
 40
1.0
 40
1.0
 40
1.0
 40
1.0
 10
192.6933726233991
 20
174.7802282002187
 30
0.0
 10
192.7233672429458
 20
174.7802282002187
 30
0.0
 10
192.77790276494
 20
174.7802282002187
 30
0.0
 10
192.8462882062548
 20
174.7802282002187
 30
0.0
  0
LINE
  5
146
330
1F
100
AcDbEntity
  8
0
  6
Continuous
 62
     7
370
    25
100
AcDbLine
 10
190.745306392
 20
174.7802282002
 30
0.0
 11
192.6933726234
 21
174.7802282002
 31
0.0
  0
LINE
  5
147
330
1F
100
AcDbEntity
  8
0
  6
Continuous
 62
     7
370
    25
100
AcDbLine
 10
236.3018217817
 20
174.7802282002
 30
0.0
 11
236.3104397423
 21
174.7802282002
 31
0.0
  0
LINE
  5
148
330
1F
100
AcDbEntity
  8
0
  6
Continuous
 62
     7
370
    25
100
AcDbLine
 10
236.8953063955
 20
174.7802282002
 30
0.0
 11
236.4923181372
 21
174.7802282002
 31
0.0
  0
SPLINE
  5
149
330
1F
100
AcDbEntity
  8
0
  6
Continuous
 62
     8
370
    18
100
AcDbSpline
210
0.0
220
0.0
230
1.0
 70
     8
 71
     3
 72
     8
 73
     4
 74
     0
 42
0.00000001
 43
0.00000001
 40
0.0
 40
0.0
 40
0.0
 40
0.0
 40
1.0
 40
1.0
 40
1.0
 40
1.0
 10
286.6093845314016
 20
200.0335264963901
 30
0.0
 10
238.1999991051303
 20
199.5348118984662
 30
0.0
 10
189.790613678859
 20
199.5348118984654
 30
0.0
 10
141.3812282525876
 20
200.0335264963892
 30
0.0
  0
SPLINE
  5
14A
330
1F
100
AcDbEntity
  8
0
  6
Continuous
 62
     8
370
    18
100
AcDbSpline
210
0.0
220
0.0
230
1.0
 70
     8
 71
     3
 72
    26
 73
    22
 74
     0
 42
0.00000001
 43
0.00000001
 40
0.0
 40
0.0
 40
0.0
 40
0.0
 40
0.03125
 40
0.03125
 40
0.0625
 40
0.0625
 40
0.125
 40
0.125
 40
0.25
 40
0.25
 40
0.375
 40
0.375
 40
0.5
 40
0.5
 40
0.625
 40
0.625
 40
0.75
 40
0.75
 40
0.875
 40
0.875
 40
1.0
 40
1.0
 40
1.0
 40
1.0
 10
141.2499665007602
 20
201.495501149771
 30
0.0
 10
141.2498016990127
 20
201.4712517746806
 30
0.0
 10
141.2496952793535
 20
201.4470465010015
 30
0.0
 10
141.249597905256
 20
201.398775406204
 30
0.0
 10
141.2496069508176
 20
201.3747095850854
 30
0.0
 10
141.2498053369006
 20
201.3027981751764
 30
0.0
 10
141.25016592682
 20
201.2552386398329
 30
0.0
 10
141.2519171067041
 20
201.1143192444393
 30
0.0
 10
141.2539771067949
 20
201.0227185950263
 30
0.0
 10
141.259799067494
 20
200.8474885077642
 30
0.0
 10
141.2636180742469
 20
200.7623586487764
 30
0.0
 10
141.272782403726
 20
200.604172766681
 30
0.0
 10
141.2780973877894
 20
200.5311202744964
 30
0.0
 10
141.2901771745816
 20
200.3969657876402
 30
0.0
 10
141.2970047088643
 20
200.3356237678682
 30
0.0
 10
141.3115785634398
 20
200.2301696586476
 30
0.0
 10
141.3193746847454
 20
200.1853198197099
 30
0.0
 10
141.3360007096896
 20
200.1116127224842
 30
0.0
 10
141.3447760189085
 20
200.0832331444221
 30
0.0
 10
141.3626396654042
 20
200.0449364026265
 30
0.0
 10
141.3718102852138
 20
200.0346249285277
 30
0.0
 10
141.3812282525872
 20
200.0335264963896
 30
0.0
  0
SPLINE
  5
14B
330
1F
100
AcDbEntity
  8
0
  6
Continuous
 62
     8
370
    18
100
AcDbSpline
210
0.0
220
0.0
230
1.0
 70
     8
 71
     3
 72
     8
 73
     4
 74
     0
 42
0.00000001
 43
0.00000001
 40
0.0
 40
0.0
 40
0.0
 40
0.0
 40
1.0
 40
1.0
 40
1.0
 40
1.0
 10
141.2499665007603
 20
201.4955011497711
 30
0.0
 10
189.7468597615817
 20
200.9950246107405
 30
0.0
 10
238.2437530224031
 20
200.9950246107405
 30
0.0
 10
286.7406462832245
 20
201.4955011497712
 30
0.0
  0
SPLINE
  5
14C
330
1F
100
AcDbEntity
  8
0
  6
Continuous
 62
     8
370
    18
100
AcDbSpline
210
0.0
220
0.0
230
1.0
 70
     8
 71
     3
 72
    21
 73
    17
 74
     0
 42
0.00000001
 43
0.00000001
 40
0.0
 40
0.0
 40
0.0
 40
0.0
 40
0.0527050586770384
 40
0.1061279071732433
 40
0.1602714805703957
 40
0.2151385976737722
 40
0.2707319665646847
 40
0.3270541898389354
 40
0.3841077695543139
 40
0.4418951119051209
 40
0.5004185316339599
 40
0.6190410166258709
 40
0.7500271579267147
 40
0.8150588969040702
 40
0.8983884788292124
 40
0.9999999999999999
 40
0.9999999999999999
 40
0.9999999999999999
 40
0.9999999999999999
 10
286.7406462832245
 20
201.4955011497714
 30
0.0
 10
286.7408231127825
 20
201.4550441843274
 30
0.0
 10
286.7411791801389
 20
201.3735792703149
 30
0.0
 10
286.7404323016911
 20
201.2516954760989
 30
0.0
 10
286.7387452633059
 20
201.1300962079271
 30
0.0
 10
286.7360117440531
 20
201.0097396065621
 30
0.0
 10
286.7322467712928
 20
200.8916023297195
 30
0.0
 10
286.7274325195019
 20
200.7767100046062
 30
0.0
 10
286.721560355324
 20
200.6661209077354
 30
0.0
 10
286.7146205942923
 20
200.5609111767717
 30
0.0
 10
286.7038901943643
 20
200.4288194665215
 30
0.0
 10
286.6872718006258
 20
200.278405249472
 30
0.0
 10
286.6675652116102
 20
200.1630857244485
 30
0.0
 10
286.6484438020801
 20
200.091191554437
 30
0.0
 10
286.6306326074218
 20
200.0457523666751
 30
0.0
 10
286.6169190962378
 20
200.0378617883126
 30
0.0
 10
286.6093845314024
 20
200.0335264963904
 30
0.0
  0
LINE
  5
14D
330
1F
100
AcDbEntity
  8
0
  6
Continuous
 62
     8
370
    18
100
AcDbLine
 10
286.7416529868
 20
206.7802282002
 30
0.0
 11
286.7406462832
 21
201.4955011498
 31
0.0
  0
LINE
  5
14E
330
1F
100
AcDbEntity
  8
0
  6
Continuous
 62
     8
370
    18
100
AcDbLine
 10
141.2489597972
 20
206.7802282002
 30
0.0
 11
141.2499665008
 21
201.4955011498
 31
0.0
  0
SPLINE
  5
14F
330
1F
100
AcDbEntity
  8
0
  6
Continuous
 62
     8
370
    18
100
AcDbSpline
210
0.0
220
0.0
230
1.0
 70
     8
 71
     3
 72
     9
 73
     5
 74
     0
 42
0.00000001
 43
0.00000001
 40
0.0
 40
0.0
 40
0.0
 40
0.0
 40
0.4999508500089274
 40
1.0
 40
1.0
 40
1.0
 40
1.0
 10
286.8632107984973
 20
199.6595198723795
 30
0.0
 10
286.8526394855428
 20
199.6750954626474
 30
0.0
 10
286.8314947811096
 20
199.7062497056448
 30
0.0
 10
286.6834261330197
 20
199.9244270838638
 30
0.0
 10
286.6093845314019
 20
200.0335264963895
 30
0.0
  0
SPLINE
  5
150
330
1F
100
AcDbEntity
  8
0
  6
Continuous
 62
     8
370
    18
100
AcDbSpline
210
0.0
220
0.0
230
1.0
 70
     8
 71
     3
 72
    10
 73
     6
 74
     0
 42
0.00000001
 43
0.00000001
 40
0.0
 40
0.0
 40
0.0
 40
0.0
 40
0.4999499202662688
 40
0.999919210482098
 40
0.9999999999999999
 40
0.9999999999999999
 40
0.9999999999999999
 40
0.9999999999999999
 10
141.3812282525868
 20
200.0335264963894
 30
0.0
 10
141.3117315381747
 20
199.9311236288933
 30
0.0
 10
141.1727354167851
 20
199.7263139264269
 30
0.0
 10
141.1062453496938
 20
199.628346750745
 30
0.0
 10
141.1273988050744
 20
199.6595151862111
 30
0.0
 10
141.127402222687
 20
199.6595202218724
 30
0.0
  0
SPLINE
  5
151
330
1F
100
AcDbEntity
  8
0
  6
Continuous
 62
     8
370
    18
100
AcDbSpline
210
0.0
220
0.0
230
1.0
 70
     8
 71
     3
 72
    25
 73
    21
 74
     0
 42
0.00000001
 43
0.00000001
 40
0.0
 40
0.0
 40
0.0
 40
0.0
 40
0.0555740769952394
 40
0.1111416178227194
 40
0.1667034389955598
 40
0.2222603572299373
 40
0.277813189416198
 40
0.3333627525898602
 40
0.3889098639026276
 40
0.4444553405933713
 40
0.4999999999590709
 40
0.5555446593257898
 40
0.6110901360195594
 40
0.6666372473373772
 40
0.7221868105181174
 40
0.7777396427134698
 40
0.8332965609589699
 40
0.888858382144941
 40
0.9444259229875819
 40
1.0
 40
1.0
 40
1.0
 40
1.0
 10
286.7406462832246
 20
201.4955011497713
 30
0.0
 10
286.7798764955356
 20
201.4945216453563
 30
0.0
 10
286.8583323062214
 20
201.4925627517278
 30
0.0
 10
286.9750397090371
 20
201.4900518238648
 30
0.0
 10
287.0899183272268
 20
201.487854046824
 30
0.0
 10
287.20210582998
 20
201.4860000819266
 30
0.0
 10
287.3107682848188
 20
201.4844817147074
 30
0.0
 10
287.4150958041268
 20
201.4833011459696
 30
0.0
 10
287.5143113842664
 20
201.4824577860201
 30
0.0
 10
287.6076759058716
 20
201.4819517930589
 30
0.0
 10
287.6944938627078
 20
201.481783123945
 30
0.0
 10
287.7741183232038
 20
201.481951793059
 30
0.0
 10
287.8459562981097
 20
201.4824577860201
 30
0.0
 10
287.9094710873211
 20
201.4833011459697
 30
0.0
 10
287.9641939278349
 20
201.4844817147074
 30
0.0
 10
288.0096988838376
 20
201.4860000819267
 30
0.0
 10
288.0457127303299
 20
201.4878540468239
 30
0.0
 10
288.0717186631842
 20
201.4900518238649
 30
0.0
 10
288.0884469073939
 20
201.4925627517279
 30
0.0
 10
288.091028623686
 20
201.4945216453564
 30
0.0
 10
288.0923195577466
 20
201.4955011497713
 30
0.0
  0
SPLINE
  5
152
330
1F
100
AcDbEntity
  8
0
  6
Continuous
 62
     8
370
    18
100
AcDbSpline
210
0.0
220
0.0
230
1.0
 70
     8
 71
     3
 72
    25
 73
    21
 74
     0
 42
0.00000001
 43
0.00000001
 40
0.0
 40
0.0
 40
0.0
 40
0.0
 40
0.0555740770111256
 40
0.1111416178526283
 40
0.1667034390376182
 40
0.2222603572822918
 40
0.2778131894769693
 40
0.3333627526571793
 40
0.3889098639746268
 40
0.4444553406681825
 40
0.5000000000348251
 40
0.5555446594006127
 40
0.6110901360915849
 40
0.6666372474047328
 40
0.7221868105789203
 40
0.7777396427658617
 40
0.8332965610010725
 40
0.8888583821748843
 40
0.9444259230034925
 40
1.0
 40
1.0
 40
1.0
 40
1.0
 10
139.8982932262428
 20
201.4955011497711
 30
0.0
 10
139.8995841603034
 20
201.4945216453566
 30
0.0
 10
139.9021658765953
 20
201.492562751729
 30
0.0
 10
139.9188941208041
 20
201.4900518238667
 30
0.0
 10
139.9449000536575
 20
201.4878540468268
 30
0.0
 10
139.9809139001482
 20
201.48600008193
 30
0.0
 10
140.0264188561495
 20
201.4844817147116
 30
0.0
 10
140.0811416966617
 20
201.4833011459742
 30
0.0
 10
140.1446564858715
 20
201.4824577860249
 30
0.0
 10
140.216494460776
 20
201.4819517930639
 30
0.0
 10
140.2961189212708
 20
201.4817831239501
 30
0.0
 10
140.3829368781059
 20
201.4819517930639
 30
0.0
 10
140.4763013997106
 20
201.482457786025
 30
0.0
 10
140.57551697985
 20
201.4833011459742
 30
0.0
 10
140.6798444991581
 20
201.4844817147114
 30
0.0
 10
140.7885069539977
 20
201.4860000819301
 30
0.0
 10
140.900694456752
 20
201.4878540468267
 30
0.0
 10
141.0155730749433
 20
201.4900518238667
 30
0.0
 10
141.132280477761
 20
201.4925627517287
 30
0.0
 10
141.2107362884483
 20
201.4945216453565
 30
0.0
 10
141.2499665007602
 20
201.495501149771
 30
0.0
  0
SPLINE
  5
153
330
1F
100
AcDbEntity
  8
0
  6
Continuous
 62
     8
370
    18
100
AcDbSpline
210
0.0
220
0.0
230
1.0
 70
     8
 71
     3
 72
    21
 73
    17
 74
     0
 42
0.00000001
 43
0.00000001
 40
0.0
 40
0.0
 40
0.0
 40
0.0
 40
0.0527050579358642
 40
0.1061279058763471
 40
0.1602714789030613
 40
0.2151385958223941
 40
0.2707319647143637
 40
0.3270541881749243
 40
0.3841077682623132
 40
0.4418951111702219
 40
0.5004185316408531
 40
0.6190410088378983
 40
0.7500271579309465
 40
0.8150588915857995
 40
0.8983884735132021
 40
1.0
 40
1.0
 40
1.0
 40
1.0
 10
139.8982932262407
 20
201.4955011497712
 30
0.0
 10
139.9003026161009
 20
201.455044184897
 30
0.0
 10
139.904348761695
 20
201.3735792718817
 30
0.0
 10
139.9231111097086
 20
201.2516954789095
 30
0.0
 10
139.95152010174
 20
201.1300962115085
 30
0.0
 10
139.9906979414759
 20
201.0097396104451
 30
0.0
 10
140.0405104354533
 20
200.8916023334608
 30
0.0
 10
140.1010519770044
 20
200.7767100078011
 30
0.0
 10
140.1722260339505
 20
200.6661209100492
 30
0.0
 10
140.2538647341139
 20
200.5609111779397
 30
0.0
 10
140.3766611372598
 20
200.4288194712601
 30
0.0
 10
140.5603850376888
 20
200.2784052528928
 30
0.0
 10
140.7739801886724
 20
200.1630857283945
 30
0.0
 10
140.9754210676312
 20
200.0911915569366
 30
0.0
 10
141.1620351355142
 20
200.0457523676029
 30
0.0
 10
141.3035024022248
 20
200.0378617887067
 30
0.0
 10
141.3812282525868
 20
200.0335264963892
 30
0.0
  0
SPLINE
  5
154
330
1F
100
AcDbEntity
  8
0
  6
Continuous
 62
     8
370
    18
100
AcDbSpline
210
0.0
220
0.0
230
1.0
 70
     8
 71
     3
 72
    26
 73
    22
 74
     0
 42
0.00000001
 43
0.00000001
 40
0.0
 40
0.0
 40
0.0
 40
0.0
 40
0.03125
 40
0.03125
 40
0.0625
 40
0.0625
 40
0.125
 40
0.125
 40
0.25
 40
0.25
 40
0.375
 40
0.375
 40
0.5
 40
0.5
 40
0.625
 40
0.625
 40
0.75
 40
0.75
 40
0.875
 40
0.875
 40
1.0
 40
1.0
 40
1.0
 40
1.0
 10
288.0923195577482
 20
201.4955011497713
 30
0.0
 10
288.0916833498071
 20
201.4712517746807
 30
0.0
 10
288.0904540636068
 20
201.4470465010017
 30
0.0
 10
288.0868275321914
 20
201.398775406204
 30
0.0
 10
288.0844302869764
 20
201.3747095850854
 30
0.0
 10
288.0755139090649
 20
201.3027981751765
 30
0.0
 10
288.0672701341017
 20
201.255238639833
 30
0.0
 10
288.0358586101909
 20
201.1143192444398
 30
0.0
 10
288.0060106622216
 20
201.022718595027
 30
0.0
 10
287.9296655424629
 20
200.847488507765
 30
0.0
 10
287.8824410467158
 20
200.7623586487777
 30
0.0
 10
287.7735327285711
 20
200.6041727666823
 30
0.0
 10
287.7121596363475
 20
200.5311202744975
 30
0.0
 10
287.575724950384
 20
200.3969657876413
 30
0.0
 10
287.4999985695883
 20
200.3356237678673
 30
0.0
 10
287.3407958451735
 20
200.2301696586467
 30
0.0
 10
287.2567393403062
 20
200.1853198197114
 30
0.0
 10
287.0795813543756
 20
200.1116127224857
 30
0.0
 10
286.9870841695205
 20
200.0832331444228
 30
0.0
 10
286.8006553208611
 20
200.044936402627
 30
0.0
 10
286.705844070391
 20
200.0346249285277
 30
0.0
 10
286.6093845314024
 20
200.0335264963896
 30
0.0
  0
SPLINE
  5
155
330
1F
100
AcDbEntity
  8
0
  6
Continuous
 62
     8
370
    18
100
AcDbSpline
210
0.0
220
0.0
230
1.0
 70
     8
 71
     3
 72
    10
 73
     6
 74
     0
 42
0.00000001
 43
0.00000001
 40
0.0
 40
0.0
 40
0.0
 40
0.0
 40
0.4999510413281872
 40
0.9999215213149135
 40
1.0
 40
1.0
 40
1.0
 40
1.0
 10
288.0923195577479
 20
201.4955011497713
 30
0.0
 10
288.1620725986402
 20
201.3927365785681
 30
0.0
 10
288.3015813925015
 20
201.1872034405594
 30
0.0
 10
288.3683168718035
 20
201.0888899908253
 30
0.0
 10
288.347085584259
 20
201.1201682366785
 30
0.0
 10
288.3470822521782
 20
201.120173145549
 30
0.0
  0
SPLINE
  5
156
330
1F
100
AcDbEntity
  8
0
  6
Continuous
 62
     8
370
    18
100
AcDbSpline
210
0.0
220
0.0
230
1.0
 70
     8
 71
     3
 72
     9
 73
     5
 74
     0
 42
0.00000001
 43
0.00000001
 40
0.0
 40
0.0
 40
0.0
 40
0.0
 40
0.4999510989238142
 40
1.0
 40
1.0
 40
1.0
 40
1.0
 10
139.6435305159265
 20
201.1201731221473
 30
0.0
 10
139.6541408171184
 20
201.1358037203567
 30
0.0
 10
139.6753634951255
 20
201.1670679744871
 30
0.0
 10
139.8239784709146
 20
201.3860162868043
 30
0.0
 10
139.8982932262414
 20
201.4955011497711
 30
0.0
  0
ELLIPSE
  5
157
330
1F
100
AcDbEntity
  8
0
  6
Continuous
 62
     8
370
    18
100
AcDbEllipse
 10
200.19971552
 20
182.3707876026
 30
0.0
 11
1.200007616901274
 21
0.004363186994709167
 31
0.0
210
0.0
220
0.0
230
1.0
 40
0.0036358238
 41
3.141611162625888
 42
4.712331336997057
  0
LINE
  5
158
330
1F
100
AcDbEntity
  8
0
  6
Continuous
 62
     8
370
    18
100
AcDbLine
 10
200.1996622112
 20
182.3664243348
 30
0.0
 11
200.1996622112
 21
182.8707876026
 31
0.0
  0
LINE
  5
159
330
1F
100
AcDbEntity
  8
0
  6
Continuous
 62
     8
370
    18
100
AcDbLine
 10
227.7909505728
 20
182.3664243348
 30
0.0
 11
200.1996622112
 21
182.3664243348
 31
0.0
  0
LINE
  5
15A
330
1F
100
AcDbEntity
  8
0
  6
Continuous
 62
     8
370
    18
100
AcDbLine
 10
227.7909505728
 20
182.3664243348
 30
0.0
 11
227.7909505728
 21
182.8707876026
 31
0.0
  0
ELLIPSE
  5
15B
330
1F
100
AcDbEntity
  8
0
  6
Continuous
 62
     8
370
    18
100
AcDbEllipse
 10
227.790897264
 20
182.3707876026
 30
0.0
 11
1.200007616901274
 21
-0.004363186994709167
 31
0.0
210
0.0
220
0.0
230
1.0
 40
0.0036358238
 41
4.712446623772299
 42
6.283166798151207
  0
LINE
  5
15C
330
1F
100
AcDbEntity
  8
0
  6
Continuous
 62
     8
370
    18
100
AcDbLine
 10
200.3986881056
 20
159.56031576
 30
0.0
 11
227.5919246784
 21
159.56031576
 31
0.0
  0
LINE
  5
15D
330
1F
100
AcDbEntity
  8
0
  6
Continuous
 62
     8
370
    18
100
AcDbLine
 10
200.1996622112
 20
182.3664243348
 30
0.0
 11
200.3986881056
 21
159.56031576
 31
0.0
  0
LINE
  5
15E
330
1F
100
AcDbEntity
  8
0
  6
Continuous
 62
     8
370
    18
100
AcDbLine
 10
227.5919246784
 20
159.56031576
 30
0.0
 11
227.7909505728
 21
182.3664243348
 31
0.0
  0
ARC
  5
15F
330
1F
100
AcDbEntity
  8
0
  6
Continuous
 62
     8
370
    18
100
AcDbCircle
 10
228.1919018322
 20
193.939941369
 30
0.0
 40
34.38486047089124
100
AcDbArc
 50
269.0002023313
 51
270.9997976687
  0
ARC
  5
160
330
1F
100
AcDbEntity
  8
0
  6
Continuous
 62
     8
370
    18
100
AcDbCircle
 10
199.7987109517
 20
193.939941369
 30
0.0
 40
34.38486047089487
100
AcDbArc
 50
269.0002023313
 51
270.9997976687
  0
LINE
  5
161
330
1F
100
AcDbEntity
  8
0
  6
Continuous
 62
     8
370
    18
100
AcDbLine
 10
227.5919246784
 20
159.56031576
 30
0.0
 11
227.5919246784
 21
158.3707876026
 31
0.0
  0
LINE
  5
162
330
1F
100
AcDbEntity
  8
0
  6
Continuous
 62
     8
370
    18
100
AcDbLine
 10
200.3986881056
 20
159.56031576
 30
0.0
 11
200.3986881056
 21
158.3707876026
 31
0.0
  0
LINE
  5
163
330
1F
100
AcDbEntity
  8
0
  6
Continuous
 62
     8
370
    18
100
AcDbLine
 10
199.995306392
 20
184.2802282002
 30
0.0
 11
227.995306392
 21
184.2802282002
 31
0.0
  0
ARC
  5
164
330
1F
100
AcDbEntity
  8
0
  6
Continuous
 62
     8
370
    18
100
AcDbCircle
 10
215.8829869208
 20
145.1541144731
 30
0.0
 40
2.111007572200192
100
AcDbArc
 50
341.9858283335
 51
3.4548958978
  0
SPLINE
  5
165
330
1F
100
AcDbEntity
  8
0
  6
Continuous
 62
     8
370
    18
100
AcDbSpline
210
0.0
220
0.0
230
1.0
 70
     8
 71
     3
 72
    12
 73
     8
 74
     0
 42
0.00000001
 43
0.00000001
 40
0.0
 40
0.0
 40
0.0
 40
0.0
 40
0.25
 40
0.25
 40
0.5
 40
0.5
 40
1.0
 40
1.0
 40
1.0
 40
1.0
 10
217.8905130163643
 20
144.5012806921011
 30
0.0
 10
217.2492012679537
 20
144.6443318999926
 30
0.0
 10
216.6014021666694
 20
144.7517907922404
 30
0.0
 10
215.2926889612767
 20
144.8953040461639
 30
0.0
 10
214.6344039769212
 20
144.930716516932
 30
0.0
 10
212.6764897780344
 20
144.929236210611
 30
0.0
 10
211.3825521818515
 20
144.7873449461447
 30
0.0
 10
210.100099767625
 20
144.5012806921011
 30
0.0
  0
ARC
  5
166
330
1F
100
AcDbEntity
  8
0
  6
Continuous
 62
     8
370
    18
100
AcDbCircle
 10
212.1076258632
 20
145.1541144731
 30
0.0
 40
2.111007572199747
100
AcDbArc
 50
176.5451041022
 51
198.0141716665
  0
SPLINE
  5
167
330
1F
100
AcDbEntity
  8
0
  6
Continuous
 62
     8
370
    18
100
AcDbSpline
210
0.0
220
0.0
230
1.0
 70
     8
 71
     3
 72
    12
 73
     8
 74
     0
 42
0.00000001
 43
0.00000001
 40
0.0
 40
0.0
 40
0.0
 40
0.0
 40
0.25
 40
0.25
 40
0.5
 40
0.5
 40
1.0
 40
1.0
 40
1.0
 40
1.0
 10
210.100099767625
 20
135.0591757083365
 30
0.0
 10
210.7414115160356
 20
134.9161245004452
 30
0.0
 10
211.3892106173199
 20
134.808665608197
 30
0.0
 10
212.6979238227126
 20
134.6651523542737
 30
0.0
 10
213.3562088070681
 20
134.6297398835056
 30
0.0
 10
215.3141230059549
 20
134.6312201898265
 30
0.0
 10
216.6080606021378
 20
134.7731114542929
 30
0.0
 10
217.8905130163643
 20
135.0591757083365
 30
0.0
  0
ARC
  5
168
330
1F
100
AcDbEntity
  8
0
  6
Continuous
 62
     8
370
    18
100
AcDbCircle
 10
215.8829869208
 20
134.4063419273
 30
0.0
 40
2.111007572199828
100
AcDbArc
 50
356.5451041022
 51
18.0141716665
  0
ARC
  5
169
330
1F
100
AcDbEntity
  8
0
  6
Continuous
 62
     8
370
    18
100
AcDbCircle
 10
212.1076258632
 20
134.4063419273
 30
0.0
 40
2.111007572199207
100
AcDbArc
 50
161.9858283335
 51
183.4548958978
  0
SPLINE
  5
16A
330
1F
100
AcDbEntity
  8
0
  6
Continuous
 62
     8
370
    18
100
AcDbSpline
210
0.0
220
0.0
230
1.0
 70
     8
 71
     3
 72
    14
 73
    10
 74
     0
 42
0.00000001
 43
0.00000001
 40
0.0
 40
0.0
 40
0.0
 40
0.0
 40
0.25
 40
0.25
 40
0.5
 40
0.5
 40
0.75
 40
0.75
 40
1.0
 40
1.0
 40
1.0
 40
1.0
 10
217.8905130163643
 20
135.0591757083365
 30
0.0
 10
218.0020166306615
 20
135.0840477409307
 30
0.0
 10
218.1096116044996
 20
135.1242995040085
 30
0.0
 10
218.3080419290951
 20
135.2312458383101
 30
0.0
 10
218.4012182487003
 20
135.2994596236791
 30
0.0
 10
218.5630974327622
 20
135.457210274715
 30
0.0
 10
218.6333434700879
 20
135.5479402922707
 30
0.0
 10
218.745432640233
 20
135.7458513924127
 30
0.0
 10
218.7867363263467
 20
135.8511078270432
 30
0.0
 10
218.8127068939153
 20
135.9629257083365
 30
0.0
  0
SPLINE
  5
16B
330
1F
100
AcDbEntity
  8
0
  6
Continuous
 62
     8
370
    18
100
AcDbSpline
210
0.0
220
0.0
230
1.0
 70
     8
 71
     3
 72
    14
 73
    10
 74
     0
 42
0.00000001
 43
0.00000001
 40
0.0
 40
0.0
 40
0.0
 40
0.0
 40
0.25
 40
0.25
 40
0.5
 40
0.5
 40
0.75
 40
0.75
 40
1.0
 40
1.0
 40
1.0
 40
1.0
 10
209.177905890074
 20
135.9629257083366
 30
0.0
 10
209.2038780713794
 20
135.8511008789996
 30
0.0
 10
209.2461649843731
 20
135.7438312693429
 30
0.0
 10
209.3577385357834
 20
135.5473967319978
 30
0.0
 10
209.4286726797637
 20
135.4558641516718
 30
0.0
 10
209.5906619144465
 20
135.2984461729542
 30
0.0
 10
209.6832533432104
 20
135.2307228285055
 30
0.0
 10
209.8829514038093
 20
135.123405642692
 30
0.0
 10
209.9885883446305
 20
135.0840494827413
 30
0.0
 10
210.100099767625
 20
135.0591757083365
 30
0.0
  0
SPLINE
  5
16C
330
1F
100
AcDbEntity
  8
0
  6
Continuous
 62
     8
370
    18
100
AcDbSpline
210
0.0
220
0.0
230
1.0
 70
     8
 71
     3
 72
    12
 73
     8
 74
     0
 42
0.00000001
 43
0.00000001
 40
0.0
 40
0.0
 40
0.0
 40
0.0
 40
0.25
 40
0.25
 40
0.5
 40
0.5
 40
1.0
 40
1.0
 40
1.0
 40
1.0
 10
209.177905890074
 20
143.597530692101
 30
0.0
 10
209.031619613123
 20
142.9676860994581
 30
0.0
 10
208.9218125364529
 20
142.3314671704725
 30
0.0
 10
208.7753780292675
 20
141.0462090240708
 30
0.0
 10
208.7397253965685
 20
140.4057743216375
 30
0.0
 10
208.7411767845591
 20
138.4908095255778
 30
0.0
 10
208.8853496166077
 20
137.222544797202
 30
0.0
 10
209.177905890074
 20
135.9629257083365
 30
0.0
  0
SPLINE
  5
16D
330
1F
100
AcDbEntity
  8
0
  6
Continuous
 62
     8
370
    18
100
AcDbSpline
210
0.0
220
0.0
230
1.0
 70
     8
 71
     3
 72
    14
 73
    10
 74
     0
 42
0.00000001
 43
0.00000001
 40
0.0
 40
0.0
 40
0.0
 40
0.0
 40
0.25
 40
0.25
 40
0.5
 40
0.5
 40
0.75
 40
0.75
 40
1.0
 40
1.0
 40
1.0
 40
1.0
 10
210.100099767625
 20
144.5012806921011
 30
0.0
 10
209.9885961533278
 20
144.4764086595069
 30
0.0
 10
209.8810011794897
 20
144.4361568964291
 30
0.0
 10
209.6825708548942
 20
144.3292105621276
 30
0.0
 10
209.589394535289
 20
144.2609967767585
 30
0.0
 10
209.4275153512271
 20
144.1032461257226
 30
0.0
 10
209.3572693139014
 20
144.0125161081668
 30
0.0
 10
209.2451801437563
 20
143.8146050080248
 30
0.0
 10
209.2038764576425
 20
143.7093485733943
 30
0.0
 10
209.177905890074
 20
143.597530692101
 30
0.0
  0
SPLINE
  5
16E
330
1F
100
AcDbEntity
  8
0
  6
Continuous
 62
     8
370
    18
100
AcDbSpline
210
0.0
220
0.0
230
1.0
 70
     8
 71
     3
 72
    14
 73
    10
 74
     0
 42
0.00000001
 43
0.00000001
 40
0.0
 40
0.0
 40
0.0
 40
0.0
 40
0.25
 40
0.25
 40
0.5
 40
0.5
 40
0.75
 40
0.75
 40
1.0
 40
1.0
 40
1.0
 40
1.0
 10
218.8127068939154
 20
143.597530692101
 30
0.0
 10
218.7867347126099
 20
143.7093555214381
 30
0.0
 10
218.7444477996163
 20
143.8166251310947
 30
0.0
 10
218.6328742482059
 20
144.0130596684399
 30
0.0
 10
218.5619401042256
 20
144.1045922487658
 30
0.0
 10
218.3999508695427
 20
144.2620102274834
 30
0.0
 10
218.3073594407789
 20
144.329733571932
 30
0.0
 10
218.10766138018
 20
144.4370507577454
 30
0.0
 10
218.0020244393588
 20
144.4764069176963
 30
0.0
 10
217.8905130163643
 20
144.5012806921011
 30
0.0
  0
SPLINE
  5
16F
330
1F
100
AcDbEntity
  8
0
  6
Continuous
 62
     8
370
    18
100
AcDbSpline
210
0.0
220
0.0
230
1.0
 70
     8
 71
     3
 72
    12
 73
     8
 74
     0
 42
0.00000001
 43
0.00000001
 40
0.0
 40
0.0
 40
0.0
 40
0.0
 40
0.25
 40
0.25
 40
0.5
 40
0.5
 40
1.0
 40
1.0
 40
1.0
 40
1.0
 10
218.8127068939153
 20
135.9629257083366
 30
0.0
 10
218.9589931708663
 20
136.5927703009795
 30
0.0
 10
219.0688002475364
 20
137.228989229965
 30
0.0
 10
219.2152347547218
 20
138.5142473763669
 30
0.0
 10
219.2508873874208
 20
139.1546820788001
 30
0.0
 10
219.2494359994302
 20
141.0696468748597
 30
0.0
 10
219.1052631673815
 20
142.3379116032354
 30
0.0
 10
218.8127068939153
 20
143.597530692101
 30
0.0
  0
ARC
  5
170
330
1F
100
AcDbEntity
  8
0
  6
Continuous
 62
     8
370
    18
100
AcDbCircle
 10
210.4144117301
 20
149.7641990666
 30
0.0
 40
6.289415357052329
100
AcDbArc
 50
252.223324645
 51
258.6617306815
  0
ARC
  5
171
330
1F
100
AcDbEntity
  8
0
  6
Continuous
 62
     8
370
    18
100
AcDbCircle
 10
210.4144117301
 20
129.7962573338
 30
0.0
 40
6.289415357093831
100
AcDbArc
 50
101.3382693185
 51
107.7766753549
  0
ARC
  5
172
330
1F
100
AcDbEntity
  8
0
  6
Continuous
 62
     8
370
    18
100
AcDbCircle
 10
217.5762010539
 20
149.7641990666
 30
0.0
 40
6.28941535703991
100
AcDbArc
 50
281.3382693184
 51
287.776675355
  0
ARC
  5
173
330
1F
100
AcDbEntity
  8
0
  6
Continuous
 62
     8
370
    18
100
AcDbCircle
 10
217.5762010539
 20
129.7962573338
 30
0.0
 40
6.289415357053943
100
AcDbArc
 50
72.223324645
 51
78.6617306815
  0
ELLIPSE
  5
174
330
1F
100
AcDbEntity
  8
0
  6
Continuous
 62
     8
370
    18
100
AcDbEllipse
 10
237.7996241318
 20
173.2802282002
 30
0.0
 11
1.200007616901274
 21
-0.004363186994709167
 31
0.0
210
0.0
220
0.0
230
1.0
 40
0.0036358238
 41
4.712446623772299
 42
6.283166798151207
  0
LINE
  5
175
330
1F
100
AcDbEntity
  8
0
  6
Continuous
 62
     8
370
    18
100
AcDbLine
 10
237.7996774406
 20
173.7802282002
 30
0.0
 11
237.7996774406
 21
173.2758649325
 31
0.0
  0
LINE
  5
176
330
1F
100
AcDbEntity
  8
0
  6
Continuous
 62
     8
370
    18
100
AcDbLine
 10
237.7996774406
 20
173.2758649325
 30
0.0
 11
228.9115727704
 21
173.2758649325
 31
0.0
  0
LINE
  5
177
330
1F
100
AcDbEntity
  8
0
  6
Continuous
 62
     8
370
    18
100
AcDbLine
 10
199.0790400136
 20
173.2758649325
 30
0.0
 11
190.1909353434
 21
173.2758649325
 31
0.0
  0
LINE
  5
178
330
1F
100
AcDbEntity
  8
0
  6
Continuous
 62
     8
370
    18
100
AcDbLine
 10
190.1909353434
 20
173.7802282002
 30
0.0
 11
190.1909353434
 21
173.2758649325
 31
0.0
  0
ELLIPSE
  5
179
330
1F
100
AcDbEntity
  8
0
  6
Continuous
 62
     8
370
    18
100
AcDbEllipse
 10
190.1909886522
 20
173.2802282002
 30
0.0
 11
1.200007616901274
 21
0.004363186994709167
 31
0.0
210
0.0
220
0.0
230
1.0
 40
0.0036358238
 41
3.141611162625888
 42
4.712331336997105
  0
ARC
  5
17A
330
1F
100
AcDbEntity
  8
0
  6
Continuous
 62
     8
370
    18
100
AcDbCircle
 10
237.9606398358
 20
157.349381967
 30
0.0
 40
34.38486047121082
100
AcDbArc
 50
269.0002023313
 51
270.9997976687
  0
LINE
  5
17B
330
1F
100
AcDbEntity
  8
0
  6
Continuous
 62
     8
370
    18
100
AcDbLine
 10
237.360662682
 20
122.9697563576
 30
0.0
 11
237.7996774406
 21
173.2758649325
 31
0.0
  0
LINE
  5
17C
330
1F
100
AcDbEntity
  8
0
  6
Continuous
 62
     8
370
    18
100
AcDbLine
 10
190.629950102
 20
122.9697563576
 30
0.0
 11
237.360662682
 21
122.9697563576
 31
0.0
  0
LINE
  5
17D
330
1F
100
AcDbEntity
  8
0
  6
Continuous
 62
     8
370
    18
100
AcDbLine
 10
190.1909353434
 20
173.2758649325
 30
0.0
 11
190.629950102
 21
122.9697563576
 31
0.0
  0
ARC
  5
17E
330
1F
100
AcDbEntity
  8
0
  6
Continuous
 62
     8
370
    18
100
AcDbCircle
 10
190.0299729482
 20
157.3493819668
 30
0.0
 40
34.38486047099389
100
AcDbArc
 50
269.0002023313
 51
270.9997976687
  0
LINE
  5
17F
330
1F
100
AcDbEntity
  8
0
  6
Continuous
 62
     8
370
    18
100
AcDbLine
 10
190.629950102
 20
121.7802282002
 30
0.0
 11
190.629950102
 21
122.9697563576
 31
0.0
  0
LINE
  5
180
330
1F
100
AcDbEntity
  8
0
  6
Continuous
 62
     8
370
    18
100
AcDbLine
 10
237.360662682
 20
121.7802282002
 30
0.0
 11
237.360662682
 21
122.9697563576
 31
0.0
  0
LINE
  5
181
330
1F
100
AcDbEntity
  8
0
  6
Continuous
 62
     8
370
    18
100
AcDbLine
 10
193.7123061111
 20
175.7802282002
 30
0.0
 11
199.0571847665
 21
175.7802282002
 31
0.0
  0
LINE
  5
182
330
1F
100
AcDbEntity
  8
0
  6
Continuous
 62
     8
370
    18
100
AcDbLine
 10
228.9334280175
 20
175.7802282002
 30
0.0
 11
236.8953063903
 21
175.7802282002
 31
0.0
  0
LINE
  5
183
330
1F
100
AcDbEntity
  8
0
  6
Continuous
 62
     8
370
    18
100
AcDbLine
 10
191.0953063903
 20
175.7802282002
 30
0.0
 11
193.7123061111
 21
175.7802282002
 31
0.0
  0
ELLIPSE
  5
184
330
1F
100
AcDbEntity
  8
0
  6
Continuous
 62
     8
370
    18
100
AcDbEllipse
 10
213.995306392
 20
-796.4773905873
 30
0.0
 11
20.89821689005328
 21
1314.804609450872
 31
0.0
210
0.0
220
0.0
230
1.0
 40
0.0077498625
 41
5.542537003447364
 42
5.543664706332873
  0
ELLIPSE
  5
185
330
1F
100
AcDbEntity
  8
0
  6
Continuous
 62
     8
370
    18
100
AcDbEllipse
 10
213.8733039834
 20
-796.4826263093
 30
0.0
 11
-9.336979938327888
 21
1314.804610996835
 31
0.0
210
0.0
220
0.0
230
1.0
 40
0.0159451914
 41
0.7395246398537036
 42
0.7406523500283452
  0
ELLIPSE
  5
186
330
1F
100
AcDbEntity
  8
0
  6
Continuous
 62
     8
370
    18
100
AcDbEllipse
 10
213.995306392
 20
-796.4773905873
 30
0.0
 11
-9.459095262336037
 21
1314.804610547285
 31
0.0
210
0.0
220
0.0
230
1.0
 40
0.0161536038
 41
0.7395275675337669
 42
0.7406552704192546
  0
ARC
  5
187
330
1F
100
AcDbEntity
  8
0
  6
Continuous
 62
     7
370
    25
100
AcDbCircle
 10
-6635.1749655719
 20
373.5733041576
 30
0.0
 40
7000.0
100
AcDbArc
 50
359.925433723
 51
0.0
  0
ARC
  5
188
330
1F
100
AcDbEntity
  8
0
  6
Continuous
 62
     7
370
    25
100
AcDbCircle
 10
-6635.1749655719
 20
373.5733041576
 30
0.0
 40
7000.0
100
AcDbArc
 50
359.4035566638
 51
359.5512534686
  0
ARC
  5
189
330
1F
100
AcDbEntity
  8
0
  6
Continuous
 62
     7
370
    25
100
AcDbCircle
 10
-6635.1749655719
 20
373.5733041576
 30
0.0
 40
7000.0
100
AcDbArc
 50
0.3682788147
 51
0.5964431916
  0
ARC
  5
18A
330
1F
100
AcDbEntity
  8
0
  6
Continuous
 62
     7
370
    25
100
AcDbCircle
 10
-6635.1749655719
 20
373.5733041576
 30
0.0
 40
7000.0
100
AcDbArc
 50
0.0
 51
0.1395266185
  0
ARC
  5
18B
330
1F
100
AcDbEntity
  8
0
  6
Continuous
 62
     7
370
    25
100
AcDbCircle
 10
362.9458387872
 20
446.4256040267
 30
0.0
 40
1.499999999999951
100
AcDbArc
 50
0.6103433352
 51
88.4893102131
  0
ARC
  5
18C
330
1F
100
AcDbEntity
  8
0
  6
Continuous
 62
     7
370
    25
100
AcDbCircle
 10
362.9458387872
 20
300.7210042884
 30
0.0
 40
1.500000000000014
100
AcDbArc
 50
271.5241076745
 51
359.4062135039
  0
LINE
  5
18D
330
1F
100
AcDbEntity
  8
0
  6
Continuous
 62
     7
370
    25
100
AcDbLine
 10
362.9850898837
 20
447.9250903893
 30
0.0
 11
357.3250344281
 21
448.0733041575
 31
0.0
  0
LINE
  5
18E
330
1F
100
AcDbEntity
  8
0
  6
Continuous
 62
     7
370
    25
100
AcDbLine
 10
357.3250344281
 20
299.0733041575
 30
0.0
 11
362.9850898837
 21
299.2215179258
 31
0.0
  0
LINE
  5
18F
330
1F
100
AcDbEntity
  8
0
  6
Continuous
 62
     7
370
    25
100
AcDbLine
 10
388.3250344281
 20
364.4733041575
 30
0.0
 11
364.8190740676
 21
364.4733041575
 31
0.0
  0
LINE
  5
190
330
1F
100
AcDbEntity
  8
0
  6
Continuous
 62
     7
370
    25
100
AcDbLine
 10
364.6100912593
 20
318.6733041575
 30
0.0
 11
388.3250344281
 21
318.6733041575
 31
0.0
  0
ARC
  5
191
330
1F
100
AcDbEntity
  8
0
  6
Continuous
 62
     7
370
    25
100
AcDbCircle
 10
388.3250344281
 20
319.6733041575
 30
0.0
 40
1.0
100
AcDbArc
 50
270.0
 51
0.0
  0
ARC
  5
192
330
1F
100
AcDbEntity
  8
0
  6
Continuous
 62
     7
370
    25
100
AcDbCircle
 10
388.3250344281
 20
363.4733041575
 30
0.0
 40
1.0
100
AcDbArc
 50
0.0
 51
90.0
  0
LINE
  5
193
330
1F
100
AcDbEntity
  8
0
  6
Continuous
 62
     7
370
    25
100
AcDbLine
 10
379.8250344281
 20
418.5733041575
 30
0.0
 11
364.6804190733
 21
418.5733041575
 31
0.0
  0
LINE
  5
194
330
1F
100
AcDbEntity
  8
0
  6
Continuous
 62
     7
370
    25
100
AcDbLine
 10
364.8041858428
 20
390.5733041575
 30
0.0
 11
379.8250344281
 21
390.5733041575
 31
0.0
  0
ARC
  5
195
330
1F
100
AcDbEntity
  8
0
  6
Continuous
 62
     7
370
    25
100
AcDbCircle
 10
379.8250344281
 20
391.0733041575
 30
0.0
 40
0.5
100
AcDbArc
 50
270.0
 51
0.0
  0
ARC
  5
196
330
1F
100
AcDbEntity
  8
0
  6
Continuous
 62
     7
370
    25
100
AcDbCircle
 10
379.8250344281
 20
418.0733041575
 30
0.0
 40
0.5
100
AcDbArc
 50
0.0
 51
90.0
  0
LINE
  5
197
330
1F
100
AcDbEntity
  8
0
  6
Continuous
 62
     7
370
    25
100
AcDbLine
 10
381.2344750257
 20
416.5733041575
 30
0.0
 11
380.3250344281
 21
416.5733041575
 31
0.0
  0
LINE
  5
198
330
1F
100
AcDbEntity
  8
0
  6
Continuous
 62
     7
370
    25
100
AcDbLine
 10
380.3250344281
 20
392.5733041575
 30
0.0
 11
381.2344750257
 21
392.5733041575
 31
0.0
  0
LINE
  5
199
330
1F
100
AcDbEntity
  8
0
  6
Continuous
 62
     7
370
    25
100
AcDbLine
 10
429.4253809224
 20
372.5733041575
 30
0.0
 11
419.2246879338
 21
372.5733041575
 31
0.0
  0
LINE
  5
19A
330
1F
100
AcDbEntity
  8
0
  6
Continuous
 62
     7
370
    25
100
AcDbLine
 10
390.3250347818
 20
364.1802560254
 30
0.0
 11
389.32504603
 21
364.1835405468
 31
0.0
  0
LINE
  5
19B
330
1F
100
AcDbEntity
  8
0
  6
Continuous
 62
     7
370
    25
100
AcDbLine
 10
390.3250344281
 20
364.4558490942
 30
0.0
 11
389.3250344281
 21
364.4733041592
 31
0.0
  0
SPLINE
  5
19C
330
1F
100
AcDbEntity
  8
0
  6
Continuous
 62
     7
370
    25
100
AcDbSpline
210
0.0
220
0.0
230
1.0
 70
     8
 71
     3
 72
    13
 73
     9
 74
     0
 42
0.00000001
 43
0.00000001
 40
0.0
 40
0.0
 40
0.0
 40
0.0
 40
0.1545292567524411
 40
0.3440067495896449
 40
0.5486972207869781
 40
0.7660144077267976
 40
0.9825426188462455
 40
1.0
 40
1.0
 40
1.0
 40
1.0
 10
419.2236803212572
 20
372.5703829197624
 30
0.0
 10
419.1548623415352
 20
372.5695831562048
 30
0.0
 10
419.0016625526085
 20
372.5678027550842
 30
0.0
 10
418.7701322917551
 20
372.4775760219005
 30
0.0
 10
418.5545954309561
 20
372.3040876134037
 30
0.0
 10
418.4142144316901
 20
372.0556720641198
 30
0.0
 10
418.3616384007536
 20
371.8522430762496
 30
0.0
 10
418.3784291398975
 20
371.7498874082387
 30
0.0
 10
418.3796818765736
 20
371.7422507760327
 30
0.0
  0
SPLINE
  5
19D
330
1F
100
AcDbEntity
  8
0
  6
Continuous
 62
     7
370
    25
100
AcDbSpline
210
0.0
220
0.0
230
1.0
 70
     8
 71
     3
 72
    14
 73
    10
 74
     0
 42
0.00000001
 43
0.00000001
 40
0.0
 40
0.0
 40
0.0
 40
0.0
 40
0.171763536915018
 40
0.3905507343691636
 40
0.5874403888320361
 40
0.7476253526587596
 40
0.883028186754098
 40
0.9958053654764454
 40
1.0
 40
1.0
 40
1.0
 40
1.0
 10
430.2657924074433
 20
371.7539899454139
 30
0.0
 10
430.2644021519354
 20
371.8303072341125
 30
0.0
 10
430.261241031017
 20
372.003835176548
 30
0.0
 10
430.1392024487434
 20
372.242745031752
 30
0.0
 10
429.9580282116116
 20
372.42426071839
 30
0.0
 10
429.7634310853647
 20
372.5275271172018
 30
0.0
 10
429.587739392312
 20
372.5682707605219
 30
0.0
 10
429.4753365434162
 20
372.5776071794529
 30
0.0
 10
429.4243656367954
 20
372.5707469284683
 30
0.0
 10
429.4225378090591
 20
372.5705009183842
 30
0.0
  0
LINE
  5
19E
330
1F
100
AcDbEntity
  8
0
  6
Continuous
 62
     7
370
    25
100
AcDbLine
 10
418.3750344281
 20
371.7501038401
 30
0.0
 11
418.3750344281
 21
366.8372423838
 31
0.0
  0
LINE
  5
19F
330
1F
100
AcDbEntity
  8
0
  6
Continuous
 62
     7
370
    25
100
AcDbLine
 10
430.2750344281
 20
366.7333926571
 30
0.0
 11
430.2750344281
 21
371.7501038401
 31
0.0
  0
LINE
  5
1A0
330
1F
100
AcDbEntity
  8
0
  6
Continuous
 62
     7
370
    25
100
AcDbLine
 10
389.3250344281
 20
318.3233041575
 30
0.0
 11
390.3250344281
 21
318.3233041575
 31
0.0
  0
LINE
  5
1A1
330
1F
100
AcDbEntity
  8
0
  6
Continuous
 62
     7
370
    25
100
AcDbLine
 10
357.3250344281
 20
300.8269575627
 30
0.0
 11
357.3250344281
 21
446.3196507524
 31
0.0
  0
SPLINE
  5
1A2
330
1F
100
AcDbEntity
  8
0
  6
Continuous
 62
     7
370
    25
100
AcDbSpline
210
0.0
220
0.0
230
1.0
 70
     8
 71
     3
 72
    21
 73
    17
 74
     0
 42
0.00000001
 43
0.00000001
 40
0.0
 40
0.0
 40
0.0
 40
0.0
 40
0.0705781808818859
 40
0.1432031462938723
 40
0.2137813228597159
 40
0.286406249798674
 40
0.3569848036206323
 40
0.4296101303861969
 40
0.5001888361580837
 40
0.5728143445305625
 40
0.6433927582511625
 40
0.7160179846257293
 40
0.7865957902847274
 40
0.8592203946402808
 40
0.9297975427249233
 40
1.0
 40
1.0
 40
1.0
 40
1.0
 10
364.7862199220769
 20
394.676555411684
 30
0.0
 10
364.783672461916
 20
395.251784995752
 30
0.0
 10
364.7785036646259
 20
396.4189259626991
 30
0.0
 10
364.7694359331052
 20
398.4664633159384
 30
0.0
 10
364.7596040461896
 20
400.6865477011211
 30
0.0
 10
364.7493509298941
 20
403.0017442100992
 30
0.0
 10
364.7388123957664
 20
405.3813856916529
 30
0.0
 10
364.7284683554912
 20
407.7171061971429
 30
0.0
 10
364.7184275413679
 20
409.9843538448532
 30
0.0
 10
364.7091545563519
 20
412.0782203276855
 30
0.0
 10
364.7007442397683
 20
413.9772913988147
 30
0.0
 10
364.6935893644893
 20
415.5928787837834
 30
0.0
 10
364.6877511030346
 20
416.9111704888417
 30
0.0
 10
364.6835466222621
 20
417.8605503968146
 30
0.0
 10
364.6808744324495
 20
418.4639357330155
 30
0.0
 10
364.6805707169427
 20
418.5325152318221
 30
0.0
 10
364.6804192633651
 20
418.5667137176227
 30
0.0
  0
SPLINE
  5
1A3
330
1F
100
AcDbEntity
  8
0
  6
Continuous
 62
     7
370
    25
100
AcDbSpline
210
0.0
220
0.0
230
1.0
 70
     8
 71
     3
 72
    12
 73
     8
 74
     0
 42
0.00000001
 43
0.00000001
 40
0.0
 40
0.0
 40
0.0
 40
0.0
 40
0.0849235412445584
 40
0.3027196372389658
 40
0.5143771973834201
 40
0.7321727928173177
 40
1.0
 40
1.0
 40
1.0
 40
1.0
 10
364.8041857872146
 20
390.6197644434102
 30
0.0
 10
364.8042367348821
 20
390.6082601653787
 30
0.0
 10
364.8044183436469
 20
390.5672518557705
 30
0.0
 10
364.8028949511963
 20
390.9112426917196
 30
0.0
 10
364.7996324063392
 20
391.6479438814743
 30
0.0
 10
364.7943525663224
 20
392.8401613247974
 30
0.0
 10
364.7891108151248
 20
394.023776470572
 30
0.0
 10
364.7862199220769
 20
394.676555411684
 30
0.0
  0
SPLINE
  5
1A4
330
1F
100
AcDbEntity
  8
0
  6
Continuous
 62
     7
370
    25
100
AcDbSpline
210
0.0
220
0.0
230
1.0
 70
     8
 71
     3
 72
    21
 73
    17
 74
     0
 42
0.00000001
 43
0.00000001
 40
0.0
 40
0.0
 40
0.0
 40
0.0
 40
0.0705651905817236
 40
0.1431767897980641
 40
0.2137419757796737
 40
0.2863535339841879
 40
0.3569191221713675
 40
0.4295311066185422
 40
0.5000968572625134
 40
0.5727090357803142
 40
0.6432744758159976
 40
0.7158863544658254
 40
0.7864511469645158
 40
0.8590623632369705
 40
0.929626455067329
 40
1.0
 40
1.0
 40
1.0
 40
1.0
 10
364.6403958510033
 20
325.3780543467363
 30
0.0
 10
364.6446955858129
 20
326.3185969846843
 30
0.0
 10
364.6534197488452
 20
328.2269582384337
 30
0.0
 10
364.6687268534629
 20
331.5753089120492
 30
0.0
 10
364.6853252458594
 20
335.2061302544125
 30
0.0
 10
364.7026360936015
 20
338.9928072020029
 30
0.0
 10
364.7204300667626
 20
342.8851757012341
 30
0.0
 10
364.7378968565633
 20
346.705983718729
 30
0.0
 10
364.7548528602409
 20
350.4150680006916
 30
0.0
 10
364.7705135103154
 20
353.8408049204345
 30
0.0
 10
364.7847186419156
 20
356.9481566698998
 30
0.0
 10
364.7968049073237
 20
359.5920145622155
 30
0.0
 10
364.8066688525586
 20
361.749745656862
 30
0.0
 10
364.8137751605268
 20
363.3042474328921
 30
0.0
 10
364.8182971602405
 20
364.2934337428834
 30
0.0
 10
364.8188151358197
 20
364.4067408184592
 30
0.0
 10
364.8190737734593
 20
364.4633177609805
 30
0.0
  0
SPLINE
  5
1A5
330
1F
100
AcDbEntity
  8
0
  6
Continuous
 62
     7
370
    25
100
AcDbSpline
210
0.0
220
0.0
230
1.0
 70
     8
 71
     3
 72
    13
 73
     9
 74
     0
 42
0.00000001
 43
0.00000001
 40
0.0
 40
0.0
 40
0.0
 40
0.0
 40
0.0843910974715449
 40
0.30222561759028
 40
0.5139204881093248
 40
0.7317544728381012
 40
0.8651327509789356
 40
1.0
 40
1.0
 40
1.0
 40
1.0
 10
364.6100913587192
 20
318.7491358640186
 30
0.0
 10
364.610004921723
 20
318.7302283519305
 30
0.0
 10
364.6096953692308
 20
318.6625158243161
 30
0.0
 10
364.6122714293212
 20
319.2260116522737
 30
0.0
 10
364.6177274856095
 20
320.4194879872828
 30
0.0
 10
364.6250655029859
 20
322.0246325528759
 30
0.0
 10
364.6328281243689
 20
323.722658364398
 30
0.0
 10
364.6378639578636
 20
324.8242175165259
 30
0.0
 10
364.6403958510033
 20
325.3780543467363
 30
0.0
  0
LINE
  5
1A6
330
1F
100
AcDbEntity
  8
0
  6
Continuous
 62
     7
370
    25
100
AcDbLine
 10
357.3250344281
 20
299.3379092055
 30
0.0
 11
362.6097614785
 21
299.4762909918
 31
0.0
  0
LINE
  5
1A7
330
1F
100
AcDbEntity
  8
0
  6
Continuous
 62
     7
370
    25
100
AcDbLine
 10
357.3250344281
 20
299.3379092055
 30
0.0
 11
357.3250344281
 21
300.8269575627
 31
0.0
  0
LINE
  5
1A8
330
1F
100
AcDbEntity
  8
0
  6
Continuous
 62
     7
370
    25
100
AcDbLine
 10
357.3250344281
 20
447.8086991096
 30
0.0
 11
362.6097614785
 21
447.6703173233
 31
0.0
  0
LINE
  5
1A9
330
1F
100
AcDbEntity
  8
0
  6
Continuous
 62
     7
370
    25
100
AcDbLine
 10
357.3250344281
 20
447.8086991096
 30
0.0
 11
357.3250344281
 21
446.3196507524
 31
0.0
  0
LINE
  5
1AA
330
1F
100
AcDbEntity
  8
0
  6
Continuous
 62
     7
370
    25
100
AcDbLine
 10
357.3250344281
 20
447.8086991096
 30
0.0
 11
357.3250344281
 21
448.0733041576
 31
0.0
  0
LINE
  5
1AB
330
1F
100
AcDbEntity
  8
0
  6
Continuous
 62
     7
370
    25
100
AcDbLine
 10
357.3250344281
 20
299.3379092055
 30
0.0
 11
357.3250344281
 21
299.0733041575
 31
0.0
  0
LINE
  5
1AC
330
1F
100
AcDbEntity
  8
0
  6
Continuous
 62
     7
370
    25
100
AcDbLine
 10
390.3250344281
 20
317.268933109
 30
0.0
 11
390.3250344281
 21
365.8776752061
 31
0.0
  0
SPLINE
  5
1AD
330
1F
100
AcDbEntity
  8
0
  6
Continuous
 62
     7
370
    25
100
AcDbSpline
210
0.0
220
0.0
230
1.0
 70
    24
 71
     3
 72
    12
 73
     8
 74
     0
 42
0.00000001
 43
0.00000001
 40
0.0
 40
0.0
 40
0.0
 40
0.0
 40
0.2490749208465147
 40
0.499916936052037
 40
0.6666007504179182
 40
0.8330412199571897
 40
1.0
 40
1.0
 40
1.0
 40
1.0
 10
390.3250344280999
 20
366.1455474358283
 30
0.0
 10
390.3250344280999
 20
366.1242116115175
 30
0.0
 10
390.3250344280999
 20
366.0813885931206
 30
0.0
 10
390.3250344280999
 20
366.0219190129563
 30
0.0
 10
390.3250344281
 20
365.9691350255184
 30
0.0
 10
390.3250344280999
 20
365.9235148726195
 30
0.0
 10
390.3250344280999
 20
365.8929709230637
 30
0.0
 10
390.3250344280999
 20
365.877675206106
 30
0.0
  0
ARC
  5
1AE
330
1F
100
AcDbEntity
  8
0
  6
Continuous
 62
     7
370
    25
100
AcDbCircle
 10
390.8250344281
 20
366.5776485523
 30
0.0
 40
0.5000000000000311
100
AcDbArc
 50
89.5
 51
180.0
  0
SPLINE
  5
1AF
330
1F
100
AcDbEntity
  8
0
  6
Continuous
 62
     7
370
    25
100
AcDbSpline
210
0.0
220
0.0
230
1.0
 70
    24
 71
     3
 72
    12
 73
     8
 74
     0
 42
0.00000001
 43
0.00000001
 40
0.0
 40
0.0
 40
0.0
 40
0.0
 40
0.2491022918975286
 40
0.4999679642928344
 40
0.6666461908158309
 40
0.8330649339652529
 40
1.0
 40
1.0
 40
1.0
 40
1.0
 10
390.3250344280999
 20
317.2689331089908
 30
0.0
 10
390.3250344280999
 20
317.2461079941303
 30
0.0
 10
390.3250344280999
 20
317.2002961867616
 30
0.0
 10
390.3250344280999
 20
317.1397839929585
 30
0.0
 10
390.3250344281
 20
317.087676999405
 30
0.0
 10
390.3250344280998
 20
317.0437357451171
 30
0.0
 10
390.3250344280999
 20
317.0153005144533
 30
0.0
 10
390.3250344280999
 20
317.0010608778337
 30
0.0
  0
ARC
  5
1B0
330
1F
100
AcDbEntity
  8
0
  6
Continuous
 62
     7
370
    25
100
AcDbCircle
 10
390.8250344281
 20
316.5689597628
 30
0.0
 40
0.5
100
AcDbArc
 50
180.0
 51
270.5
  0
LINE
  5
1B1
330
1F
100
AcDbEntity
  8
0
  6
Continuous
 62
     7
370
    25
100
AcDbLine
 10
390.8293976958
 20
367.0776295138
 30
0.0
 11
441.1355062707
 21
366.6386147552
 31
0.0
  0
LINE
  5
1B2
330
1F
100
AcDbEntity
  8
0
  6
Continuous
 62
     7
370
    25
100
AcDbLine
 10
441.1355062707
 20
316.5079935599
 30
0.0
 11
390.8293976958
 21
316.0689788013
 31
0.0
  0
ARC
  5
1B3
330
1F
100
AcDbEntity
  8
0
  6
Continuous
 62
     7
370
    25
100
AcDbCircle
 10
441.1250344281
 20
365.4386604475
 30
0.0
 40
1.200000000000045
100
AcDbArc
 50
0.0
 51
89.5
  0
LINE
  5
1B4
330
1F
100
AcDbEntity
  8
0
  6
Continuous
 62
     7
370
    25
100
AcDbLine
 10
442.3250344281
 20
365.4386604475
 30
0.0
 11
442.3250344281
 21
317.7079478676
 31
0.0
  0
ARC
  5
1B5
330
1F
100
AcDbEntity
  8
0
  6
Continuous
 62
     7
370
    25
100
AcDbCircle
 10
441.1250344281
 20
317.7079478676
 30
0.0
 40
1.199999999999989
100
AcDbArc
 50
270.5
 51
0.0
  0
LINE
  5
1B6
330
1F
100
AcDbEntity
  8
0
  6
Continuous
 62
     7
370
    25
100
AcDbLine
 10
389.3250344281
 20
336.8896834392
 30
0.0
 11
389.3250344281
 21
350.8894255457
 31
0.0
  0
SPLINE
  5
1B7
330
1F
100
AcDbEntity
  8
0
  6
Continuous
 62
     7
370
    25
100
AcDbSpline
210
0.0
220
0.0
230
1.0
 70
    24
 71
     3
 72
     8
 73
     4
 74
     0
 42
0.00000001
 43
0.00000001
 40
0.0
 40
0.0
 40
0.0
 40
0.0
 40
1.0
 40
1.0
 40
1.0
 40
1.0
 10
389.3250344281
 20
336.7073163127292
 30
0.0
 10
389.3250344281
 20
336.7513162617907
 30
0.0
 10
389.3250344281
 20
336.8163612467721
 30
0.0
 10
389.3250344281
 20
336.8896834391849
 30
0.0
  0
LINE
  5
1B8
330
1F
100
AcDbEntity
  8
0
  6
Continuous
 62
     7
370
    25
100
AcDbLine
 10
389.3250344281
 20
336.4656079575
 30
0.0
 11
390.3250344281
 21
336.4758811234
 31
0.0
  0
LINE
  5
1B9
330
1F
100
AcDbEntity
  8
0
  6
Continuous
 62
     7
370
    25
100
AcDbLine
 10
389.3250344281
 20
336.4656079575
 30
0.0
 11
389.3250344281
 21
336.7073163127
 31
0.0
  0
LINE
  5
1BA
330
1F
100
AcDbEntity
  8
0
  6
Continuous
 62
     7
370
    25
100
AcDbLine
 10
390.3250344281
 20
318.7734176685
 30
0.0
 11
389.3250344281
 21
318.7565827849
 31
0.0
  0
LINE
  5
1BB
330
1F
100
AcDbEntity
  8
0
  6
Continuous
 62
     7
370
    25
100
AcDbLine
 10
389.3250344281
 20
336.4656079575
 30
0.0
 11
389.3250344281
 21
318.7565827849
 31
0.0
  0
SPLINE
  5
1BC
330
1F
100
AcDbEntity
  8
0
  6
Continuous
 62
     7
370
    25
100
AcDbSpline
210
0.0
220
0.0
230
1.0
 70
    24
 71
     3
 72
     8
 73
     4
 74
     0
 42
0.00000001
 43
0.00000001
 40
0.0
 40
0.0
 40
0.0
 40
0.0
 40
1.0
 40
1.0
 40
1.0
 40
1.0
 10
389.3250344281
 20
350.8894255456784
 30
0.0
 10
389.3250344281
 20
350.9580102465832
 30
0.0
 10
389.3250344281
 20
351.0129164915813
 30
0.0
 10
389.3250344281
 20
351.0433636517156
 30
0.0
  0
LINE
  5
1BD
330
1F
100
AcDbEntity
  8
0
  6
Continuous
 62
     7
370
    25
100
AcDbLine
 10
390.3250344281
 20
351.1973383552
 30
0.0
 11
389.3250344281
 21
351.2106214123
 31
0.0
  0
LINE
  5
1BE
330
1F
100
AcDbEntity
  8
0
  6
Continuous
 62
     7
370
    25
100
AcDbLine
 10
389.3250344281
 20
351.0433636517
 30
0.0
 11
389.3250344281
 21
351.2106214123
 31
0.0
  0
LINE
  5
1BF
330
1F
100
AcDbEntity
  8
0
  6
Continuous
 62
     7
370
    25
100
AcDbLine
 10
389.3250344281
 20
363.4477329187
 30
0.0
 11
389.3250344281
 21
351.2106214123
 31
0.0
  0
LINE
  5
1C0
330
1F
100
AcDbEntity
  8
0
  6
Continuous
 62
     7
370
    25
100
AcDbLine
 10
381.2344750257
 20
418.3689483383
 30
0.0
 11
381.2344750257
 21
419.0689216845
 31
0.0
  0
ARC
  5
1C1
330
1F
100
AcDbEntity
  8
0
  6
Continuous
 62
     7
370
    25
100
AcDbCircle
 10
381.7344750257
 20
419.0689216845
 30
0.0
 40
0.5000000000000311
100
AcDbArc
 50
89.5
 51
180.0
  0
LINE
  5
1C2
330
1F
100
AcDbEntity
  8
0
  6
Continuous
 62
     7
370
    25
100
AcDbLine
 10
381.2344750257
 20
390.7776599768
 30
0.0
 11
381.2344750257
 21
418.3689483383
 31
0.0
  0
LINE
  5
1C3
330
1F
100
AcDbEntity
  8
0
  6
Continuous
 62
     7
370
    25
100
AcDbLine
 10
381.2344750257
 20
390.0776866306
 30
0.0
 11
381.2344750257
 21
390.7776599768
 31
0.0
  0
ARC
  5
1C4
330
1F
100
AcDbEntity
  8
0
  6
Continuous
 62
     7
370
    25
100
AcDbCircle
 10
381.7344750257
 20
390.0776866306
 30
0.0
 40
0.5
100
AcDbArc
 50
180.0
 51
270.5
  0
LINE
  5
1C5
330
1F
100
AcDbEntity
  8
0
  6
Continuous
 62
     7
370
    25
100
AcDbLine
 10
381.7388382935
 20
419.568902646
 30
0.0
 11
404.5449468683
 21
419.3698767516
 31
0.0
  0
LINE
  5
1C6
330
1F
100
AcDbEntity
  8
0
  6
Continuous
 62
     7
370
    25
100
AcDbLine
 10
404.5449468683
 20
389.7767315635
 30
0.0
 11
381.7388382935
 21
389.5777056691
 31
0.0
  0
LINE
  5
1C7
330
1F
100
AcDbEntity
  8
0
  6
Continuous
 62
     7
370
    25
100
AcDbLine
 10
405.7344750257
 20
418.169922444
 30
0.0
 11
405.7344750257
 21
390.9766858711
 31
0.0
  0
ARC
  5
1C8
330
1F
100
AcDbEntity
  8
0
  6
Continuous
 62
     7
370
    25
100
AcDbCircle
 10
404.5344750257
 20
418.169922444
 30
0.0
 40
1.200000000000045
100
AcDbArc
 50
0.0
 51
89.5
  0
ARC
  5
1C9
330
1F
100
AcDbEntity
  8
0
  6
Continuous
 62
     7
370
    25
100
AcDbCircle
 10
404.5344750257
 20
390.9766858711
 30
0.0
 40
1.200000000000045
100
AcDbArc
 50
270.5
 51
0.0
  0
LINE
  5
1CA
330
1F
100
AcDbEntity
  8
0
  6
Continuous
 62
     7
370
    25
100
AcDbLine
 10
380.3250344281
 20
392.283632594
 30
0.0
 11
380.3250344281
 21
391.0733041575
 31
0.0
  0
LINE
  5
1CB
330
1F
100
AcDbEntity
  8
0
  6
Continuous
 62
     7
370
    25
100
AcDbLine
 10
380.3250344281
 20
418.0733041575
 30
0.0
 11
380.3250344281
 21
392.283632594
 31
0.0
  0
SPLINE
  5
1CC
330
1F
100
AcDbEntity
  8
0
  6
Continuous
 62
     7
370
    25
100
AcDbSpline
210
0.0
220
0.0
230
1.0
 70
    24
 71
     3
 72
     8
 73
     4
 74
     0
 42
0.00000001
 43
0.00000001
 40
0.0
 40
0.0
 40
0.0
 40
0.0
 40
1.0
 40
1.0
 40
1.0
 40
1.0
 10
389.3250344281
 20
363.447732918666
 30
0.0
 10
389.3250344281
 20
363.4725671564935
 30
0.0
 10
389.3250344281
 20
363.5318843160297
 30
0.0
 10
389.3250344281
 20
363.6067772322762
 30
0.0
  0
SPLINE
  5
1CD
330
1F
100
AcDbEntity
  8
0
  6
Continuous
 62
     7
370
    25
100
AcDbSpline
210
0.0
220
0.0
230
1.0
 70
    24
 71
     3
 72
     8
 73
     4
 74
     0
 42
0.00000001
 43
0.00000001
 40
0.0
 40
0.0
 40
0.0
 40
0.0
 40
1.0
 40
1.0
 40
1.0
 40
1.0
 10
389.3250344281
 20
363.6067772322763
 30
0.0
 10
389.3250344281
 20
363.6844282685455
 30
0.0
 10
389.3250344281
 20
363.7437309752646
 30
0.0
 10
389.3250344281
 20
363.7675180025198
 30
0.0
  0
LINE
  5
1CE
330
1F
100
AcDbEntity
  8
0
  6
Continuous
 62
     7
370
    25
100
AcDbLine
 10
389.3250344281
 20
363.7675180025
 30
0.0
 11
389.3250344281
 21
364.1767015429
 31
0.0
  0
LINE
  5
1CF
330
1F
100
AcDbEntity
  8
0
  6
Continuous
 62
     7
370
    25
100
AcDbLine
 10
389.3250344281
 20
364.1767015429
 30
0.0
 11
389.3250344281
 21
364.1792008549
 31
0.0
  0
LINE
  5
1D0
330
1F
100
AcDbEntity
  8
0
  6
Continuous
 62
     7
370
    25
100
AcDbLine
 10
389.3250344281
 20
364.4733041592
 30
0.0
 11
389.3250344281
 21
364.4268715594
 31
0.0
  0
LINE
  5
1D1
330
1F
100
AcDbEntity
  8
0
  6
Continuous
 62
     7
370
    25
100
AcDbLine
 10
389.3250344281
 20
318.460776726
 30
0.0
 11
389.3250344281
 21
318.7565827849
 31
0.0
  0
SPLINE
  5
1D2
330
1F
100
AcDbEntity
  8
0
  6
Continuous
 62
     7
370
    25
100
AcDbSpline
210
0.0
220
0.0
230
1.0
 70
    24
 71
     3
 72
     8
 73
     4
 74
     0
 42
0.00000001
 43
0.00000001
 40
0.0
 40
0.0
 40
0.0
 40
0.0
 40
1.0
 40
1.0
 40
1.0
 40
1.0
 10
389.3250344281
 20
318.3697330143215
 30
0.0
 10
389.3250344281
 20
318.3744613877394
 30
0.0
 10
389.3250344281
 20
318.4069289735443
 30
0.0
 10
389.3250344281
 20
318.460776726044
 30
0.0
  0
LINE
  5
1D3
330
1F
100
AcDbEntity
  8
0
  6
Continuous
 62
     8
370
    18
100
AcDbLine
 10
357.3250344281
 20
446.3196507524
 30
0.0
 11
362.6097614785
 21
446.3186440488
 31
0.0
  0
SPLINE
  5
1D4
330
1F
100
AcDbEntity
  8
0
  6
Continuous
 62
     8
370
    18
100
AcDbSpline
210
0.0
220
0.0
230
1.0
 70
     8
 71
     3
 72
     8
 73
     4
 74
     0
 42
0.00000001
 43
0.00000001
 40
0.0
 40
0.0
 40
0.0
 40
0.0
 40
1.0
 40
1.0
 40
1.0
 40
1.0
 10
362.6097614785475
 20
300.827964266317
 30
0.0
 10
363.1102380175781
 20
349.324857527138
 30
0.0
 10
363.1102380175784
 20
397.8217507879589
 30
0.0
 10
362.6097614785477
 20
446.31864404878
 30
0.0
  0
LINE
  5
1D5
330
1F
100
AcDbEntity
  8
0
  6
Continuous
 62
     8
370
    18
100
AcDbLine
 10
357.3250344281
 20
300.8269575627
 30
0.0
 11
362.6097614785
 21
300.8279642663
 31
0.0
  0
SPLINE
  5
1D6
330
1F
100
AcDbEntity
  8
0
  6
Continuous
 62
     8
370
    18
100
AcDbSpline
210
0.0
220
0.0
230
1.0
 70
     8
 71
     3
 72
    21
 73
    17
 74
     0
 42
0.00000001
 43
0.00000001
 40
0.0
 40
0.0
 40
0.0
 40
0.0
 40
0.0527050579358642
 40
0.1061279058763471
 40
0.1602714789030613
 40
0.2151385958223941
 40
0.2707319647143637
 40
0.3270541881749243
 40
0.3841077682623132
 40
0.4418951111702219
 40
0.5004185316408531
 40
0.6190410088378983
 40
0.7500271579309465
 40
0.8150588915857995
 40
0.8983884735132021
 40
1.0
 40
1.0
 40
1.0
 40
1.0
 10
362.6097614785475
 20
446.3186440487799
 30
0.0
 10
362.6502184434216
 20
446.3188208783338
 30
0.0
 10
362.7316833564369
 20
446.3191769456828
 30
0.0
 10
362.8535671494092
 20
446.3184300672275
 30
0.0
 10
362.9751664168102
 20
446.3167430288391
 30
0.0
 10
363.0955230178736
 20
446.3140095095865
 30
0.0
 10
363.2136602948578
 20
446.3102445368288
 30
0.0
 10
363.3285526205176
 20
446.3054302850407
 30
0.0
 10
363.4391417182695
 20
446.2995581208693
 30
0.0
 10
363.5443514503789
 20
446.2926183598273
 30
0.0
 10
363.6764431570585
 20
446.2818879603918
 30
0.0
 10
363.8268573754258
 20
446.2652695665182
 30
0.0
 10
363.9421768999242
 20
446.2455629779864
 30
0.0
 10
364.014071071382
 20
446.2264415684932
 30
0.0
 10
364.0595102607157
 20
446.2086303738076
 30
0.0
 10
364.067400839612
 20
446.1949168622018
 30
0.0
 10
364.0717361319295
 20
446.187382296957
 30
0.0
  0
SPLINE
  5
1D7
330
1F
100
AcDbEntity
  8
0
  6
Continuous
 62
     8
370
    18
100
AcDbSpline
210
0.0
220
0.0
230
1.0
 70
     8
 71
     3
 72
     8
 73
     4
 74
     0
 42
0.00000001
 43
0.00000001
 40
0.0
 40
0.0
 40
0.0
 40
0.0
 40
1.0
 40
1.0
 40
1.0
 40
1.0
 10
364.0717361319298
 20
446.1873822969571
 30
0.0
 10
364.5704507298535
 20
397.7779968706845
 30
0.0
 10
364.5704507298533
 20
349.368611444412
 30
0.0
 10
364.0717361319294
 20
300.9592260181394
 30
0.0
  0
SPLINE
  5
1D8
330
1F
100
AcDbEntity
  8
0
  6
Continuous
 62
     8
370
    18
100
AcDbSpline
210
0.0
220
0.0
230
1.0
 70
     8
 71
     3
 72
    21
 73
    17
 74
     0
 42
0.00000001
 43
0.00000001
 40
0.0
 40
0.0
 40
0.0
 40
0.0
 40
0.0527015852617802
 40
0.1061218296410597
 40
0.1602636681738284
 40
0.2151299194777453
 40
0.270723291317805
 40
0.3270463858586206
 40
0.3841017046256616
 40
0.4418916531890824
 40
0.5004185455849606
 40
0.6190205634991496
 40
0.750027166911088
 40
0.8150462982105621
 40
0.8983758845578522
 40
1.0
 40
1.0
 40
1.0
 40
1.0
 10
362.6097614785477
 20
300.827964266317
 30
0.0
 10
362.6502157757496
 20
300.8277874556588
 30
0.0
 10
362.7316760205334
 20
300.8274314232845
 30
0.0
 10
362.8535539881485
 20
300.8281783386254
 30
0.0
 10
362.975149648787
 20
300.8298653915074
 30
0.0
 10
363.0955048357631
 20
300.8325989109127
 30
0.0
 10
363.2136427781906
 20
300.8363638712993
 30
0.0
 10
363.328537649078
 20
300.8411781087439
 30
0.0
 10
363.4391308870458
 20
300.8470502457232
 30
0.0
 10
363.544345976154
 20
300.8539900376102
 30
0.0
 10
363.6764299818224
 20
300.8647189463309
 30
0.0
 10
363.8268484018294
 20
300.8813375143734
 30
0.0
 10
363.9421670427225
 20
300.901043228252
 30
0.0
 10
364.0140651468594
 20
300.9201648371908
 30
0.0
 10
364.059508063426
 20
300.9379760797696
 30
0.0
 10
364.0673999043136
 20
300.9516905214601
 30
0.0
 10
364.0717361319297
 20
300.9592260181389
 30
0.0
  0
SPLINE
  5
1D9
330
1F
100
AcDbEntity
  8
0
  6
Continuous
 62
     8
370
    18
100
AcDbSpline
210
0.0
220
0.0
230
1.0
 70
     8
 71
     3
 72
    10
 73
     6
 74
     0
 42
0.00000001
 43
0.00000001
 40
0.0
 40
0.0
 40
0.0
 40
0.0
 40
0.4999499202663056
 40
0.9999192104821719
 40
0.9999999999999999
 40
0.9999999999999999
 40
0.9999999999999999
 40
0.9999999999999999
 10
364.0717361319296
 20
300.9592260181394
 30
0.0
 10
364.1741389994684
 20
300.8897293037163
 30
0.0
 10
364.3789487020202
 20
300.7507331823045
 30
0.0
 10
364.476915877275
 20
300.6842431153236
 30
0.0
 10
364.445747442107
 20
300.7053965706269
 30
0.0
 10
364.4457424064457
 20
300.7053999882395
 30
0.0
  0
SPLINE
  5
1DA
330
1F
100
AcDbEntity
  8
0
  6
Continuous
 62
     8
370
    18
100
AcDbSpline
210
0.0
220
0.0
230
1.0
 70
     8
 71
     3
 72
     9
 73
     5
 74
     0
 42
0.00000001
 43
0.00000001
 40
0.0
 40
0.0
 40
0.0
 40
0.0
 40
0.4999508500088898
 40
1.0
 40
1.0
 40
1.0
 40
1.0
 10
364.4457427559399
 20
446.4412085640539
 30
0.0
 10
364.4301671656717
 20
446.4306372510986
 30
0.0
 10
364.3990129226736
 20
446.4094925466638
 30
0.0
 10
364.180835544455
 20
446.2614238985745
 30
0.0
 10
364.0717361319295
 20
446.1873822969571
 30
0.0
  0
SPLINE
  5
1DB
330
1F
100
AcDbEntity
  8
0
  6
Continuous
 62
     8
370
    18
100
AcDbSpline
210
0.0
220
0.0
230
1.0
 70
     8
 71
     3
 72
    25
 73
    21
 74
     0
 42
0.00000001
 43
0.00000001
 40
0.0
 40
0.0
 40
0.0
 40
0.0
 40
0.0555740769933564
 40
0.1111416178191766
 40
0.166703438990585
 40
0.2222603572237527
 40
0.2778131894090246
 40
0.3333627525819136
 40
0.3889098638941328
 40
0.444455340584549
 40
0.4999999999501494
 40
0.5555446593169772
 40
0.6110901360110875
 40
0.6666372473294614
 40
0.7221868105109714
 40
0.7777396427073173
 40
0.8332965609540269
 40
0.8888583821414353
 40
0.9444259229857195
 40
1.0
 40
1.0
 40
1.0
 40
1.0
 10
362.6097614785476
 20
299.4762909917935
 30
0.0
 10
362.6107409829622
 20
299.4775819258533
 30
0.0
 10
362.6126998765901
 20
299.480163642144
 30
0.0
 10
362.6152108044523
 20
299.4968918863435
 30
0.0
 10
362.6174085814924
 20
299.5228978191836
 30
0.0
 10
362.6192625463892
 20
299.5589116656578
 30
0.0
 10
362.6207809136078
 20
299.6044166216411
 30
0.0
 10
362.6219614823453
 20
299.6591394621347
 30
0.0
 10
362.6228048422946
 20
299.7226542513268
 30
0.0
 10
362.6233108352555
 20
299.7944922262157
 30
0.0
 10
362.6234795043694
 20
299.874116686698
 30
0.0
 10
362.6233108352556
 20
299.9609346435248
 30
0.0
 10
362.6228048422944
 20
300.0542991651261
 30
0.0
 10
362.6219614823452
 20
300.1535147452674
 30
0.0
 10
362.6207809136077
 20
300.2578422645837
 30
0.0
 10
362.6192625463891
 20
300.3665047194376
 30
0.0
 10
362.6174085814923
 20
300.4786922222127
 30
0.0
 10
362.6152108044521
 20
300.5935708404309
 30
0.0
 10
362.6126998765898
 20
300.7102782432813
 30
0.0
 10
362.6107409829619
 20
300.7887340539925
 30
0.0
 10
362.6097614785473
 20
300.827964266317
 30
0.0
  0
SPLINE
  5
1DC
330
1F
100
AcDbEntity
  8
0
  6
Continuous
 62
     8
370
    18
100
AcDbSpline
210
0.0
220
0.0
230
1.0
 70
     8
 71
     3
 72
    25
 73
    21
 74
     0
 42
0.00000001
 43
0.00000001
 40
0.0
 40
0.0
 40
0.0
 40
0.0
 40
0.0555740770111256
 40
0.1111416178526283
 40
0.1667034390376182
 40
0.2222603572822918
 40
0.2778131894769693
 40
0.3333627526571793
 40
0.3889098639746268
 40
0.4444553406681825
 40
0.5000000000348251
 40
0.5555446594006127
 40
0.6110901360915849
 40
0.6666372474047328
 40
0.7221868105789203
 40
0.7777396427658617
 40
0.8332965610010725
 40
0.8888583821748843
 40
0.9444259230034925
 40
1.0
 40
1.0
 40
1.0
 40
1.0
 10
362.6097614785476
 20
446.31864404878
 30
0.0
 10
362.6107409829621
 20
446.3578742611022
 30
0.0
 10
362.6126998765897
 20
446.4363300718088
 30
0.0
 10
362.615210804452
 20
446.5530374746534
 30
0.0
 10
362.6174085814919
 20
446.6679160928666
 30
0.0
 10
362.6192625463887
 20
446.7801035956378
 30
0.0
 10
362.6207809136071
 20
446.888766050489
 30
0.0
 10
362.6219614823445
 20
446.9930935698038
 30
0.0
 10
362.6228048422938
 20
447.0923091499448
 30
0.0
 10
362.6233108352548
 20
447.1856736715466
 30
0.0
 10
362.6234795043686
 20
447.2724916283748
 30
0.0
 10
362.6233108352548
 20
447.3521160888594
 30
0.0
 10
362.6228048422937
 20
447.423954063751
 30
0.0
 10
362.6219614823445
 20
447.4874688529466
 30
0.0
 10
362.6207809136073
 20
447.5421916934436
 30
0.0
 10
362.6192625463885
 20
447.5876966494302
 30
0.0
 10
362.6174085814919
 20
447.6237104959077
 30
0.0
 10
362.615210804452
 20
447.6497164287504
 30
0.0
 10
362.6126998765899
 20
447.6664446729519
 30
0.0
 10
362.6107409829622
 20
447.6690263892431
 30
0.0
 10
362.6097614785476
 20
447.6703173233032
 30
0.0
  0
SPLINE
  5
1DD
330
1F
100
AcDbEntity
  8
0
  6
Continuous
 62
     8
370
    18
100
AcDbSpline
210
0.0
220
0.0
230
1.0
 70
     8
 71
     3
 72
    26
 73
    22
 74
     0
 42
0.00000001
 43
0.00000001
 40
0.0
 40
0.0
 40
0.0
 40
0.0
 40
0.03125
 40
0.03125
 40
0.0625
 40
0.0625
 40
0.125
 40
0.125
 40
0.25
 40
0.25
 40
0.375
 40
0.375
 40
0.5
 40
0.5
 40
0.625
 40
0.625
 40
0.75
 40
0.75
 40
0.875
 40
0.875
 40
1.0
 40
1.0
 40
1.0
 40
1.0
 10
362.6097614785477
 20
447.6703173233044
 30
0.0
 10
362.6340108536381
 20
447.6696811153633
 30
0.0
 10
362.6582161273171
 20
447.668451829163
 30
0.0
 10
362.7064872221147
 20
447.6648252977477
 30
0.0
 10
362.7305530432333
 20
447.6624280525326
 30
0.0
 10
362.8024644531422
 20
447.653511674621
 30
0.0
 10
362.8500239884858
 20
447.6452678996579
 30
0.0
 10
362.9909433838794
 20
447.6138563757471
 30
0.0
 10
363.0825440332923
 20
447.5840084277779
 30
0.0
 10
363.2577741205544
 20
447.5076633080191
 30
0.0
 10
363.3429039795423
 20
447.4604388122715
 30
0.0
 10
363.5010898616376
 20
447.3515304941267
 30
0.0
 10
363.5741423538223
 20
447.2901574019029
 30
0.0
 10
363.7082968406785
 20
447.1537227159394
 30
0.0
 10
363.7696388604504
 20
447.0779963351422
 30
0.0
 10
363.875092969671
 20
446.9187936107272
 30
0.0
 10
363.9199428086088
 20
446.8347371058613
 30
0.0
 10
363.9936499058345
 20
446.6575791199307
 30
0.0
 10
364.0220294838965
 20
446.5650819350751
 30
0.0
 10
364.0603262256922
 20
446.3786530864157
 30
0.0
 10
364.070637699791
 20
446.2838418359455
 30
0.0
 10
364.0717361319291
 20
446.1873822969571
 30
0.0
  0
SPLINE
  5
1DE
330
1F
100
AcDbEntity
  8
0
  6
Continuous
 62
     8
370
    18
100
AcDbSpline
210
0.0
220
0.0
230
1.0
 70
     8
 71
     3
 72
    26
 73
    22
 74
     0
 42
0.00000001
 43
0.00000001
 40
0.0
 40
0.0
 40
0.0
 40
0.0
 40
0.03125
 40
0.03125
 40
0.0625
 40
0.0625
 40
0.125
 40
0.125
 40
0.25
 40
0.25
 40
0.375
 40
0.375
 40
0.5
 40
0.5
 40
0.625
 40
0.625
 40
0.75
 40
0.75
 40
0.875
 40
0.875
 40
1.0
 40
1.0
 40
1.0
 40
1.0
 10
362.6097614785476
 20
299.4762909917922
 30
0.0
 10
362.634010853638
 20
299.4769271997333
 30
0.0
 10
362.658216127317
 20
299.4781564859337
 30
0.0
 10
362.7064872221145
 20
299.481783017349
 30
0.0
 10
362.7305530432331
 20
299.484180262564
 30
0.0
 10
362.802464453142
 20
299.4930966404756
 30
0.0
 10
362.8500239884855
 20
299.5013404154386
 30
0.0
 10
362.9909433838791
 20
299.5327519393493
 30
0.0
 10
363.0825440332922
 20
299.5625998873184
 30
0.0
 10
363.2577741205542
 20
299.6389450070772
 30
0.0
 10
363.3429039795421
 20
299.6861695028248
 30
0.0
 10
363.5010898616374
 20
299.7950778209695
 30
0.0
 10
363.574142353822
 20
299.8564509131933
 30
0.0
 10
363.7082968406783
 20
299.9928855991567
 30
0.0
 10
363.7696388604503
 20
300.068611979954
 30
0.0
 10
363.8750929696708
 20
300.2278147043689
 30
0.0
 10
363.9199428086086
 20
300.3118712092348
 30
0.0
 10
363.9936499058343
 20
300.4890291951654
 30
0.0
 10
364.0220294838953
 20
300.5815263800212
 30
0.0
 10
364.0603262256911
 20
300.7679552286805
 30
0.0
 10
364.0706376997914
 20
300.8627664791505
 30
0.0
 10
364.0717361319296
 20
300.959226018139
 30
0.0
  0
SPLINE
  5
1DF
330
1F
100
AcDbEntity
  8
0
  6
Continuous
 62
     8
370
    18
100
AcDbSpline
210
0.0
220
0.0
230
1.0
 70
     8
 71
     3
 72
    10
 73
     6
 74
     0
 42
0.00000001
 43
0.00000001
 40
0.0
 40
0.0
 40
0.0
 40
0.0
 40
0.4999510413259382
 40
0.9999215213104153
 40
1.0
 40
1.0
 40
1.0
 40
1.0
 10
362.6097614785476
 20
447.6703173233034
 30
0.0
 10
362.712526049784
 20
447.7400703641867
 30
0.0
 10
362.9180591878588
 20
447.8795791580299
 30
0.0
 10
363.0163726372622
 20
447.9463146374226
 30
0.0
 10
362.9850943916398
 20
447.9250833498159
 30
0.0
 10
362.985089482769
 20
447.9250800177349
 30
0.0
  0
SPLINE
  5
1E0
330
1F
100
AcDbEntity
  8
0
  6
Continuous
 62
     8
370
    18
100
AcDbSpline
210
0.0
220
0.0
230
1.0
 70
     8
 71
     3
 72
     9
 73
     5
 74
     0
 42
0.00000001
 43
0.00000001
 40
0.0
 40
0.0
 40
0.0
 40
0.0
 40
0.4999510989238499
 40
1.0
 40
1.0
 40
1.0
 40
1.0
 10
362.9850895061712
 20
299.2215282814785
 30
0.0
 10
362.9694589079616
 20
299.2321385826703
 30
0.0
 10
362.9381946538313
 20
299.2533612606773
 30
0.0
 10
362.7192463415141
 20
299.4019762364669
 30
0.0
 10
362.6097614785475
 20
299.4762909917939
 30
0.0
  0
LINE
  5
1E1
330
1F
100
AcDbEntity
  8
0
  6
Continuous
 62
     8
370
    18
100
AcDbLine
 10
390.3250344281
 20
365.8776752061
 30
0.0
 11
390.8293976958
 21
365.8776752061
 31
0.0
  0
LINE
  5
1E2
330
1F
100
AcDbEntity
  8
0
  6
Continuous
 62
     8
370
    18
100
AcDbLine
 10
390.8293976958
 20
365.8776752061
 30
0.0
 11
390.8293976958
 21
317.268933109
 31
0.0
  0
LINE
  5
1E3
330
1F
100
AcDbEntity
  8
0
  6
Continuous
 62
     8
370
    18
100
AcDbLine
 10
390.3250344281
 20
317.268933109
 30
0.0
 11
390.8293976958
 21
317.268933109
 31
0.0
  0
ELLIPSE
  5
1E4
330
1F
100
AcDbEntity
  8
0
  6
Continuous
 62
     8
370
    18
100
AcDbEllipse
 10
390.8250344281
 20
365.8776218974
 30
0.0
 11
0.004363186994680746
 21
1.200007616901246
 31
0.0
210
0.0
220
0.0
230
0.9999999999999999
 40
0.0036358238
 41
4.712446623772323
 42
6.283166798144611
  0
ELLIPSE
  5
1E5
330
1F
100
AcDbEntity
  8
0
  6
Continuous
 62
     8
370
    18
100
AcDbEllipse
 10
390.8250344281
 20
317.2689864177
 30
0.0
 11
-0.004363186994737589
 21
1.200007616901246
 31
0.0
210
0.0
220
0.0
230
1.0
 40
0.0036358238
 41
3.141611162632362
 42
4.712331336997058
  0
ARC
  5
1E6
330
1F
100
AcDbEntity
  8
0
  6
Continuous
 62
     8
370
    18
100
AcDbCircle
 10
406.7558806612
 20
366.0386376013
 30
0.0
 40
34.38486047138888
100
AcDbArc
 50
359.0002023313
 51
0.9997976687
  0
LINE
  5
1E7
330
1F
100
AcDbEntity
  8
0
  6
Continuous
 62
     8
370
    18
100
AcDbLine
 10
441.1355062707
 20
365.4386604475
 30
0.0
 11
390.8293976958
 21
365.8776752061
 31
0.0
  0
LINE
  5
1E8
330
1F
100
AcDbEntity
  8
0
  6
Continuous
 62
     8
370
    18
100
AcDbLine
 10
441.1355062707
 20
317.7079478676
 30
0.0
 11
441.1355062707
 21
365.4386604475
 31
0.0
  0
LINE
  5
1E9
330
1F
100
AcDbEntity
  8
0
  6
Continuous
 62
     8
370
    18
100
AcDbLine
 10
390.8293976958
 20
317.268933109
 30
0.0
 11
441.1355062707
 21
317.7079478676
 31
0.0
  0
ARC
  5
1EA
330
1F
100
AcDbEntity
  8
0
  6
Continuous
 62
     8
370
    18
100
AcDbCircle
 10
406.7558806612
 20
317.1079707138
 30
0.0
 40
34.38486047138149
100
AcDbArc
 50
359.0002023313
 51
0.9997976687
  0
LINE
  5
1EB
330
1F
100
AcDbEntity
  8
0
  6
Continuous
 62
     8
370
    18
100
AcDbLine
 10
442.3250344281
 20
365.4386604475
 30
0.0
 11
441.1355062707
 21
365.4386604475
 31
0.0
  0
LINE
  5
1EC
330
1F
100
AcDbEntity
  8
0
  6
Continuous
 62
     8
370
    18
100
AcDbLine
 10
442.3250344281
 20
317.7079478676
 30
0.0
 11
441.1355062707
 21
317.7079478676
 31
0.0
  0
ELLIPSE
  5
1ED
330
1F
100
AcDbEntity
  8
0
  6
Continuous
 62
     8
370
    18
100
AcDbEllipse
 10
1360.5826532157
 20
341.5733041575
 30
0.0
 11
1314.804604893214
 21
18.81167679849506
 31
0.0
210
0.0
220
0.0
230
0.9999999999999999
 40
0.0103918181
 41
2.400672487537487
 42
2.401800190422965
  0
ELLIPSE
  5
1EE
330
1F
100
AcDbEntity
  8
0
  6
Continuous
 62
     8
370
    18
100
AcDbEllipse
 10
1360.5826532157
 20
341.5733041575
 30
0.0
 11
1314.804610554713
 21
-21.24103027749351
 31
0.0
210
0.0
220
0.0
230
1.0
 40
0.0071905433
 41
3.881352600158251
 42
3.882480303043707
  0
LINE
  5
1EF
330
1F
100
AcDbEntity
  8
0
  6
Continuous
 62
     8
370
    18
100
AcDbLine
 10
388.3250344281
 20
352.2039156015
 30
0.0
 11
388.3250344281
 21
364.4733041575
 31
0.0
  0
LINE
  5
1F0
330
1F
100
AcDbEntity
  8
0
  6
Continuous
 62
     8
370
    18
100
AcDbLine
 10
388.3250344281
 20
318.6733041575
 30
0.0
 11
388.3250344281
 21
352.2039156015
 31
0.0
  0
ELLIPSE
  5
1F1
330
1F
100
AcDbEntity
  8
0
  6
Continuous
 62
     8
370
    18
100
AcDbEllipse
 10
1360.5878889376
 20
341.3306360244
 30
0.0
 11
1314.804605628828
 21
18.56889407493634
 31
0.0
210
0.0
220
0.0
230
1.0
 40
0.010257784
 41
2.400682200089798
 42
2.401809910264437
  0
ELLIPSE
  5
1F2
330
1F
100
AcDbEntity
  8
0
  6
Continuous
 62
     8
370
    18
100
AcDbEllipse
 10
1360.5878889376
 20
341.8473260536
 30
0.0
 11
1314.804611003706
 21
-20.96692467743554
 31
0.0
210
0.0
220
0.0
230
1.0
 40
0.0070978096
 41
3.881343714289153
 42
3.882471424463791
  0
LINE
  5
1F3
330
1F
100
AcDbEntity
  8
0
  6
Continuous
 62
     8
370
    18
100
AcDbLine
 10
390.3250344281
 20
363.4307734225
 30
0.0
 11
389.3250344281
 21
363.4477329187
 31
0.0
  0
ELLIPSE
  5
1F4
330
1F
100
AcDbEntity
  8
0
  6
Continuous
 62
     8
370
    18
100
AcDbEllipse
 10
381.7344750257
 20
418.3688950296
 30
0.0
 11
0.004363186994737589
 21
1.200007616901246
 31
0.0
210
0.0
220
0.0
230
1.0
 40
0.0036358238
 41
4.712446623772323
 42
6.283166798157803
  0
LINE
  5
1F5
330
1F
100
AcDbEntity
  8
0
  6
Continuous
 62
     8
370
    18
100
AcDbLine
 10
381.7388382935
 20
418.3689483383
 30
0.0
 11
381.2344750257
 21
418.3689483383
 31
0.0
  0
LINE
  5
1F6
330
1F
100
AcDbEntity
  8
0
  6
Continuous
 62
     8
370
    18
100
AcDbLine
 10
381.7388382935
 20
418.3689483383
 30
0.0
 11
381.7388382935
 21
390.7776599768
 31
0.0
  0
LINE
  5
1F7
330
1F
100
AcDbEntity
  8
0
  6
Continuous
 62
     8
370
    18
100
AcDbLine
 10
381.7388382935
 20
390.7776599768
 30
0.0
 11
381.2344750257
 21
390.7776599768
 31
0.0
  0
ELLIPSE
  5
1F8
330
1F
100
AcDbEntity
  8
0
  6
Continuous
 62
     8
370
    18
100
AcDbEllipse
 10
381.7344750257
 20
390.7777132855
 30
0.0
 11
-0.004363186994680746
 21
1.200007616901246
 31
0.0
210
0.0
220
0.0
230
0.9999999999999999
 40
0.0036358238
 41
3.141611162632362
 42
4.712331336997057
  0
LINE
  5
1F9
330
1F
100
AcDbEntity
  8
0
  6
Continuous
 62
     8
370
    18
100
AcDbLine
 10
404.5449468683
 20
390.9766858711
 30
0.0
 11
404.5449468683
 21
418.169922444
 31
0.0
  0
LINE
  5
1FA
330
1F
100
AcDbEntity
  8
0
  6
Continuous
 62
     8
370
    18
100
AcDbLine
 10
381.7388382935
 20
390.7776599768
 30
0.0
 11
404.5449468683
 21
390.9766858711
 31
0.0
  0
LINE
  5
1FB
330
1F
100
AcDbEntity
  8
0
  6
Continuous
 62
     8
370
    18
100
AcDbLine
 10
404.5449468683
 20
418.169922444
 30
0.0
 11
381.7388382935
 21
418.3689483383
 31
0.0
  0
ARC
  5
1FC
330
1F
100
AcDbEntity
  8
0
  6
Continuous
 62
     8
370
    18
100
AcDbCircle
 10
370.1653212588
 20
418.7698995978
 30
0.0
 40
34.38486047138485
100
AcDbArc
 50
359.0002023313
 51
0.9997976687
  0
ARC
  5
1FD
330
1F
100
AcDbEntity
  8
0
  6
Continuous
 62
     8
370
    18
100
AcDbCircle
 10
370.165321259
 20
390.3767087173
 30
0.0
 40
34.38486047116626
100
AcDbArc
 50
359.0002023313
 51
0.9997976687
  0
LINE
  5
1FE
330
1F
100
AcDbEntity
  8
0
  6
Continuous
 62
     8
370
    18
100
AcDbLine
 10
404.5449468683
 20
418.169922444
 30
0.0
 11
405.7344750257
 21
418.169922444
 31
0.0
  0
LINE
  5
1FF
330
1F
100
AcDbEntity
  8
0
  6
Continuous
 62
     8
370
    18
100
AcDbLine
 10
404.5449468683
 20
390.9766858711
 30
0.0
 11
405.7344750257
 21
390.9766858711
 31
0.0
  0
LINE
  5
200
330
1F
100
AcDbEntity
  8
0
  6
Continuous
 62
     8
370
    18
100
AcDbLine
 10
379.8250344281
 20
391.8284595732
 30
0.0
 11
379.8250344281
 21
418.5733041575
 31
0.0
  0
LINE
  5
201
330
1F
100
AcDbEntity
  8
0
  6
Continuous
 62
     8
370
    18
100
AcDbLine
 10
379.8250344281
 20
390.5733041575
 30
0.0
 11
379.8250344281
 21
391.8284595732
 31
0.0
  0
SPLINE
  5
202
330
1F
100
AcDbEntity
  8
0
  6
Continuous
 62
     8
370
    18
100
AcDbSpline
210
0.0
220
0.0
230
1.0
 70
     8
 71
     3
 72
     8
 73
     4
 74
     0
 42
0.00000001
 43
0.00000001
 40
0.0
 40
0.0
 40
0.0
 40
0.0
 40
1.0
 40
1.0
 40
1.0
 40
1.0
 10
390.3250344280999
 20
363.6002500000729
 30
0.0
 10
389.9917006380489
 20
363.6024524587875
 30
0.0
 10
389.6583672897282
 20
363.604629131951
 30
0.0
 10
389.3250344281
 20
363.6067772322763
 30
0.0
  0
SPLINE
  5
203
330
1F
100
AcDbEntity
  8
0
  6
Continuous
 62
     8
370
    18
100
AcDbSpline
210
0.0
220
0.0
230
1.0
 70
     8
 71
     3
 72
     8
 73
     4
 74
     0
 42
0.00000001
 43
0.00000001
 40
0.0
 40
0.0
 40
0.0
 40
0.0
 40
1.0
 40
1.0
 40
1.0
 40
1.0
 10
389.3250344281
 20
363.7675180025198
 30
0.0
 10
389.6583650400483
 20
363.7688925620574
 30
0.0
 10
389.9916984615044
 20
363.7702092899686
 30
0.0
 10
390.3250344280999
 20
363.7714738235896
 30
0.0
  0
SPLINE
  5
204
330
1F
100
AcDbEntity
  8
0
  6
Continuous
 62
     8
370
    18
100
AcDbSpline
210
0.0
220
0.0
230
1.0
 70
     8
 71
     3
 72
     8
 73
     4
 74
     0
 42
0.00000001
 43
0.00000001
 40
0.0
 40
0.0
 40
0.0
 40
0.0
 40
1.0
 40
1.0
 40
1.0
 40
1.0
 10
390.3250344281
 20
364.1737518070516
 30
0.0
 10
389.9916995245715
 20
364.1746971229906
 30
0.0
 10
389.6583661386819
 20
364.1756791694781
 30
0.0
 10
389.3250344281
 20
364.1767015428492
 30
0.0
  0
SPLINE
  5
205
330
1F
100
AcDbEntity
  8
0
  6
Continuous
 62
     8
370
    18
100
AcDbSpline
210
0.0
220
0.0
230
1.0
 70
     8
 71
     3
 72
     9
 73
     5
 74
     0
 42
0.00000001
 43
0.00000001
 40
0.0
 40
0.0
 40
0.0
 40
0.0
 40
0.6109630539047
 40
1.0
 40
1.0
 40
1.0
 40
1.0
 10
429.0460869199821
 20
372.3831944532208
 30
0.0
 10
429.2018169248055
 20
372.4520961886816
 30
0.0
 10
429.4567095960203
 20
372.564871805833
 30
0.0
 10
429.4341553553548
 20
372.5549576509616
 30
0.0
 10
429.4253809224447
 20
372.5511006784274
 30
0.0
  0
SPLINE
  5
206
330
1F
100
AcDbEntity
  8
0
  6
Continuous
 62
     8
370
    18
100
AcDbSpline
210
0.0
220
0.0
230
1.0
 70
     8
 71
     3
 72
    14
 73
    10
 74
     0
 42
0.00000001
 43
0.00000001
 40
0.0
 40
0.0
 40
0.0
 40
0.0
 40
0.25
 40
0.25
 40
0.5
 40
0.5
 40
0.75
 40
0.75
 40
1.0
 40
1.0
 40
1.0
 40
1.0
 10
428.1423369199821
 20
372.2821526979443
 30
0.0
 10
428.2541617493191
 20
372.2853035926153
 30
0.0
 10
428.3614313589758
 20
372.2904139655237
 30
0.0
 10
428.5578658963208
 20
372.3035963788169
 30
0.0
 10
428.6493984766469
 20
372.3118559708012
 30
0.0
 10
428.8068164553645
 20
372.3301369124682
 30
0.0
 10
428.8745397998132
 20
372.3403291924957
 30
0.0
 10
428.9818569856266
 20
372.3614759938719
 30
0.0
 10
429.0212131455774
 20
372.3722835958857
 30
0.0
 10
429.0460869199821
 20
372.3831944532208
 30
0.0
  0
SPLINE
  5
207
330
1F
100
AcDbEntity
  8
0
  6
Continuous
 62
     8
370
    18
100
AcDbSpline
210
0.0
220
0.0
230
1.0
 70
     8
 71
     3
 72
    12
 73
     8
 74
     0
 42
0.00000001
 43
0.00000001
 40
0.0
 40
0.0
 40
0.0
 40
0.0
 40
0.25
 40
0.25
 40
0.5
 40
0.5
 40
1.0
 40
1.0
 40
1.0
 40
1.0
 10
420.5077319362177
 20
372.2821526979442
 30
0.0
 10
421.1375765288606
 20
372.2644055305014
 30
0.0
 10
421.7737954578462
 20
372.2503140134793
 30
0.0
 10
423.0590536042479
 20
372.2313146837694
 30
0.0
 10
423.6994883066812
 20
372.2265369215827
 30
0.0
 10
425.6144531027408
 20
372.2267292683878
 30
0.0
 10
426.8827178311166
 20
372.2466603381695
 30
0.0
 10
428.1423369199821
 20
372.2821526979443
 30
0.0
  0
SPLINE
  5
208
330
1F
100
AcDbEntity
  8
0
  6
Continuous
 62
     8
370
    18
100
AcDbSpline
210
0.0
220
0.0
230
1.0
 70
     8
 71
     3
 72
    14
 73
    10
 74
     0
 42
0.00000001
 43
0.00000001
 40
0.0
 40
0.0
 40
0.0
 40
0.0
 40
0.25
 40
0.25
 40
0.5
 40
0.5
 40
0.75
 40
0.75
 40
1.0
 40
1.0
 40
1.0
 40
1.0
 10
419.6039819362176
 20
372.3831944532208
 30
0.0
 10
419.6288539688118
 20
372.3722843599293
 30
0.0
 10
419.6691057318895
 20
372.3612727751901
 30
0.0
 10
419.7760520661911
 20
372.3402535789853
 30
0.0
 10
419.8442658515602
 20
372.329996366646
 30
0.0
 10
420.0020165025961
 20
372.3117228440772
 30
0.0
 10
420.0927465201519
 20
372.3035419735746
 30
0.0
 10
420.2906576202939
 20
372.2902965598133
 30
0.0
 10
420.3959140549244
 20
372.2853033968398
 30
0.0
 10
420.5077319362177
 20
372.2821526979442
 30
0.0
  0
SPLINE
  5
209
330
1F
100
AcDbEntity
  8
0
  6
Continuous
 62
     8
370
    18
100
AcDbSpline
210
0.0
220
0.0
230
1.0
 70
     8
 71
     3
 72
     9
 73
     5
 74
     0
 42
0.00000001
 43
0.00000001
 40
0.0
 40
0.0
 40
0.0
 40
0.0
 40
0.295793072969657
 40
1.0
 40
1.0
 40
1.0
 40
1.0
 10
419.2246879337549
 20
372.5511006784273
 30
0.0
 10
419.2120289587567
 20
372.5567236167125
 30
0.0
 10
419.1692322330893
 20
372.5757333190995
 30
0.0
 10
419.4243360565939
 20
372.4627547465888
 30
0.0
 10
419.6039819362177
 20
372.3831944532208
 30
0.0
  0
SPLINE
  5
20A
330
1F
100
AcDbEntity
  8
0
  6
Continuous
 62
     8
370
    18
100
AcDbSpline
210
0.0
220
0.0
230
1.0
 70
     8
 71
     3
 72
    12
 73
     8
 74
     0
 42
0.00000001
 43
0.00000001
 40
0.0
 40
0.0
 40
0.0
 40
0.0
 40
0.5
 40
0.5
 40
0.75
 40
0.75
 40
1.0
 40
1.0
 40
1.0
 40
1.0
 10
428.3198858730929
 20
371.4879757271363
 30
0.0
 10
427.0011354403085
 20
371.4531788496309
 30
0.0
 10
425.6736935905473
 20
371.4336554492214
 30
0.0
 10
423.6699215782434
 20
371.4334748476195
 30
0.0
 10
422.9998773339129
 20
371.4381584494001
 30
0.0
 10
421.6553885641185
 20
371.4567703670358
 30
0.0
 10
420.9895783958062
 20
371.4705767554789
 30
0.0
 10
420.3301829831068
 20
371.4879757271363
 30
0.0
  0
ARC
  5
20B
330
1F
100
AcDbEntity
  8
0
  6
Continuous
 62
     8
370
    18
100
AcDbCircle
 10
421.6342726495
 20
371.6133641412
 30
0.0
 40
1.310103855611315
100
AcDbArc
 50
149.3038495843
 51
185.4921145913
  0
ARC
  5
20C
330
1F
100
AcDbEntity
  8
0
  6
Continuous
 62
     8
370
    18
100
AcDbCircle
 10
427.0157962067
 20
371.6133641412
 30
0.0
 40
1.310103855610788
100
AcDbArc
 50
354.5078854087
 51
30.6961504157
  0
LINE
  5
20D
330
1F
100
AcDbEntity
  8
0
  6
Continuous
 62
     8
370
    18
100
AcDbLine
 10
428.3198858731
 20
371.4879757271
 30
0.0
 11
428.3198858731
 21
366.75045498
 31
0.0
  0
LINE
  5
20E
330
1F
100
AcDbEntity
  8
0
  6
Continuous
 62
     8
370
    18
100
AcDbLine
 10
420.3301829831
 20
371.4879757271
 30
0.0
 11
420.3301829831
 21
366.8201800609
 31
0.0
  0
SPLINE
  5
20F
330
1F
100
AcDbEntity
  8
0
  6
Continuous
 62
     8
370
    18
100
AcDbSpline
210
0.0
220
0.0
230
1.0
 70
     8
 71
     3
 72
    14
 73
    10
 74
     0
 42
0.00000001
 43
0.00000001
 40
0.0
 40
0.0
 40
0.0
 40
0.0
 40
0.25
 40
0.25
 40
0.5
 40
0.5
 40
0.75
 40
0.75
 40
1.0
 40
1.0
 40
1.0
 40
1.0
 10
429.8261358730929
 20
371.5869966473073
 30
0.0
 10
429.7842478849253
 20
371.576192661268
 30
0.0
 10
429.7178117972167
 20
371.5655143165417
 30
0.0
 10
429.5370202732332
 20
371.5446693696336
 30
0.0
 10
429.4232262679631
 20
371.5346665357417
 30
0.0
 10
429.1598788646885
 20
371.5167899021756
 30
0.0
 10
429.0073944652092
 20
371.5087570511949
 30
0.0
 10
428.6814967968232
 20
371.4959673688738
 30
0.0
 10
428.5042039780232
 20
371.4910295297629
 30
0.0
 10
428.3198858730929
 20
371.4879757271363
 30
0.0
  0
ARC
  5
210
330
1F
100
AcDbEntity
  8
0
  6
Continuous
 62
     8
370
    18
100
AcDbCircle
 10
429.0174341975
 20
371.5749101561
 30
0.0
 40
0.8087919901950898
100
AcDbArc
 50
0.8562531759
 51
87.9697824893
  0
LINE
  5
211
330
1F
100
AcDbEntity
  8
0
  6
Continuous
 62
     8
370
    18
100
AcDbLine
 10
429.8261358731
 20
371.5869966473
 30
0.0
 11
429.8261358731
 21
366.7373101354
 31
0.0
  0
SPLINE
  5
212
330
1F
100
AcDbEntity
  8
0
  6
Continuous
 62
     8
370
    18
100
AcDbSpline
210
0.0
220
0.0
230
1.0
 70
     8
 71
     3
 72
    14
 73
    10
 74
     0
 42
0.00000001
 43
0.00000001
 40
0.0
 40
0.0
 40
0.0
 40
0.0
 40
0.25
 40
0.25
 40
0.5
 40
0.5
 40
0.75
 40
0.75
 40
1.0
 40
1.0
 40
1.0
 40
1.0
 10
420.3301829831068
 20
371.4879757271363
 30
0.0
 10
420.1458923728328
 20
371.4910290742284
 30
0.0
 10
419.9718289741627
 20
371.4958569961917
 30
0.0
 10
419.6436403781858
 20
371.5087019213859
 30
0.0
 10
419.4923949435407
 20
371.5166629524923
 30
0.0
 10
419.2285904358186
 20
371.534525498427
 30
0.0
 10
419.1139004351104
 20
371.5445985179541
 30
0.0
 10
418.9338123724666
 20
371.5653079899748
 30
0.0
 10
418.8658145479085
 20
371.5761943180187
 30
0.0
 10
418.8239329831068
 20
371.5869966473073
 30
0.0
  0
ARC
  5
213
330
1F
100
AcDbEntity
  8
0
  6
Continuous
 62
     8
370
    18
100
AcDbCircle
 10
419.6326346587
 20
371.5749101561
 30
0.0
 40
0.8087919901952052
100
AcDbArc
 50
92.0302175107
 51
179.1437468241
  0
LINE
  5
214
330
1F
100
AcDbEntity
  8
0
  6
Continuous
 62
     8
370
    18
100
AcDbLine
 10
418.8239329831
 20
371.5869966473
 30
0.0
 11
418.8239329831
 21
366.8333249055
 31
0.0
  0
SPLINE
  5
215
330
1F
100
AcDbEntity
  8
0
  6
Continuous
 62
     8
370
    18
100
AcDbSpline
210
0.0
220
0.0
230
1.0
 70
     8
 71
     3
 72
     9
 73
     5
 74
     0
 42
0.00000001
 43
0.00000001
 40
0.0
 40
0.0
 40
0.0
 40
0.0
 40
0.682105863377358
 40
1.0
 40
1.0
 40
1.0
 40
1.0
 10
418.8239329831068
 20
371.5869966473073
 30
0.0
 10
418.6407516570899
 20
371.6629544142133
 30
0.0
 10
418.3721990234708
 20
371.7743121535088
 30
0.0
 10
418.4164892939363
 20
371.7559025737186
 30
0.0
 10
418.4305689112267
 20
371.7500502762456
 30
0.0
  0
SPLINE
  5
216
330
1F
100
AcDbEntity
  8
0
  6
Continuous
 62
     8
370
    18
100
AcDbSpline
210
0.0
220
0.0
230
1.0
 70
     8
 71
     3
 72
     9
 73
     5
 74
     0
 42
0.00000001
 43
0.00000001
 40
0.0
 40
0.0
 40
0.0
 40
0.0
 40
0.3866520344453824
 40
1.0
 40
1.0
 40
1.0
 40
1.0
 10
430.2194995203691
 20
371.7500500986728
 30
0.0
 10
430.2298570273832
 20
371.7543226076156
 30
0.0
 10
430.2566446971514
 20
371.765372617863
 30
0.0
 10
429.9898028048567
 20
371.6548100025041
 30
0.0
 10
429.826135873093
 20
371.5869966473073
 30
0.0
  0
ELLIPSE
  5
217
330
1F
100
AcDbEntity
  8
0
  6
Continuous
 62
     8
370
    18
100
AcDbEllipse
 10
1360.5878889376
 20
341.3649383864
 30
0.0
 11
1314.804604187609
 21
15.94492286468511
 31
0.0
210
0.0
220
0.0
230
0.9999999999999999
 40
0.0125542769
 41
3.88107827848782
 42
3.882205988662457
  0
ELLIPSE
  5
218
330
1F
100
AcDbEntity
  8
0
  6
Continuous
 62
     8
370
    18
100
AcDbEllipse
 10
1360.5826532157
 20
341.5733041575
 30
0.0
 11
1314.804603375065
 21
16.15342022476563
 31
0.0
210
0.0
220
0.0
230
1.0
 40
0.0127183358
 41
3.881080180082372
 42
3.882207882967862
  0
ENDSEC
  0
SECTION
  2
OBJECTS
  0
DICTIONARY
  5
C
330
0
100
AcDbDictionary
281
     1
  3
ACAD_GROUP
350
D
  3
ACAD_LAYOUT
350
1A
  3
ACAD_MLINESTYLE
350
17
  3
ACAD_PLOTSETTINGS
350
19
  3
ACAD_PLOTSTYLENAME
350
E
  3
ACAD_SCALELIST
350
47
  3
DWGPROPS
350
219
  0
DICTIONARY
  5
D
102
{ACAD_REACTORS
330
C
102
}
330
C
100
AcDbDictionary
281
     1
  0
DICTIONARY
  5
1A
102
{ACAD_REACTORS
330
C
102
}
330
C
100
AcDbDictionary
281
     1
  3
Layout1
350
1E
  3
Layout2
350
26
  3
Model
350
22
  0
DICTIONARY
  5
17
102
{ACAD_REACTORS
330
C
102
}
330
C
100
AcDbDictionary
281
     1
  3
Standard
350
18
  0
DICTIONARY
  5
19
102
{ACAD_REACTORS
330
C
102
}
330
C
100
AcDbDictionary
281
     1
  0
ACDBDICTIONARYWDFLT
  5
E
102
{ACAD_REACTORS
330
C
102
}
330
C
100
AcDbDictionary
281
     1
  3
Normal
350
F
100
AcDbDictionaryWithDefault
340
F
  0
DICTIONARY
  5
47
102
{ACAD_REACTORS
330
C
102
}
330
C
100
AcDbDictionary
281
     1
  3
A0
350
48
  3
A1
350
49
  3
A2
350
4A
  3
A3
350
4B
  3
A4
350
4C
  3
A5
350
4D
  3
A6
350
4E
  3
A7
350
4F
  3
A8
350
50
  3
A9
350
51
  3
B0
350
52
  3
B1
350
53
  3
B2
350
54
  3
B3
350
55
  3
B4
350
56
  3
B5
350
57
  3
B6
350
58
  0
XRECORD
  5
219
102
{ACAD_REACTORS
330
C
102
}
330
C
100
AcDbXrecord
280
     1
  1
DWGPROPS COOKIE
  2

  3

  4

  6

  7

  8
fue-task
  9

300
=
301
=
302
=
303
=
304
=
305
=
306
=
307
=
308
=
309
=
 40
0.0
 41
2460336.371686366
 42
2460336.371687454
  1

 90
        0
  0
LAYOUT
  5
1E
102
{ACAD_REACTORS
330
1A
102
}
330
1A
100
AcDbPlotSettings
  1

  2
none_device
  4

  6

 40
0.0
 41
0.0
 42
0.0
 43
0.0
 44
0.0
 45
0.0
 46
0.0
 47
0.0
 48
0.0
 49
0.0
140
0.0
141
0.0
142
1.0
143
1.0
 70
   688
 72
     1
 73
     0
 74
     5
  7

 75
    16
147
1.0
148
0.0
149
0.0
100
AcDbLayout
  1
Layout1
 70
     1
 71
     1
 10
0.0
 20
0.0
 11
420.0
 21
297.0
 12
0.0
 22
0.0
 32
0.0
 14
1.0000000000E+20
 24
1.0000000000E+20
 34
1.0000000000E+20
 15
-1.0000000000E+20
 25
-1.0000000000E+20
 35
-1.0000000000E+20
146
0.0
 13
0.0
 23
0.0
 33
0.0
 16
1.0
 26
0.0
 36
0.0
 17
0.0
 27
1.0
 37
0.0
 76
     0
330
1B
  0
LAYOUT
  5
26
102
{ACAD_REACTORS
330
1A
102
}
330
1A
100
AcDbPlotSettings
  1

  2
none_device
  4

  6

 40
0.0
 41
0.0
 42
0.0
 43
0.0
 44
0.0
 45
0.0
 46
0.0
 47
0.0
 48
0.0
 49
0.0
140
0.0
141
0.0
142
1.0
143
1.0
 70
   688
 72
     1
 73
     0
 74
     5
  7

 75
    16
147
1.0
148
0.0
149
0.0
100
AcDbLayout
  1
Layout2
 70
     1
 71
     2
 10
0.0
 20
0.0
 11
0.0
 21
0.0
 12
0.0
 22
0.0
 32
0.0
 14
0.0
 24
0.0
 34
0.0
 15
0.0
 25
0.0
 35
0.0
146
0.0
 13
0.0
 23
0.0
 33
0.0
 16
1.0
 26
0.0
 36
0.0
 17
0.0
 27
1.0
 37
0.0
 76
     0
330
23
  0
LAYOUT
  5
22
102
{ACAD_REACTORS
330
1A
102
}
330
1A
100
AcDbPlotSettings
  1

  2
none_device
  4
Letter_(8.50_x_11.00_Inches)
  6

 40
6.35
 41
6.35
 42
6.35000508
 43
6.35000508
 44
215.9
 45
279.4
 46
0.0
 47
0.0
 48
0.0
 49
0.0
140
0.0
141
0.0
142
1.0
143
1.0
 70
  1712
 72
     1
 73
     0
 74
     0
  7

 75
     0
147
1.0
148
0.0
149
0.0
100
AcDbLayout
  1
Model
 70
     1
 71
     0
 10
0.0
 20
0.0
 11
594.0
 21
841.0
 12
0.0
 22
0.0
 32
0.0
 14
0.0
 24
0.0
 34
0.0
 15
594.0
 25
841.0
 35
0.0
146
0.0
 13
0.0
 23
0.0
 33
0.0
 16
1.0
 26
0.0
 36
0.0
 17
0.0
 27
1.0
 37
0.0
 76
     0
330
1F
331
29
  0
MLINESTYLE
  5
18
102
{ACAD_REACTORS
330
17
102
}
330
17
100
AcDbMlineStyle
  2
Standard
 70
     0
  3

 62
   256
 51
90.0
 52
90.0
 71
     2
 49
0.5
 62
   256
  6
BYLAYER
 49
-0.5
 62
   256
  6
BYLAYER
  0
ACDBPLACEHOLDER
  5
F
102
{ACAD_REACTORS
330
E
102
}
330
E
  0
SCALE
  5
48
102
{ACAD_REACTORS
330
47
102
}
330
47
100
AcDbScale
 70
     0
300
1:1
140
1.0
141
1.0
290
     1
  0
SCALE
  5
49
102
{ACAD_REACTORS
330
47
102
}
330
47
100
AcDbScale
 70
     0
300
1:2
140
1.0
141
2.0
290
     0
  0
SCALE
  5
4A
102
{ACAD_REACTORS
330
47
102
}
330
47
100
AcDbScale
 70
     0
300
1:4
140
1.0
141
4.0
290
     0
  0
SCALE
  5
4B
102
{ACAD_REACTORS
330
47
102
}
330
47
100
AcDbScale
 70
     0
300
1:5
140
1.0
141
5.0
290
     0
  0
SCALE
  5
4C
102
{ACAD_REACTORS
330
47
102
}
330
47
100
AcDbScale
 70
     0
300
1:8
140
1.0
141
8.0
290
     0
  0
SCALE
  5
4D
102
{ACAD_REACTORS
330
47
102
}
330
47
100
AcDbScale
 70
     0
300
1:10
140
1.0
141
10.0
290
     0
  0
SCALE
  5
4E
102
{ACAD_REACTORS
330
47
102
}
330
47
100
AcDbScale
 70
     0
300
1:16
140
1.0
141
16.0
290
     0
  0
SCALE
  5
4F
102
{ACAD_REACTORS
330
47
102
}
330
47
100
AcDbScale
 70
     0
300
1:20
140
1.0
141
20.0
290
     0
  0
SCALE
  5
50
102
{ACAD_REACTORS
330
47
102
}
330
47
100
AcDbScale
 70
     0
300
1:30
140
1.0
141
30.0
290
     0
  0
SCALE
  5
51
102
{ACAD_REACTORS
330
47
102
}
330
47
100
AcDbScale
 70
     0
300
1:40
140
1.0
141
40.0
290
     0
  0
SCALE
  5
52
102
{ACAD_REACTORS
330
47
102
}
330
47
100
AcDbScale
 70
     0
300
1:50
140
1.0
141
50.0
290
     0
  0
SCALE
  5
53
102
{ACAD_REACTORS
330
47
102
}
330
47
100
AcDbScale
 70
     0
300
1:100
140
1.0
141
100.0
290
     0
  0
SCALE
  5
54
102
{ACAD_REACTORS
330
47
102
}
330
47
100
AcDbScale
 70
     0
300
2:1
140
2.0
141
1.0
290
     0
  0
SCALE
  5
55
102
{ACAD_REACTORS
330
47
102
}
330
47
100
AcDbScale
 70
     0
300
4:1
140
4.0
141
1.0
290
     0
  0
SCALE
  5
56
102
{ACAD_REACTORS
330
47
102
}
330
47
100
AcDbScale
 70
     0
300
8:1
140
8.0
141
1.0
290
     0
  0
SCALE
  5
57
102
{ACAD_REACTORS
330
47
102
}
330
47
100
AcDbScale
 70
     0
300
10:1
140
10.0
141
1.0
290
     0
  0
SCALE
  5
58
102
{ACAD_REACTORS
330
47
102
}
330
47
100
AcDbScale
 70
     0
300
100:1
140
100.0
141
1.0
290
     0
  0
ENDSEC
  0
EOF
