  0
SECTION
  2
HEADER
  9
$ACADVER
  1
AC1024
  9
$ACADMAINTVER
 70
     6
  9
$DWGCODEPAGE
  3
ANSI_1252
  9
$INSBASE
 10
0.0
 20
0.0
 30
0.0
  9
$EXTMIN
 10
0.0
 20
0.0
 30
0.0
  9
$EXTMAX
 10
594.0
 20
841.0
 30
0.0
  9
$LIMMIN
 10
0.0
 20
0.0
  9
$LIMMAX
 10
594.0
 20
841.0
  9
$ORTHOMODE
 70
     0
  9
$REGENMODE
 70
     1
  9
$FILLMODE
 70
     1
  9
$QTEXTMODE
 70
     0
  9
$MIRRTEXT
 70
     1
  9
$LTSCALE
 40
1.0
  9
$ATTMODE
 70
     1
  9
$TEXTSIZE
 40
10.0
  9
$TRACEWID
 40
1.0
  9
$TEXTSTYLE
  7
Standard
  9
$CLAYER
  8
0
  9
$CELTYPE
  6
ByLayer
  9
$CECOLOR
 62
   256
  9
$CELTSCALE
 40
1.0
  9
$DISPSILH
 70
     0
  9
$DIMSCALE
 40
1.0
  9
$DIMASZ
 40
2.5
  9
$DIMEXO
 40
0.0
  9
$DIMDLI
 40
3.75
  9
$DIMRND
 40
0.0
  9
$DIMDLE
 40
0.0
  9
$DIMEXE
 40
1.0
  9
$DIMTP
 40
0.0
  9
$DIMTM
 40
0.0
  9
$DIMTXT
 40
3.5
  9
$DIMCEN
 40
2.5
  9
$DIMTSZ
 40
0.0
  9
$DIMTOL
 70
     0
  9
$DIMLIM
 70
     0
  9
$DIMTIH
 70
     1
  9
$DIMTOH
 70
     1
  9
$DIMSE1
 70
     0
  9
$DIMSE2
 70
     0
  9
$DIMTAD
 70
     1
  9
$DIMZIN
 70
     0
  9
$DIMBLK
  1

  9
$DIMASO
 70
     1
  9
$DIMSHO
 70
     1
  9
$DIMPOST
  1

  9
$DIMAPOST
  1

  9
$DIMALT
 70
     0
  9
$DIMALTD
 70
     3
  9
$DIMALTF
 40
0.0393700787
  9
$DIMLFAC
 40
1.0
  9
$DIMTOFL
 70
     1
  9
$DIMTVP
 40
0.0
  9
$DIMTIX
 70
     0
  9
$DIMSOXD
 70
     0
  9
$DIMSAH
 70
     0
  9
$DIMBLK1
  1

  9
$DIMBLK2
  1

  9
$DIMSTYLE
  2
ISO-25
  9
$DIMCLRD
 70
     0
  9
$DIMCLRE
 70
     0
  9
$DIMCLRT
 70
     0
  9
$DIMTFAC
 40
1.0
  9
$DIMGAP
 40
1.5
  9
$DIMJUST
 70
     0
  9
$DIMSD1
 70
     0
  9
$DIMSD2
 70
     0
  9
$DIMTOLJ
 70
     0
  9
$DIMTZIN
 70
     0
  9
$DIMALTZ
 70
     0
  9
$DIMALTTZ
 70
     0
  9
$DIMUPT
 70
     0
  9
$DIMDEC
 70
     2
  9
$DIMTDEC
 70
     2
  9
$DIMALTU
 70
     2
  9
$DIMALTTD
 70
     3
  9
$DIMTXSTY
  7
Standard
  9
$DIMAUNIT
 70
     0
  9
$DIMADEC
 70
     2
  9
$DIMALTRND
 40
0.0
  9
$DIMAZIN
 70
     0
  9
$DIMDSEP
 70
    44
  9
$DIMATFIT
 70
     3
  9
$DIMFRAC
 70
     0
  9
$DIMLDRBLK
  1

  9
$DIMLUNIT
 70
     2
  9
$DIMLWD
 70
    -2
  9
$DIMLWE
 70
    -2
  9
$DIMTMOVE
 70
     0
  9
$DIMFXL
 40
1.0
  9
$DIMFXLON
 70
     0
  9
$DIMJOGANG
 40
0.7853981634
  9
$DIMTFILL
 70
     0
  9
$DIMTFILLCLR
 70
     0
  9
$DIMARCSYM
 70
     0
  9
$DIMLTYPE
  6

  9
$DIMLTEX1
  6

  9
$DIMLTEX2
  6

  9
$DIMTXTDIRECTION
 70
     0
  9
$LUNITS
 70
     2
  9
$LUPREC
 70
     2
  9
$SKETCHINC
 40
1.0
  9
$FILLETRAD
 40
10.0
  9
$AUNITS
 70
     0
  9
$AUPREC
 70
     2
  9
$MENU
  1
.
  9
$ELEVATION
 40
0.0
  9
$PELEVATION
 40
0.0
  9
$THICKNESS
 40
0.0
  9
$LIMCHECK
 70
     0
  9
$CHAMFERA
 40
10.0
  9
$CHAMFERB
 40
10.0
  9
$CHAMFERC
 40
20.0
  9
$CHAMFERD
 40
0.0
  9
$SKPOLY
 70
     0
  9
$TDCREATE
 40
2456150.46495713
  9
$TDUCREATE
 40
2456150.381623796
  9
$TDUPDATE
 40
2456150.464957141
  9
$TDUUPDATE
 40
2456150.381623808
  9
$TDINDWG
 40
0.0000000116
  9
$TDUSRTIMER
 40
0.0000000116
  9
$USRTIMER
 70
     1
  9
$ANGBASE
 50
0.0
  9
$ANGDIR
 70
     0
  9
$PDMODE
 70
     0
  9
$PDSIZE
 40
-1.0
  9
$PLINEWID
 40
0.0
  9
$SPLFRAME
 70
     0
  9
$SPLINETYPE
 70
     6
  9
$SPLINESEGS
 70
     8
  9
$HANDSEED
  5
12A
  9
$SURFTAB1
 70
     6
  9
$SURFTAB2
 70
     6
  9
$SURFTYPE
 70
     6
  9
$SURFU
 70
     6
  9
$SURFV
 70
     6
  9
$UCSBASE
  2

  9
$UCSNAME
  2

  9
$UCSORG
 10
0.0
 20
0.0
 30
0.0
  9
$UCSXDIR
 10
1.0
 20
0.0
 30
0.0
  9
$UCSYDIR
 10
0.0
 20
1.0
 30
0.0
  9
$UCSORTHOREF
  2

  9
$UCSORTHOVIEW
 70
     0
  9
$UCSORGTOP
 10
0.0
 20
0.0
 30
0.0
  9
$UCSORGBOTTOM
 10
0.0
 20
0.0
 30
0.0
  9
$UCSORGLEFT
 10
0.0
 20
0.0
 30
0.0
  9
$UCSORGRIGHT
 10
0.0
 20
0.0
 30
0.0
  9
$UCSORGFRONT
 10
0.0
 20
0.0
 30
0.0
  9
$UCSORGBACK
 10
0.0
 20
0.0
 30
0.0
  9
$PUCSBASE
  2

  9
$PUCSNAME
  2

  9
$PUCSORG
 10
0.0
 20
0.0
 30
0.0
  9
$PUCSXDIR
 10
1.0
 20
0.0
 30
0.0
  9
$PUCSYDIR
 10
0.0
 20
1.0
 30
0.0
  9
$PUCSORTHOREF
  2

  9
$PUCSORTHOVIEW
 70
     0
  9
$PUCSORGTOP
 10
0.0
 20
0.0
 30
0.0
  9
$PUCSORGBOTTOM
 10
0.0
 20
0.0
 30
0.0
  9
$PUCSORGLEFT
 10
0.0
 20
0.0
 30
0.0
  9
$PUCSORGRIGHT
 10
0.0
 20
0.0
 30
0.0
  9
$PUCSORGFRONT
 10
0.0
 20
0.0
 30
0.0
  9
$PUCSORGBACK
 10
0.0
 20
0.0
 30
0.0
  9
$USERI1
 70
     0
  9
$USERI2
 70
     0
  9
$USERI3
 70
     0
  9
$USERI4
 70
     0
  9
$USERI5
 70
     0
  9
$USERR1
 40
0.0
  9
$USERR2
 40
0.0
  9
$USERR3
 40
0.0
  9
$USERR4
 40
0.0
  9
$USERR5
 40
0.0
  9
$WORLDVIEW
 70
     1
  9
$SHADEDGE
 70
     3
  9
$SHADEDIF
 70
    70
  9
$TILEMODE
 70
     1
  9
$MAXACTVP
 70
    64
  9
$PINSBASE
 10
0.0
 20
0.0
 30
0.0
  9
$PLIMCHECK
 70
     0
  9
$PEXTMIN
 10
1.0000000000E+20
 20
1.0000000000E+20
 30
1.0000000000E+20
  9
$PEXTMAX
 10
-1.0000000000E+20
 20
-1.0000000000E+20
 30
-1.0000000000E+20
  9
$PLIMMIN
 10
0.0
 20
0.0
  9
$PLIMMAX
 10
420.0
 20
297.0
  9
$UNITMODE
 70
     0
  9
$VISRETAIN
 70
     1
  9
$PLINEGEN
 70
     0
  9
$PSLTSCALE
 70
     1
  9
$TREEDEPTH
 70
  3020
  9
$CMLSTYLE
  2
Standard
  9
$CMLJUST
 70
     0
  9
$CMLSCALE
 40
20.0
  9
$PROXYGRAPHICS
 70
     1
  9
$MEASUREMENT
 70
     1
  9
$CELWEIGHT
370
    -1
  9
$ENDCAPS
280
     0
  9
$JOINSTYLE
280
     0
  9
$LWDISPLAY
290
     1
  9
$INSUNITS
 70
     4
  9
$HYPERLINKBASE
  1

  9
$STYLESHEET
  1

  9
$XEDIT
290
     1
  9
$CEPSNTYPE
380
     0
  9
$PSTYLEMODE
290
     1
  9
$FINGERPRINTGUID
  2
{0D84C246-0E36-4170-A01D-064656D3F894}
  9
$VERSIONGUID
  2
{FAEB1C32-E019-11D5-929B-00C0DF256EC4}
  9
$EXTNAMES
290
     1
  9
$PSVPSCALE
 40
0.0
  9
$OLESTARTUP
290
     0
  9
$SORTENTS
280
   127
  9
$INDEXCTL
280
     0
  9
$HIDETEXT
280
     1
  9
$XCLIPFRAME
280
     2
  9
$HALOGAP
280
     0
  9
$OBSCOLOR
 70
   257
  9
$OBSLTYPE
280
     0
  9
$INTERSECTIONDISPLAY
280
     0
  9
$INTERSECTIONCOLOR
 70
   257
  9
$DIMASSOC
280
     2
  9
$PROJECTNAME
  1

  9
$CAMERADISPLAY
290
     0
  9
$LENSLENGTH
 40
50.0
  9
$CAMERAHEIGHT
 40
0.0
  9
$STEPSPERSEC
 40
2.0
  9
$STEPSIZE
 40
6.0
  9
$3DDWFPREC
 40
2.0
  9
$PSOLWIDTH
 40
5.0
  9
$PSOLHEIGHT
 40
80.0
  9
$LOFTANG1
 40
1.5707963268
  9
$LOFTANG2
 40
1.5707963268
  9
$LOFTMAG1
 40
0.0
  9
$LOFTMAG2
 40
0.0
  9
$LOFTPARAM
 70
     7
  9
$LOFTNORMALS
280
     1
  9
$LATITUDE
 40
37.795
  9
$LONGITUDE
 40
-122.394
  9
$NORTHDIRECTION
 40
0.0
  9
$TIMEZONE
 70
 -8000
  9
$LIGHTGLYPHDISPLAY
280
     1
  9
$TILEMODELIGHTSYNCH
280
     1
  9
$SOLIDHIST
280
     1
  9
$SHOWHIST
280
     1
  9
$DWFFRAME
280
     2
  9
$DGNFRAME
280
     2
  9
$REALWORLDSCALE
290
     1
  9
$INTERFERECOLOR
 62
   256
  9
$CSHADOW
280
     0
  9
$SHADOWPLANELOCATION
 40
0.0
  0
ENDSEC
  0
SECTION
  2
CLASSES
  0
CLASS
  1
ACDBDICTIONARYWDFLT
  2
AcDbDictionaryWithDefault
  3
ObjectDBX Classes
 90
        0
 91
        4
280
     0
281
     0
  0
CLASS
  1
VISUALSTYLE
  2
AcDbVisualStyle
  3
ObjectDBX Classes
 90
     4095
 91
        4
280
     0
281
     0
  0
CLASS
  1
MATERIAL
  2
AcDbMaterial
  3
ObjectDBX Classes
 90
     1153
 91
        4
280
     0
281
     0
  0
ENDSEC
  0
SECTION
  2
TABLES
  0
TABLE
  2
VPORT
  5
8
330
0
100
AcDbSymbolTable
 70
     1
  0
VPORT
  5
29
330
8
100
AcDbSymbolTableRecord
100
AcDbViewportTableRecord
  2
*Active
 70
     0
 10
0.0
 20
0.0
 11
1.0
 21
1.0
 12
297.0
 22
420.5
 13
0.0
 23
0.0
 14
10.0
 24
10.0
 15
10.0
 25
10.0
 16
0.0
 26
0.0
 36
1.0
 17
0.0
 27
0.0
 37
0.0
 40
841.0
 41
0.7063020214
 42
50.0
 43
0.0
 44
0.0
 50
0.0
 51
0.0
 71
     0
 72
  2000
 73
     1
 74
     3
 75
     0
 76
     0
 77
     0
 78
     0
281
     0
 65
     1
110
0.0
120
0.0
130
0.0
111
1.0
121
0.0
131
0.0
112
0.0
122
1.0
132
0.0
 79
     0
146
0.0
 60
     3
 61
     5
292
     1
282
     1
141
0.0
142
0.0
 63
   250
  0
ENDTAB
  0
TABLE
  2
LTYPE
  5
5
330
0
100
AcDbSymbolTable
 70
     6
  0
LTYPE
  5
14
330
5
100
AcDbSymbolTableRecord
100
AcDbLinetypeTableRecord
  2
ByBlock
 70
     0
  3

 72
    65
 73
     0
 40
0.0
  0
LTYPE
  5
15
330
5
100
AcDbSymbolTableRecord
100
AcDbLinetypeTableRecord
  2
ByLayer
 70
     0
  3

 72
    65
 73
     0
 40
0.0
  0
LTYPE
  5
16
330
5
100
AcDbSymbolTableRecord
100
AcDbLinetypeTableRecord
  2
Continuous
 70
     0
  3
Solid line
 72
    65
 73
     0
 40
0.0
  0
LTYPE
  5
3F
330
5
100
AcDbSymbolTableRecord
100
AcDbLinetypeTableRecord
  2
HIDDEN
 70
     0
  3
Hidden __ __ __ __ __ __ __ __ __ __ __ __ __ __
 72
    65
 73
     2
 40
1.905
 49
1.27
 74
     0
 49
-0.635
 74
     0
  0
LTYPE
  5
40
330
5
100
AcDbSymbolTableRecord
100
AcDbLinetypeTableRecord
  2
PHANTOM
 70
     0
  3
Phantom ______  __  __  ______  __  __  ______
 72
    65
 73
     6
 40
12.7
 49
6.35
 74
     0
 49
-1.27
 74
     0
 49
1.27
 74
     0
 49
-1.27
 74
     0
 49
1.27
 74
     0
 49
-1.27
 74
     0
  0
LTYPE
  5
41
330
5
100
AcDbSymbolTableRecord
100
AcDbLinetypeTableRecord
  2
CENTER
 70
     0
  3
Center ____ _ ____ _ ____ _ ____ _ ____ _ ____
 72
    65
 73
     4
 40
10.16
 49
6.35
 74
     0
 49
-1.27
 74
     0
 49
1.27
 74
     0
 49
-1.27
 74
     0
  0
LTYPE
  5
42
330
5
100
AcDbSymbolTableRecord
100
AcDbLinetypeTableRecord
  2
CENTERX2
 70
     0
  3
Center (2x) ________  __  ________  __  _____
 72
    65
 73
     4
 40
20.32
 49
12.7
 74
     0
 49
-2.54
 74
     0
 49
2.54
 74
     0
 49
-2.54
 74
     0
  0
LTYPE
  5
43
330
5
100
AcDbSymbolTableRecord
100
AcDbLinetypeTableRecord
  2
DOT2
 70
     0
  3
Dot (.5x) ........................................
 72
    65
 73
     2
 40
0.635
 49
0.0
 74
     0
 49
-0.635
 74
     0
  0
ENDTAB
  0
TABLE
  2
LAYER
  5
2
330
0
100
AcDbSymbolTable
 70
     1
  0
LAYER
  5
10
330
2
100
AcDbSymbolTableRecord
100
AcDbLayerTableRecord
  2
0
 70
     0
 62
     7
  6
Continuous
370
    -3
390
F
347
3E
  0
ENDTAB
  0
TABLE
  2
STYLE
  5
3
330
0
100
AcDbSymbolTable
 70
     3
  0
STYLE
  5
11
330
3
100
AcDbSymbolTableRecord
100
AcDbTextStyleTableRecord
  2
Standard
 70
     0
 40
0.0
 41
1.0
 50
0.0
 71
     0
 42
2.5
  3
txt
  4

  0
STYLE
  5
47
330
3
100
AcDbSymbolTableRecord
100
AcDbTextStyleTableRecord
  2
SLDTEXTSTYLE0
 70
     0
 40
0.0
 41
0.96
 50
0.0
 71
     0
 42
0.2
  3
ISOCP3
  4

  0
STYLE
  5
5E
330
3
100
AcDbSymbolTableRecord
100
AcDbTextStyleTableRecord
  2
SLDTEXTSTYLE1
 70
     0
 40
0.0
 41
0.605
 50
0.0
 71
     0
 42
0.2
  3
TXT
  4

  0
ENDTAB
  0
TABLE
  2
VIEW
  5
6
330
0
100
AcDbSymbolTable
 70
     0
  0
ENDTAB
  0
TABLE
  2
UCS
  5
7
330
0
100
AcDbSymbolTable
 70
     0
  0
ENDTAB
  0
TABLE
  2
APPID
  5
9
330
0
100
AcDbSymbolTable
 70
     1
  0
APPID
  5
12
330
9
100
AcDbSymbolTableRecord
100
AcDbRegAppTableRecord
  2
ACAD
 70
     0
  0
ENDTAB
  0
TABLE
  2
DIMSTYLE
  5
A
330
0
100
AcDbSymbolTable
 70
     2
100
AcDbDimStyleTable
  0
DIMSTYLE
105
27
330
A
100
AcDbSymbolTableRecord
100
AcDbDimStyleTableRecord
  2
ISO-25
 70
     0
 41
2.5
 42
0.625
 43
3.75
 44
1.25
 73
     0
 74
     0
 77
     1
 78
     8
140
2.5
141
2.5
143
0.0393700787
147
0.625
171
     3
172
     1
178
     0
271
     2
272
     2
274
     3
278
    44
283
     0
284
     8
340
11
  0
DIMSTYLE
105
48
102
{ACAD_REACTORS
330
46
330
53
102
}
330
A
100
AcDbSymbolTableRecord
100
AcDbDimStyleTableRecord
  2
SLDDIMSTYLE0
 70
     0
 41
2.5
 44
0.0
 45
0.000000001
 73
     0
 74
     0
 77
     1
 78
    12
 79
     3
140
6.0
147
1.5
173
     1
178
     0
271
     2
272
     2
276
     2
284
    12
340
47
  0
ENDTAB
  0
TABLE
  2
BLOCK_RECORD
  5
1
330
0
100
AcDbSymbolTable
 70
     3
  0
BLOCK_RECORD
  5
1F
330
1
100
AcDbSymbolTableRecord
100
AcDbBlockTableRecord
  2
*Model_Space
340
22
 70
     0
280
     1
281
     0
  0
BLOCK_RECORD
  5
1B
330
1
100
AcDbSymbolTableRecord
100
AcDbBlockTableRecord
  2
*Paper_Space
340
1E
 70
     0
280
     1
281
     0
  0
BLOCK_RECORD
  5
23
330
1
100
AcDbSymbolTableRecord
100
AcDbBlockTableRecord
  2
*Paper_Space0
340
26
 70
     0
280
     1
281
     0
  0
BLOCK_RECORD
  5
49
330
1
100
AcDbSymbolTableRecord
100
AcDbBlockTableRecord
  2
*D1
340
0
 70
     0
280
     1
281
     0
  0
BLOCK_RECORD
  5
54
330
1
100
AcDbSymbolTableRecord
100
AcDbBlockTableRecord
  2
*D2
340
0
 70
     0
280
     1
281
     0
  0
ENDTAB
  0
ENDSEC
  0
SECTION
  2
BLOCKS
  0
BLOCK
  5
20
330
1F
100
AcDbEntity
  8
0
100
AcDbBlockBegin
  2
*Model_Space
 70
     0
 10
0.0
 20
0.0
 30
0.0
  3
*Model_Space
  1

  0
ENDBLK
  5
21
330
1F
100
AcDbEntity
  8
0
100
AcDbBlockEnd
  0
BLOCK
  5
1C
330
1B
100
AcDbEntity
 67
     1
  8
0
100
AcDbBlockBegin
  2
*Paper_Space
 70
     0
 10
0.0
 20
0.0
 30
0.0
  3
*Paper_Space
  1

  0
ENDBLK
  5
1D
330
1B
100
AcDbEntity
 67
     1
  8
0
100
AcDbBlockEnd
  0
BLOCK
  5
24
330
23
100
AcDbEntity
  8
0
100
AcDbBlockBegin
  2
*Paper_Space0
 70
     0
 10
0.0
 20
0.0
 30
0.0
  3
*Paper_Space0
  1

  0
ENDBLK
  5
25
330
23
100
AcDbEntity
  8
0
100
AcDbBlockEnd
  0
BLOCK
  5
4A
330
49
100
AcDbEntity
  8
0
100
AcDbBlockBegin
  2
*D1
 70
     1
 10
0.0
 20
0.0
 30
0.0
  3
*D1
  1

  0
SOLID
  5
4C
330
49
100
AcDbEntity
  8
0
  6
Continuous
 62
     7
370
     0
100
AcDbTrace
 10
42.7614395004
 20
152.0299240879
 30
0.0
 11
42.4614395004
 21
149.5299240879
 31
0.0
 12
43.0614395004
 22
149.5299240879
 32
0.0
 13
43.0614395004
 23
149.5299240879
 33
0.0
  0
SOLID
  5
4D
330
49
100
AcDbEntity
  8
0
  6
Continuous
 62
     7
370
     0
100
AcDbTrace
 10
42.7614395004
 20
52.0299240879
 30
0.0
 11
43.0614395004
 21
54.5299240879
 31
0.0
 12
42.4614395004
 22
54.5299240879
 32
0.0
 13
42.4614395004
 23
54.5299240879
 33
0.0
  0
LINE
  5
4E
330
49
100
AcDbEntity
  8
0
  6
Continuous
 62
     7
370
     0
100
AcDbLine
 10
56.6850079902
 20
152.0299240879
 30
0.0
 11
41.7614395004
 21
152.0299240879
 31
0.0
  0
LINE
  5
4F
330
49
100
AcDbEntity
  8
0
  6
Continuous
 62
     7
370
     0
100
AcDbLine
 10
56.6850079902
 20
52.0299240879
 30
0.0
 11
41.7614395004
 21
52.0299240879
 31
0.0
  0
LINE
  5
50
330
49
100
AcDbEntity
  8
0
  6
Continuous
 62
     7
370
     0
100
AcDbLine
 10
42.7614395004
 20
152.0299240879
 30
0.0
 11
42.7614395004
 21
52.0299240879
 31
0.0
  0
MTEXT
  5
51
330
49
100
AcDbEntity
  8
0
  6
Continuous
 62
     7
370
     0
100
AcDbMText
 10
35.0270332946
 20
91.6722208134
 30
0.1
 40
6.0
 41
0.0
 46
0.0
 71
     1
 72
     1
  1
100
  7
SLDTEXTSTYLE0
 11
-7.044195017643634E-15
 21
1.0
 31
0.0
 73
     1
 44
1.0
  0
MTEXT
  5
52
330
49
100
AcDbEntity
  8
0
  6
Continuous
 62
     7
370
     0
100
AcDbMText
 10
35.0270332946
 20
108.4388881795
 30
0.1
 40
6.0
 41
0.0
 46
0.0
 71
     1
 72
     1
  1
mm
  7
SLDTEXTSTYLE0
 11
-7.044195017643634E-15
 21
1.0
 31
0.0
 73
     1
 44
1.0
  0
ENDBLK
  5
4B
330
49
100
AcDbEntity
  8
0
100
AcDbBlockEnd
  0
BLOCK
  5
55
330
54
100
AcDbEntity
  8
0
100
AcDbBlockBegin
  2
*D2
 70
     1
 10
0.0
 20
0.0
 30
0.0
  3
*D2
  1

  0
SOLID
  5
57
330
54
100
AcDbEntity
  8
0
  6
Continuous
 62
     7
370
     0
100
AcDbTrace
 10
56.6850079902
 20
38.4602342313
 30
0.0
 11
59.1850079902
 21
38.1602342313
 31
0.0
 12
59.1850079902
 22
38.7602342313
 32
0.0
 13
59.1850079902
 23
38.7602342313
 33
0.0
  0
SOLID
  5
58
330
54
100
AcDbEntity
  8
0
  6
Continuous
 62
     7
370
     0
100
AcDbTrace
 10
156.6850079902
 20
38.4602342313
 30
0.0
 11
154.1850079902
 21
38.7602342313
 31
0.0
 12
154.1850079902
 22
38.1602342313
 32
0.0
 13
154.1850079902
 23
38.1602342313
 33
0.0
  0
LINE
  5
59
330
54
100
AcDbEntity
  8
0
  6
Continuous
 62
     7
370
     0
100
AcDbLine
 10
56.6850079902
 20
52.0299240879
 30
0.0
 11
56.6850079902
 21
37.4602342313
 31
0.0
  0
LINE
  5
5A
330
54
100
AcDbEntity
  8
0
  6
Continuous
 62
     7
370
     0
100
AcDbLine
 10
156.6850079902
 20
52.0299240879
 30
0.0
 11
156.6850079902
 21
37.4602342313
 31
0.0
  0
LINE
  5
5B
330
54
100
AcDbEntity
  8
0
  6
Continuous
 62
     7
370
     0
100
AcDbLine
 10
56.6850079902
 20
38.4602342313
 30
0.0
 11
156.6850079902
 21
38.4602342313
 31
0.0
  0
MTEXT
  5
5C
330
54
100
AcDbEntity
  8
0
  6
Continuous
 62
     7
370
     0
100
AcDbMText
 10
91.2668151533
 20
46.1946404371
 30
0.1
 40
6.0
 41
0.0
 46
0.0
 71
     1
 72
     1
  1
100
  7
SLDTEXTSTYLE0
 73
     1
 44
1.0
  0
MTEXT
  5
5D
330
54
100
AcDbEntity
  8
0
  6
Continuous
 62
     7
370
     0
100
AcDbMText
 10
108.0334825193
 20
46.1946404371
 30
0.1
 40
6.0
 41
0.0
 46
0.0
 71
     1
 72
     1
  1
mm
  7
SLDTEXTSTYLE0
 73
     1
 44
1.0
  0
ENDBLK
  5
56
330
54
100
AcDbEntity
  8
0
100
AcDbBlockEnd
  0
ENDSEC
  0
SECTION
  2
ENTITIES
  0
LINE
  5
44
330
1F
100
AcDbEntity
  8
0
  6
Continuous
 62
     7
370
     0
100
AcDbLine
 10
56.6850079902
 20
152.0299240879
 30
0.0
 11
56.6850079902
 21
52.0299240879
 31
0.0
  0
LINE
  5
45
330
1F
100
AcDbEntity
  8
0
  6
Continuous
 62
     7
370
     0
100
AcDbLine
 10
56.6850079902
 20
52.0299240879
 30
0.0
 11
156.6850079902
 21
52.0299240879
 31
0.0
  0
DIMENSION
  5
46
330
1F
100
AcDbEntity
  8
0
  6
Continuous
 62
     7
370
     0
100
AcDbDimension
280
     0
  2
*D1
 10
42.7614395004
 20
52.0299240879
 30
0.0
 11
42.7614395004
 21
105.4472211621
 31
0.0
 70
   160
  1
<>mm
 71
     2
 42
-1.0
 73
     0
 74
     0
 75
     0
  3
SLDDIMSTYLE0
100
AcDbAlignedDimension
 13
56.6850079902
 23
152.0299240879
 33
0.0
 14
56.6850079902
 24
52.0299240879
 34
0.0
 50
90.0
100
AcDbRotatedDimension
  0
DIMENSION
  5
53
330
1F
100
AcDbEntity
  8
0
  6
Continuous
 62
     7
370
     0
100
AcDbDimension
280
     0
  2
*D2
 10
156.6850079902
 20
38.4602342313
 30
0.0
 11
105.0418155019
 21
38.4602342313
 31
0.0
 70
   160
  1
<>mm
 71
     2
 42
-1.0
 73
     0
 74
     0
 75
     0
  3
SLDDIMSTYLE0
100
AcDbAlignedDimension
 13
56.6850079902
 23
52.0299240879
 33
0.0
 14
156.6850079902
 24
52.0299240879
 34
0.0
100
AcDbRotatedDimension
  0
MTEXT
  5
5F
330
1F
100
AcDbEntity
  8
0
  6
Continuous
 62
     7
370
     0
100
AcDbMText
 10
256.5949605679
 20
48.1410674553
 30
0.0
 40
10.0
 41
0.0
 46
0.0
 71
     1
 72
     1
  1
38 244 05 75
  7
SLDTEXTSTYLE1
 73
     1
 44
1.0
  0
MTEXT
  5
60
330
1F
100
AcDbEntity
  8
0
  6
Continuous
 62
     7
370
     0
100
AcDbMText
 10
412.8252631579
 20
48.4342449499
 30
0.0
 40
10.0
 41
0.0
 46
0.0
 71
     1
 72
     1
  1
KLUDI GmbH & Co KG
  7
SLDTEXTSTYLE1
 73
     1
 44
1.0
  0
LINE
  5
61
330
1F
100
AcDbEntity
  8
0
  6
Continuous
 62
     7
370
    15
100
AcDbLine
 10
160.6843123652
 20
529.6359874342
 30
0.0
 11
161.2757180325
 21
529.818452153
 31
0.0
  0
LINE
  5
62
330
1F
100
AcDbEntity
  8
0
  6
Continuous
 62
     7
370
    15
100
AcDbLine
 10
147.0819820158
 20
529.818452153
 30
0.0
 11
147.6733876831
 21
529.6359874342
 31
0.0
  0
LINE
  5
63
330
1F
100
AcDbEntity
  8
0
  6
Continuous
 62
     7
370
    15
100
AcDbLine
 10
166.2148504026
 20
533.926765624
 30
0.0
 11
166.2148504026
 21
540.699719641
 31
0.0
  0
LINE
  5
64
330
1F
100
AcDbEntity
  8
0
  6
Continuous
 62
     7
370
    15
100
AcDbLine
 10
142.1428496457
 20
540.699719641
 30
0.0
 11
142.1428496457
 21
533.926765624
 31
0.0
  0
LINE
  5
65
330
1F
100
AcDbEntity
  8
0
  6
Continuous
 62
     7
370
    15
100
AcDbLine
 10
167.2178503565
 20
539.6560236845
 30
0.0
 11
167.2178503565
 21
556.6114664111
 31
0.0
  0
LINE
  5
66
330
1F
100
AcDbEntity
  8
0
  6
Continuous
 62
     7
370
    15
100
AcDbLine
 10
141.1398496918
 20
556.6114664111
 30
0.0
 11
141.1398496918
 21
539.6560236845
 31
0.0
  0
LINE
  5
67
330
1F
100
AcDbEntity
  8
0
  6
Continuous
 62
     7
370
    15
100
AcDbLine
 10
141.1398496918
 20
579.7760220866
 30
0.0
 11
141.1398496918
 21
556.6114664111
 31
0.0
  0
LINE
  5
68
330
1F
100
AcDbEntity
  8
0
  6
Continuous
 62
     7
370
    15
100
AcDbLine
 10
167.2178503565
 20
556.6114664111
 30
0.0
 11
167.2178503565
 21
579.7760220866
 31
0.0
  0
SPLINE
  5
69
330
1F
100
AcDbEntity
  8
0
  6
Continuous
 62
     7
370
    15
100
AcDbSpline
210
0.0
220
0.0
230
1.0
 70
     8
 71
     3
 72
    15
 73
    11
 74
     0
 42
0.00000001
 43
0.00000001
 40
0.0
 40
0.0
 40
0.0
 40
0.0
 40
0.0452427951134408
 40
0.0668445832455253
 40
0.0808025844474418
 40
0.0960994820754985
 40
0.121008492052097
 40
0.1765096710515933
 40
0.3602229615251005
 40
1.0
 40
1.0
 40
1.0
 40
1.0
 10
275.2098735861056
 20
559.5193162593872
 30
0.0
 10
275.2160965665884
 20
559.5229876496591
 30
0.0
 10
275.225290793777
 20
559.5284119951715
 30
0.0
 10
275.2352901157061
 20
559.533999836247
 30
0.0
 10
275.2396690082676
 20
559.5364413854558
 30
0.0
 10
275.2425389296781
 20
559.538034691968
 30
0.0
 10
275.2451705844039
 20
559.5394845374658
 30
0.0
 10
275.2474396328882
 20
559.5407467907037
 30
0.0
 10
275.2462459335702
 20
559.5400559529038
 30
0.0
 10
275.2291183063668
 20
559.5307270105012
 30
0.0
 10
275.2158116988414
 20
559.5234792712957
 30
0.0
  0
LWPOLYLINE
  5
6A
330
1F
100
AcDbEntity
  8
0
  6
Continuous
 62
     7
370
    15
100
AcDbPolyline
 90
       12
 70
   128
 43
0.0
 10
253.1146105818
 20
559.5383562181
 10
253.1117272071
 20
559.5399282906
 10
253.1147297911
 20
559.5382705364
 10
253.1183805756
 20
559.5362458411
 10
253.1227689676
 20
559.5337946001
 10
253.1312849812
 20
559.5289982889
 10
253.1656247071
 20
559.509103376
 10
253.231480389
 20
559.468333799
 10
253.3396181158
 20
559.3933269415
 10
253.6586445264
 20
559.0973563526
 10
253.6913004212
 20
559.049015123
 10
253.6913004212
 20
559.049015123
  0
LWPOLYLINE
  5
6B
330
1F
100
AcDbEntity
  8
0
  6
Continuous
 62
     7
370
    15
100
AcDbPolyline
 90
       20
 70
   128
 43
0.0
 10
154.1788500261
 20
528.7391945753
 10
155.9948221754
 20
528.802789006
 10
157.7612593744
 20
528.9918325875
 10
159.429977785
 20
529.3011769686
 10
160.9554590165
 20
529.7223769162
 10
162.2960918091
 20
530.2439473603
 10
163.4153077818
 20
530.8516614172
 10
164.2825767837
 20
531.52893782
 10
164.8742432214
 20
532.2573028538
 10
165.1741663433
 20
533.016893271
 10
165.1741663433
 20
533.7869890068
 10
164.8742432214
 20
534.5465756986
 10
164.2825767837
 20
535.2749444578
 10
163.4153077818
 20
535.9522208605
 10
162.2960918091
 20
536.5599349175
 10
160.9554590165
 20
537.0815016363
 10
159.429977785
 20
537.5027053092
 10
157.7612593744
 20
537.812045965
 10
155.9948221754
 20
538.0010932717
 10
154.1788500261
 20
538.0646877024
  0
SPLINE
  5
6C
330
1F
100
AcDbEntity
  8
0
  6
Continuous
 62
     7
370
    15
100
AcDbSpline
210
0.0
220
0.0
230
1.0
 70
     8
 71
     3
 72
     8
 73
     4
 74
     0
 42
0.00000001
 43
0.00000001
 40
0.0
 40
0.0
 40
0.0
 40
0.0
 40
1.0
 40
1.0
 40
1.0
 40
1.0
 10
158.989069043996
 20
538.5895147380919
 30
0.0
 10
157.4035402502743
 20
538.257947287938
 30
0.0
 10
155.8022246647348
 20
538.064687922143
 30
0.0
 10
154.1788500261125
 20
538.064687922143
 30
0.0
  0
LWPOLYLINE
  5
6D
330
1F
100
AcDbEntity
  8
0
  6
Continuous
 62
     7
370
    15
100
AcDbPolyline
 90
       15
 70
   128
 43
0.0
 10
161.2757180325
 20
529.818452153
 10
162.1186431936
 20
530.1038838956
 10
163.4170130334
 20
530.6662574444
 10
164.4949602402
 20
531.3064262304
 10
165.3267635472
 20
532.0091165636
 10
165.8925764702
 20
532.7575646374
 10
166.1788985572
 20
533.533907685
 10
166.1788985572
 20
534.3196272883
 10
165.8925764702
 20
535.095970336
 10
165.3267635472
 20
535.8444184098
 10
164.4949602402
 20
536.547108743
 10
163.4170130334
 20
537.187277529
 10
162.1186431936
 20
537.7496510778
 10
160.6308283723
 20
538.2208108935
 10
158.9890691891
 20
538.5895140502
  0
LINE
  5
6E
330
1F
100
AcDbEntity
  8
0
  6
Continuous
 62
     7
370
    15
100
AcDbLine
 10
158.9890691891
 20
541.7007945511
 30
0.0
 11
158.9890691891
 21
538.5895140502
 31
0.0
  0
SPLINE
  5
6F
330
1F
100
AcDbEntity
  8
0
  6
Continuous
 62
     7
370
    15
100
AcDbSpline
210
0.0
220
0.0
230
1.0
 70
     8
 71
     3
 72
    10
 73
     6
 74
     0
 42
0.00000001
 43
0.00000001
 40
0.0
 40
0.0
 40
0.0
 40
0.0
 40
0.5
 40
0.5
 40
1.0
 40
1.0
 40
1.0
 40
1.0
 10
154.1788500261125
 20
538.064687922143
 30
0.0
 10
153.3690530502829
 20
538.0646879221429
 30
0.0
 10
152.5497664050284
 20
538.112833278829
 30
0.0
 10
150.9434924046069
 20
538.2937753439012
 30
0.0
 10
150.1517138049156
 20
538.4257556394335
 30
0.0
 10
149.3686310082301
 20
538.5895147380916
 30
0.0
  0
LINE
  5
70
330
1F
100
AcDbEntity
  8
0
  6
Continuous
 62
     7
370
    15
100
AcDbLine
 10
149.3686308592
 20
538.5895140502
 30
0.0
 11
149.3686308592
 21
541.7007945511
 31
0.0
  0
LINE
  5
71
330
1F
100
AcDbEntity
  8
0
  6
Continuous
 62
     7
370
    15
100
AcDbLine
 10
149.3686308592
 20
541.7007945511
 30
0.0
 11
158.9890691891
 21
541.7007945511
 31
0.0
  0
LWPOLYLINE
  5
72
330
1F
100
AcDbEntity
  8
0
  6
Continuous
 62
     7
370
    15
100
AcDbPolyline
 90
       15
 70
   128
 43
0.0
 10
149.3686308592
 20
538.5895140502
 10
147.726871676
 20
538.2208108935
 10
146.2390568547
 20
537.7496510778
 10
144.9406870149
 20
537.187277529
 10
143.8627398081
 20
536.547108743
 10
143.0309365011
 20
535.8444184098
 10
142.4651235781
 20
535.095970336
 10
142.1788014911
 20
534.3196272883
 10
142.1788014911
 20
533.533907685
 10
142.4651235781
 20
532.7575646374
 10
143.0309365011
 20
532.0091165636
 10
143.8627398081
 20
531.3064262304
 10
144.9406870149
 20
530.6662574444
 10
146.2390568547
 20
530.1038838956
 10
147.0819820158
 20
529.818452153
  0
LWPOLYLINE
  5
73
330
1F
100
AcDbEntity
  8
0
  6
Continuous
 62
     7
370
    15
100
AcDbPolyline
 90
       20
 70
   128
 43
0.0
 10
154.1788500261
 20
538.0646877024
 10
152.3628778729
 20
538.0010932717
 10
150.5964406739
 20
537.812045965
 10
148.9277222633
 20
537.5027053092
 10
147.4022410318
 20
537.0815016363
 10
146.0616082392
 20
536.5599349175
 10
144.9423922665
 20
535.9522208605
 10
144.0751232646
 20
535.2749444578
 10
143.4834568269
 20
534.5465756986
 10
143.183533705
 20
533.7869890068
 10
143.183533705
 20
533.016893271
 10
143.4834568269
 20
532.2573028538
 10
144.0751232646
 20
531.52893782
 10
144.9423922665
 20
530.8516614172
 10
146.0616082392
 20
530.2439473603
 10
147.4022410318
 20
529.7223769162
 10
148.9277222633
 20
529.3011769686
 10
150.5964406739
 20
528.9918325875
 10
152.3628778729
 20
528.802789006
 10
154.1788500261
 20
528.7391945753
  0
LWPOLYLINE
  5
74
330
1F
100
AcDbEntity
  8
0
  6
Continuous
 62
     7
370
    15
100
AcDbPolyline
 90
       14
 70
   128
 43
0.0
 10
155.0650100896
 20
537.3475432429
 10
154.1788500261
 20
537.3652756248
 10
152.5503687068
 20
537.3050637577
 10
150.9713680923
 20
537.1262572739
 10
149.4898247972
 20
536.8342913721
 10
148.1507556952
 20
536.438032243
 10
146.99484701
 20
535.9495237503
 10
146.0572207786
 20
535.3836074505
 10
145.3663656927
 20
534.7574792836
 10
144.9432732977
 20
534.0901680324
 10
144.8007995702
 20
533.4019392762
 10
144.9432732977
 20
532.7137142453
 10
145.3663656927
 20
532.0463992689
 10
145.9737481989
 20
531.4826697145
  0
ARC
  5
75
330
1F
100
AcDbEntity
  8
0
  6
Continuous
 62
     7
370
    15
100
AcDbCircle
 10
154.1788500242
 20
514.7839814896
 30
0.0
 40
27.34324475630382
100
AcDbArc
 50
79.8678086186
 51
100.1321913814
  0
LWPOLYLINE
  5
76
330
1F
100
AcDbEntity
  8
0
  6
Continuous
 62
     7
370
    15
100
AcDbPolyline
 90
       25
 70
   128
 43
0.0
 10
166.2148504026
 20
538.6123240027
 10
166.399254135
 20
539.1171306405
 10
166.451280608
 20
539.9066425893
 10
166.219375699
 20
540.6903542612
 10
165.7089047573
 20
541.4501383934
 10
164.9316769532
 20
542.1684116159
 10
163.9056761257
 20
542.8285628591
 10
162.6546379618
 20
543.4153109822
 10
161.2075061045
 20
543.9150884781
 10
159.5977616004
 20
544.3163283203
 10
157.8626464095
 20
544.6097470853
 10
156.0423043763
 20
544.7885610197
 10
154.1788499427
 20
544.8486276004
 10
152.3153954392
 20
544.7885610197
 10
150.495053406
 20
544.6097470853
 10
148.7599384479
 20
544.3163283203
 10
147.1501939438
 20
543.9150884781
 10
145.7030620865
 20
543.4153109822
 10
144.4520239226
 20
542.8285628591
 10
143.4260230951
 20
542.1684116159
 10
142.648795291
 20
541.4501383934
 10
142.1383243493
 20
540.6903542612
 10
141.9064194403
 20
539.9066425893
 10
141.9584459133
 20
539.1171306405
 10
142.1428496457
 20
538.6123240027
  0
LWPOLYLINE
  5
77
330
1F
100
AcDbEntity
  8
0
  6
Continuous
 62
     7
370
    15
100
AcDbPolyline
 90
       25
 70
   128
 43
0.0
 10
167.2178503565
 20
539.6560236845
 10
167.0722147889
 20
540.4773235354
 10
166.6385639898
 20
541.2802763317
 10
165.9265827827
 20
542.0469485257
 10
164.9521772258
 20
542.7602075074
 10
163.7371132589
 20
543.4041276608
 10
162.3085333474
 20
543.9643181894
 10
160.6983501903
 20
544.4282732937
 10
158.9425314657
 20
544.7856217656
 10
157.0803005222
 20
545.0283803079
 10
155.1532556975
 20
545.1511323485
 10
153.2044443508
 20
545.1511323485
 10
151.2773995261
 20
545.0283803079
 10
149.4151685826
 20
544.7856217656
 10
147.659349858
 20
544.4282732937
 10
146.0491667009
 20
543.9643181894
 10
144.6205867894
 20
543.4041276608
 10
143.4055228225
 20
542.7602075074
 10
142.4311172656
 20
542.0469485257
 10
141.7191360585
 20
541.2802763317
 10
141.2854852594
 20
540.4773235354
 10
141.1398496918
 20
539.6560236845
 10
141.2854852594
 20
538.8347201083
 10
141.7191360585
 20
538.0317673121
 10
142.1428496457
 20
537.5365905497
  0
ARC
  5
78
330
1F
100
AcDbEntity
  8
0
  6
Continuous
 62
     7
370
    15
100
AcDbCircle
 10
164.105417715
 20
539.8319041733
 30
0.0
 40
3.117398096865402
100
AcDbArc
 50
312.5835435274
 51
356.7657119166
  0
LINE
  5
79
330
1F
100
AcDbEntity
  8
0
  6
Continuous
 62
     7
370
    15
100
AcDbLine
 10
166.2148504026
 20
539.9758622084
 30
0.0
 11
166.359235204
 21
540.3377927873
 31
0.0
  0
LINE
  5
7A
330
1F
100
AcDbEntity
  8
0
  6
Continuous
 62
     7
370
    15
100
AcDbLine
 10
141.9984648443
 20
540.3377927873
 30
0.0
 11
142.1428496457
 21
539.9758622084
 31
0.0
  0
LWPOLYLINE
  5
7B
330
1F
100
AcDbEntity
  8
0
  6
Continuous
 62
     7
370
    15
100
AcDbPolyline
 90
       36
 70
   128
 43
0.0
 10
154.1788500261
 20
529.3415777419
 10
155.8175470188
 20
529.4039055738
 10
157.4035749279
 20
529.5888923142
 10
158.8859573446
 20
529.8905923996
 10
160.2170496687
 20
530.2993051741
 10
161.3540692694
 20
530.8018952642
 10
162.2604715146
 20
531.382209811
 10
162.9071232371
 20
532.0215962861
 10
163.2732419736
 20
532.6995022628
 10
163.3470586009
 20
533.3941459689
 10
163.1262019716
 20
534.083194289
 10
162.6177706264
 20
534.7445040975
 10
161.8381041541
 20
535.3568226132
 10
160.8122639797
 20
535.9004616771
 10
159.5732198536
 20
536.3579534028
 10
158.160796526
 20
536.7145940695
 10
156.6203899189
 20
536.958920959
 10
155.0015103045
 20
537.0830811594
 10
153.3561897438
 20
537.0830811594
 10
151.7373101294
 20
536.958920959
 10
150.1969035223
 20
536.7145940695
 10
148.7844801947
 20
536.3579534028
 10
147.5454365342
 20
535.9004616771
 10
146.5195958942
 20
535.3568226132
 10
145.7399294219
 20
534.7445040975
 10
145.2314980767
 20
534.083194289
 10
145.0106414474
 20
533.3941459689
 10
145.0844580747
 20
532.6995022628
 10
145.4505768112
 20
532.0215962861
 10
146.0972285337
 20
531.382209811
 10
147.0036307789
 20
530.8018952642
 10
148.1406503796
 20
530.2993051741
 10
149.4717427037
 20
529.8905923996
 10
150.9541251204
 20
529.5888923142
 10
152.5401530295
 20
529.4039055738
 10
154.1788500261
 20
529.3415777419
  0
LWPOLYLINE
  5
7C
330
1F
100
AcDbEntity
  8
0
  6
Continuous
 62
     7
370
    15
100
AcDbPolyline
 90
       36
 70
   128
 43
0.0
 10
154.1788500261
 20
529.4477857683
 10
152.5850268287
 20
529.5084111426
 10
151.042430333
 20
529.6883314881
 10
149.6006410077
 20
529.9817688797
 10
148.3059992522
 20
530.3792871568
 10
147.2001156278
 20
530.8681160245
 10
146.3185340605
 20
531.4325384829
 10
145.6895895741
 20
532.0544160936
 10
145.3334974564
 20
532.7137589488
 10
145.2617017991
 20
533.3893813226
 10
145.4765104197
 20
534.0595610473
 10
145.9710194237
 20
534.7027622197
 10
146.7293353259
 20
535.2983094785
 10
147.7270844832
 20
535.8270660076
 10
148.9321986652
 20
536.272029582
 10
150.305944632
 20
536.6189025376
 10
151.8041688457
 20
536.8565388057
 10
153.3787173309
 20
536.977297816
 10
154.9789827174
 20
536.977297816
 10
156.5535312026
 20
536.8565388057
 10
158.0517554164
 20
536.6189025376
 10
159.4255013831
 20
536.272029582
 10
160.6306155651
 20
535.8270660076
 10
161.6283647224
 20
535.2983094785
 10
162.3866806246
 20
534.7027622197
 10
162.8811896286
 20
534.0595610473
 10
163.0959982492
 20
533.3893813226
 10
163.0242025919
 20
532.7137589488
 10
162.6681104742
 20
532.0544160936
 10
162.0391659878
 20
531.4325384829
 10
161.1575844205
 20
530.8681160245
 10
160.0517007961
 20
530.3792871568
 10
158.7570590406
 20
529.9817688797
 10
157.3152697153
 20
529.6883314881
 10
155.7726732196
 20
529.5084111426
 10
154.1788500261
 20
529.4477857683
  0
LWPOLYLINE
  5
7D
330
1F
100
AcDbEntity
  8
0
  6
Continuous
 62
     7
370
    15
100
AcDbPolyline
 90
       12
 70
   128
 43
0.0
 10
154.1788500261
 20
529.5991219614
 10
155.7551586508
 20
529.6590805087
 10
157.2808035623
 20
529.8370264504
 10
158.7067489951
 20
530.1272377405
 10
159.987163867
 20
530.5203862522
 10
161.0808951288
 20
531.0038432512
 10
161.9527890786
 20
531.5620631013
 10
162.5748217545
 20
532.1771085296
 10
162.9270013861
 20
532.8292094204
 10
162.9980082131
 20
533.4974035654
 10
162.785559564
 20
534.1602183912
 10
162.3991035364
 20
534.6904203329
  0
LWPOLYLINE
  5
7E
330
1F
100
AcDbEntity
  8
0
  6
Continuous
 62
     7
370
    15
100
AcDbPolyline
 90
       12
 70
   128
 43
0.0
 10
145.9585965119
 20
534.6904203329
 10
145.5721404843
 20
534.1602183912
 10
145.3596918352
 20
533.4974035654
 10
145.4306986622
 20
532.8292094204
 10
145.7828782938
 20
532.1771085296
 10
146.4049114354
 20
531.5620631013
 10
147.2768049195
 20
531.0038432512
 10
148.3705361813
 20
530.5203862522
 10
149.6509510532
 20
530.1272377405
 10
151.076896486
 20
529.8370264504
 10
152.6025413975
 20
529.6590805087
 10
154.1788500261
 20
529.5991219614
  0
ARC
  5
7F
330
1F
100
AcDbEntity
  8
0
  6
Continuous
 62
     7
370
    15
100
AcDbCircle
 10
154.1788500242
 20
579.7760220867
 30
0.0
 40
13.03900000000002
100
AcDbArc
 50
0.0
 51
180.0
  0
ARC
  5
80
330
1F
100
AcDbEntity
  8
0
  6
Continuous
 62
     7
370
    15
100
AcDbCircle
 10
154.1788500242
 20
579.7760220867
 30
0.0
 40
34.85425000000002
100
AcDbArc
 50
180.0
 51
248.0312572874
  0
ARC
  5
81
330
1F
100
AcDbEntity
  8
0
  6
Continuous
 62
     7
370
    15
100
AcDbCircle
 10
154.1788500242
 20
579.7760220867
 30
0.0
 40
34.85425000000002
100
AcDbArc
 50
291.9687427126
 51
180.0
  0
CIRCLE
  5
82
330
1F
100
AcDbEntity
  8
0
  6
Continuous
 62
     7
370
    15
100
AcDbCircle
 10
264.1788500339
 20
579.7809336354
 30
0.0
 40
23.06900000000002
  0
ARC
  5
83
330
1F
100
AcDbEntity
  8
0
  6
Continuous
 62
     7
370
    15
100
AcDbCircle
 10
276.2148500339
 20
557.7834262993
 30
0.0
 40
2.005999999999972
100
AcDbArc
 50
118.6854020141
 51
180.0
  0
ARC
  5
84
330
1F
100
AcDbEntity
  8
0
  6
Continuous
 62
     7
370
    15
100
AcDbCircle
 10
252.1428500339
 20
557.7834262993
 30
0.0
 40
2.006000000000057
100
AcDbArc
 50
0.0
 51
61.3145979859
  0
LINE
  5
85
330
1F
100
AcDbEntity
  8
0
  6
Continuous
 62
     7
370
    15
100
AcDbLine
 10
254.1488480262
 20
507.5649313662
 30
0.0
 11
254.1488480262
 21
557.7834259752
 31
0.0
  0
LINE
  5
86
330
1F
100
AcDbEntity
  8
0
  6
Continuous
 62
     7
370
    15
100
AcDbLine
 10
274.20885083
 20
557.7834259752
 30
0.0
 11
274.20885083
 21
507.5649313662
 31
0.0
  0
ARC
  5
87
330
1F
100
AcDbEntity
  8
0
  6
Continuous
 62
     7
370
    15
100
AcDbCircle
 10
269.1938500339
 20
507.5649336354
 30
0.0
 40
5.014999999999986
100
AcDbArc
 50
270.0
 51
0.0
  0
ARC
  5
88
330
1F
100
AcDbEntity
  8
0
  6
Continuous
 62
     7
370
    15
100
AcDbCircle
 10
259.1638500339
 20
507.5649336354
 30
0.0
 40
5.015000000000015
100
AcDbArc
 50
180.0
 51
270.0
  0
LINE
  5
89
330
1F
100
AcDbEntity
  8
0
  6
Continuous
 62
     7
370
    15
100
AcDbLine
 10
269.1938501291
 20
502.5499306653
 30
0.0
 11
259.1638487272
 21
502.5499306653
 31
0.0
  0
ARC
  5
8A
330
1F
100
AcDbEntity
  8
0
  6
Continuous
 62
     7
370
    15
100
AcDbCircle
 10
264.1788500339
 20
579.7809336354
 30
0.0
 40
34.85425000000006
100
AcDbArc
 50
180.0
 51
253.2755167346
  0
ARC
  5
8B
330
1F
100
AcDbEntity
  8
0
  6
Continuous
 62
     7
370
    15
100
AcDbCircle
 10
264.1788500339
 20
579.7809336354
 30
0.0
 40
34.85425000000006
100
AcDbArc
 50
286.7244832654
 51
180.0
  0
ARC
  5
8C
330
1F
100
AcDbEntity
  8
0
  6
Continuous
 62
     8
370
     0
100
AcDbCircle
 10
154.1788500242
 20
579.7760220867
 30
0.0
 40
33.85125000000001
100
AcDbArc
 50
180.0
 51
247.3447627351
  0
ARC
  5
8D
330
1F
100
AcDbEntity
  8
0
  6
Continuous
 62
     8
370
     0
100
AcDbCircle
 10
154.1788500242
 20
579.7760220867
 30
0.0
 40
33.85125000000001
100
AcDbArc
 50
292.6552372649
 51
180.0
  0
CIRCLE
  5
8E
330
1F
100
AcDbEntity
  8
0
  6
Continuous
 62
     8
370
     0
100
AcDbCircle
 10
264.1788500339
 20
579.7809336354
 30
0.0
 40
21.56450000000004
  0
SPLINE
  5
8F
330
1F
100
AcDbEntity
  8
0
  6
Continuous
 62
     8
370
     0
100
AcDbSpline
210
0.0
220
0.0
230
1.0
 70
     8
 71
     3
 72
    16
 73
    12
 74
     0
 42
0.00000001
 43
0.00000001
 40
0.0
 40
0.0
 40
0.0
 40
0.0
 40
0.1249999999999973
 40
0.1249999999999973
 40
0.2499999999999945
 40
0.2499999999999945
 40
0.4999999999999963
 40
0.4999999999999963
 40
0.7499999999999981
 40
0.7499999999999981
 40
1.0
 40
1.0
 40
1.0
 40
1.0
 10
274.2088500339107
 20
557.7834262993342
 30
0.0
 10
274.2088500339107
 20
557.7834262993342
 30
0.0
 10
274.195856161419
 20
557.7620197176932
 30
0.0
 10
274.1527880567794
 20
557.6921127203076
 30
0.0
 10
274.1224599239641
 20
557.6432833949114
 30
0.0
 10
274.0190584779785
 20
557.4801101194229
 30
0.0
 10
273.9350359401308
 20
557.3513853177
 30
0.0
 10
273.7498217195942
 20
557.0820686336474
 30
0.0
 10
273.6498519762166
 20
556.9430438351211
 30
0.0
 10
273.4359554696978
 20
556.6627162293263
 30
0.0
 10
273.3240012175805
 20
556.5239282688924
 30
0.0
 10
273.2058500339107
 20
556.3871546332746
 30
0.0
  0
SPLINE
  5
90
330
1F
100
AcDbEntity
  8
0
  6
Continuous
 62
     8
370
     0
100
AcDbSpline
210
0.0
220
0.0
230
1.0
 70
     8
 71
     3
 72
    18
 73
    14
 74
     0
 42
0.00000001
 43
0.00000001
 40
0.0
 40
0.0
 40
0.0
 40
0.0
 40
0.2500000000000059
 40
0.2500000000000059
 40
0.5000000000000118
 40
0.5000000000000118
 40
0.6250000000000088
 40
0.6250000000000088
 40
0.7500000000000059
 40
0.7500000000000059
 40
0.8750000000000029
 40
0.8750000000000029
 40
1.0
 40
1.0
 40
1.0
 40
1.0
 10
255.1518500339107
 20
556.3871546332746
 30
0.0
 10
255.0337591161381
 20
556.5238585041589
 30
0.0
 10
254.9213386676078
 20
556.6632317810116
 30
0.0
 10
254.7075929760272
 20
556.9433946854684
 30
0.0
 10
254.6073917914517
 20
557.0827559286951
 30
0.0
 10
254.4685448840577
 20
557.2846811028816
 30
0.0
 10
254.4246199157043
 20
557.3501471015024
 30
0.0
 10
254.3420042654723
 20
557.4757172731468
 30
0.0
 10
254.3030655368607
 20
557.5362402964852
 30
0.0
 10
254.2351068641252
 20
557.6435047454542
 30
0.0
 10
254.2051924632764
 20
557.6916587141014
 30
0.0
 10
254.1617753594752
 20
557.7621297707856
 30
0.0
 10
254.1488500339107
 20
557.7834262993342
 30
0.0
 10
254.1488500339107
 20
557.7834262993342
 30
0.0
  0
LINE
  5
91
330
1F
100
AcDbEntity
  8
0
  6
Continuous
 62
     8
370
     0
100
AcDbLine
 10
255.1518526367
 20
556.3871555064
 30
0.0
 11
255.1518526367
 21
507.5649313662
 31
0.0
  0
LINE
  5
92
330
1F
100
AcDbEntity
  8
0
  6
Continuous
 62
     8
370
     0
100
AcDbLine
 10
273.20585367
 20
507.5649313662
 30
0.0
 11
273.20585367
 21
556.3871555064
 31
0.0
  0
ARC
  5
93
330
1F
100
AcDbEntity
  8
0
  6
Continuous
 62
     8
370
     0
100
AcDbCircle
 10
269.1938500339
 20
507.5649336354
 30
0.0
 40
4.012000000000057
100
AcDbArc
 50
270.0
 51
0.0
  0
LINE
  5
94
330
1F
100
AcDbEntity
  8
0
  6
Continuous
 62
     8
370
     0
100
AcDbLine
 10
259.1638487272
 20
503.5529352758
 30
0.0
 11
269.1938501291
 21
503.5529352758
 31
0.0
  0
ARC
  5
95
330
1F
100
AcDbEntity
  8
0
  6
Continuous
 62
     8
370
     0
100
AcDbCircle
 10
259.1638500339
 20
507.5649336354
 30
0.0
 40
4.012000000000057
100
AcDbArc
 50
180.0
 51
270.0
  0
ARC
  5
96
330
1F
100
AcDbEntity
  8
0
  6
Continuous
 62
     8
370
     0
100
AcDbCircle
 10
264.1788500339
 20
579.7809336354
 30
0.0
 40
33.85125000000002
100
AcDbArc
 50
180.0
 51
252.7647147429
  0
ARC
  5
97
330
1F
100
AcDbEntity
  8
0
  6
Continuous
 62
     8
370
     0
100
AcDbCircle
 10
264.1788500339
 20
579.7809336354
 30
0.0
 40
33.85125000000002
100
AcDbArc
 50
287.2352852571
 51
180.0
  0
ARC
  5
98
330
1F
100
AcDbEntity
  8
0
  6
Continuous
 62
     7
370
    15
100
AcDbCircle
 10
380.3586592291
 20
613.6272720867
 30
0.0
 40
1.002999999999986
100
AcDbArc
 50
0.0
 51
90.0
  0
ARC
  5
99
330
1F
100
AcDbEntity
  8
0
  6
Continuous
 62
     7
370
    15
100
AcDbCircle
 10
380.3586592291
 20
545.9247720867
 30
0.0
 40
1.003000000000043
100
AcDbArc
 50
270.0
 51
0.0
  0
LINE
  5
9A
330
1F
100
AcDbEntity
  8
0
  6
Continuous
 62
     7
370
    15
100
AcDbLine
 10
380.358659226
 20
614.6302737329
 30
0.0
 11
374.3406592696
 21
614.6302737329
 31
0.0
  0
LINE
  5
9B
330
1F
100
AcDbEntity
  8
0
  6
Continuous
 62
     7
370
    15
100
AcDbLine
 10
374.3406592696
 20
544.9217736754
 30
0.0
 11
380.358659226
 21
544.9217736754
 31
0.0
  0
ARC
  5
9C
330
1F
100
AcDbEntity
  8
0
  6
Continuous
 62
     7
370
    15
100
AcDbCircle
 10
501.7216592291
 20
539.6560220867
 30
0.0
 40
27.08099999999996
100
AcDbArc
 50
25.0
 51
90.0
  0
ARC
  5
9D
330
1F
100
AcDbEntity
  8
0
  6
Continuous
 62
     7
370
    15
100
AcDbCircle
 10
501.7216592291
 20
539.6560220867
 30
0.0
 40
53.15899999999999
100
AcDbArc
 50
25.0
 51
90.0
  0
LINE
  5
9E
330
1F
100
AcDbEntity
  8
0
  6
Continuous
 62
     7
370
    15
100
AcDbLine
 10
381.3616591799
 20
566.7370224405
 30
0.0
 11
501.7216555136
 21
566.7370224405
 31
0.0
  0
LINE
  5
9F
330
1F
100
AcDbEntity
  8
0
  6
Continuous
 62
     7
370
    15
100
AcDbLine
 10
501.7216555136
 20
592.8150221739
 30
0.0
 11
381.3616591799
 21
592.8150221739
 31
0.0
  0
LINE
  5
A0
330
1F
100
AcDbEntity
  8
0
  6
Continuous
 62
     7
370
    15
100
AcDbLine
 10
557.8065268057
 20
545.1665401492
 30
0.0
 11
549.9000749844
 21
562.1219866011
 31
0.0
  0
LINE
  5
A1
330
1F
100
AcDbEntity
  8
0
  6
Continuous
 62
     7
370
    15
100
AcDbLine
 10
526.2653730171
 20
551.1009480838
 30
0.0
 11
534.1718397396
 21
534.1455034945
 31
0.0
  0
LINE
  5
A2
330
1F
100
AcDbEntity
  8
0
  6
Continuous
 62
     7
370
    15
100
AcDbLine
 10
371.3316592332
 20
566.7370224405
 30
0.0
 11
374.3406592696
 21
566.7370224405
 31
0.0
  0
LINE
  5
A3
330
1F
100
AcDbEntity
  8
0
  6
Continuous
 62
     7
370
    15
100
AcDbLine
 10
374.3406592696
 20
592.8150221739
 30
0.0
 11
371.3316592332
 21
592.8150221739
 31
0.0
  0
LINE
  5
A4
330
1F
100
AcDbEntity
  8
0
  6
Continuous
 62
     7
370
    15
100
AcDbLine
 10
557.7917895573
 20
542.124680433
 30
0.0
 11
556.6293201702
 21
544.6175999973
 31
0.0
  0
LINE
  5
A5
330
1F
100
AcDbEntity
  8
0
  6
Continuous
 62
     7
370
    15
100
AcDbLine
 10
534.8126790779
 20
534.4443313811
 30
0.0
 11
535.975148465
 21
531.9514155421
 31
0.0
  0
ARC
  5
A6
330
1F
100
AcDbEntity
  8
0
  6
Continuous
 62
     7
370
    15
100
AcDbCircle
 10
540.2614135781
 20
529.5233826741
 30
0.0
 40
0.2005999999999959
100
AcDbArc
 50
204.9999999999
 51
295.0
  0
ARC
  5
A7
330
1F
100
AcDbEntity
  8
0
  6
Continuous
 62
     7
370
    15
100
AcDbCircle
 10
556.8966023783
 20
537.2804986066
 30
0.0
 40
0.2006000000000509
100
AcDbArc
 50
295.0
 51
25.0000000001
  0
LINE
  5
A8
330
1F
100
AcDbEntity
  8
0
  6
Continuous
 62
     7
370
    15
100
AcDbLine
 10
380.3809150415
 20
614.6351836655
 30
0.0
 11
374.362915318
 21
614.6351836655
 31
0.0
  0
ARC
  5
A9
330
1F
100
AcDbEntity
  8
0
  6
Continuous
 62
     7
370
    15
100
AcDbCircle
 10
380.3809152251
 20
613.6321836354
 30
0.0
 40
1.003000000000043
100
AcDbArc
 50
0.0
 51
90.0
  0
ARC
  5
AA
330
1F
100
AcDbEntity
  8
0
  6
Continuous
 62
     7
370
    15
100
AcDbCircle
 10
380.3809152251
 20
545.9296836354
 30
0.0
 40
1.003000000000043
100
AcDbArc
 50
281.7938200825
 51
0.0
  0
LINE
  5
AB
330
1F
100
AcDbEntity
  8
0
  6
Continuous
 62
     7
370
    15
100
AcDbLine
 10
441.0624183076
 20
602.8499335084
 30
0.0
 11
411.5296020466
 21
602.8499335084
 31
0.0
  0
LINE
  5
AC
330
1F
100
AcDbEntity
  8
0
  6
Continuous
 62
     7
370
    15
100
AcDbLine
 10
439.5579151171
 20
556.7119337652
 30
0.0
 11
441.0624183076
 21
556.7119337652
 31
0.0
  0
LINE
  5
AD
330
1F
100
AcDbEntity
  8
0
  6
Continuous
 62
     7
370
    15
100
AcDbLine
 10
422.0054163891
 20
556.7119337652
 30
0.0
 11
429.5279137152
 21
556.7119337652
 31
0.0
  0
LINE
  5
AE
330
1F
100
AcDbEntity
  8
0
  6
Continuous
 62
     7
370
    15
100
AcDbLine
 10
407.4619165915
 20
556.7119337652
 30
0.0
 11
415.9874148029
 21
556.7119337652
 31
0.0
  0
ARC
  5
AF
330
1F
100
AcDbEntity
  8
0
  6
Continuous
 62
     7
370
    15
100
AcDbCircle
 10
441.0624152251
 20
601.3454336354
 30
0.0
 40
1.504500000000064
100
AcDbArc
 50
0.0
 51
90.0
  0
ARC
  5
B0
330
1F
100
AcDbEntity
  8
0
  6
Continuous
 62
     7
370
    15
100
AcDbCircle
 10
441.0624152251
 20
558.2164336354
 30
0.0
 40
1.504500000000064
100
AcDbArc
 50
270.0
 51
0.0
  0
LINE
  5
B1
330
1F
100
AcDbEntity
  8
0
  6
Continuous
 62
     7
370
    15
100
AcDbLine
 10
400.3639645236
 20
602.3985829238
 30
0.0
 11
381.3839149954
 21
602.3985829238
 31
0.0
  0
LINE
  5
B2
330
1F
100
AcDbEntity
  8
0
  6
Continuous
 62
     7
370
    15
100
AcDbLine
 10
381.3839149954
 20
557.1632843498
 30
0.0
 11
400.3639645236
 21
557.1632843498
 31
0.0
  0
ARC
  5
B3
330
1F
100
AcDbEntity
  8
0
  6
Continuous
 62
     7
370
    15
100
AcDbCircle
 10
400.3639644851
 20
601.6964836354
 30
0.0
 40
0.7020999999999613
100
AcDbArc
 50
41.0
 51
90.0
  0
ARC
  5
B4
330
1F
100
AcDbEntity
  8
0
  6
Continuous
 62
     7
370
    15
100
AcDbCircle
 10
400.3639644851
 20
557.8653836354
 30
0.0
 40
0.7020999999999731
100
AcDbArc
 50
270.0
 51
319.0
  0
LINE
  5
B5
330
1F
100
AcDbEntity
  8
0
  6
Continuous
 62
     7
370
    15
100
AcDbLine
 10
400.8938460904
 20
557.4047651175
 30
0.0
 11
400.9555350351
 21
557.4757281724
 31
0.0
  0
LINE
  5
B6
330
1F
100
AcDbEntity
  8
0
  6
Continuous
 62
     7
370
    15
100
AcDbLine
 10
400.9555350351
 20
602.0861391012
 30
0.0
 11
400.8938460904
 21
602.157102156
 31
0.0
  0
ARC
  5
B7
330
1F
100
AcDbEntity
  8
0
  6
Continuous
 62
     7
370
    15
100
AcDbCircle
 10
401.4854160634
 20
602.5467573538
 30
0.0
 40
0.702100000000124
100
AcDbArc
 50
221.0
 51
269.1898025957
  0
ARC
  5
B8
330
1F
100
AcDbEntity
  8
0
  6
Continuous
 62
     7
370
    15
100
AcDbCircle
 10
401.4854160634
 20
557.015109917
 30
0.0
 40
0.7020999999999185
100
AcDbArc
 50
90.8101974043
 51
139.0
  0
ARC
  5
B9
330
1F
100
AcDbEntity
  8
0
  6
Continuous
 62
     7
370
    15
100
AcDbCircle
 10
401.163471918
 20
579.7809336354
 30
0.0
 40
22.06600000000005
100
AcDbArc
 50
270.8101974043
 51
286.5849461079
  0
ARC
  5
BA
330
1F
100
AcDbEntity
  8
0
  6
Continuous
 62
     7
370
    15
100
AcDbCircle
 10
401.163471918
 20
579.7809336354
 30
0.0
 40
22.06599999999996
100
AcDbArc
 50
63.6741242292
 51
89.1898025957
  0
ARC
  5
BB
330
1F
100
AcDbEntity
  8
0
  6
Continuous
 62
     7
370
    15
100
AcDbCircle
 10
439.5579152251
 20
554.7059336354
 30
0.0
 40
2.005999999999972
100
AcDbArc
 50
90.0
 51
180.0
  0
ARC
  5
BC
330
1F
100
AcDbEntity
  8
0
  6
Continuous
 62
     7
370
    15
100
AcDbCircle
 10
429.5279152251
 20
554.7059336354
 30
0.0
 40
2.006000000000085
100
AcDbArc
 50
0.0
 51
90.0
  0
LINE
  5
BD
330
1F
100
AcDbEntity
  8
0
  6
Continuous
 62
     7
370
    15
100
AcDbLine
 10
381.3616591799
 20
579.7760220866
 30
0.0
 11
381.3616591799
 21
545.9247708354
 31
0.0
  0
LINE
  5
BE
330
1F
100
AcDbEntity
  8
0
  6
Continuous
 62
     7
370
    15
100
AcDbLine
 10
381.3616591799
 20
613.6272728477
 30
0.0
 11
381.3616591799
 21
579.7760220866
 31
0.0
  0
LINE
  5
BF
330
1F
100
AcDbEntity
  8
0
  6
Continuous
 62
     7
370
    15
100
AcDbLine
 10
374.3406592696
 20
579.7760220866
 30
0.0
 11
374.3406592696
 21
544.9217736754
 31
0.0
  0
LINE
  5
C0
330
1F
100
AcDbEntity
  8
0
  6
Continuous
 62
     7
370
    15
100
AcDbLine
 10
374.3406592696
 20
614.6302737329
 30
0.0
 11
374.3406592696
 21
579.7760220866
 31
0.0
  0
LWPOLYLINE
  5
C1
330
1F
100
AcDbEntity
  8
0
  6
Continuous
 62
     7
370
    15
100
AcDbPolyline
 90
       23
 70
   128
 43
0.0
 10
557.8065268057
 20
545.1665401492
 10
557.7734909313
 20
545.1511323485
 10
557.5102470177
 20
545.0283803079
 10
556.9896451491
 20
544.7856217656
 10
556.2233082312
 20
544.4282732937
 10
555.2283576983
 20
543.9643181894
 10
554.0270260828
 20
543.4041276608
 10
552.646135475
 20
542.7602075074
 10
551.1165312784
 20
542.0469485257
 10
549.4724116581
 20
541.2802763317
 10
547.7504632729
 20
540.4773235354
 10
545.9891758221
 20
539.6560236845
 10
544.2279032725
 20
538.8347201083
 10
542.5059548872
 20
538.0317673121
 10
540.8618203657
 20
537.2650988433
 10
539.3322310703
 20
536.5518361363
 10
537.9513404625
 20
535.907915983
 10
536.7500088471
 20
535.3477254543
 10
535.7550583142
 20
534.88377035
 10
534.9887213963
 20
534.5264256034
 10
534.4681195276
 20
534.2836633358
 10
534.204875614
 20
534.1609112952
 10
534.1718397396
 20
534.1455034945
  0
LINE
  5
C2
330
1F
100
AcDbEntity
  8
0
  6
Continuous
 62
     7
370
    15
100
AcDbLine
 10
371.3316592332
 20
592.8150221739
 30
0.0
 11
371.3316592332
 21
566.7370224405
 31
0.0
  0
LINE
  5
C3
330
1F
100
AcDbEntity
  8
0
  6
Continuous
 62
     7
370
    15
100
AcDbLine
 10
558.333565976
 20
538.5895140502
 30
0.0
 11
556.8827591198
 21
541.7007945511
 31
0.0
  0
LWPOLYLINE
  5
C4
330
1F
100
AcDbEntity
  8
0
  6
Continuous
 62
     7
370
    15
100
AcDbPolyline
 90
       16
 70
   128
 43
0.0
 10
558.333565976
 20
538.5895140502
 10
557.5428805607
 20
538.2208108935
 10
556.5324775236
 20
537.7496510778
 10
555.3264669436
 20
537.187277529
 10
553.9536229628
 20
536.547108743
 10
552.4466834324
 20
535.8444184098
 10
550.8416346567
 20
535.095970336
 10
549.17677262
 20
534.3196272883
 10
547.4917940157
 20
533.533907685
 10
545.8269170778
 20
532.7575646374
 10
544.2218683022
 20
532.0091165636
 10
542.714943673
 20
531.3064262304
 10
541.342084791
 20
530.6662574444
 10
540.136074211
 20
530.1038838956
 10
539.1256711739
 20
529.6327240799
 10
538.3349857586
 20
529.2640209231
  0
LINE
  5
C5
330
1F
100
AcDbEntity
  8
0
  6
Continuous
 62
     7
370
    15
100
AcDbLine
 10
538.3349857586
 20
529.2640209231
 30
0.0
 11
536.8841640013
 21
532.375301424
 31
0.0
  0
LWPOLYLINE
  5
C6
330
1F
100
AcDbEntity
  8
0
  6
Continuous
 62
     7
370
    15
100
AcDbPolyline
 90
        5
 70
   128
 43
0.0
 10
535.975148465
 20
531.9514155421
 10
536.0327116507
 20
531.978259984
 10
536.2048200625
 20
532.0585139129
 10
536.4896408575
 20
532.1913279626
 10
536.8841640013
 20
532.375301424
  0
LWPOLYLINE
  5
C7
330
1F
100
AcDbEntity
  8
0
  6
Continuous
 62
     7
370
    15
100
AcDbPolyline
 90
        5
 70
   128
 43
0.0
 10
556.8827591198
 20
541.7007945511
 10
557.2772822636
 20
541.8847680125
 10
557.5621030586
 20
542.0175820622
 10
557.7342114704
 20
542.0978359911
 10
557.7917895573
 20
542.124680433
  0
SPLINE
  5
C8
330
1F
100
AcDbEntity
  8
0
  6
Continuous
 62
     7
370
    15
100
AcDbSpline
210
0.0
220
0.0
230
1.0
 70
    24
 71
     3
 72
    10
 73
     6
 74
     0
 42
0.00000001
 43
0.00000001
 40
0.0
 40
0.0
 40
0.0
 40
0.0
 40
0.5
 40
0.5
 40
1.0
 40
1.0
 40
1.0
 40
1.0
 10
558.5783017925663
 20
538.064687922143
 30
0.0
 10
558.5783017925663
 20
538.0646879221429
 30
0.0
 10
558.555851244039
 20
538.112833278829
 30
0.0
 10
558.4714765734134
 20
538.2937753439012
 30
0.0
 10
558.4099331508812
 20
538.4257556394335
 30
0.0
 10
558.3335710290843
 20
538.5895147380916
 30
0.0
  0
LWPOLYLINE
  5
C9
330
1F
100
AcDbEntity
  8
0
  6
Continuous
 62
     7
370
    15
100
AcDbPolyline
 90
       20
 70
   128
 43
0.0
 10
558.5783026474
 20
538.0646877024
 10
558.4419272202
 20
538.0010932717
 10
558.0365113276
 20
537.812045965
 10
557.3731265324
 20
537.5027053092
 10
556.4698628443
 20
537.0815016363
 10
555.3513518828
 20
536.5599349175
 10
554.0480963248
 20
535.9522208605
 10
552.5956801432
 20
535.2749444578
 10
551.0336957234
 20
534.5465756986
 10
549.4047454851
 20
533.7869890068
 10
547.7532795923
 20
533.016893271
 10
546.1243293541
 20
532.2573028538
 10
544.5623300331
 20
531.52893782
 10
543.1099138516
 20
530.8516614172
 10
541.8066731947
 20
530.2439473603
 10
540.6881622332
 20
529.7223769162
 10
539.7848985451
 20
529.3011769686
 10
539.1214988487
 20
528.9918325875
 10
538.7160978573
 20
528.802789006
 10
538.5797075289
 20
528.7391945753
  0
SPLINE
  5
CA
330
1F
100
AcDbEntity
  8
0
  6
Continuous
 62
     7
370
    15
100
AcDbSpline
210
0.0
220
0.0
230
1.0
 70
    24
 71
     3
 72
    10
 73
     6
 74
     0
 42
0.00000001
 43
0.00000001
 40
0.0
 40
0.0
 40
0.0
 40
0.0
 40
0.5
 40
0.5
 40
1.0
 40
1.0
 40
1.0
 40
1.0
 10
538.5797141638155
 20
528.7391933585728
 30
0.0
 10
538.5797141638155
 20
528.7391933585728
 30
0.0
 10
538.5572636152882
 20
528.7873387152589
 30
0.0
 10
538.4728889446626
 20
528.9682807803308
 30
0.0
 10
538.4113455221304
 20
529.1002610758632
 30
0.0
 10
538.3349834003336
 20
529.2640201745212
 30
0.0
  0
LWPOLYLINE
  5
CB
330
1F
100
AcDbEntity
  8
0
  6
Continuous
 62
     7
370
    15
100
AcDbPolyline
 90
       19
 70
   128
 43
0.0
 10
556.9813750046
 20
537.098693851
 10
556.9478920954
 20
537.0830811594
 10
556.6816381472
 20
536.958920959
 10
556.1576835173
 20
536.7145940695
 10
555.3928665179
 20
536.3579534028
 10
554.4117591637
 20
535.9004616771
 10
553.2459221142
 20
535.3568226132
 10
551.9328019875
 20
534.7445040975
 10
550.5146286743
 20
534.083194289
 10
549.0369550246
 20
533.3941459689
 10
547.54728594
 20
532.6995022628
 10
546.0935137528
 20
532.0215962861
 10
544.722338702
 20
531.382209811
 10
543.4778533238
 20
530.8018952642
 10
542.4000374335
 20
530.2993051741
 10
541.523551132
 20
529.8905923996
 10
540.8765576142
 20
529.5888923142
 10
540.4798589009
 20
529.4039055738
 10
540.3461954849
 20
529.3415777419
  0
LINE
  5
CC
330
1F
100
AcDbEntity
  8
0
  6
Continuous
 62
     7
370
    15
100
AcDbLine
 10
374.362915318
 20
614.6351836655
 30
0.0
 11
374.362915318
 21
614.6302737329
 31
0.0
  0
LINE
  5
CD
330
1F
100
AcDbEntity
  8
0
  6
Continuous
 62
     7
370
    15
100
AcDbLine
 10
381.3839149954
 20
566.7370224405
 30
0.0
 11
381.3839149954
 21
545.9296844933
 31
0.0
  0
LINE
  5
CE
330
1F
100
AcDbEntity
  8
0
  6
Continuous
 62
     7
370
    15
100
AcDbLine
 10
381.3839149954
 20
613.6321827803
 30
0.0
 11
381.3839149954
 21
592.8150221739
 31
0.0
  0
LWPOLYLINE
  5
CF
330
1F
100
AcDbEntity
  8
0
  6
Continuous
 62
     7
370
    15
100
AcDbPolyline
 90
       11
 70
   128
 43
0.0
 10
411.5296020466
 20
602.8499335084
 10
411.5233845371
 20
602.8146754984
 10
411.4737636703
 20
602.5332540307
 10
411.3751254338
 20
601.9738495383
 10
411.2286768215
 20
601.1432979289
 10
411.036205973
 20
600.0517450306
 10
410.8000672715
 20
598.7125273827
 10
410.5231403666
 20
597.1420083228
 10
410.2088152724
 20
595.3593749586
 10
409.8609290379
 20
593.3864081312
 10
409.7601748365
 20
592.8150221739
  0
LINE
  5
D0
330
1F
100
AcDbEntity
  8
0
  6
Continuous
 62
     7
370
    15
100
AcDbLine
 10
407.4619165915
 20
566.7370224405
 30
0.0
 11
407.4619165915
 21
556.7119337652
 31
0.0
  0
SPLINE
  5
D1
330
1F
100
AcDbEntity
  8
0
  6
Continuous
 62
     7
370
    15
100
AcDbSpline
210
0.0
220
0.0
230
1.0
 70
     8
 71
     3
 72
    38
 73
    34
 74
     0
 42
0.00000001
 43
0.00000001
 40
0.0
 40
0.0
 40
0.0
 40
0.0
 40
0.0625
 40
0.0625
 40
0.125
 40
0.125
 40
0.1875
 40
0.1875
 40
0.25
 40
0.25
 40
0.3125
 40
0.3125
 40
0.375
 40
0.375
 40
0.4375
 40
0.4375
 40
0.5
 40
0.5
 40
0.5625
 40
0.5625
 40
0.625
 40
0.625
 40
0.6875
 40
0.6875
 40
0.75
 40
0.75
 40
0.8125
 40
0.8125
 40
0.875
 40
0.875
 40
0.9375
 40
0.9375
 40
1.0
 40
1.0
 40
1.0
 40
1.0
 10
422.0054152250776
 20
556.711933635394
 30
0.0
 10
422.0054152250776
 20
556.711933635394
 30
0.0
 10
421.9858699959591
 20
556.7145061026297
 30
0.0
 10
421.9093274824428
 20
556.7243012465079
 30
0.0
 10
421.8513861384719
 20
556.7316404540526
 30
0.0
 10
421.7003127645676
 20
556.7498650725338
 30
0.0
 10
421.6078958488003
 20
556.7606656570499
 30
0.0
 10
421.3895916969486
 20
556.7844078027338
 30
0.0
 10
421.2626651804037
 20
556.7974282733509
 30
0.0
 10
420.9854289508384
 20
556.8231069641189
 30
0.0
 10
420.8341187518322
 20
556.8358915483508
 30
0.0
 10
420.5053529463223
 20
556.8598801000408
 30
0.0
 10
420.3305618977554
 20
556.8708492487185
 30
0.0
 10
419.9686571155002
 20
556.889073213972
 30
0.0
 10
419.7788639015247
 20
556.8964583991378
 30
0.0
 10
419.3904104171359
 20
556.9064453762239
 30
0.0
 10
419.1950635949233
 20
556.9089955422237
 30
0.0
 10
418.8021817430068
 20
556.9090334605391
 30
0.0
 10
418.6026118520126
 20
556.9064385000173
 30
0.0
 10
418.2165656969257
 20
556.8965369448912
 30
0.0
 10
418.0289083443954
 20
556.8892842616091
 30
0.0
 10
417.6643688756873
 20
556.8709818902448
 30
0.0
 10
417.4884491244972
 20
556.8599336413108
 30
0.0
 10
417.1626152361313
 20
556.8361934675969
 30
0.0
 10
417.0105088405741
 20
556.823386739178
 30
0.0
 10
416.729698623621
 20
556.7973930144351
 30
0.0
 10
416.6053145180167
 20
556.7846230250776
 30
0.0
 10
416.3873127721484
 20
556.7609346192183
 30
0.0
 10
416.2929341562233
 20
556.7499141032545
 30
0.0
 10
416.1417745470885
 20
556.73168149567
 30
0.0
 10
416.084708463837
 20
556.7244541477933
 30
0.0
 10
416.007394557095
 20
556.7145629921323
 30
0.0
 10
415.9874152250775
 20
556.711933635394
 30
0.0
 10
415.9874152250775
 20
556.711933635394
 30
0.0
  0
LINE
  5
D2
330
1F
100
AcDbEntity
  8
0
  6
Continuous
 62
     7
370
    15
100
AcDbLine
 10
442.5669140475
 20
566.7370224405
 30
0.0
 11
442.5669140475
 21
558.2164332304
 31
0.0
  0
LINE
  5
D3
330
1F
100
AcDbEntity
  8
0
  6
Continuous
 62
     7
370
    15
100
AcDbLine
 10
442.5669140475
 20
601.3454340432
 30
0.0
 11
442.5669140475
 21
592.8150221739
 31
0.0
  0
ARC
  5
D4
330
1F
100
AcDbEntity
  8
0
  6
Continuous
 62
     7
370
    15
100
AcDbCircle
 10
432.5369152251
 20
503.5529336354
 30
0.0
 40
1.003000000000043
100
AcDbArc
 50
180.0
 51
270.0
  0
LINE
  5
D5
330
1F
100
AcDbEntity
  8
0
  6
Continuous
 62
     7
370
    15
100
AcDbLine
 10
431.5339154857
 20
503.5529352758
 30
0.0
 11
431.5339154857
 21
507.5649313662
 31
0.0
  0
LINE
  5
D6
330
1F
100
AcDbEntity
  8
0
  6
Continuous
 62
     7
370
    15
100
AcDbLine
 10
436.5489161866
 20
502.5499306653
 30
0.0
 11
432.5369163709
 21
502.5499306653
 31
0.0
  0
LINE
  5
D7
330
1F
100
AcDbEntity
  8
0
  6
Continuous
 62
     7
370
    15
100
AcDbLine
 10
437.5519133466
 20
556.3871555064
 30
0.0
 11
437.5519133466
 21
507.5649313662
 31
0.0
  0
LINE
  5
D8
330
1F
100
AcDbEntity
  8
0
  6
Continuous
 62
     7
370
    15
100
AcDbLine
 10
437.5519133466
 20
507.5649313662
 30
0.0
 11
437.5519133466
 21
503.5529352758
 31
0.0
  0
ARC
  5
D9
330
1F
100
AcDbEntity
  8
0
  6
Continuous
 62
     7
370
    15
100
AcDbCircle
 10
436.5489152251
 20
503.5529336354
 30
0.0
 40
1.003000000000043
100
AcDbArc
 50
270.0
 51
0.0
  0
LINE
  5
DA
330
1F
100
AcDbEntity
  8
0
  6
Continuous
 62
     7
370
    15
100
AcDbLine
 10
431.5339154857
 20
507.5649313662
 30
0.0
 11
431.5339154857
 21
556.3871555064
 31
0.0
  0
LINE
  5
DB
330
1F
100
AcDbEntity
  8
0
  6
Continuous
 62
     7
370
    15
100
AcDbLine
 10
422.0054163891
 20
556.4110327545
 30
0.0
 11
421.9785495954
 21
556.4110327545
 31
0.0
  0
LINE
  5
DC
330
1F
100
AcDbEntity
  8
0
  6
Continuous
 62
     7
370
    15
100
AcDbLine
 10
421.9785495954
 20
556.3107330385
 30
0.0
 11
421.9785495954
 21
556.4110327545
 31
0.0
  0
LINE
  5
DD
330
1F
100
AcDbEntity
  8
0
  6
Continuous
 62
     7
370
    15
100
AcDbLine
 10
416.0142815965
 20
556.3107330385
 30
0.0
 11
416.0142815965
 21
556.4110327545
 31
0.0
  0
LINE
  5
DE
330
1F
100
AcDbEntity
  8
0
  6
Continuous
 62
     7
370
    15
100
AcDbLine
 10
416.0142815965
 20
556.4110327545
 30
0.0
 11
415.9874148029
 21
556.4110327545
 31
0.0
  0
LINE
  5
DF
330
1F
100
AcDbEntity
  8
0
  6
Continuous
 62
     7
370
    15
100
AcDbLine
 10
415.9874148029
 20
556.4110327545
 30
0.0
 11
415.9874148029
 21
556.7119337652
 31
0.0
  0
LINE
  5
E0
330
1F
100
AcDbEntity
  8
0
  6
Continuous
 62
     7
370
    15
100
AcDbLine
 10
422.0054163891
 20
556.4110327545
 30
0.0
 11
422.0054163891
 21
556.7119337652
 31
0.0
  0
LINE
  5
E1
330
1F
100
AcDbEntity
  8
0
  6
Continuous
 62
     7
370
    15
100
AcDbLine
 10
421.3699451941
 20
555.7089328799
 30
0.0
 11
416.6228822726
 21
555.7089328799
 31
0.0
  0
SPLINE
  5
E2
330
1F
100
AcDbEntity
  8
0
  6
Continuous
 62
     7
370
    15
100
AcDbSpline
210
0.0
220
0.0
230
1.0
 70
     8
 71
     3
 72
    10
 73
     6
 74
     0
 42
0.00000001
 43
0.00000001
 40
0.0
 40
0.0
 40
0.0
 40
0.0
 40
0.5
 40
0.5
 40
1.0
 40
1.0
 40
1.0
 40
1.0
 10
416.622884016098
 20
555.7089336353953
 30
0.0
 10
416.4630323953779
 20
555.7089336353953
 30
0.0
 10
416.3064243621859
 20
555.7729555031087
 30
0.0
 10
416.0811118788841
 20
555.9944100299966
 30
0.0
 10
416.0142818343655
 20
556.150824937903
 30
0.0
 10
416.0142818343655
 20
556.3107336353953
 30
0.0
  0
SPLINE
  5
E3
330
1F
100
AcDbEntity
  8
0
  6
Continuous
 62
     7
370
    15
100
AcDbSpline
210
0.0
220
0.0
230
1.0
 70
     8
 71
     3
 72
    10
 73
     6
 74
     0
 42
0.00000001
 43
0.00000001
 40
0.0
 40
0.0
 40
0.0
 40
0.0
 40
0.5
 40
0.5
 40
1.0
 40
1.0
 40
1.0
 40
1.0
 10
421.9785486157896
 20
556.3107336353953
 30
0.0
 10
421.9785486157896
 20
556.1508565812097
 30
0.0
 10
421.911845150907
 20
555.9946978138241
 30
0.0
 10
421.6869145055387
 20
555.7732923040172
 30
0.0
 10
421.5297722954331
 20
555.7089336353953
 30
0.0
 10
421.3699464340571
 20
555.7089336353953
 30
0.0
  0
LINE
  5
E4
330
1F
100
AcDbEntity
  8
0
  6
Continuous
 62
     8
370
     0
100
AcDbLine
 10
380.3809150415
 20
614.6351836655
 30
0.0
 11
380.3809150415
 21
614.6300241385
 31
0.0
  0
SPLINE
  5
E5
330
1F
100
AcDbEntity
  8
0
  6
Continuous
 62
     8
370
     0
100
AcDbSpline
210
0.0
220
0.0
230
1.0
 70
     8
 71
     3
 72
    22
 73
    18
 74
     0
 42
0.00000001
 43
0.00000001
 40
0.0
 40
0.0
 40
0.0
 40
0.0
 40
0.125
 40
0.125
 40
0.25
 40
0.25
 40
0.375
 40
0.375
 40
0.5
 40
0.5
 40
0.625
 40
0.625
 40
0.75
 40
0.75
 40
0.875
 40
0.875
 40
1.0
 40
1.0
 40
1.0
 40
1.0
 10
429.5279152250775
 20
558.2586569534441
 30
0.0
 10
429.5279152250775
 20
558.3306809085477
 30
0.0
 10
429.5482118643931
 20
558.4037594243298
 30
0.0
 10
429.6262183129767
 20
558.5517304019953
 30
0.0
 10
429.6846518435561
 20
558.6272887090632
 30
0.0
 10
429.8372447850725
 20
558.7765360913426
 30
0.0
 10
429.9299495424324
 20
558.8491531603155
 30
0.0
 10
430.1468597424201
 20
558.9895167863612
 30
0.0
 10
430.2727570084499
 20
559.0579835649116
 30
0.0
 10
430.5494044195151
 20
559.1842098476615
 30
0.0
 10
430.6994459374781
 20
559.2419413165919
 30
0.0
 10
431.0230879336588
 20
559.3452687135745
 30
0.0
 10
431.1989734138634
 20
559.391241696748
 30
0.0
 10
431.5618324398846
 20
559.4654056810186
 30
0.0
 10
431.7492700439973
 20
559.4940102916577
 30
0.0
 10
432.1364803662241
 20
559.533012599187
 30
0.0
 10
432.336828444944
 20
559.543226886219
 30
0.0
 10
432.5369152250775
 20
559.5432268862189
 30
0.0
  0
LINE
  5
E6
330
1F
100
AcDbEntity
  8
0
  6
Continuous
 62
     8
370
     0
100
AcDbLine
 10
429.5279137152
 20
556.7119337652
 30
0.0
 11
429.5279137152
 21
558.2586575333
 31
0.0
  0
LINE
  5
E7
330
1F
100
AcDbEntity
  8
0
  6
Continuous
 62
     8
370
     0
100
AcDbLine
 10
439.5579151171
 20
558.2586575333
 30
0.0
 11
439.5579151171
 21
556.7119337652
 31
0.0
  0
SPLINE
  5
E8
330
1F
100
AcDbEntity
  8
0
  6
Continuous
 62
     8
370
     0
100
AcDbSpline
210
0.0
220
0.0
230
1.0
 70
     8
 71
     3
 72
    20
 73
    16
 74
     0
 42
0.00000001
 43
0.00000001
 40
0.0
 40
0.0
 40
0.0
 40
0.0
 40
0.1250000000000025
 40
0.1250000000000025
 40
0.2500000000000049
 40
0.2500000000000049
 40
0.4999999999999991
 40
0.4999999999999991
 40
0.6249999999999993
 40
0.6249999999999993
 40
0.7499999999999996
 40
0.7499999999999996
 40
0.8749999999999999
 40
0.8749999999999999
 40
1.0
 40
1.0
 40
1.0
 40
1.0
 10
436.5489152250775
 20
559.5432268862189
 30
0.0
 10
436.7486006279879
 20
559.5432268862189
 30
0.0
 10
436.9449305028901
 20
559.533290845331
 30
0.0
 10
437.3311800537826
 20
559.4947149750919
 30
0.0
 10
437.5228036759121
 20
559.4656059728388
 30
0.0
 10
438.0670289870133
 20
559.3545039274726
 30
0.0
 10
438.3990777513027
 20
559.2468650310959
 30
0.0
 10
438.8123998056118
 20
559.0582973708644
 30
0.0
 10
438.9382407507538
 20
558.9899740470705
 30
0.0
 10
439.1562284013521
 20
558.8489433669984
 30
0.0
 10
439.2487183318209
 20
558.7763581329692
 30
0.0
 10
439.4004390009596
 20
558.628060106872
 30
0.0
 10
439.4594405198915
 20
558.5520263992128
 30
0.0
 10
439.5376916937673
 20
558.4036502528787
 30
0.0
 10
439.5579152250775
 20
558.3305412457562
 30
0.0
 10
439.5579152250775
 20
558.2586569534441
 30
0.0
  0
LINE
  5
E9
330
1F
100
AcDbEntity
  8
0
  6
Continuous
 62
     8
370
     0
100
AcDbLine
 10
432.5369163709
 20
559.5432270352
 30
0.0
 11
436.5489161866
 21
559.5432270352
 31
0.0
  0
LINE
  5
EA
330
1F
100
AcDbEntity
  8
0
  6
Continuous
 62
     8
370
     0
100
AcDbLine
 10
400.8938460904
 20
566.7370224405
 30
0.0
 11
400.8938460904
 21
557.4047651175
 31
0.0
  0
LINE
  5
EB
330
1F
100
AcDbEntity
  8
0
  6
Continuous
 62
     8
370
     0
100
AcDbLine
 10
400.8938460904
 20
602.157102156
 30
0.0
 11
400.8938460904
 21
592.8150221739
 31
0.0
  0
LINE
  5
EC
330
1F
100
AcDbEntity
  8
0
  6
Continuous
 62
     8
370
     0
100
AcDbLine
 10
400.9555350351
 20
566.7370224405
 30
0.0
 11
400.9555350351
 21
557.4757281724
 31
0.0
  0
LINE
  5
ED
330
1F
100
AcDbEntity
  8
0
  6
Continuous
 62
     8
370
     0
100
AcDbLine
 10
400.9555350351
 20
602.0861391012
 30
0.0
 11
400.9555350351
 21
592.8150221739
 31
0.0
  0
ARC
  5
EE
330
1F
100
AcDbEntity
  8
0
  6
Continuous
 62
     8
370
     0
100
AcDbCircle
 10
429.5929053318
 20
556.3174850848
 30
0.0
 40
1.942260122926447
100
AcDbArc
 50
2.0556863723
 51
91.9175807362
  0
ARC
  5
EF
330
1F
100
AcDbEntity
  8
0
  6
Continuous
 62
     8
370
     0
100
AcDbCircle
 10
439.4929235005
 20
556.3174850848
 30
0.0
 40
1.942260122926449
100
AcDbArc
 50
88.0824192638
 51
177.9443136277
  0
LINE
  5
F0
330
1F
100
AcDbEntity
  8
0
  6
Continuous
 62
     7
370
    15
100
AcDbLine
 10
189.0330981902
 20
426.7371204406
 30
0.0
 11
189.0330981902
 21
432.755120397
 31
0.0
  0
LINE
  5
F1
330
1F
100
AcDbEntity
  8
0
  6
Continuous
 62
     7
370
    15
100
AcDbLine
 10
119.3246018581
 20
432.755120397
 30
0.0
 11
119.3246018581
 21
426.7371204406
 31
0.0
  0
ARC
  5
F2
330
1F
100
AcDbEntity
  8
0
  6
Continuous
 62
     7
370
    15
100
AcDbCircle
 10
188.0301000242
 20
426.7371204375
 30
0.0
 40
1.003000000000043
100
AcDbArc
 50
270.0
 51
0.0
  0
ARC
  5
F3
330
1F
100
AcDbEntity
  8
0
  6
Continuous
 62
     7
370
    15
100
AcDbCircle
 10
120.3276000242
 20
426.7371204375
 30
0.0
 40
1.003000000000043
100
AcDbArc
 50
180.0
 51
270.0
  0
LINE
  5
F4
330
1F
100
AcDbEntity
  8
0
  6
Continuous
 62
     7
370
    15
100
AcDbLine
 10
141.1398496918
 20
435.7641204334
 30
0.0
 11
141.1398496918
 21
432.755120397
 31
0.0
  0
LINE
  5
F5
330
1F
100
AcDbEntity
  8
0
  6
Continuous
 62
     7
370
    15
100
AcDbLine
 10
167.2178503565
 20
432.755120397
 30
0.0
 11
167.2178503565
 21
435.7641204334
 31
0.0
  0
LINE
  5
F6
330
1F
100
AcDbEntity
  8
0
  6
Continuous
 62
     7
370
    15
100
AcDbLine
 10
141.1398496918
 20
425.7341204867
 30
0.0
 11
141.1398496918
 21
305.374124153
 31
0.0
  0
LINE
  5
F7
330
1F
100
AcDbEntity
  8
0
  6
Continuous
 62
     7
370
    15
100
AcDbLine
 10
167.2178503565
 20
305.374124153
 30
0.0
 11
167.2178503565
 21
425.7341204867
 31
0.0
  0
LINE
  5
F8
330
1F
100
AcDbEntity
  8
0
  6
Continuous
 62
     7
370
    15
100
AcDbLine
 10
141.1398496918
 20
305.374124153
 30
0.0
 11
141.1398496918
 21
269.0130556658
 31
0.0
  0
LINE
  5
F9
330
1F
100
AcDbEntity
  8
0
  6
Continuous
 62
     7
370
    15
100
AcDbLine
 10
167.2178503565
 20
269.0130556658
 30
0.0
 11
167.2178503565
 21
305.374124153
 31
0.0
  0
LINE
  5
FA
330
1F
100
AcDbEntity
  8
0
  6
Continuous
 62
     7
370
    15
100
AcDbLine
 10
167.2178503565
 20
261.1066038445
 30
0.0
 11
167.2178503565
 21
269.0130556658
 31
0.0
  0
LINE
  5
FB
330
1F
100
AcDbEntity
  8
0
  6
Continuous
 62
     7
370
    15
100
AcDbLine
 10
141.1398496918
 20
269.0130556658
 30
0.0
 11
141.1398496918
 21
261.1066038445
 31
0.0
  0
LINE
  5
FC
330
1F
100
AcDbEntity
  8
0
  6
Continuous
 62
     7
370
    15
100
AcDbLine
 10
299.0330975942
 20
426.714864625
 30
0.0
 11
299.0330975942
 21
432.7328643486
 31
0.0
  0
LINE
  5
FD
330
1F
100
AcDbEntity
  8
0
  6
Continuous
 62
     7
370
    15
100
AcDbLine
 10
229.324601262
 20
432.7328643486
 30
0.0
 11
229.324601262
 21
426.714864625
 31
0.0
  0
ARC
  5
FE
330
1F
100
AcDbEntity
  8
0
  6
Continuous
 62
     7
370
    15
100
AcDbCircle
 10
298.0301000339
 20
426.7148644415
 30
0.0
 40
1.002999999999986
100
AcDbArc
 50
270.0
 51
0.0
  0
ARC
  5
FF
330
1F
100
AcDbEntity
  8
0
  6
Continuous
 62
     7
370
    15
100
AcDbCircle
 10
230.3276000339
 20
426.7148644415
 30
0.0
 40
1.003000000000043
100
AcDbArc
 50
180.0
 51
270.0
  0
LINE
  5
100
330
1F
100
AcDbEntity
  8
0
  6
Continuous
 62
     7
370
    15
100
AcDbLine
 10
287.2478437118
 20
366.0333613589
 30
0.0
 11
287.2478437118
 21
399.4333828524
 31
0.0
  0
LINE
  5
101
330
1F
100
AcDbEntity
  8
0
  6
Continuous
 62
     7
370
    15
100
AcDbLine
 10
241.1098476938
 20
399.4383337632
 30
0.0
 11
241.1098476938
 21
366.0333613589
 31
0.0
  0
ARC
  5
102
330
1F
100
AcDbEntity
  8
0
  6
Continuous
 62
     7
370
    15
100
AcDbCircle
 10
285.7433500339
 20
366.0333644415
 30
0.0
 40
1.504500000000007
100
AcDbArc
 50
270.0
 51
0.0
  0
ARC
  5
103
330
1F
100
AcDbEntity
  8
0
  6
Continuous
 62
     7
370
    15
100
AcDbCircle
 10
242.6143500339
 20
366.0333644415
 30
0.0
 40
1.504500000000007
100
AcDbArc
 50
180.0
 51
270.0
  0
LINE
  5
104
330
1F
100
AcDbEntity
  8
0
  6
Continuous
 62
     7
370
    15
100
AcDbLine
 10
286.7965024404
 20
406.7318151429
 30
0.0
 11
286.7965024404
 21
425.7118646711
 31
0.0
  0
LINE
  5
105
330
1F
100
AcDbEntity
  8
0
  6
Continuous
 62
     7
370
    15
100
AcDbLine
 10
241.5611964158
 20
425.7118646711
 30
0.0
 11
241.5611964158
 21
406.7318151429
 31
0.0
  0
ARC
  5
106
330
1F
100
AcDbEntity
  8
0
  6
Continuous
 62
     7
370
    15
100
AcDbCircle
 10
286.0944000339
 20
406.7318151815
 30
0.0
 40
0.702100000000036
100
AcDbArc
 50
311.0
 51
0.0
  0
ARC
  5
107
330
1F
100
AcDbEntity
  8
0
  6
Continuous
 62
     7
370
    15
100
AcDbCircle
 10
242.2633000339
 20
406.7318151815
 30
0.0
 40
0.7020999999999986
100
AcDbArc
 50
180.0
 51
229.0
  0
LINE
  5
108
330
1F
100
AcDbEntity
  8
0
  6
Continuous
 62
     7
370
    15
100
AcDbLine
 10
241.8026846341
 20
406.2019335762
 30
0.0
 11
241.8736439637
 21
406.1402446315
 31
0.0
  0
LINE
  5
109
330
1F
100
AcDbEntity
  8
0
  6
Continuous
 62
     7
370
    15
100
AcDbLine
 10
286.4840548925
 20
406.1402446315
 30
0.0
 11
286.5550142221
 21
406.2019335762
 31
0.0
  0
ARC
  5
10A
330
1F
100
AcDbEntity
  8
0
  6
Continuous
 62
     7
370
    15
100
AcDbCircle
 10
286.9446737523
 20
405.6103636031
 30
0.0
 40
0.7021000000000119
100
AcDbArc
 50
131.0
 51
179.1898025957
  0
ARC
  5
10B
330
1F
100
AcDbEntity
  8
0
  6
Continuous
 62
     7
370
    15
100
AcDbCircle
 10
241.4130263155
 20
405.6103636031
 30
0.0
 40
0.702100000000036
100
AcDbArc
 50
0.8101974043
 51
49.0
  0
ARC
  5
10C
330
1F
100
AcDbEntity
  8
0
  6
Continuous
 62
     7
370
    15
100
AcDbCircle
 10
264.1788500339
 20
405.9323077486
 30
0.0
 40
22.066
100
AcDbArc
 50
342.8928045045
 51
359.1898025957
  0
ARC
  5
10D
330
1F
100
AcDbEntity
  8
0
  6
Continuous
 62
     7
370
    15
100
AcDbCircle
 10
264.1788500339
 20
405.9323077486
 30
0.0
 40
22.06600000000002
100
AcDbArc
 50
180.8101974043
 51
197.1023253342
  0
LINE
  5
10E
330
1F
100
AcDbEntity
  8
0
  6
Continuous
 62
     7
370
    15
100
AcDbLine
 10
189.0330981902
 20
432.755120397
 30
0.0
 11
119.3246018581
 21
432.755120397
 31
0.0
  0
LINE
  5
10F
330
1F
100
AcDbEntity
  8
0
  6
Continuous
 62
     7
370
    15
100
AcDbLine
 10
120.327599018
 20
425.7341204867
 30
0.0
 11
188.0301010303
 21
425.7341204867
 31
0.0
  0
LINE
  5
110
330
1F
100
AcDbEntity
  8
0
  6
Continuous
 62
     7
370
    15
100
AcDbLine
 10
167.2178503565
 20
435.7641204334
 30
0.0
 11
141.1398496918
 21
435.7641204334
 31
0.0
  0
LWPOLYLINE
  5
111
330
1F
100
AcDbEntity
  8
0
  6
Continuous
 62
     7
370
    15
100
AcDbPolyline
 90
       23
 70
   128
 43
0.0
 10
167.2178503565
 20
261.1066038445
 10
167.0722147889
 20
259.3453163937
 10
166.6385639898
 20
257.6233680084
 10
165.9265827827
 20
255.9792483881
 10
164.9521772258
 20
254.4496441916
 10
163.7371132589
 20
253.0687535837
 10
162.3085333474
 20
251.8674219683
 10
160.6983501903
 20
250.8724714354
 10
158.9425314657
 20
250.1061345175
 10
157.0803005222
 20
249.5855326489
 10
155.1532556975
 20
249.3222887352
 10
153.2044443508
 20
249.3222887352
 10
151.2773995261
 20
249.5855326489
 10
149.4151685826
 20
250.1061345175
 10
147.659349858
 20
250.8724714354
 10
146.0491667009
 20
251.8674219683
 10
144.6205867894
 20
253.0687535837
 10
143.4055228225
 20
254.4496441916
 10
142.4311172656
 20
255.9792483881
 10
141.7191360585
 20
257.6233680084
 10
141.2854852594
 20
259.3453163937
 10
141.1398496918
 20
261.1066038445
 10
141.1398496918
 20
261.1066038445
  0
LINE
  5
112
330
1F
100
AcDbEntity
  8
0
  6
Continuous
 62
     7
370
    15
100
AcDbLine
 10
149.3686308592
 20
248.7622136906
 30
0.0
 11
149.3686308592
 21
250.1227940157
 31
0.0
  0
ARC
  5
113
330
1F
100
AcDbEntity
  8
0
  6
Continuous
 62
     7
370
    15
100
AcDbCircle
 10
153.3389104007
 20
259.3702679464
 30
0.0
 40
11.32669125263446
100
AcDbArc
 50
199.8215146231
 51
249.4806183084
  0
ARC
  5
114
330
1F
100
AcDbEntity
  8
0
  6
Continuous
 62
     7
370
    15
100
AcDbCircle
 10
155.0187896476
 20
259.3702679464
 30
0.0
 40
11.32669125263446
100
AcDbArc
 50
290.5193816916
 51
340.1784853769
  0
LINE
  5
115
330
1F
100
AcDbEntity
  8
0
  6
Continuous
 62
     7
370
    15
100
AcDbLine
 10
158.9890691891
 20
250.1227940157
 30
0.0
 11
158.9890691891
 21
248.7622136906
 31
0.0
  0
SPLINE
  5
116
330
1F
100
AcDbEntity
  8
0
  6
Continuous
 62
     7
370
    15
100
AcDbSpline
210
0.0
220
0.0
230
1.0
 70
     8
 71
     3
 72
     8
 73
     4
 74
     0
 42
0.00000001
 43
0.00000001
 40
0.0
 40
0.0
 40
0.0
 40
0.0
 40
1.0
 40
1.0
 40
1.0
 40
1.0
 10
158.989069043996
 20
248.7622086374734
 30
0.0
 10
157.4035402502743
 20
248.6075961962718
 30
0.0
 10
155.8022246647348
 20
248.5174778739913
 30
0.0
 10
154.1788500261125
 20
248.5174778739913
 30
0.0
  0
SPLINE
  5
117
330
1F
100
AcDbEntity
  8
0
  6
Continuous
 62
     7
370
    15
100
AcDbSpline
210
0.0
220
0.0
230
1.0
 70
     8
 71
     3
 72
    10
 73
     6
 74
     0
 42
0.00000001
 43
0.00000001
 40
0.0
 40
0.0
 40
0.0
 40
0.0
 40
0.5
 40
0.5
 40
1.0
 40
1.0
 40
1.0
 40
1.0
 10
154.1788500261125
 20
248.5174778739913
 30
0.0
 10
153.3690530502829
 20
248.5174778739913
 30
0.0
 10
152.5497664050284
 20
248.5399284225187
 30
0.0
 10
150.9434924046069
 20
248.6243030931442
 30
0.0
 10
150.1517138049156
 20
248.6858465156764
 30
0.0
 10
149.3686310082301
 20
248.7622086374733
 30
0.0
  0
LINE
  5
118
330
1F
100
AcDbEntity
  8
0
  6
Continuous
 62
     7
370
    15
100
AcDbLine
 10
299.0330975942
 20
432.7328643486
 30
0.0
 11
229.324601262
 21
432.7328643486
 31
0.0
  0
LINE
  5
119
330
1F
100
AcDbEntity
  8
0
  6
Continuous
 62
     7
370
    15
100
AcDbLine
 10
230.327598422
 20
425.7118646711
 30
0.0
 11
298.0301004342
 21
425.7118646711
 31
0.0
  0
SPLINE
  5
11A
330
1F
100
AcDbEntity
  8
0
  6
Continuous
 62
     7
370
    15
100
AcDbSpline
210
0.0
220
0.0
230
1.0
 70
     8
 71
     3
 72
    12
 73
     8
 74
     0
 42
0.00000001
 43
0.00000001
 40
0.0
 40
0.0
 40
0.0
 40
0.0
 40
0.5000000000000001
 40
0.5000000000000001
 40
0.75
 40
0.75
 40
1.0
 40
1.0
 40
1.0
 40
1.0
 10
241.5181221693558
 20
398.8719732550422
 30
0.0
 10
241.2452213317902
 20
399.124334880661
 30
0.0
 10
241.1094596648083
 20
399.3146341815685
 30
0.0
 10
241.1100464717297
 20
399.5058478042862
 30
0.0
 10
241.1445043959108
 20
399.5538592371371
 30
0.0
 10
241.2845244552248
 20
399.6179658123693
 30
0.0
 10
241.3902607271626
 20
399.63386444148
 30
0.0
 10
241.5309338125131
 20
399.63386444148
 30
0.0
  0
ELLIPSE
  5
11B
330
1F
100
AcDbEntity
  8
0
  6
Continuous
 62
     7
370
    15
100
AcDbEllipse
 10
264.1788500339
 20
399.6338644415
 30
0.0
 11
23.06899999999996
 21
0.0
 31
0.0
210
0.0
220
0.0
230
1.0
 40
0.1763269807
 41
3.330008783510242
 42
6.094769177259288
  0
SPLINE
  5
11C
330
1F
100
AcDbEntity
  8
0
  6
Continuous
 62
     7
370
    15
100
AcDbSpline
210
0.0
220
0.0
230
1.0
 70
     8
 71
     3
 72
    12
 73
     8
 74
     0
 42
0.00000001
 43
0.00000001
 40
0.0
 40
0.0
 40
0.0
 40
0.0
 40
0.5
 40
0.5
 40
0.75
 40
0.75
 40
1.0
 40
1.0
 40
1.0
 40
1.0
 10
286.8267662553083
 20
399.63386444148
 30
0.0
 10
287.1081270075027
 20
399.63386444148
 30
0.0
 10
287.2460372328668
 20
399.570885983964
 30
0.0
 10
287.2487300447229
 20
399.3806455682391
 30
0.0
 10
287.2153586743781
 20
399.3012492905902
 30
0.0
 10
287.0791035231787
 20
399.1099966793108
 30
0.0
 10
286.9760623837273
 20
398.9981855704006
 30
0.0
 10
286.8395778984656
 20
398.8719732550422
 30
0.0
  0
LWPOLYLINE
  5
11D
330
1F
100
AcDbEntity
  8
0
  6
Continuous
 62
     7
370
    15
100
AcDbPolyline
 90
       23
 70
   128
 43
0.0
 10
243.7242713265
 20
398.8719741538
 10
244.5196431569
 20
398.4570326939
 10
245.5930706553
 20
398.0614254907
 10
246.9293695382
 20
397.6907404795
 10
248.5096451334
 20
397.3502265945
 10
250.3115382485
 20
397.044700636
 10
252.3095678977
 20
396.7784764901
 10
254.475474029
 20
396.5553278759
 10
256.7786198549
 20
396.3784063891
 10
259.1864388875
 20
396.2502191499
 10
261.6648670725
 20
396.1725691989
 10
264.1788494281
 20
396.1465666726
 10
266.6928317837
 20
396.1725691989
 10
269.1712599687
 20
396.2502191499
 10
271.5790790014
 20
396.3784063891
 10
273.8822248272
 20
396.5553278759
 10
276.0481309585
 20
396.7784764901
 10
278.0461606077
 20
397.044700636
 10
279.8480611734
 20
397.3502265945
 10
281.428329318
 20
397.6907404795
 10
282.7646356515
 20
398.0614254907
 10
283.8380556993
 20
398.4570326939
 10
284.6334349803
 20
398.8719741538
  0
LINE
  5
11E
330
1F
100
AcDbEntity
  8
0
  6
Continuous
 62
     7
370
    15
100
AcDbLine
 10
285.7433479718
 20
364.528865619
 30
0.0
 11
242.6143508844
 21
364.528865619
 31
0.0
  0
SPLINE
  5
11F
330
1F
100
AcDbEntity
  8
0
  6
Continuous
 62
     7
370
    15
100
AcDbSpline
210
0.0
220
0.0
230
1.0
 70
     8
 71
     3
 72
    11
 73
     7
 74
     0
 42
0.00000001
 43
0.00000001
 40
0.0
 40
0.0
 40
0.0
 40
0.0
 40
0.0031791214845987
 40
0.34544684930689
 40
0.6716277210184709
 40
1.0
 40
1.0
 40
1.0
 40
1.0
 10
285.2681946448558
 20
399.4417684808418
 30
0.0
 10
285.2682558519856
 20
399.4414275844776
 30
0.0
 10
285.2749066862748
 20
399.4043854092923
 30
0.0
 10
285.1774776407431
 20
399.2918326895675
 30
0.0
 10
284.9796071171348
 20
399.1060045497223
 30
0.0
 10
284.7490829532528
 20
398.9501582073952
 30
0.0
 10
284.6334349803203
 20
398.8719741538212
 30
0.0
  0
SPLINE
  5
120
330
1F
100
AcDbEntity
  8
0
  6
Continuous
 62
     7
370
    15
100
AcDbSpline
210
0.0
220
0.0
230
1.0
 70
     8
 71
     3
 72
    11
 73
     7
 74
     0
 42
0.00000001
 43
0.00000001
 40
0.0
 40
0.0
 40
0.0
 40
0.0
 40
0.3325272748345064
 40
0.6661994865496111
 40
0.8335120259598539
 40
1.0
 40
1.0
 40
1.0
 40
1.0
 10
243.7242713264697
 20
398.8719741538212
 30
0.0
 10
243.6080437648272
 20
398.9507791266066
 30
0.0
 10
243.3751884541534
 20
399.1086604084753
 30
0.0
 10
243.204420416019
 20
399.2659683355446
 30
0.0
 10
243.1171419797625
 20
399.3740486035493
 30
0.0
 10
243.0986717899373
 20
399.4189440667275
 30
0.0
 10
243.08945950787
 20
399.4413363471672
 30
0.0
  0
LINE
  5
121
330
1F
100
AcDbEntity
  8
0
  6
Continuous
 62
     7
370
    15
100
AcDbLine
 10
241.5309321574
 20
399.6338630751
 30
0.0
 11
243.0308457903
 21
399.6338630751
 31
0.0
  0
LINE
  5
122
330
1F
100
AcDbEntity
  8
0
  6
Continuous
 62
     7
370
    15
100
AcDbLine
 10
285.3268456153
 20
399.6338630751
 30
0.0
 11
286.8267666988
 21
399.6338630751
 31
0.0
  0
LINE
  5
123
330
1F
100
AcDbEntity
  8
0
  6
Continuous
 62
     8
370
     0
100
AcDbLine
 10
286.8395816974
 20
398.8719741538
 30
0.0
 11
284.6334349803
 21
398.8719741538
 31
0.0
  0
LINE
  5
124
330
1F
100
AcDbEntity
  8
0
  6
Continuous
 62
     8
370
     0
100
AcDbLine
 10
243.9748790554
 20
406.2019335762
 30
0.0
 11
241.8026846341
 21
406.2019335762
 31
0.0
  0
LINE
  5
125
330
1F
100
AcDbEntity
  8
0
  6
Continuous
 62
     8
370
     0
100
AcDbLine
 10
286.5550142221
 20
406.2019335762
 30
0.0
 11
243.9748790554
 21
406.2019335762
 31
0.0
  0
LINE
  5
126
330
1F
100
AcDbEntity
  8
0
  6
Continuous
 62
     8
370
     0
100
AcDbLine
 10
244.0389540486
 20
406.1402446315
 30
0.0
 11
241.8736439637
 21
406.1402446315
 31
0.0
  0
LINE
  5
127
330
1F
100
AcDbEntity
  8
0
  6
Continuous
 62
     8
370
     0
100
AcDbLine
 10
286.4840548925
 20
406.1402446315
 30
0.0
 11
244.0389540486
 21
406.1402446315
 31
0.0
  0
ENDSEC
  0
SECTION
  2
OBJECTS
  0
DICTIONARY
  5
C
330
0
100
AcDbDictionary
281
     1
  3
ACAD_GROUP
350
D
  3
ACAD_LAYOUT
350
1A
  3
ACAD_MATERIAL
350
3B
  3
ACAD_MLEADERSTYLE
350
129
  3
ACAD_MLINESTYLE
350
17
  3
ACAD_PLOTSETTINGS
350
19
  3
ACAD_PLOTSTYLENAME
350
E
  3
ACAD_TABLESTYLE
350
128
  3
ACAD_VISUALSTYLE
350
2A
  0
DICTIONARY
  5
D
102
{ACAD_REACTORS
330
C
102
}
330
C
100
AcDbDictionary
281
     1
  0
DICTIONARY
  5
1A
102
{ACAD_REACTORS
330
C
102
}
330
C
100
AcDbDictionary
281
     1
  3
Layout1
350
1E
  3
Layout2
350
26
  3
Model
350
22
  0
DICTIONARY
  5
3B
102
{ACAD_REACTORS
330
C
102
}
330
C
100
AcDbDictionary
281
     1
  3
ByBlock
350
3D
  3
ByLayer
350
3C
  3
Global
350
3E
  0
DICTIONARY
  5
129
102
{ACAD_REACTORS
330
C
102
}
330
C
100
AcDbDictionary
281
     1
  0
DICTIONARY
  5
17
102
{ACAD_REACTORS
330
C
102
}
330
C
100
AcDbDictionary
281
     1
  3
Standard
350
18
  0
DICTIONARY
  5
19
102
{ACAD_REACTORS
330
C
102
}
330
C
100
AcDbDictionary
281
     1
  0
ACDBDICTIONARYWDFLT
  5
E
102
{ACAD_REACTORS
330
C
102
}
330
C
100
AcDbDictionary
281
     1
  3
Normal
350
F
100
AcDbDictionaryWithDefault
340
F
  0
DICTIONARY
  5
128
102
{ACAD_REACTORS
330
C
102
}
330
C
100
AcDbDictionary
281
     1
  0
DICTIONARY
  5
2A
102
{ACAD_REACTORS
330
C
102
}
330
C
100
AcDbDictionary
281
     1
  3
2dWireframe
350
2F
  3
3D Hidden
350
31
  3
3dWireframe
350
30
  3
Basic
350
32
  3
Brighten
350
36
  3
ColorChange
350
3A
  3
Conceptual
350
34
  3
Dim
350
35
  3
Facepattern
350
39
  3
Flat
350
2B
  3
FlatWithEdges
350
2C
  3
Gouraud
350
2D
  3
GouraudWithEdges
350
2E
  3
Linepattern
350
38
  3
Realistic
350
33
  3
Thicken
350
37
  0
LAYOUT
  5
1E
102
{ACAD_REACTORS
330
1A
102
}
330
1A
100
AcDbPlotSettings
  1

  2
none_device
  4

  6

 40
0.0
 41
0.0
 42
0.0
 43
0.0
 44
0.0
 45
0.0
 46
0.0
 47
0.0
 48
0.0
 49
0.0
140
0.0
141
0.0
142
1.0
143
1.0
 70
   688
 72
     0
 73
     0
 74
     5
  7

 75
    16
 76
     0
 77
     2
 78
   300
147
1.0
148
0.0
149
0.0
100
AcDbLayout
  1
Layout1
 70
     1
 71
     1
 10
0.0
 20
0.0
 11
420.0
 21
297.0
 12
0.0
 22
0.0
 32
0.0
 14
1.0000000000E+20
 24
1.0000000000E+20
 34
1.0000000000E+20
 15
-1.0000000000E+20
 25
-1.0000000000E+20
 35
-1.0000000000E+20
146
0.0
 13
0.0
 23
0.0
 33
0.0
 16
1.0
 26
0.0
 36
0.0
 17
0.0
 27
1.0
 37
0.0
 76
     0
330
1B
  0
LAYOUT
  5
26
102
{ACAD_REACTORS
330
1A
102
}
330
1A
100
AcDbPlotSettings
  1

  2
none_device
  4

  6

 40
0.0
 41
0.0
 42
0.0
 43
0.0
 44
0.0
 45
0.0
 46
0.0
 47
0.0
 48
0.0
 49
0.0
140
0.0
141
0.0
142
1.0
143
1.0
 70
   688
 72
     0
 73
     0
 74
     5
  7

 75
    16
 76
     0
 77
     2
 78
   300
147
1.0
148
0.0
149
0.0
100
AcDbLayout
  1
Layout2
 70
     1
 71
     2
 10
0.0
 20
0.0
 11
0.0
 21
0.0
 12
0.0
 22
0.0
 32
0.0
 14
0.0
 24
0.0
 34
0.0
 15
0.0
 25
0.0
 35
0.0
146
0.0
 13
0.0
 23
0.0
 33
0.0
 16
1.0
 26
0.0
 36
0.0
 17
0.0
 27
1.0
 37
0.0
 76
     0
330
23
  0
LAYOUT
  5
22
102
{ACAD_REACTORS
330
1A
102
}
330
1A
100
AcDbPlotSettings
  1

  2
none_device
  4

  6

 40
0.0
 41
0.0
 42
0.0
 43
0.0
 44
0.0
 45
0.0
 46
0.0
 47
0.0
 48
0.0
 49
0.0
140
0.0
141
0.0
142
1.0
143
1.0
 70
  1712
 72
     0
 73
     0
 74
     0
  7

 75
     0
 76
     0
 77
     2
 78
   300
147
1.0
148
0.0
149
0.0
100
AcDbLayout
  1
Model
 70
     1
 71
     0
 10
0.0
 20
0.0
 11
594.0
 21
841.0
 12
0.0
 22
0.0
 32
0.0
 14
0.0
 24
0.0
 34
0.0
 15
594.0
 25
841.0
 35
0.0
146
0.0
 13
0.0
 23
0.0
 33
0.0
 16
1.0
 26
0.0
 36
0.0
 17
0.0
 27
1.0
 37
0.0
 76
     0
330
1F
331
29
  0
MATERIAL
  5
3D
102
{ACAD_REACTORS
330
3B
102
}
330
3B
100
AcDbMaterial
  1
ByBlock
 72
     1
 94
      127
  0
MATERIAL
  5
3C
102
{ACAD_REACTORS
330
3B
102
}
330
3B
100
AcDbMaterial
  1
ByLayer
 72
     1
 94
      127
  0
MATERIAL
  5
3E
102
{ACAD_REACTORS
330
3B
102
}
330
3B
100
AcDbMaterial
  1
Global
 72
     1
 94
      127
  0
MLINESTYLE
  5
18
102
{ACAD_REACTORS
330
17
102
}
330
17
100
AcDbMlineStyle
  2
Standard
 70
     0
  3

 62
   256
 51
90.0
 52
90.0
 71
     2
 49
0.5
 62
   256
  6
BYLAYER
 49
-0.5
 62
   256
  6
BYLAYER
  0
ACDBPLACEHOLDER
  5
F
102
{ACAD_REACTORS
330
E
102
}
330
E
  0
VISUALSTYLE
  5
2F
102
{ACAD_REACTORS
330
2A
102
}
330
2A
100
AcDbVisualStyle
  2
2dWireframe
 70
     4
177
     2
291
     0
 71
     0
176
     1
 72
     2
176
     1
 73
     0
176
     1
 90
        0
176
     1
 40
-0.6
176
     1
 41
-30.0
176
     1
 62
     5
 63
     7
421
 16777215
176
     1
 74
     1
176
     1
 91
        4
176
     1
 64
     7
176
     1
 65
   257
176
     1
 75
     1
176
     1
175
     1
176
     1
 42
1.0
176
     1
 92
        0
176
     1
 66
   257
176
     1
 43
1.0
176
     1
 76
     1
176
     1
 77
     6
176
     1
 78
     2
176
     1
 67
     7
176
     1
 79
     5
176
     1
170
     0
176
     1
171
     0
176
     1
290
     0
176
     1
 93
        1
176
     1
 44
0.0
176
     1
173
     0
176
     1
  0
VISUALSTYLE
  5
31
102
{ACAD_REACTORS
330
2A
102
}
330
2A
100
AcDbVisualStyle
  2
3D Hidden
 70
     6
177
     2
291
     0
 71
     1
176
     1
 72
     2
176
     1
 73
     2
176
     1
 90
        0
176
     1
 40
-0.6
176
     1
 41
-30.0
176
     1
 62
     5
 63
     7
421
 16777215
176
     1
 74
     2
176
     1
 91
        2
176
     1
 64
     7
176
     1
 65
   257
176
     1
 75
     2
176
     1
175
     1
176
     1
 42
40.0
176
     1
 92
        0
176
     1
 66
   257
176
     1
 43
1.0
176
     1
 76
     1
176
     1
 77
     6
176
     1
 78
     2
176
     1
 67
     7
176
     1
 79
     3
176
     1
170
     0
176
     1
171
     0
176
     1
290
     0
176
     1
 93
        1
176
     1
 44
0.0
176
     1
173
     0
176
     1
  0
VISUALSTYLE
  5
30
102
{ACAD_REACTORS
330
2A
102
}
330
2A
100
AcDbVisualStyle
  2
3dWireframe
 70
     5
177
     2
291
     0
 71
     0
176
     1
 72
     2
176
     1
 73
     0
176
     1
 90
        0
176
     1
 40
-0.6
176
     1
 41
-30.0
176
     1
 62
     5
 63
     7
421
 16777215
176
     1
 74
     1
176
     1
 91
        4
176
     1
 64
     7
176
     1
 65
   257
176
     1
 75
     1
176
     1
175
     1
176
     1
 42
1.0
176
     1
 92
        0
176
     1
 66
   257
176
     1
 43
1.0
176
     1
 76
     1
176
     1
 77
     6
176
     1
 78
     2
176
     1
 67
     7
176
     1
 79
     5
176
     1
170
     0
176
     1
171
     0
176
     1
290
     0
176
     1
 93
        1
176
     1
 44
0.0
176
     1
173
     0
176
     1
  0
VISUALSTYLE
  5
32
102
{ACAD_REACTORS
330
2A
102
}
330
2A
100
AcDbVisualStyle
  2
Basic
 70
     7
177
     2
291
     1
 71
     1
176
     1
 72
     0
176
     1
 73
     1
176
     1
 90
        0
176
     1
 40
-0.6
176
     1
 41
-30.0
176
     1
 62
     5
 63
     7
421
 16777215
176
     1
 74
     0
176
     1
 91
        4
176
     1
 64
     7
176
     1
 65
   257
176
     1
 75
     1
176
     1
175
     1
176
     1
 42
1.0
176
     1
 92
        8
176
     1
 66
     7
176
     1
 43
1.0
176
     1
 76
     1
176
     1
 77
     6
176
     1
 78
     2
176
     1
 67
     7
176
     1
 79
     5
176
     1
170
     0
176
     1
171
     0
176
     1
290
     0
176
     1
 93
        1
176
     1
 44
0.0
176
     1
173
     0
176
     1
  0
VISUALSTYLE
  5
36
102
{ACAD_REACTORS
330
2A
102
}
330
2A
100
AcDbVisualStyle
  2
Brighten
 70
    12
177
     2
291
     1
 71
     2
176
     1
 72
     2
176
     1
 73
     0
176
     1
 90
        0
176
     1
 40
-0.6
176
     1
 41
-30.0
176
     1
 62
     5
 63
     7
421
 16777215
176
     1
 74
     1
176
     1
 91
        4
176
     1
 64
     7
176
     1
 65
   257
176
     1
 75
     1
176
     1
175
     1
176
     1
 42
1.0
176
     1
 92
        8
176
     1
 66
     7
176
     1
 43
1.0
176
     1
 76
     1
176
     1
 77
     6
176
     1
 78
     2
176
     1
 67
     7
176
     1
 79
     5
176
     1
170
     0
176
     1
171
     0
176
     1
290
     0
176
     1
 93
        1
176
     1
 44
50.0
176
     1
173
     0
176
     1
  0
VISUALSTYLE
  5
3A
102
{ACAD_REACTORS
330
2A
102
}
330
2A
100
AcDbVisualStyle
  2
ColorChange
 70
    16
177
     2
291
     1
 71
     2
176
     1
 72
     2
176
     1
 73
     3
176
     1
 90
        0
176
     1
 40
-0.6
176
     1
 41
-30.0
176
     1
 62
     5
 63
     8
421
  8421504
176
     1
 74
     1
176
     1
 91
        4
176
     1
 64
     7
176
     1
 65
   257
176
     1
 75
     1
176
     1
175
     1
176
     1
 42
1.0
176
     1
 92
        8
176
     1
 66
     8
424
  8421504
176
     1
 43
1.0
176
     1
 76
     1
176
     1
 77
     6
176
     1
 78
     2
176
     1
 67
     7
176
     1
 79
     5
176
     1
170
     0
176
     1
171
     0
176
     1
290
     0
176
     1
 93
        1
176
     1
 44
0.0
176
     1
173
     0
176
     1
  0
VISUALSTYLE
  5
34
102
{ACAD_REACTORS
330
2A
102
}
330
2A
100
AcDbVisualStyle
  2
Conceptual
 70
     9
177
     2
291
     0
 71
     3
176
     1
 72
     2
176
     1
 73
     0
176
     1
 90
        0
176
     1
 40
-0.6
176
     1
 41
-30.0
176
     1
 62
     5
 63
     7
421
 16777215
176
     1
 74
     2
176
     1
 91
        2
176
     1
 64
     7
176
     1
 65
   257
176
     1
 75
     1
176
     1
175
     1
176
     1
 42
40.0
176
     1
 92
        8
176
     1
 66
     7
176
     1
 43
1.0
176
     1
 76
     1
176
     1
 77
     6
176
     1
 78
     2
176
     1
 67
     7
176
     1
 79
     3
176
     1
170
     0
176
     1
171
     0
176
     1
290
     0
176
     1
 93
        1
176
     1
 44
0.0
176
     1
173
     0
176
     1
  0
VISUALSTYLE
  5
35
102
{ACAD_REACTORS
330
2A
102
}
330
2A
100
AcDbVisualStyle
  2
Dim
 70
    11
177
     2
291
     1
 71
     2
176
     1
 72
     2
176
     1
 73
     0
176
     1
 90
        0
176
     1
 40
-0.6
176
     1
 41
-30.0
176
     1
 62
     5
 63
     7
421
 16777215
176
     1
 74
     1
176
     1
 91
        4
176
     1
 64
     7
176
     1
 65
   257
176
     1
 75
     1
176
     1
175
     1
176
     1
 42
1.0
176
     1
 92
        8
176
     1
 66
     7
176
     1
 43
1.0
176
     1
 76
     1
176
     1
 77
     6
176
     1
 78
     2
176
     1
 67
     7
176
     1
 79
     5
176
     1
170
     0
176
     1
171
     0
176
     1
290
     0
176
     1
 93
        1
176
     1
 44
-50.0
176
     1
173
     0
176
     1
  0
VISUALSTYLE
  5
39
102
{ACAD_REACTORS
330
2A
102
}
330
2A
100
AcDbVisualStyle
  2
Facepattern
 70
    15
177
     2
291
     1
 71
     2
176
     1
 72
     2
176
     1
 73
     0
176
     1
 90
        0
176
     1
 40
-0.6
176
     1
 41
-30.0
176
     1
 62
     5
 63
     7
421
 16777215
176
     1
 74
     1
176
     1
 91
        4
176
     1
 64
     7
176
     1
 65
   257
176
     1
 75
     1
176
     1
175
     1
176
     1
 42
1.0
176
     1
 92
        8
176
     1
 66
     7
176
     1
 43
1.0
176
     1
 76
     1
176
     1
 77
     6
176
     1
 78
     2
176
     1
 67
     7
176
     1
 79
     5
176
     1
170
     0
176
     1
171
     0
176
     1
290
     0
176
     1
 93
        1
176
     1
 44
0.0
176
     1
173
     0
176
     1
  0
VISUALSTYLE
  5
2B
102
{ACAD_REACTORS
330
2A
102
}
330
2A
100
AcDbVisualStyle
  2
Flat
 70
     0
177
     2
291
     1
 71
     2
176
     1
 72
     1
176
     1
 73
     1
176
     1
 90
        2
176
     1
 40
-0.6
176
     1
 41
30.0
176
     1
 62
     5
 63
     7
421
 16777215
176
     1
 74
     0
176
     1
 91
        4
176
     1
 64
     7
176
     1
 65
   257
176
     1
 75
     1
176
     1
175
     1
176
     1
 42
1.0
176
     1
 92
        8
176
     1
 66
     7
176
     1
 43
1.0
176
     1
 76
     1
176
     1
 77
     6
176
     1
 78
     2
176
     1
 67
     7
176
     1
 79
     5
176
     1
170
     0
176
     1
171
     0
176
     1
290
     0
176
     1
 93
       13
176
     1
 44
0.0
176
     1
173
     0
176
     1
  0
VISUALSTYLE
  5
2C
102
{ACAD_REACTORS
330
2A
102
}
330
2A
100
AcDbVisualStyle
  2
FlatWithEdges
 70
     1
177
     2
291
     1
 71
     2
176
     1
 72
     1
176
     1
 73
     1
176
     1
 90
        2
176
     1
 40
-0.6
176
     1
 41
30.0
176
     1
 62
     5
 63
     7
421
 16777215
176
     1
 74
     1
176
     1
 91
        4
176
     1
 64
     7
176
     1
 65
   257
176
     1
 75
     1
176
     1
175
     1
176
     1
 42
1.0
176
     1
 92
        0
176
     1
 66
   257
176
     1
 43
1.0
176
     1
 76
     1
176
     1
 77
     6
176
     1
 78
     2
176
     1
 67
     7
176
     1
 79
     5
176
     1
170
     0
176
     1
171
     0
176
     1
290
     0
176
     1
 93
       13
176
     1
 44
0.0
176
     1
173
     0
176
     1
  0
VISUALSTYLE
  5
2D
102
{ACAD_REACTORS
330
2A
102
}
330
2A
100
AcDbVisualStyle
  2
Gouraud
 70
     2
177
     2
291
     1
 71
     2
176
     1
 72
     2
176
     1
 73
     1
176
     1
 90
        2
176
     1
 40
-0.6
176
     1
 41
30.0
176
     1
 62
     5
 63
     7
421
 16777215
176
     1
 74
     0
176
     1
 91
        4
176
     1
 64
     7
176
     1
 65
   257
176
     1
 75
     1
176
     1
175
     1
176
     1
 42
1.0
176
     1
 92
        0
176
     1
 66
     7
176
     1
 43
1.0
176
     1
 76
     1
176
     1
 77
     6
176
     1
 78
     2
176
     1
 67
     7
176
     1
 79
     5
176
     1
170
     0
176
     1
171
     0
176
     1
290
     0
176
     1
 93
       13
176
     1
 44
0.0
176
     1
173
     0
176
     1
  0
VISUALSTYLE
  5
2E
102
{ACAD_REACTORS
330
2A
102
}
330
2A
100
AcDbVisualStyle
  2
GouraudWithEdges
 70
     3
177
     2
291
     1
 71
     2
176
     1
 72
     2
176
     1
 73
     1
176
     1
 90
        2
176
     1
 40
-0.6
176
     1
 41
30.0
176
     1
 62
     5
 63
     7
421
 16777215
176
     1
 74
     1
176
     1
 91
        4
176
     1
 64
     7
176
     1
 65
   257
176
     1
 75
     1
176
     1
175
     1
176
     1
 42
1.0
176
     1
 92
        0
176
     1
 66
   257
176
     1
 43
1.0
176
     1
 76
     1
176
     1
 77
     6
176
     1
 78
     2
176
     1
 67
     7
176
     1
 79
     5
176
     1
170
     0
176
     1
171
     0
176
     1
290
     0
176
     1
 93
       13
176
     1
 44
0.0
176
     1
173
     0
176
     1
  0
VISUALSTYLE
  5
38
102
{ACAD_REACTORS
330
2A
102
}
330
2A
100
AcDbVisualStyle
  2
Linepattern
 70
    14
177
     2
291
     1
 71
     2
176
     1
 72
     2
176
     1
 73
     0
176
     1
 90
        0
176
     1
 40
-0.6
176
     1
 41
-30.0
176
     1
 62
     5
 63
     7
421
 16777215
176
     1
 74
     1
176
     1
 91
        4
176
     1
 64
     7
176
     1
 65
   257
176
     1
 75
     7
176
     1
175
     7
176
     1
 42
1.0
176
     1
 92
        8
176
     1
 66
     7
176
     1
 43
1.0
176
     1
 76
     1
176
     1
 77
     6
176
     1
 78
     2
176
     1
 67
     7
176
     1
 79
     5
176
     1
170
     0
176
     1
171
     0
176
     1
290
     0
176
     1
 93
        1
176
     1
 44
0.0
176
     1
173
     0
176
     1
  0
VISUALSTYLE
  5
33
102
{ACAD_REACTORS
330
2A
102
}
330
2A
100
AcDbVisualStyle
  2
Realistic
 70
     8
177
     2
291
     0
 71
     2
176
     1
 72
     2
176
     1
 73
     0
176
     1
 90
        0
176
     1
 40
-0.6
176
     1
 41
-30.0
176
     1
 62
     5
 63
     7
421
 16777215
176
     1
 74
     1
176
     1
 91
        0
176
     1
 64
     7
176
     1
 65
   257
176
     1
 75
     1
176
     1
175
     1
176
     1
 42
1.0
176
     1
 92
        8
176
     1
 66
     8
424
  7895160
176
     1
 43
1.0
176
     1
 76
     1
176
     1
 77
     6
176
     1
 78
     2
176
     1
 67
     7
176
     1
 79
     5
176
     1
170
     0
176
     1
171
     0
176
     1
290
     0
176
     1
 93
       13
176
     1
 44
0.0
176
     1
173
     0
176
     1
  0
VISUALSTYLE
  5
37
102
{ACAD_REACTORS
330
2A
102
}
330
2A
100
AcDbVisualStyle
  2
Thicken
 70
    13
177
     2
291
     1
 71
     2
176
     1
 72
     2
176
     1
 73
     0
176
     1
 90
        0
176
     1
 40
-0.6
176
     1
 41
-30.0
176
     1
 62
     5
 63
     7
421
 16777215
176
     1
 74
     1
176
     1
 91
        4
176
     1
 64
     7
176
     1
 65
   257
176
     1
 75
     1
176
     1
175
     1
176
     1
 42
1.0
176
     1
 92
       12
176
     1
 66
     7
176
     1
 43
1.0
176
     1
 76
     1
176
     1
 77
     6
176
     1
 78
     2
176
     1
 67
     7
176
     1
 79
     5
176
     1
170
     0
176
     1
171
     0
176
     1
290
     0
176
     1
 93
        1
176
     1
 44
0.0
176
     1
173
     0
176
     1
  0
ENDSEC
  0
EOF
