  0
SECTION
  2
HEADER
  9
$ACADVER
  1
AC1015
  9
$ACADMAINTVER
 70
     6
  9
$DWGCODEPAGE
  3
ANSI_1252
  9
$INSBASE
 10
0.0
 20
0.0
 30
0.0
  9
$EXTMIN
 10
0.0
 20
0.0
 30
0.0
  9
$EXTMAX
 10
594.0
 20
841.0
 30
0.0
  9
$LIMMIN
 10
0.0
 20
0.0
  9
$LIMMAX
 10
594.0
 20
841.0
  9
$ORTHOMODE
 70
     0
  9
$REGENMODE
 70
     1
  9
$FILLMODE
 70
     1
  9
$QTEXTMODE
 70
     0
  9
$MIRRTEXT
 70
     1
  9
$LTSCALE
 40
1.0
  9
$ATTMODE
 70
     1
  9
$TEXTSIZE
 40
10.0
  9
$TRACEWID
 40
1.0
  9
$TEXTSTYLE
  7
Standard
  9
$CLAYER
  8
0
  9
$CELTYPE
  6
ByLayer
  9
$CECOLOR
 62
   256
  9
$CELTSCALE
 40
1.0
  9
$DISPSILH
 70
     0
  9
$DIMSCALE
 40
1.0
  9
$DIMASZ
 40
2.5
  9
$DIMEXO
 40
0.0
  9
$DIMDLI
 40
3.75
  9
$DIMRND
 40
0.0
  9
$DIMDLE
 40
0.0
  9
$DIMEXE
 40
1.0
  9
$DIMTP
 40
0.0
  9
$DIMTM
 40
0.0
  9
$DIMTXT
 40
3.5
  9
$DIMCEN
 40
2.5
  9
$DIMTSZ
 40
0.0
  9
$DIMTOL
 70
     0
  9
$DIMLIM
 70
     0
  9
$DIMTIH
 70
     1
  9
$DIMTOH
 70
     1
  9
$DIMSE1
 70
     0
  9
$DIMSE2
 70
     0
  9
$DIMTAD
 70
     1
  9
$DIMZIN
 70
     0
  9
$DIMBLK
  1

  9
$DIMASO
 70
     1
  9
$DIMSHO
 70
     1
  9
$DIMPOST
  1

  9
$DIMAPOST
  1

  9
$DIMALT
 70
     0
  9
$DIMALTD
 70
     3
  9
$DIMALTF
 40
0.0393700787
  9
$DIMLFAC
 40
1.0
  9
$DIMTOFL
 70
     1
  9
$DIMTVP
 40
0.0
  9
$DIMTIX
 70
     0
  9
$DIMSOXD
 70
     0
  9
$DIMSAH
 70
     0
  9
$DIMBLK1
  1

  9
$DIMBLK2
  1

  9
$DIMSTYLE
  2
ISO-25
  9
$DIMCLRD
 70
     0
  9
$DIMCLRE
 70
     0
  9
$DIMCLRT
 70
     0
  9
$DIMTFAC
 40
1.0
  9
$DIMGAP
 40
1.5
  9
$DIMJUST
 70
     0
  9
$DIMSD1
 70
     0
  9
$DIMSD2
 70
     0
  9
$DIMTOLJ
 70
     0
  9
$DIMTZIN
 70
     0
  9
$DIMALTZ
 70
     0
  9
$DIMALTTZ
 70
     0
  9
$DIMUPT
 70
     0
  9
$DIMDEC
 70
     2
  9
$DIMTDEC
 70
     2
  9
$DIMALTU
 70
     2
  9
$DIMALTTD
 70
     3
  9
$DIMTXSTY
  7
Standard
  9
$DIMAUNIT
 70
     0
  9
$DIMADEC
 70
     2
  9
$DIMALTRND
 40
0.0
  9
$DIMAZIN
 70
     0
  9
$DIMDSEP
 70
    44
  9
$DIMATFIT
 70
     3
  9
$DIMFRAC
 70
     0
  9
$DIMLDRBLK
  1

  9
$DIMLUNIT
 70
     2
  9
$DIMLWD
 70
    -2
  9
$DIMLWE
 70
    -2
  9
$DIMTMOVE
 70
     0
  9
$LUNITS
 70
     2
  9
$LUPREC
 70
     2
  9
$SKETCHINC
 40
1.0
  9
$FILLETRAD
 40
10.0
  9
$AUNITS
 70
     0
  9
$AUPREC
 70
     2
  9
$MENU
  1
.
  9
$ELEVATION
 40
0.0
  9
$PELEVATION
 40
0.0
  9
$THICKNESS
 40
0.0
  9
$LIMCHECK
 70
     0
  9
$CHAMFERA
 40
0.0
  9
$CHAMFERB
 40
0.0
  9
$CHAMFERC
 40
0.0
  9
$CHAMFERD
 40
0.0
  9
$SKPOLY
 70
     0
  9
$TDCREATE
 40
2457991.430975787
  9
$TDUCREATE
 40
2457991.347642454
  9
$TDUPDATE
 40
2457991.430977049
  9
$TDUUPDATE
 40
2457991.347643715
  9
$TDINDWG
 40
0.0000000116
  9
$TDUSRTIMER
 40
0.0000000116
  9
$USRTIMER
 70
     1
  9
$ANGBASE
 50
0.0
  9
$ANGDIR
 70
     0
  9
$PDMODE
 70
     0
  9
$PDSIZE
 40
-1.0
  9
$PLINEWID
 40
0.0
  9
$SPLFRAME
 70
     0
  9
$SPLINETYPE
 70
     6
  9
$SPLINESEGS
 70
     8
  9
$HANDSEED
  5
1C1
  9
$SURFTAB1
 70
     6
  9
$SURFTAB2
 70
     6
  9
$SURFTYPE
 70
     6
  9
$SURFU
 70
     6
  9
$SURFV
 70
     6
  9
$UCSBASE
  2

  9
$UCSNAME
  2

  9
$UCSORG
 10
0.0
 20
0.0
 30
0.0
  9
$UCSXDIR
 10
1.0
 20
0.0
 30
0.0
  9
$UCSYDIR
 10
0.0
 20
1.0
 30
0.0
  9
$UCSORTHOREF
  2

  9
$UCSORTHOVIEW
 70
     0
  9
$UCSORGTOP
 10
0.0
 20
0.0
 30
0.0
  9
$UCSORGBOTTOM
 10
0.0
 20
0.0
 30
0.0
  9
$UCSORGLEFT
 10
0.0
 20
0.0
 30
0.0
  9
$UCSORGRIGHT
 10
0.0
 20
0.0
 30
0.0
  9
$UCSORGFRONT
 10
0.0
 20
0.0
 30
0.0
  9
$UCSORGBACK
 10
0.0
 20
0.0
 30
0.0
  9
$PUCSBASE
  2

  9
$PUCSNAME
  2

  9
$PUCSORG
 10
0.0
 20
0.0
 30
0.0
  9
$PUCSXDIR
 10
1.0
 20
0.0
 30
0.0
  9
$PUCSYDIR
 10
0.0
 20
1.0
 30
0.0
  9
$PUCSORTHOREF
  2

  9
$PUCSORTHOVIEW
 70
     0
  9
$PUCSORGTOP
 10
0.0
 20
0.0
 30
0.0
  9
$PUCSORGBOTTOM
 10
0.0
 20
0.0
 30
0.0
  9
$PUCSORGLEFT
 10
0.0
 20
0.0
 30
0.0
  9
$PUCSORGRIGHT
 10
0.0
 20
0.0
 30
0.0
  9
$PUCSORGFRONT
 10
0.0
 20
0.0
 30
0.0
  9
$PUCSORGBACK
 10
0.0
 20
0.0
 30
0.0
  9
$USERI1
 70
     0
  9
$USERI2
 70
     0
  9
$USERI3
 70
     0
  9
$USERI4
 70
     0
  9
$USERI5
 70
     0
  9
$USERR1
 40
0.0
  9
$USERR2
 40
0.0
  9
$USERR3
 40
0.0
  9
$USERR4
 40
0.0
  9
$USERR5
 40
0.0
  9
$WORLDVIEW
 70
     1
  9
$SHADEDGE
 70
     3
  9
$SHADEDIF
 70
    70
  9
$TILEMODE
 70
     1
  9
$MAXACTVP
 70
    64
  9
$PINSBASE
 10
0.0
 20
0.0
 30
0.0
  9
$PLIMCHECK
 70
     0
  9
$PEXTMIN
 10
1.0000000000E+20
 20
1.0000000000E+20
 30
1.0000000000E+20
  9
$PEXTMAX
 10
-1.0000000000E+20
 20
-1.0000000000E+20
 30
-1.0000000000E+20
  9
$PLIMMIN
 10
0.0
 20
0.0
  9
$PLIMMAX
 10
420.0
 20
297.0
  9
$UNITMODE
 70
     0
  9
$VISRETAIN
 70
     1
  9
$PLINEGEN
 70
     0
  9
$PSLTSCALE
 70
     1
  9
$TREEDEPTH
 70
  3020
  9
$CMLSTYLE
  2
Standard
  9
$CMLJUST
 70
     0
  9
$CMLSCALE
 40
20.0
  9
$PROXYGRAPHICS
 70
     1
  9
$MEASUREMENT
 70
     1
  9
$CELWEIGHT
370
    -1
  9
$ENDCAPS
280
     0
  9
$JOINSTYLE
280
     0
  9
$LWDISPLAY
290
     1
  9
$INSUNITS
 70
     4
  9
$HYPERLINKBASE
  1

  9
$STYLESHEET
  1

  9
$XEDIT
290
     1
  9
$CEPSNTYPE
380
     0
  9
$PSTYLEMODE
290
     1
  9
$FINGERPRINTGUID
  2
{3D4203B6-04F3-4027-A95B-E11AD472CDA2}
  9
$VERSIONGUID
  2
{FAEB1C32-E019-11D5-929B-00C0DF256EC4}
  9
$EXTNAMES
290
     1
  9
$PSVPSCALE
 40
0.0
  9
$OLESTARTUP
290
     0
  0
ENDSEC
  0
SECTION
  2
CLASSES
  0
CLASS
  1
ACDBDICTIONARYWDFLT
  2
AcDbDictionaryWithDefault
  3
ObjectDBX Classes
 90
        0
280
     0
281
     0
  0
CLASS
  1
VISUALSTYLE
  2
AcDbVisualStyle
  3
ObjectDBX Classes
 90
     4095
280
     0
281
     0
  0
CLASS
  1
MATERIAL
  2
AcDbMaterial
  3
ObjectDBX Classes
 90
     1153
280
     0
281
     0
  0
CLASS
  1
SCALE
  2
AcDbScale
  3
ObjectDBX Classes
 90
     1153
280
     0
281
     0
  0
CLASS
  1
TABLESTYLE
  2
AcDbTableStyle
  3
ObjectDBX Classes
 90
     4095
280
     0
281
     0
  0
CLASS
  1
MLEADERSTYLE
  2
AcDbMLeaderStyle
  3
ACDB_MLEADERSTYLE_CLASS
 90
     4095
280
     0
281
     0
  0
CLASS
  1
SUN
  2
AcDbSun
  3
SCENEOE
 90
     1153
280
     0
281
     0
  0
CLASS
  1
ACDBPLACEHOLDER
  2
AcDbPlaceHolder
  3
ObjectDBX Classes
 90
        0
280
     0
281
     0
  0
CLASS
  1
LAYOUT
  2
AcDbLayout
  3
ObjectDBX Classes
 90
        0
280
     0
281
     0
  0
ENDSEC
  0
SECTION
  2
TABLES
  0
TABLE
  2
VPORT
  5
8
330
0
100
AcDbSymbolTable
 70
     1
  0
VPORT
  5
29
330
8
100
AcDbSymbolTableRecord
100
AcDbViewportTableRecord
  2
*Active
 70
     0
 10
0.0
 20
0.0
 11
1.0
 21
1.0
 12
297.0
 22
420.5
 13
0.0
 23
0.0
 14
10.0
 24
10.0
 15
10.0
 25
10.0
 16
0.0
 26
0.0
 36
1.0
 17
0.0
 27
0.0
 37
0.0
 40
841.0
 41
0.7063020214
 42
50.0
 43
0.0
 44
0.0
 50
0.0
 51
0.0
 71
     0
 72
  2000
 73
     1
 74
     3
 75
     0
 76
     0
 77
     0
 78
     0
281
     0
 65
     1
110
0.0
120
0.0
130
0.0
111
1.0
121
0.0
131
0.0
112
0.0
122
1.0
132
0.0
 79
     0
146
0.0
  0
ENDTAB
  0
TABLE
  2
LTYPE
  5
5
330
0
100
AcDbSymbolTable
 70
     6
  0
LTYPE
  5
14
330
5
100
AcDbSymbolTableRecord
100
AcDbLinetypeTableRecord
  2
ByBlock
 70
     0
  3

 72
    65
 73
     0
 40
0.0
  0
LTYPE
  5
15
330
5
100
AcDbSymbolTableRecord
100
AcDbLinetypeTableRecord
  2
ByLayer
 70
     0
  3

 72
    65
 73
     0
 40
0.0
  0
LTYPE
  5
16
330
5
100
AcDbSymbolTableRecord
100
AcDbLinetypeTableRecord
  2
Continuous
 70
     0
  3
Solid line
 72
    65
 73
     0
 40
0.0
  0
LTYPE
  5
6E
330
5
100
AcDbSymbolTableRecord
100
AcDbLinetypeTableRecord
  2
HIDDEN
 70
     0
  3
Hidden __ __ __ __ __ __ __ __ __ __ __ __ __ __
 72
    65
 73
     2
 40
1.905
 49
1.27
 74
     0
 49
-0.635
 74
     0
  0
LTYPE
  5
6F
330
5
100
AcDbSymbolTableRecord
100
AcDbLinetypeTableRecord
  2
PHANTOM
 70
     0
  3
Phantom ______  __  __  ______  __  __  ______
 72
    65
 73
     6
 40
12.7
 49
6.35
 74
     0
 49
-1.27
 74
     0
 49
1.27
 74
     0
 49
-1.27
 74
     0
 49
1.27
 74
     0
 49
-1.27
 74
     0
  0
LTYPE
  5
70
330
5
100
AcDbSymbolTableRecord
100
AcDbLinetypeTableRecord
  2
CENTER
 70
     0
  3
Center ____ _ ____ _ ____ _ ____ _ ____ _ ____
 72
    65
 73
     4
 40
10.16
 49
6.35
 74
     0
 49
-1.27
 74
     0
 49
1.27
 74
     0
 49
-1.27
 74
     0
  0
LTYPE
  5
71
330
5
100
AcDbSymbolTableRecord
100
AcDbLinetypeTableRecord
  2
CENTERX2
 70
     0
  3
Center (2x) ________  __  ________  __  _____
 72
    65
 73
     4
 40
20.32
 49
12.7
 74
     0
 49
-2.54
 74
     0
 49
2.54
 74
     0
 49
-2.54
 74
     0
  0
LTYPE
  5
72
330
5
100
AcDbSymbolTableRecord
100
AcDbLinetypeTableRecord
  2
DOT2
 70
     0
  3
Dot (.5x) ........................................
 72
    65
 73
     2
 40
0.635
 49
0.0
 74
     0
 49
-0.635
 74
     0
  0
ENDTAB
  0
TABLE
  2
LAYER
  5
2
330
0
100
AcDbSymbolTable
 70
     1
  0
LAYER
  5
10
330
2
100
AcDbSymbolTableRecord
100
AcDbLayerTableRecord
  2
0
 70
     0
 62
     7
  6
Continuous
370
    -3
390
F
  0
ENDTAB
  0
TABLE
  2
STYLE
  5
3
330
0
100
AcDbSymbolTable
 70
     3
  0
STYLE
  5
11
330
3
100
AcDbSymbolTableRecord
100
AcDbTextStyleTableRecord
  2
Standard
 70
     0
 40
0.0
 41
1.0
 50
0.0
 71
     0
 42
10.0
  3
txt
  4

  0
STYLE
  5
76
330
3
100
AcDbSymbolTableRecord
100
AcDbTextStyleTableRecord
  2
SLDTEXTSTYLE0
 70
     0
 40
0.0
 41
0.96
 50
0.0
 71
     0
 42
10.0
  3
ISOCP3
  4

  0
STYLE
  5
8D
330
3
100
AcDbSymbolTableRecord
100
AcDbTextStyleTableRecord
  2
SLDTEXTSTYLE1
 70
     0
 40
0.0
 41
0.605
 50
0.0
 71
     0
 42
10.0
  3
TXT
  4

  0
ENDTAB
  0
TABLE
  2
VIEW
  5
6
330
0
100
AcDbSymbolTable
 70
     0
  0
ENDTAB
  0
TABLE
  2
UCS
  5
7
330
0
100
AcDbSymbolTable
 70
     0
  0
ENDTAB
  0
TABLE
  2
APPID
  5
9
330
0
100
AcDbSymbolTable
 70
     1
  0
APPID
  5
12
330
9
100
AcDbSymbolTableRecord
100
AcDbRegAppTableRecord
  2
ACAD
 70
     0
  0
ENDTAB
  0
TABLE
  2
DIMSTYLE
  5
A
330
0
100
AcDbSymbolTable
 70
     2
100
AcDbDimStyleTable
  0
DIMSTYLE
105
27
330
A
100
AcDbSymbolTableRecord
100
AcDbDimStyleTableRecord
  2
ISO-25
 70
     0
 41
2.5
 42
0.625
 43
3.75
 44
1.25
 73
     0
 74
     0
 77
     1
 78
     8
140
2.5
141
2.5
143
0.0393700787
147
0.625
171
     3
172
     1
178
     0
271
     2
272
     2
274
     3
278
    44
283
     0
284
     8
340
11
  0
DIMSTYLE
105
77
102
{ACAD_REACTORS
330
75
330
82
102
}
330
A
100
AcDbSymbolTableRecord
100
AcDbDimStyleTableRecord
  2
SLDDIMSTYLE0
 70
     0
 41
2.5
 44
0.0
 45
0.000000001
 73
     0
 74
     0
 77
     1
 78
    12
 79
     3
140
6.0
147
1.5
173
     1
178
     0
271
     2
272
     2
276
     2
284
    12
340
76
  0
ENDTAB
  0
TABLE
  2
BLOCK_RECORD
  5
1
330
0
100
AcDbSymbolTable
 70
     3
  0
BLOCK_RECORD
  5
1F
330
1
100
AcDbSymbolTableRecord
100
AcDbBlockTableRecord
  2
*Model_Space
340
22
  0
BLOCK_RECORD
  5
1B
330
1
100
AcDbSymbolTableRecord
100
AcDbBlockTableRecord
  2
*Paper_Space
340
1E
  0
BLOCK_RECORD
  5
23
330
1
100
AcDbSymbolTableRecord
100
AcDbBlockTableRecord
  2
*Paper_Space0
340
26
  0
BLOCK_RECORD
  5
78
330
1
100
AcDbSymbolTableRecord
100
AcDbBlockTableRecord
  2
_D
340
0
  0
BLOCK_RECORD
  5
83
330
1
100
AcDbSymbolTableRecord
100
AcDbBlockTableRecord
  2
_D_1
340
0
  0
ENDTAB
  0
ENDSEC
  0
SECTION
  2
BLOCKS
  0
BLOCK
  5
20
330
1F
100
AcDbEntity
  8
0
100
AcDbBlockBegin
  2
*Model_Space
 70
     0
 10
0.0
 20
0.0
 30
0.0
  3
*Model_Space
  1

  0
ENDBLK
  5
21
330
1F
100
AcDbEntity
  8
0
100
AcDbBlockEnd
  0
BLOCK
  5
1C
330
1B
100
AcDbEntity
 67
     1
  8
0
100
AcDbBlockBegin
  2
*Paper_Space
 70
     0
 10
0.0
 20
0.0
 30
0.0
  3
*Paper_Space
  1

  0
ENDBLK
  5
1D
330
1B
100
AcDbEntity
 67
     1
  8
0
100
AcDbBlockEnd
  0
BLOCK
  5
24
330
23
100
AcDbEntity
  8
0
100
AcDbBlockBegin
  2
*Paper_Space0
 70
     0
 10
0.0
 20
0.0
 30
0.0
  3
*Paper_Space0
  1

  0
ENDBLK
  5
25
330
23
100
AcDbEntity
  8
0
100
AcDbBlockEnd
  0
BLOCK
  5
79
330
78
100
AcDbEntity
  8
0
100
AcDbBlockBegin
  2
_D
 70
     0
 10
0.0
 20
0.0
 30
0.0
  3
_D
  1

  0
SOLID
  5
7B
330
78
100
AcDbEntity
  8
0
  6
Continuous
 62
     7
370
    18
100
AcDbTrace
 10
42.7614395004
 20
152.0299240879
 30
0.0
 11
42.4614395004
 21
149.5299240879
 31
0.0
 12
43.0614395004
 22
149.5299240879
 32
0.0
 13
43.0614395004
 23
149.5299240879
 33
0.0
  0
SOLID
  5
7C
330
78
100
AcDbEntity
  8
0
  6
Continuous
 62
     7
370
    18
100
AcDbTrace
 10
42.7614395004
 20
52.0299240879
 30
0.0
 11
43.0614395004
 21
54.5299240879
 31
0.0
 12
42.4614395004
 22
54.5299240879
 32
0.0
 13
42.4614395004
 23
54.5299240879
 33
0.0
  0
LINE
  5
7D
330
78
100
AcDbEntity
  8
0
  6
Continuous
 62
     7
370
    18
100
AcDbLine
 10
56.6850079902
 20
152.0299240879
 30
0.0
 11
41.7614395004
 21
152.0299240879
 31
0.0
  0
LINE
  5
7E
330
78
100
AcDbEntity
  8
0
  6
Continuous
 62
     7
370
    18
100
AcDbLine
 10
56.6850079902
 20
52.0299240879
 30
0.0
 11
41.7614395004
 21
52.0299240879
 31
0.0
  0
LINE
  5
7F
330
78
100
AcDbEntity
  8
0
  6
Continuous
 62
     7
370
    18
100
AcDbLine
 10
42.7614395004
 20
152.0299240879
 30
0.0
 11
42.7614395004
 21
52.0299240879
 31
0.0
  0
MTEXT
  5
80
330
78
100
AcDbEntity
  8
0
  6
Continuous
 62
     7
370
    18
100
AcDbMText
 10
35.0270332946
 20
94.3680541463
 30
0.0
 40
6.0
 41
0.0
 71
     1
 72
     1
  1
100
  7
SLDTEXTSTYLE0
 11
-7.044195017643634E-15
 21
1.0
 31
0.0
 73
     1
 44
1.0
  0
MTEXT
  5
81
330
78
100
AcDbEntity
  8
0
  6
Continuous
 62
     7
370
    18
100
AcDbMText
 10
35.0270332946
 20
105.7430548466
 30
0.0
 40
6.0
 41
0.0
 71
     1
 72
     1
  1
mm
  7
SLDTEXTSTYLE0
 11
-7.044195017643634E-15
 21
1.0
 31
0.0
 73
     1
 44
1.0
  0
ENDBLK
  5
7A
330
78
100
AcDbEntity
  8
0
100
AcDbBlockEnd
  0
BLOCK
  5
84
330
83
100
AcDbEntity
  8
0
100
AcDbBlockBegin
  2
_D_1
 70
     0
 10
0.0
 20
0.0
 30
0.0
  3
_D_1
  1

  0
SOLID
  5
86
330
83
100
AcDbEntity
  8
0
  6
Continuous
 62
     7
370
    18
100
AcDbTrace
 10
56.6850079902
 20
38.4602342313
 30
0.0
 11
59.1850079902
 21
38.1602342313
 31
0.0
 12
59.1850079902
 22
38.7602342313
 32
0.0
 13
59.1850079902
 23
38.7602342313
 33
0.0
  0
SOLID
  5
87
330
83
100
AcDbEntity
  8
0
  6
Continuous
 62
     7
370
    18
100
AcDbTrace
 10
156.6850079902
 20
38.4602342313
 30
0.0
 11
154.1850079902
 21
38.7602342313
 31
0.0
 12
154.1850079902
 22
38.1602342313
 32
0.0
 13
154.1850079902
 23
38.1602342313
 33
0.0
  0
LINE
  5
88
330
83
100
AcDbEntity
  8
0
  6
Continuous
 62
     7
370
    18
100
AcDbLine
 10
56.6850079902
 20
52.0299240879
 30
0.0
 11
56.6850079902
 21
37.4602342313
 31
0.0
  0
LINE
  5
89
330
83
100
AcDbEntity
  8
0
  6
Continuous
 62
     7
370
    18
100
AcDbLine
 10
156.6850079902
 20
52.0299240879
 30
0.0
 11
156.6850079902
 21
37.4602342313
 31
0.0
  0
LINE
  5
8A
330
83
100
AcDbEntity
  8
0
  6
Continuous
 62
     7
370
    18
100
AcDbLine
 10
56.6850079902
 20
38.4602342313
 30
0.0
 11
156.6850079902
 21
38.4602342313
 31
0.0
  0
MTEXT
  5
8B
330
83
100
AcDbEntity
  8
0
  6
Continuous
 62
     7
370
    18
100
AcDbMText
 10
93.9626484861
 20
46.1946404371
 30
0.0
 40
6.0
 41
0.0
 71
     1
 72
     1
  1
100
  7
SLDTEXTSTYLE0
 73
     1
 44
1.0
  0
MTEXT
  5
8C
330
83
100
AcDbEntity
  8
0
  6
Continuous
 62
     7
370
    18
100
AcDbMText
 10
105.3376491864
 20
46.1946404371
 30
0.0
 40
6.0
 41
0.0
 71
     1
 72
     1
  1
mm
  7
SLDTEXTSTYLE0
 73
     1
 44
1.0
  0
ENDBLK
  5
85
330
83
100
AcDbEntity
  8
0
100
AcDbBlockEnd
  0
ENDSEC
  0
SECTION
  2
ENTITIES
  0
LINE
  5
73
330
1F
100
AcDbEntity
  8
0
  6
Continuous
 62
     7
370
    18
100
AcDbLine
 10
56.6850079902
 20
152.0299240879
 30
0.0
 11
56.6850079902
 21
52.0299240879
 31
0.0
  0
LINE
  5
74
330
1F
100
AcDbEntity
  8
0
  6
Continuous
 62
     7
370
    18
100
AcDbLine
 10
56.6850079902
 20
52.0299240879
 30
0.0
 11
156.6850079902
 21
52.0299240879
 31
0.0
  0
DIMENSION
  5
75
330
1F
100
AcDbEntity
  8
0
  6
Continuous
 62
     7
370
    18
100
AcDbDimension
  2
_D
 10
42.7614395004
 20
52.0299240879
 30
0.0
 11
42.7614395004
 21
105.4472211621
 31
0.0
 70
   160
  1
<>mm
 71
     2
 42
-1.0
  3
SLDDIMSTYLE0
100
AcDbAlignedDimension
 13
56.6850079902
 23
152.0299240879
 33
0.0
 14
56.6850079902
 24
52.0299240879
 34
0.0
 50
90.0
100
AcDbRotatedDimension
  0
DIMENSION
  5
82
330
1F
100
AcDbEntity
  8
0
  6
Continuous
 62
     7
370
    18
100
AcDbDimension
  2
_D_1
 10
156.6850079902
 20
38.4602342313
 30
0.0
 11
105.0418155019
 21
38.4602342313
 31
0.0
 70
   160
  1
<>mm
 71
     2
 42
-1.0
  3
SLDDIMSTYLE0
100
AcDbAlignedDimension
 13
56.6850079902
 23
52.0299240879
 33
0.0
 14
156.6850079902
 24
52.0299240879
 34
0.0
100
AcDbRotatedDimension
  0
MTEXT
  5
8E
330
1F
100
AcDbEntity
  8
0
  6
Continuous
 62
     7
370
     0
100
AcDbMText
 10
412.8252631579
 20
48.4342449499
 30
0.0
 40
10.0
 41
0.0
 71
     1
 72
     1
  1
KLUDI GmbH & Co KG
  7
SLDTEXTSTYLE1
 73
     1
 44
1.0
  0
MTEXT
  5
8F
330
1F
100
AcDbEntity
  8
0
  6
Continuous
 62
     7
370
     0
100
AcDbMText
 10
210.0873490389
 20
48.4342449499
 30
0.0
 40
10.0
 41
0.0
 71
     1
 72
     1
  1
34 024 05 75
  7
SLDTEXTSTYLE1
 73
     1
 44
1.0
  0
ARC
  5
90
330
1F
100
AcDbEntity
  8
0
  6
Continuous
 62
     7
370
    25
100
AcDbCircle
 10
321.8104919888
 20
316.5651916376
 30
0.0
 40
0.1999999999999318
100
AcDbArc
 50
180.0
 51
270.0
  0
ARC
  5
91
330
1F
100
AcDbEntity
  8
0
  6
Continuous
 62
     7
370
    25
100
AcDbCircle
 10
371.4104919888
 20
316.5651916376
 30
0.0
 40
0.1999999999999886
100
AcDbArc
 50
270.0
 51
0.0
  0
LINE
  5
92
330
1F
100
AcDbEntity
  8
0
  6
Continuous
 62
     7
370
    25
100
AcDbLine
 10
321.6104916163
 20
319.7544649421
 30
0.0
 11
321.6104916163
 21
316.5651916326
 31
0.0
  0
LINE
  5
93
330
1F
100
AcDbEntity
  8
0
  6
Continuous
 62
     7
370
    25
100
AcDbLine
 10
371.6104923614
 20
316.5651916326
 30
0.0
 11
371.6104923614
 21
319.7544649421
 31
0.0
  0
ARC
  5
94
330
1F
100
AcDbEntity
  8
0
  6
Continuous
 62
     7
370
    25
100
AcDbCircle
 10
370.6104919888
 20
319.754464999
 30
0.0
 40
1.000000000000006
100
AcDbArc
 50
0.0
 51
63.5200440425
  0
ARC
  5
95
330
1F
100
AcDbEntity
  8
0
  6
Continuous
 62
     7
370
    25
100
AcDbCircle
 10
322.6104919888
 20
319.754464999
 30
0.0
 40
1.000000000000057
100
AcDbArc
 50
116.4799559575
 51
180.0
  0
ARC
  5
96
330
1F
100
AcDbEntity
  8
0
  6
Continuous
 62
     7
370
    25
100
AcDbCircle
 10
333.7576096604
 20
297.377204943
 30
0.0
 40
25.99999999999999
100
AcDbArc
 50
104.6430576274
 51
116.4799559575
  0
ARC
  5
97
330
1F
100
AcDbEntity
  8
0
  6
Continuous
 62
     7
370
    25
100
AcDbCircle
 10
359.4633743172
 20
297.377204943
 30
0.0
 40
26.00000000000004
100
AcDbArc
 50
63.5200440425
 51
75.3569423726
  0
ARC
  5
98
330
1F
100
AcDbEntity
  8
0
  6
Continuous
 62
     7
370
    25
100
AcDbCircle
 10
365.7832872645
 20
321.5651916376
 30
0.0
 40
1.000000000000034
100
AcDbArc
 50
75.3569423726
 51
90.0
  0
ARC
  5
99
330
1F
100
AcDbEntity
  8
0
  6
Continuous
 62
     7
370
    25
100
AcDbCircle
 10
327.4376967132
 20
321.5651916376
 30
0.0
 40
1.000000000000019
100
AcDbArc
 50
90.0
 51
104.6430576274
  0
LINE
  5
9A
330
1F
100
AcDbEntity
  8
0
  6
Continuous
 62
     7
370
    25
100
AcDbLine
 10
364.610491214
 20
322.765191476
 30
0.0
 11
364.610491214
 21
415.857011377
 31
0.0
  0
LINE
  5
9B
330
1F
100
AcDbEntity
  8
0
  6
Continuous
 62
     7
370
    25
100
AcDbLine
 10
328.6104927637
 20
415.857011377
 30
0.0
 11
328.6104927637
 21
322.765191476
 31
0.0
  0
ARC
  5
9C
330
1F
100
AcDbEntity
  8
0
  6
Continuous
 62
     7
370
    25
100
AcDbCircle
 10
364.4104919888
 20
322.7651916376
 30
0.0
 40
0.2000000000000455
100
AcDbArc
 50
270.0
 51
0.0
  0
ARC
  5
9D
330
1F
100
AcDbEntity
  8
0
  6
Continuous
 62
     7
370
    25
100
AcDbCircle
 10
328.8104919888
 20
322.7651916376
 30
0.0
 40
0.1999999999999886
100
AcDbArc
 50
180.0
 51
270.0
  0
ARC
  5
9E
330
1F
100
AcDbEntity
  8
0
  6
Continuous
 62
     7
370
    25
100
AcDbCircle
 10
329.6104919888
 20
415.8570136797
 30
0.0
 40
1.0
100
AcDbArc
 50
125.6847825153
 51
180.0
  0
ARC
  5
9F
330
1F
100
AcDbEntity
  8
0
  6
Continuous
 62
     7
370
    25
100
AcDbCircle
 10
363.6104919888
 20
415.8570136797
 30
0.0
 40
1.0
100
AcDbArc
 50
0.0
 51
54.3152174847
  0
ARC
  5
A0
330
1F
100
AcDbEntity
  8
0
  6
Continuous
 62
     7
370
    25
100
AcDbCircle
 10
348.8602336631
 20
389.0531437077
 30
0.0
 40
34.00000000000004
100
AcDbArc
 50
113.2854343066
 51
125.6847825153
  0
ARC
  5
A1
330
1F
100
AcDbEntity
  8
0
  6
Continuous
 62
     7
370
    25
100
AcDbCircle
 10
344.3607503146
 20
389.0531437077
 30
0.0
 40
33.99999999999999
100
AcDbArc
 50
54.3152174847
 51
66.7145656934
  0
ARC
  5
A2
330
1F
100
AcDbEntity
  8
0
  6
Continuous
 62
     7
370
    25
100
AcDbCircle
 10
335.8149375647
 20
419.3651916376
 30
0.0
 40
1.000000000000046
100
AcDbArc
 50
90.0
 51
113.2854343066
  0
ARC
  5
A3
330
1F
100
AcDbEntity
  8
0
  6
Continuous
 62
     7
370
    25
100
AcDbCircle
 10
357.4060464129
 20
419.3651916376
 30
0.0
 40
1.000000000000016
100
AcDbArc
 50
66.7145656934
 51
90.0
  0
LINE
  5
A4
330
1F
100
AcDbEntity
  8
0
  6
Continuous
 62
     7
370
    25
100
AcDbLine
 10
356.6104917653
 20
420.3651937834
 30
0.0
 11
356.6104917653
 21
549.3651869885
 31
0.0
  0
LINE
  5
A5
330
1F
100
AcDbEntity
  8
0
  6
Continuous
 62
     7
370
    25
100
AcDbLine
 10
336.6104922123
 20
549.3651869885
 30
0.0
 11
336.6104922123
 21
420.3651937834
 31
0.0
  0
ARC
  5
A6
330
1F
100
AcDbEntity
  8
0
  6
Continuous
 62
     7
370
    25
100
AcDbCircle
 10
384.6104919888
 20
549.3651916376
 30
0.0
 40
28.0
100
AcDbArc
 50
90.0
 51
180.0
  0
ARC
  5
A7
330
1F
100
AcDbEntity
  8
0
  6
Continuous
 62
     7
370
    25
100
AcDbCircle
 10
384.6104919888
 20
549.3651916376
 30
0.0
 40
48.00000000000006
100
AcDbArc
 50
90.0
 51
180.0
  0
LINE
  5
A8
330
1F
100
AcDbEntity
  8
0
  6
Continuous
 62
     7
370
    25
100
AcDbLine
 10
454.7989795782
 20
597.3651799551
 30
0.0
 11
384.6104907669
 21
597.3651799551
 31
0.0
  0
LINE
  5
A9
330
1F
100
AcDbEntity
  8
0
  6
Continuous
 62
     7
370
    25
100
AcDbLine
 10
384.6104907669
 20
577.3651990286
 30
0.0
 11
454.7989795782
 21
577.3651990286
 31
0.0
  0
ARC
  5
AA
330
1F
100
AcDbEntity
  8
0
  6
Continuous
 62
     7
370
    25
100
AcDbCircle
 10
454.7989830511
 20
549.3651916376
 30
0.0
 40
28.0
100
AcDbArc
 50
15.0
 51
90.0
  0
ARC
  5
AB
330
1F
100
AcDbEntity
  8
0
  6
Continuous
 62
     7
370
    25
100
AcDbCircle
 10
454.7989830511
 20
549.3651916376
 30
0.0
 40
47.99999999999991
100
AcDbArc
 50
15.0
 51
90.0
  0
LINE
  5
AC
330
1F
100
AcDbEntity
  8
0
  6
Continuous
 62
     7
370
    25
100
AcDbLine
 10
506.883328674
 20
540.4415521017
 30
0.0
 11
501.1634285428
 21
561.7885085932
 31
0.0
  0
LINE
  5
AD
330
1F
100
AcDbEntity
  8
0
  6
Continuous
 62
     7
370
    25
100
AcDbLine
 10
481.84490752
 20
556.6121283165
 30
0.0
 11
487.5648076512
 21
535.2651569239
 31
0.0
  0
LINE
  5
AE
330
1F
100
AcDbEntity
  8
0
  6
Continuous
 62
     7
370
    25
100
AcDbLine
 10
510.5067844369
 20
526.9185844055
 30
0.0
 11
506.883328674
 21
540.4415521017
 31
0.0
  0
LINE
  5
AF
330
1F
100
AcDbEntity
  8
0
  6
Continuous
 62
     7
370
    25
100
AcDbLine
 10
487.5648076512
 20
535.2651569239
 30
0.0
 11
491.1882783152
 21
521.7422041289
 31
0.0
  0
LINE
  5
B0
330
1F
100
AcDbEntity
  8
0
  6
Continuous
 62
     7
370
    25
100
AcDbLine
 10
492.2024960496
 20
522.0139566055
 30
0.0
 11
492.3836643674
 21
521.3378164164
 31
0.0
  0
LINE
  5
B1
330
1F
100
AcDbEntity
  8
0
  6
Continuous
 62
     7
370
    25
100
AcDbLine
 10
509.6737350203
 20
525.9706768385
 30
0.0
 11
509.4925667025
 21
526.6468170277
 31
0.0
  0
SPLINE
  5
B2
330
1F
100
AcDbEntity
  8
0
  6
Continuous
 62
     7
370
    25
100
AcDbSpline
210
0.0
220
0.0
230
1.0
 70
     8
 71
     3
 72
    15
 73
    11
 74
     0
 42
0.000000001
 43
0.00000001
 40
0.0
 40
0.0
 40
0.0
 40
0.0
 40
0.1212391664429925
 40
0.2429835549415637
 40
0.3540080077119377
 40
0.4502320112668247
 40
0.5583220761992626
 40
0.6874630056888884
 40
0.8597035227605697
 40
1.0
 40
1.0
 40
1.0
 40
1.0
 10
373.2195923902235
 20
439.5824390641403
 30
0.0
 10
373.2872189737801
 20
439.9304433991616
 30
0.0
 10
373.4227539511577
 20
440.6279022562241
 30
0.0
 10
373.5130663138755
 20
441.6677180679879
 30
0.0
 10
373.2991823949928
 20
442.6237192971914
 30
0.0
 10
372.8395267759494
 20
443.4251262993591
 30
0.0
 10
372.2126259466153
 20
444.1637962282732
 30
0.0
 10
371.311824897895
 20
444.9289072849757
 30
0.0
 10
370.2712090149283
 20
445.6697011237446
 30
0.0
 10
369.4651568297884
 20
446.0841792629204
 30
0.0
 10
369.1033235617123
 20
446.2702366701317
 30
0.0
  0
SPLINE
  5
B3
330
1F
100
AcDbEntity
  8
0
  6
Continuous
 62
     7
370
    25
100
AcDbSpline
210
0.0
220
0.0
230
1.0
 70
     8
 71
     3
 72
    13
 73
     9
 74
     0
 42
0.000000001
 43
0.00000001
 40
0.0
 40
0.0
 40
0.0
 40
0.0
 40
0.1661263848889983
 40
0.3734212523555059
 40
0.5591736915149136
 40
0.7548353451600712
 40
0.9550655676699772
 40
0.9999999999999999
 40
0.9999999999999999
 40
0.9999999999999999
 40
0.9999999999999999
 10
369.0882845647774
 20
446.242356597538
 30
0.0
 10
368.4524226530831
 20
446.5686308970724
 30
0.0
 10
367.0231231980405
 20
447.3020349112811
 30
0.0
 10
364.7361955465935
 20
448.1211426151094
 30
0.0
 10
362.2616840470463
 20
448.7747385416065
 30
0.0
 10
359.7620514730458
 20
449.1271262212771
 30
0.0
 10
357.8531965161209
 20
449.2648048570393
 30
0.0
 10
356.8029785224209
 20
449.2181718483702
 30
0.0
 10
356.6104917653046
 20
449.2096248260689
 30
0.0
  0
LINE
  5
B4
330
1F
100
AcDbEntity
  8
0
  6
Continuous
 62
     7
370
    25
100
AcDbLine
 10
371.4104927011
 20
316.3651916376
 30
0.0
 11
321.8104912765
 21
316.3651916376
 31
0.0
  0
LINE
  5
B5
330
1F
100
AcDbEntity
  8
0
  6
Continuous
 62
     7
370
    25
100
AcDbLine
 10
327.4376968719
 20
322.5651918157
 30
0.0
 11
365.7832871057
 21
322.5651918157
 31
0.0
  0
LINE
  5
B6
330
1F
100
AcDbEntity
  8
0
  6
Continuous
 62
     7
370
    25
100
AcDbLine
 10
335.8149378427
 20
420.3651937834
 30
0.0
 11
357.406046135
 21
420.3651937834
 31
0.0
  0
LWPOLYLINE
  5
B7
330
1F
100
AcDbEntity
  8
0
  6
Continuous
 62
     7
370
    25
100
AcDbPolyline
 90
       18
 70
   128
 43
0.0
 10
510.5067844369
 20
526.9185844055
 10
510.3322322346
 20
526.8718096605
 10
509.8148788192
 20
526.733184158
 10
508.9734102465
 20
526.5077146879
 10
507.8382695891
 20
526.2035521856
 10
506.4504499413
 20
525.8316937081
 10
504.8601384141
 20
525.4055652014
 10
503.1247938849
 20
524.9405893675
 10
501.3071353413
 20
524.4535449139
 10
499.4728769042
 20
523.9620599142
 10
497.6882989384
 20
523.4838816515
 10
496.0179085709
 20
523.0362954727
 10
494.5220704056
 20
522.6354840389
 10
493.2548458554
 20
522.2959312788
 10
492.2620410897
 20
522.0299157492
 10
491.5795381047
 20
521.847048699
 10
491.2320132233
 20
521.7539164416
 10
491.1882783152
 20
521.7422041289
  0
LWPOLYLINE
  5
B8
330
1F
100
AcDbEntity
  8
0
  6
Continuous
 62
     7
370
    25
100
AcDbPolyline
 90
        5
 70
   128
 43
0.0
 10
509.2390681483
 20
525.8542093626
 10
509.4283277966
 20
525.9049180142
 10
509.5643902995
 20
525.9413662544
 10
509.6463615872
 20
525.9633454672
 10
509.6737350203
 20
525.9706768385
  0
LINE
  5
B9
330
1F
100
AcDbEntity
  8
0
  6
Continuous
 62
     7
370
    25
100
AcDbLine
 10
509.9731440522
 20
523.1146308771
 30
0.0
 11
509.2390681483
 21
525.8542093626
 31
0.0
  0
LWPOLYLINE
  5
BA
330
1F
100
AcDbEntity
  8
0
  6
Continuous
 62
     7
370
    25
100
AcDbPolyline
 90
       13
 70
   128
 43
0.0
 10
493.5524071433
 20
518.7147054068
 10
494.2914749362
 20
518.912741839
 10
495.3548516013
 20
519.1976818434
 10
496.6963733412
 20
519.5571425549
 10
498.2578213193
 20
519.9755224577
 10
499.9714250542
 20
520.4346868387
 10
501.7627681472
 20
520.914668142
 10
503.5541261412
 20
521.3946643463
 10
505.267714975
 20
521.8538138262
 10
506.8291629531
 20
522.2722086302
 10
508.1706995942
 20
522.6316693417
 10
509.2340762593
 20
522.916609346
 10
509.9731440522
 20
523.1146308771
  0
LINE
  5
BB
330
1F
100
AcDbEntity
  8
0
  6
Continuous
 62
     7
370
    25
100
AcDbLine
 10
492.8183312394
 20
521.4542838923
 30
0.0
 11
493.5524071433
 21
518.7147054068
 31
0.0
  0
LWPOLYLINE
  5
BC
330
1F
100
AcDbEntity
  8
0
  6
Continuous
 62
     7
370
    25
100
AcDbPolyline
 90
        5
 70
   128
 43
0.0
 10
492.3836643674
 20
521.3378164164
 10
492.4110527016
 20
521.3451477877
 10
492.4930239894
 20
521.3671120993
 10
492.6290715911
 20
521.4035752407
 10
492.8183312394
 20
521.4542838923
  0
LWPOLYLINE
  5
BD
330
1F
100
AcDbEntity
  8
0
  6
Continuous
 62
     7
370
    25
100
AcDbPolyline
 90
       16
 70
   128
 43
0.0
 10
493.5947860457
 20
518.5564997784
 10
493.7742109276
 20
518.6045858256
 10
494.3046177603
 20
518.7466981999
 10
495.1628352381
 20
518.9766678206
 10
496.3113571383
 20
519.2844066015
 10
497.6999814488
 20
519.6564885966
 10
499.2680157401
 20
520.0766417376
 10
500.946944473
 20
520.526507794
 10
502.6633794285
 20
520.9864321343
 10
504.3423081614
 20
521.4362981907
 10
505.9103424527
 20
521.8564513317
 10
507.2989667632
 20
522.2285333267
 10
508.4474886634
 20
522.5362721077
 10
509.3057061412
 20
522.7662268273
 10
509.8361129739
 20
522.9083541027
 10
510.0155378558
 20
522.9564252487
  0
SPLINE
  5
BE
330
1F
100
AcDbEntity
  8
0
  6
Continuous
 62
     7
370
    25
100
AcDbSpline
210
0.0
220
0.0
230
1.0
 70
     8
 71
     3
 72
    11
 73
     7
 74
     0
 42
0.000000001
 43
0.00000001
 40
0.0
 40
0.0
 40
0.0
 40
0.0
 40
0.30105582251497
 40
0.4756296612421161
 40
0.8251045338266735
 40
1.0
 40
1.0
 40
1.0
 40
1.0
 10
364.6104912139616
 20
392.6654103389931
 30
0.0
 10
365.2712559543839
 20
397.4084234607122
 30
0.0
 10
366.315179659371
 20
404.9017770371507
 30
0.0
 10
368.7585614543862
 20
417.7964630874187
 30
0.0
 10
370.9498282099624
 20
428.6936723231317
 30
0.0
 10
372.6348458526262
 20
436.8609668765264
 30
0.0
 10
373.196856943532
 20
439.5850393167686
 30
0.0
  0
LINE
  5
BF
330
1F
100
AcDbEntity
  8
0
  6
Continuous
 62
     8
370
    18
100
AcDbLine
 10
321.6104916163
 20
316.5651916326
 30
0.0
 11
371.6104923614
 21
316.5651916326
 31
0.0
  0
LINE
  5
C0
330
1F
100
AcDbEntity
  8
0
  6
Continuous
 62
     8
370
    18
100
AcDbLine
 10
371.6104923614
 20
319.7544649421
 30
0.0
 11
321.6104916163
 21
319.7544649421
 31
0.0
  0
LINE
  5
C1
330
1F
100
AcDbEntity
  8
0
  6
Continuous
 62
     8
370
    18
100
AcDbLine
 10
322.1646080591
 20
320.6495553433
 30
0.0
 11
371.0563759186
 21
320.6495553433
 31
0.0
  0
LINE
  5
C2
330
1F
100
AcDbEntity
  8
0
  6
Continuous
 62
     8
370
    18
100
AcDbLine
 10
366.0360834427
 20
322.5327110096
 30
0.0
 11
327.1849005349
 21
322.5327110096
 31
0.0
  0
LINE
  5
C3
330
1F
100
AcDbEntity
  8
0
  6
Continuous
 62
     8
370
    18
100
AcDbLine
 10
364.610491214
 20
415.857011377
 30
0.0
 11
328.6104927637
 21
415.857011377
 31
0.0
  0
LINE
  5
C4
330
1F
100
AcDbEntity
  8
0
  6
Continuous
 62
     8
370
    18
100
AcDbLine
 10
328.6104927637
 20
322.765191476
 30
0.0
 11
364.610491214
 21
322.765191476
 31
0.0
  0
LINE
  5
C5
330
1F
100
AcDbEntity
  8
0
  6
Continuous
 62
     8
370
    18
100
AcDbLine
 10
329.0271664836
 20
416.6692513219
 30
0.0
 11
364.1938174941
 21
416.6692513219
 31
0.0
  0
LINE
  5
C6
330
1F
100
AcDbEntity
  8
0
  6
Continuous
 62
     8
370
    18
100
AcDbLine
 10
357.801358109
 20
420.2837365857
 30
0.0
 11
335.4196258687
 21
420.2837365857
 31
0.0
  0
SPLINE
  5
C7
330
1F
100
AcDbEntity
  8
0
  6
Continuous
 62
     8
370
    18
100
AcDbSpline
210
0.0
220
0.0
230
1.0
 70
     8
 71
     3
 72
    30
 73
    26
 74
     0
 42
0.000000001
 43
0.00000001
 40
0.0
 40
0.0
 40
0.0
 40
0.0
 40
0.0625000000000004
 40
0.0625000000000004
 40
0.1250000000000008
 40
0.1250000000000008
 40
0.1875000000000012
 40
0.1875000000000012
 40
0.2500000000000016
 40
0.2500000000000016
 40
0.3125000000000019
 40
0.3125000000000019
 40
0.3750000000000023
 40
0.3750000000000023
 40
0.4375000000000027
 40
0.4375000000000027
 40
0.5000000000000031
 40
0.5000000000000031
 40
0.6250000000000023
 40
0.6250000000000023
 40
0.7500000000000016
 40
0.7500000000000016
 40
0.8750000000000008
 40
0.8750000000000008
 40
1.0
 40
1.0
 40
1.0
 40
1.0
 10
373.1968098322593
 20
439.5852126717455
 30
0.0
 10
373.2328693522038
 20
439.761253251599
 30
0.0
 10
373.2657325676388
 20
439.9393558328234
 30
0.0
 10
373.323746847673
 20
440.2937146970641
 30
0.0
 10
373.3486540771315
 20
440.4707107986008
 30
0.0
 10
373.3828820220254
 20
440.825159030376
 30
0.0
 10
373.3924811090256
 20
441.0030331465612
 30
0.0
 10
373.3814370882382
 20
441.3582977531966
 30
0.0
 10
373.3598242210375
 20
441.5321836499603
 30
0.0
 10
373.2743881123671
 20
441.8720174781112
 30
0.0
 10
373.2115566880432
 20
442.0372057623529
 30
0.0
 10
373.0594279561109
 20
442.3617481791275
 30
0.0
 10
372.9721106494233
 20
442.5182074726181
 30
0.0
 10
372.7834415909415
 20
442.8242022074303
 30
0.0
 10
372.6817140233708
 20
442.9745440658367
 30
0.0
 10
372.4675664662947
 20
443.2645496732654
 30
0.0
 10
372.3556811302733
 20
443.4036859830871
 30
0.0
 10
372.0068805017525
 20
443.8068984392237
 30
0.0
 10
371.7577498035201
 20
444.0573630848278
 30
0.0
 10
371.2280210901977
 20
444.5279649339412
 30
0.0
 10
370.9511081069368
 20
444.7451341093752
 30
0.0
 10
370.3795634625596
 20
445.1536431307018
 30
0.0
 10
370.0847145700195
 20
445.3448939029123
 30
0.0
 10
369.4791845691331
 20
445.707338159168
 30
0.0
 10
369.1672799689896
 20
445.8794002054699
 30
0.0
 10
368.851353460979
 20
446.0425168591142
 30
0.0
  0
SPLINE
  5
C8
330
1F
100
AcDbEntity
  8
0
  6
Continuous
 62
     8
370
    18
100
AcDbSpline
210
0.0
220
0.0
230
1.0
 70
     8
 71
     3
 72
    10
 73
     6
 74
     0
 42
0.000000001
 43
0.00000001
 40
0.0
 40
0.0
 40
0.0
 40
0.0
 40
0.3963689116986984
 40
0.7927413731129698
 40
1.0
 40
1.0
 40
1.0
 40
1.0
 10
368.8513467885695
 20
446.0425171247673
 30
0.0
 10
368.8941311425398
 20
446.0949103791841
 30
0.0
 10
368.9797002336396
 20
446.1996973572298
 30
0.0
 10
369.0592758056108
 20
446.2617928820682
 30
0.0
 10
369.0803140849088
 20
446.2462484234941
 30
0.0
 10
369.0875376440725
 20
446.2409111849022
 30
0.0
  0
SPLINE
  5
C9
330
1F
100
AcDbEntity
  8
0
  6
Continuous
 62
     8
370
    18
100
AcDbSpline
210
0.0
220
0.0
230
1.0
 70
     8
 71
     3
 72
    11
 73
     7
 74
     0
 42
0.000000001
 43
0.00000001
 40
0.0
 40
0.0
 40
0.0
 40
0.0
 40
0.211717649993177
 40
0.4263707142127062
 40
0.7173435362474091
 40
1.0
 40
1.0
 40
1.0
 40
1.0
 10
368.8513505138598
 20
446.0424873224449
 30
0.0
 10
368.0466701795063
 20
446.4296047999028
 30
0.0
 10
366.4261528117656
 20
447.209207045409
 30
0.0
 10
363.5331615941162
 20
448.1797128292895
 30
0.0
 10
360.2288443824888
 20
448.8534952353089
 30
0.0
 10
357.8048953343617
 20
448.896563599897
 30
0.0
 10
356.6104917653046
 20
448.9177855840874
 30
0.0
  0
LINE
  5
CA
330
1F
100
AcDbEntity
  8
0
  6
Continuous
 62
     7
370
    25
100
AcDbLine
 10
131.1392371945
 20
524.3303868166
 30
0.0
 11
131.1392371945
 21
537.8533545128
 31
0.0
  0
LINE
  5
CB
330
1F
100
AcDbEntity
  8
0
  6
Continuous
 62
     7
370
    25
100
AcDbLine
 10
111.1392376416
 20
537.8533545128
 30
0.0
 11
111.1392376416
 21
524.3303868166
 31
0.0
  0
LINE
  5
CC
330
1F
100
AcDbEntity
  8
0
  6
Continuous
 62
     7
370
    25
100
AcDbLine
 10
126.8918763318
 20
519.1368851057
 30
0.0
 11
127.1964276612
 21
519.2093494526
 31
0.0
  0
LINE
  5
CD
330
1F
100
AcDbEntity
  8
0
  6
Continuous
 62
     7
370
    25
100
AcDbLine
 10
115.0820471749
 20
519.2093494526
 30
0.0
 11
115.3865985044
 21
519.1368851057
 31
0.0
  0
LINE
  5
CE
330
1F
100
AcDbEntity
  8
0
  6
Continuous
 62
     7
370
    25
100
AcDbLine
 10
112.1892377206
 20
524.3303868166
 30
0.0
 11
112.1892377206
 21
520.914668142
 31
0.0
  0
LINE
  5
CF
330
1F
100
AcDbEntity
  8
0
  6
Continuous
 62
     7
370
    25
100
AcDbLine
 10
130.0892371156
 20
520.914668142
 30
0.0
 11
130.0892371156
 21
524.3303868166
 31
0.0
  0
LINE
  5
D0
330
1F
100
AcDbEntity
  8
0
  6
Continuous
 62
     7
370
    25
100
AcDbLine
 10
131.1392371945
 20
537.8533545128
 30
0.0
 11
131.1392371945
 21
559.2003110043
 31
0.0
  0
LINE
  5
D1
330
1F
100
AcDbEntity
  8
0
  6
Continuous
 62
     7
370
    25
100
AcDbLine
 10
111.1392376416
 20
559.2003110043
 30
0.0
 11
111.1392376416
 21
537.8533545128
 31
0.0
  0
LINE
  5
D2
330
1F
100
AcDbEntity
  8
0
  6
Continuous
 62
     7
370
    25
100
AcDbLine
 10
111.1392376416
 20
587.3651894919
 30
0.0
 11
111.1392376416
 21
559.2003110043
 31
0.0
  0
LINE
  5
D3
330
1F
100
AcDbEntity
  8
0
  6
Continuous
 62
     7
370
    25
100
AcDbLine
 10
131.1392371945
 20
559.2003110043
 30
0.0
 11
131.1392371945
 21
587.3651894919
 31
0.0
  0
SPLINE
  5
D4
330
1F
100
AcDbEntity
  8
0
  6
Continuous
 62
     7
370
    25
100
AcDbSpline
210
0.0
220
0.0
230
1.0
 70
     8
 71
     3
 72
    28
 73
    24
 74
     0
 42
0.000000001
 43
0.00000001
 40
0.0
 40
0.0
 40
0.0
 40
0.0
 40
0.001567417913351
 40
0.0076034857006872
 40
0.0138531045012853
 40
0.0273568833053278
 40
0.0421177784694879
 40
0.1004145200494998
 40
0.1495405838048254
 40
0.1907251026526481
 40
0.2224636569166633
 40
0.2406612079067241
 40
0.2533535203019702
 40
0.269792170816031
 40
0.2939254727598024
 40
0.3369886941832638
 40
0.3933767304874608
 40
0.4628942806300168
 40
0.5455496077686296
 40
0.6413897881323474
 40
0.7504302146797155
 40
0.872647774118399
 40
1.0
 40
1.0
 40
1.0
 40
1.0
 10
190.3688029788829
 20
362.3421806088638
 30
0.0
 10
190.3745099244248
 20
362.3705422693216
 30
0.0
 10
190.4021941038978
 20
362.5081236239189
 30
0.0
 10
190.4692692118439
 20
362.8603964277283
 30
0.0
 10
190.5967583421137
 20
363.544781353136
 30
0.0
 10
190.7740736936362
 20
364.5383342041086
 30
0.0
 10
191.1878205343955
 20
367.0167927967178
 30
0.0
 10
191.6314499461557
 20
370.4876398205571
 30
0.0
 10
191.9105080214795
 20
374.8080694799891
 30
0.0
 10
191.9857606101544
 20
378.3553625452046
 30
0.0
 10
191.9786906318601
 20
380.9772821074538
 30
0.0
 10
191.9721323598332
 20
382.771535253309
 30
0.0
 10
191.9667864312737
 20
384.1128717202079
 30
0.0
 10
191.9625996821806
 20
385.6163229467812
 30
0.0
 10
191.9671634817896
 20
387.9814672232454
 30
0.0
 10
191.967992840717
 20
391.4756398328232
 30
0.0
 10
191.9595648918873
 20
396.2545002298014
 30
0.0
 10
191.9606471056814
 20
402.1533898214478
 30
0.0
 10
191.9653348342713
 20
409.168679907461
 30
0.0
 10
191.9682827666223
 20
417.302230204183
 30
0.0
 10
191.9677562025612
 20
426.5551750018083
 30
0.0
 10
191.9655307008256
 20
436.6997414079616
 30
0.0
 10
191.9654904108411
 20
443.7598530497161
 30
0.0
 10
191.9654698513843
 20
447.3625364891242
 30
0.0
  0
SPLINE
  5
D5
330
1F
100
AcDbEntity
  8
0
  6
Continuous
 62
     7
370
    25
100
AcDbSpline
210
0.0
220
0.0
230
1.0
 70
     8
 71
     3
 72
    14
 73
    10
 74
     0
 42
0.000000001
 43
0.00000001
 40
0.0
 40
0.0
 40
0.0
 40
0.0
 40
0.1436516566614254
 40
0.2752634622192721
 40
0.3590325492091891
 40
0.4697266383158655
 40
0.6140478476597706
 40
0.7890843420186868
 40
1.0
 40
1.0
 40
1.0
 40
1.0
 10
188.9044360660411
 20
448.5195371500205
 30
0.0
 10
188.5727661102341
 20
448.1978031971453
 30
0.0
 10
187.9372243944519
 20
447.5813007227557
 30
0.0
 10
187.3017042596983
 20
446.7802936806723
 30
0.0
 10
186.6379868512582
 20
445.8823026485572
 30
0.0
 10
186.0595379834037
 20
444.9926371846011
 30
0.0
 10
185.4521945753339
 20
443.8925196465831
 30
0.0
 10
184.8555382147177
 20
442.5524955941676
 30
0.0
 10
184.5608205784364
 20
441.6054860499854
 30
0.0
 10
184.3997628830768
 20
441.0879629841995
 30
0.0
  0
SPLINE
  5
D6
330
1F
100
AcDbEntity
  8
0
  6
Continuous
 62
     7
370
    25
100
AcDbSpline
210
0.0
220
0.0
230
1.0
 70
     8
 71
     3
 72
    23
 73
    19
 74
     0
 42
0.000000001
 43
0.00000001
 40
0.0
 40
0.0
 40
0.0
 40
0.0
 40
0.0281404855681221
 40
0.0954091132640107
 40
0.1466360816581334
 40
0.1990266086672044
 40
0.2779182135266391
 40
0.3649475497284804
 40
0.4465276785282633
 40
0.5544605930745832
 40
0.6446147097336659
 40
0.6746456973980662
 40
0.7170117771508688
 40
0.7712099175655565
 40
0.819070913876113
 40
0.87301245196221
 40
0.9332439062044732
 40
0.9999999999999999
 40
0.9999999999999999
 40
0.9999999999999999
 40
0.9999999999999999
 10
184.4939456724025
 20
441.3791242233467
 30
0.0
 10
184.365958913168
 20
440.979634232927
 30
0.0
 10
183.9320252776398
 20
439.6251804993011
 30
0.0
 10
183.5465674954297
 20
437.4352832577144
 30
0.0
 10
183.3176683138164
 20
434.7646341428493
 30
0.0
 10
183.3102556602196
 20
431.887487804905
 30
0.0
 10
183.5393890921189
 20
428.4594952956398
 30
0.0
 10
183.9459877958621
 20
424.6110976832109
 30
0.0
 10
184.422777299051
 20
420.3270369827413
 30
0.0
 10
184.8795744703999
 20
416.002143013051
 30
0.0
 10
185.1620979750616
 20
412.5569787644152
 30
0.0
 10
185.2796581304154
 20
410.3812041058729
 30
0.0
 10
185.3319032781164
 20
408.6962531954156
 30
0.0
 10
185.3074847480686
 20
406.8096991577118
 30
0.0
 10
185.1444300914067
 20
404.7986779904241
 30
0.0
 10
184.7658474833406
 20
402.7513938828296
 30
0.0
 10
184.0283121517574
 20
400.5076132925587
 30
0.0
 10
183.0278503215188
 20
399.1553431004145
 30
0.0
 10
182.5019174658157
 20
398.4444680801582
 30
0.0
  0
ARC
  5
D7
330
1F
100
AcDbEntity
  8
0
  6
Continuous
 62
     7
370
    25
100
AcDbCircle
 10
145.1392374181
 20
319.754464999
 30
0.0
 40
1.000000000000032
100
AcDbArc
 50
0.0
 51
63.5200440425
  0
ARC
  5
D8
330
1F
100
AcDbEntity
  8
0
  6
Continuous
 62
     7
370
    25
100
AcDbCircle
 10
97.1392374181
 20
319.754464999
 30
0.0
 40
1.000000000000038
100
AcDbArc
 50
116.4799559575
 51
180.0
  0
LINE
  5
D9
330
1F
100
AcDbEntity
  8
0
  6
Continuous
 62
     7
370
    25
100
AcDbLine
 10
96.1392370455
 20
319.7544649421
 30
0.0
 11
96.1392370455
 21
316.5651916326
 31
0.0
  0
LINE
  5
DA
330
1F
100
AcDbEntity
  8
0
  6
Continuous
 62
     7
370
    25
100
AcDbLine
 10
146.1392377906
 20
316.5651916326
 30
0.0
 11
146.1392377906
 21
319.7544649421
 31
0.0
  0
ARC
  5
DB
330
1F
100
AcDbEntity
  8
0
  6
Continuous
 62
     7
370
    25
100
AcDbCircle
 10
96.3392374181
 20
316.5651916376
 30
0.0
 40
0.1999999999999886
100
AcDbArc
 50
180.0
 51
270.0
  0
ARC
  5
DC
330
1F
100
AcDbEntity
  8
0
  6
Continuous
 62
     7
370
    25
100
AcDbCircle
 10
145.9392374181
 20
316.5651916376
 30
0.0
 40
0.1999999999999886
100
AcDbArc
 50
270.0
 51
0.0
  0
ARC
  5
DD
330
1F
100
AcDbEntity
  8
0
  6
Continuous
 62
     7
370
    25
100
AcDbCircle
 10
108.2863550897
 20
297.377204943
 30
0.0
 40
26.00000000000003
100
AcDbArc
 50
104.6430576274
 51
116.4799559575
  0
ARC
  5
DE
330
1F
100
AcDbEntity
  8
0
  6
Continuous
 62
     7
370
    25
100
AcDbCircle
 10
133.9921197465
 20
297.377204943
 30
0.0
 40
26.00000000000001
100
AcDbArc
 50
63.5200440425
 51
75.3569423726
  0
SPLINE
  5
DF
330
1F
100
AcDbEntity
  8
0
  6
Continuous
 62
     7
370
    25
100
AcDbSpline
210
0.0
220
0.0
230
1.0
 70
     8
 71
     3
 72
    13
 73
     9
 74
     0
 42
0.000000001
 43
0.00000001
 40
0.0
 40
0.0
 40
0.0
 40
0.0
 40
0.1592607343554208
 40
0.3548487118969932
 40
0.5377310671228099
 40
0.717171046463425
 40
0.8999289579035485
 40
1.0
 40
1.0
 40
1.0
 40
1.0
 10
191.9408978365757
 20
447.2889396539878
 30
0.0
 10
191.9503533414423
 20
447.4255520070047
 30
0.0
 10
191.9714211440983
 20
447.729937878974
 30
0.0
 10
191.8651657109964
 20
448.2133161746165
 30
0.0
 10
191.5505977725018
 20
448.7771515969417
 30
0.0
 10
190.9626510947438
 20
449.173010904739
 30
0.0
 10
190.4231431350231
 20
449.2602186798173
 30
0.0
 10
190.1707838868086
 20
449.2076142216787
 30
0.0
 10
190.0814936899044
 20
449.1890016189765
 30
0.0
  0
LINE
  5
E0
330
1F
100
AcDbEntity
  8
0
  6
Continuous
 62
     7
370
    25
100
AcDbLine
 10
174.9048435532
 20
361.3651934258
 30
0.0
 11
189.1903371953
 21
361.3651934258
 31
0.0
  0
LINE
  5
E1
330
1F
100
AcDbEntity
  8
0
  6
Continuous
 62
     7
370
    25
100
AcDbLine
 10
171.8403154456
 20
395.3651952735
 30
0.0
 11
165.4654459499
 21
395.3651952735
 31
0.0
  0
ARC
  5
E2
330
1F
100
AcDbEntity
  8
0
  6
Continuous
 62
     7
370
    25
100
AcDbCircle
 10
140.3120326937
 20
321.5651916376
 30
0.0
 40
1.000000000000012
100
AcDbArc
 50
75.3569423726
 51
90.0
  0
ARC
  5
E3
330
1F
100
AcDbEntity
  8
0
  6
Continuous
 62
     7
370
    25
100
AcDbCircle
 10
101.9664421424
 20
321.5651916376
 30
0.0
 40
1.000000000000016
100
AcDbArc
 50
90.0
 51
104.6430576274
  0
LINE
  5
E4
330
1F
100
AcDbEntity
  8
0
  6
Continuous
 62
     7
370
    25
100
AcDbLine
 10
139.1392366432
 20
403.3651742331
 30
0.0
 11
139.1392366432
 21
415.857011377
 31
0.0
  0
LINE
  5
E5
330
1F
100
AcDbEntity
  8
0
  6
Continuous
 62
     7
370
    25
100
AcDbLine
 10
139.1392366432
 20
322.765191476
 30
0.0
 11
139.1392366432
 21
353.3652032903
 31
0.0
  0
LINE
  5
E6
330
1F
100
AcDbEntity
  8
0
  6
Continuous
 62
     7
370
    25
100
AcDbLine
 10
103.1392381929
 20
415.857011377
 30
0.0
 11
103.1392381929
 21
322.765191476
 31
0.0
  0
SPLINE
  5
E7
330
1F
100
AcDbEntity
  8
0
  6
Continuous
 62
     7
370
    25
100
AcDbSpline
210
0.0
220
0.0
230
1.0
 70
     8
 71
     3
 72
    14
 73
    10
 74
     0
 42
0.000000001
 43
0.00000001
 40
0.0
 40
0.0
 40
0.0
 40
0.0
 40
0.2026327082070541
 40
0.3887499998735246
 40
0.527371248081827
 40
0.6322932450938081
 40
0.7490235961746171
 40
0.901846501194001
 40
1.0
 40
1.0
 40
1.0
 40
1.0
 10
147.0559833042718
 20
395.3795450917434
 30
0.0
 10
146.3934654741683
 20
395.3772656151433
 30
0.0
 10
145.122427798919
 20
395.3728924488571
 30
0.0
 10
143.3910058266895
 20
395.6707395258996
 30
0.0
 10
142.0519088035062
 20
396.2031010058658
 30
0.0
 10
141.0664124254934
 20
396.8940634551839
 30
0.0
 10
140.2544298391662
 20
397.824351824033
 30
0.0
 10
139.6723577532656
 20
398.9141759807047
 30
0.0
 10
139.5214162722915
 20
399.7329704704446
 30
0.0
 10
139.4623850874998
 20
400.0531899920654
 30
0.0
  0
SPLINE
  5
E8
330
1F
100
AcDbEntity
  8
0
  6
Continuous
 62
     7
370
    25
100
AcDbSpline
210
0.0
220
0.0
230
1.0
 70
     8
 71
     3
 72
    17
 73
    13
 74
     0
 42
0.000000001
 43
0.00000001
 40
0.0
 40
0.0
 40
0.0
 40
0.0
 40
0.1197144736398826
 40
0.2579978233529105
 40
0.3718140722121702
 40
0.4665361195661835
 40
0.5467894829476362
 40
0.615451100147519
 40
0.7208245306692816
 40
0.8118752611309674
 40
0.9469141557280292
 40
0.9999999999999999
 40
0.9999999999999999
 40
0.9999999999999999
 40
0.9999999999999999
 10
139.1292733543016
 20
353.4069004646491
 30
0.0
 10
139.1237027992502
 20
353.9423493208049
 30
0.0
 10
139.1116976420252
 20
355.0963003444762
 30
0.0
 10
139.3094480294854
 20
356.7565919129527
 30
0.0
 10
139.7951247251026
 20
358.2449193438275
 30
0.0
 10
140.4806811245604
 20
359.360402304469
 30
0.0
 10
141.2734363104583
 20
360.133692856054
 30
0.0
 10
142.2507273147431
 20
360.7455329317477
 30
0.0
 10
143.4063027110406
 20
361.1388220944522
 30
0.0
 10
144.8055267845721
 20
361.3393681038311
 30
0.0
 10
146.0294789923496
 20
361.3985038929843
 30
0.0
 10
146.8497985913822
 20
361.3781231776798
 30
0.0
 10
147.0812798880436
 20
361.3723720601749
 30
0.0
  0
ARC
  5
E9
330
1F
100
AcDbEntity
  8
0
  6
Continuous
 62
     7
370
    25
100
AcDbCircle
 10
104.1392374181
 20
415.8570136797
 30
0.0
 40
1.0
100
AcDbArc
 50
125.6847825153
 51
180.0
  0
ARC
  5
EA
330
1F
100
AcDbEntity
  8
0
  6
Continuous
 62
     7
370
    25
100
AcDbCircle
 10
138.1392374181
 20
415.8570136797
 30
0.0
 40
1.0
100
AcDbArc
 50
0.0
 51
54.3152174847
  0
ARC
  5
EB
330
1F
100
AcDbEntity
  8
0
  6
Continuous
 62
     7
370
    25
100
AcDbCircle
 10
138.9392374181
 20
322.7651916376
 30
0.0
 40
0.2000000000000171
100
AcDbArc
 50
270.0
 51
0.0
  0
ARC
  5
EC
330
1F
100
AcDbEntity
  8
0
  6
Continuous
 62
     7
370
    25
100
AcDbCircle
 10
103.3392374181
 20
322.7651916376
 30
0.0
 40
0.1999999999999886
100
AcDbArc
 50
180.0
 51
270.0
  0
SPLINE
  5
ED
330
1F
100
AcDbEntity
  8
0
  6
Continuous
 62
     7
370
    25
100
AcDbSpline
210
0.0
220
0.0
230
1.0
 70
     8
 71
     3
 72
    10
 73
     6
 74
     0
 42
0.000000001
 43
0.00000001
 40
0.0
 40
0.0
 40
0.0
 40
0.0
 40
0.4538930804772799
 40
0.9225488634594269
 40
1.0
 40
1.0
 40
1.0
 40
1.0
 10
182.5004012726642
 20
398.4426054350089
 30
0.0
 10
181.8758483715652
 20
397.8618934107928
 30
0.0
 10
180.6064292200916
 20
396.6815819211917
 30
0.0
 10
178.8030746219693
 20
395.9267059508379
 30
0.0
 10
177.7838666681889
 20
395.7861691799941
 30
0.0
 10
177.6393183909751
 20
395.7662376753044
 30
0.0
  0
ARC
  5
EE
330
1F
100
AcDbEntity
  8
0
  6
Continuous
 62
     7
370
    25
100
AcDbCircle
 10
123.3889790923
 20
389.0531437077
 30
0.0
 40
34.00000000000002
100
AcDbArc
 50
113.2854343066
 51
125.6847825153
  0
ARC
  5
EF
330
1F
100
AcDbEntity
  8
0
  6
Continuous
 62
     7
370
    25
100
AcDbCircle
 10
118.8894957438
 20
389.0531437077
 30
0.0
 40
34.00000000000001
100
AcDbArc
 50
54.3152174847
 51
66.7145656934
  0
LINE
  5
F0
330
1F
100
AcDbEntity
  8
0
  6
Continuous
 62
     7
370
    25
100
AcDbLine
 10
162.8392392241
 20
395.3651952735
 30
0.0
 11
147.1392286413
 21
395.3651952735
 31
0.0
  0
LINE
  5
F1
330
1F
100
AcDbEntity
  8
0
  6
Continuous
 62
     7
370
    25
100
AcDbLine
 10
147.1392118775
 20
361.3651934258
 30
0.0
 11
162.8392392241
 21
361.3651934258
 31
0.0
  0
SPLINE
  5
F2
330
1F
100
AcDbEntity
  8
0
  6
Continuous
 62
     7
370
    25
100
AcDbSpline
210
0.0
220
0.0
230
1.0
 70
     8
 71
     3
 72
    12
 73
     8
 74
     0
 42
0.000000001
 43
0.00000001
 40
0.0
 40
0.0
 40
0.0
 40
0.0
 40
0.1391584190833635
 40
0.4479667630676806
 40
0.6966015130808618
 40
0.9063561628316009
 40
0.9999999999999999
 40
0.9999999999999999
 40
0.9999999999999999
 40
0.9999999999999999
 10
189.1902999423839
 20
361.386028974409
 30
0.0
 10
189.2514733373813
 20
361.3813261814981
 30
0.0
 10
189.4483974467766
 20
361.3661873567575
 30
0.0
 10
189.7446957368383
 20
361.4845692928679
 30
0.0
 10
190.017159324034
 20
361.6811613200188
 30
0.0
 10
190.1787328600813
 20
361.8672913254604
 30
0.0
 10
190.2367239129831
 20
361.9871648350343
 30
0.0
 10
190.2546228312351
 20
362.024163751955
 30
0.0
  0
ARC
  5
F3
330
1F
100
AcDbEntity
  8
0
  6
Continuous
 62
     7
370
    25
100
AcDbCircle
 10
162.8392374181
 20
361.6651916376
 30
0.0
 40
0.3000000000000682
100
AcDbArc
 50
270.0
 51
0.0
  0
ARC
  5
F4
330
1F
100
AcDbEntity
  8
0
  6
Continuous
 62
     7
370
    25
100
AcDbCircle
 10
162.8392374181
 20
395.0651916376
 30
0.0
 40
0.3000000000000398
100
AcDbArc
 50
0.0
 51
90.0
  0
ARC
  5
F5
330
1F
100
AcDbEntity
  8
0
  6
Continuous
 62
     7
370
    25
100
AcDbCircle
 10
165.4654452483
 20
395.0651916376
 30
0.0
 40
0.3000000000000398
100
AcDbArc
 50
90.0
 51
180.0
  0
ARC
  5
F6
330
1F
100
AcDbEntity
  8
0
  6
Continuous
 62
     7
370
    25
100
AcDbCircle
 10
158.3704592836
 20
364.8314824739
 30
0.0
 40
30.00000000000001
100
AcDbArc
 50
76.9089282751
 51
79.8849141309
  0
ARC
  5
F7
330
1F
100
AcDbEntity
  8
0
  6
Continuous
 62
     7
370
    25
100
AcDbCircle
 10
158.3704592836
 20
391.8989008014
 30
0.0
 40
30.00000000000003
100
AcDbArc
 50
280.1150858691
 51
295.8174655394
  0
LINE
  5
F8
330
1F
100
AcDbEntity
  8
0
  6
Continuous
 62
     7
370
    25
100
AcDbLine
 10
163.1392368518
 20
362.365191727
 30
0.0
 11
163.6392378651
 21
362.365191727
 31
0.0
  0
LINE
  5
F9
330
1F
100
AcDbEntity
  8
0
  6
Continuous
 62
     7
370
    25
100
AcDbLine
 10
163.6392378651
 20
394.365193247
 30
0.0
 11
163.1392368518
 21
394.365193247
 31
0.0
  0
ARC
  5
FA
330
1F
100
AcDbEntity
  8
0
  6
Continuous
 62
     7
370
    25
100
AcDbCircle
 10
110.3436829939
 20
419.3651916376
 30
0.0
 40
1.00000000000004
100
AcDbArc
 50
90.0
 51
113.2854343066
  0
ARC
  5
FB
330
1F
100
AcDbEntity
  8
0
  6
Continuous
 62
     7
370
    25
100
AcDbCircle
 10
131.9347918422
 20
419.3651916376
 30
0.0
 40
1.000000000000046
100
AcDbArc
 50
66.7145656934
 51
90.0
  0
SPLINE
  5
FC
330
1F
100
AcDbEntity
  8
0
  6
Continuous
 62
     7
370
    25
100
AcDbSpline
210
0.0
220
0.0
230
1.0
 70
     8
 71
     3
 72
    13
 73
     9
 74
     0
 42
0.000000001
 43
0.00000001
 40
0.0
 40
0.0
 40
0.0
 40
0.0
 40
0.0199193473096861
 40
0.2115385957046085
 40
0.3629757726103822
 40
0.4950805754598042
 40
0.6526907255988678
 40
1.0
 40
1.0
 40
1.0
 40
1.0
 10
139.7532669298746
 20
357.7607925227832
 30
0.0
 10
139.767201643234
 20
357.8183741990903
 30
0.0
 10
139.9151848903646
 20
358.4298775156878
 30
0.0
 10
140.5733800846845
 20
359.3415327862509
 30
0.0
 10
141.6061574296743
 20
360.2566043672091
 30
0.0
 10
142.753066060531
 20
360.8354841503251
 30
0.0
 10
144.6021919487818
 20
361.3588124269038
 30
0.0
 10
146.0947143732347
 20
361.3445012067089
 30
0.0
 10
147.1213472478487
 20
361.3346572211933
 30
0.0
  0
LINE
  5
FD
330
1F
100
AcDbEntity
  8
0
  6
Continuous
 62
     7
370
    25
100
AcDbLine
 10
146.6924676143
 20
395.4181987039
 30
0.0
 11
144.4158831083
 21
395.5541196457
 31
0.0
  0
LINE
  5
FE
330
1F
100
AcDbEntity
  8
0
  6
Continuous
 62
     7
370
    25
100
AcDbLine
 10
140.6033632748
 20
397.4879625431
 30
0.0
 11
140.0565502637
 21
398.3751255265
 31
0.0
  0
LINE
  5
FF
330
1F
100
AcDbEntity
  8
0
  6
Continuous
 62
     7
370
    25
100
AcDbLine
 10
147.1282762878
 20
395.3921812764
 30
0.0
 11
146.6924676143
 21
395.4181987039
 31
0.0
  0
SPLINE
  5
100
330
1F
100
AcDbEntity
  8
0
  6
Continuous
 62
     7
370
    25
100
AcDbSpline
210
0.0
220
0.0
230
1.0
 70
     8
 71
     3
 72
     9
 73
     5
 74
     0
 42
0.000000001
 43
0.00000001
 40
0.0
 40
0.0
 40
0.0
 40
0.0
 40
0.4386694318586079
 40
1.0
 40
1.0
 40
1.0
 40
1.0
 10
190.058247878442
 20
449.2056611171913
 30
0.0
 10
189.880345078354
 20
449.1672158989255
 30
0.0
 10
189.4747941391553
 20
449.0795753763048
 30
0.0
 10
189.1779689497914
 20
448.8108144918918
 30
0.0
 10
189.011351897607
 20
448.6599507919502
 30
0.0
  0
LINE
  5
101
330
1F
100
AcDbEntity
  8
0
  6
Continuous
 62
     7
370
    25
100
AcDbLine
 10
131.1392371945
 20
420.3651937834
 30
0.0
 11
131.1392371945
 21
524.3303868166
 31
0.0
  0
LINE
  5
102
330
1F
100
AcDbEntity
  8
0
  6
Continuous
 62
     7
370
    25
100
AcDbLine
 10
111.1392376416
 20
524.3303868166
 30
0.0
 11
111.1392376416
 21
420.3651937834
 31
0.0
  0
SPLINE
  5
103
330
1F
100
AcDbEntity
  8
0
  6
Continuous
 62
     7
370
    25
100
AcDbSpline
210
0.0
220
0.0
230
1.0
 70
     8
 71
     3
 72
    13
 73
     9
 74
     0
 42
0.000000001
 43
0.00000001
 40
0.0
 40
0.0
 40
0.0
 40
0.0
 40
0.0111620792927054
 40
0.2465640769061117
 40
0.4841586712213756
 40
0.7319513371973403
 40
0.9036282420283707
 40
1.0
 40
1.0
 40
1.0
 40
1.0
 10
174.8338246189453
 20
396.465228795166
 30
0.0
 10
174.819487460119
 20
396.4658272771201
 30
0.0
 10
174.5027876554724
 20
396.4790474081291
 30
0.0
 10
173.862367295793
 20
396.4337580600111
 30
0.0
 10
173.034659168963
 20
396.3256928857029
 30
0.0
 10
172.466206594206
 20
396.1526336410085
 30
0.0
 10
172.0953562540792
 20
395.9554765307706
 30
0.0
 10
171.9495539841675
 20
395.7414110006951
 30
0.0
 10
171.8971335731842
 20
395.6644478431892
 30
0.0
  0
SPLINE
  5
104
330
1F
100
AcDbEntity
  8
0
  6
Continuous
 62
     7
370
    25
100
AcDbSpline
210
0.0
220
0.0
230
1.0
 70
     8
 71
     3
 72
    12
 73
     8
 74
     0
 42
0.000000001
 43
0.00000001
 40
0.0
 40
0.0
 40
0.0
 40
0.0
 40
0.1542027750702692
 40
0.2931443557331151
 40
0.5411461830573371
 40
0.7708380250218347
 40
0.9999999999999999
 40
0.9999999999999999
 40
0.9999999999999999
 40
0.9999999999999999
 10
177.729921176324
 20
395.6644478431892
 30
0.0
 10
177.6421747213793
 20
395.7786766903763
 30
0.0
 10
177.475365933464
 20
395.9958293440789
 30
0.0
 10
177.0828073357775
 20
396.1785079849437
 30
0.0
 10
176.5375129641116
 20
396.3335732160578
 30
0.0
 10
175.724915036638
 20
396.4449200993234
 30
0.0
 10
175.1306260040305
 20
396.4584644433834
 30
0.0
 10
174.8338246189453
 20
396.465228795166
 30
0.0
  0
LWPOLYLINE
  5
105
330
1F
100
AcDbEntity
  8
0
  6
Continuous
 62
     7
370
    25
100
AcDbPolyline
 90
       12
 70
   128
 43
0.0
 10
121.1392374181
 20
526.9185844055
 10
119.2467249867
 20
526.8718096605
 10
117.4226128433
 20
526.733184158
 10
115.732829313
 20
526.5077146879
 10
114.2384472706
 20
526.2035521856
 10
112.9934776046
 20
525.8316937081
 10
112.0429176309
 20
525.4055652014
 10
111.4211219766
 20
524.9405893675
 10
111.1505643867
 20
524.4535449139
 10
111.2410228171
 20
523.9620599142
 10
111.6892292567
 20
523.4838816515
 10
112.1892377206
 20
523.1758895508
  0
LWPOLYLINE
  5
106
330
1F
100
AcDbEntity
  8
0
  6
Continuous
 62
     7
370
    25
100
AcDbPolyline
 90
       12
 70
   128
 43
0.0
 10
130.0892371156
 20
523.1758895508
 10
130.5892455794
 20
523.4838816515
 10
131.037452019
 20
523.9620599142
 10
131.1279104494
 20
524.4535449139
 10
130.8573528596
 20
524.9405893675
 10
130.2355572053
 20
525.4055652014
 10
129.2849972316
 20
525.8316937081
 10
128.0400275655
 20
526.2035521856
 10
126.5456455231
 20
526.5077146879
 10
124.8558619928
 20
526.733184158
 10
123.0317498494
 20
526.8718096605
 10
121.1392374181
 20
526.9185844055
  0
LWPOLYLINE
  5
107
330
1F
100
AcDbEntity
  8
0
  6
Continuous
 62
     7
370
    25
100
AcDbPolyline
 90
        9
 70
   128
 43
0.0
 10
121.1392374181
 20
526.6468170277
 10
119.3376156671
 20
526.5994015328
 10
117.6097525686
 20
526.459092199
 10
116.0263868452
 20
526.2316408745
 10
114.6523419239
 20
525.9263309828
 10
113.5438710854
 20
525.5556944004
 10
112.746355816
 20
525.1349005095
 10
112.292445957
 20
524.6811601511
 10
112.1892377206
 20
524.3303868166
  0
LWPOLYLINE
  5
108
330
1F
100
AcDbEntity
  8
0
  6
Continuous
 62
     7
370
    25
100
AcDbPolyline
 90
        9
 70
   128
 43
0.0
 10
130.0892371156
 20
524.3303868166
 10
129.9860288792
 20
524.6811601511
 10
129.5321190201
 20
525.1349005095
 10
128.7346037507
 20
525.5556944004
 10
127.6261329122
 20
525.9263309828
 10
126.252087991
 20
526.2316408745
 10
124.6687222675
 20
526.459092199
 10
122.940859169
 20
526.5994015328
 10
121.1392374181
 20
526.6468170277
  0
SPLINE
  5
109
330
1F
100
AcDbEntity
  8
0
  6
Continuous
 62
     7
370
    25
100
AcDbSpline
210
0.0
220
0.0
230
1.0
 70
     8
 71
     3
 72
     8
 73
     4
 74
     0
 42
0.000000001
 43
0.00000001
 40
0.0
 40
0.0
 40
0.0
 40
0.0
 40
1.0
 40
1.0
 40
1.0
 40
1.0
 10
123.9414686719068
 20
523.1146350607676
 30
0.0
 10
123.0057437607561
 20
523.0116346930718
 30
0.0
 10
122.0715856993704
 20
522.9564293485925
 30
0.0
 10
121.1392374180664
 20
522.9564293485925
 30
0.0
  0
LWPOLYLINE
  5
10A
330
1F
100
AcDbEntity
  8
0
  6
Continuous
 62
     7
370
    25
100
AcDbPolyline
 90
       11
 70
   128
 43
0.0
 10
123.9414687671
 20
523.1146308771
 10
125.641947373
 20
522.916609346
 10
127.1469739668
 20
522.6316693417
 10
128.3912190639
 20
522.2722086302
 10
129.3206715428
 20
521.8538138262
 10
129.8949883722
 20
521.3946643463
 10
130.0892371156
 20
520.914668142
 10
129.8949883722
 20
520.4346868387
 10
129.3206715428
 20
519.9755224577
 10
128.3912190639
 20
519.5571425549
 10
127.1964276612
 20
519.2093494526
  0
LWPOLYLINE
  5
10B
330
1F
100
AcDbEntity
  8
0
  6
Continuous
 62
     7
370
    25
100
AcDbPolyline
 90
       16
 70
   128
 43
0.0
 10
121.1392374181
 20
522.9564252487
 10
122.9064868467
 20
522.9083541027
 10
124.5964989003
 20
522.7662268273
 10
126.1354118988
 20
522.5362721077
 10
127.4559686363
 20
522.2285333267
 10
128.500453423
 20
521.8564513317
 10
129.2232179486
 20
521.4362981907
 10
129.5926736139
 20
520.9864321343
 10
129.5926736139
 20
520.526507794
 10
129.2232179486
 20
520.0766417376
 10
128.500453423
 20
519.6564885966
 10
127.4559686363
 20
519.2844066015
 10
126.1354118988
 20
518.9766678206
 10
124.5964989003
 20
518.7466981999
 10
122.9064868467
 20
518.6045858256
 10
121.1392374181
 20
518.5564997784
  0
LINE
  5
10C
330
1F
100
AcDbEntity
  8
0
  6
Continuous
 62
     7
370
    25
100
AcDbLine
 10
118.337006069
 20
523.1146308771
 30
0.0
 11
118.337006069
 21
525.8542093626
 31
0.0
  0
LINE
  5
10D
330
1F
100
AcDbEntity
  8
0
  6
Continuous
 62
     7
370
    25
100
AcDbLine
 10
123.9414687671
 20
525.8542093626
 30
0.0
 11
118.337006069
 21
525.8542093626
 31
0.0
  0
LINE
  5
10E
330
1F
100
AcDbEntity
  8
0
  6
Continuous
 62
     7
370
    25
100
AcDbLine
 10
123.9414687671
 20
525.8542093626
 30
0.0
 11
123.9414687671
 21
523.1146308771
 31
0.0
  0
SPLINE
  5
10F
330
1F
100
AcDbEntity
  8
0
  6
Continuous
 62
     7
370
    25
100
AcDbSpline
210
0.0
220
0.0
230
1.0
 70
     8
 71
     3
 72
     8
 73
     4
 74
     0
 42
0.000000001
 43
0.00000001
 40
0.0
 40
0.0
 40
0.0
 40
0.0
 40
1.0
 40
1.0
 40
1.0
 40
1.0
 10
121.1392374180664
 20
522.9564293485925
 30
0.0
 10
120.2034315301435
 20
522.9564293485925
 30
0.0
 10
119.2694472721396
 20
523.0119961592858
 30
0.0
 10
118.337006164226
 20
523.1146350607676
 30
0.0
  0
LWPOLYLINE
  5
110
330
1F
100
AcDbEntity
  8
0
  6
Continuous
 62
     7
370
    25
100
AcDbPolyline
 90
       16
 70
   128
 43
0.0
 10
121.1392374181
 20
518.5564997784
 10
119.3719879894
 20
518.6045858256
 10
117.6819759358
 20
518.7466981999
 10
116.1430629373
 20
518.9766678206
 10
114.8225061998
 20
519.2844066015
 10
113.7780214131
 20
519.6564885966
 10
113.0552568876
 20
520.0766417376
 10
112.6858012222
 20
520.526507794
 10
112.6858012222
 20
520.9864321343
 10
113.0552568876
 20
521.4362981907
 10
113.7780214131
 20
521.8564513317
 10
114.8225061998
 20
522.2285333267
 10
116.1430629373
 20
522.5362721077
 10
117.6819759358
 20
522.7662268273
 10
119.3719879894
 20
522.9083541027
 10
121.1392374181
 20
522.9564252487
  0
LWPOLYLINE
  5
111
330
1F
100
AcDbEntity
  8
0
  6
Continuous
 62
     7
370
    25
100
AcDbPolyline
 90
       11
 70
   128
 43
0.0
 10
115.0820471749
 20
519.2093494526
 10
113.8872557722
 20
519.5571425549
 10
112.9578032934
 20
519.9755224577
 10
112.3834864639
 20
520.4346868387
 10
112.1892377206
 20
520.914668142
 10
112.3834864639
 20
521.3946643463
 10
112.9578032934
 20
521.8538138262
 10
113.8872557722
 20
522.2722086302
 10
115.1315008693
 20
522.6316693417
 10
116.6365274631
 20
522.916609346
 10
118.337006069
 20
523.1146308771
  0
ARC
  5
112
330
1F
100
AcDbEntity
  8
0
  6
Continuous
 62
     7
370
    25
100
AcDbCircle
 10
121.1392374181
 20
492.3352071127
 30
0.0
 40
33.63593335059955
100
AcDbArc
 50
85.2211125553
 51
94.7788874447
  0
ARC
  5
113
330
1F
100
AcDbEntity
  8
0
  6
Continuous
 62
     7
370
    25
100
AcDbCircle
 10
121.1392374181
 20
587.3651916376
 30
0.0
 40
10.0
100
AcDbArc
 50
0.0
 51
180.0
  0
SPLINE
  5
114
330
1F
100
AcDbEntity
  8
0
  6
Continuous
 62
     7
370
    25
100
AcDbSpline
210
0.0
220
0.0
230
1.0
 70
     8
 71
     3
 72
    17
 73
    13
 74
     0
 42
0.000000001
 43
0.00000001
 40
0.0
 40
0.0
 40
0.0
 40
0.0
 40
0.0987377938103833
 40
0.1996233916240635
 40
0.3116739652327355
 40
0.4269542901227646
 40
0.5390233683216517
 40
0.6543322902911335
 40
0.7663353938220203
 40
0.8816122802833214
 40
0.9936583270659577
 40
1.0
 40
1.0
 40
1.0
 40
1.0
 10
190.3709561966755
 20
377.1758209160518
 30
0.0
 10
190.3691831702758
 20
376.3976894970725
 30
0.0
 10
190.3655985495376
 20
374.8245002754842
 30
0.0
 10
190.3652281071377
 20
372.4552110236814
 30
0.0
 10
190.3666301868785
 20
370.1064857490763
 30
0.0
 10
190.3648969551037
 20
367.9094328630872
 30
0.0
 10
190.365918653865
 20
365.9921049599861
 30
0.0
 10
190.3662633297028
 20
364.4419546999924
 30
0.0
 10
190.3632256608358
 20
363.2645761829749
 30
0.0
 10
190.3669354800078
 20
362.5779192235186
 30
0.0
 10
190.3665688939496
 20
362.2759085219193
 30
0.0
 10
190.366808300175
 20
362.3391611596521
 30
0.0
 10
190.3668211244442
 20
362.3425494126033
 30
0.0
  0
SPLINE
  5
115
330
1F
100
AcDbEntity
  8
0
  6
Continuous
 62
     7
370
    25
100
AcDbSpline
210
0.0
220
0.0
230
1.0
 70
     8
 71
     3
 72
     9
 73
     5
 74
     0
 42
0.000000001
 43
0.00000001
 40
0.0
 40
0.0
 40
0.0
 40
0.0
 40
0.2587625476706858
 40
1.0
 40
1.0
 40
1.0
 40
1.0
 10
189.0138999961711
 20
448.6571046701621
 30
0.0
 10
189.004953984902
 20
448.6532762361082
 30
0.0
 10
188.9703817048342
 20
448.6384810731747
 30
0.0
 10
188.9358249941743
 20
448.5671073850569
 30
0.0
 10
188.9102102660038
 20
448.5142025343131
 30
0.0
  0
LINE
  5
116
330
1F
100
AcDbEntity
  8
0
  6
Continuous
 62
     7
370
    25
100
AcDbLine
 10
184.4344006323
 20
441.10869795
 30
0.0
 11
184.4750584506
 21
441.385188996
 31
0.0
  0
LINE
  5
117
330
1F
100
AcDbEntity
  8
0
  6
Continuous
 62
     7
370
    25
100
AcDbLine
 10
121.1392374181
 20
316.3651916376
 30
0.0
 11
96.3392367058
 21
316.3651916376
 31
0.0
  0
LINE
  5
118
330
1F
100
AcDbEntity
  8
0
  6
Continuous
 62
     7
370
    25
100
AcDbLine
 10
145.9392381303
 20
316.3651916376
 30
0.0
 11
121.1392374181
 21
316.3651916376
 31
0.0
  0
ELLIPSE
  5
119
330
1F
100
AcDbEntity
  8
0
  6
Continuous
 62
     7
370
    25
100
AcDbEllipse
 10
165.5118554098
 20
378.3651916376
 30
0.0
 11
-9.497831843286548
 21
16.97461711942674
 31
0.0
210
0.0
220
0.0
230
1.0
 40
0.0977739729
 41
2.074279690495138
 42
3.086939523154441
  0
SPLINE
  5
11A
330
1F
100
AcDbEntity
  8
0
  6
Continuous
 62
     7
370
    25
100
AcDbSpline
210
0.0
220
0.0
230
1.0
 70
     8
 71
     3
 72
    14
 73
    10
 74
     0
 42
0.000000001
 43
0.00000001
 40
0.0
 40
0.0
 40
0.0
 40
0.0
 40
0.25
 40
0.25
 40
0.5
 40
0.5
 40
0.75
 40
0.75
 40
1.0
 40
1.0
 40
1.0
 40
1.0
 10
171.8135277463396
 20
394.926586075076
 30
0.0
 10
171.8135277463396
 20
394.8822785990931
 30
0.0
 10
171.832612259119
 20
394.8354104579488
 30
0.0
 10
171.9073127115707
 20
394.7371167178551
 30
0.0
 10
171.9638256315538
 20
394.6851051015215
 30
0.0
 10
172.1112580478693
 20
394.5803966602885
 30
0.0
 10
172.2014328508637
 20
394.5279282196078
 30
0.0
 10
172.4143203486484
 20
394.4242427971059
 30
0.0
 10
172.5381539432234
 20
394.372768133746
 30
0.0
 10
172.6734462166105
 20
394.3249664355214
 30
0.0
  0
LINE
  5
11B
330
1F
100
AcDbEntity
  8
0
  6
Continuous
 62
     7
370
    25
100
AcDbLine
 10
101.9664423012
 20
322.5651918157
 30
0.0
 11
140.312032535
 21
322.5651918157
 31
0.0
  0
SPLINE
  5
11C
330
1F
100
AcDbEntity
  8
0
  6
Continuous
 62
     7
370
    25
100
AcDbSpline
210
0.0
220
0.0
230
1.0
 70
     8
 71
     3
 72
     9
 73
     5
 74
     0
 42
0.000000001
 43
0.00000001
 40
0.0
 40
0.0
 40
0.0
 40
0.0
 40
0.2695124796981081
 40
1.0
 40
1.0
 40
1.0
 40
1.0
 10
140.0246785425045
 20
398.3621987692069
 30
0.0
 10
139.8344722138108
 20
398.7843683527091
 30
0.0
 10
139.1287300199549
 20
400.3507877777951
 30
0.0
 10
139.1349134441171
 20
402.0927168121941
 30
0.0
 10
139.1394303583004
 20
403.3651742330741
 30
0.0
  0
SPLINE
  5
11D
330
1F
100
AcDbEntity
  8
0
  6
Continuous
 62
     7
370
    25
100
AcDbSpline
210
0.0
220
0.0
230
1.0
 70
     8
 71
     3
 72
     8
 73
     4
 74
     0
 42
0.000000001
 43
0.00000001
 40
0.0
 40
0.0
 40
0.0
 40
0.0
 40
1.0
 40
1.0
 40
1.0
 40
1.0
 10
172.6733331940063
 20
394.3251915919113
 30
0.0
 10
172.8396125545113
 20
394.266483645049
 30
0.0
 10
173.0233834373464
 20
394.2127890535587
 30
0.0
 10
173.2248581537618
 20
394.1664639997124
 30
0.0
  0
SPLINE
  5
11E
330
1F
100
AcDbEntity
  8
0
  6
Continuous
 62
     7
370
    25
100
AcDbSpline
210
0.0
220
0.0
230
1.0
 70
     8
 71
     3
 72
    14
 73
    10
 74
     0
 42
0.000000001
 43
0.00000001
 40
0.0
 40
0.0
 40
0.0
 40
0.0
 40
0.25
 40
0.25
 40
0.5
 40
0.5
 40
0.75
 40
0.75
 40
1.0
 40
1.0
 40
1.0
 40
1.0
 10
175.4070445320544
 20
394.0771187730506
 30
0.0
 10
175.6531582234919
 20
394.1135204728256
 30
0.0
 10
175.8867477628533
 20
394.1646953166822
 30
0.0
 10
176.3307764126808
 20
394.2917745501738
 30
0.0
 10
176.5411646764642
 20
394.368191941373
 30
0.0
 10
176.9170887693205
 20
394.5318828591535
 30
0.0
 10
177.0876880073164
 20
394.6211672171196
 30
0.0
 10
177.3784894004442
 20
394.7995534572366
 30
0.0
 10
177.4987783449974
 20
394.88818126719
 30
0.0
 10
177.5929240747888
 20
394.9730665861169
 30
0.0
  0
SPLINE
  5
11F
330
1F
100
AcDbEntity
  8
0
  6
Continuous
 62
     7
370
    25
100
AcDbSpline
210
0.0
220
0.0
230
1.0
 70
     8
 71
     3
 72
     8
 73
     4
 74
     0
 42
0.000000001
 43
0.00000001
 40
0.0
 40
0.0
 40
0.0
 40
0.0
 40
1.0
 40
1.0
 40
1.0
 40
1.0
 10
177.7831740106818
 20
395.206077760559
 30
0.0
 10
177.7505326509675
 20
395.1370399665474
 30
0.0
 10
177.6880308386239
 20
395.0588184093641
 30
0.0
 10
177.5929240748089
 20
394.9730665861351
 30
0.0
  0
LINE
  5
120
330
1F
100
AcDbEntity
  8
0
  6
Continuous
 62
     7
370
    25
100
AcDbLine
 10
177.7867430292
 20
395.3873831025
 30
0.0
 11
177.7112760984
 21
395.4332116238
 31
0.0
  0
SPLINE
  5
121
330
1F
100
AcDbEntity
  8
0
  6
Continuous
 62
     7
370
    25
100
AcDbSpline
210
0.0
220
0.0
230
1.0
 70
     8
 71
     3
 72
    18
 73
    14
 74
     0
 42
0.000000001
 43
0.00000001
 40
0.0
 40
0.0
 40
0.0
 40
0.0
 40
0.2500000000000023
 40
0.2500000000000023
 40
0.3750000000000028
 40
0.3750000000000028
 40
0.5000000000000033
 40
0.5000000000000033
 40
0.7500000000000023
 40
0.7500000000000023
 40
0.8750000000000011
 40
0.8750000000000011
 40
1.0
 40
1.0
 40
1.0
 40
1.0
 10
168.3808355575071
 20
369.3746346120907
 30
0.0
 10
167.8646377504855
 20
370.177287510826
 30
0.0
 10
167.4033094763585
 20
371.0321158474836
 30
0.0
 10
166.7979281033768
 20
372.4003382995285
 30
0.0
 10
166.6106187485123
 20
372.8708072293157
 30
0.0
 10
166.2664048829748
 20
373.8428350854972
 30
0.0
 10
166.1104016361641
 20
374.3426835964465
 30
0.0
 10
165.6993568836247
 20
375.8535631047957
 30
0.0
 10
165.4969601812504
 20
376.8869353421675
 30
0.0
 10
165.2958729099629
 20
378.4767979217386
 30
0.0
 10
165.2459799775022
 20
379.0155902495837
 30
0.0
 10
165.1809602990891
 20
380.0860580225531
 30
0.0
 10
165.1654452483337
 20
380.6197242947681
 30
0.0
 10
165.1654452483337
 20
381.1517162170436
 30
0.0
  0
LINE
  5
122
330
1F
100
AcDbEntity
  8
0
  6
Continuous
 62
     7
370
    25
100
AcDbLine
 10
163.1392368518
 20
395.0651901952
 30
0.0
 11
163.1392368518
 21
361.6651910535
 31
0.0
  0
LINE
  5
123
330
1F
100
AcDbEntity
  8
0
  6
Continuous
 62
     7
370
    25
100
AcDbLine
 10
165.1654445969
 20
381.1517152182
 30
0.0
 11
165.1654445969
 21
395.0651901952
 31
0.0
  0
LINE
  5
124
330
1F
100
AcDbEntity
  8
0
  6
Continuous
 62
     7
370
    25
100
AcDbLine
 10
163.6392378651
 20
362.365191727
 30
0.0
 11
163.6392378651
 21
394.365193247
 31
0.0
  0
ELLIPSE
  5
125
330
1F
100
AcDbEntity
  8
0
  6
Continuous
 62
     7
370
    25
100
AcDbEllipse
 10
165.2520477887
 20
378.2190616867
 30
0.0
 11
-9.500330622312362
 21
16.67366654793085
 31
0.0
210
0.0
220
0.0
230
1.0
 40
0.098677273
 41
2.072767564716714
 42
3.014547528914803
  0
LINE
  5
126
330
1F
100
AcDbEntity
  8
0
  6
Continuous
 62
     7
370
    25
100
AcDbLine
 10
121.1392374181
 20
420.3651937834
 30
0.0
 11
131.9347915642
 21
420.3651937834
 31
0.0
  0
LINE
  5
127
330
1F
100
AcDbEntity
  8
0
  6
Continuous
 62
     7
370
    25
100
AcDbLine
 10
110.3436832719
 20
420.3651937834
 30
0.0
 11
121.1392374181
 21
420.3651937834
 31
0.0
  0
SPLINE
  5
128
330
1F
100
AcDbEntity
  8
0
  6
Continuous
 62
     7
370
    25
100
AcDbSpline
210
0.0
220
0.0
230
1.0
 70
     8
 71
     3
 72
    12
 73
     8
 74
     0
 42
0.000000001
 43
0.00000001
 40
0.0
 40
0.0
 40
0.0
 40
0.0
 40
0.2500000000000064
 40
0.2500000000000064
 40
0.5000000000000129
 40
0.5000000000000129
 40
1.0
 40
1.0
 40
1.0
 40
1.0
 10
171.8403139968759
 20
395.1376245030236
 30
0.0
 10
171.8403139968759
 20
395.228234724444
 30
0.0
 10
171.8589257432223
 20
395.3171792683999
 30
0.0
 10
171.9304591881323
 20
395.482815803066
 30
0.0
 10
171.9833988810038
 20
395.5585727861906
 30
0.0
 10
172.1797414623868
 20
395.7467311921914
 30
0.0
 10
172.3626202131477
 20
395.8195642739772
 30
0.0
 10
172.5485774157584
 20
395.8195642739772
 30
0.0
  0
SPLINE
  5
129
330
1F
100
AcDbEntity
  8
0
  6
Continuous
 62
     7
370
    25
100
AcDbSpline
210
0.0
220
0.0
230
1.0
 70
     8
 71
     3
 72
    10
 73
     6
 74
     0
 42
0.000000001
 43
0.00000001
 40
0.0
 40
0.0
 40
0.0
 40
0.0
 40
0.5
 40
0.5
 40
1.0
 40
1.0
 40
1.0
 40
1.0
 10
177.0784780769208
 20
395.8195642739772
 30
0.0
 10
177.2526952245577
 20
395.8195642739772
 30
0.0
 10
177.4229987715631
 20
395.7568782827206
 30
0.0
 10
177.6815796320939
 20
395.5329363053452
 30
0.0
 10
177.7656224192991
 20
395.3740404660125
 30
0.0
 10
177.7831740106818
 20
395.206077760559
 30
0.0
  0
ARC
  5
12A
330
1F
100
AcDbEntity
  8
0
  6
Continuous
 62
     7
370
    25
100
AcDbCircle
 10
171.9890435639
 20
395.2308712094
 30
0.0
 40
0.1755418960871773
100
AcDbArc
 50
180.971144686
 51
212.0860361343
  0
LINE
  5
12B
330
1F
100
AcDbEntity
  8
0
  6
Continuous
 62
     7
370
    25
100
AcDbLine
 10
171.813526883
 20
395.2278959743
 30
0.0
 11
171.813526883
 21
394.9265870444
 31
0.0
  0
ARC
  5
12C
330
1F
100
AcDbEntity
  8
0
  6
Continuous
 62
     7
370
    25
100
AcDbCircle
 10
174.8125366507
 20
406.2502152183
 30
0.0
 40
12.18760734730734
100
AcDbArc
 50
262.5148041775
 51
272.7959886575
  0
LINE
  5
12D
330
1F
100
AcDbEntity
  8
0
  6
Continuous
 62
     7
370
    25
100
AcDbLine
 10
177.0784796618
 20
395.8195614806
 30
0.0
 11
172.548578813
 21
395.8195614806
 31
0.0
  0
LINE
  5
12E
330
1F
100
AcDbEntity
  8
0
  6
Continuous
 62
     7
370
    25
100
AcDbLine
 10
171.8403154456
 20
395.4155984513
 30
0.0
 11
171.8403154456
 21
395.3181746594
 31
0.0
  0
ARC
  5
12F
330
1F
100
AcDbEntity
  8
0
  6
Continuous
 62
     7
370
    25
100
AcDbCircle
 10
171.9890420057
 20
395.2249288973
 30
0.0
 40
0.1755402000767403
100
AcDbArc
 50
147.9138893908
 51
179.0315091126
  0
LINE
  5
130
330
1F
100
AcDbEntity
  8
0
  6
Continuous
 62
     7
370
    25
100
AcDbLine
 10
177.7867430292
 20
395.4155984513
 30
0.0
 11
177.7867430292
 21
395.3873831025
 31
0.0
  0
LINE
  5
131
330
1F
100
AcDbEntity
  8
0
  6
Continuous
 62
     7
370
    25
100
AcDbLine
 10
171.8680278801
 20
395.3181746594
 30
0.0
 11
171.8403154456
 21
395.3181746594
 31
0.0
  0
SPLINE
  5
132
330
1F
100
AcDbEntity
  8
0
  6
Continuous
 62
     7
370
    25
100
AcDbSpline
210
0.0
220
0.0
230
1.0
 70
     8
 71
     3
 72
    10
 73
     6
 74
     0
 42
0.000000001
 43
0.00000001
 40
0.0
 40
0.0
 40
0.0
 40
0.0
 40
0.5
 40
0.5
 40
1.0
 40
1.0
 40
1.0
 40
1.0
 10
172.4470958330998
 20
396.0001145396148
 30
0.0
 10
172.2877223328802
 20
396.0001145396148
 30
0.0
 10
172.1315827185314
 20
395.9379310076328
 30
0.0
 10
171.9069441509323
 20
395.7228353669227
 30
0.0
 10
171.8403139968759
 20
395.5709117855647
 30
0.0
 10
171.8403139968759
 20
395.4155947359403
 30
0.0
  0
SPLINE
  5
133
330
1F
100
AcDbEntity
  8
0
  6
Continuous
 62
     7
370
    25
100
AcDbSpline
210
0.0
220
0.0
230
1.0
 70
     8
 71
     3
 72
    10
 73
     6
 74
     0
 42
0.000000001
 43
0.00000001
 40
0.0
 40
0.0
 40
0.0
 40
0.0
 40
0.5
 40
0.5
 40
1.0
 40
1.0
 40
1.0
 40
1.0
 10
177.7867414958033
 20
395.4155947359403
 30
0.0
 10
177.7867414958033
 20
395.5708810508697
 30
0.0
 10
177.7202375427797
 20
395.7225558465731
 30
0.0
 10
177.4959796710266
 20
395.9376038776879
 30
0.0
 10
177.3393074775017
 20
396.0001145396147
 30
0.0
 10
177.1799596595795
 20
396.0001145396148
 30
0.0
  0
LINE
  5
134
330
1F
100
AcDbEntity
  8
0
  6
Continuous
 62
     7
370
    25
100
AcDbLine
 10
172.4470944547
 20
396.0001114002
 30
0.0
 11
177.1799602949
 21
396.0001114002
 31
0.0
  0
SPLINE
  5
135
330
1F
100
AcDbEntity
  8
0
  6
Continuous
 62
     8
370
    18
100
AcDbSpline
210
0.0
220
0.0
230
1.0
 70
     8
 71
     3
 72
    24
 73
    20
 74
     0
 42
0.000000001
 43
0.00000001
 40
0.0
 40
0.0
 40
0.0
 40
0.0
 40
0.250000000000004
 40
0.250000000000004
 40
0.375000000000003
 40
0.375000000000003
 40
0.500000000000002
 40
0.500000000000002
 40
0.625000000000001
 40
0.625000000000001
 40
0.6875000000000009
 40
0.6875000000000009
 40
0.7500000000000008
 40
0.7500000000000008
 40
0.8125000000000007
 40
0.8125000000000007
 40
0.8750000000000006
 40
0.8750000000000006
 40
1.0
 40
1.0
 40
1.0
 40
1.0
 10
191.4566394547016
 20
445.1464565314742
 30
0.0
 10
191.3640039683494
 20
444.870563761346
 30
0.0
 10
191.2597070387545
 20
444.5809334534259
 30
0.0
 10
191.0898367694608
 20
444.0958225643095
 30
0.0
 10
191.0309958006673
 20
443.9256086908266
 30
0.0
 10
190.9101594870537
 20
443.5592678560796
 30
0.0
 10
190.8478784179544
 20
443.362311809482
 30
0.0
 10
190.7263888477543
 20
442.9353569800523
 30
0.0
 10
190.6664481235985
 20
442.7065845007339
 30
0.0
 10
190.5841491516528
 20
442.317233492374
 30
0.0
 10
190.5585884999048
 20
442.1815759946205
 30
0.0
 10
190.5151978791197
 20
441.8961868304838
 30
0.0
 10
190.4975822699774
 20
441.7432705425365
 30
0.0
 10
190.4731589779282
 20
441.4376184674634
 30
0.0
 10
190.4654078943666
 20
441.2835158808887
 30
0.0
 10
190.453706932082
 20
440.9749233351043
 30
0.0
 10
190.449888223273
 20
440.8217409867623
 30
0.0
 10
190.4414449312662
 20
440.3638304413905
 30
0.0
 10
190.4398255463914
 20
440.0607365421886
 30
0.0
 10
190.439469634518
 20
439.758324878513
 30
0.0
  0
SPLINE
  5
136
330
1F
100
AcDbEntity
  8
0
  6
Continuous
 62
     8
370
    18
100
AcDbSpline
210
0.0
220
0.0
230
1.0
 70
     8
 71
     3
 72
    10
 73
     6
 74
     0
 42
0.000000001
 43
0.00000001
 40
0.0
 40
0.0
 40
0.0
 40
0.0
 40
0.1613529762558759
 40
0.5776603826254793
 40
1.0
 40
1.0
 40
1.0
 40
1.0
 10
191.9295431517459
 20
447.3623725763511
 30
0.0
 10
191.9404292750438
 20
447.3012017599551
 30
0.0
 10
191.9794027250255
 20
447.0822038956159
 30
0.0
 10
191.817525517562
 20
446.3114018824387
 30
0.0
 10
191.5775056097087
 20
445.5366154501469
 30
0.0
 10
191.4566324495174
 20
445.1464357963752
 30
0.0
  0
SPLINE
  5
137
330
1F
100
AcDbEntity
  8
0
  6
Continuous
 62
     8
370
    18
100
AcDbSpline
210
0.0
220
0.0
230
1.0
 70
     8
 71
     3
 72
    16
 73
    12
 74
     0
 42
0.000000001
 43
0.00000001
 40
0.0
 40
0.0
 40
0.0
 40
0.0
 40
0.2499999999999996
 40
0.2499999999999996
 40
0.4999999999999992
 40
0.4999999999999992
 40
0.7499999999999989
 40
0.7499999999999989
 40
0.8749999999999987
 40
0.8749999999999987
 40
1.0
 40
1.0
 40
1.0
 40
1.0
 10
190.3978700020923
 20
390.3276741693073
 30
0.0
 10
190.3955005605733
 20
389.236765557452
 30
0.0
 10
190.3934342161282
 20
388.1451442587727
 30
0.0
 10
190.3896646482725
 20
385.9578364290867
 30
0.0
 10
190.3875329598966
 20
384.8612411823196
 30
0.0
 10
190.3830753591771
 20
382.6666826609206
 30
0.0
 10
190.3828346442713
 20
381.5684110282414
 30
0.0
 10
190.38080603591
 20
379.9206264932475
 30
0.0
 10
190.379435014379
 20
379.3713233371791
 30
0.0
 10
190.3753942181712
 20
378.2731435201261
 30
0.0
 10
190.3726832513095
 20
377.7242590325661
 30
0.0
 10
190.3709332504269
 20
377.1760351673533
 30
0.0
  0
SPLINE
  5
138
330
1F
100
AcDbEntity
  8
0
  6
Continuous
 62
     8
370
    18
100
AcDbSpline
210
0.0
220
0.0
230
1.0
 70
     8
 71
     3
 72
    16
 73
    12
 74
     0
 42
0.000000001
 43
0.00000001
 40
0.0
 40
0.0
 40
0.0
 40
0.0
 40
0.2500000000000004
 40
0.2500000000000004
 40
0.5000000000000009
 40
0.5000000000000009
 40
0.6250000000000007
 40
0.6250000000000007
 40
0.7500000000000004
 40
0.7500000000000004
 40
1.0
 40
1.0
 40
1.0
 40
1.0
 10
190.439429544974
 20
439.7580646758733
 30
0.0
 10
190.4345276405688
 20
435.6563041304212
 30
0.0
 10
190.4315383335332
 20
431.5555191750176
 30
0.0
 10
190.4263465434813
 20
423.3470981144945
 30
0.0
 10
190.4243468478661
 20
419.2396088460882
 30
0.0
 10
190.422569064486
 20
413.0687512628026
 30
0.0
 10
190.4221843920436
 20
411.0103119090601
 30
0.0
 10
190.4209875699821
 20
406.8890926367012
 30
0.0
 10
190.4200169867964
 20
404.8262910195939
 30
0.0
 10
190.4134683675555
 20
398.6291816344737
 30
0.0
 10
190.4069217969908
 20
394.4872117161652
 30
0.0
 10
190.3978700020926
 20
390.3276741693074
 30
0.0
  0
SPLINE
  5
139
330
1F
100
AcDbEntity
  8
0
  6
Continuous
 62
     8
370
    18
100
AcDbSpline
210
0.0
220
0.0
230
1.0
 70
     8
 71
     3
 72
    10
 73
     6
 74
     0
 42
0.000000001
 43
0.00000001
 40
0.0
 40
0.0
 40
0.0
 40
0.0
 40
0.5
 40
0.5
 40
1.0
 40
1.0
 40
1.0
 40
1.0
 10
189.0883573375218
 20
439.5850572444563
 30
0.0
 10
189.3771327290804
 20
439.5750755346778
 30
0.0
 10
189.6826688783411
 20
439.587402579072
 30
0.0
 10
190.1758637591914
 20
439.650559574629
 30
0.0
 10
190.3612265858559
 20
439.7010953977325
 30
0.0
 10
190.4394295363065
 20
439.7580646763606
 30
0.0
  0
SPLINE
  5
13A
330
1F
100
AcDbEntity
  8
0
  6
Continuous
 62
     8
370
    18
100
AcDbSpline
210
0.0
220
0.0
230
1.0
 70
     8
 71
     3
 72
    30
 73
    26
 74
     0
 42
0.000000001
 43
0.00000001
 40
0.0
 40
0.0
 40
0.0
 40
0.0
 40
0.0625000000000004
 40
0.0625000000000004
 40
0.1250000000000008
 40
0.1250000000000008
 40
0.1875000000000012
 40
0.1875000000000012
 40
0.2500000000000016
 40
0.2500000000000016
 40
0.3125000000000019
 40
0.3125000000000019
 40
0.3750000000000023
 40
0.3750000000000023
 40
0.4375000000000027
 40
0.4375000000000027
 40
0.5000000000000031
 40
0.5000000000000031
 40
0.6250000000000023
 40
0.6250000000000023
 40
0.7500000000000016
 40
0.7500000000000016
 40
0.8750000000000008
 40
0.8750000000000008
 40
1.0
 40
1.0
 40
1.0
 40
1.0
 10
189.0883558338307
 20
439.5852126717455
 30
0.0
 10
189.0866532061397
 20
439.7612532515989
 30
0.0
 10
189.0724193329085
 20
439.9393558328234
 30
0.0
 10
189.0466455036501
 20
440.293714697064
 30
0.0
 10
189.0277317179635
 20
440.4707107986007
 30
0.0
 10
188.9771579719803
 20
440.8251590303759
 30
0.0
 10
188.9450567236993
 20
441.0030331465611
 30
0.0
 10
188.8627352887867
 20
441.3582977531966
 30
0.0
 10
188.8120038561727
 20
441.5321836499602
 30
0.0
 10
188.7107785767067
 20
441.8720174781111
 30
0.0
 10
188.6634910296517
 20
442.0372057623528
 30
0.0
 10
188.601128752398
 20
442.3617481791275
 30
0.0
 10
188.5857755704239
 20
442.518207472618
 30
0.0
 10
188.5812446753947
 20
442.8242022074302
 30
0.0
 10
188.5920636617441
 20
442.9745440658366
 30
0.0
 10
188.6272887375591
 20
443.2645496732653
 30
0.0
 10
188.651615058844
 20
443.403685983087
 30
0.0
 10
188.734671480782
 20
443.8068984392236
 30
0.0
 10
188.8046568222593
 20
444.0573630848277
 30
0.0
 10
188.9522349177826
 20
444.5279649339411
 30
0.0
 10
189.0280943620812
 20
444.7451341093751
 30
0.0
 10
189.1747192917267
 20
445.1536431307017
 30
0.0
 10
189.2459529889395
 20
445.3448939029122
 30
0.0
 10
189.3772912705338
 20
445.707338159168
 30
0.0
 10
189.4376209638254
 20
445.8794002054698
 30
0.0
 10
189.4901309013264
 20
446.0425168591142
 30
0.0
  0
SPLINE
  5
13B
330
1F
100
AcDbEntity
  8
0
  6
Continuous
 62
     8
370
    18
100
AcDbSpline
210
0.0
220
0.0
230
1.0
 70
     8
 71
     3
 72
     9
 73
     5
 74
     0
 42
0.000000001
 43
0.00000001
 40
0.0
 40
0.0
 40
0.0
 40
0.0
 40
0.0000239950765755
 40
1.0
 40
1.0
 40
1.0
 40
1.0
 10
189.4901336573459
 20
448.9281865946006
 30
0.0
 10
189.4901286902783
 20
448.9281865946267
 30
0.0
 10
189.2831250737968
 20
448.9281876786823
 30
0.0
 10
189.1485109199455
 20
448.7926445482383
 30
0.0
 10
189.0138999961711
 20
448.6571046701622
 30
0.0
  0
SPLINE
  5
13C
330
1F
100
AcDbEntity
  8
0
  6
Continuous
 62
     8
370
    18
100
AcDbSpline
210
0.0
220
0.0
230
1.0
 70
     8
 71
     3
 72
    15
 73
    11
 74
     0
 42
0.000000001
 43
0.00000001
 40
0.0
 40
0.0
 40
0.0
 40
0.0
 40
0.0459074500111076
 40
0.1031833597086097
 40
0.1604476240463033
 40
0.2745672392031719
 40
0.3891203766851661
 40
0.6182901904341038
 40
0.8477488989038694
 40
1.0
 40
1.0
 40
1.0
 40
1.0
 10
189.0881673835613
 20
439.5851510754775
 30
0.0
 10
188.8513977110262
 20
439.5047446529323
 30
0.0
 10
188.3192250400681
 20
439.3240200686139
 30
0.0
 10
187.5333267914689
 20
439.1001157154474
 30
0.0
 10
186.5396462920498
 20
438.8859214030005
 30
0.0
 10
185.6389814372073
 20
438.8424044183242
 30
0.0
 10
184.8178185252037
 20
439.0770529795973
 30
0.0
 10
184.4264218395886
 20
439.6533741543856
 30
0.0
 10
184.2950725390415
 20
440.3780631064855
 30
0.0
 10
184.3946732754854
 20
440.9003681692936
 30
0.0
 10
184.4344006322719
 20
441.1086979500007
 30
0.0
  0
SPLINE
  5
13D
330
1F
100
AcDbEntity
  8
0
  6
Continuous
 62
     8
370
    18
100
AcDbSpline
210
0.0
220
0.0
230
1.0
 70
     8
 71
     3
 72
    22
 73
    18
 74
     0
 42
0.000000001
 43
0.00000001
 40
0.0
 40
0.0
 40
0.0
 40
0.0
 40
0.1250000000000007
 40
0.1250000000000007
 40
0.2500000000000015
 40
0.2500000000000015
 40
0.3125000000000019
 40
0.3125000000000019
 40
0.3750000000000022
 40
0.3750000000000022
 40
0.5000000000000021
 40
0.5000000000000021
 40
0.7500000000000011
 40
0.7500000000000011
 40
0.8750000000000006
 40
0.8750000000000006
 40
1.0
 40
1.0
 40
1.0
 40
1.0
 10
189.1528008143776
 20
390.2218864322089
 30
0.0
 10
189.1445261330464
 20
392.2988157197057
 30
0.0
 10
189.1332634613266
 20
394.3713407845544
 30
0.0
 10
189.1089939511748
 20
398.5097502589319
 30
0.0
 10
189.0956557582274
 20
400.5756496924739
 30
0.0
 10
189.0842711578273
 20
403.6702659674252
 30
0.0
 10
189.0820542343469
 20
404.7010776025854
 30
0.0
 10
189.0826741194145
 20
406.7612885252065
 30
0.0
 10
189.0856041962375
 20
407.7906929957892
 30
0.0
 10
189.0922934522775
 20
410.8773178230704
 30
0.0
 10
189.0968891930721
 20
412.9328633223216
 30
0.0
 10
189.1099775792553
 20
419.0949865722986
 30
0.0
 10
189.1191735890184
 20
423.1965162646164
 30
0.0
 10
189.1272592056986
 20
429.3439454179595
 30
0.0
 10
189.1290971290202
 20
431.3922519064164
 30
0.0
 10
189.1207863089972
 20
435.4885073447192
 30
0.0
 10
189.1081255450103
 20
437.5364703534697
 30
0.0
 10
189.0879623600076
 20
439.5850413597909
 30
0.0
  0
LINE
  5
13E
330
1F
100
AcDbEntity
  8
0
  6
Continuous
 62
     8
370
    18
100
AcDbLine
 10
96.6933534883
 20
320.6495553433
 30
0.0
 11
145.5851213478
 21
320.6495553433
 31
0.0
  0
LINE
  5
13F
330
1F
100
AcDbEntity
  8
0
  6
Continuous
 62
     8
370
    18
100
AcDbLine
 10
146.1392377906
 20
319.7544649421
 30
0.0
 11
96.1392370455
 21
319.7544649421
 31
0.0
  0
LINE
  5
140
330
1F
100
AcDbEntity
  8
0
  6
Continuous
 62
     8
370
    18
100
AcDbLine
 10
121.1392374181
 20
316.5651916326
 30
0.0
 11
146.1392377906
 21
316.5651916326
 31
0.0
  0
LINE
  5
141
330
1F
100
AcDbEntity
  8
0
  6
Continuous
 62
     8
370
    18
100
AcDbLine
 10
96.1392370455
 20
316.5651916326
 30
0.0
 11
121.1392374181
 21
316.5651916326
 31
0.0
  0
LINE
  5
142
330
1F
100
AcDbEntity
  8
0
  6
Continuous
 62
     8
370
    18
100
AcDbLine
 10
140.564828872
 20
322.5327110096
 30
0.0
 11
101.7136459642
 21
322.5327110096
 31
0.0
  0
SPLINE
  5
143
330
1F
100
AcDbEntity
  8
0
  6
Continuous
 62
     8
370
    18
100
AcDbSpline
210
0.0
220
0.0
230
1.0
 70
     8
 71
     3
 72
    16
 73
    12
 74
     0
 42
0.000000001
 43
0.00000001
 40
0.0
 40
0.0
 40
0.0
 40
0.0
 40
0.2500000000000024
 40
0.2500000000000024
 40
0.3750000000000024
 40
0.3750000000000024
 40
0.5000000000000026
 40
0.5000000000000026
 40
0.7500000000000012
 40
0.7500000000000012
 40
1.0
 40
1.0
 40
1.0
 40
1.0
 10
189.4900946863229
 20
446.0424895391546
 30
0.0
 10
189.6492276990919
 20
446.5368243642055
 30
0.0
 10
189.7659625473757
 20
446.9736196833746
 30
0.0
 10
189.8831131439337
 20
447.5420380492188
 30
0.0
 10
189.9123941224259
 20
447.7166014005008
 30
0.0
 10
189.951345005841
 20
448.0328143454195
 30
0.0
 10
189.9608866302417
 20
448.1741974424467
 30
0.0
 10
189.9601078855185
 20
448.5388036080988
 30
0.0
 10
189.9208576002358
 20
448.7052849721278
 30
0.0
 10
189.7651736234909
 20
448.910594712563
 30
0.0
 10
189.6490459963447
 20
448.9510465278919
 30
0.0
 10
189.4900942232804
 20
448.9281614708328
 30
0.0
  0
SPLINE
  5
144
330
1F
100
AcDbEntity
  8
0
  6
Continuous
 62
     8
370
    18
100
AcDbSpline
210
0.0
220
0.0
230
1.0
 70
     8
 71
     3
 72
     9
 73
     5
 74
     0
 42
0.000000001
 43
0.00000001
 40
0.0
 40
0.0
 40
0.0
 40
0.0
 40
0.507608228238218
 40
1.0
 40
1.0
 40
1.0
 40
1.0
 10
189.4901262067653
 20
448.9281865946006
 30
0.0
 10
189.5795553647319
 20
448.9963019168943
 30
0.0
 10
189.7557328831243
 20
449.1304906839483
 30
0.0
 10
189.9708038112341
 20
449.1805103195517
 30
0.0
 10
190.0767029665805
 20
449.2051395765495
 30
0.0
  0
SPLINE
  5
145
330
1F
100
AcDbEntity
  8
0
  6
Continuous
 62
     8
370
    18
100
AcDbSpline
210
0.0
220
0.0
230
1.0
 70
     8
 71
     3
 72
    18
 73
    14
 74
     0
 42
0.000000001
 43
0.00000001
 40
0.0
 40
0.0
 40
0.0
 40
0.0
 40
0.1249999999999996
 40
0.1249999999999996
 40
0.2499999999999993
 40
0.2499999999999993
 40
0.5000000000000001
 40
0.5000000000000001
 40
0.6250000000000006
 40
0.6250000000000006
 40
0.7500000000000009
 40
0.7500000000000009
 40
1.0
 40
1.0
 40
1.0
 40
1.0
 10
165.4654452483337
 20
381.2017735448175
 30
0.0
 10
165.4654452483337
 20
380.6678923398733
 30
0.0
 10
165.480680807868
 20
380.1321887153387
 30
0.0
 10
165.5446027360656
 20
379.0573404596709
 30
0.0
 10
165.5936742149242
 20
378.5161602869933
 30
0.0
 10
165.7916088937743
 20
376.9188159664477
 30
0.0
 10
165.990972823106
 20
375.8800875243623
 30
0.0
 10
166.3964226043394
 20
374.3607350938789
 30
0.0
 10
166.5503718478635
 20
373.8579726713251
 30
0.0
 10
166.8902943771952
 20
372.8799750609383
 30
0.0
 10
167.0753342357105
 20
372.4065893035018
 30
0.0
 10
167.6736098909657
 20
371.0298315928646
 30
0.0
 10
168.129805992951
 20
370.1695975908938
 30
0.0
 10
168.6406431786425
 20
369.3618826395132
 30
0.0
  0
LINE
  5
146
330
1F
100
AcDbEntity
  8
0
  6
Continuous
 62
     8
370
    18
100
AcDbLine
 10
165.4654459499
 20
395.3651952735
 30
0.0
 11
165.4654459499
 21
381.2017756692
 31
0.0
  0
SPLINE
  5
147
330
1F
100
AcDbEntity
  8
0
  6
Continuous
 62
     8
370
    18
100
AcDbSpline
210
0.0
220
0.0
230
1.0
 70
     8
 71
     3
 72
    17
 73
    13
 74
     0
 42
0.000000001
 43
0.00000001
 40
0.0
 40
0.0
 40
0.0
 40
0.0
 40
0.0115639425996152
 40
0.1258612074067608
 40
0.2369372039338075
 40
0.3512344235248783
 40
0.4623112286611331
 40
0.5766093872113971
 40
0.6876666320546129
 40
0.8019433613434677
 40
0.8998802526705746
 40
1.0
 40
1.0
 40
1.0
 40
1.0
 10
189.1903371952869
 20
361.3870720556926
 30
0.0
 10
189.1903142257136
 20
361.3799491598767
 30
0.0
 10
189.190064226356
 20
361.3024240199946
 30
0.0
 10
189.1900069329234
 20
361.6118291916294
 30
0.0
 10
189.1868874774424
 20
362.3488907329118
 30
0.0
 10
189.1902101826731
 20
363.5801626486964
 30
0.0
 10
189.1894510164901
 20
365.231011956185
 30
0.0
 10
189.1887437149788
 20
367.2415469253841
 30
0.0
 10
189.1900719934083
 20
369.5861720098416
 30
0.0
 10
189.1887965974714
 20
372.0583940659486
 30
0.0
 10
189.1892444031311
 20
374.5959120453245
 30
0.0
 10
189.1935532483403
 20
376.2655998374968
 30
0.0
 10
189.1957314156391
 20
377.1096448591899
 30
0.0
  0
LINE
  5
148
330
1F
100
AcDbEntity
  8
0
  6
Continuous
 62
     8
370
    18
100
AcDbLine
 10
121.1392374181
 20
415.857011377
 30
0.0
 11
103.1392381929
 21
415.857011377
 31
0.0
  0
LINE
  5
149
330
1F
100
AcDbEntity
  8
0
  6
Continuous
 62
     8
370
    18
100
AcDbLine
 10
139.1392366432
 20
415.857011377
 30
0.0
 11
121.1392374181
 21
415.857011377
 31
0.0
  0
LINE
  5
14A
330
1F
100
AcDbEntity
  8
0
  6
Continuous
 62
     8
370
    18
100
AcDbLine
 10
103.1392381929
 20
322.765191476
 30
0.0
 11
139.1392366432
 21
322.765191476
 31
0.0
  0
SPLINE
  5
14B
330
1F
100
AcDbEntity
  8
0
  6
Continuous
 62
     8
370
    18
100
AcDbSpline
210
0.0
220
0.0
230
1.0
 70
     8
 71
     3
 72
    12
 73
     8
 74
     0
 42
0.000000001
 43
0.00000001
 40
0.0
 40
0.0
 40
0.0
 40
0.0
 40
0.0609015305010926
 40
0.2314988766871925
 40
0.4025407690871931
 40
0.5825123830082308
 40
0.9999999999999999
 40
0.9999999999999999
 40
0.9999999999999999
 40
0.9999999999999999
 10
139.7678588919736
 20
357.7556329957198
 30
0.0
 10
139.8229196497821
 20
357.9265331937979
 30
0.0
 10
140.0322165833293
 20
358.576158967652
 30
0.0
 10
140.7501565929438
 20
359.5598382201367
 30
0.0
 10
141.9781297510481
 20
360.5069300838556
 30
0.0
 10
144.1238227752006
 20
361.3199590789035
 30
0.0
 10
145.8989293523968
 20
361.3464880752117
 30
0.0
 10
147.1393236361839
 20
361.3650257877063
 30
0.0
  0
SPLINE
  5
14C
330
1F
100
AcDbEntity
  8
0
  6
Continuous
 62
     8
370
    18
100
AcDbSpline
210
0.0
220
0.0
230
1.0
 70
     8
 71
     3
 72
    12
 73
     8
 74
     0
 42
0.000000001
 43
0.00000001
 40
0.0
 40
0.0
 40
0.0
 40
0.0
 40
0.4319692760038927
 40
0.6187077509251732
 40
0.7964750147917378
 40
0.9762621177338423
 40
1.0
 40
1.0
 40
1.0
 40
1.0
 10
147.139262168894
 20
395.3653219333839
 30
0.0
 10
145.954363783845
 20
395.381802559923
 30
0.0
 10
144.257238882578
 20
395.4054076909965
 30
0.0
 10
142.1807859370706
 20
396.1260773667535
 30
0.0
 10
140.9618985452835
 20
396.9785663144291
 30
0.0
 10
140.2494268398786
 20
397.785221893424
 30
0.0
 10
140.0481537748725
 20
398.3019328344335
 30
0.0
 10
140.0246785425045
 20
398.3621987692069
 30
0.0
  0
LINE
  5
14D
330
1F
100
AcDbEntity
  8
0
  6
Continuous
 62
     8
370
    18
100
AcDbLine
 10
103.5559119128
 20
416.6692513219
 30
0.0
 11
138.7225629233
 21
416.6692513219
 31
0.0
  0
SPLINE
  5
14E
330
1F
100
AcDbEntity
  8
0
  6
Continuous
 62
     8
370
    18
100
AcDbSpline
210
0.0
220
0.0
230
1.0
 70
     8
 71
     3
 72
    18
 73
    14
 74
     0
 42
0.000000001
 43
0.00000001
 40
0.0
 40
0.0
 40
0.0
 40
0.0
 40
0.1250000000000014
 40
0.1250000000000014
 40
0.2500000000000012
 40
0.2500000000000012
 40
0.375000000000001
 40
0.375000000000001
 40
0.5000000000000008
 40
0.5000000000000008
 40
0.7500000000000003
 40
0.7500000000000003
 40
1.0
 40
1.0
 40
1.0
 40
1.0
 10
189.1959917675374
 20
377.1098961750563
 30
0.0
 10
189.1979306089266
 20
377.6557846583852
 30
0.0
 10
189.2007187025199
 20
378.2037357018169
 30
0.0
 10
189.2043085828546
 20
379.2985051143655
 30
0.0
 10
189.2051182345947
 20
379.8460860606624
 30
0.0
 10
189.2040733666119
 20
380.9411798129941
 30
0.0
 10
189.2022291469897
 20
381.488688125292
 30
0.0
 10
189.1979271528131
 20
382.5833758481264
 30
0.0
 10
189.195774665232
 20
383.1305583281678
 30
0.0
 10
189.1877611927447
 20
384.7714938486899
 30
0.0
 10
189.1796803910767
 20
385.8648699078393
 30
0.0
 10
189.1634076088788
 20
388.0457371459917
 30
0.0
 10
189.157116377791
 20
389.1347126793755
 30
0.0
 10
189.1527989796705
 20
390.2218865958864
 30
0.0
  0
LWPOLYLINE
  5
14F
330
1F
100
AcDbEntity
  8
0
  6
Continuous
 62
     8
370
    18
100
AcDbPolyline
 90
        9
 70
   128
 43
0.0
 10
168.3808357858
 20
369.3746346227
 10
168.3923283063
 20
369.3529087297
 10
168.4114874743
 20
369.3363684407
 10
168.4377284192
 20
369.3255241207
 10
168.4702353023
 20
369.3207073203
 10
168.5080060207
 20
369.3220745019
 10
168.5498745583
 20
369.3295772365
 10
168.5945482396
 20
369.3429845563
 10
168.6406449818
 20
369.361882954
  0
ARC
  5
150
330
1F
100
AcDbEntity
  8
0
  6
Continuous
 62
     8
370
    18
100
AcDbCircle
 10
165.3925463227
 20
380.7146956892
 30
0.0
 40
0.4925050888728037
100
AcDbArc
 50
81.4879147598
 51
117.4591115409
  0
LINE
  5
151
330
1F
100
AcDbEntity
  8
0
  6
Continuous
 62
     8
370
    18
100
AcDbLine
 10
132.3301035382
 20
420.2837365857
 30
0.0
 11
109.9483712979
 21
420.2837365857
 31
0.0
  0
LINE
  5
152
330
1F
100
AcDbEntity
  8
0
  6
Continuous
 62
     8
370
    18
100
AcDbLine
 10
162.8392392241
 20
361.3651934258
 30
0.0
 11
162.8392392241
 21
395.3651952735
 31
0.0
  0
ARC
  5
153
330
1F
100
AcDbEntity
  8
0
  6
Continuous
 62
     8
370
    18
100
AcDbCircle
 10
174.916941753
 20
402.0580691445
 30
0.0
 40
7.573518349791973
100
AcDbArc
 50
246.0314741178
 51
290.691376339
  0
ARC
  5
154
330
1F
100
AcDbEntity
  8
0
  6
Continuous
 62
     8
370
    18
100
AcDbCircle
 10
174.8135292374
 20
400.8329619947
 30
0.0
 40
5.50128940700807
100
AcDbArc
 50
245.6875338892
 51
294.3124661108
  0
LINE
  5
155
330
1F
100
AcDbEntity
  8
0
  6
Continuous
 62
     8
370
    18
100
AcDbLine
 10
171.813526883
 20
395.2278959743
 30
0.0
 11
171.8480491482
 21
395.2278959743
 31
0.0
  0
ARC
  5
156
330
1F
100
AcDbEntity
  8
0
  6
Continuous
 62
     8
370
    18
100
AcDbCircle
 10
174.8135273748
 20
390.8173409905
 30
0.0
 40
5.697465566843025
100
AcDbArc
 50
65.4587443697
 51
114.5412556303
  0
LINE
  5
157
330
1F
100
AcDbEntity
  8
0
  6
Continuous
 62
     7
370
    25
100
AcDbLine
 10
111.1392376416
 20
232.4028878021
 30
0.0
 11
111.1392376416
 21
194.402889024
 31
0.0
  0
LINE
  5
158
330
1F
100
AcDbEntity
  8
0
  6
Continuous
 62
     7
370
    25
100
AcDbLine
 10
131.1392371945
 20
194.402889024
 30
0.0
 11
131.1392371945
 21
232.4028878021
 31
0.0
  0
LINE
  5
159
330
1F
100
AcDbEntity
  8
0
  6
Continuous
 62
     7
370
    25
100
AcDbLine
 10
131.1392371945
 20
124.2144002128
 30
0.0
 11
131.1392371945
 21
194.402889024
 31
0.0
  0
LINE
  5
15A
330
1F
100
AcDbEntity
  8
0
  6
Continuous
 62
     7
370
    25
100
AcDbLine
 10
111.1392376416
 20
194.402889024
 30
0.0
 11
111.1392376416
 21
124.2144002128
 31
0.0
  0
LINE
  5
15B
330
1F
100
AcDbEntity
  8
0
  6
Continuous
 62
     7
370
    25
100
AcDbLine
 10
111.1392376416
 20
124.2144002128
 30
0.0
 11
111.1392376416
 21
87.5092117596
 31
0.0
  0
LINE
  5
15C
330
1F
100
AcDbEntity
  8
0
  6
Continuous
 62
     7
370
    25
100
AcDbLine
 10
131.1392371945
 20
87.5092117596
 30
0.0
 11
131.1392371945
 21
124.2144002128
 31
0.0
  0
LINE
  5
15D
330
1F
100
AcDbEntity
  8
0
  6
Continuous
 62
     7
370
    25
100
AcDbLine
 10
131.1392371945
 20
81.7893116283
 30
0.0
 11
131.1392371945
 21
87.5092117596
 31
0.0
  0
LINE
  5
15E
330
1F
100
AcDbEntity
  8
0
  6
Continuous
 62
     7
370
    25
100
AcDbLine
 10
111.1392376416
 20
87.5092117596
 30
0.0
 11
111.1392376416
 21
81.7893116283
 31
0.0
  0
LINE
  5
15F
330
1F
100
AcDbEntity
  8
0
  6
Continuous
 62
     7
370
    25
100
AcDbLine
 10
131.1392371945
 20
78.1658409643
 30
0.0
 11
131.1392371945
 21
81.7893116283
 31
0.0
  0
LINE
  5
160
330
1F
100
AcDbEntity
  8
0
  6
Continuous
 62
     7
370
    25
100
AcDbLine
 10
111.1392376416
 20
81.7893116283
 30
0.0
 11
111.1392376416
 21
78.1658409643
 31
0.0
  0
SPLINE
  5
161
330
1F
100
AcDbEntity
  8
0
  6
Continuous
 62
     7
370
    25
100
AcDbSpline
210
0.0
220
0.0
230
1.0
 70
     8
 71
     3
 72
     9
 73
     5
 74
     0
 42
0.000000001
 43
0.00000001
 40
0.0
 40
0.0
 40
0.0
 40
0.0
 40
0.6008038374863479
 40
1.0
 40
1.0
 40
1.0
 40
1.0
 10
186.2195597432949
 20
207.7774616438106
 30
0.0
 10
186.6951077738045
 20
207.1979837656987
 30
0.0
 10
187.486627402739
 20
206.2334794766844
 30
0.0
 10
188.4755150143084
 20
205.8605661842725
 30
0.0
 10
188.8702751540042
 20
205.7117006289914
 30
0.0
  0
SPLINE
  5
162
330
1F
100
AcDbEntity
  8
0
  6
Continuous
 62
     7
370
    25
100
AcDbSpline
210
0.0
220
0.0
230
1.0
 70
     8
 71
     3
 72
    22
 73
    18
 74
     0
 42
0.000000001
 43
0.00000001
 40
0.0
 40
0.0
 40
0.0
 40
0.0
 40
0.1317100049894554
 40
0.2590631548514918
 40
0.3736603121382137
 40
0.4754780138156588
 40
0.5645364899587393
 40
0.6408964075562804
 40
0.7045562255831622
 40
0.7496180945814426
 40
0.7852521959688807
 40
0.8154650217580669
 40
0.8439424935414835
 40
0.873869183399627
 40
0.9090151829091783
 40
0.951540153939196
 40
1.0
 40
1.0
 40
1.0
 40
1.0
 10
191.9654698513843
 20
216.4182054358676
 30
0.0
 10
191.9654876863669
 20
217.2411747524148
 30
0.0
 10
191.965522766366
 20
218.8598902593177
 30
0.0
 10
191.967727740641
 20
221.2342292340723
 30
0.0
 10
191.9682603812837
 20
223.4556134907891
 30
0.0
 10
191.9649006988694
 20
225.4778313450234
 30
0.0
 10
191.9595869230692
 20
227.3018425308263
 30
0.0
 10
191.9565441439917
 20
228.943362830098
 30
0.0
 10
191.966193219362
 20
230.3330449713172
 30
0.0
 10
191.9527355660238
 20
231.5631850819241
 30
0.0
 10
191.9540910384582
 20
232.5174685495211
 30
0.0
 10
191.9474939926169
 20
233.9624921051872
 30
0.0
 10
191.8920937820872
 20
235.9787565915882
 30
0.0
 10
191.7462555394735
 20
238.5157133878841
 30
0.0
 10
191.4695016848712
 20
241.4864591385831
 30
0.0
 10
191.0279799753016
 20
244.9263389448341
 30
0.0
 10
190.5643758983197
 20
247.373442330989
 30
0.0
 10
190.3174535774089
 20
248.6768054324344
 30
0.0
  0
SPLINE
  5
163
330
1F
100
AcDbEntity
  8
0
  6
Continuous
 62
     7
370
    25
100
AcDbSpline
210
0.0
220
0.0
230
1.0
 70
     8
 71
     3
 72
    19
 73
    15
 74
     0
 42
0.000000001
 43
0.00000001
 40
0.0
 40
0.0
 40
0.0
 40
0.0
 40
0.0571865083412493
 40
0.1153061588261546
 40
0.1614189335790176
 40
0.2008055288755204
 40
0.2351616739401392
 40
0.266179193029193
 40
0.3012848915712555
 40
0.3881807334864975
 40
0.5571251480929795
 40
0.7254830677557632
 40
0.9829682652106659
 40
1.0
 40
1.0
 40
1.0
 40
1.0
 10
188.8419852994777
 20
205.6471301722482
 30
0.0
 10
188.9793752212833
 20
205.6036599747598
 30
0.0
 10
189.2563969280519
 20
205.516010253852
 30
0.0
 10
189.667802482027
 20
205.5797560611597
 30
0.0
 10
189.9903694666459
 20
205.7369693177605
 30
0.0
 10
190.2121989027045
 20
205.9304047366796
 30
0.0
 10
190.3553116339259
 20
206.1218087444708
 30
0.0
 10
190.4444636104092
 20
206.2894075498754
 30
0.0
 10
190.5281918182833
 20
206.4861471946901
 30
0.0
 10
190.6671522110954
 20
206.8819023807687
 30
0.0
 10
190.8926644657257
 20
207.6443416463624
 30
0.0
 10
191.1794152762799
 20
208.8365710302652
 30
0.0
 10
191.3856226460665
 20
209.7791655902148
 30
0.0
 10
191.4732565842994
 20
210.406077314051
 30
0.0
 10
191.4786936186649
 20
210.4449725258306
 30
0.0
  0
SPLINE
  5
164
330
1F
100
AcDbEntity
  8
0
  6
Continuous
 62
     7
370
    25
100
AcDbSpline
210
0.0
220
0.0
230
1.0
 70
     8
 71
     3
 72
    23
 73
    19
 74
     0
 42
0.000000001
 43
0.00000001
 40
0.0
 40
0.0
 40
0.0
 40
0.0
 40
0.0220579736257549
 40
0.0767960886474451
 40
0.2074303294786613
 40
0.3476942885626267
 40
0.4082475094188063
 40
0.4634627154456286
 40
0.5148289045451516
 40
0.5637828682184596
 40
0.6112146403011618
 40
0.6570619678825463
 40
0.7029985035699942
 40
0.7532550080294023
 40
0.8110841633946057
 40
0.8786814492400946
 40
0.957193901333481
 40
0.9999999999999999
 40
0.9999999999999999
 40
0.9999999999999999
 40
0.9999999999999999
 10
185.1216198347904
 20
228.8697605501071
 30
0.0
 10
185.1075811848038
 20
228.8784108264166
 30
0.0
 10
185.0587048271135
 20
228.9085272549499
 30
0.0
 10
184.873682311881
 20
228.473467831887
 30
0.0
 10
184.5082349908523
 20
227.2752666432727
 30
0.0
 10
184.0621563147624
 20
225.5857762245021
 30
0.0
 10
183.7286450778663
 20
223.8741023007021
 30
0.0
 10
183.541056311576
 20
222.5349261973007
 30
0.0
 10
183.4142083827192
 20
221.0750794044825
 30
0.0
 10
183.3575776104208
 20
219.5201066308745
 30
0.0
 10
183.3728566316927
 20
217.9210901607088
 30
0.0
 10
183.4648635426444
 20
216.3285052657617
 30
0.0
 10
183.6291379293837
 20
214.7051257753299
 30
0.0
 10
183.879151876146
 20
213.1222577977642
 30
0.0
 10
184.2603948249355
 20
211.5858435213769
 30
0.0
 10
184.8202788880324
 20
210.1019475474176
 30
0.0
 10
185.4604048032653
 20
208.9191079208934
 30
0.0
 10
185.8818062950649
 20
208.2983283066889
 30
0.0
 10
186.0304938100673
 20
208.0792921143725
 30
0.0
  0
SPLINE
  5
165
330
1F
100
AcDbEntity
  8
0
  6
Continuous
 62
     7
370
    25
100
AcDbSpline
210
0.0
220
0.0
230
1.0
 70
     8
 71
     3
 72
    11
 73
     7
 74
     0
 42
0.000000001
 43
0.00000001
 40
0.0
 40
0.0
 40
0.0
 40
0.0
 40
0.1313847080820248
 40
0.5698958459923706
 40
0.8888177576975372
 40
1.0
 40
1.0
 40
1.0
 40
1.0
 10
131.1392371945478
 20
215.1353346663669
 30
0.0
 10
131.4883138932584
 20
215.1620252919113
 30
0.0
 10
133.0024730631647
 20
215.2777988613531
 30
0.0
 10
135.3710350161877
 20
215.3646639706567
 30
0.0
 10
137.6858157648838
 20
215.4036314655954
 30
0.0
 10
138.8321557264703
 20
215.4017122136085
 30
0.0
 10
139.1284854554035
 20
215.4012160855487
 30
0.0
  0
SPLINE
  5
166
330
1F
100
AcDbEntity
  8
0
  6
Continuous
 62
     7
370
    25
100
AcDbSpline
210
0.0
220
0.0
230
1.0
 70
     8
 71
     3
 72
    12
 73
     8
 74
     0
 42
0.000000001
 43
0.00000001
 40
0.0
 40
0.0
 40
0.0
 40
0.0
 40
0.0912869131936581
 40
0.2206465313021418
 40
0.4166541767570066
 40
0.6751173985307314
 40
1.0
 40
1.0
 40
1.0
 40
1.0
 10
139.1206474446155
 20
249.4047085303023
 30
0.0
 10
138.6068273377742
 20
249.404869319561
 30
0.0
 10
137.3648900181574
 20
249.4052579578768
 30
0.0
 10
135.0199904689823
 20
249.44912434651
 30
0.0
 10
131.7362306267438
 20
249.5897259954475
 30
0.0
 10
127.3634058099445
 20
249.9437363188343
 30
0.0
 10
124.0923786188499
 20
250.2168357118402
 30
0.0
 10
122.2706464987643
 20
250.3689328688338
 30
0.0
  0
LINE
  5
167
330
1F
100
AcDbEntity
  8
0
  6
Continuous
 62
     7
370
    25
100
AcDbLine
 10
165.6343021833
 20
215.4028868782
 30
0.0
 11
181.2822536968
 21
215.4028868782
 31
0.0
  0
LINE
  5
168
330
1F
100
AcDbEntity
  8
0
  6
Continuous
 62
     7
370
    25
100
AcDbLine
 10
189.1893090152
 20
249.402888726
 30
0.0
 11
167.781503632
 21
249.402888726
 31
0.0
  0
SPLINE
  5
169
330
1F
100
AcDbEntity
  8
0
  6
Continuous
 62
     7
370
    25
100
AcDbSpline
210
0.0
220
0.0
230
1.0
 70
     8
 71
     3
 72
     9
 73
     5
 74
     0
 42
0.000000001
 43
0.00000001
 40
0.0
 40
0.0
 40
0.0
 40
0.0
 40
0.5570648688537253
 40
0.9999999999999999
 40
0.9999999999999999
 40
0.9999999999999999
 40
0.9999999999999999
 10
181.2355311058857
 20
215.4028496253446
 30
0.0
 10
181.7477615970843
 20
215.4050600398921
 30
0.0
 10
182.6672783712305
 20
215.4090280060504
 30
0.0
 10
183.2887386087014
 20
215.4507257758017
 30
0.0
 10
183.5640051804878
 20
215.469195182915
 30
0.0
  0
LINE
  5
16A
330
1F
100
AcDbEntity
  8
0
  6
Continuous
 62
     7
370
    25
100
AcDbLine
 10
162.8392392241
 20
249.402888726
 30
0.0
 11
139.1204816692
 21
249.402888726
 31
0.0
  0
LINE
  5
16B
330
1F
100
AcDbEntity
  8
0
  6
Continuous
 62
     7
370
    25
100
AcDbLine
 10
139.1212732934
 20
215.4028868782
 30
0.0
 11
162.8392392241
 21
215.4028868782
 31
0.0
  0
ARC
  5
16C
330
1F
100
AcDbEntity
  8
0
  6
Continuous
 62
     7
370
    25
100
AcDbCircle
 10
162.8392374181
 20
215.7028878021
 30
0.0
 40
0.3000000000000398
100
AcDbArc
 50
270.0
 51
0.0
  0
ARC
  5
16D
330
1F
100
AcDbEntity
  8
0
  6
Continuous
 62
     7
370
    25
100
AcDbCircle
 10
162.8392374181
 20
249.1028878021
 30
0.0
 40
0.3000000000000398
100
AcDbArc
 50
360.0
 51
90.0
  0
LINE
  5
16E
330
1F
100
AcDbEntity
  8
0
  6
Continuous
 62
     7
370
    25
100
AcDbLine
 10
163.1392368518
 20
216.4028870422
 30
0.0
 11
163.6392378651
 21
216.4028870422
 31
0.0
  0
LINE
  5
16F
330
1F
100
AcDbEntity
  8
0
  6
Continuous
 62
     7
370
    25
100
AcDbLine
 10
163.6392378651
 20
248.4028885621
 30
0.0
 11
163.1392368518
 21
248.4028885621
 31
0.0
  0
ARC
  5
170
330
1F
100
AcDbEntity
  8
0
  6
Continuous
 62
     7
370
    25
100
AcDbCircle
 10
158.3704592836
 20
218.8691786383
 30
0.0
 40
29.99999999999999
100
AcDbArc
 50
76.1411056319
 51
79.8849141309
  0
ARC
  5
171
330
1F
100
AcDbEntity
  8
0
  6
Continuous
 62
     7
370
    25
100
AcDbCircle
 10
158.3704592836
 20
245.9365969659
 30
0.0
 40
29.99999999999999
100
AcDbArc
 50
280.1150858691
 51
283.0910717249
  0
SPLINE
  5
172
330
1F
100
AcDbEntity
  8
0
  6
Continuous
 62
     7
370
    25
100
AcDbSpline
210
0.0
220
0.0
230
1.0
 70
     8
 71
     3
 72
     9
 73
     5
 74
     0
 42
0.000000001
 43
0.00000001
 40
0.0
 40
0.0
 40
0.0
 40
0.0
 40
0.5200641838175892
 40
1.0
 40
1.0
 40
1.0
 40
1.0
 10
166.655460133443
 20
249.1924768793538
 30
0.0
 10
166.440867773878
 20
249.0791522467324
 30
0.0
 10
166.0282410900141
 20
248.8612471570385
 30
0.0
 10
165.7849409661823
 20
248.4415669536798
 30
0.0
 10
165.6681725226738
 20
248.2401473927453
 30
0.0
  0
SPLINE
  5
173
330
1F
100
AcDbEntity
  8
0
  6
Continuous
 62
     7
370
    25
100
AcDbSpline
210
0.0
220
0.0
230
1.0
 70
     8
 71
     3
 72
    11
 73
     7
 74
     0
 42
0.000000001
 43
0.00000001
 40
0.0
 40
0.0
 40
0.0
 40
0.0
 40
0.1679989840062683
 40
0.4700135224030798
 40
0.7956005847861776
 40
1.0
 40
1.0
 40
1.0
 40
1.0
 10
190.2311237000324
 20
248.7663539606288
 30
0.0
 10
190.1984280660987
 20
248.8308640096007
 30
0.0
 10
190.106954952953
 20
249.0113448352855
 30
0.0
 10
189.8364230901607
 20
249.2310227964613
 30
0.0
 10
189.5055726399041
 20
249.3894067595502
 30
0.0
 10
189.2768928135579
 20
249.3843364606014
 30
0.0
 10
189.1886980675556
 20
249.3823810028985
 30
0.0
  0
SPLINE
  5
174
330
1F
100
AcDbEntity
  8
0
  6
Continuous
 62
     7
370
    25
100
AcDbSpline
210
0.0
220
0.0
230
1.0
 70
     8
 71
     3
 72
    10
 73
     6
 74
     0
 42
0.000000001
 43
0.00000001
 40
0.0
 40
0.0
 40
0.0
 40
0.0
 40
0.2605559487425025
 40
0.944757362859348
 40
1.0
 40
1.0
 40
1.0
 40
1.0
 10
165.267826750169
 20
215.7191304969743
 30
0.0
 10
165.2749620805895
 20
215.6827979462093
 30
0.0
 10
165.3008342818724
 20
215.5510586978355
 30
0.0
 10
165.5248997600037
 20
215.4171547542707
 30
0.0
 10
165.6288080679375
 20
215.4387152936534
 30
0.0
 10
165.6365708850719
 20
215.4403260457471
 30
0.0
  0
ARC
  5
175
330
1F
100
AcDbEntity
  8
0
  6
Continuous
 62
     7
370
    25
100
AcDbCircle
 10
121.1392374181
 20
232.4028878021
 30
0.0
 40
10.00000000000001
100
AcDbArc
 50
0.0
 51
180.0
  0
ARC
  5
176
330
1F
100
AcDbEntity
  8
0
  6
Continuous
 62
     7
370
    25
100
AcDbCircle
 10
120.9486525096
 20
78.3152973403
 30
0.0
 40
9.810553361656543
100
AcDbArc
 50
180.8728917231
 51
271.1131276124
  0
ARC
  5
177
330
1F
100
AcDbEntity
  8
0
  6
Continuous
 62
     7
370
    25
100
AcDbCircle
 10
121.3148552904
 20
78.3307923762
 30
0.0
 40
9.825766574019971
100
AcDbArc
 50
268.9758866527
 51
359.0380940119
  0
LINE
  5
178
330
1F
100
AcDbEntity
  8
0
  6
Continuous
 62
     7
370
    25
100
AcDbLine
 10
186.3365413092
 20
207.7495219666
 30
0.0
 11
186.0838325166
 21
208.1161035705
 31
0.0
  0
SPLINE
  5
179
330
1F
100
AcDbEntity
  8
0
  6
Continuous
 62
     7
370
    25
100
AcDbSpline
210
0.0
220
0.0
230
1.0
 70
     8
 71
     3
 72
    10
 73
     6
 74
     0
 42
0.000000001
 43
0.00000001
 40
0.0
 40
0.0
 40
0.0
 40
0.0
 40
0.1612960920459095
 40
0.577631735942439
 40
1.0
 40
1.0
 40
1.0
 40
1.0
 10
191.9295580529071
 20
216.4174678283885
 30
0.0
 10
191.9404364750932
 20
216.069736896015
 30
0.0
 10
191.9793941572786
 20
214.8244468238253
 30
0.0
 10
191.8175246948105
 20
212.7620088350411
 30
0.0
 10
191.5775053341463
 20
211.1184504735513
 30
0.0
 10
191.4566324495174
 20
210.2907604086354
 30
0.0
  0
ARC
  5
17A
330
1F
100
AcDbEntity
  8
0
  6
Continuous
 62
     7
370
    25
100
AcDbCircle
 10
121.1392374181
 20
232.4028878021
 30
0.0
 40
18.00000000000001
100
AcDbArc
 50
303.7489885959
 51
236.2510114041
  0
LINE
  5
17B
330
1F
100
AcDbEntity
  8
0
  6
Continuous
 62
     7
370
    25
100
AcDbLine
 10
139.1393241875
 20
232.4029036615
 30
0.0
 11
139.3477485918
 21
232.4029012463
 31
0.0
  0
SPLINE
  5
17C
330
1F
100
AcDbEntity
  8
0
  6
Continuous
 62
     7
370
    25
100
AcDbSpline
210
0.0
220
0.0
230
1.0
 70
     8
 71
     3
 72
     9
 73
     5
 74
     0
 42
0.000000001
 43
0.00000001
 40
0.0
 40
0.0
 40
0.0
 40
0.0
 40
0.4425475936687956
 40
1.0
 40
1.0
 40
1.0
 40
1.0
 10
167.7815036319591
 20
249.391623448129
 30
0.0
 10
167.6145617173793
 20
249.3926606636354
 30
0.0
 10
167.2373324273137
 20
249.3950044013967
 30
0.0
 10
166.9538664753665
 20
249.2575553640056
 30
0.0
 10
166.7958476983406
 20
249.180934067364
 30
0.0
  0
SPLINE
  5
17D
330
1F
100
AcDbEntity
  8
0
  6
Continuous
 62
     7
370
    25
100
AcDbSpline
210
0.0
220
0.0
230
1.0
 70
     8
 71
     3
 72
    14
 73
    10
 74
     0
 42
0.000000001
 43
0.00000001
 40
0.0
 40
0.0
 40
0.0
 40
0.0
 40
0.25
 40
0.25
 40
0.5
 40
0.5
 40
0.75
 40
0.75
 40
1.0
 40
1.0
 40
1.0
 40
1.0
 10
172.6734425116159
 20
230.6437930323008
 30
0.0
 10
172.5380925158952
 20
230.5056955970339
 30
0.0
 10
172.4142441463255
 20
230.3524438188585
 30
0.0
 10
172.2014562630848
 20
230.0304777098979
 30
0.0
 10
172.1113103157809
 20
229.8610213525099
 30
0.0
 10
171.9639049470026
 20
229.5051832569868
 30
0.0
 10
171.9073449052367
 20
229.3191636731641
 30
0.0
 10
171.8326143939574
 20
228.9462815740535
 30
0.0
 10
171.8135277463396
 20
228.7574617289633
 30
0.0
 10
171.8135277463396
 20
228.5661946573199
 30
0.0
  0
SPLINE
  5
17E
330
1F
100
AcDbEntity
  8
0
  6
Continuous
 62
     7
370
    25
100
AcDbSpline
210
0.0
220
0.0
230
1.0
 70
     8
 71
     3
 72
     8
 73
     4
 74
     0
 42
0.000000001
 43
0.00000001
 40
0.0
 40
0.0
 40
0.0
 40
0.0
 40
1.0
 40
1.0
 40
1.0
 40
1.0
 10
177.7831740106818
 20
228.0908528095392
 30
0.0
 10
177.7505326509675
 20
227.8483731450965
 30
0.0
 10
177.6880308386239
 20
227.6168247918647
 30
0.0
 10
177.5929240748089
 20
227.3963835448778
 30
0.0
  0
SPLINE
  5
17F
330
1F
100
AcDbEntity
  8
0
  6
Continuous
 62
     7
370
    25
100
AcDbSpline
210
0.0
220
0.0
230
1.0
 70
     8
 71
     3
 72
     8
 73
     4
 74
     0
 42
0.000000001
 43
0.00000001
 40
0.0000401745080108
 40
0.0000401745080108
 40
0.0000401745080108
 40
0.0000401745080108
 40
0.0003922196152725
 40
0.0003922196152725
 40
0.0003922196152725
 40
0.0003922196152725
 10
177.7831740106818
 20
228.0908528095392
 30
0.0
 10
177.6685087569152
 20
228.0964839414706
 30
0.0
 10
177.5534948850625
 20
228.1017636028103
 30
0.0
 10
177.4382121088877
 20
228.1067110239497
 30
0.0
  0
SPLINE
  5
180
330
1F
100
AcDbEntity
  8
0
  6
Continuous
 62
     7
370
    25
100
AcDbSpline
210
0.0
220
0.0
230
1.0
 70
     8
 71
     3
 72
     8
 73
     4
 74
     0
 42
0.000000001
 43
0.00000001
 40
0.0
 40
0.0
 40
0.0
 40
0.0
 40
1.0
 40
1.0
 40
1.0
 40
1.0
 10
177.4382121088876
 20
228.1067110239497
 30
0.0
 10
177.4228205073901
 20
228.2366045556347
 30
0.0
 10
177.4149489847988
 20
228.3664978488431
 30
0.0
 10
177.4149289327419
 20
228.4963908930661
 30
0.0
  0
LINE
  5
181
330
1F
100
AcDbEntity
  8
0
  6
Continuous
 62
     7
370
    25
100
AcDbLine
 10
177.4149292551
 20
228.4963910016
 30
0.0
 11
177.4296255254
 21
228.7420727327
 31
0.0
  0
SPLINE
  5
182
330
1F
100
AcDbEntity
  8
0
  6
Continuous
 62
     7
370
    25
100
AcDbSpline
210
0.0
220
0.0
230
1.0
 70
     8
 71
     3
 72
    20
 73
    16
 74
     0
 42
0.000000001
 43
0.00000001
 40
0.0
 40
0.0
 40
0.0
 40
0.0
 40
0.1249999999999999
 40
0.1249999999999999
 40
0.2499999999999999
 40
0.2499999999999999
 40
0.3749999999999998
 40
0.3749999999999998
 40
0.4999999999999998
 40
0.4999999999999998
 40
0.6249999999999998
 40
0.6249999999999998
 40
0.7499999999999999
 40
0.7499999999999999
 40
1.0
 40
1.0
 40
1.0
 40
1.0
 10
177.7867414958033
 20
228.8700375736938
 30
0.0
 10
177.766030860584
 20
229.0217800392476
 30
0.0
 10
177.7335183293436
 20
229.1723816688285
 30
0.0
 10
177.6445647681611
 20
229.4711375166077
 30
0.0
 10
177.5882359780879
 20
229.6181606120366
 30
0.0
 10
177.4557579770961
 20
229.8995469323764
 30
0.0
 10
177.3792668641355
 20
230.0351418523536
 30
0.0
 10
177.2055991517086
 20
230.2959571665889
 30
0.0
 10
177.1084156108462
 20
230.4207668181539
 30
0.0
 10
176.8994605197608
 20
230.6518405911285
 30
0.0
 10
176.7870037416109
 20
230.7592110677392
 30
0.0
 10
176.5457165176538
 20
230.957285123824
 30
0.0
 10
176.4160980289599
 20
231.0482474146421
 30
0.0
 10
176.0144539241653
 20
231.2863128381191
 30
0.0
 10
175.7241305143265
 20
231.4033177467922
 30
0.0
 10
175.4167381137783
 20
231.4721451504989
 30
0.0
  0
SPLINE
  5
183
330
1F
100
AcDbEntity
  8
0
  6
Continuous
 62
     7
370
    25
100
AcDbSpline
210
0.0
220
0.0
230
1.0
 70
     8
 71
     3
 72
     8
 73
     4
 74
     0
 42
0.000000001
 43
0.00000001
 40
0.0
 40
0.0
 40
0.0
 40
0.0
 40
1.0
 40
1.0
 40
1.0
 40
1.0
 10
173.210287644401
 20
231.0794834679931
 30
0.0
 10
173.014488987099
 20
230.9547996917008
 30
0.0
 10
172.8355946995341
 20
230.8094910524163
 30
0.0
 10
172.6734088234777
 20
230.6440007187777
 30
0.0
  0
SPLINE
  5
184
330
1F
100
AcDbEntity
  8
0
  6
Continuous
 62
     7
370
    25
100
AcDbSpline
210
0.0
220
0.0
230
1.0
 70
     8
 71
     3
 72
    10
 73
     6
 74
     0
 42
0.000000001
 43
0.00000001
 40
0.0
 40
0.0
 40
0.0
 40
0.0
 40
0.5
 40
0.5
 40
1.0
 40
1.0
 40
1.0
 40
1.0
 10
172.4470958330998
 20
228.7280892797495
 30
0.0
 10
172.2877223328802
 20
228.7280892797495
 30
0.0
 10
172.1315827185314
 20
228.7424950190595
 30
0.0
 10
171.9069441509323
 20
228.7923251208245
 30
0.0
 10
171.8403139968759
 20
228.8275204762235
 30
0.0
 10
171.8403139968759
 20
228.8635019789777
 30
0.0
  0
ARC
  5
185
330
1F
100
AcDbEntity
  8
0
  6
Continuous
 62
     7
370
    25
100
AcDbCircle
 10
174.8135292374
 20
228.3978652317
 30
0.0
 40
3.0094547529605
100
AcDbArc
 50
8.9008271592
 51
171.0991728408
  0
SPLINE
  5
186
330
1F
100
AcDbEntity
  8
0
  6
Continuous
 62
     7
370
    25
100
AcDbSpline
210
0.0
220
0.0
230
1.0
 70
     8
 71
     3
 72
    10
 73
     6
 74
     0
 42
0.000000001
 43
0.00000001
 40
0.0
 40
0.0
 40
0.0
 40
0.0
 40
0.5
 40
0.5
 40
1.0
 40
1.0
 40
1.0
 40
1.0
 10
177.7867414958033
 20
228.8635019789777
 30
0.0
 10
177.7867414958033
 20
228.8275275963724
 30
0.0
 10
177.7202375427797
 20
228.7923898758675
 30
0.0
 10
177.4959796710266
 20
228.7425708035728
 30
0.0
 10
177.3393074775017
 20
228.7280892797496
 30
0.0
 10
177.1799596595795
 20
228.7280892797496
 30
0.0
  0
LINE
  5
187
330
1F
100
AcDbEntity
  8
0
  6
Continuous
 62
     7
370
    25
100
AcDbLine
 10
172.4470944547
 20
228.7280893899
 30
0.0
 11
177.1799602949
 21
228.7280893899
 31
0.0
  0
ARC
  5
188
330
1F
100
AcDbEntity
  8
0
  6
Continuous
 62
     7
370
    25
100
AcDbCircle
 10
174.661377528
 20
228.4963760201
 30
0.0
 40
2.847850645009393
100
AcDbArc
 50
172.135071921
 51
179.9996985867
  0
LINE
  5
189
330
1F
100
AcDbEntity
  8
0
  6
Continuous
 62
     7
370
    25
100
AcDbLine
 10
171.813526883
 20
228.4963910016
 30
0.0
 11
171.813526883
 21
228.5661945599
 31
0.0
  0
LINE
  5
18A
330
1F
100
AcDbEntity
  8
0
  6
Continuous
 62
     7
370
    25
100
AcDbLine
 10
171.8403154456
 20
228.8635020624
 30
0.0
 11
171.8403154456
 21
228.8860708024
 31
0.0
  0
LINE
  5
18B
330
1F
100
AcDbEntity
  8
0
  6
Continuous
 62
     7
370
    25
100
AcDbLine
 10
177.7867430292
 20
228.8635020624
 30
0.0
 11
177.7867430292
 21
228.8700376186
 31
0.0
  0
ARC
  5
18C
330
1F
100
AcDbEntity
  8
0
  6
Continuous
 62
     7
370
    25
100
AcDbCircle
 10
174.8134812137
 20
228.4663852346
 30
0.0
 40
3.065699452486488
100
AcDbArc
 50
78.651468133
 51
121.5300435682
  0
ARC
  5
18D
330
1F
100
AcDbEntity
  8
0
  6
Continuous
 62
     7
370
    25
100
AcDbCircle
 10
174.8190779908
 20
228.5813100283
 30
0.0
 40
3.016333925158117
100
AcDbArc
 50
189.0527040678
 51
336.8688812955
  0
SPLINE
  5
18E
330
1F
100
AcDbEntity
  8
0
  6
Continuous
 62
     7
370
    25
100
AcDbSpline
210
0.0
220
0.0
230
1.0
 70
     8
 71
     3
 72
    12
 73
     8
 74
     0
 42
0.000000001
 43
0.00000001
 40
0.0
 40
0.0
 40
0.0
 40
0.0
 40
0.2500000000000064
 40
0.2500000000000064
 40
0.5000000000000129
 40
0.5000000000000129
 40
1.0
 40
1.0
 40
1.0
 40
1.0
 10
171.8403139968759
 20
228.1067110239497
 30
0.0
 10
171.8403139968759
 20
228.0857198195746
 30
0.0
 10
171.8589257432223
 20
228.0651144941383
 30
0.0
 10
171.9304591881323
 20
228.0267423293135
 30
0.0
 10
171.9833988810038
 20
228.0091920983277
 30
0.0
 10
172.1797414623868
 20
227.9656024073046
 30
0.0
 10
172.3626202131477
 20
227.9487295415168
 30
0.0
 10
172.5485774157584
 20
227.9487295415168
 30
0.0
  0
SPLINE
  5
18F
330
1F
100
AcDbEntity
  8
0
  6
Continuous
 62
     7
370
    25
100
AcDbSpline
210
0.0
220
0.0
230
1.0
 70
     8
 71
     3
 72
    10
 73
     6
 74
     0
 42
0.000000001
 43
0.00000001
 40
0.0
 40
0.0
 40
0.0
 40
0.0
 40
0.5
 40
0.5
 40
1.0
 40
1.0
 40
1.0
 40
1.0
 10
177.0784780769208
 20
227.9487295415168
 30
0.0
 10
177.2526952245577
 20
227.9487295415168
 30
0.0
 10
177.4229987715631
 20
227.9632516829849
 30
0.0
 10
177.6815796320939
 20
228.0151311701062
 30
0.0
 10
177.7656224192991
 20
228.0519417526817
 30
0.0
 10
177.7831740106818
 20
228.0908528095392
 30
0.0
  0
LINE
  5
190
330
1F
100
AcDbEntity
  8
0
  6
Continuous
 62
     7
370
    25
100
AcDbLine
 10
177.0784796618
 20
227.9487295556
 30
0.0
 11
172.548578813
 21
227.9487295556
 31
0.0
  0
LINE
  5
191
330
1F
100
AcDbEntity
  8
0
  6
Continuous
 62
     7
370
    25
100
AcDbLine
 10
177.4382123195
 20
228.1067112009
 30
0.0
 11
171.8403154456
 21
228.1067112009
 31
0.0
  0
LINE
  5
192
330
1F
100
AcDbEntity
  8
0
  6
Continuous
 62
     7
370
    25
100
AcDbLine
 10
163.1392368518
 20
249.102887373
 30
0.0
 11
163.1392368518
 21
215.7028882313
 31
0.0
  0
LINE
  5
193
330
1F
100
AcDbEntity
  8
0
  6
Continuous
 62
     7
370
    25
100
AcDbLine
 10
165.1654445969
 20
215.9370059627
 30
0.0
 11
165.1654445969
 21
245.9660718697
 31
0.0
  0
ARC
  5
194
330
1F
100
AcDbEntity
  8
0
  6
Continuous
 62
     7
370
    25
100
AcDbCircle
 10
174.661373767
 20
228.4964057246
 30
0.0
 40
2.847846884036501
100
AcDbArc
 50
180.000296212
 51
187.8649332803
  0
LINE
  5
195
330
1F
100
AcDbEntity
  8
0
  6
Continuous
 62
     7
370
    25
100
AcDbLine
 10
163.6392378651
 20
216.4028870422
 30
0.0
 11
163.6392378651
 21
248.4028885621
 31
0.0
  0
SPLINE
  5
196
330
1F
100
AcDbEntity
  8
0
  6
Continuous
 62
     7
370
    25
100
AcDbSpline
210
0.0
220
0.0
230
1.0
 70
     8
 71
     3
 72
     9
 73
     5
 74
     0
 42
0.000000001
 43
0.00000001
 40
0.0
 40
0.0
 40
0.0
 40
0.0
 40
0.5007287732423925
 40
1.0
 40
1.0
 40
1.0
 40
1.0
 10
165.1654445968963
 20
245.9660718697265
 30
0.0
 10
165.181651328435
 20
246.4054043145899
 30
0.0
 10
165.2140176161434
 20
247.2827903733511
 30
0.0
 10
165.4773429730693
 20
247.8546036365271
 30
0.0
 10
165.6088137470581
 20
248.1400935459092
 30
0.0
  0
ARC
  5
197
330
1F
100
AcDbEntity
  8
0
  6
Continuous
 62
     7
370
    25
100
AcDbCircle
 10
121.1392374181
 20
232.4028878021
 30
0.0
 40
24.99999999999998
100
AcDbArc
 50
42.8436430436
 51
90.0
  0
ARC
  5
198
330
1F
100
AcDbEntity
  8
0
  6
Continuous
 62
     7
370
    25
100
AcDbCircle
 10
121.1392374181
 20
232.4028878021
 30
0.0
 40
25.00000000000001
100
AcDbArc
 50
293.5781784782
 51
317.1563569564
  0
ARC
  5
199
330
1F
100
AcDbEntity
  8
0
  6
Continuous
 62
     7
370
    25
100
AcDbCircle
 10
121.1392374181
 20
232.4028878021
 30
0.0
 40
25.00000000000003
100
AcDbArc
 50
90.0
 51
246.4218215218
  0
SPLINE
  5
19A
330
1F
100
AcDbEntity
  8
0
  6
Continuous
 62
     8
370
    18
100
AcDbSpline
210
0.0
220
0.0
230
1.0
 70
     8
 71
     3
 72
    28
 73
    24
 74
     0
 42
0.000000001
 43
0.00000001
 40
0.0
 40
0.0
 40
0.0
 40
0.0
 40
0.1249999999999982
 40
0.1249999999999982
 40
0.2499999999999963
 40
0.2499999999999963
 40
0.3749999999999945
 40
0.3749999999999945
 40
0.4999999999999927
 40
0.4999999999999927
 40
0.6249999999999909
 40
0.6249999999999909
 40
0.6874999999999923
 40
0.6874999999999923
 40
0.7499999999999939
 40
0.7499999999999939
 40
0.8124999999999954
 40
0.8124999999999954
 40
0.8749999999999969
 40
0.8749999999999969
 40
0.9374999999999984
 40
0.9374999999999984
 40
1.0
 40
1.0
 40
1.0
 40
1.0
 10
189.4901305929341
 20
222.6183190217294
 30
0.0
 10
189.4375212072812
 20
222.9744557257279
 30
0.0
 10
189.3769937286345
 20
223.331308376615
 30
0.0
 10
189.2451360216513
 20
224.0369876251661
 30
0.0
 10
189.1735546221253
 20
224.3873843398183
 30
0.0
 10
189.0260973999673
 20
225.0839112958516
 30
0.0
 10
188.9495563078069
 20
225.4310622294113
 30
0.0
 10
188.8026035357004
 20
226.111209011786
 30
0.0
 10
188.7326975589002
 20
226.4451292141202
 30
0.0
 10
188.622010005807
 20
227.1023942111781
 30
0.0
 10
188.5777118414476
 20
227.4230712843828
 30
0.0
 10
188.586572200432
 20
227.8810441146827
 30
0.0
 10
188.6033809730789
 20
228.0310108075448
 30
0.0
 10
188.6668593732708
 20
228.3060601714575
 30
0.0
 10
188.7138683515792
 20
228.4323534188797
 30
0.0
 10
188.8149677053617
 20
228.6564329518202
 30
0.0
 10
188.8658652699654
 20
228.7526975993092
 30
0.0
 10
188.9469463668832
 20
228.9166581276136
 30
0.0
 10
188.9784338483428
 20
228.9852214896341
 30
0.0
 10
189.028310281907
 20
229.1091103967462
 30
0.0
 10
189.0470045331487
 20
229.1641507523956
 30
0.0
 10
189.0725009319473
 20
229.2671981580633
 30
0.0
 10
189.0866493237706
 20
229.3154191248769
 30
0.0
 10
189.0883547423677
 20
229.3605276740101
 30
0.0
  0
SPLINE
  5
19B
330
1F
100
AcDbEntity
  8
0
  6
Continuous
 62
     8
370
    18
100
AcDbSpline
210
0.0
220
0.0
230
1.0
 70
     8
 71
     3
 72
    26
 73
    22
 74
     0
 42
0.000000001
 43
0.00000001
 40
0.0
 40
0.0
 40
0.0
 40
0.0
 40
0.0625
 40
0.0625
 40
0.125
 40
0.125
 40
0.1875
 40
0.1875
 40
0.25
 40
0.25
 40
0.375
 40
0.375
 40
0.5
 40
0.5
 40
0.625
 40
0.625
 40
0.75
 40
0.75
 40
0.875
 40
0.875
 40
1.0
 40
1.0
 40
1.0
 40
1.0
 10
188.91086438806
 20
205.6256241462046
 30
0.0
 10
188.878011552502
 20
205.6287197086374
 30
0.0
 10
188.8393901866025
 20
205.6418567990668
 30
0.0
 10
188.756940659464
 20
205.6957920690937
 30
0.0
 10
188.7144705059078
 20
205.7364657493406
 30
0.0
 10
188.6449988002475
 20
205.8402707700676
 30
0.0
 10
188.6184507276229
 20
205.9033657144727
 30
0.0
 10
188.5870900913955
 20
206.0408247195754
 30
0.0
 10
188.5813634667088
 20
206.115831721636
 30
0.0
 10
188.588516546564
 20
206.3537097042473
 30
0.0
 10
188.6230329896938
 20
206.5308000532233
 30
0.0
 10
188.7094585100631
 20
206.9057264205354
 30
0.0
 10
188.762662051642
 20
207.1048231581335
 30
0.0
 10
188.8790310498967
 20
207.5229887699752
 30
0.0
 10
188.9408902930875
 20
207.7433395337021
 30
0.0
 10
189.062695090578
 20
208.1956618433057
 30
0.0
 10
189.1230702437566
 20
208.4285444094898
 30
0.0
 10
189.2395124749294
 20
208.9055472673365
 30
0.0
 10
189.2952682491968
 20
209.1499712172448
 30
0.0
 10
189.3994372269727
 20
209.6485207299894
 30
0.0
 10
189.4472793223683
 20
209.9042094223965
 30
0.0
 10
189.4901309013264
 20
210.1620263299625
 30
0.0
  0
SPLINE
  5
19C
330
1F
100
AcDbEntity
  8
0
  6
Continuous
 62
     8
370
    18
100
AcDbSpline
210
0.0
220
0.0
230
1.0
 70
     8
 71
     3
 72
    18
 73
    14
 74
     0
 42
0.000000001
 43
0.00000001
 40
0.0
 40
0.0
 40
0.0
 40
0.0
 40
0.0262291636583161
 40
0.1047328627834425
 40
0.2617838044037509
 40
0.4190327266707812
 40
0.5762808532882555
 40
0.7333319819825485
 40
0.811835214821266
 40
0.890041517207353
 40
0.9292856620663229
 40
0.9685363346245685
 40
1.0
 40
1.0
 40
1.0
 40
1.0
 10
186.0838325165607
 20
208.1161035704568
 30
0.0
 10
185.9559376002474
 20
208.290052928656
 30
0.0
 10
185.4452541146649
 20
208.9846314711086
 30
0.0
 10
184.8639706141745
 20
211.0965863227097
 30
0.0
 10
184.4032876302289
 20
214.2240514403894
 30
0.0
 10
184.3109610941427
 20
218.0158962910607
 30
0.0
 10
184.4175163133063
 20
221.770239108978
 30
0.0
 10
184.8189092388668
 20
224.8707039573071
 30
0.0
 10
185.6387492051208
 20
227.1685202382293
 30
0.0
 10
186.5396825924528
 20
228.3911943923966
 30
0.0
 10
187.5332337342205
 20
229.0199029565121
 30
0.0
 10
188.3191138530983
 20
229.2832962007679
 30
0.0
 10
188.8513527839935
 20
229.3367376147418
 30
0.0
 10
189.0881673835613
 20
229.3605158585265
 30
0.0
  0
SPLINE
  5
19D
330
1F
100
AcDbEntity
  8
0
  6
Continuous
 62
     8
370
    18
100
AcDbSpline
210
0.0
220
0.0
230
1.0
 70
     8
 71
     3
 72
    16
 73
    12
 74
     0
 42
0.000000001
 43
0.00000001
 40
0.0
 40
0.0
 40
0.0
 40
0.0
 40
0.2500000000000028
 40
0.2500000000000028
 40
0.5000000000000057
 40
0.5000000000000057
 40
0.7500000000000084
 40
0.7500000000000084
 40
0.8750000000000042
 40
0.8750000000000042
 40
1.0
 40
1.0
 40
1.0
 40
1.0
 10
191.4566394547016
 20
210.2907990873159
 30
0.0
 10
191.3899197778869
 20
209.9028805354246
 30
0.0
 10
191.3172098007201
 20
209.5210429877549
 30
0.0
 10
191.161538320547
 20
208.7771519622702
 30
0.0
 10
191.0785736869127
 20
208.4152215905769
 30
0.0
 10
190.9056025468308
 20
207.7245873377971
 30
0.0
 10
190.8150068442078
 20
207.3944889314035
 30
0.0
 10
190.6860346944115
 20
206.9697882497378
 30
0.0
 10
190.6439051783233
 20
206.8385603721959
 30
0.0
 10
190.5656021040354
 20
206.6135030829489
 30
0.0
 10
190.530959258234
 20
206.524182754519
 30
0.0
 10
190.5062345450641
 20
206.4774206259482
 30
0.0
  0
SPLINE
  5
19E
330
1F
100
AcDbEntity
  8
0
  6
Continuous
 62
     8
370
    18
100
AcDbSpline
210
0.0
220
0.0
230
1.0
 70
     8
 71
     3
 72
     9
 73
     5
 74
     0
 42
0.000000001
 43
0.00000001
 40
0.0
 40
0.0
 40
0.0
 40
0.0
 40
0.5726713823000351
 40
1.0
 40
1.0
 40
1.0
 40
1.0
 10
191.4566324495174
 20
222.8967404472783
 30
0.0
 10
191.626534482744
 20
221.6498259974038
 30
0.0
 10
191.9232177787457
 20
219.4724613020241
 30
0.0
 10
191.9276598351038
 20
217.3321038288036
 30
0.0
 10
191.9295580529071
 20
216.4174678283885
 30
0.0
  0
SPLINE
  5
19F
330
1F
100
AcDbEntity
  8
0
  6
Continuous
 62
     8
370
    18
100
AcDbSpline
210
0.0
220
0.0
230
1.0
 70
     8
 71
     3
 72
    26
 73
    22
 74
     0
 42
0.000000001
 43
0.00000001
 40
0.0
 40
0.0
 40
0.0
 40
0.0
 40
0.1250000000000003
 40
0.1250000000000003
 40
0.1875000000000004
 40
0.1875000000000004
 40
0.2500000000000006
 40
0.2500000000000006
 40
0.3125000000000008
 40
0.3125000000000008
 40
0.3750000000000009
 40
0.3750000000000009
 40
0.4375000000000011
 40
0.4375000000000011
 40
0.5000000000000012
 40
0.5000000000000012
 40
0.6250000000000016
 40
0.6250000000000016
 40
0.7500000000000018
 40
0.7500000000000018
 40
1.0
 40
1.0
 40
1.0
 40
1.0
 10
190.439470384458
 20
228.5245430712641
 30
0.0
 10
190.439824429926
 20
228.4482172825608
 30
0.0
 10
190.4414327001366
 20
228.367596715427
 30
0.0
 10
190.4497575025778
 20
228.2262874980178
 30
0.0
 10
190.453520498652
 20
228.1757816677684
 30
0.0
 10
190.4650066424458
 20
228.0610097396037
 30
0.0
 10
190.4726845320729
 20
227.9969254137274
 30
0.0
 10
190.4964363758314
 20
227.8418085848722
 30
0.0
 10
190.5131473969022
 20
227.7484009099391
 30
0.0
 10
190.5565818398271
 20
227.5279071100111
 30
0.0
 10
190.5818688172775
 20
227.4070753579228
 30
0.0
 10
190.636065661389
 20
227.1526665365176
 30
0.0
 10
190.6652058173108
 20
227.0181510564732
 30
0.0
 10
190.7244926812463
 20
226.7445686512413
 30
0.0
 10
190.7546770964763
 20
226.6053598666476
 30
0.0
 10
190.8458712549719
 20
226.1819323890562
 30
0.0
 10
190.9075488067607
 20
225.8917990271853
 30
0.0
 10
191.0289515434737
 20
225.3014586629507
 30
0.0
 10
191.0882796031875
 20
225.0032682444694
 30
0.0
 10
191.2590620285871
 20
224.1065494668195
 30
0.0
 10
191.363742312046
 20
223.5034502450125
 30
0.0
 10
191.4566388482847
 20
222.8966984498617
 30
0.0
  0
SPLINE
  5
1A0
330
1F
100
AcDbEntity
  8
0
  6
Continuous
 62
     8
370
    18
100
AcDbSpline
210
0.0
220
0.0
230
1.0
 70
     8
 71
     3
 72
    16
 73
    12
 74
     0
 42
0.000000001
 43
0.00000001
 40
0.0
 40
0.0
 40
0.0
 40
0.0
 40
0.2499999999999996
 40
0.2499999999999996
 40
0.3749999999999993
 40
0.3749999999999993
 40
0.4999999999999991
 40
0.4999999999999991
 40
0.7499999999999996
 40
0.7499999999999996
 40
1.0
 40
1.0
 40
1.0
 40
1.0
 10
190.3978696871112
 20
242.1564550539044
 30
0.0
 10
190.4069217427465
 20
240.7763724681805
 30
0.0
 10
190.413469250758
 20
239.5081418857468
 30
0.0
 10
190.4200172044314
 20
237.7066222519491
 30
0.0
 10
190.4209875643195
 20
237.1254197698362
 30
0.0
 10
190.4221843919075
 20
235.9860663585646
 30
0.0
 10
190.4225690971693
 20
235.4278223953414
 30
0.0
 10
190.4243468442465
 20
233.7768096988987
 30
0.0
 10
190.4263465087617
 20
232.7077712496094
 30
0.0
 10
190.4315383773127
 20
230.6018872033588
 30
0.0
 10
190.4345277165038
 20
229.5657205570053
 30
0.0
 10
190.4394297611202
 20
228.524743190982
 30
0.0
  0
SPLINE
  5
1A1
330
1F
100
AcDbEntity
  8
0
  6
Continuous
 62
     8
370
    18
100
AcDbSpline
210
0.0
220
0.0
230
1.0
 70
     8
 71
     3
 72
    16
 73
    12
 74
     0
 42
0.000000001
 43
0.00000001
 40
0.0
 40
0.0
 40
0.0
 40
0.0
 40
0.1249999999999999
 40
0.1249999999999999
 40
0.2499999999999998
 40
0.2499999999999998
 40
0.4999999999999999
 40
0.4999999999999999
 40
0.7499999999999999
 40
0.7499999999999999
 40
1.0
 40
1.0
 40
1.0
 40
1.0
 10
190.3709331038435
 20
247.2943319776847
 30
0.0
 10
190.3726789709459
 20
247.0914178605242
 30
0.0
 10
190.3753864081286
 20
246.8638316103821
 30
0.0
 10
190.379427250604
 20
246.3935324810825
 30
0.0
 10
190.380801840391
 20
246.1505505296601
 30
0.0
 10
190.3828482166988
 20
245.4263163624115
 30
0.0
 10
190.3831084544661
 20
244.9521112834032
 30
0.0
 10
190.3875736717359
 20
244.0714512611792
 30
0.0
 10
190.3896928867449
 20
243.6623554226016
 30
0.0
 10
190.3934393651207
 20
242.8868835530183
 30
0.0
 10
190.3955007307698
 20
242.518315240348
 30
0.0
 10
190.3978696871115
 20
242.156455053903
 30
0.0
  0
SPLINE
  5
1A2
330
1F
100
AcDbEntity
  8
0
  6
Continuous
 62
     8
370
    18
100
AcDbSpline
210
0.0
220
0.0
230
1.0
 70
     8
 71
     3
 72
    12
 73
     8
 74
     0
 42
0.000000001
 43
0.00000001
 40
0.0
 40
0.0
 40
0.0
 40
0.0
 40
0.2500000000000001
 40
0.2500000000000001
 40
0.5000000000000002
 40
0.5000000000000002
 40
1.0
 40
1.0
 40
1.0
 40
1.0
 10
190.3658019628169
 20
248.4392146710633
 30
0.0
 10
190.3656620802726
 20
248.4385138736876
 30
0.0
 10
190.3655170657558
 20
248.4142544678934
 30
0.0
 10
190.3654514493624
 20
248.3179797117198
 30
0.0
 10
190.3655399903563
 20
248.245599983587
 30
0.0
 10
190.3665201854014
 20
247.956460217069
 30
0.0
 10
190.367713911251
 20
247.6713667422785
 30
0.0
 10
190.3709586325221
 20
247.2945215771846
 30
0.0
  0
SPLINE
  5
1A3
330
1F
100
AcDbEntity
  8
0
  6
Continuous
 62
     8
370
    18
100
AcDbSpline
210
0.0
220
0.0
230
1.0
 70
     8
 71
     3
 72
    16
 73
    12
 74
     0
 42
0.000000001
 43
0.00000001
 40
0.0
 40
0.0
 40
0.0
 40
0.0
 40
0.2500000000000024
 40
0.2500000000000024
 40
0.3750000000000024
 40
0.3750000000000024
 40
0.5000000000000026
 40
0.5000000000000026
 40
0.7500000000000012
 40
0.7500000000000012
 40
1.0
 40
1.0
 40
1.0
 40
1.0
 10
189.4900946863229
 20
210.1620288063118
 30
0.0
 10
189.6492276990919
 20
211.1195615669038
 30
0.0
 10
189.7659625473757
 20
212.1037323646183
 30
0.0
 10
189.8831131439337
 20
213.6196148670982
 30
0.0
 10
189.9123941224259
 20
214.1317004064274
 30
0.0
 10
189.951345005841
 20
215.1706856422589
 30
0.0
 10
189.9608866302417
 20
215.69782402411
 30
0.0
 10
189.9601078855185
 20
217.2785054027333
 30
0.0
 10
189.9208576002358
 20
218.3391500160537
 30
0.0
 10
189.7651736234909
 20
220.4710891050612
 30
0.0
 10
189.6490459963447
 20
221.5422064801451
 30
0.0
 10
189.4900942232804
 20
222.6183286633364
 30
0.0
  0
SPLINE
  5
1A4
330
1F
100
AcDbEntity
  8
0
  6
Continuous
 62
     8
370
    18
100
AcDbSpline
210
0.0
220
0.0
230
1.0
 70
     8
 71
     3
 72
    10
 73
     6
 74
     0
 42
0.000000001
 43
0.00000001
 40
0.0
 40
0.0
 40
0.0
 40
0.0
 40
0.5
 40
0.5
 40
1.0
 40
1.0
 40
1.0
 40
1.0
 10
189.0883310729257
 20
229.3606670864417
 30
0.0
 10
189.3771284962542
 20
229.4067479038574
 30
0.0
 10
189.6826880275701
 20
229.3459653699352
 30
0.0
 10
190.1758996715984
 20
229.0407948345852
 30
0.0
 10
190.3612550992612
 20
228.7978278382259
 30
0.0
 10
190.4394300396906
 20
228.5246840355271
 30
0.0
  0
SPLINE
  5
1A5
330
1F
100
AcDbEntity
  8
0
  6
Continuous
 62
     8
370
    18
100
AcDbSpline
210
0.0
220
0.0
230
1.0
 70
     8
 71
     3
 72
    22
 73
    18
 74
     0
 42
0.000000001
 43
0.00000001
 40
0.0
 40
0.0
 40
0.0
 40
0.0
 40
0.1249999999999994
 40
0.1249999999999994
 40
0.2499999999999988
 40
0.2499999999999988
 40
0.4999999999999984
 40
0.4999999999999984
 40
0.6249999999999982
 40
0.6249999999999982
 40
0.6874999999999984
 40
0.6874999999999984
 40
0.7499999999999987
 40
0.7499999999999987
 40
0.8749999999999993
 40
0.8749999999999993
 40
1.0
 40
1.0
 40
1.0
 40
1.0
 10
189.0879605783328
 20
229.3606479143808
 30
0.0
 10
189.1081245639922
 20
229.8847862069874
 30
0.0
 10
189.1207858440375
 20
230.405843694768
 30
0.0
 10
189.1290971884541
 20
231.4491811202333
 30
0.0
 10
189.1272592629286
 20
231.9715894953775
 30
0.0
 10
189.1191735743559
 20
233.5514185915791
 30
0.0
 10
189.1099775360767
 20
234.6206382877098
 30
0.0
 10
189.0968895800525
 20
236.2730276311003
 30
0.0
 10
189.0922935586055
 20
236.8318613340864
 30
0.0
 10
189.085604280271
 20
237.6876006940118
 30
0.0
 10
189.0826745960821
 20
237.9753385312108
 30
0.0
 10
189.0820539176926
 20
238.5600401097353
 30
0.0
 10
189.0842700293228
 20
238.8570028685875
 30
0.0
 10
189.0956525592395
 20
239.7620622013241
 30
0.0
 10
189.108990188774
 20
240.3837577724231
 30
0.0
 10
189.1332608285198
 20
241.669682427509
 30
0.0
 10
189.1445237065395
 20
242.3340161054575
 30
0.0
 10
189.1528004032675
 20
243.0266616184834
 30
0.0
  0
SPLINE
  5
1A6
330
1F
100
AcDbEntity
  8
0
  6
Continuous
 62
     8
370
    18
100
AcDbSpline
210
0.0
220
0.0
230
1.0
 70
     8
 71
     3
 72
    19
 73
    15
 74
     0
 42
0.000000001
 43
0.00000001
 40
0.0
 40
0.0
 40
0.0
 40
0.0
 40
0.0423487267043177
 40
0.1090812488273779
 40
0.1730013223598994
 40
0.2413487394238883
 40
0.319556334493551
 40
0.411371301205316
 40
0.5196472033138408
 40
0.6446955411540609
 40
0.7697438493274187
 40
0.8780198389208762
 40
0.9698347486990885
 40
1.0
 40
1.0
 40
1.0
 40
1.0
 10
189.1528011702396
 20
243.0266613620475
 30
0.0
 10
188.7484638621325
 20
242.9768014528436
 30
0.0
 10
187.7069775661271
 20
242.8483730068043
 30
0.0
 10
186.1454871386638
 20
242.2486465031803
 30
0.0
 10
184.7144698264696
 20
241.0170297327207
 30
0.0
 10
183.7010078375297
 20
239.291941114132
 30
0.0
 10
183.020646386703
 20
237.1066050039256
 30
0.0
 10
182.6012886370912
 20
234.4483012241893
 30
0.0
 10
182.3887771592967
 20
231.3233516632735
 30
0.0
 10
182.3325670877727
 20
227.9298199556581
 30
0.0
 10
182.3818517473856
 20
224.5862698443033
 30
0.0
 10
182.6232511387567
 20
221.6868324777123
 30
0.0
 10
182.8986162885416
 20
219.6992923484507
 30
0.0
 10
183.2838517026647
 20
218.7931028823588
 30
0.0
 10
183.3791190229751
 20
218.5690055149749
 30
0.0
  0
ARC
  5
1A7
330
1F
100
AcDbEntity
  8
0
  6
Continuous
 62
     8
370
    18
100
AcDbCircle
 10
121.1392374181
 20
232.4028878021
 30
0.0
 40
10.79555442412208
100
AcDbArc
 50
337.8663052926
 51
202.1336947074
  0
ARC
  5
1A8
330
1F
100
AcDbEntity
  8
0
  6
Continuous
 62
     8
370
    18
100
AcDbCircle
 10
121.1392374181
 20
232.4028878021
 30
0.0
 40
11.1908664271028
100
AcDbArc
 50
333.3273617558
 51
90.0
  0
ARC
  5
1A9
330
1F
100
AcDbEntity
  8
0
  6
Continuous
 62
     8
370
    18
100
AcDbCircle
 10
121.1392374181
 20
232.4028878021
 30
0.0
 40
11.1908664271028
100
AcDbArc
 50
90.0
 51
206.6726382442
  0
ARC
  5
1AA
330
1F
100
AcDbEntity
  8
0
  6
Continuous
 62
     8
370
    18
100
AcDbCircle
 10
121.1392374181
 20
232.4028878021
 30
0.0
 40
17.58332550528007
100
AcDbArc
 50
90.0
 51
235.338940342
  0
ARC
  5
1AB
330
1F
100
AcDbEntity
  8
0
  6
Continuous
 62
     8
370
    18
100
AcDbCircle
 10
121.1392374181
 20
232.4028878021
 30
0.0
 40
17.58332550528007
100
AcDbArc
 50
304.661059658
 51
90.0
  0
SPLINE
  5
1AC
330
1F
100
AcDbEntity
  8
0
  6
Continuous
 62
     8
370
    18
100
AcDbSpline
210
0.0
220
0.0
230
1.0
 70
     8
 71
     3
 72
    11
 73
     7
 74
     0
 42
0.000000001
 43
0.00000001
 40
0.0
 40
0.0
 40
0.0
 40
0.0
 40
0.107586459188033
 40
0.4071957198866862
 40
0.6992286649374874
 40
1.0
 40
1.0
 40
1.0
 40
1.0
 10
166.7958476983406
 20
249.180934067364
 30
0.0
 10
166.6947460487096
 20
249.1492123395787
 30
0.0
 10
166.312094186069
 20
249.0291512103339
 30
0.0
 10
165.8888493578563
 20
248.486423778377
 30
0.0
 10
165.5240620533579
 20
247.5571315804286
 30
0.0
 10
165.4851757225199
 20
246.663251100924
 30
0.0
 10
165.4654459499218
 20
246.2097226190522
 30
0.0
  0
SPLINE
  5
1AD
330
1F
100
AcDbEntity
  8
0
  6
Continuous
 62
     8
370
    18
100
AcDbSpline
210
0.0
220
0.0
230
1.0
 70
     8
 71
     3
 72
    10
 73
     6
 74
     0
 42
0.000000001
 43
0.00000001
 40
0.0
 40
0.0
 40
0.0
 40
0.0
 40
0.423009504818963
 40
0.8490285015709488
 40
1.0
 40
1.0
 40
1.0
 40
1.0
 10
165.4654459499218
 20
215.6412104624465
 30
0.0
 10
165.472198362845
 20
215.5848182487264
 30
0.0
 10
165.4857512285866
 20
215.4716326201068
 30
0.0
 10
165.5291159263943
 20
215.3861253833417
 30
0.0
 10
165.6124876834085
 20
215.4205432346683
 30
0.0
 10
165.6343021832801
 20
215.4295487809136
 30
0.0
  0
LINE
  5
1AE
330
1F
100
AcDbEntity
  8
0
  6
Continuous
 62
     8
370
    18
100
AcDbLine
 10
165.4654459499
 20
246.2097226191
 30
0.0
 11
165.4654459499
 21
215.6412104624
 31
0.0
  0
SPLINE
  5
1AF
330
1F
100
AcDbEntity
  8
0
  6
Continuous
 62
     8
370
    18
100
AcDbSpline
210
0.0
220
0.0
230
1.0
 70
     8
 71
     3
 72
    12
 73
     8
 74
     0
 42
0.000000001
 43
0.00000001
 40
0.0
 40
0.0
 40
0.0
 40
0.0
 40
0.2722108592704563
 40
0.5474096554829873
 40
0.7646620929469207
 40
0.983422377004767
 40
0.9999999999999999
 40
0.9999999999999999
 40
0.9999999999999999
 40
0.9999999999999999
 10
189.1957314156391
 20
248.1815038728669
 30
0.0
 10
189.1940749612913
 20
248.383849859246
 30
0.0
 10
189.1907438704368
 20
248.7907628934615
 30
0.0
 10
189.1892884831706
 20
249.1542829511094
 30
0.0
 10
189.1889532862539
 20
249.3466514013986
 30
0.0
 10
189.1891963256406
 20
249.4198513050365
 30
0.0
 10
189.1893015994866
 20
249.4000445676323
 30
0.0
 10
189.1893090151645
 20
249.3986493456319
 30
0.0
  0
SPLINE
  5
1B0
330
1F
100
AcDbEntity
  8
0
  6
Continuous
 62
     8
370
    18
100
AcDbSpline
210
0.0
220
0.0
230
1.0
 70
     8
 71
     3
 72
    18
 73
    14
 74
     0
 42
0.000000001
 43
0.00000001
 40
0.0
 40
0.0
 40
0.0
 40
0.0
 40
0.2500000000000001
 40
0.2500000000000001
 40
0.5000000000000002
 40
0.5000000000000002
 40
0.6250000000000001
 40
0.6250000000000001
 40
0.7500000000000001
 40
0.7500000000000001
 40
0.875
 40
0.875
 40
1.0
 40
1.0
 40
1.0
 40
1.0
 10
189.1527985351323
 20
243.0266614545168
 30
0.0
 10
189.1571158858385
 20
243.3893289334833
 30
0.0
 10
189.1634126073886
 20
243.7587112645243
 30
0.0
 10
189.1797158859875
 20
244.5364427381928
 30
0.0
 10
189.1878176164506
 20
244.9470668414257
 30
0.0
 10
189.1958846203774
 20
245.610429837522
 30
0.0
 10
189.1980581938582
 20
245.8392273178146
 30
0.0
 10
189.2023992783363
 20
246.3090773936392
 30
0.0
 10
189.2042614307788
 20
246.5502001970665
 30
0.0
 10
189.2053218713855
 20
247.0349644064604
 30
0.0
 10
189.2045093439531
 20
247.2786923499233
 30
0.0
 10
189.2008767778537
 20
247.7498140948566
 30
0.0
 10
189.1980505079073
 20
247.9774492264015
 30
0.0
 10
189.1960486214857
 20
248.1812979033197
 30
0.0
  0
ARC
  5
1B1
330
1F
100
AcDbEntity
  8
0
  6
Continuous
 62
     8
370
    18
100
AcDbCircle
 10
174.8135273748
 20
228.2750915953
 30
0.0
 40
2.409400707057284
100
AcDbArc
 50
10.8368269699
 51
169.1631730301
  0
ARC
  5
1B2
330
1F
100
AcDbEntity
  8
0
  6
Continuous
 62
     8
370
    18
100
AcDbCircle
 10
174.8135292374
 20
228.3996184373
 30
0.0
 40
2.309394121584048
100
AcDbArc
 50
191.2588142204
 51
348.7411857796
  0
LINE
  5
1B3
330
1F
100
AcDbEntity
  8
0
  6
Continuous
 62
     8
370
    18
100
AcDbLine
 10
162.8392392241
 20
215.4028868782
 30
0.0
 11
162.8392392241
 21
249.402888726
 31
0.0
  0
ARC
  5
1B4
330
1F
100
AcDbEntity
  8
0
  6
Continuous
 62
     8
370
    18
100
AcDbCircle
 10
165.4633589743
 20
215.9391250666
 30
0.0
 40
0.2979219140300147
100
AcDbArc
 50
180.4075454971
 51
270.4013664923
  0
ARC
  5
1B5
330
1F
100
AcDbEntity
  8
0
  6
Continuous
 62
     8
370
    18
100
AcDbCircle
 10
165.4399168332
 20
245.9346383833
 30
0.0
 40
0.2762663073264452
100
AcDbArc
 50
84.6978680796
 51
173.466757299
  0
LINE
  5
1B6
330
1F
100
AcDbEntity
  8
0
  6
Continuous
 62
     8
370
    18
100
AcDbLine
 10
177.1529407643
 20
228.7116317558
 30
0.0
 11
177.2135288857
 21
228.4963910016
 31
0.0
  0
LINE
  5
1B7
330
1F
100
AcDbEntity
  8
0
  6
Continuous
 62
     8
370
    18
100
AcDbLine
 10
177.2135288857
 20
228.4963910016
 30
0.0
 11
177.4149292551
 21
228.4963910016
 31
0.0
  0
LINE
  5
1B8
330
1F
100
AcDbEntity
  8
0
  6
Continuous
 62
     8
370
    18
100
AcDbLine
 10
172.4135295891
 20
228.4963910016
 30
0.0
 11
172.4740320288
 21
228.7113283775
 31
0.0
  0
LINE
  5
1B9
330
1F
100
AcDbEntity
  8
0
  6
Continuous
 62
     8
370
    18
100
AcDbLine
 10
171.813526883
 20
228.4963910016
 30
0.0
 11
172.4135295891
 21
228.4963910016
 31
0.0
  0
ARC
  5
1BA
330
1F
100
AcDbEntity
  8
0
  6
Continuous
 62
     8
370
    18
100
AcDbCircle
 10
121.1392374181
 20
232.4028878021
 30
0.0
 40
19.17279527564085
100
AcDbArc
 50
90.0
 51
238.5622187657
  0
ARC
  5
1BB
330
1F
100
AcDbEntity
  8
0
  6
Continuous
 62
     8
370
    18
100
AcDbCircle
 10
121.1392374181
 20
232.4028878021
 30
0.0
 40
19.17279527564085
100
AcDbArc
 50
66.3786824707
 51
90.0
  0
ARC
  5
1BC
330
1F
100
AcDbEntity
  8
0
  6
Continuous
 62
     8
370
    18
100
AcDbCircle
 10
121.1392374181
 20
232.4028878021
 30
0.0
 40
19.4255917935308
100
AcDbArc
 50
64.4748590829
 51
90.0
  0
ARC
  5
1BD
330
1F
100
AcDbEntity
  8
0
  6
Continuous
 62
     8
370
    18
100
AcDbCircle
 10
121.1392374181
 20
232.4028878021
 30
0.0
 40
19.4255917935308
100
AcDbArc
 50
90.0
 51
239.0169260842
  0
ARC
  5
1BE
330
1F
100
AcDbEntity
  8
0
  6
Continuous
 62
     8
370
    18
100
AcDbCircle
 10
121.1392374181
 20
232.4028878021
 30
0.0
 40
24.44588470686435
100
AcDbArc
 50
90.0
 51
245.8537734558
  0
ARC
  5
1BF
330
1F
100
AcDbEntity
  8
0
  6
Continuous
 62
     8
370
    18
100
AcDbCircle
 10
121.1392374181
 20
232.4028878021
 30
0.0
 40
24.44588470686436
100
AcDbArc
 50
294.1462265442
 51
315.5432250435
  0
ARC
  5
1C0
330
1F
100
AcDbEntity
  8
0
  6
Continuous
 62
     8
370
    18
100
AcDbCircle
 10
121.1392374181
 20
232.4028878021
 30
0.0
 40
24.44588470686435
100
AcDbArc
 50
44.2025251033
 51
90.0
  0
ENDSEC
  0
SECTION
  2
OBJECTS
  0
DICTIONARY
  5
C
330
0
100
AcDbDictionary
281
     1
  3
ACAD_GROUP
350
D
  3
ACAD_LAYOUT
350
1A
  3
ACAD_MLINESTYLE
350
17
  3
ACAD_PLOTSETTINGS
350
19
  3
ACAD_PLOTSTYLENAME
350
E
  3
ACAD_SCALELIST
350
47
  0
DICTIONARY
  5
D
102
{ACAD_REACTORS
330
C
102
}
330
C
100
AcDbDictionary
281
     1
  0
DICTIONARY
  5
1A
102
{ACAD_REACTORS
330
C
102
}
330
C
100
AcDbDictionary
281
     1
  3
Layout1
350
1E
  3
Layout2
350
26
  3
Model
350
22
  0
DICTIONARY
  5
17
102
{ACAD_REACTORS
330
C
102
}
330
C
100
AcDbDictionary
281
     1
  3
Standard
350
18
  0
DICTIONARY
  5
19
102
{ACAD_REACTORS
330
C
102
}
330
C
100
AcDbDictionary
281
     1
  0
ACDBDICTIONARYWDFLT
  5
E
102
{ACAD_REACTORS
330
C
102
}
330
C
100
AcDbDictionary
281
     1
  3
Normal
350
F
100
AcDbDictionaryWithDefault
340
F
  0
DICTIONARY
  5
47
102
{ACAD_REACTORS
330
C
102
}
330
C
100
AcDbDictionary
281
     1
  3
A0
350
48
  3
A1
350
49
  3
A2
350
4A
  3
A3
350
4B
  3
A4
350
4C
  3
A5
350
4D
  3
A6
350
4E
  3
A7
350
4F
  3
A8
350
50
  3
A9
350
51
  3
B0
350
52
  3
B1
350
53
  3
B2
350
54
  3
B3
350
55
  3
B4
350
56
  3
B5
350
57
  3
B6
350
58
  3
B7
350
59
  3
B8
350
5A
  3
B9
350
5B
  3
C0
350
5C
  3
C1
350
5D
  3
C2
350
5E
  3
C3
350
5F
  3
C4
350
60
  3
C5
350
61
  3
C6
350
62
  3
C7
350
63
  3
C8
350
64
  3
C9
350
65
  3
D0
350
66
  3
D1
350
67
  3
D2
350
68
  0
LAYOUT
  5
1E
102
{ACAD_REACTORS
330
1A
102
}
330
1A
100
AcDbPlotSettings
  1

  2
none_device
  4

  6

 40
0.0
 41
0.0
 42
0.0
 43
0.0
 44
0.0
 45
0.0
 46
0.0
 47
0.0
 48
0.0
 49
0.0
140
0.0
141
0.0
142
1.0
143
1.0
 70
   688
 72
     1
 73
     0
 74
     5
  7

 75
    16
147
1.0
148
0.0
149
0.0
100
AcDbLayout
  1
Layout1
 70
     1
 71
     1
 10
0.0
 20
0.0
 11
420.0
 21
297.0
 12
0.0
 22
0.0
 32
0.0
 14
1.0000000000E+20
 24
1.0000000000E+20
 34
1.0000000000E+20
 15
-1.0000000000E+20
 25
-1.0000000000E+20
 35
-1.0000000000E+20
146
0.0
 13
0.0
 23
0.0
 33
0.0
 16
1.0
 26
0.0
 36
0.0
 17
0.0
 27
1.0
 37
0.0
 76
     0
330
1B
  0
LAYOUT
  5
26
102
{ACAD_REACTORS
330
1A
102
}
330
1A
100
AcDbPlotSettings
  1

  2
none_device
  4

  6

 40
0.0
 41
0.0
 42
0.0
 43
0.0
 44
0.0
 45
0.0
 46
0.0
 47
0.0
 48
0.0
 49
0.0
140
0.0
141
0.0
142
1.0
143
1.0
 70
   688
 72
     1
 73
     0
 74
     5
  7

 75
    16
147
1.0
148
0.0
149
0.0
100
AcDbLayout
  1
Layout2
 70
     1
 71
     2
 10
0.0
 20
0.0
 11
0.0
 21
0.0
 12
0.0
 22
0.0
 32
0.0
 14
0.0
 24
0.0
 34
0.0
 15
0.0
 25
0.0
 35
0.0
146
0.0
 13
0.0
 23
0.0
 33
0.0
 16
1.0
 26
0.0
 36
0.0
 17
0.0
 27
1.0
 37
0.0
 76
     0
330
23
  0
LAYOUT
  5
22
102
{ACAD_REACTORS
330
1A
102
}
330
1A
100
AcDbPlotSettings
  1

  2
none_device
  4
Letter_(8.50_x_11.00_Inches)
  6

 40
6.35
 41
6.35
 42
6.35000508
 43
6.35000508
 44
215.9
 45
279.4
 46
0.0
 47
0.0
 48
0.0
 49
0.0
140
0.0
141
0.0
142
1.0
143
1.0
 70
  1712
 72
     1
 73
     0
 74
     0
  7

 75
     0
147
1.0
148
0.0
149
0.0
100
AcDbLayout
  1
Model
 70
     1
 71
     0
 10
0.0
 20
0.0
 11
594.0
 21
841.0
 12
0.0
 22
0.0
 32
0.0
 14
0.0
 24
0.0
 34
0.0
 15
594.0
 25
841.0
 35
0.0
146
0.0
 13
0.0
 23
0.0
 33
0.0
 16
1.0
 26
0.0
 36
0.0
 17
0.0
 27
1.0
 37
0.0
 76
     0
330
1F
331
29
  0
MLINESTYLE
  5
18
102
{ACAD_REACTORS
330
17
102
}
330
17
100
AcDbMlineStyle
  2
Standard
 70
     0
  3

 62
   256
 51
90.0
 52
90.0
 71
     2
 49
0.5
 62
   256
  6
BYLAYER
 49
-0.5
 62
   256
  6
BYLAYER
  0
ACDBPLACEHOLDER
  5
F
102
{ACAD_REACTORS
330
E
102
}
330
E
  0
SCALE
  5
48
102
{ACAD_REACTORS
330
47
102
}
330
47
100
AcDbScale
 70
     0
300
1:1
140
1.0
141
1.0
290
     1
  0
SCALE
  5
49
102
{ACAD_REACTORS
330
47
102
}
330
47
100
AcDbScale
 70
     0
300
1:2
140
1.0
141
2.0
290
     0
  0
SCALE
  5
4A
102
{ACAD_REACTORS
330
47
102
}
330
47
100
AcDbScale
 70
     0
300
1:4
140
1.0
141
4.0
290
     0
  0
SCALE
  5
4B
102
{ACAD_REACTORS
330
47
102
}
330
47
100
AcDbScale
 70
     0
300
1:5
140
1.0
141
5.0
290
     0
  0
SCALE
  5
4C
102
{ACAD_REACTORS
330
47
102
}
330
47
100
AcDbScale
 70
     0
300
1:8
140
1.0
141
8.0
290
     0
  0
SCALE
  5
4D
102
{ACAD_REACTORS
330
47
102
}
330
47
100
AcDbScale
 70
     0
300
1:10
140
1.0
141
10.0
290
     0
  0
SCALE
  5
4E
102
{ACAD_REACTORS
330
47
102
}
330
47
100
AcDbScale
 70
     0
300
1:16
140
1.0
141
16.0
290
     0
  0
SCALE
  5
4F
102
{ACAD_REACTORS
330
47
102
}
330
47
100
AcDbScale
 70
     0
300
1:20
140
1.0
141
20.0
290
     0
  0
SCALE
  5
50
102
{ACAD_REACTORS
330
47
102
}
330
47
100
AcDbScale
 70
     0
300
1:30
140
1.0
141
30.0
290
     0
  0
SCALE
  5
51
102
{ACAD_REACTORS
330
47
102
}
330
47
100
AcDbScale
 70
     0
300
1:40
140
1.0
141
40.0
290
     0
  0
SCALE
  5
52
102
{ACAD_REACTORS
330
47
102
}
330
47
100
AcDbScale
 70
     0
300
1:50
140
1.0
141
50.0
290
     0
  0
SCALE
  5
53
102
{ACAD_REACTORS
330
47
102
}
330
47
100
AcDbScale
 70
     0
300
1:100
140
1.0
141
100.0
290
     0
  0
SCALE
  5
54
102
{ACAD_REACTORS
330
47
102
}
330
47
100
AcDbScale
 70
     0
300
2:1
140
2.0
141
1.0
290
     0
  0
SCALE
  5
55
102
{ACAD_REACTORS
330
47
102
}
330
47
100
AcDbScale
 70
     0
300
4:1
140
4.0
141
1.0
290
     0
  0
SCALE
  5
56
102
{ACAD_REACTORS
330
47
102
}
330
47
100
AcDbScale
 70
     0
300
8:1
140
8.0
141
1.0
290
     0
  0
SCALE
  5
57
102
{ACAD_REACTORS
330
47
102
}
330
47
100
AcDbScale
 70
     0
300
10:1
140
10.0
141
1.0
290
     0
  0
SCALE
  5
58
102
{ACAD_REACTORS
330
47
102
}
330
47
100
AcDbScale
 70
     0
300
100:1
140
100.0
141
1.0
290
     0
  0
SCALE
  5
59
102
{ACAD_REACTORS
330
47
102
}
330
47
100
AcDbScale
 70
     0
300
1/128" = 1'-0"
140
0.0078125
141
12.0
290
     0
  0
SCALE
  5
5A
102
{ACAD_REACTORS
330
47
102
}
330
47
100
AcDbScale
 70
     0
300
1/64" = 1'-0"
140
0.015625
141
12.0
290
     0
  0
SCALE
  5
5B
102
{ACAD_REACTORS
330
47
102
}
330
47
100
AcDbScale
 70
     0
300
1/32" = 1'-0"
140
0.03125
141
12.0
290
     0
  0
SCALE
  5
5C
102
{ACAD_REACTORS
330
47
102
}
330
47
100
AcDbScale
 70
     0
300
1/16" = 1'-0"
140
0.0625
141
12.0
290
     0
  0
SCALE
  5
5D
102
{ACAD_REACTORS
330
47
102
}
330
47
100
AcDbScale
 70
     0
300
3/32" = 1'-0"
140
0.09375
141
12.0
290
     0
  0
SCALE
  5
5E
102
{ACAD_REACTORS
330
47
102
}
330
47
100
AcDbScale
 70
     0
300
1/8" = 1'-0"
140
0.125
141
12.0
290
     0
  0
SCALE
  5
5F
102
{ACAD_REACTORS
330
47
102
}
330
47
100
AcDbScale
 70
     0
300
3/16" = 1'-0"
140
0.1875
141
12.0
290
     0
  0
SCALE
  5
60
102
{ACAD_REACTORS
330
47
102
}
330
47
100
AcDbScale
 70
     0
300
1/4" = 1'-0"
140
0.25
141
12.0
290
     0
  0
SCALE
  5
61
102
{ACAD_REACTORS
330
47
102
}
330
47
100
AcDbScale
 70
     0
300
3/8" = 1'-0"
140
0.375
141
12.0
290
     0
  0
SCALE
  5
62
102
{ACAD_REACTORS
330
47
102
}
330
47
100
AcDbScale
 70
     0
300
1/2" = 1'-0"
140
0.5
141
12.0
290
     0
  0
SCALE
  5
63
102
{ACAD_REACTORS
330
47
102
}
330
47
100
AcDbScale
 70
     0
300
3/4" = 1'-0"
140
0.75
141
12.0
290
     0
  0
SCALE
  5
64
102
{ACAD_REACTORS
330
47
102
}
330
47
100
AcDbScale
 70
     0
300
1" = 1'-0"
140
1.0
141
12.0
290
     0
  0
SCALE
  5
65
102
{ACAD_REACTORS
330
47
102
}
330
47
100
AcDbScale
 70
     0
300
1-1/2" = 1'-0"
140
1.5
141
12.0
290
     0
  0
SCALE
  5
66
102
{ACAD_REACTORS
330
47
102
}
330
47
100
AcDbScale
 70
     0
300
3" = 1'-0"
140
3.0
141
12.0
290
     0
  0
SCALE
  5
67
102
{ACAD_REACTORS
330
47
102
}
330
47
100
AcDbScale
 70
     0
300
6" = 1'-0"
140
6.0
141
12.0
290
     0
  0
SCALE
  5
68
102
{ACAD_REACTORS
330
47
102
}
330
47
100
AcDbScale
 70
     0
300
1'-0" = 1'-0"
140
12.0
141
12.0
290
     0
  0
ENDSEC
  0
EOF
