  0
SECTION
  2
HEADER
  9
$ACADVER
  1
AC1015
  9
$ACADMAINTVER
 70
     6
  9
$DWGCODEPAGE
  3
ANSI_1252
  9
$INSBASE
 10
0.0
 20
0.0
 30
0.0
  9
$EXTMIN
 10
0.0
 20
0.0
 30
0.0
  9
$EXTMAX
 10
594.0
 20
841.0
 30
0.0
  9
$LIMMIN
 10
0.0
 20
0.0
  9
$LIMMAX
 10
594.0
 20
841.0
  9
$ORTHOMODE
 70
     0
  9
$REGENMODE
 70
     1
  9
$FILLMODE
 70
     1
  9
$QTEXTMODE
 70
     0
  9
$MIRRTEXT
 70
     1
  9
$LTSCALE
 40
1.0
  9
$ATTMODE
 70
     1
  9
$TEXTSIZE
 40
10.0
  9
$TRACEWID
 40
1.0
  9
$TEXTSTYLE
  7
Standard
  9
$CLAYER
  8
0
  9
$CELTYPE
  6
ByLayer
  9
$CECOLOR
 62
   256
  9
$CELTSCALE
 40
1.0
  9
$DISPSILH
 70
     0
  9
$DIMSCALE
 40
1.0
  9
$DIMASZ
 40
2.5
  9
$DIMEXO
 40
0.0
  9
$DIMDLI
 40
3.75
  9
$DIMRND
 40
0.0
  9
$DIMDLE
 40
0.0
  9
$DIMEXE
 40
1.0
  9
$DIMTP
 40
0.0
  9
$DIMTM
 40
0.0
  9
$DIMTXT
 40
3.5
  9
$DIMCEN
 40
2.5
  9
$DIMTSZ
 40
0.0
  9
$DIMTOL
 70
     0
  9
$DIMLIM
 70
     0
  9
$DIMTIH
 70
     1
  9
$DIMTOH
 70
     1
  9
$DIMSE1
 70
     0
  9
$DIMSE2
 70
     0
  9
$DIMTAD
 70
     1
  9
$DIMZIN
 70
     0
  9
$DIMBLK
  1

  9
$DIMASO
 70
     1
  9
$DIMSHO
 70
     1
  9
$DIMPOST
  1

  9
$DIMAPOST
  1

  9
$DIMALT
 70
     0
  9
$DIMALTD
 70
     3
  9
$DIMALTF
 40
0.0393700787
  9
$DIMLFAC
 40
1.0
  9
$DIMTOFL
 70
     1
  9
$DIMTVP
 40
0.0
  9
$DIMTIX
 70
     0
  9
$DIMSOXD
 70
     0
  9
$DIMSAH
 70
     0
  9
$DIMBLK1
  1

  9
$DIMBLK2
  1

  9
$DIMSTYLE
  2
ISO-25
  9
$DIMCLRD
 70
     0
  9
$DIMCLRE
 70
     0
  9
$DIMCLRT
 70
     0
  9
$DIMTFAC
 40
1.0
  9
$DIMGAP
 40
1.5
  9
$DIMJUST
 70
     0
  9
$DIMSD1
 70
     0
  9
$DIMSD2
 70
     0
  9
$DIMTOLJ
 70
     0
  9
$DIMTZIN
 70
     0
  9
$DIMALTZ
 70
     0
  9
$DIMALTTZ
 70
     0
  9
$DIMUPT
 70
     0
  9
$DIMDEC
 70
     2
  9
$DIMTDEC
 70
     2
  9
$DIMALTU
 70
     2
  9
$DIMALTTD
 70
     3
  9
$DIMTXSTY
  7
Standard
  9
$DIMAUNIT
 70
     0
  9
$DIMADEC
 70
     2
  9
$DIMALTRND
 40
0.0
  9
$DIMAZIN
 70
     0
  9
$DIMDSEP
 70
    44
  9
$DIMATFIT
 70
     3
  9
$DIMFRAC
 70
     0
  9
$DIMLDRBLK
  1

  9
$DIMLUNIT
 70
     2
  9
$DIMLWD
 70
    -2
  9
$DIMLWE
 70
    -2
  9
$DIMTMOVE
 70
     0
  9
$LUNITS
 70
     2
  9
$LUPREC
 70
     2
  9
$SKETCHINC
 40
1.0
  9
$FILLETRAD
 40
10.0
  9
$AUNITS
 70
     0
  9
$AUPREC
 70
     2
  9
$MENU
  1
.
  9
$ELEVATION
 40
0.0
  9
$PELEVATION
 40
0.0
  9
$THICKNESS
 40
0.0
  9
$LIMCHECK
 70
     0
  9
$CHAMFERA
 40
0.0
  9
$CHAMFERB
 40
0.0
  9
$CHAMFERC
 40
0.0
  9
$CHAMFERD
 40
0.0
  9
$SKPOLY
 70
     0
  9
$TDCREATE
 40
2457997.580249445
  9
$TDUCREATE
 40
2457997.496916111
  9
$TDUPDATE
 40
2457997.580251794
  9
$TDUUPDATE
 40
2457997.496918461
  9
$TDINDWG
 40
0.0000000116
  9
$TDUSRTIMER
 40
0.0000000116
  9
$USRTIMER
 70
     1
  9
$ANGBASE
 50
0.0
  9
$ANGDIR
 70
     0
  9
$PDMODE
 70
     0
  9
$PDSIZE
 40
-1.0
  9
$PLINEWID
 40
0.0
  9
$SPLFRAME
 70
     0
  9
$SPLINETYPE
 70
     6
  9
$SPLINESEGS
 70
     8
  9
$HANDSEED
  5
193
  9
$SURFTAB1
 70
     6
  9
$SURFTAB2
 70
     6
  9
$SURFTYPE
 70
     6
  9
$SURFU
 70
     6
  9
$SURFV
 70
     6
  9
$UCSBASE
  2

  9
$UCSNAME
  2

  9
$UCSORG
 10
0.0
 20
0.0
 30
0.0
  9
$UCSXDIR
 10
1.0
 20
0.0
 30
0.0
  9
$UCSYDIR
 10
0.0
 20
1.0
 30
0.0
  9
$UCSORTHOREF
  2

  9
$UCSORTHOVIEW
 70
     0
  9
$UCSORGTOP
 10
0.0
 20
0.0
 30
0.0
  9
$UCSORGBOTTOM
 10
0.0
 20
0.0
 30
0.0
  9
$UCSORGLEFT
 10
0.0
 20
0.0
 30
0.0
  9
$UCSORGRIGHT
 10
0.0
 20
0.0
 30
0.0
  9
$UCSORGFRONT
 10
0.0
 20
0.0
 30
0.0
  9
$UCSORGBACK
 10
0.0
 20
0.0
 30
0.0
  9
$PUCSBASE
  2

  9
$PUCSNAME
  2

  9
$PUCSORG
 10
0.0
 20
0.0
 30
0.0
  9
$PUCSXDIR
 10
1.0
 20
0.0
 30
0.0
  9
$PUCSYDIR
 10
0.0
 20
1.0
 30
0.0
  9
$PUCSORTHOREF
  2

  9
$PUCSORTHOVIEW
 70
     0
  9
$PUCSORGTOP
 10
0.0
 20
0.0
 30
0.0
  9
$PUCSORGBOTTOM
 10
0.0
 20
0.0
 30
0.0
  9
$PUCSORGLEFT
 10
0.0
 20
0.0
 30
0.0
  9
$PUCSORGRIGHT
 10
0.0
 20
0.0
 30
0.0
  9
$PUCSORGFRONT
 10
0.0
 20
0.0
 30
0.0
  9
$PUCSORGBACK
 10
0.0
 20
0.0
 30
0.0
  9
$USERI1
 70
     0
  9
$USERI2
 70
     0
  9
$USERI3
 70
     0
  9
$USERI4
 70
     0
  9
$USERI5
 70
     0
  9
$USERR1
 40
0.0
  9
$USERR2
 40
0.0
  9
$USERR3
 40
0.0
  9
$USERR4
 40
0.0
  9
$USERR5
 40
0.0
  9
$WORLDVIEW
 70
     1
  9
$SHADEDGE
 70
     3
  9
$SHADEDIF
 70
    70
  9
$TILEMODE
 70
     1
  9
$MAXACTVP
 70
    64
  9
$PINSBASE
 10
0.0
 20
0.0
 30
0.0
  9
$PLIMCHECK
 70
     0
  9
$PEXTMIN
 10
1.0000000000E+20
 20
1.0000000000E+20
 30
1.0000000000E+20
  9
$PEXTMAX
 10
-1.0000000000E+20
 20
-1.0000000000E+20
 30
-1.0000000000E+20
  9
$PLIMMIN
 10
0.0
 20
0.0
  9
$PLIMMAX
 10
420.0
 20
297.0
  9
$UNITMODE
 70
     0
  9
$VISRETAIN
 70
     1
  9
$PLINEGEN
 70
     0
  9
$PSLTSCALE
 70
     1
  9
$TREEDEPTH
 70
  3020
  9
$CMLSTYLE
  2
Standard
  9
$CMLJUST
 70
     0
  9
$CMLSCALE
 40
20.0
  9
$PROXYGRAPHICS
 70
     1
  9
$MEASUREMENT
 70
     1
  9
$CELWEIGHT
370
    -1
  9
$ENDCAPS
280
     0
  9
$JOINSTYLE
280
     0
  9
$LWDISPLAY
290
     1
  9
$INSUNITS
 70
     4
  9
$HYPERLINKBASE
  1

  9
$STYLESHEET
  1

  9
$XEDIT
290
     1
  9
$CEPSNTYPE
380
     0
  9
$PSTYLEMODE
290
     1
  9
$FINGERPRINTGUID
  2
{BC5469BC-F9D4-497B-8290-FA34A116181E}
  9
$VERSIONGUID
  2
{FAEB1C32-E019-11D5-929B-00C0DF256EC4}
  9
$EXTNAMES
290
     1
  9
$PSVPSCALE
 40
0.0
  9
$OLESTARTUP
290
     0
  0
ENDSEC
  0
SECTION
  2
CLASSES
  0
CLASS
  1
ACDBDICTIONARYWDFLT
  2
AcDbDictionaryWithDefault
  3
ObjectDBX Classes
 90
        0
280
     0
281
     0
  0
CLASS
  1
VISUALSTYLE
  2
AcDbVisualStyle
  3
ObjectDBX Classes
 90
     4095
280
     0
281
     0
  0
CLASS
  1
MATERIAL
  2
AcDbMaterial
  3
ObjectDBX Classes
 90
     1153
280
     0
281
     0
  0
CLASS
  1
SCALE
  2
AcDbScale
  3
ObjectDBX Classes
 90
     1153
280
     0
281
     0
  0
CLASS
  1
TABLESTYLE
  2
AcDbTableStyle
  3
ObjectDBX Classes
 90
     4095
280
     0
281
     0
  0
CLASS
  1
MLEADERSTYLE
  2
AcDbMLeaderStyle
  3
ACDB_MLEADERSTYLE_CLASS
 90
     4095
280
     0
281
     0
  0
CLASS
  1
SUN
  2
AcDbSun
  3
SCENEOE
 90
     1153
280
     0
281
     0
  0
CLASS
  1
ACDBPLACEHOLDER
  2
AcDbPlaceHolder
  3
ObjectDBX Classes
 90
        0
280
     0
281
     0
  0
CLASS
  1
LAYOUT
  2
AcDbLayout
  3
ObjectDBX Classes
 90
        0
280
     0
281
     0
  0
ENDSEC
  0
SECTION
  2
TABLES
  0
TABLE
  2
VPORT
  5
8
330
0
100
AcDbSymbolTable
 70
     1
  0
VPORT
  5
29
330
8
100
AcDbSymbolTableRecord
100
AcDbViewportTableRecord
  2
*Active
 70
     0
 10
0.0
 20
0.0
 11
1.0
 21
1.0
 12
297.0
 22
420.5
 13
0.0
 23
0.0
 14
10.0
 24
10.0
 15
10.0
 25
10.0
 16
0.0
 26
0.0
 36
1.0
 17
0.0
 27
0.0
 37
0.0
 40
841.0
 41
0.7063020214
 42
50.0
 43
0.0
 44
0.0
 50
0.0
 51
0.0
 71
     0
 72
  2000
 73
     1
 74
     3
 75
     0
 76
     0
 77
     0
 78
     0
281
     0
 65
     1
110
0.0
120
0.0
130
0.0
111
1.0
121
0.0
131
0.0
112
0.0
122
1.0
132
0.0
 79
     0
146
0.0
  0
ENDTAB
  0
TABLE
  2
LTYPE
  5
5
330
0
100
AcDbSymbolTable
 70
     6
  0
LTYPE
  5
14
330
5
100
AcDbSymbolTableRecord
100
AcDbLinetypeTableRecord
  2
ByBlock
 70
     0
  3

 72
    65
 73
     0
 40
0.0
  0
LTYPE
  5
15
330
5
100
AcDbSymbolTableRecord
100
AcDbLinetypeTableRecord
  2
ByLayer
 70
     0
  3

 72
    65
 73
     0
 40
0.0
  0
LTYPE
  5
16
330
5
100
AcDbSymbolTableRecord
100
AcDbLinetypeTableRecord
  2
Continuous
 70
     0
  3
Solid line
 72
    65
 73
     0
 40
0.0
  0
LTYPE
  5
6E
330
5
100
AcDbSymbolTableRecord
100
AcDbLinetypeTableRecord
  2
HIDDEN
 70
     0
  3
Hidden __ __ __ __ __ __ __ __ __ __ __ __ __ __
 72
    65
 73
     2
 40
1.905
 49
1.27
 74
     0
 49
-0.635
 74
     0
  0
LTYPE
  5
6F
330
5
100
AcDbSymbolTableRecord
100
AcDbLinetypeTableRecord
  2
PHANTOM
 70
     0
  3
Phantom ______  __  __  ______  __  __  ______
 72
    65
 73
     6
 40
12.7
 49
6.35
 74
     0
 49
-1.27
 74
     0
 49
1.27
 74
     0
 49
-1.27
 74
     0
 49
1.27
 74
     0
 49
-1.27
 74
     0
  0
LTYPE
  5
70
330
5
100
AcDbSymbolTableRecord
100
AcDbLinetypeTableRecord
  2
CENTER
 70
     0
  3
Center ____ _ ____ _ ____ _ ____ _ ____ _ ____
 72
    65
 73
     4
 40
10.16
 49
6.35
 74
     0
 49
-1.27
 74
     0
 49
1.27
 74
     0
 49
-1.27
 74
     0
  0
LTYPE
  5
71
330
5
100
AcDbSymbolTableRecord
100
AcDbLinetypeTableRecord
  2
CENTERX2
 70
     0
  3
Center (2x) ________  __  ________  __  _____
 72
    65
 73
     4
 40
20.32
 49
12.7
 74
     0
 49
-2.54
 74
     0
 49
2.54
 74
     0
 49
-2.54
 74
     0
  0
LTYPE
  5
72
330
5
100
AcDbSymbolTableRecord
100
AcDbLinetypeTableRecord
  2
DOT2
 70
     0
  3
Dot (.5x) ........................................
 72
    65
 73
     2
 40
0.635
 49
0.0
 74
     0
 49
-0.635
 74
     0
  0
ENDTAB
  0
TABLE
  2
LAYER
  5
2
330
0
100
AcDbSymbolTable
 70
     1
  0
LAYER
  5
10
330
2
100
AcDbSymbolTableRecord
100
AcDbLayerTableRecord
  2
0
 70
     0
 62
     7
  6
Continuous
370
    -3
390
F
  0
ENDTAB
  0
TABLE
  2
STYLE
  5
3
330
0
100
AcDbSymbolTable
 70
     3
  0
STYLE
  5
11
330
3
100
AcDbSymbolTableRecord
100
AcDbTextStyleTableRecord
  2
Standard
 70
     0
 40
0.0
 41
1.0
 50
0.0
 71
     0
 42
10.0
  3
txt
  4

  0
STYLE
  5
76
330
3
100
AcDbSymbolTableRecord
100
AcDbTextStyleTableRecord
  2
SLDTEXTSTYLE0
 70
     0
 40
0.0
 41
0.96
 50
0.0
 71
     0
 42
10.0
  3
ISOCP3
  4

  0
STYLE
  5
8D
330
3
100
AcDbSymbolTableRecord
100
AcDbTextStyleTableRecord
  2
SLDTEXTSTYLE1
 70
     0
 40
0.0
 41
0.605
 50
0.0
 71
     0
 42
10.0
  3
TXT
  4

  0
ENDTAB
  0
TABLE
  2
VIEW
  5
6
330
0
100
AcDbSymbolTable
 70
     0
  0
ENDTAB
  0
TABLE
  2
UCS
  5
7
330
0
100
AcDbSymbolTable
 70
     0
  0
ENDTAB
  0
TABLE
  2
APPID
  5
9
330
0
100
AcDbSymbolTable
 70
     1
  0
APPID
  5
12
330
9
100
AcDbSymbolTableRecord
100
AcDbRegAppTableRecord
  2
ACAD
 70
     0
  0
ENDTAB
  0
TABLE
  2
DIMSTYLE
  5
A
330
0
100
AcDbSymbolTable
 70
     2
100
AcDbDimStyleTable
  0
DIMSTYLE
105
27
330
A
100
AcDbSymbolTableRecord
100
AcDbDimStyleTableRecord
  2
ISO-25
 70
     0
 41
2.5
 42
0.625
 43
3.75
 44
1.25
 73
     0
 74
     0
 77
     1
 78
     8
140
2.5
141
2.5
143
0.0393700787
147
0.625
171
     3
172
     1
178
     0
271
     2
272
     2
274
     3
278
    44
283
     0
284
     8
340
11
  0
DIMSTYLE
105
77
102
{ACAD_REACTORS
330
75
330
82
102
}
330
A
100
AcDbSymbolTableRecord
100
AcDbDimStyleTableRecord
  2
SLDDIMSTYLE0
 70
     0
 41
2.5
 44
0.0
 45
0.000000001
 73
     0
 74
     0
 77
     1
 78
    12
 79
     3
140
6.0
147
1.5
173
     1
178
     0
271
     2
272
     2
276
     2
284
    12
340
76
  0
ENDTAB
  0
TABLE
  2
BLOCK_RECORD
  5
1
330
0
100
AcDbSymbolTable
 70
     3
  0
BLOCK_RECORD
  5
1F
330
1
100
AcDbSymbolTableRecord
100
AcDbBlockTableRecord
  2
*Model_Space
340
22
  0
BLOCK_RECORD
  5
1B
330
1
100
AcDbSymbolTableRecord
100
AcDbBlockTableRecord
  2
*Paper_Space
340
1E
  0
BLOCK_RECORD
  5
23
330
1
100
AcDbSymbolTableRecord
100
AcDbBlockTableRecord
  2
*Paper_Space0
340
26
  0
BLOCK_RECORD
  5
78
330
1
100
AcDbSymbolTableRecord
100
AcDbBlockTableRecord
  2
_D
340
0
  0
BLOCK_RECORD
  5
83
330
1
100
AcDbSymbolTableRecord
100
AcDbBlockTableRecord
  2
_D_1
340
0
  0
ENDTAB
  0
ENDSEC
  0
SECTION
  2
BLOCKS
  0
BLOCK
  5
20
330
1F
100
AcDbEntity
  8
0
100
AcDbBlockBegin
  2
*Model_Space
 70
     0
 10
0.0
 20
0.0
 30
0.0
  3
*Model_Space
  1

  0
ENDBLK
  5
21
330
1F
100
AcDbEntity
  8
0
100
AcDbBlockEnd
  0
BLOCK
  5
1C
330
1B
100
AcDbEntity
 67
     1
  8
0
100
AcDbBlockBegin
  2
*Paper_Space
 70
     0
 10
0.0
 20
0.0
 30
0.0
  3
*Paper_Space
  1

  0
ENDBLK
  5
1D
330
1B
100
AcDbEntity
 67
     1
  8
0
100
AcDbBlockEnd
  0
BLOCK
  5
24
330
23
100
AcDbEntity
  8
0
100
AcDbBlockBegin
  2
*Paper_Space0
 70
     0
 10
0.0
 20
0.0
 30
0.0
  3
*Paper_Space0
  1

  0
ENDBLK
  5
25
330
23
100
AcDbEntity
  8
0
100
AcDbBlockEnd
  0
BLOCK
  5
79
330
78
100
AcDbEntity
  8
0
100
AcDbBlockBegin
  2
_D
 70
     0
 10
0.0
 20
0.0
 30
0.0
  3
_D
  1

  0
SOLID
  5
7B
330
78
100
AcDbEntity
  8
0
  6
Continuous
 62
     7
370
    18
100
AcDbTrace
 10
42.7614395004
 20
152.0299240879
 30
0.0
 11
42.4614395004
 21
149.5299240879
 31
0.0
 12
43.0614395004
 22
149.5299240879
 32
0.0
 13
43.0614395004
 23
149.5299240879
 33
0.0
  0
SOLID
  5
7C
330
78
100
AcDbEntity
  8
0
  6
Continuous
 62
     7
370
    18
100
AcDbTrace
 10
42.7614395004
 20
52.0299240879
 30
0.0
 11
43.0614395004
 21
54.5299240879
 31
0.0
 12
42.4614395004
 22
54.5299240879
 32
0.0
 13
42.4614395004
 23
54.5299240879
 33
0.0
  0
LINE
  5
7D
330
78
100
AcDbEntity
  8
0
  6
Continuous
 62
     7
370
    18
100
AcDbLine
 10
56.6850079902
 20
152.0299240879
 30
0.0
 11
41.7614395004
 21
152.0299240879
 31
0.0
  0
LINE
  5
7E
330
78
100
AcDbEntity
  8
0
  6
Continuous
 62
     7
370
    18
100
AcDbLine
 10
56.6850079902
 20
52.0299240879
 30
0.0
 11
41.7614395004
 21
52.0299240879
 31
0.0
  0
LINE
  5
7F
330
78
100
AcDbEntity
  8
0
  6
Continuous
 62
     7
370
    18
100
AcDbLine
 10
42.7614395004
 20
152.0299240879
 30
0.0
 11
42.7614395004
 21
52.0299240879
 31
0.0
  0
MTEXT
  5
80
330
78
100
AcDbEntity
  8
0
  6
Continuous
 62
     7
370
    18
100
AcDbMText
 10
35.0270332946
 20
94.3680541463
 30
0.0
 40
6.0
 41
0.0
 71
     1
 72
     1
  1
100
  7
SLDTEXTSTYLE0
 11
-7.044195017643634E-15
 21
1.0
 31
0.0
 73
     1
 44
1.0
  0
MTEXT
  5
81
330
78
100
AcDbEntity
  8
0
  6
Continuous
 62
     7
370
    18
100
AcDbMText
 10
35.0270332946
 20
105.7430548466
 30
0.0
 40
6.0
 41
0.0
 71
     1
 72
     1
  1
mm
  7
SLDTEXTSTYLE0
 11
-7.044195017643634E-15
 21
1.0
 31
0.0
 73
     1
 44
1.0
  0
ENDBLK
  5
7A
330
78
100
AcDbEntity
  8
0
100
AcDbBlockEnd
  0
BLOCK
  5
84
330
83
100
AcDbEntity
  8
0
100
AcDbBlockBegin
  2
_D_1
 70
     0
 10
0.0
 20
0.0
 30
0.0
  3
_D_1
  1

  0
SOLID
  5
86
330
83
100
AcDbEntity
  8
0
  6
Continuous
 62
     7
370
    18
100
AcDbTrace
 10
56.6850079902
 20
38.4602342313
 30
0.0
 11
59.1850079902
 21
38.1602342313
 31
0.0
 12
59.1850079902
 22
38.7602342313
 32
0.0
 13
59.1850079902
 23
38.7602342313
 33
0.0
  0
SOLID
  5
87
330
83
100
AcDbEntity
  8
0
  6
Continuous
 62
     7
370
    18
100
AcDbTrace
 10
156.6850079902
 20
38.4602342313
 30
0.0
 11
154.1850079902
 21
38.7602342313
 31
0.0
 12
154.1850079902
 22
38.1602342313
 32
0.0
 13
154.1850079902
 23
38.1602342313
 33
0.0
  0
LINE
  5
88
330
83
100
AcDbEntity
  8
0
  6
Continuous
 62
     7
370
    18
100
AcDbLine
 10
56.6850079902
 20
52.0299240879
 30
0.0
 11
56.6850079902
 21
37.4602342313
 31
0.0
  0
LINE
  5
89
330
83
100
AcDbEntity
  8
0
  6
Continuous
 62
     7
370
    18
100
AcDbLine
 10
156.6850079902
 20
52.0299240879
 30
0.0
 11
156.6850079902
 21
37.4602342313
 31
0.0
  0
LINE
  5
8A
330
83
100
AcDbEntity
  8
0
  6
Continuous
 62
     7
370
    18
100
AcDbLine
 10
56.6850079902
 20
38.4602342313
 30
0.0
 11
156.6850079902
 21
38.4602342313
 31
0.0
  0
MTEXT
  5
8B
330
83
100
AcDbEntity
  8
0
  6
Continuous
 62
     7
370
    18
100
AcDbMText
 10
93.9626484861
 20
46.1946404371
 30
0.0
 40
6.0
 41
0.0
 71
     1
 72
     1
  1
100
  7
SLDTEXTSTYLE0
 73
     1
 44
1.0
  0
MTEXT
  5
8C
330
83
100
AcDbEntity
  8
0
  6
Continuous
 62
     7
370
    18
100
AcDbMText
 10
105.3376491864
 20
46.1946404371
 30
0.0
 40
6.0
 41
0.0
 71
     1
 72
     1
  1
mm
  7
SLDTEXTSTYLE0
 73
     1
 44
1.0
  0
ENDBLK
  5
85
330
83
100
AcDbEntity
  8
0
100
AcDbBlockEnd
  0
ENDSEC
  0
SECTION
  2
ENTITIES
  0
LINE
  5
73
330
1F
100
AcDbEntity
  8
0
  6
Continuous
 62
     7
370
    18
100
AcDbLine
 10
56.6850079902
 20
152.0299240879
 30
0.0
 11
56.6850079902
 21
52.0299240879
 31
0.0
  0
LINE
  5
74
330
1F
100
AcDbEntity
  8
0
  6
Continuous
 62
     7
370
    18
100
AcDbLine
 10
56.6850079902
 20
52.0299240879
 30
0.0
 11
156.6850079902
 21
52.0299240879
 31
0.0
  0
DIMENSION
  5
75
330
1F
100
AcDbEntity
  8
0
  6
Continuous
 62
     7
370
    18
100
AcDbDimension
  2
_D
 10
42.7614395004
 20
52.0299240879
 30
0.0
 11
42.7614395004
 21
105.4472211621
 31
0.0
 70
   160
  1
<>mm
 71
     2
 42
-1.0
  3
SLDDIMSTYLE0
100
AcDbAlignedDimension
 13
56.6850079902
 23
152.0299240879
 33
0.0
 14
56.6850079902
 24
52.0299240879
 34
0.0
 50
90.0
100
AcDbRotatedDimension
  0
DIMENSION
  5
82
330
1F
100
AcDbEntity
  8
0
  6
Continuous
 62
     7
370
    18
100
AcDbDimension
  2
_D_1
 10
156.6850079902
 20
38.4602342313
 30
0.0
 11
105.0418155019
 21
38.4602342313
 31
0.0
 70
   160
  1
<>mm
 71
     2
 42
-1.0
  3
SLDDIMSTYLE0
100
AcDbAlignedDimension
 13
56.6850079902
 23
52.0299240879
 33
0.0
 14
156.6850079902
 24
52.0299240879
 34
0.0
100
AcDbRotatedDimension
  0
MTEXT
  5
8E
330
1F
100
AcDbEntity
  8
0
  6
Continuous
 62
     7
370
     0
100
AcDbMText
 10
412.8252631579
 20
48.4342449499
 30
0.0
 40
10.0
 41
0.0
 71
     1
 72
     1
  1
KLUDI GmbH & Co KG
  7
SLDTEXTSTYLE1
 73
     1
 44
1.0
  0
MTEXT
  5
8F
330
1F
100
AcDbEntity
  8
0
  6
Continuous
 62
     7
370
     0
100
AcDbMText
 10
210.0873490389
 20
48.4342449499
 30
0.0
 40
10.0
 41
0.0
 71
     1
 72
     1
  1
40 655 05 75
  7
SLDTEXTSTYLE1
 73
     1
 44
1.0
  0
SPLINE
  5
90
330
1F
100
AcDbEntity
  8
0
  6
Continuous
 62
     7
370
    25
100
AcDbSpline
210
0.0
220
0.0
230
1.0
 70
     8
 71
     3
 72
    20
 73
    16
 74
     0
 42
0.000000001
 43
0.00000001
 40
0.0
 40
0.0
 40
0.0
 40
0.0
 40
0.0715091202343274
 40
0.14290057831606
 40
0.2163272502281343
 40
0.2934097394008744
 40
0.3751640639262715
 40
0.4619299023815296
 40
0.5533046180404699
 40
0.6480938635293613
 40
0.7443046581255099
 40
0.8157899527308745
 40
0.8852169048266614
 40
0.9511891889710514
 40
1.0
 40
1.0
 40
1.0
 40
1.0
 10
433.232267109846
 20
388.7093238296789
 30
0.0
 10
433.2299415481843
 20
388.976507380407
 30
0.0
 10
433.2252942513744
 20
389.51043485414
 30
0.0
 10
433.2127648658375
 20
390.9362826727186
 30
0.0
 10
433.1958657012404
 20
392.8298778319302
 30
0.0
 10
433.1737738088034
 20
395.2475679503244
 30
0.0
 10
433.1460201969894
 20
398.180468233885
 30
0.0
 10
433.1118721061375
 20
401.62056725032
 30
0.0
 10
433.070501390175
 20
405.5339276441142
 30
0.0
 10
433.0209785220432
 20
409.8612151246407
 30
0.0
 10
432.9669966654221
 20
414.1349548071721
 30
0.0
 10
432.910048688575
 20
418.2042797913365
 30
0.0
 10
432.8517301400832
 20
421.9446033375742
 30
0.0
 10
432.7922762358274
 20
425.4324345620763
 30
0.0
 10
432.7443220522433
 20
427.8067138977203
 30
0.0
 10
432.7239298282016
 20
428.8163617017549
 30
0.0
  0
SPLINE
  5
91
330
1F
100
AcDbEntity
  8
0
  6
Continuous
 62
     7
370
    25
100
AcDbSpline
210
0.0
220
0.0
230
1.0
 70
     8
 71
     3
 72
    15
 73
    11
 74
     0
 42
0.000000001
 43
0.00000001
 40
0.0
 40
0.0
 40
0.0
 40
0.0
 40
0.1437396056946629
 40
0.2987919734159304
 40
0.4421489637830588
 40
0.5741797808867612
 40
0.6953352060261229
 40
0.8061780011866087
 40
0.9074253038284309
 40
1.0
 40
1.0
 40
1.0
 40
1.0
 10
432.7181276885618
 20
261.660753166942
 30
0.0
 10
432.7400237052767
 20
262.9751396978778
 30
0.0
 10
432.7855390245415
 20
265.7073591408882
 30
0.0
 10
432.8540830441743
 20
270.1239226702871
 30
0.0
 10
432.9216890406009
 20
274.7293190012229
 30
0.0
 10
432.9848844713873
 20
279.3253867597486
 30
0.0
 10
433.0436866619181
 20
283.9016575013425
 30
0.0
 10
433.0981199771079
 20
288.4776801098637
 30
0.0
 10
433.1482984805475
 20
293.0125980777097
 30
0.0
 10
433.1800808683066
 20
296.2454356620054
 30
0.0
 10
433.1952610073436
 20
297.7895274522585
 30
0.0
  0
LINE
  5
92
330
1F
100
AcDbEntity
  8
0
  6
Continuous
 62
     7
370
    25
100
AcDbLine
 10
433.2044261528
 20
298.8833173874
 30
0.0
 11
433.2312519682
 21
301.732013351
 31
0.0
  0
SPLINE
  5
93
330
1F
100
AcDbEntity
  8
0
  6
Continuous
 62
     7
370
    25
100
AcDbSpline
210
0.0
220
0.0
230
1.0
 70
     8
 71
     3
 72
    10
 73
     6
 74
     0
 42
0.000000001
 43
0.00000001
 40
0.0
 40
0.0
 40
0.0
 40
0.0
 40
0.3513850067130384
 40
0.6963457880688898
 40
0.9999999999999999
 40
0.9999999999999999
 40
0.9999999999999999
 40
0.9999999999999999
 10
433.208328394388
 20
299.1802751782221
 30
0.0
 10
433.2437268775561
 20
303.3606263099255
 30
0.0
 10
433.313876668205
 20
311.6449009590938
 30
0.0
 10
433.3800005614215
 20
323.868081485401
 30
0.0
 10
433.3987077380327
 20
331.9737617671761
 30
0.0
 10
433.4074656499375
 20
335.7684997605962
 30
0.0
  0
LINE
  5
94
330
1F
100
AcDbEntity
  8
0
  6
Continuous
 62
     7
370
    25
100
AcDbLine
 10
433.2083283944
 20
299.1806663337
 30
0.0
 11
432.7421930639
 21
263.6616661909
 31
0.0
  0
LINE
  5
95
330
1F
100
AcDbEntity
  8
0
  6
Continuous
 62
     7
370
    25
100
AcDbLine
 10
418.6991524903
 20
260.2788492801
 30
0.0
 11
431.7330398617
 21
260.5063602093
 31
0.0
  0
LINE
  5
96
330
1F
100
AcDbEntity
  8
0
  6
Continuous
 62
     7
370
    25
100
AcDbLine
 10
431.7330398617
 20
430.0513401392
 30
0.0
 11
418.6991524903
 21
430.2788510683
 31
0.0
  0
SPLINE
  5
97
330
1F
100
AcDbEntity
  8
0
  6
Continuous
 62
     7
370
    25
100
AcDbSpline
210
0.0
220
0.0
230
1.0
 70
     8
 71
     3
 72
    14
 73
    10
 74
     0
 42
0.000000001
 43
0.00000001
 40
0.0
 40
0.0
 40
0.0
 40
0.0
 40
0.0023899614482835
 40
0.1641220453177981
 40
0.3098193400352905
 40
0.4636732216823169
 40
0.6554581987846659
 40
0.9267119669082289
 40
1.0
 40
1.0
 40
1.0
 40
1.0
 10
431.7333360222925
 20
260.5078726771158
 30
0.0
 10
431.7355550766996
 20
260.5074009098481
 30
0.0
 10
431.8879406928932
 20
260.4750039818803
 30
0.0
 10
432.2081494077538
 20
260.6100786719835
 30
0.0
 10
432.4693791136349
 20
260.818857140484
 30
0.0
 10
432.5990956861402
 20
261.010494148055
 30
0.0
 10
432.6632221406414
 20
261.1516379168811
 30
0.0
 10
432.687227693513
 20
261.2298126437015
 30
0.0
 10
432.6922084338907
 20
261.2532747010735
 30
0.0
 10
432.6932678950776
 20
261.2582653525156
 30
0.0
  0
SPLINE
  5
98
330
1F
100
AcDbEntity
  8
0
  6
Continuous
 62
     7
370
    25
100
AcDbSpline
210
0.0
220
0.0
230
1.0
 70
     8
 71
     3
 72
    19
 73
    15
 74
     0
 42
0.000000001
 43
0.00000001
 40
0.0
 40
0.0
 40
0.0
 40
0.0
 40
0.0888376141320176
 40
0.190761115755334
 40
0.2802476506065287
 40
0.3363455083046509
 40
0.361477872563942
 40
0.385863210391335
 40
0.4363745738964845
 40
0.4939467885403788
 40
0.6352191970571752
 40
0.8038506700807778
 40
0.9810900614053332
 40
1.0
 40
1.0
 40
1.0
 40
1.0
 10
478.1062004176725
 20
380.8369248869699
 30
0.0
 10
477.9271346106765
 20
380.8627698405883
 30
0.0
 10
477.5426263877812
 20
380.9182667406012
 30
0.0
 10
476.9238388628961
 20
380.9910382708505
 30
0.0
 10
476.2496051868556
 20
381.0562188120139
 30
0.0
 10
475.6077640795933
 20
381.1150676449555
 30
0.0
 10
475.1132208017074
 20
381.1657262276732
 30
0.0
 10
474.602559319081
 20
381.2225825304537
 30
0.0
 10
473.8921920501319
 20
381.3124265925798
 30
0.0
 10
472.6543870518346
 20
381.4944139793395
 30
0.0
 10
471.0587212867445
 20
381.7699591814112
 30
0.0
 10
469.102598298571
 20
382.1045300886263
 30
0.0
 10
467.6978615155535
 20
382.3152916464514
 30
0.0
 10
466.8330449285434
 20
382.4205633083254
 30
0.0
 10
466.7496715692628
 20
382.4307121100706
 30
0.0
  0
ARC
  5
99
330
1F
100
AcDbEntity
  8
0
  6
Continuous
 62
     7
370
    25
100
AcDbCircle
 10
442.6991524903
 20
360.0788501742
 30
0.0
 40
24.5
100
AcDbArc
 50
63.5314559042
 51
90.0
  0
ARC
  5
9A
330
1F
100
AcDbEntity
  8
0
  6
Continuous
 62
     7
370
    25
100
AcDbCircle
 10
442.6991524903
 20
360.0788501742
 30
0.0
 40
24.5
100
AcDbArc
 50
270.0
 51
275.9577861235
  0
LINE
  5
9B
330
1F
100
AcDbEntity
  8
0
  6
Continuous
 62
     7
370
    25
100
AcDbLine
 10
442.6991526989
 20
384.5788486066
 30
0.0
 11
433.2664075328
 21
384.5788486066
 31
0.0
  0
LINE
  5
9C
330
1F
100
AcDbEntity
  8
0
  6
Continuous
 62
     7
370
    25
100
AcDbLine
 10
433.4087164162
 20
335.5788498881
 30
0.0
 11
442.6991526989
 21
335.5788498881
 31
0.0
  0
SPLINE
  5
9D
330
1F
100
AcDbEntity
  8
0
  6
Continuous
 62
     7
370
    25
100
AcDbSpline
210
0.0
220
0.0
230
1.0
 70
     8
 71
     3
 72
     9
 73
     5
 74
     0
 42
0.000000001
 43
0.00000001
 40
0.0
 40
0.0
 40
0.0
 40
0.0
 40
0.498904473606016
 40
1.0
 40
1.0
 40
1.0
 40
1.0
 10
479.3709923533548
 20
264.5225956800264
 30
0.0
 10
479.3892825602692
 20
264.5221017072587
 30
0.0
 10
479.4259432997134
 20
264.5211115923294
 30
0.0
 10
479.4631844453099
 20
264.5223335431998
 30
0.0
 10
479.4818458167661
 20
264.5229458573145
 30
0.0
  0
SPLINE
  5
9E
330
1F
100
AcDbEntity
  8
0
  6
Continuous
 62
     7
370
    25
100
AcDbSpline
210
0.0
220
0.0
230
1.0
 70
     8
 71
     3
 72
    13
 73
     9
 74
     0
 42
0.000000001
 43
0.00000001
 40
0.0
 40
0.0
 40
0.0
 40
0.0
 40
0.2963274379632974
 40
0.5531840127104428
 40
0.6683416684350914
 40
0.7776651402176895
 40
0.8861444335112895
 40
1.0
 40
1.0
 40
1.0
 40
1.0
 10
475.5601656643499
 20
268.2152002814096
 30
0.0
 10
475.6976169331176
 20
267.6830724323657
 30
0.0
 10
475.9542109391662
 20
266.6896962508275
 30
0.0
 10
476.644089785566
 20
265.7089588502086
 30
0.0
 10
477.3666795196785
 20
265.1429765215983
 30
0.0
 10
477.9793499254603
 20
264.8421960467565
 30
0.0
 10
478.6785437514382
 20
264.6465841539576
 30
0.0
 10
479.1735582873155
 20
264.6133174729751
 30
0.0
 10
479.427050521766
 20
264.5962819221299
 30
0.0
  0
LINE
  5
9F
330
1F
100
AcDbEntity
  8
0
  6
Continuous
 62
     7
370
    25
100
AcDbLine
 10
459.7123374251
 20
333.6890501666
 30
0.0
 11
466.0992619602
 21
333.6890501666
 31
0.0
  0
LINE
  5
A0
330
1F
100
AcDbEntity
  8
0
  6
Continuous
 62
     7
370
    25
100
AcDbLine
 10
445.2421476153
 20
333.6890501666
 30
0.0
 11
451.772946587
 21
333.6890501666
 31
0.0
  0
SPLINE
  5
A1
330
1F
100
AcDbEntity
  8
0
  6
Continuous
 62
     7
370
    25
100
AcDbSpline
210
0.0
220
0.0
230
1.0
 70
     8
 71
     3
 72
    15
 73
    11
 74
     0
 42
0.000000001
 43
0.00000001
 40
0.0
 40
0.0
 40
0.0
 40
0.0
 40
0.1437378582002301
 40
0.2767531562921355
 40
0.4016087786684154
 40
0.5223318658860443
 40
0.6410728948911193
 40
0.7595766325239773
 40
0.8790537069308181
 40
0.9999999999999999
 40
0.9999999999999999
 40
0.9999999999999999
 40
0.9999999999999999
 10
466.0992619601835
 20
333.6891898649615
 30
0.0
 10
466.6459013331917
 20
333.6892476152618
 30
0.0
 10
467.6984018624738
 20
333.6893588078041
 30
0.0
 10
469.2245262448996
 20
333.5045691322808
 30
0.0
 10
470.5818318073549
 20
332.9729989938314
 30
0.0
 10
471.7075598330312
 20
332.140498134881
 30
0.0
 10
472.587143696776
 20
331.0848983885865
 30
0.0
 10
473.2060484506558
 20
329.8677277220013
 30
0.0
 10
473.5895626750877
 20
328.5465083442589
 30
0.0
 10
473.6551648017266
 20
327.6324587296818
 30
0.0
 10
473.6881663111795
 20
327.1726410600227
 30
0.0
  0
SPLINE
  5
A2
330
1F
100
AcDbEntity
  8
0
  6
Continuous
 62
     7
370
    25
100
AcDbSpline
210
0.0
220
0.0
230
1.0
 70
     8
 71
     3
 72
    12
 73
     8
 74
     0
 42
0.000000001
 43
0.00000001
 40
0.0
 40
0.0
 40
0.0
 40
0.0
 40
0.2235196007438746
 40
0.4594170600316115
 40
0.6850915153149902
 40
0.9131971077765746
 40
1.0
 40
1.0
 40
1.0
 40
1.0
 10
479.2906937209714
 20
264.5384654166979
 30
0.0
 10
479.0141517602819
 20
264.5616912991382
 30
0.0
 10
478.4457537579032
 20
264.6094292451252
 30
0.0
 10
477.6392176269958
 20
264.919527061864
 30
0.0
 10
476.9507873057791
 20
265.4230587461851
 30
0.0
 10
476.4618614763834
 20
265.9101495299303
 30
0.0
 10
476.3174396319516
 20
266.2742121674762
 30
0.0
 10
476.2776304988016
 20
266.374564147262
 30
0.0
  0
SPLINE
  5
A3
330
1F
100
AcDbEntity
  8
0
  6
Continuous
 62
     7
370
    25
100
AcDbSpline
210
0.0
220
0.0
230
1.0
 70
     8
 71
     3
 72
    10
 73
     6
 74
     0
 42
0.000000001
 43
0.00000001
 40
0.0
 40
0.0
 40
0.0
 40
0.0
 40
0.3753398210498221
 40
0.7077207741539908
 40
1.0
 40
1.0
 40
1.0
 40
1.0
 10
480.8223244754423
 20
265.7459437611383
 30
0.0
 10
480.9168514140147
 20
267.2423767660608
 30
0.0
 10
481.0950863744243
 20
270.0639711328698
 30
0.0
 10
481.1196799455619
 20
274.0544576081256
 30
0.0
 10
481.0989185524575
 20
276.4933122911016
 30
0.0
 10
481.0892042724241
 20
277.6344552400392
 30
0.0
  0
SPLINE
  5
A4
330
1F
100
AcDbEntity
  8
0
  6
Continuous
 62
     7
370
    25
100
AcDbSpline
210
0.0
220
0.0
230
1.0
 70
     8
 71
     3
 72
    11
 73
     7
 74
     0
 42
0.000000001
 43
0.00000001
 40
0.0
 40
0.0
 40
0.0
 40
0.0
 40
0.3174373082678161
 40
0.5862989846638936
 40
0.8120824926599853
 40
1.0
 40
1.0
 40
1.0
 40
1.0
 10
479.6215702799905
 20
264.5359992745203
 30
0.0
 10
479.6414111746511
 20
264.5369520040606
 30
0.0
 10
479.6780568243318
 20
264.5387116723402
 30
0.0
 10
479.9911734114399
 20
264.6269196125173
 30
0.0
 10
480.5549069746211
 20
264.9276314829783
 30
0.0
 10
480.7430430186729
 20
265.5423792958823
 30
0.0
 10
480.8285010067571
 20
265.8216193082612
 30
0.0
  0
LINE
  5
A5
330
1F
100
AcDbEntity
  8
0
  6
Continuous
 62
     7
370
    25
100
AcDbLine
 10
451.7611187903
 20
333.6869239571
 30
0.0
 11
451.9607272951
 21
333.1385025519
 31
0.0
  0
LINE
  5
A6
330
1F
100
AcDbEntity
  8
0
  6
Continuous
 62
     7
370
    25
100
AcDbLine
 10
459.5235657899
 20
333.1385025519
 30
0.0
 11
459.7232413499
 21
333.687105565
 31
0.0
  0
ARC
  5
A7
330
1F
100
AcDbEntity
  8
0
  6
Continuous
 62
     7
370
    25
100
AcDbCircle
 10
459.335626893
 20
333.206906833
 30
0.0
 40
0.2000000000000553
100
AcDbArc
 50
270.0
 51
340.0
  0
ARC
  5
A8
330
1F
100
AcDbEntity
  8
0
  6
Continuous
 62
     7
370
    25
100
AcDbCircle
 10
452.1486666751
 20
333.206906833
 30
0.0
 40
0.1999999999999886
100
AcDbArc
 50
200.0
 51
270.0
  0
LINE
  5
A9
330
1F
100
AcDbEntity
  8
0
  6
Continuous
 62
     7
370
    25
100
AcDbLine
 10
452.1486681906
 20
333.0069066721
 30
0.0
 11
459.3356286196
 21
333.0069066721
 31
0.0
  0
LINE
  5
AA
330
1F
100
AcDbEntity
  8
0
  6
Continuous
 62
     7
370
    25
100
AcDbLine
 10
479.4511643259
 20
379.4340699675
 30
0.0
 11
479.445032498
 21
379.4542163375
 31
0.0
  0
SPLINE
  5
AB
330
1F
100
AcDbEntity
  8
0
  6
Continuous
 62
     7
370
    25
100
AcDbSpline
210
0.0
220
0.0
230
1.0
 70
    24
 71
     3
 72
    30
 73
    26
 74
     0
 42
0.000000001
 43
0.00000001
 40
0.0
 40
0.0
 40
0.0
 40
0.0
 40
0.1249999999999999
 40
0.1249999999999999
 40
0.1874999999999993
 40
0.1874999999999993
 40
0.2499999999999986
 40
0.2499999999999986
 40
0.3749999999999978
 40
0.3749999999999978
 40
0.4374999999999973
 40
0.4374999999999973
 40
0.4999999999999969
 40
0.4999999999999969
 40
0.6249999999999969
 40
0.6249999999999969
 40
0.6874999999999974
 40
0.6874999999999974
 40
0.749999999999998
 40
0.749999999999998
 40
0.8124999999999984
 40
0.8124999999999984
 40
0.874999999999999
 40
0.874999999999999
 40
1.0
 40
1.0
 40
1.0
 40
1.0
 10
418.6991524902927
 20
260.5560789914274
 30
0.0
 10
418.6991524902928
 20
260.5687332384071
 30
0.0
 10
418.6991524902928
 20
260.720411551082
 30
0.0
 10
418.6991524902928
 20
261.1479356601736
 30
0.0
 10
418.6991524902928
 20
261.3240204485942
 30
0.0
 10
418.6991524902928
 20
261.7448035375639
 30
0.0
 10
418.6991524902928
 20
261.9908487589526
 30
0.0
 10
418.6991524902928
 20
262.8177164198895
 30
0.0
 10
418.6991524902928
 20
263.4892859754175
 30
0.0
 10
418.6991524902928
 20
264.6749390360937
 30
0.0
 10
418.6991524902928
 20
265.100692104513
 30
0.0
 10
418.6991524902928
 20
266.0117191255038
 30
0.0
 10
418.6991524902928
 20
266.4906033266206
 30
0.0
 10
418.6991524902929
 20
267.9950262604348
 30
0.0
 10
418.6991524902929
 20
269.0877153837112
 30
0.0
 10
418.6991524902929
 20
270.863689278971
 30
0.0
 10
418.6991524902929
 20
271.4806800840375
 30
0.0
 10
418.6991524902929
 20
272.7347146210815
 30
0.0
 10
418.6991524902929
 20
273.374660409332
 30
0.0
 10
418.6991524902929
 20
274.679922070283
 30
0.0
 10
418.6991524902929
 20
275.3452385347767
 30
0.0
 10
418.6991524902929
 20
276.7014744531708
 30
0.0
 10
418.6991524902929
 20
277.3938217588863
 30
0.0
 10
418.6991524902929
 20
279.5015024782402
 30
0.0
 10
418.6991524902929
 20
280.9220443166679
 30
0.0
 10
418.6991524902929
 20
282.3580437365125
 30
0.0
  0
SPLINE
  5
AC
330
1F
100
AcDbEntity
  8
0
  6
Continuous
 62
     7
370
    25
100
AcDbSpline
210
0.0
220
0.0
230
1.0
 70
    24
 71
     3
 72
    30
 73
    26
 74
     0
 42
0.000000001
 43
0.00000001
 40
0.0
 40
0.0
 40
0.0
 40
0.0
 40
0.1249999999999978
 40
0.1249999999999978
 40
0.1874999999999973
 40
0.1874999999999973
 40
0.2499999999999968
 40
0.2499999999999968
 40
0.3749999999999968
 40
0.3749999999999968
 40
0.4374999999999969
 40
0.4374999999999969
 40
0.4999999999999969
 40
0.4999999999999969
 40
0.6249999999999987
 40
0.6249999999999987
 40
0.687499999999999
 40
0.687499999999999
 40
0.7499999999999993
 40
0.7499999999999993
 40
0.8124999999999998
 40
0.8124999999999998
 40
0.8750000000000001
 40
0.8750000000000001
 40
1.0
 40
1.0
 40
1.0
 40
1.0
 10
418.6991524902933
 20
408.1996566119213
 30
0.0
 10
418.6991524902933
 20
409.6356544567026
 30
0.0
 10
418.6991524902934
 20
411.0467163334625
 30
0.0
 10
418.6991524902934
 20
413.127435077763
 30
0.0
 10
418.6991524902934
 20
413.8149855185692
 30
0.0
 10
418.6991524902934
 20
415.1777795788
 30
0.0
 10
418.6991524902934
 20
415.855437372633
 30
0.0
 10
418.6991524902934
 20
417.8274276932643
 30
0.0
 10
418.6991524902934
 20
419.0740124821842
 30
0.0
 10
418.6991524902934
 20
420.8430143921504
 30
0.0
 10
418.6991524902934
 20
421.4164993385548
 30
0.0
 10
418.6991524902934
 20
422.5252689746837
 30
0.0
 10
418.6991524902934
 20
423.0529275311384
 30
0.0
 10
418.6991524902934
 20
424.5584023850275
 30
0.0
 10
418.6991524902934
 20
425.4594268180332
 30
0.0
 10
418.6991524902934
 20
426.6543613394363
 30
0.0
 10
418.6991524902934
 20
427.0270630237553
 30
0.0
 10
418.6991524902934
 20
427.7035300137391
 30
0.0
 10
418.6991524902934
 20
428.0095029136378
 30
0.0
 10
418.6991524902934
 20
428.5581426243319
 30
0.0
 10
418.6991524902934
 20
428.8008079584237
 30
0.0
 10
418.6991524902934
 20
429.2222513686855
 30
0.0
 10
418.6991524902934
 20
429.401325124772
 30
0.0
 10
418.6991524902934
 20
429.8371889994196
 30
0.0
 10
418.6991524902934
 20
429.9889670961458
 30
0.0
 10
418.6991524902934
 20
430.0016213570052
 30
0.0
  0
SPLINE
  5
AD
330
1F
100
AcDbEntity
  8
0
  6
Continuous
 62
     7
370
    25
100
AcDbSpline
210
0.0
220
0.0
230
1.0
 70
     8
 71
     3
 72
    30
 73
    26
 74
     0
 42
0.000000001
 43
0.00000001
 40
0.0
 40
0.0
 40
0.0
 40
0.0
 40
0.1249999999999989
 40
0.1249999999999989
 40
0.1874999999999979
 40
0.1874999999999979
 40
0.2499999999999969
 40
0.2499999999999969
 40
0.3749999999999956
 40
0.3749999999999956
 40
0.4374999999999953
 40
0.4374999999999953
 40
0.4999999999999949
 40
0.4999999999999949
 40
0.6249999999999951
 40
0.6249999999999951
 40
0.6874999999999962
 40
0.6874999999999962
 40
0.7499999999999972
 40
0.7499999999999972
 40
0.8124999999999982
 40
0.8124999999999982
 40
0.8749999999999992
 40
0.8749999999999992
 40
1.0
 40
1.0
 40
1.0
 40
1.0
 10
432.7198723373032
 20
282.592509492447
 30
0.0
 10
432.7192394475759
 20
281.2209840156518
 30
0.0
 10
432.7187759831031
 20
279.8728287121199
 30
0.0
 10
432.7181870938613
 20
277.8842968861601
 30
0.0
 10
432.718010511956
 20
277.2271103480772
 30
0.0
 10
432.7176886132379
 20
275.924311075352
 30
0.0
 10
432.7175432750615
 20
275.2774348756976
 30
0.0
 10
432.7171582402708
 20
273.3956515014496
 30
0.0
 10
432.7169649721579
 20
272.2051933490941
 30
0.0
 10
432.7167681011795
 20
270.5148310622604
 30
0.0
 10
432.7167181658392
 20
269.9657169609802
 30
0.0
 10
432.7166521767543
 20
268.9080449295017
 30
0.0
 10
432.7166363465571
 20
268.4044868220772
 30
0.0
 10
432.7166391765155
 20
266.9672669822294
 30
0.0
 10
432.7167078696443
 20
266.1063842901115
 30
0.0
 10
432.7169108946318
 20
264.9640647047355
 30
0.0
 10
432.7169956020618
 20
264.60834852764
 30
0.0
 10
432.7171946477051
 20
263.9626531279609
 30
0.0
 10
432.7173092534702
 20
263.6704449947549
 30
0.0
 10
432.7175691189551
 20
263.1462703916146
 30
0.0
 10
432.7177143112823
 20
262.9143047923164
 30
0.0
 10
432.7180394082311
 20
262.5112805516605
 30
0.0
 10
432.7182198575962
 20
262.3397835292396
 30
0.0
 10
432.7188243622045
 20
261.9233295268161
 30
0.0
 10
432.7192986463223
 20
261.7778699490403
 30
0.0
 10
432.7199408819766
 20
261.7651223854722
 30
0.0
  0
SPLINE
  5
AE
330
1F
100
AcDbEntity
  8
0
  6
Continuous
 62
     7
370
    25
100
AcDbSpline
210
0.0
220
0.0
230
1.0
 70
     8
 71
     3
 72
    30
 73
    26
 74
     0
 42
0.000000001
 43
0.00000001
 40
0.0
 40
0.0
 40
0.0
 40
0.0
 40
0.1250000000000006
 40
0.1250000000000006
 40
0.1875000000000009
 40
0.1875000000000009
 40
0.2500000000000013
 40
0.2500000000000013
 40
0.3750000000000017
 40
0.3750000000000017
 40
0.437500000000002
 40
0.437500000000002
 40
0.5000000000000023
 40
0.5000000000000023
 40
0.6250000000000021
 40
0.6250000000000021
 40
0.6875000000000019
 40
0.6875000000000019
 40
0.7500000000000018
 40
0.7500000000000018
 40
0.8125000000000016
 40
0.8125000000000016
 40
0.8750000000000014
 40
0.8750000000000014
 40
1.0
 40
1.0
 40
1.0
 40
1.0
 10
432.7253616321057
 20
428.7966605290363
 30
0.0
 10
432.724930012283
 20
428.783986201827
 30
0.0
 10
432.724630656374
 20
428.6386330036664
 30
0.0
 10
432.7242391615803
 20
428.2292945434324
 30
0.0
 10
432.7241202693918
 20
428.0607331717085
 30
0.0
 10
432.7238991189
 20
427.657911287327
 30
0.0
 10
432.7237968495829
 20
427.4227104793948
 30
0.0
 10
432.723519910433
 20
426.6329104443392
 30
0.0
 10
432.7233721450335
 20
425.9913354108839
 30
0.0
 10
432.7232181110963
 20
424.8577963055901
 30
0.0
 10
432.7231781583424
 20
424.4498461191125
 30
0.0
 10
432.7231245883622
 20
423.5803214427092
 30
0.0
 10
432.7231111700556
 20
423.1231441716524
 30
0.0
 10
432.7231109220723
 20
421.6864773482328
 30
0.0
 10
432.7231644016501
 20
420.6424517826935
 30
0.0
 10
432.7233180902389
 20
418.9442846056953
 30
0.0
 10
432.723381679893
 20
418.3552131350322
 30
0.0
 10
432.7235279296606
 20
417.1581384422404
 30
0.0
 10
432.7236107769443
 20
416.5470705480386
 30
0.0
 10
432.7237940015755
 20
415.300297763217
 30
0.0
 10
432.7238943041684
 20
414.6645925214368
 30
0.0
 10
432.7241137887133
 20
413.3682724963579
 30
0.0
 10
432.7242332774727
 20
412.7054658263062
 30
0.0
 10
432.7246285449723
 20
410.6933907768613
 30
0.0
 10
432.7249300113504
 20
409.3368156916748
 30
0.0
 10
432.7253616321057
 20
407.9649856375661
 30
0.0
  0
LINE
  5
AF
330
1F
100
AcDbEntity
  8
0
  6
Continuous
 62
     7
370
    25
100
AcDbLine
 10
418.6991524903
 20
408.1996589663
 30
0.0
 11
418.6991524903
 21
282.3580413821
 31
0.0
  0
LINE
  5
B0
330
1F
100
AcDbEntity
  8
0
  6
Continuous
 62
     7
370
    25
100
AcDbLine
 10
433.2250065191
 20
388.7092530492
 30
0.0
 11
433.2644424422
 21
384.8288491133
 31
0.0
  0
LWPOLYLINE
  5
B1
330
1F
100
AcDbEntity
  8
0
  6
Continuous
 62
     7
370
    25
100
AcDbPolyline
 90
        3
 70
   128
 43
0.0
 10
433.2644424422
 20
384.8288491133
 10
433.2655441968
 20
384.6888527038
 10
433.2664075328
 20
384.5788486066
  0
SPLINE
  5
B2
330
1F
100
AcDbEntity
  8
0
  6
Continuous
 62
     7
370
    25
100
AcDbSpline
210
0.0
220
0.0
230
1.0
 70
     8
 71
     3
 72
    48
 73
    44
 74
     0
 42
0.000000001
 43
0.00000001
 40
0.0
 40
0.0
 40
0.0
 40
0.0
 40
0.0624999999999999
 40
0.0624999999999999
 40
0.1249999999999999
 40
0.1249999999999999
 40
0.1562499999999998
 40
0.1562499999999998
 40
0.1874999999999997
 40
0.1874999999999997
 40
0.2499999999999996
 40
0.2499999999999996
 40
0.2812499999999996
 40
0.2812499999999996
 40
0.3124999999999994
 40
0.3124999999999994
 40
0.3749999999999993
 40
0.3749999999999993
 40
0.4374999999999992
 40
0.4374999999999992
 40
0.4687499999999992
 40
0.4687499999999992
 40
0.4999999999999991
 40
0.4999999999999991
 40
0.5624999999999992
 40
0.5624999999999992
 40
0.6249999999999992
 40
0.6249999999999992
 40
0.6562499999999992
 40
0.6562499999999992
 40
0.6874999999999992
 40
0.6874999999999992
 40
0.7499999999999993
 40
0.7499999999999993
 40
0.8124999999999994
 40
0.8124999999999994
 40
0.8437499999999996
 40
0.8437499999999996
 40
0.8749999999999997
 40
0.8749999999999997
 40
0.9374999999999998
 40
0.9374999999999998
 40
1.0
 40
1.0
 40
1.0
 40
1.0
 10
433.3810983716182
 20
345.2788501742166
 30
0.0
 10
433.3784872866028
 20
346.1891150183681
 30
0.0
 10
433.3758698728278
 20
347.1366035228055
 30
0.0
 10
433.3708413105429
 20
349.1029991200289
 30
0.0
 10
433.3684292662267
 20
350.1219149908664
 30
0.0
 10
433.3650912478411
 20
351.7047415997375
 30
0.0
 10
433.3640224601636
 20
352.2428151006903
 30
0.0
 10
433.3620069971062
 20
353.3316485608538
 30
0.0
 10
433.3610664354277
 20
353.8789268076772
 30
0.0
 10
433.3584574058318
 20
355.5291242513638
 30
0.0
 10
433.3570023672834
 20
356.6403674927074
 30
0.0
 10
433.3552729299462
 20
358.3237543909395
 30
0.0
 10
433.3547717549527
 20
358.8876467909068
 30
0.0
 10
433.3539223479942
 20
360.0210541499659
 30
0.0
 10
433.3535734372902
 20
360.5921761189161
 30
0.0
 10
433.3527635910025
 20
362.3015454621669
 30
0.0
 10
433.3527248070384
 20
363.4324624408533
 30
0.0
 10
433.3510722712361
 20
365.6769358483534
 30
0.0
 10
433.3497869533898
 20
366.7805213280716
 30
0.0
 10
433.3472633102496
 20
368.4013633504596
 30
0.0
 10
433.3463154494004
 20
368.9370085203085
 30
0.0
 10
433.3441802379624
 20
369.9897229232151
 30
0.0
 10
433.3429928054757
 20
370.507580709363
 30
0.0
 10
433.3389342686692
 20
372.0357293895569
 30
0.0
 10
433.3352709255997
 20
373.0233541967481
 30
0.0
 10
433.3265661279652
 20
374.8871306537691
 30
0.0
 10
433.322150352062
 20
375.7690032521871
 30
0.0
 10
433.3155210925482
 20
377.0174852246078
 30
0.0
 10
433.3133108011549
 20
377.4212141058927
 30
0.0
 10
433.3089091587265
 20
378.203385079453
 30
0.0
 10
433.3067099286477
 20
378.5831402654735
 30
0.0
 10
433.3002368940369
 20
379.6731449739979
 30
0.0
 10
433.2961082620744
 20
380.331213282829
 30
0.0
 10
433.2884033998583
 20
381.5147993349181
 30
0.0
 10
433.2848270900399
 20
382.0403097828372
 30
0.0
 10
433.2800295024109
 20
382.7268259491849
 30
0.0
 10
433.2785196463106
 20
382.9393814639193
 30
0.0
 10
433.2757531239966
 20
383.3243753131447
 30
0.0
 10
433.2744940124195
 20
383.4971955377088
 30
0.0
 10
433.271106256577
 20
383.9581507573863
 30
0.0
 10
433.2693672071612
 20
384.1890445578996
 30
0.0
 10
433.2670181401875
 20
384.4993797224067
 30
0.0
 10
433.2664079692025
 20
384.5788501742165
 30
0.0
 10
433.2664079692025
 20
384.5788501742166
 30
0.0
  0
LINE
  5
B3
330
1F
100
AcDbEntity
  8
0
  6
Continuous
 62
     7
370
    25
100
AcDbLine
 10
432.7199409736
 20
261.7651208999
 30
0.0
 11
432.7182394473
 21
261.6607531669
 31
0.0
  0
LINE
  5
B4
330
1F
100
AcDbEntity
  8
0
  6
Continuous
 62
     7
370
    25
100
AcDbLine
 10
432.7157472281
 20
261.5083068373
 30
0.0
 11
432.7164820416
 21
261.5543216231
 31
0.0
  0
SPLINE
  5
B5
330
1F
100
AcDbEntity
  8
0
  6
Continuous
 62
     7
370
    25
100
AcDbSpline
210
0.0
220
0.0
230
1.0
 70
     8
 71
     3
 72
    15
 73
    11
 74
     0
 42
0.000000001
 43
0.00000001
 40
0.0
 40
0.0
 40
0.0
 40
0.0
 40
0.0100166264545753
 40
0.1955318857383528
 40
0.2854411469161817
 40
0.3303668324685456
 40
0.4202760788575876
 40
0.6005595676843868
 40
0.7860711522037381
 40
1.0
 40
1.0
 40
1.0
 40
1.0
 10
433.4087164161552
 20
335.5965859952253
 30
0.0
 10
433.408705997497
 20
335.5907213366581
 30
0.0
 10
433.4085026176573
 20
335.4762389054656
 30
0.0
 10
433.4090143533912
 20
335.8139196161384
 30
0.0
 10
433.4100305096796
 20
336.3190900969869
 30
0.0
 10
433.4104598839346
 20
336.7955652989413
 30
0.0
 10
433.409047301205
 20
337.5981391497082
 30
0.0
 10
433.4018085986791
 20
339.1670596592234
 30
0.0
 10
433.3920350377728
 20
341.7532080351018
 30
0.0
 10
433.3849126122109
 20
344.049188720638
 30
0.0
 10
433.381098045205
 20
345.2788501742166
 30
0.0
  0
ARC
  5
B6
330
1F
100
AcDbEntity
  8
0
  6
Continuous
 62
     7
370
    25
100
AcDbCircle
 10
431.7155870855
 20
429.0514951352
 30
0.0
 40
1.000000000000467
100
AcDbArc
 50
0.9609736019
 51
89.0
  0
SPLINE
  5
B7
330
1F
100
AcDbEntity
  8
0
  6
Continuous
 62
     7
370
    25
100
AcDbSpline
210
0.0
220
0.0
230
1.0
 70
     8
 71
     3
 72
     8
 73
     4
 74
     0
 42
0.000000001
 43
0.00000001
 40
0.0033194910093246
 40
0.0033194910093246
 40
0.0033194910093246
 40
0.0033194910093246
 40
0.6901881950548778
 40
0.6901881950548778
 40
0.6901881950548778
 40
0.6901881950548778
 10
478.1073298681313
 20
380.8376724671936
 30
0.0
 10
470.5525150192457
 20
381.9565692568015
 30
0.0
 10
462.9918690249281
 20
383.0729148726515
 30
0.0
 10
454.2188119321619
 20
383.6588207294444
 30
0.0
  0
LINE
  5
B8
330
1F
100
AcDbEntity
  8
0
  6
Continuous
 62
     7
370
    25
100
AcDbLine
 10
478.1073291806
 20
380.8376736703
 30
0.0
 11
478.1056118218
 21
380.8336503568
 31
0.0
  0
SPLINE
  5
B9
330
1F
100
AcDbEntity
  8
0
  6
Continuous
 62
     7
370
    25
100
AcDbSpline
210
0.0
220
0.0
230
1.0
 70
     8
 71
     3
 72
     8
 73
     4
 74
     0
 42
0.000000001
 43
0.00000001
 40
0.0
 40
0.0
 40
0.0
 40
0.0
 40
1.0
 40
1.0
 40
1.0
 40
1.0
 10
446.4482947230434
 20
362.3095001665103
 30
0.0
 10
446.0539469062684
 20
361.2260384445098
 30
0.0
 10
445.7548265499567
 20
360.1149425682969
 30
0.0
 10
445.5519145064193
 20
358.9754827443321
 30
0.0
  0
SPLINE
  5
BA
330
1F
100
AcDbEntity
  8
0
  6
Continuous
 62
     7
370
    25
100
AcDbSpline
210
0.0
220
0.0
230
1.0
 70
     8
 71
     3
 72
    34
 73
    30
 74
     0
 42
0.000000001
 43
0.00000001
 40
0.0
 40
0.0
 40
0.0
 40
0.0
 40
0.1249999999999989
 40
0.1249999999999989
 40
0.2499999999999978
 40
0.2499999999999978
 40
0.3124999999999972
 40
0.3124999999999972
 40
0.3749999999999966
 40
0.3749999999999966
 40
0.4374999999999961
 40
0.4374999999999961
 40
0.4687499999999959
 40
0.4687499999999959
 40
0.4999999999999959
 40
0.4999999999999959
 40
0.6249999999999967
 40
0.6249999999999967
 40
0.656249999999997
 40
0.656249999999997
 40
0.6874999999999974
 40
0.6874999999999974
 40
0.749999999999998
 40
0.749999999999998
 40
0.8124999999999986
 40
0.8124999999999986
 40
0.8749999999999991
 40
0.8749999999999991
 40
1.0
 40
1.0
 40
1.0
 40
1.0
 10
454.2188119322007
 20
383.6588207300269
 30
0.0
 10
454.2188167828786
 20
383.6588340571549
 30
0.0
 10
454.1890517410194
 20
383.5770552828844
 30
0.0
 10
454.0570291044389
 20
383.2143260700225
 30
0.0
 10
453.9548270192572
 20
382.9335281487645
 30
0.0
 10
453.7327509373681
 20
382.3233791283731
 30
0.0
 10
453.6470669630345
 20
382.0879643436826
 30
0.0
 10
453.4505920858782
 20
381.5481540552055
 30
0.0
 10
453.3404369260411
 20
381.2455052409166
 30
0.0
 10
453.0926596825346
 20
380.564742859328
 30
0.0
 10
452.9550446900315
 20
380.1866487748471
 30
0.0
 10
452.7253966126338
 20
379.5556958677757
 30
0.0
 10
452.6449674525145
 20
379.3347185664821
 30
0.0
 10
452.4758885871581
 20
378.8701782018086
 30
0.0
 10
452.3873215083611
 20
378.626842152707
 30
0.0
 10
451.9311737128879
 20
377.3735863847104
 30
0.0
 10
451.5187033503784
 20
376.2403333775212
 30
0.0
 10
450.9495351439546
 20
374.6765565825005
 30
0.0
 10
450.8326396646189
 20
374.355388892589
 30
0.0
 10
450.5957053217006
 20
373.7044171355276
 30
0.0
 10
450.4758419967303
 20
373.3750953567509
 30
0.0
 10
450.1124165285548
 20
372.3765920892839
 30
0.0
 10
449.8650441237708
 20
371.6969419929439
 30
0.0
 10
449.3617352800733
 20
370.3141123098733
 30
0.0
 10
449.105791373596
 20
369.61091220618
 30
0.0
 10
448.5864620021721
 20
368.1840664849336
 30
0.0
 10
448.3226557654966
 20
367.459264806556
 30
0.0
 10
447.5240401626673
 20
365.2650864709584
 30
0.0
 10
446.9879111974385
 20
363.7920842450766
 30
0.0
 10
446.4482947230434
 20
362.3095001665103
 30
0.0
  0
SPLINE
  5
BB
330
1F
100
AcDbEntity
  8
0
  6
Continuous
 62
     7
370
    25
100
AcDbSpline
210
0.0
220
0.0
230
1.0
 70
     8
 71
     3
 72
     8
 73
     4
 74
     0
 42
0.000000001
 43
0.00000001
 40
0.0
 40
0.0
 40
0.0
 40
0.0
 40
1.0
 40
1.0
 40
1.0
 40
1.0
 10
445.5519145064192
 20
358.9754827443321
 30
0.0
 10
445.3442829138044
 20
357.8095201240455
 30
0.0
 10
445.2421471387615
 20
356.6405232000291
 30
0.0
 10
445.2421471387615
 20
355.4690972999969
 30
0.0
  0
SPLINE
  5
BC
330
1F
100
AcDbEntity
  8
0
  6
Continuous
 62
     7
370
    25
100
AcDbSpline
210
0.0
220
0.0
230
1.0
 70
    24
 71
     3
 72
    18
 73
    14
 74
     0
 42
0.000000001
 43
0.00000001
 40
0.0
 40
0.0
 40
0.0
 40
0.0
 40
0.2500000000000001
 40
0.2500000000000001
 40
0.3750000000000002
 40
0.3750000000000002
 40
0.5000000000000001
 40
0.5000000000000001
 40
0.7500000000000001
 40
0.7500000000000001
 40
0.8749999999999999
 40
0.8749999999999999
 40
1.0
 40
1.0
 40
1.0
 40
1.0
 10
445.2421471387614
 20
342.4040300192081
 30
0.0
 10
445.2421471387615
 20
343.3291690178739
 30
0.0
 10
445.2421471387615
 20
344.3060506265417
 30
0.0
 10
445.2421471387615
 20
345.8483170961176
 30
0.0
 10
445.2421471387615
 20
346.3768334829628
 30
0.0
 10
445.2421471387615
 20
347.4490654545867
 30
0.0
 10
445.2421471387614
 20
347.9924201195039
 30
0.0
 10
445.2421471387614
 20
349.6430794962619
 30
0.0
 10
445.2421471387615
 20
350.7707860692778
 30
0.0
 10
445.2421471387615
 20
352.5024928318534
 30
0.0
 10
445.2421471387614
 20
353.0864697245005
 30
0.0
 10
445.2421471387614
 20
354.2683118622667
 30
0.0
 10
445.2421471387615
 20
354.8679051604428
 30
0.0
 10
445.2421471387615
 20
355.4690972999966
 30
0.0
  0
LINE
  5
BD
330
1F
100
AcDbEntity
  8
0
  6
Continuous
 62
     7
370
    25
100
AcDbLine
 10
473.5042561797
 20
333.4037534657
 30
0.0
 11
475.1283486394
 21
278.3783510092
 31
0.0
  0
SPLINE
  5
BE
330
1F
100
AcDbEntity
  8
0
  6
Continuous
 62
     7
370
    25
100
AcDbSpline
210
0.0
220
0.0
230
1.0
 70
     8
 71
     3
 72
    14
 73
    10
 74
     0
 42
0.000000001
 43
0.00000001
 40
0.0
 40
0.0
 40
0.0
 40
0.0
 40
0.25
 40
0.25
 40
0.5
 40
0.5
 40
0.75
 40
0.75
 40
1.0
 40
1.0
 40
1.0
 40
1.0
 10
478.1073298681312
 20
380.8376724671936
 30
0.0
 10
478.2676008135225
 20
380.8139357311051
 30
0.0
 10
478.433057336717
 20
380.763571733049
 30
0.0
 10
478.7470999649448
 20
380.6042248893011
 30
0.0
 10
478.895152167498
 20
380.4951369092381
 30
0.0
 10
479.1456214686936
 20
380.2321853724088
 30
0.0
 10
479.2476300037252
 20
380.078750740181
 30
0.0
 10
479.3924247225927
 20
379.7563938980984
 30
0.0
 10
479.4353383562786
 20
379.5880035309708
 30
0.0
 10
479.4520197329937
 20
379.4259694567394
 30
0.0
  0
LINE
  5
BF
330
1F
100
AcDbEntity
  8
0
  6
Continuous
 62
     7
370
    25
100
AcDbLine
 10
479.3708992211
 20
264.5252853396
 30
0.0
 11
479.3710407821
 21
264.5226105812
 31
0.0
  0
SPLINE
  5
C0
330
1F
100
AcDbEntity
  8
0
  6
Continuous
 62
     7
370
    25
100
AcDbSpline
210
0.0
220
0.0
230
1.0
 70
     8
 71
     3
 72
    14
 73
    10
 74
     0
 42
0.000000001
 43
0.00000001
 40
0.0
 40
0.0
 40
0.0
 40
0.0
 40
0.25
 40
0.25
 40
0.5
 40
0.5
 40
0.75
 40
0.75
 40
1.0
 40
1.0
 40
1.0
 40
1.0
 10
480.8195356570301
 20
265.8263394112377
 30
0.0
 10
480.8075456023565
 20
265.6638865240684
 30
0.0
 10
480.7657994617919
 20
265.4913902506472
 30
0.0
 10
480.6107119419399
 20
265.162509019852
 30
0.0
 10
480.497043077771
 20
265.0071051266452
 30
0.0
 10
480.2163698606778
 20
264.7544818262166
 30
0.0
 10
480.0502221975525
 20
264.6580334976996
 30
0.0
 10
479.7080381842913
 20
264.5393396852948
 30
0.0
 10
479.5329353694822
 20
264.5166586212119
 30
0.0
 10
479.3710439386876
 20
264.522607627071
 30
0.0
  0
SPLINE
  5
C1
330
1F
100
AcDbEntity
  8
0
  6
Continuous
 62
     7
370
    25
100
AcDbSpline
210
0.0
220
0.0
230
1.0
 70
    24
 71
     3
 72
    15
 73
    11
 74
     0
 42
0.000000001
 43
0.00000001
 40
0.0
 40
0.0
 40
0.0
 40
0.0
 40
0.25
 40
0.25
 40
0.5
 40
0.5
 40
0.75
 40
0.75
 40
0.8125
 40
1.0
 40
1.0
 40
1.0
 40
1.0
 10
475.1283478223568
 20
278.3783514852908
 30
0.0
 10
475.1630352344133
 20
277.2031178537821
 30
0.0
 10
475.1960232597099
 20
276.0854606269309
 30
0.0
 10
475.2559639970362
 20
274.054626781824
 30
0.0
 10
475.2829167090659
 20
273.1414501635685
 30
0.0
 10
475.3281502801112
 20
271.6089053349348
 30
0.0
 10
475.3464311391268
 20
270.9895371245564
 30
0.0
 10
475.3622144674205
 20
270.4547869910576
 30
0.0
 10
475.3734275809604
 20
270.0748789101533
 30
0.0
 10
475.3786569306511
 20
269.8977049077384
 30
0.0
 10
475.3786569306511
 20
269.8977049077384
 30
0.0
  0
LINE
  5
C2
330
1F
100
AcDbEntity
  8
0
  6
Continuous
 62
     7
370
    25
100
AcDbLine
 10
481.0810347108
 20
278.4270554545
 30
0.0
 11
480.2421477644
 21
358.9771672848
 31
0.0
  0
SPLINE
  5
C3
330
1F
100
AcDbEntity
  8
0
  6
Continuous
 62
     7
370
    25
100
AcDbSpline
210
0.0
220
0.0
230
1.0
 70
     8
 71
     3
 72
     9
 73
     5
 74
     0
 42
0.000000001
 43
0.00000001
 40
0.07010432825492
 40
0.07010432825492
 40
0.07010432825492
 40
0.07010432825492
 40
0.5
 40
1.0
 40
1.0
 40
1.0
 40
1.0
 10
479.4520197329961
 20
379.4259694567156
 30
0.0
 10
479.7488756177041
 20
376.5424683356557
 30
0.0
 10
480.1283527389098
 20
369.9037023927079
 30
0.0
 10
480.2023559840289
 20
362.7979128495651
 30
0.0
 10
480.2421471387614
 20
358.9771672761356
 30
0.0
  0
SPLINE
  5
C4
330
1F
100
AcDbEntity
  8
0
  6
Continuous
 62
     7
370
    25
100
AcDbSpline
210
0.0
220
0.0
230
1.0
 70
     8
 71
     3
 72
     9
 73
     5
 74
     0
 42
0.000000001
 43
0.00000001
 40
0.0
 40
0.0
 40
0.0
 40
0.0
 40
0.8264471523386152
 40
1.0
 40
1.0
 40
1.0
 40
1.0
 10
451.7729465870012
 20
333.6911773073357
 30
0.0
 10
451.8024718543197
 20
333.696565002428
 30
0.0
 10
451.8381973901087
 20
333.7030841066163
 30
0.0
 10
452.0279115828707
 20
333.7337311925946
 30
0.0
 10
452.0608370212663
 20
333.7390500816387
 30
0.0
  0
SPLINE
  5
C5
330
1F
100
AcDbEntity
  8
0
  6
Continuous
 62
     7
370
    25
100
AcDbSpline
210
0.0
220
0.0
230
1.0
 70
     8
 71
     3
 72
     9
 73
     5
 74
     0
 42
0.000000001
 43
0.00000001
 40
0.0
 40
0.0
 40
0.0
 40
0.0
 40
0.9534598707446061
 40
0.9999999999999999
 40
0.9999999999999999
 40
0.9999999999999999
 40
0.9999999999999999
 10
459.4260674921621
 20
333.7390500816387
 30
0.0
 10
459.6081269748714
 20
333.7084224907239
 30
0.0
 10
459.7990731156536
 20
333.6762999107869
 30
0.0
 10
459.7161946018904
 20
333.6903706478352
 30
0.0
 10
459.7123374251474
 20
333.6910255017561
 30
0.0
  0
SPLINE
  5
C6
330
1F
100
AcDbEntity
  8
0
  6
Continuous
 62
     7
370
    25
100
AcDbSpline
210
0.0
220
0.0
230
1.0
 70
     8
 71
     3
 72
    32
 73
    28
 74
     0
 42
0.000000001
 43
0.00000001
 40
0.0
 40
0.0
 40
0.0
 40
0.0
 40
0.1250000000000011
 40
0.1250000000000011
 40
0.1875000000000009
 40
0.1875000000000009
 40
0.2500000000000007
 40
0.2500000000000007
 40
0.3125000000000004
 40
0.3125000000000004
 40
0.3750000000000003
 40
0.3750000000000003
 40
0.500000000000002
 40
0.500000000000002
 40
0.5625000000000018
 40
0.5625000000000018
 40
0.6250000000000014
 40
0.6250000000000014
 40
0.6875000000000012
 40
0.6875000000000012
 40
0.750000000000001
 40
0.750000000000001
 40
0.8125000000000008
 40
0.8125000000000008
 40
0.8750000000000004
 40
0.8750000000000004
 40
1.0
 40
1.0
 40
1.0
 40
1.0
 10
452.0608365854524
 20
333.739050174227
 30
0.0
 10
452.2148486637897
 20
333.7621896476594
 30
0.0
 10
452.4172385503412
 20
333.7912728709954
 30
0.0
 10
452.791800115199
 20
333.8383668931204
 30
0.0
 10
452.928782536971
 20
333.8546311060613
 30
0.0
 10
453.2181229118747
 20
333.8862703346363
 30
0.0
 10
453.3714800848954
 20
333.9017787874464
 30
0.0
 10
453.69568575054
 20
333.9312001585002
 30
0.0
 10
453.8680643310001
 20
333.9452106613716
 30
0.0
 10
454.2216794568244
 20
333.9699563383857
 30
0.0
 10
454.403112327909
 20
333.9807439318451
 30
0.0
 10
454.9611204546486
 20
334.0073899295085
 30
0.0
 10
455.3560075889264
 20
334.0172973192019
 30
0.0
 10
455.9392173839038
 20
334.0174383040624
 30
0.0
 10
456.1334280834638
 20
334.0151474726237
 30
0.0
 10
456.521454305536
 20
334.0059136574129
 30
0.0
 10
456.7140856241695
 20
333.9989598300012
 30
0.0
 10
457.0865068813131
 20
333.9812932900356
 30
0.0
 10
457.267809476881
 20
333.9705486952377
 30
0.0
 10
457.6205765628957
 20
333.9459060761128
 30
0.0
 10
457.7930054844236
 20
333.931898017266
 30
0.0
 10
458.1174963243132
 20
333.9024087968525
 30
0.0
 10
458.2707415341993
 20
333.8868655212013
 30
0.0
 10
458.5594881233752
 20
333.8551722401713
 30
0.0
 10
458.6958372605331
 20
333.8389098333476
 30
0.0
 10
459.0706562905916
 20
333.7915278096795
 30
0.0
 10
459.2726637950513
 20
333.7622801953064
 30
0.0
 10
459.4260674228221
 20
333.739050174227
 30
0.0
  0
SPLINE
  5
C7
330
1F
100
AcDbEntity
  8
0
  6
Continuous
 62
     7
370
    25
100
AcDbSpline
210
0.0
220
0.0
230
1.0
 70
    24
 71
     3
 72
    13
 73
     9
 74
     0
 42
0.000000001
 43
0.00000001
 40
0.0
 40
0.0
 40
0.0
 40
0.0
 40
0.1527679984061586
 40
0.3478034443344588
 40
0.5428407948703139
 40
0.737842603697083
 40
0.9328463763995879
 40
1.0
 40
1.0
 40
1.0
 40
1.0
 10
445.2421476153482
 20
333.7518688055557
 30
0.0
 10
445.2421476153482
 20
333.7683584484626
 30
0.0
 10
445.2421476153482
 20
333.8059000452544
 30
0.0
 10
445.2421476153482
 20
334.7102252467689
 30
0.0
 10
445.2421476153481
 20
336.2649688909198
 30
0.0
 10
445.2421476153482
 20
338.4882576899884
 30
0.0
 10
445.2421476153482
 20
340.6422832687817
 30
0.0
 10
445.2421476153481
 20
342.0445656430528
 30
0.0
 10
445.2421476153482
 20
342.4037710062099
 30
0.0
  0
LINE
  5
C8
330
1F
100
AcDbEntity
  8
0
  6
Continuous
 62
     7
370
    25
100
AcDbLine
 10
452.0608370213
 20
333.7390500816
 30
0.0
 11
459.4260674922
 21
333.7390500816
 31
0.0
  0
SPLINE
  5
C9
330
1F
100
AcDbEntity
  8
0
  6
Continuous
 62
     8
370
    18
100
AcDbSpline
210
0.0
220
0.0
230
1.0
 70
     8
 71
     3
 72
    30
 73
    26
 74
     0
 42
0.000000001
 43
0.00000001
 40
0.0
 40
0.0
 40
0.0
 40
0.0
 40
0.1250000000000011
 40
0.1250000000000011
 40
0.1875000000000017
 40
0.1875000000000017
 40
0.2500000000000022
 40
0.2500000000000022
 40
0.3125000000000028
 40
0.3125000000000028
 40
0.3750000000000033
 40
0.3750000000000033
 40
0.5000000000000034
 40
0.5000000000000034
 40
0.5625000000000034
 40
0.5625000000000034
 40
0.6250000000000034
 40
0.6250000000000034
 40
0.7500000000000026
 40
0.7500000000000026
 40
0.8125000000000016
 40
0.8125000000000016
 40
0.8750000000000006
 40
0.8750000000000006
 40
1.0
 40
1.0
 40
1.0
 40
1.0
 10
431.7375274717257
 20
260.7816828325346
 30
0.0
 10
431.7379927543257
 20
260.794299627179
 30
0.0
 10
431.7385071645285
 20
260.9460292073164
 30
0.0
 10
431.7392062500207
 20
261.3813806262015
 30
0.0
 10
431.7394273918339
 20
261.5607419822808
 30
0.0
 10
431.7398326858272
 20
261.9823627525101
 30
0.0
 10
431.7400177270368
 20
262.2250809349773
 30
0.0
 10
431.7403490191002
 20
262.773630067919
 30
0.0
 10
431.7404953389936
 20
263.0794601386214
 30
0.0
 10
431.7407475369334
 20
263.7553141520987
 30
0.0
 10
431.7408538317952
 20
264.1276737095362
 30
0.0
 10
431.7411057501062
 20
265.3234861942581
 30
0.0
 10
431.7411869119366
 20
266.2247422617945
 30
0.0
 10
431.741183347053
 20
267.7294320966931
 30
0.0
 10
431.741161088368
 20
268.2566401567493
 30
0.0
 10
431.7410727721021
 20
269.3640091770077
 30
0.0
 10
431.7410069849162
 20
269.9389322178658
 30
0.0
 10
431.7407475529659
 20
271.7087448005597
 30
0.0
 10
431.7404911700638
 20
272.9551659376125
 30
0.0
 10
431.7399823123018
 20
274.9254392804127
 30
0.0
 10
431.73979074348
 20
275.6027448861925
 30
0.0
 10
431.739376437797
 20
276.9668137010842
 30
0.0
 10
431.7391534567716
 20
277.6548989641383
 30
0.0
 10
431.7384516887631
 20
279.7369028042745
 30
0.0
 10
431.7379329144314
 20
281.1483992823235
 30
0.0
 10
431.7374581414256
 20
282.5843434272019
 30
0.0
  0
SPLINE
  5
CA
330
1F
100
AcDbEntity
  8
0
  6
Continuous
 62
     8
370
    18
100
AcDbSpline
210
0.0
220
0.0
230
1.0
 70
     8
 71
     3
 72
    30
 73
    26
 74
     0
 42
0.000000001
 43
0.00000001
 40
0.0
 40
0.0
 40
0.0
 40
0.0
 40
0.1249999999999998
 40
0.1249999999999998
 40
0.1874999999999999
 40
0.1874999999999999
 40
0.2499999999999999
 40
0.2499999999999999
 40
0.3124999999999999
 40
0.3124999999999999
 40
0.3749999999999999
 40
0.3749999999999999
 40
0.5
 40
0.5
 40
0.5624999999999996
 40
0.5624999999999996
 40
0.6249999999999991
 40
0.6249999999999991
 40
0.7499999999999988
 40
0.7499999999999988
 40
0.8124999999999993
 40
0.8124999999999993
 40
0.8749999999999999
 40
0.8749999999999999
 40
1.0
 40
1.0
 40
1.0
 40
1.0
 10
431.7430252837568
 20
407.9732602934794
 30
0.0
 10
431.7436997948152
 20
409.4092044733725
 30
0.0
 10
431.744385575096
 20
410.8292158623954
 30
0.0
 10
431.74529202487
 20
412.935438383257
 30
0.0
 10
431.7455735504691
 20
413.629258494311
 30
0.0
 10
431.7460834215942
 20
414.9862282639515
 30
0.0
 10
431.7463128921038
 20
415.651674196168
 30
0.0
 10
431.7467200175524
 20
416.9567753935362
 30
0.0
 10
431.7468977486594
 20
417.596431017881
 30
0.0
 10
431.747202155181
 20
418.8495098399817
 30
0.0
 10
431.7473293269633
 20
419.4661436529536
 30
0.0
 10
431.7476300203543
 20
421.2437360918412
 30
0.0
 10
431.7477262283064
 20
422.3365625231298
 30
0.0
 10
431.7477257690945
 20
423.8403448158543
 30
0.0
 10
431.7477011551201
 20
424.3188723095046
 30
0.0
 10
431.7476006339192
 20
425.2289863492053
 30
0.0
 10
431.7475250207297
 20
425.6559677595055
 30
0.0
 10
431.7472233749762
 20
426.8423342653128
 30
0.0
 10
431.7469221096741
 20
427.5137417226096
 30
0.0
 10
431.7463064577212
 20
428.3401212857132
 30
0.0
 10
431.746072318761
 20
428.586186385584
 30
0.0
 10
431.7455583732853
 20
429.0075303243367
 30
0.0
 10
431.7452783136247
 20
429.1837937083343
 30
0.0
 10
431.744381133743
 20
429.6116584550181
 30
0.0
 10
431.7436997942299
 20
429.7633019794022
 30
0.0
 10
431.7430252837568
 20
429.7759223854303
 30
0.0
  0
SPLINE
  5
CB
330
1F
100
AcDbEntity
  8
0
  6
Continuous
 62
     8
370
    18
100
AcDbSpline
210
0.0
220
0.0
230
1.0
 70
     8
 71
     3
 72
    12
 73
     8
 74
     0
 42
0.000000001
 43
0.00000001
 40
0.0
 40
0.0
 40
0.0
 40
0.0
 40
0.1249999999999998
 40
0.1249999999999998
 40
0.2499999999999997
 40
0.4999999999999997
 40
1.0
 40
1.0
 40
1.0
 40
1.0
 10
431.7374581414256
 20
282.5843434272018
 30
0.0
 10
431.7386854116496
 20
285.1965643846362
 30
0.0
 10
431.736963392345
 20
287.8087912038447
 30
0.0
 10
431.7362806087895
 20
293.0332578397768
 30
0.0
 10
431.7353297769511
 20
300.8699766913524
 30
0.0
 10
431.7336240857321
 20
319.1557862941676
 30
0.0
 10
431.7330394919866
 20
334.8295641492989
 30
0.0
 10
431.7330394919867
 20
345.2788501742166
 30
0.0
  0
SPLINE
  5
CC
330
1F
100
AcDbEntity
  8
0
  6
Continuous
 62
     8
370
    18
100
AcDbSpline
210
0.0
220
0.0
230
1.0
 70
     8
 71
     3
 72
    12
 73
     8
 74
     0
 42
0.000000001
 43
0.00000001
 40
0.0
 40
0.0
 40
0.0
 40
0.0
 40
0.5000000000000002
 40
0.7500000000000003
 40
0.8750000000000001
 40
0.8750000000000001
 40
1.0
 40
1.0
 40
1.0
 40
1.0
 10
432.7154464362821
 20
345.2788501742166
 30
0.0
 10
432.715446436282
 20
334.8309245315723
 30
0.0
 10
432.7160310192907
 20
319.1591874712206
 30
0.0
 10
432.7177367209518
 20
300.8757591939774
 30
0.0
 10
432.7186875673431
 20
293.040060997209
 30
0.0
 10
432.7193703634321
 20
287.8162748172378
 30
0.0
 10
432.7210775855772
 20
285.204384266431
 30
0.0
 10
432.7198723373032
 20
282.592509492447
 30
0.0
  0
SPLINE
  5
CD
330
1F
100
AcDbEntity
  8
0
  6
Continuous
 62
     8
370
    18
100
AcDbSpline
210
0.0
220
0.0
230
1.0
 70
     8
 71
     3
 72
    14
 73
    10
 74
     0
 42
0.000000001
 43
0.00000001
 40
0.0
 40
0.0
 40
0.0
 40
0.0
 40
0.4999999999999999
 40
0.4999999999999999
 40
0.75
 40
0.75
 40
0.875
 40
0.875
 40
1.0
 40
1.0
 40
1.0
 40
1.0
 10
431.7330394919867
 20
345.2788501742165
 30
0.0
 10
431.7330394919867
 20
355.7281204490374
 30
0.0
 10
431.7337348869966
 20
366.1772897938575
 30
0.0
 10
431.7360711567241
 20
381.8508923614638
 30
0.0
 10
431.7370725202594
 20
387.0754013073009
 30
0.0
 10
431.7390215638083
 20
394.9121268340536
 30
0.0
 10
431.7397464180062
 20
397.5243623608062
 30
0.0
 10
431.7413753291279
 20
402.7488207763921
 30
0.0
 10
431.743871957207
 20
405.3610432894548
 30
0.0
 10
431.7430252837568
 20
407.9732602934794
 30
0.0
  0
SPLINE
  5
CE
330
1F
100
AcDbEntity
  8
0
  6
Continuous
 62
     8
370
    18
100
AcDbSpline
210
0.0
220
0.0
230
1.0
 70
     8
 71
     3
 72
    13
 73
     9
 74
     0
 42
0.000000001
 43
0.00000001
 40
0.0
 40
0.0
 40
0.0
 40
0.0
 40
0.1249999999999998
 40
0.1249999999999998
 40
0.2499999999999997
 40
0.4999999999999997
 40
0.4999999999999997
 40
1.0
 40
1.0
 40
1.0
 40
1.0
 10
432.7253616321057
 20
407.9649856375659
 30
0.0
 10
432.7261834073668
 20
405.3531186523322
 30
0.0
 10
432.7237173906584
 20
402.7412345731127
 30
0.0
 10
432.7221012782171
 20
397.517463242786
 30
0.0
 10
432.7199450614031
 20
389.6817879304595
 30
0.0
 10
432.7184546281441
 20
381.8460575870843
 30
0.0
 10
432.7161364064852
 20
366.1745233715869
 30
0.0
 10
432.7154464362821
 20
355.7267358148478
 30
0.0
 10
432.7154464362822
 20
345.2788501742166
 30
0.0
  0
SPLINE
  5
CF
330
1F
100
AcDbEntity
  8
0
  6
Continuous
 62
     8
370
    18
100
AcDbSpline
210
0.0
220
0.0
230
1.0
 70
    24
 71
     3
 72
     9
 73
     5
 74
     0
 42
0.000000001
 43
0.00000001
 40
0.2322677888640854
 40
0.2322677888640854
 40
0.2322677888640854
 40
0.2322677888640854
 40
0.7210680517810457
 40
0.9888002629169603
 40
0.9888002629169603
 40
0.9888002629169603
 40
0.9888002629169603
 10
432.7154464362822
 20
345.2788501742166
 30
0.0
 10
432.9510830024349
 20
345.2788501742166
 30
0.0
 10
433.2207642473547
 20
345.2788501742166
 30
0.0
 10
433.3508427445486
 20
345.2788501742166
 30
0.0
 10
433.3799048419198
 20
345.2788501742166
 30
0.0
  0
LINE
  5
D0
330
1F
100
AcDbEntity
  8
0
  6
Continuous
 62
     8
370
    18
100
AcDbLine
 10
433.379905021
 20
345.2788501742
 30
0.0
 11
433.3810980452
 21
345.2788501742
 31
0.0
  0
LINE
  5
D1
330
1F
100
AcDbEntity
  8
0
  6
Continuous
 62
     8
370
    18
100
AcDbLine
 10
431.7330398617
 20
260.5063676598
 30
0.0
 11
431.7375279052
 21
260.7816815141
 31
0.0
  0
SPLINE
  5
D2
330
1F
100
AcDbEntity
  8
0
  6
Continuous
 62
     8
370
    18
100
AcDbSpline
210
0.0
220
0.0
230
1.0
 70
     8
 71
     3
 72
    13
 73
     9
 74
     0
 42
0.000000001
 43
0.00000001
 40
0.0
 40
0.0
 40
0.0
 40
0.0
 40
0.1250000000000002
 40
0.1250000000000002
 40
0.2500000000000003
 40
0.5000000000000003
 40
0.5000000000000003
 40
1.0
 40
1.0
 40
1.0
 40
1.0
 10
431.7430252837568
 20
429.7759223854299
 30
0.0
 10
431.743871957207
 20
429.7988447869781
 30
0.0
 10
431.7413753291279
 20
429.8203919405748
 30
0.0
 10
431.7397464180062
 20
429.8605603622616
 30
0.0
 10
431.737573202027
 20
429.9165075290278
 30
0.0
 10
431.7360711567241
 20
429.9595408640251
 30
0.0
 10
431.7337348869966
 20
430.0283931804275
 30
0.0
 10
431.7330394919867
 20
430.0513428303354
 30
0.0
 10
431.7330394919867
 20
430.0513428303354
 30
0.0
  0
SPLINE
  5
D3
330
1F
100
AcDbEntity
  8
0
  6
Continuous
 62
     8
370
    18
100
AcDbSpline
210
0.0
220
0.0
230
1.0
 70
     8
 71
     3
 72
    19
 73
    15
 74
     0
 42
0.000000001
 43
0.00000001
 40
0.0
 40
0.0
 40
0.0
 40
0.0
 40
0.2301772645281323
 40
0.2914379275546894
 40
0.3557299071197546
 40
0.4222453527345307
 40
0.4900776028119259
 40
0.5584003645921004
 40
0.6261966478435693
 40
0.6936616484683664
 40
0.7587359472183608
 40
0.840626943743443
 40
0.9202903974208435
 40
1.0
 40
1.0
 40
1.0
 40
1.0
 10
478.1056118218053
 20
380.8336503567976
 30
0.0
 10
478.0909701636356
 20
380.8144725935211
 30
0.0
 10
478.0724316927676
 20
380.7901907531931
 30
0.0
 10
478.0186262586723
 20
380.5986070750002
 30
0.0
 10
477.9984065630394
 20
380.2292858511037
 30
0.0
 10
477.9873272059268
 20
379.3927944150482
 30
0.0
 10
477.988015118971
 20
377.9963928156688
 30
0.0
 10
478.0050876072627
 20
376.0750611407806
 30
0.0
 10
478.0366907710066
 20
373.7517375761771
 30
0.0
 10
478.0777836356376
 20
371.2092908911744
 30
0.0
 10
478.1279419987022
 20
368.3752499711323
 30
0.0
 10
478.1790997943137
 20
365.3618942732978
 30
0.0
 10
478.2267894749309
 20
362.1566806710061
 30
0.0
 10
478.2522099456278
 20
360.0386474785104
 30
0.0
 10
478.264923861419
 20
358.9793242278379
 30
0.0
  0
SPLINE
  5
D4
330
1F
100
AcDbEntity
  8
0
  6
Continuous
 62
     8
370
    18
100
AcDbSpline
210
0.0
220
0.0
230
1.0
 70
     8
 71
     3
 72
    10
 73
     6
 74
     0
 42
0.000000001
 43
0.00000001
 40
0.0
 40
0.0
 40
0.0
 40
0.0
 40
0.5
 40
0.5
 40
1.0
 40
1.0
 40
1.0
 40
1.0
 10
478.4556329082999
 20
338.5349082734833
 30
0.0
 10
478.4211471677122
 20
341.9384151787736
 30
0.0
 10
478.3825428509198
 20
345.3513858306454
 30
0.0
 10
478.3255017830003
 20
352.1634435066648
 30
0.0
 10
478.3043249404482
 20
355.5688372309867
 30
0.0
 10
478.2651509849726
 20
358.977103289586
 30
0.0
  0
SPLINE
  5
D5
330
1F
100
AcDbEntity
  8
0
  6
Continuous
 62
     8
370
    18
100
AcDbSpline
210
0.0
220
0.0
230
1.0
 70
     8
 71
     3
 72
    43
 73
    39
 74
     0
 42
0.000000001
 43
0.00000001
 40
0.0
 40
0.0
 40
0.0
 40
0.0
 40
0.0204919679915712
 40
0.0406923901037182
 40
0.0606062499769112
 40
0.080231569286752
 40
0.0995647002930013
 40
0.1406364942791546
 40
0.1800522813730642
 40
0.2072212359984368
 40
0.2339283897349816
 40
0.2861582650740569
 40
0.3116010102370119
 40
0.3493626378633254
 40
0.3743144319154244
 40
0.3867421576790522
 40
0.4372352049888034
 40
0.4624295980724533
 40
0.4750265617218748
 40
0.5002004573432404
 40
0.5380026724469484
 40
0.5886835718916881
 40
0.6294498700092193
 40
0.6705206584284891
 40
0.6981417616756456
 40
0.7249489933276221
 40
0.7451945781311583
 40
0.7519468018603922
 40
0.7654886522941674
 40
0.8065206579709938
 40
0.8194109453858281
 40
0.8453766004105421
 40
0.86504491155556
 40
0.8716358216910504
 40
0.8845541202065702
 40
0.9109965148211671
 40
0.9550742986837379
 40
1.0
 40
1.0
 40
1.0
 40
1.0
 10
478.4559827971635
 20
338.5349224421313
 30
0.0
 10
478.3881030784636
 20
338.5315627571244
 30
0.0
 10
478.2533093878528
 20
338.5248911864393
 30
0.0
 10
478.0534385357417
 20
338.5068742030113
 30
0.0
 10
477.8575189381067
 20
338.4832016765665
 30
0.0
 10
477.6659194613447
 20
338.4534690515289
 30
0.0
 10
477.4079882273062
 20
338.4045668710236
 30
0.0
 10
477.0920442172968
 20
338.3268334688085
 30
0.0
 10
476.7630777402007
 20
338.2195712046761
 30
0.0
 10
476.4885343262
 20
338.1106708033742
 30
0.0
 10
476.1870817284226
 20
337.972875639087
 30
0.0
 10
475.9072459807692
 20
337.8182156773368
 30
0.0
 10
475.618414218237
 20
337.6302973589789
 30
0.0
 10
475.4106841313662
 20
337.4771146507414
 30
0.0
 10
475.2448463477521
 20
337.3397405047493
 30
0.0
 10
475.0586869495536
 20
337.1749289936501
 30
0.0
 10
474.8849901900912
 20
337.0029406241017
 30
0.0
 10
474.726398312789
 20
336.8249974913413
 30
0.0
 10
474.61865199013
 20
336.6963129704901
 30
0.0
 10
474.4956751167743
 20
336.5399492734084
 30
0.0
 10
474.3263413414273
 20
336.3008452210276
 30
0.0
 10
474.1576471208046
 20
336.0246872799426
 30
0.0
 10
474.0084538475857
 20
335.739161542666
 30
0.0
 10
473.9017840051007
 20
335.5024937417117
 30
0.0
 10
473.820191294033
 20
335.2961611180574
 30
0.0
 10
473.7632660972492
 20
335.135141909405
 30
0.0
 10
473.7264177119997
 20
335.0194278371777
 30
0.0
 10
473.7004138010512
 20
334.9324324934365
 30
0.0
 10
473.6630765068011
 20
334.8010064516538
 30
0.0
 10
473.6277872201765
 20
334.6571840834137
 30
0.0
 10
473.5925005019086
 20
334.4880761130862
 30
0.0
 10
473.5700270804276
 20
334.3648537639151
 30
0.0
 10
473.5534148310795
 20
334.2556116914078
 30
0.0
 10
473.5423972825308
 20
334.1740385946938
 30
0.0
 10
473.5307282701399
 20
334.0785386645497
 30
0.0
 10
473.5141464403638
 20
333.9063481787816
 30
0.0
 10
473.5010589221512
 20
333.6711519792841
 30
0.0
 10
473.5031489235639
 20
333.4934443405667
 30
0.0
 10
473.5042038797718
 20
333.4037440295891
 30
0.0
  0
SPLINE
  5
D6
330
1F
100
AcDbEntity
  8
0
  6
Continuous
 62
     8
370
    18
100
AcDbSpline
210
0.0
220
0.0
230
1.0
 70
     8
 71
     3
 72
    10
 73
     6
 74
     0
 42
0.000000001
 43
0.00000001
 40
0.0
 40
0.0
 40
0.0
 40
0.0
 40
0.5
 40
0.5
 40
1.0
 40
1.0
 40
1.0
 40
1.0
 10
479.8934330299281
 20
338.5563776071899
 30
0.0
 10
480.0130257250516
 20
328.5390150298675
 30
0.0
 10
480.1327727198681
 20
318.5236490127074
 30
0.0
 10
480.3721970265272
 20
298.4919577994438
 30
0.0
 10
480.4918932429423
 20
288.4761088780342
 30
0.0
 10
480.6115692711457
 20
278.4602550570806
 30
0.0
  0
SPLINE
  5
D7
330
1F
100
AcDbEntity
  8
0
  6
Continuous
 62
     8
370
    18
100
AcDbSpline
210
0.0
220
0.0
230
1.0
 70
     8
 71
     3
 72
    10
 73
     6
 74
     0
 42
0.000000001
 43
0.00000001
 40
0.0
 40
0.0
 40
0.0
 40
0.0
 40
0.5
 40
0.5
 40
1.0
 40
1.0
 40
1.0
 40
1.0
 10
479.1674773228007
 20
278.4233081274507
 30
0.0
 10
479.0495360867104
 20
288.4395067107625
 30
0.0
 10
478.9312103505999
 20
298.4557019038402
 30
0.0
 10
478.6940380296464
 20
318.4880838255064
 30
0.0
 10
478.5750834271088
 20
328.4995598521568
 30
0.0
 10
478.4563281539336
 20
338.5348903111885
 30
0.0
  0
SPLINE
  5
D8
330
1F
100
AcDbEntity
  8
0
  6
Continuous
 62
     8
370
    18
100
AcDbSpline
210
0.0
220
0.0
230
1.0
 70
     8
 71
     3
 72
    10
 73
     6
 74
     0
 42
0.000000001
 43
0.00000001
 40
0.0
 40
0.0
 40
0.0
 40
0.0
 40
0.5
 40
0.5
 40
1.0
 40
1.0
 40
1.0
 40
1.0
 10
479.652149804619
 20
358.9771651441019
 30
0.0
 10
479.6924880853691
 20
355.5741496404988
 30
0.0
 10
479.7326352559666
 20
352.1707408165919
 30
0.0
 10
479.8125182456725
 20
345.3637822616953
 30
0.0
 10
479.8533788673055
 20
341.9615853661255
 30
0.0
 10
479.8934019461941
 20
338.5563748721966
 30
0.0
  0
SPLINE
  5
D9
330
1F
100
AcDbEntity
  8
0
  6
Continuous
 62
     8
370
    18
100
AcDbSpline
210
0.0
220
0.0
230
1.0
 70
     8
 71
     3
 72
    28
 73
    24
 74
     0
 42
0.000000001
 43
0.00000001
 40
0.0
 40
0.0
 40
0.0
 40
0.0
 40
0.25
 40
0.25
 40
0.375
 40
0.375
 40
0.4375
 40
0.4375
 40
0.5
 40
0.5
 40
0.5625
 40
0.5625
 40
0.625
 40
0.625
 40
0.6875
 40
0.6875
 40
0.75
 40
0.75
 40
0.8125
 40
0.8125
 40
0.875
 40
0.875
 40
1.0
 40
1.0
 40
1.0
 40
1.0
 10
479.4520197329936
 20
379.4259694567394
 30
0.0
 10
479.4520202193219
 20
379.4259647300908
 30
0.0
 10
479.4522115870406
 20
379.4076299679624
 30
0.0
 10
479.4486371039799
 20
379.3093282357293
 30
0.0
 10
479.4448896914274
 20
379.2425154777718
 30
0.0
 10
479.4436065860548
 20
378.7088101645502
 30
0.0
 10
479.4438574280282
 20
378.4624518717125
 30
0.0
 10
479.4464690663586
 20
377.8009173609934
 30
0.0
 10
479.4487865652182
 20
377.3855745965945
 30
0.0
 10
479.456328767306
 20
376.408945356261
 30
0.0
 10
479.4617769541418
 20
375.833962107542
 30
0.0
 10
479.4751163229393
 20
374.5761500748981
 30
0.0
 10
479.4828332793783
 20
373.8942326501321
 30
0.0
 10
479.4995914328995
 20
372.4327394173977
 30
0.0
 10
479.5087072204423
 20
371.6586035898262
 30
0.0
 10
479.5272464054924
 20
370.0971679749364
 30
0.0
 10
479.5366431292778
 20
369.3000797336626
 30
0.0
 10
479.5549929838926
 20
367.703165396445
 30
0.0
 10
479.5637842089803
 20
366.9067703803923
 30
0.0
 10
479.5806688565665
 20
365.3189606049899
 30
0.0
 10
479.5889977737943
 20
364.5268524818758
 30
0.0
 10
479.6149966254188
 20
362.1484486029062
 30
0.0
 10
479.6331483505008
 20
360.5628402159755
 30
0.0
 10
479.6521258436609
 20
358.9771672761354
 30
0.0
  0
SPLINE
  5
DA
330
1F
100
AcDbEntity
  8
0
  6
Continuous
 62
     8
370
    18
100
AcDbSpline
210
0.0
220
0.0
230
1.0
 70
     8
 71
     3
 72
    17
 73
    13
 74
     0
 42
0.000000001
 43
0.00000001
 40
0.0
 40
0.0
 40
0.0
 40
0.0
 40
0.1179179576239731
 40
0.2408302388866539
 40
0.3706503595493429
 40
0.4376020851404585
 40
0.5053717430600368
 40
0.5730021753746157
 40
0.6396409192474968
 40
0.7687439756432328
 40
0.8904438189473647
 40
1.0
 40
1.0
 40
1.0
 40
1.0
 10
479.1674760190595
 20
278.4233078124803
 30
0.0
 10
479.1793322066351
 20
277.5184535587982
 30
0.0
 10
479.2035467414154
 20
275.6704206513188
 30
0.0
 10
479.2402913110357
 20
272.837032209676
 30
0.0
 10
479.2721750118917
 20
270.4748806948396
 30
0.0
 10
479.2975688300321
 20
268.7214400867584
 30
0.0
 10
479.3156914399392
 20
267.5247505548264
 30
0.0
 10
479.3315311168353
 20
266.5399159947414
 30
0.0
 10
479.3488648900734
 20
265.5304605412306
 30
0.0
 10
479.3623737530257
 20
264.807097273894
 30
0.0
 10
479.3693858710682
 20
264.5280320588301
 30
0.0
 10
479.3704127454162
 20
264.5261682894168
 30
0.0
 10
479.3708992210973
 20
264.5252853396219
 30
0.0
  0
SPLINE
  5
DB
330
1F
100
AcDbEntity
  8
0
  6
Continuous
 62
     8
370
    18
100
AcDbSpline
210
0.0
220
0.0
230
1.0
 70
     8
 71
     3
 72
    18
 73
    14
 74
     0
 42
0.000000001
 43
0.00000001
 40
0.0
 40
0.0
 40
0.0
 40
0.0
 40
0.2499999999999984
 40
0.2499999999999984
 40
0.3749999999999988
 40
0.3749999999999988
 40
0.499999999999999
 40
0.499999999999999
 40
0.6249999999999992
 40
0.6249999999999992
 40
0.7499999999999996
 40
0.7499999999999996
 40
1.0
 40
1.0
 40
1.0
 40
1.0
 10
480.611968048091
 20
278.427055409347
 30
0.0
 10
480.6330594742097
 20
276.6712130139364
 30
0.0
 10
480.6583606188825
 20
274.8966835742083
 30
0.0
 10
480.6971153945848
 20
272.3108700132616
 30
0.0
 10
480.7103629775223
 20
271.4525796186033
 30
0.0
 10
480.7356912935562
 20
269.8617705523451
 30
0.0
 10
480.7480106291618
 20
269.1139421764148
 30
0.0
 10
480.7696407310814
 20
267.8761002757151
 30
0.0
 10
480.779291166285
 20
267.3694867176414
 30
0.0
 10
480.7948084740887
 20
266.6088774384319
 30
0.0
 10
480.8008683602993
 20
266.3435816369291
 30
0.0
 10
480.8137487651728
 20
265.837484302858
 30
0.0
 10
480.8160777218008
 20
265.829516083622
 30
0.0
 10
480.8195356570301
 20
265.8263394112377
 30
0.0
  0
SPLINE
  5
DC
330
1F
100
AcDbEntity
  8
0
  6
Continuous
 62
     8
370
    18
100
AcDbSpline
210
0.0
220
0.0
230
1.0
 70
     8
 71
     3
 72
     9
 73
     5
 74
     0
 42
0.000000001
 43
0.00000001
 40
0.0
 40
0.0
 40
0.0
 40
0.0
 40
0.7244751335804784
 40
1.0
 40
1.0
 40
1.0
 40
1.0
 10
479.371044507419
 20
264.5226105811876
 30
0.0
 10
478.8957448078591
 20
264.5559299430565
 30
0.0
 10
478.2396840577671
 20
264.6019209789451
 30
0.0
 10
477.7103008602254
 20
264.9685381148342
 30
0.0
 10
477.5644426254381
 20
265.0695502522272
 30
0.0
  0
LINE
  5
DD
330
1F
100
AcDbEntity
  8
0
  6
Continuous
 62
     8
370
    18
100
AcDbLine
 10
475.5796638338
 20
268.2116463545
 30
0.0
 11
475.3786583451
 21
269.897705293
 31
0.0
  0
SPLINE
  5
DE
330
1F
100
AcDbEntity
  8
0
  6
Continuous
 62
     8
370
    18
100
AcDbSpline
210
0.0
220
0.0
230
1.0
 70
    24
 71
     3
 72
     9
 73
     5
 74
     0
 42
0.000000001
 43
0.00000001
 40
0.0
 40
0.0
 40
0.0
 40
0.0
 40
0.5
 40
1.0
 40
1.0
 40
1.0
 40
1.0
 10
481.0810362779143
 20
278.427055409347
 30
0.0
 10
481.0810362779143
 20
278.427055409347
 30
0.0
 10
481.0696351146249
 20
278.427055409347
 30
0.0
 10
481.0354316247567
 20
278.427055409347
 30
0.0
 10
481.012629298178
 20
278.427055409347
 30
0.0
  0
SPLINE
  5
DF
330
1F
100
AcDbEntity
  8
0
  6
Continuous
 62
     8
370
    18
100
AcDbSpline
210
0.0
220
0.0
230
1.0
 70
     8
 71
     3
 72
    10
 73
     6
 74
     0
 42
0.000000001
 43
0.00000001
 40
0.0
 40
0.0
 40
0.0
 40
0.0
 40
0.0311366444132778
 40
0.5780116444132778
 40
0.9061366444132778
 40
0.9061366444132778
 40
0.9061366444132778
 40
0.9061366444132778
 10
480.8193989143942
 20
265.8242961742158
 30
0.0
 10
480.8300554914716
 20
265.9685816306352
 30
0.0
 10
481.0189453626869
 20
268.6471280430555
 30
0.0
 10
481.0816555231283
 20
272.8481300518226
 30
0.0
 10
481.0288143196455
 20
276.9059960060024
 30
0.0
 10
481.012629298178
 20
278.427055409347
 30
0.0
  0
SPLINE
  5
E0
330
1F
100
AcDbEntity
  8
0
  6
Continuous
 62
     8
370
    18
100
AcDbSpline
210
0.0
220
0.0
230
1.0
 70
     8
 71
     3
 72
     8
 73
     4
 74
     0
 42
0.000000001
 43
0.00000001
 40
0.0
 40
0.0
 40
0.0
 40
0.0
 40
1.0
 40
1.0
 40
1.0
 40
1.0
 10
479.3725934473181
 20
264.5225510853401
 30
0.0
 10
479.3749117906229
 20
264.52246680749
 30
0.0
 10
479.3760541670842
 20
264.5224268177305
 30
0.0
 10
479.3760468799109
 20
264.5224270783718
 30
0.0
  0
LINE
  5
E1
330
1F
100
AcDbEntity
  8
0
  6
Continuous
 62
     8
370
    18
100
AcDbLine
 10
480.8286388425
 20
265.8215448025
 30
0.0
 11
480.8355902342
 21
265.9983545306
 31
0.0
  0
LINE
  5
E2
330
1F
100
AcDbEntity
  8
0
  6
Continuous
 62
     8
370
    18
100
AcDbLine
 10
481.1029543189
 20
273.6034378174
 30
0.0
 11
481.0810347108
 21
278.4270554545
 31
0.0
  0
SPLINE
  5
E3
330
1F
100
AcDbEntity
  8
0
  6
Continuous
 62
     8
370
    18
100
AcDbSpline
210
0.0
220
0.0
230
1.0
 70
     8
 71
     3
 72
     8
 73
     4
 74
     0
 42
0.000000001
 43
0.00000001
 40
0.0
 40
0.0
 40
0.0
 40
0.0
 40
1.0
 40
1.0
 40
1.0
 40
1.0
 10
480.8195490351755
 20
265.826329176324
 30
0.0
 10
480.8256957187341
 20
265.8230769373691
 30
0.0
 10
480.8286524581818
 20
265.821540137184
 30
0.0
 10
480.8286373774171
 20
265.8215475905628
 30
0.0
  0
LINE
  5
E4
330
1F
100
AcDbEntity
  8
0
  6
Continuous
 62
     8
370
    18
100
AcDbLine
 10
455.7421465425
 20
333.1385025519
 30
0.0
 11
459.5235657899
 21
333.1385025519
 31
0.0
  0
LINE
  5
E5
330
1F
100
AcDbEntity
  8
0
  6
Continuous
 62
     8
370
    18
100
AcDbLine
 10
451.9607272951
 20
333.1385025519
 30
0.0
 11
455.7421465425
 21
333.1385025519
 31
0.0
  0
LINE
  5
E6
330
1F
100
AcDbEntity
  8
0
  6
Continuous
 62
     7
370
    25
100
AcDbLine
 10
174.5135290615
 20
278.4245967629
 30
0.0
 11
174.5140189372
 21
278.3912926677
 31
0.0
  0
SPLINE
  5
E7
330
1F
100
AcDbEntity
  8
0
  6
Continuous
 62
     7
370
    25
100
AcDbSpline
210
0.0
220
0.0
230
1.0
 70
     8
 71
     3
 72
    19
 73
    15
 74
     0
 42
0.000000001
 43
0.00000001
 40
0.0
 40
0.0
 40
0.0
 40
0.0
 40
0.1481838003232448
 40
0.2736941108165999
 40
0.3435103441080782
 40
0.4001453604935821
 40
0.4484893612834219
 40
0.4929774664926143
 40
0.5457517543209447
 40
0.6063331170153675
 40
0.6739271011064843
 40
0.774215724755273
 40
0.8829028831953342
 40
1.0
 40
1.0
 40
1.0
 40
1.0
 10
207.1895869515542
 20
264.5391881230158
 30
0.0
 10
208.3328857911099
 20
264.5414264381649
 30
0.0
 10
210.4445481901527
 20
264.545560585576
 30
0.0
 10
213.0830630362984
 20
264.9275464809613
 30
0.0
 10
214.9325668915751
 20
265.5442688078
 30
0.0
 10
216.1450427247351
 20
266.1419866385707
 30
0.0
 10
217.1093554529052
 20
266.7782829168195
 30
0.0
 10
217.9703792893144
 20
267.5031389201591
 30
0.0
 10
218.7887800860824
 20
268.4099772791973
 30
0.0
 10
219.5672302461561
 20
269.5741500572839
 30
0.0
 10
220.320961544793
 20
271.1739287682004
 30
0.0
 10
220.8833643763247
 20
273.244105514754
 30
0.0
 10
221.1643437261914
 20
275.7492474465307
 30
0.0
 10
221.1912681112556
 20
277.4906586356609
 30
0.0
 10
221.2052317402963
 20
278.3937960627359
 30
0.0
  0
SPLINE
  5
E8
330
1F
100
AcDbEntity
  8
0
  6
Continuous
 62
     7
370
    25
100
AcDbSpline
210
0.0
220
0.0
230
1.0
 70
     8
 71
     3
 72
    19
 73
    15
 74
     0
 42
0.000000001
 43
0.00000001
 40
0.0
 40
0.0
 40
0.0
 40
0.0
 40
0.1485641732466778
 40
0.2746261807393239
 40
0.3448736009015242
 40
0.4019083212951555
 40
0.4503385805732941
 40
0.4947280951281134
 40
0.5474368761477312
 40
0.6079910651542872
 40
0.6754183966841786
 40
0.7753634639039376
 40
0.8834209035810945
 40
1.0
 40
1.0
 40
1.0
 40
1.0
 10
174.5297508381013
 20
278.3937960627359
 30
0.0
 10
174.5491408645452
 20
277.2478255611628
 30
0.0
 10
174.5849840210099
 20
275.129458156631
 30
0.0
 10
175.0068457874073
 20
272.4867693396168
 30
0.0
 10
175.6511473287024
 20
270.6356150147684
 30
0.0
 10
176.2673585146311
 20
269.4245526469765
 30
0.0
 10
176.917408273035
 20
268.4659243415504
 30
0.0
 10
177.6522074520445
 20
267.6142116214415
 30
0.0
 10
178.567941728277
 20
266.8080253990581
 30
0.0
 10
179.7397919415423
 20
266.0447390736051
 30
0.0
 10
181.3456970606668
 20
265.3137519980079
 30
0.0
 10
183.4152643521395
 20
264.7824980727663
 30
0.0
 10
185.9131207783682
 20
264.5407311591053
 30
0.0
 10
187.6459955870026
 20
264.5397153138474
 30
0.0
 10
188.5453015632633
 20
264.5391881230158
 30
0.0
  0
LINE
  5
E9
330
1F
100
AcDbEntity
  8
0
  6
Continuous
 62
     7
370
    25
100
AcDbLine
 10
221.2209580533
 20
278.3913001182
 30
0.0
 11
221.2214460663
 21
278.424417949
 31
0.0
  0
SPLINE
  5
EA
330
1F
100
AcDbEntity
  8
0
  6
Continuous
 62
     7
370
    25
100
AcDbSpline
210
0.0
220
0.0
230
1.0
 70
     8
 71
     3
 72
    20
 73
    16
 74
     0
 42
0.000000001
 43
0.00000001
 40
0.0
 40
0.0
 40
0.0
 40
0.0
 40
0.0941608325169526
 40
0.1782411680149334
 40
0.2522412492144974
 40
0.3161610104453866
 40
0.3700003839170027
 40
0.4137593069331696
 40
0.4524014948770812
 40
0.5092143704644028
 40
0.5797888489620902
 40
0.6641286874784015
 40
0.762251514786597
 40
0.8741905209678684
 40
0.9999999999999999
 40
0.9999999999999999
 40
0.9999999999999999
 40
0.9999999999999999
 10
221.2057216159705
 20
278.4267350795549
 30
0.0
 10
221.2335512023554
 20
280.3134320067602
 30
0.0
 10
221.2862310465116
 20
283.884843335719
 30
0.0
 10
221.3607943000855
 20
288.9389904605096
 30
0.0
 10
221.4264204610346
 20
293.3871981175157
 30
0.0
 10
221.483110611627
 20
297.2294685828527
 30
0.0
 10
221.5308691474268
 20
300.4657982848199
 30
0.0
 10
221.571123808143
 20
303.1956427834318
 30
0.0
 10
221.612363433505
 20
305.9850659843137
 30
0.0
 10
221.660947114648
 20
309.3117999640729
 30
0.0
 10
221.7265234140905
 20
313.554123304484
 30
0.0
 10
221.8077025032464
 20
318.6241197579813
 30
0.0
 10
221.8975092716928
 20
324.5229862721019
 30
0.0
 10
221.987668667018
 20
331.2529846826562
 30
0.0
 10
222.0198141354878
 20
336.0171645988983
 30
0.0
 10
222.0368245683316
 20
338.5382279517931
 30
0.0
  0
SPLINE
  5
EB
330
1F
100
AcDbEntity
  8
0
  6
Continuous
 62
     7
370
    25
100
AcDbSpline
210
0.0
220
0.0
230
1.0
 70
     8
 71
     3
 72
    14
 73
    10
 74
     0
 42
0.000000001
 43
0.00000001
 40
0.0
 40
0.0
 40
0.0
 40
0.0
 40
0.0970520505230836
 40
0.209349805121655
 40
0.3368937154473189
 40
0.4797101319951565
 40
0.6378374344502441
 40
0.8112676278360885
 40
1.0
 40
1.0
 40
1.0
 40
1.0
 10
173.6981617353562
 20
338.5371997716707
 30
0.0
 10
173.7104072057229
 20
336.5924332493307
 30
0.0
 10
173.7368217618407
 20
332.3974008902548
 30
0.0
 10
173.8204493771914
 20
325.6469601560186
 30
0.0
 10
173.9368301601779
 20
317.9798643800289
 30
0.0
 10
174.0747977913402
 20
309.3946220941042
 30
0.0
 10
174.211879892847
 20
299.8897570637607
 30
0.0
 10
174.3666483992965
 20
289.4649562040642
 30
0.0
 10
174.473548698903
 20
282.208462364358
 30
0.0
 10
174.5292572371367
 20
278.4269138934893
 30
0.0
  0
SPLINE
  5
EC
330
1F
100
AcDbEntity
  8
0
  6
Continuous
 62
     7
370
    25
100
AcDbSpline
210
0.0
220
0.0
230
1.0
 70
     8
 71
     3
 72
    16
 73
    12
 74
     0
 42
0.000000001
 43
0.00000001
 40
0.0
 40
0.0
 40
0.0
 40
0.0
 40
0.0508859330306308
 40
0.1121786017629719
 40
0.1695481330098164
 40
0.2260111353993478
 40
0.284903591912432
 40
0.4209229404463097
 40
0.6386629741833159
 40
0.8469638353499517
 40
1.0
 40
1.0
 40
1.0
 40
1.0
 10
173.7902080706958
 20
353.6990260469598
 30
0.0
 10
173.7823461274621
 20
353.7184388389795
 30
0.0
 10
173.7650143867124
 20
353.7612345535393
 30
0.0
 10
173.7617431686722
 20
353.5465652493306
 30
0.0
 10
173.7604416345984
 20
353.1833041764181
 30
0.0
 10
173.7626891905982
 20
352.6321872358403
 30
0.0
 10
173.7660458616696
 20
351.6264039653344
 30
0.0
 10
173.7744893759275
 20
349.6440243926617
 30
0.0
 10
173.8280403461777
 20
346.8995685651142
 30
0.0
 10
173.737330229616
 20
344.1133179860867
 30
0.0
 10
173.6992989491577
 20
342.5208592100792
 30
0.0
 10
173.6831916562919
 20
341.8464091370684
 30
0.0
  0
SPLINE
  5
ED
330
1F
100
AcDbEntity
  8
0
  6
Continuous
 62
     7
370
    25
100
AcDbSpline
210
0.0
220
0.0
230
1.0
 70
     8
 71
     3
 72
    19
 73
    15
 74
     0
 42
0.000000001
 43
0.00000001
 40
0.0
 40
0.0
 40
0.0
 40
0.0
 40
0.0732730965154617
 40
0.1621463595376985
 40
0.3085959503908663
 40
0.3911217938386445
 40
0.4692201779969967
 40
0.5448869473611868
 40
0.6585825513270511
 40
0.7793741130721361
 40
0.8880534988958609
 40
0.9375157023636695
 40
0.9860401006969907
 40
0.9999999999999999
 40
0.9999999999999999
 40
0.9999999999999999
 40
0.9999999999999999
 10
222.0533629946116
 20
341.5747833202464
 30
0.0
 10
222.0447413309437
 20
341.8626630391857
 30
0.0
 10
222.0256624132589
 20
342.4997133431931
 30
0.0
 10
221.8962029904158
 20
343.8798499633962
 30
0.0
 10
221.8012108254836
 20
345.4577239696472
 30
0.0
 10
221.8855882452033
 20
347.0514344786422
 30
0.0
 10
221.9366712577068
 20
348.2618420068709
 30
0.0
 10
221.9533759488809
 20
349.6441666602451
 30
0.0
 10
221.9504548059047
 20
351.1755613164247
 30
0.0
 10
221.9493159967903
 20
352.6443566043238
 30
0.0
 10
221.97531753982
 20
353.603216484737
 30
0.0
 10
221.985205965595
 20
353.974908684558
 30
0.0
 10
221.9925034843019
 20
354.1262598784105
 30
0.0
 10
221.9808376554208
 20
354.0706660208417
 30
0.0
 10
221.9782313398723
 20
354.0582455458921
 30
0.0
  0
SPLINE
  5
EE
330
1F
100
AcDbEntity
  8
0
  6
Continuous
 62
     7
370
    25
100
AcDbSpline
210
0.0
220
0.0
230
1.0
 70
     8
 71
     3
 72
    11
 73
     7
 74
     0
 42
0.000000001
 43
0.00000001
 40
0.0
 40
0.0
 40
0.0
 40
0.0
 40
0.3017319397956076
 40
0.5835997336707247
 40
0.8503231511023625
 40
0.9999999999999999
 40
0.9999999999999999
 40
0.9999999999999999
 40
0.9999999999999999
 10
173.9994576267604
 20
368.5637715968174
 30
0.0
 10
173.9837025166286
 20
368.4139471081941
 30
0.0
 10
173.9532295143899
 20
368.1241616392869
 30
0.0
 10
173.8936954079657
 20
367.8019223970036
 30
0.0
 10
173.8489015937369
 20
367.6039504810868
 30
0.0
 10
173.8340439877392
 20
367.5467484814407
 30
0.0
 10
173.8287033579949
 20
367.5261869790834
 30
0.0
  0
SPLINE
  5
EF
330
1F
100
AcDbEntity
  8
0
  6
Continuous
 62
     7
370
    25
100
AcDbSpline
210
0.0
220
0.0
230
1.0
 70
     8
 71
     3
 72
    11
 73
     7
 74
     0
 42
0.000000001
 43
0.00000001
 40
0.0
 40
0.0
 40
0.0
 40
0.0
 40
0.1497306263044585
 40
0.4164371752153352
 40
0.6982871427864157
 40
1.0
 40
1.0
 40
1.0
 40
1.0
 10
221.9062866709832
 20
367.526157176761
 30
0.0
 10
221.9009439024951
 20
367.5467268592259
 30
0.0
 10
221.8860843679301
 20
367.6039361334549
 30
0.0
 10
221.841287404235
 20
367.8019211537753
 30
0.0
 10
221.7817529992887
 20
368.1241619834242
 30
0.0
 10
221.751280039712
 20
368.4139472254803
 30
0.0
 10
221.7355249516372
 20
368.5637715968174
 30
0.0
  0
SPLINE
  5
F0
330
1F
100
AcDbEntity
  8
0
  6
Continuous
 62
     7
370
    25
100
AcDbSpline
210
0.0
220
0.0
230
1.0
 70
     8
 71
     3
 72
     8
 73
     4
 74
     0
 42
0.000000001
 43
0.00000001
 40
0.0
 40
0.0
 40
0.0
 40
0.0
 40
1.0
 40
1.0
 40
1.0
 40
1.0
 10
207.1831856316877
 20
264.522607628887
 30
0.0
 10
204.0779527763897
 20
264.5224846109014
 30
0.0
 10
200.9727257014827
 20
264.5224267650671
 30
0.0
 10
197.8674983717652
 20
264.5224270783718
 30
0.0
  0
SPLINE
  5
F1
330
1F
100
AcDbEntity
  8
0
  6
Continuous
 62
     7
370
    25
100
AcDbSpline
210
0.0
220
0.0
230
1.0
 70
     8
 71
     3
 72
     8
 73
     4
 74
     0
 42
0.000000001
 43
0.00000001
 40
0.0
 40
0.0
 40
0.0
 40
0.0
 40
1.0
 40
1.0
 40
1.0
 40
1.0
 10
197.8674842066333
 20
264.5224270783718
 30
0.0
 10
194.7622569338444
 20
264.5224267650547
 30
0.0
 10
191.6570298655172
 20
264.5224846108814
 30
0.0
 10
188.5517969467108
 20
264.522607628887
 30
0.0
  0
LINE
  5
F2
330
1F
100
AcDbEntity
  8
0
  6
Continuous
 62
     7
370
    25
100
AcDbLine
 10
173.7250750951
 20
349.4598435934
 30
0.0
 11
173.6812060766
 21
338.5349082525
 31
0.0
  0
LINE
  5
F3
330
1F
100
AcDbEntity
  8
0
  6
Continuous
 62
     7
370
    25
100
AcDbLine
 10
222.0537765018
 20
338.5349082525
 30
0.0
 11
222.0099074833
 21
349.4598435934
 31
0.0
  0
SPLINE
  5
F4
330
1F
100
AcDbEntity
  8
0
  6
Continuous
 62
     7
370
    25
100
AcDbSpline
210
0.0
220
0.0
230
1.0
 70
     8
 71
     3
 72
    14
 73
    10
 74
     0
 42
0.000000001
 43
0.00000001
 40
0.0
 40
0.0
 40
0.0
 40
0.0
 40
0.0430943159041672
 40
0.2010299338749876
 40
0.3620921989670634
 40
0.5243191449567014
 40
0.6852960096906106
 40
0.8454862702623913
 40
1.0
 40
1.0
 40
1.0
 40
1.0
 10
184.170724830747
 20
380.2734970810694
 30
0.0
 10
183.9317159580942
 20
380.2396853213765
 30
0.0
 10
182.8167675743729
 20
380.0819574244913
 30
0.0
 10
180.8907992700435
 20
379.374242714126
 30
0.0
 10
178.554944763004
 20
378.0014346709692
 30
0.0
 10
176.605006909263
 20
376.0737619546777
 30
0.0
 10
175.1738629119325
 20
373.7519185820419
 30
0.0
 10
174.2994636139925
 20
371.2098471522953
 30
0.0
 10
174.0999038520438
 20
369.4562114233702
 30
0.0
 10
174.001923768938
 20
368.5952093216461
 30
0.0
  0
SPLINE
  5
F5
330
1F
100
AcDbEntity
  8
0
  6
Continuous
 62
     7
370
    25
100
AcDbSpline
210
0.0
220
0.0
230
1.0
 70
     8
 71
     3
 72
    14
 73
    10
 74
     0
 42
0.000000001
 43
0.00000001
 40
0.0
 40
0.0
 40
0.0
 40
0.0
 40
0.1542781685411181
 40
0.3140501149242187
 40
0.4756983370557789
 40
0.6363815178717246
 40
0.7970413678807788
 40
0.954505106173272
 40
1.0
 40
1.0
 40
1.0
 40
1.0
 10
221.7335766248111
 20
368.5888614269775
 30
0.0
 10
221.6360390187434
 20
369.4487858909114
 30
0.0
 10
221.4374905352822
 20
371.1992563513681
 30
0.0
 10
220.5656080257842
 20
373.7427376753302
 30
0.0
 10
219.1398568830963
 20
376.0605061977505
 30
0.0
 10
217.1978361569148
 20
377.9858411745562
 30
0.0
 10
214.8772013894972
 20
379.359214638887
 30
0.0
 10
212.9444597062476
 20
380.074332724606
 30
0.0
 10
211.8187752521268
 20
380.2355821465499
 30
0.0
 10
211.5664435617331
 20
380.2717275681776
 30
0.0
  0
SPLINE
  5
F6
330
1F
100
AcDbEntity
  8
0
  6
Continuous
 62
     7
370
    25
100
AcDbSpline
210
0.0
220
0.0
230
1.0
 70
     8
 71
     3
 72
     8
 73
     4
 74
     0
 42
0.000000001
 43
0.00000001
 40
0.0
 40
0.0
 40
0.0
 40
0.0
 40
1.0
 40
1.0
 40
1.0
 40
1.0
 10
172.9309685448372
 20
362.3095001665104
 30
0.0
 10
172.8318416556155
 20
361.2260384445099
 30
0.0
 10
172.7835206076565
 20
360.114942568297
 30
0.0
 10
172.7976622205161
 20
358.9754827443321
 30
0.0
  0
SPLINE
  5
F7
330
1F
100
AcDbEntity
  8
0
  6
Continuous
 62
     7
370
    25
100
AcDbSpline
210
0.0
220
0.0
230
1.0
 70
     8
 71
     3
 72
    13
 73
     9
 74
     0
 42
0.000000001
 43
0.00000001
 40
0.0
 40
0.0
 40
0.0
 40
0.0
 40
0.1732291237442256
 40
0.3464097887936896
 40
0.5250180110344593
 40
0.7035505446071767
 40
0.8950636681342461
 40
1.0
 40
1.0
 40
1.0
 40
1.0
 10
197.8674912891991
 20
383.6588211121839
 30
0.0
 10
196.9093401936032
 20
383.641615010169
 30
0.0
 10
194.9933060332739
 20
383.6072076193323
 30
0.0
 10
192.1050879715635
 20
383.2975635612492
 30
0.0
 10
189.2235737130838
 20
382.7559131388124
 30
0.0
 10
186.3340945751604
 20
381.8867284338576
 30
0.0
 10
183.8958593839028
 20
380.9156482233029
 30
0.0
 10
182.5613393247737
 20
380.0164317867409
 30
0.0
 10
182.0889497242574
 20
379.6981297197622
 30
0.0
  0
SPLINE
  5
F8
330
1F
100
AcDbEntity
  8
0
  6
Continuous
 62
     7
370
    25
100
AcDbSpline
210
0.0
220
0.0
230
1.0
 70
     8
 71
     3
 72
     9
 73
     5
 74
     0
 42
0.000000001
 43
0.00000001
 40
0.0
 40
0.0
 40
0.0
 40
0.0
 40
0.1104607669257089
 40
1.0
 40
1.0
 40
1.0
 40
1.0
 10
173.8629946551923
 20
367.5154488297981
 30
0.0
 10
173.8031131057285
 20
367.3291086799352
 30
0.0
 10
173.2610061556286
 20
365.642173535005
 30
0.0
 10
173.0863402110738
 20
363.8784247053163
 30
0.0
 10
172.9309680007104
 20
362.3095009240192
 30
0.0
  0
SPLINE
  5
F9
330
1F
100
AcDbEntity
  8
0
  6
Continuous
 62
     7
370
    25
100
AcDbSpline
210
0.0
220
0.0
230
1.0
 70
     8
 71
     3
 72
     9
 73
     5
 74
     0
 42
0.000000001
 43
0.00000001
 40
0.0
 40
0.0
 40
0.0
 40
0.0
 40
0.7168135037201132
 40
1.0
 40
1.0
 40
1.0
 40
1.0
 10
222.8040145776872
 20
362.3095009240192
 30
0.0
 10
222.6715137393248
 20
363.5700018764145
 30
0.0
 10
222.4866667216909
 20
365.3284801219461
 30
0.0
 10
221.989064126155
 20
367.028714590982
 30
0.0
 10
221.8481497905854
 20
367.5101980331224
 30
0.0
  0
SPLINE
  5
FA
330
1F
100
AcDbEntity
  8
0
  6
Continuous
 62
     7
370
    25
100
AcDbSpline
210
0.0
220
0.0
230
1.0
 70
     8
 71
     3
 72
    12
 73
     8
 74
     0
 42
0.000000001
 43
0.00000001
 40
0.0
 40
0.0
 40
0.0
 40
0.0
 40
0.0447507586943382
 40
0.2680942222986852
 40
0.4978489864419261
 40
0.7470013420724093
 40
1.0
 40
1.0
 40
1.0
 40
1.0
 10
213.6970823697451
 20
379.6806245806497
 30
0.0
 10
213.5035593268189
 20
379.8270420006829
 30
0.0
 10
212.3441955259823
 20
380.7042039863119
 30
0.0
 10
209.7754160339245
 20
381.7623176936906
 30
0.0
 10
206.0795389444048
 20
382.8986930420988
 30
0.0
 10
202.0563277191687
 20
383.5466768499672
 30
0.0
 10
199.2708819481337
 20
383.6212492917801
 30
0.0
 10
197.8674912891991
 20
383.6588211121839
 30
0.0
  0
SPLINE
  5
FB
330
1F
100
AcDbEntity
  8
0
  6
Continuous
 62
     7
370
    25
100
AcDbSpline
210
0.0
220
0.0
230
1.0
 70
     8
 71
     3
 72
     8
 73
     4
 74
     0
 42
0.000000001
 43
0.00000001
 40
0.0
 40
0.0
 40
0.0
 40
0.0
 40
1.0
 40
1.0
 40
1.0
 40
1.0
 10
222.9373203578821
 20
358.9754827443321
 30
0.0
 10
222.9514619707417
 20
360.114942568297
 30
0.0
 10
222.9031409227827
 20
361.2260384445099
 30
0.0
 10
222.804014033561
 20
362.3095001665104
 30
0.0
  0
SPLINE
  5
FC
330
1F
100
AcDbEntity
  8
0
  6
Continuous
 62
     7
370
    25
100
AcDbSpline
210
0.0
220
0.0
230
1.0
 70
     8
 71
     3
 72
     8
 73
     4
 74
     0
 42
0.000000001
 43
0.00000001
 40
0.0
 40
0.0
 40
0.0
 40
0.0
 40
1.0
 40
1.0
 40
1.0
 40
1.0
 10
222.6554505467669
 20
355.469097299997
 30
0.0
 10
222.8301566414881
 20
356.6405232000251
 30
0.0
 10
222.9228340721883
 20
357.8095201240499
 30
0.0
 10
222.9373203578821
 20
358.9754827443321
 30
0.0
  0
SPLINE
  5
FD
330
1F
100
AcDbEntity
  8
0
  6
Continuous
 62
     7
370
    25
100
AcDbSpline
210
0.0
220
0.0
230
1.0
 70
     8
 71
     3
 72
     9
 73
     5
 74
     0
 42
0.000000001
 43
0.00000001
 40
0.0
 40
0.0
 40
0.0
 40
0.0
 40
0.4730001800795054
 40
1.0
 40
1.0
 40
1.0
 40
1.0
 10
222.6554500005845
 20
355.469097732274
 30
0.0
 10
222.5842439531561
 20
354.9955566105004
 30
0.0
 10
222.4337026839827
 20
353.9944129709907
 30
0.0
 10
222.1202521398291
 20
353.0314986289735
 30
0.0
 10
221.9550637595061
 20
352.5240429441315
 30
0.0
  0
SPLINE
  5
FE
330
1F
100
AcDbEntity
  8
0
  6
Continuous
 62
     7
370
    25
100
AcDbSpline
210
0.0
220
0.0
230
1.0
 70
     8
 71
     3
 72
     9
 73
     5
 74
     0
 42
0.000000001
 43
0.00000001
 40
0.0
 40
0.0
 40
0.0
 40
0.0
 40
0.7641222824848811
 40
1.0
 40
1.0
 40
1.0
 40
1.0
 10
173.7626353345517
 20
352.6280507209581
 30
0.0
 10
173.5446062452805
 20
353.3422956149798
 30
0.0
 10
173.2592735252842
 20
354.277021522591
 30
0.0
 10
173.1138376581884
 20
355.2415799030753
 30
0.0
 10
173.079532577813
 20
355.469097732274
 30
0.0
  0
SPLINE
  5
FF
330
1F
100
AcDbEntity
  8
0
  6
Continuous
 62
     7
370
    25
100
AcDbSpline
210
0.0
220
0.0
230
1.0
 70
     8
 71
     3
 72
     8
 73
     4
 74
     0
 42
0.000000001
 43
0.00000001
 40
0.0
 40
0.0
 40
0.0
 40
0.0
 40
1.0
 40
1.0
 40
1.0
 40
1.0
 10
172.7976622205161
 20
358.9754827443321
 30
0.0
 10
172.81214850621
 20
357.8095201240456
 30
0.0
 10
172.904825936913
 20
356.6405232000292
 30
0.0
 10
173.0795320316348
 20
355.469097299997
 30
0.0
  0
ARC
  5
100
330
1F
100
AcDbEntity
  8
0
  6
Continuous
 62
     7
370
    25
100
AcDbCircle
 10
197.8674912892
 20
360.0788501742
 30
0.0
 40
24.50000000000001
100
AcDbArc
 50
63.4673619975
 51
114.4969928791
  0
SPLINE
  5
101
330
1F
100
AcDbEntity
  8
0
  6
Continuous
 62
     7
370
    25
100
AcDbSpline
210
0.0
220
0.0
230
1.0
 70
     8
 71
     3
 72
    19
 73
    15
 74
     0
 42
0.000000001
 43
0.00000001
 40
0.0
 40
0.0
 40
0.0
 40
0.0
 40
0.0625
 40
0.0625
 40
0.125
 40
0.2500000000000001
 40
0.2500000000000001
 40
0.5000000000000001
 40
0.5000000000000001
 40
0.7500000000000002
 40
0.8750000000000001
 40
0.9375000000000001
 40
0.9375000000000001
 40
1.0
 40
1.0
 40
1.0
 40
1.0
 10
282.3646586308814
 20
407.9733557178795
 30
0.0
 10
282.3875741456409
 20
405.3611343994089
 30
0.0
 10
282.4091082007938
 20
402.7489067379287
 30
0.0
 10
282.4492603916533
 20
397.5244373214605
 30
0.0
 10
282.5051866359715
 20
389.6877127172884
 30
0.0
 10
282.5482068723421
 20
381.8509266752633
 30
0.0
 10
282.6170394220149
 20
366.1772726745067
 30
0.0
 10
282.639983952526
 20
355.7280102459125
 30
0.0
 10
282.6399839381108
 20
334.8295029833812
 30
0.0
 10
282.6055674931516
 20
319.1557610649552
 30
0.0
 10
282.5051876853528
 20
300.8699712455109
 30
0.0
 10
282.4492617282566
 20
293.0332561277061
 30
0.0
 10
282.4091097178563
 20
287.8087909265544
 30
0.0
 10
282.3875759258279
 20
285.1965642809811
 30
0.0
 10
282.3646602504391
 20
282.5843430059916
 30
0.0
  0
SPLINE
  5
102
330
1F
100
AcDbEntity
  8
0
  6
Continuous
 62
     7
370
    25
100
AcDbSpline
210
0.0
220
0.0
230
1.0
 70
     8
 71
     3
 72
    12
 73
     8
 74
     0
 42
0.000000001
 43
0.00000001
 40
0.0
 40
0.0
 40
0.0
 40
0.0
 40
0.1249999999999998
 40
0.1249999999999998
 40
0.2499999999999997
 40
0.4999999999999997
 40
1.0
 40
1.0
 40
1.0
 40
1.0
 10
113.3703227478717
 20
282.5843434272018
 30
0.0
 10
113.3474069201647
 20
285.1965643846363
 30
0.0
 10
113.3258732195015
 20
287.8087912038448
 30
0.0
 10
113.2857211885929
 20
293.0332578397769
 30
0.0
 10
113.2297951863519
 20
300.8699766913525
 30
0.0
 10
113.1294152085559
 20
319.1557862941676
 30
0.0
 10
113.0949986330804
 20
334.829564149299
 30
0.0
 10
113.0949986330803
 20
345.2788501742166
 30
0.0
  0
SPLINE
  5
103
330
1F
100
AcDbEntity
  8
0
  6
Continuous
 62
     7
370
    25
100
AcDbSpline
210
0.0
220
0.0
230
1.0
 70
     8
 71
     3
 72
    30
 73
    26
 74
     0
 42
0.000000001
 43
0.00000001
 40
0.0
 40
0.0
 40
0.0
 40
0.0
 40
0.1249999999999978
 40
0.1249999999999978
 40
0.1874999999999973
 40
0.1874999999999973
 40
0.2499999999999968
 40
0.2499999999999968
 40
0.3749999999999968
 40
0.3749999999999968
 40
0.4374999999999969
 40
0.4374999999999969
 40
0.4999999999999969
 40
0.4999999999999969
 40
0.6249999999999987
 40
0.6249999999999987
 40
0.687499999999999
 40
0.687499999999999
 40
0.7499999999999993
 40
0.7499999999999993
 40
0.8124999999999998
 40
0.8124999999999998
 40
0.8750000000000001
 40
0.8750000000000001
 40
1.0
 40
1.0
 40
1.0
 40
1.0
 10
113.1447201064098
 20
408.1996566119215
 30
0.0
 10
113.1573743533895
 20
409.6356544567026
 30
0.0
 10
113.309052666064
 20
411.0467163334625
 30
0.0
 10
113.7365767751557
 20
413.1274350777631
 30
0.0
 10
113.9126615635766
 20
413.8149855185693
 30
0.0
 10
114.3334446525463
 20
415.1777795788001
 30
0.0
 10
114.5794898739352
 20
415.855437372633
 30
0.0
 10
115.4063575348719
 20
417.8274276932644
 30
0.0
 10
116.0779270903992
 20
419.0740124821843
 30
0.0
 10
117.2635801510754
 20
420.8430143921505
 30
0.0
 10
117.689333219495
 20
421.416499338555
 30
0.0
 10
118.6003602404857
 20
422.5252689746838
 30
0.0
 10
119.0792444416023
 20
423.0529275311384
 30
0.0
 10
120.5836673754165
 20
424.5584023850276
 30
0.0
 10
121.6763564986926
 20
425.4594268180333
 30
0.0
 10
123.4523303939525
 20
426.6543613394363
 30
0.0
 10
124.0693211990196
 20
427.0270630237554
 30
0.0
 10
125.3233557360635
 20
427.7035300137391
 30
0.0
 10
125.9633015243141
 20
428.0095029136379
 30
0.0
 10
127.2685631852651
 20
428.558142624332
 30
0.0
 10
127.9338796497584
 20
428.8008079584237
 30
0.0
 10
129.2901155681527
 20
429.2222513686856
 30
0.0
 10
129.9824628738682
 20
429.4013251247721
 30
0.0
 10
132.0901435932221
 20
429.8371889994197
 30
0.0
 10
133.5106854316497
 20
429.9889670961459
 30
0.0
 10
134.9466848514944
 20
430.0016213570053
 30
0.0
  0
SPLINE
  5
104
330
1F
100
AcDbEntity
  8
0
  6
Continuous
 62
     7
370
    25
100
AcDbSpline
210
0.0
220
0.0
230
1.0
 70
     8
 71
     3
 72
    30
 73
    26
 74
     0
 42
0.000000001
 43
0.00000001
 40
0.0
 40
0.0
 40
0.0
 40
0.0
 40
0.1250000000000003
 40
0.1250000000000003
 40
0.187500000000001
 40
0.187500000000001
 40
0.2500000000000018
 40
0.2500000000000018
 40
0.3750000000000021
 40
0.3750000000000021
 40
0.4375000000000018
 40
0.4375000000000018
 40
0.5000000000000014
 40
0.5000000000000014
 40
0.6250000000000007
 40
0.6250000000000007
 40
0.6875000000000004
 40
0.6875000000000004
 40
0.7500000000000001
 40
0.7500000000000001
 40
0.8124999999999998
 40
0.8124999999999998
 40
0.8749999999999994
 40
0.8749999999999994
 40
1.0
 40
1.0
 40
1.0
 40
1.0
 10
260.7882977269031
 20
430.0016213570059
 30
0.0
 10
262.2242955716844
 20
429.9889671100262
 30
0.0
 10
263.6353574484442
 20
429.8372887973512
 30
0.0
 10
265.7160761927449
 20
429.4097646882594
 30
0.0
 10
266.403626633551
 20
429.2336798998382
 30
0.0
 10
267.7664206937819
 20
428.8128968108685
 30
0.0
 10
268.4440784876152
 20
428.566851589481
 30
0.0
 10
270.4160688082466
 20
427.7399839285443
 30
0.0
 10
271.662653597166
 20
427.068414373016
 30
0.0
 10
273.4316555071323
 20
425.8827613123398
 30
0.0
 10
274.0051404535373
 20
425.4570082439209
 30
0.0
 10
275.1139100896661
 20
424.5459812229303
 30
0.0
 10
275.6415686461207
 20
424.0670970218134
 30
0.0
 10
277.1470435000098
 20
422.5626740879993
 30
0.0
 10
278.0480679330148
 20
421.4699849647225
 30
0.0
 10
279.243002454418
 20
419.6940110694628
 30
0.0
 10
279.6157041387374
 20
419.0770202643959
 30
0.0
 10
280.2921711287211
 20
417.822985727352
 30
0.0
 10
280.5981440286197
 20
417.1830399391014
 30
0.0
 10
281.1467837393138
 20
415.8777782781504
 30
0.0
 10
281.3894490734058
 20
415.2124618136571
 30
0.0
 10
281.8108924836677
 20
413.8562258952629
 30
0.0
 10
281.9899662397536
 20
413.1638785895473
 30
0.0
 10
282.4258301144012
 20
411.0561978701934
 30
0.0
 10
282.577608211128
 20
409.635656031766
 30
0.0
 10
282.5902624719874
 20
408.1996566119213
 30
0.0
  0
SPLINE
  5
105
330
1F
100
AcDbEntity
  8
0
  6
Continuous
 62
     7
370
    25
100
AcDbSpline
210
0.0
220
0.0
230
1.0
 70
     8
 71
     3
 72
    30
 73
    26
 74
     0
 42
0.000000001
 43
0.00000001
 40
0.0
 40
0.0
 40
0.0
 40
0.0
 40
0.1249999999999999
 40
0.1249999999999999
 40
0.1874999999999993
 40
0.1874999999999993
 40
0.2499999999999986
 40
0.2499999999999986
 40
0.3749999999999978
 40
0.3749999999999978
 40
0.4374999999999973
 40
0.4374999999999973
 40
0.4999999999999969
 40
0.4999999999999969
 40
0.6249999999999969
 40
0.6249999999999969
 40
0.6874999999999974
 40
0.6874999999999974
 40
0.749999999999998
 40
0.749999999999998
 40
0.8124999999999984
 40
0.8124999999999984
 40
0.874999999999999
 40
0.874999999999999
 40
1.0
 40
1.0
 40
1.0
 40
1.0
 10
134.9466848514936
 20
260.5560789914275
 30
0.0
 10
133.5106870067123
 20
260.5687332384072
 30
0.0
 10
132.0996251299525
 20
260.720411551082
 30
0.0
 10
130.0189063856519
 20
261.1479356601736
 30
0.0
 10
129.3313559448457
 20
261.3240204485942
 30
0.0
 10
127.9685618846149
 20
261.7448035375639
 30
0.0
 10
127.2909040907816
 20
261.9908487589526
 30
0.0
 10
125.3189137701504
 20
262.8177164198895
 30
0.0
 10
124.0723289812308
 20
263.4892859754175
 30
0.0
 10
122.3033270712647
 20
264.6749390360938
 30
0.0
 10
121.7298421248602
 20
265.100692104513
 30
0.0
 10
120.6210724887314
 20
266.0117191255038
 30
0.0
 10
120.0934139322769
 20
266.4906033266207
 30
0.0
 10
118.5879390783878
 20
267.9950262604349
 30
0.0
 10
117.6869146453825
 20
269.0877153837112
 30
0.0
 10
116.4919801239793
 20
270.8636892789711
 30
0.0
 10
116.1192784396596
 20
271.4806800840376
 30
0.0
 10
115.442811449676
 20
272.7347146210815
 30
0.0
 10
115.136838549777
 20
273.3746604093321
 30
0.0
 10
114.588198839083
 20
274.6799220702831
 30
0.0
 10
114.3455335049919
 20
275.3452385347767
 30
0.0
 10
113.9240900947301
 20
276.7014744531709
 30
0.0
 10
113.7450163386429
 20
277.3938217588864
 30
0.0
 10
113.3091524639953
 20
279.5015024782404
 30
0.0
 10
113.1573743672699
 20
280.9220443166679
 30
0.0
 10
113.1447201064104
 20
282.3580437365126
 30
0.0
  0
SPLINE
  5
106
330
1F
100
AcDbEntity
  8
0
  6
Continuous
 62
     7
370
    25
100
AcDbSpline
210
0.0
220
0.0
230
1.0
 70
     8
 71
     3
 72
    30
 73
    26
 74
     0
 42
0.000000001
 43
0.00000001
 40
0.0
 40
0.0
 40
0.0
 40
0.0
 40
0.1250000000000007
 40
0.1250000000000007
 40
0.1875000000000012
 40
0.1875000000000012
 40
0.2500000000000017
 40
0.2500000000000017
 40
0.3750000000000032
 40
0.3750000000000032
 40
0.4375000000000041
 40
0.4375000000000041
 40
0.500000000000005
 40
0.500000000000005
 40
0.6250000000000051
 40
0.6250000000000051
 40
0.6875000000000042
 40
0.6875000000000042
 40
0.7500000000000033
 40
0.7500000000000033
 40
0.8125000000000026
 40
0.8125000000000026
 40
0.8750000000000017
 40
0.8750000000000017
 40
1.0
 40
1.0
 40
1.0
 40
1.0
 10
282.5902624719877
 20
282.3580437365122
 30
0.0
 10
282.577608225008
 20
280.922045891731
 30
0.0
 10
282.4259299123337
 20
279.5109840149711
 30
0.0
 10
281.9984058032421
 20
277.4302652706705
 30
0.0
 10
281.8223210148207
 20
276.7427148298643
 30
0.0
 10
281.401537925851
 20
275.3799207696336
 30
0.0
 10
281.1554927044634
 20
274.7022629758
 30
0.0
 10
280.3286250435268
 20
272.7302726551686
 30
0.0
 10
279.6570554879977
 20
271.4836878662497
 30
0.0
 10
278.4714024273215
 20
269.7146859562834
 30
0.0
 10
278.0456493589031
 20
269.1412010098783
 30
0.0
 10
277.1346223379123
 20
268.0324313737494
 30
0.0
 10
276.6557381367953
 20
267.5047728172952
 30
0.0
 10
275.1513152029812
 20
265.999297963406
 30
0.0
 10
274.058626079705
 20
265.0982735304004
 30
0.0
 10
272.2826521844451
 20
263.9033390089974
 30
0.0
 10
271.6656613793785
 20
263.5306373246768
 30
0.0
 10
270.4116268423347
 20
262.8541703346931
 30
0.0
 10
269.7716810540836
 20
262.5481974347957
 30
0.0
 10
268.4664193931326
 20
261.9995577241017
 30
0.0
 10
267.8011029286393
 20
261.75689239001
 30
0.0
 10
266.4448670102452
 20
261.3354489797481
 30
0.0
 10
265.7525197045295
 20
261.1563752236611
 30
0.0
 10
263.6448389851757
 20
260.7205113490135
 30
0.0
 10
262.2242971467481
 20
260.5687332522877
 30
0.0
 10
260.7882977269035
 20
260.5560789914283
 30
0.0
  0
ARC
  5
107
330
1F
100
AcDbEntity
  8
0
  6
Continuous
 62
     7
370
    25
100
AcDbCircle
 10
197.8674912892
 20
7400.7788501744
 30
0.0
 40
7140.500000000143
100
AcDbArc
 50
269.4951133241
 51
270.5048866759
  0
ARC
  5
108
330
1F
100
AcDbEntity
  8
0
  6
Continuous
 62
     7
370
    25
100
AcDbCircle
 10
-6857.632508711
 20
345.2788501742
 30
0.0
 40
7140.500000000246
100
AcDbArc
 50
359.4951133241
 51
0.5048866759
  0
ARC
  5
109
330
1F
100
AcDbEntity
  8
0
  6
Continuous
 62
     7
370
    25
100
AcDbCircle
 10
7253.3674912889
 20
345.2788501742
 30
0.0
 40
7140.499999999747
100
AcDbArc
 50
179.4951133241
 51
180.5048866759
  0
ARC
  5
10A
330
1F
100
AcDbEntity
  8
0
  6
Continuous
 62
     7
370
    25
100
AcDbCircle
 10
197.8674912892
 20
-6710.2211498258
 30
0.0
 40
7140.500000000045
100
AcDbArc
 50
89.4951133241
 51
90.5048866759
  0
SPLINE
  5
10B
330
1F
100
AcDbEntity
  8
0
  6
Continuous
 62
     8
370
    18
100
AcDbSpline
210
0.0
220
0.0
230
1.0
 70
     8
 71
     3
 72
    18
 73
    14
 74
     0
 42
0.000000001
 43
0.00000001
 40
0.0
 40
0.0
 40
0.0
 40
0.0
 40
0.2499999999999984
 40
0.2499999999999984
 40
0.3749999999999988
 40
0.3749999999999988
 40
0.499999999999999
 40
0.499999999999999
 40
0.6249999999999992
 40
0.6249999999999992
 40
0.7499999999999996
 40
0.7499999999999996
 40
1.0
 40
1.0
 40
1.0
 40
1.0
 10
175.8167294220937
 20
278.4270554093471
 30
0.0
 10
175.8447932272986
 20
276.6712130139364
 30
0.0
 10
175.8794243041293
 20
274.8966835742084
 30
0.0
 10
176.4226938926595
 20
272.3108700132617
 30
0.0
 10
176.7007449741589
 20
271.4525796186034
 30
0.0
 10
177.4864384032549
 20
269.8617705523452
 30
0.0
 10
178.0053793841026
 20
269.1139421764148
 30
0.0
 10
179.2617591903285
 20
267.8761002757151
 30
0.0
 10
180.0148767680259
 20
267.3694867176415
 30
0.0
 10
181.6098492123532
 20
266.608877438432
 30
0.0
 10
182.4683791298387
 20
266.3435816369292
 30
0.0
 10
185.0558345799674
 20
265.837484302858
 30
0.0
 10
186.8021224031996
 20
265.829516083622
 30
0.0
 10
188.5427308285246
 20
265.8263394112377
 30
0.0
  0
SPLINE
  5
10C
330
1F
100
AcDbEntity
  8
0
  6
Continuous
 62
     8
370
    18
100
AcDbSpline
210
0.0
220
0.0
230
1.0
 70
     8
 71
     3
 72
    18
 73
    14
 74
     0
 42
0.000000001
 43
0.00000001
 40
0.0
 40
0.0
 40
0.0
 40
0.0
 40
0.2499999999999998
 40
0.2499999999999998
 40
0.3749999999999999
 40
0.3749999999999999
 40
0.4999999999999999
 40
0.4999999999999999
 40
0.6249999999999999
 40
0.6249999999999999
 40
0.75
 40
0.75
 40
1.0
 40
1.0
 40
1.0
 40
1.0
 10
207.1922517498739
 20
265.8263394112372
 30
0.0
 10
208.9367614582385
 20
265.8295232052107
 30
0.0
 10
210.7110337660413
 20
265.8398869062718
 30
0.0
 10
213.2915731751879
 20
266.3504285872329
 30
0.0
 10
214.1489496928442
 20
266.6174349509794
 30
0.0
 10
215.7440056927986
 20
267.383769008327
 30
0.0
 10
216.4961334323162
 20
267.8937893884911
 30
0.0
 10
217.7476795595767
 20
269.1367969177655
 30
0.0
 10
218.2604600259299
 20
269.8812224125057
 30
0.0
 10
219.0414718966318
 20
271.4720172355375
 30
0.0
 10
219.3164326141272
 20
272.3246773149068
 30
0.0
 10
219.8583345216122
 20
274.9219136704343
 30
0.0
 10
219.8902675458686
 20
276.6761053395082
 30
0.0
 10
219.9182531563047
 20
278.4270554093472
 30
0.0
  0
SPLINE
  5
10D
330
1F
100
AcDbEntity
  8
0
  6
Continuous
 62
     8
370
    18
100
AcDbSpline
210
0.0
220
0.0
230
1.0
 70
     8
 71
     3
 72
     8
 73
     4
 74
     0
 42
0.000000001
 43
0.00000001
 40
0.0
 40
0.0
 40
0.0
 40
0.0
 40
1.0
 40
1.0
 40
1.0
 40
1.0
 10
188.5489236747291
 20
265.8263291763241
 30
0.0
 10
191.655153206947
 20
265.8230769373691
 30
0.0
 10
194.7613151684588
 20
265.8215401371841
 30
0.0
 10
197.8674912891993
 20
265.8215475905628
 30
0.0
  0
SPLINE
  5
10E
330
1F
100
AcDbEntity
  8
0
  6
Continuous
 62
     8
370
    18
100
AcDbSpline
210
0.0
220
0.0
230
1.0
 70
     8
 71
     3
 72
     8
 73
     4
 74
     0
 42
0.000000001
 43
0.00000001
 40
0.0
 40
0.0
 40
0.0
 40
0.0
 40
1.0
 40
1.0
 40
1.0
 40
1.0
 10
197.8674912891992
 20
265.821547590563
 30
0.0
 10
200.9736674669026
 20
265.8215401367004
 30
0.0
 10
204.0798294349638
 20
265.8230769366268
 30
0.0
 10
207.1860589036693
 20
265.8263291763241
 30
0.0
  0
SPLINE
  5
10F
330
1F
100
AcDbEntity
  8
0
  6
Continuous
 62
     8
370
    18
100
AcDbSpline
210
0.0
220
0.0
230
1.0
 70
     8
 71
     3
 72
    10
 73
     6
 74
     0
 42
0.000000001
 43
0.00000001
 40
0.0
 40
0.0
 40
0.0
 40
0.0
 40
0.5
 40
0.5
 40
1.0
 40
1.0
 40
1.0
 40
1.0
 10
220.7455330319051
 20
338.5563748721967
 30
0.0
 10
220.7506030026527
 20
341.9615853661758
 30
0.0
 10
220.7538969395205
 20
345.363782261629
 30
0.0
 10
220.694226799975
 20
352.170740816658
 30
0.0
 10
220.650279562278
 20
355.5741496404478
 30
0.0
 10
220.6095730225286
 20
358.9771651441019
 30
0.0
  0
SPLINE
  5
110
330
1F
100
AcDbEntity
  8
0
  6
Continuous
 62
     8
370
    18
100
AcDbSpline
210
0.0
220
0.0
230
1.0
 70
     8
 71
     3
 72
    10
 73
     6
 74
     0
 42
0.000000001
 43
0.00000001
 40
0.0
 40
0.0
 40
0.0
 40
0.0
 40
0.5
 40
0.5
 40
1.0
 40
1.0
 40
1.0
 40
1.0
 10
219.9187793811471
 20
278.4602550570807
 30
0.0
 10
220.0653155303502
 20
288.4760463953278
 30
0.0
 10
220.2121517952393
 20
298.4918328347142
 30
0.0
 10
220.5062270760269
 20
318.5233990834222
 30
0.0
 10
220.6991255308374
 20
328.5385177742635
 30
0.0
 10
220.7450134049618
 20
338.5563776234954
 30
0.0
  0
SPLINE
  5
111
330
1F
100
AcDbEntity
  8
0
  6
Continuous
 62
     8
370
    18
100
AcDbSpline
210
0.0
220
0.0
230
1.0
 70
     8
 71
     3
 72
    10
 73
     6
 74
     0
 42
0.000000001
 43
0.00000001
 40
0.0
 40
0.0
 40
0.0
 40
0.0
 40
0.5
 40
0.5
 40
1.0
 40
1.0
 40
1.0
 40
1.0
 10
175.1254095558698
 20
358.9771651441019
 30
0.0
 10
175.0847030159764
 20
355.5741496404988
 30
0.0
 10
175.0407557784818
 20
352.1707408165919
 30
0.0
 10
174.9810856388196
 20
345.3637822616954
 30
0.0
 10
174.9843795757548
 20
341.9615853661256
 30
0.0
 10
174.9894495464934
 20
338.5563748721966
 30
0.0
  0
SPLINE
  5
112
330
1F
100
AcDbEntity
  8
0
  6
Continuous
 62
     8
370
    18
100
AcDbSpline
210
0.0
220
0.0
230
1.0
 70
     8
 71
     3
 72
    10
 73
     6
 74
     0
 42
0.000000001
 43
0.00000001
 40
0.0
 40
0.0
 40
0.0
 40
0.0
 40
0.5
 40
0.5
 40
1.0
 40
1.0
 40
1.0
 40
1.0
 10
174.9899691735115
 20
338.5563776071899
 30
0.0
 10
175.0358547713535
 20
328.5390150298676
 30
0.0
 10
175.2287518310256
 20
318.5236490127075
 30
0.0
 10
175.5228289508385
 20
298.4919577994438
 30
0.0
 10
175.6696661338302
 20
288.4761088780343
 30
0.0
 10
175.8162031972514
 20
278.4602550570807
 30
0.0
  0
SPLINE
  5
113
330
1F
100
AcDbEntity
  8
0
  6
Continuous
 62
     8
370
    18
100
AcDbSpline
210
0.0
220
0.0
230
1.0
 70
     8
 71
     3
 72
    28
 73
    24
 74
     0
 42
0.000000001
 43
0.00000001
 40
0.0
 40
0.0
 40
0.0
 40
0.0
 40
0.1250000000000006
 40
0.1250000000000006
 40
0.1875000000000006
 40
0.1875000000000006
 40
0.2500000000000007
 40
0.2500000000000007
 40
0.3125000000000008
 40
0.3125000000000008
 40
0.3750000000000009
 40
0.3750000000000009
 40
0.4375000000000009
 40
0.4375000000000009
 40
0.500000000000001
 40
0.500000000000001
 40
0.5625000000000009
 40
0.5625000000000009
 40
0.6250000000000008
 40
0.6250000000000008
 40
0.7500000000000006
 40
0.7500000000000006
 40
1.0
 40
1.0
 40
1.0
 40
1.0
 10
220.6099532878727
 20
358.9771672761354
 30
0.0
 10
220.5868055804512
 20
360.5617397650212
 30
0.0
 10
220.563255224755
 20
362.1462809940026
 30
0.0
 10
220.5265411211598
 20
364.5231330082376
 30
0.0
 10
220.5144248400382
 20
365.314733758283
 30
0.0
 10
220.48791904739
 20
366.9015252848029
 30
0.0
 10
220.4708939332682
 20
367.6981694736702
 30
0.0
 10
220.3516823812879
 20
369.293086006177
 30
0.0
 10
220.2493439884655
 20
370.0858795332053
 30
0.0
 10
219.8966373937047
 20
371.6526808694309
 30
0.0
 10
219.6409905664631
 20
372.4242528805386
 30
0.0
 10
218.9681894012903
 20
373.8766072337796
 30
0.0
 10
218.5415272258915
 20
374.5732852786917
 30
0.0
 10
217.5423255217719
 20
375.8310778126313
 30
0.0
 10
216.9750486960532
 20
376.3907614366834
 30
0.0
 10
215.7085901158891
 20
377.37165065039
 30
0.0
 10
215.0093773144577
 20
377.7893864121928
 30
0.0
 10
213.561101685753
 20
378.4475890433316
 30
0.0
 10
212.7995766592271
 20
378.6980121034603
 30
0.0
 10
210.4637998139552
 20
379.2377091414153
 30
0.0
 10
208.8821616392041
 20
379.3077977958444
 30
0.0
 10
204.1531771359293
 20
379.4080402115622
 30
0.0
 10
201.0171288195567
 20
379.4259647104833
 30
0.0
 10
197.8674916745264
 20
379.4259694567394
 30
0.0
  0
SPLINE
  5
114
330
1F
100
AcDbEntity
  8
0
  6
Continuous
 62
     8
370
    18
100
AcDbSpline
210
0.0
220
0.0
230
1.0
 70
     8
 71
     3
 72
    28
 73
    24
 74
     0
 42
0.000000001
 43
0.00000001
 40
0.0
 40
0.0
 40
0.0
 40
0.0
 40
0.25
 40
0.25
 40
0.375
 40
0.375
 40
0.4375
 40
0.4375
 40
0.5
 40
0.5
 40
0.5625
 40
0.5625
 40
0.625
 40
0.625
 40
0.6875
 40
0.6875
 40
0.75
 40
0.75
 40
0.8125
 40
0.8125
 40
0.875
 40
0.875
 40
1.0
 40
1.0
 40
1.0
 40
1.0
 10
197.8674909038718
 20
379.4259694567395
 30
0.0
 10
194.7310615453359
 20
379.4259647300908
 30
0.0
 10
191.6086372209457
 20
379.4076299679625
 30
0.0
 10
186.9023951002417
 20
379.3093282357293
 30
0.0
 10
185.3127948424654
 20
379.2425154777719
 30
0.0
 10
182.9721133889777
 20
378.7088101645502
 30
0.0
 10
182.2123767112211
 20
378.4624518717125
 30
0.0
 10
180.7454109327476
 20
377.8009173609935
 30
0.0
 10
180.0478145496423
 20
377.3855745965946
 30
0.0
 10
178.7800785592181
 20
376.408945356261
 30
0.0
 10
178.195324009903
 20
375.833962107542
 30
0.0
 10
177.1953572417157
 20
374.5761500748981
 30
0.0
 10
176.7761713882204
 20
373.8942326501322
 30
0.0
 10
176.0967316027196
 20
372.4327394173977
 30
0.0
 10
175.8402445486262
 20
371.6586035898262
 30
0.0
 10
175.4876198773807
 20
370.0971679749365
 30
0.0
 10
175.3840392385041
 20
369.3000797336626
 30
0.0
 10
175.2642473837016
 20
367.7031653964451
 30
0.0
 10
175.247167650252
 20
366.9067703803925
 30
0.0
 10
175.2206119364517
 20
365.3189606049899
 30
0.0
 10
175.2084995608311
 20
364.5268524818758
 30
0.0
 10
175.1717595383005
 20
362.1484486029063
 30
0.0
 10
175.148193073387
 20
360.5628402159756
 30
0.0
 10
175.1250292905258
 20
358.9771672761354
 30
0.0
  0
LINE
  5
115
330
1F
100
AcDbEntity
  8
0
  6
Continuous
 62
     8
370
    18
100
AcDbLine
 10
173.763289123
 20
358.9771030235
 30
0.0
 11
173.7250750951
 21
349.4598435934
 31
0.0
  0
SPLINE
  5
116
330
1F
100
AcDbEntity
  8
0
  6
Continuous
 62
     8
370
    18
100
AcDbSpline
210
0.0
220
0.0
230
1.0
 70
     8
 71
     3
 72
     9
 73
     5
 74
     0
 42
0.000000001
 43
0.00000001
 40
0.0
 40
0.0
 40
0.0
 40
0.0
 40
0.9421391001750891
 40
1.0
 40
1.0
 40
1.0
 40
1.0
 10
222.4731845847968
 20
358.9762331682128
 30
0.0
 10
222.4601308119762
 20
357.4110169242913
 30
0.0
 10
222.4462753496371
 20
355.7496738767193
 30
0.0
 10
222.0088391545409
 20
354.1646437710571
 30
0.0
 10
221.9835287026767
 20
354.0729325028938
 30
0.0
  0
LINE
  5
117
330
1F
100
AcDbEntity
  8
0
  6
Continuous
 62
     8
370
    18
100
AcDbLine
 10
222.0099074833
 20
349.4598435934
 30
0.0
 11
221.9716934554
 21
358.9771030235
 31
0.0
  0
SPLINE
  5
118
330
1F
100
AcDbEntity
  8
0
  6
Continuous
 62
     8
370
    18
100
AcDbSpline
210
0.0
220
0.0
230
1.0
 70
     8
 71
     3
 72
    10
 73
     6
 74
     0
 42
0.000000001
 43
0.00000001
 40
0.0
 40
0.0
 40
0.0
 40
0.0
 40
0.6879455994813165
 40
0.8659352025214503
 40
1.0
 40
1.0
 40
1.0
 40
1.0
 10
197.8674912891992
 20
380.8376736703199
 30
0.0
 10
194.7227859454923
 20
380.8040476436667
 30
0.0
 10
190.7644626991103
 20
380.7617216803611
 30
0.0
 10
186.1821420172652
 20
380.6333617112159
 30
0.0
 10
184.7751826504643
 20
380.3816412250042
 30
0.0
 10
184.170724830747
 20
380.2734970810694
 30
0.0
  0
SPLINE
  5
119
330
1F
100
AcDbEntity
  8
0
  6
Continuous
 62
     8
370
    18
100
AcDbSpline
210
0.0
220
0.0
230
1.0
 70
     8
 71
     3
 72
    12
 73
     8
 74
     0
 42
0.000000001
 43
0.00000001
 40
0.0
 40
0.0
 40
0.0
 40
0.0
 40
0.4999999999999993
 40
0.4999999999999993
 40
0.7499999999999997
 40
0.7499999999999997
 40
1.0
 40
1.0
 40
1.0
 40
1.0
 10
173.7631182967533
 20
358.9793244690158
 30
0.0
 10
173.7851164451814
 20
360.568360734518
 30
0.0
 10
173.8115515750668
 20
362.1571707060947
 30
0.0
 10
173.8578216391514
 20
364.5401058654197
 30
0.0
 10
173.8739384241454
 20
365.3303016206147
 30
0.0
 10
173.9101729330408
 20
366.9282340852533
 30
0.0
 10
173.9327243026107
 20
367.7497450143644
 30
0.0
 10
174.0019237979697
 20
368.5952093416454
 30
0.0
  0
SPLINE
  5
11A
330
1F
100
AcDbEntity
  8
0
  6
Continuous
 62
     8
370
    18
100
AcDbSpline
210
0.0
220
0.0
230
1.0
 70
     8
 71
     3
 72
    12
 73
     8
 74
     0
 42
0.000000001
 43
0.00000001
 40
0.0
 40
0.0
 40
0.0
 40
0.0
 40
0.2499999999999997
 40
0.2499999999999997
 40
0.4999999999999994
 40
0.4999999999999994
 40
1.0
 40
1.0
 40
1.0
 40
1.0
 10
221.7335774786013
 20
368.5888615033167
 30
0.0
 10
221.8024529168728
 20
367.7445650904766
 30
0.0
 10
221.8249503927273
 20
366.9228754699587
 30
0.0
 10
221.8611194504066
 20
365.326127680641
 30
0.0
 10
221.8772362840371
 20
364.5363791680524
 30
0.0
 10
221.9234671975882
 20
362.1549985416248
 30
0.0
 10
221.9498814006364
 20
360.5672578921232
 30
0.0
 10
221.9718642816451
 20
358.9793244690158
 30
0.0
  0
SPLINE
  5
11B
330
1F
100
AcDbEntity
  8
0
  6
Continuous
 62
     8
370
    18
100
AcDbSpline
210
0.0
220
0.0
230
1.0
 70
     8
 71
     3
 72
    10
 73
     6
 74
     0
 42
0.000000001
 43
0.00000001
 40
0.0
 40
0.0
 40
0.0
 40
0.0
 40
0.1308237428301395
 40
0.3090968226034193
 40
0.9999999999999999
 40
0.9999999999999999
 40
0.9999999999999999
 40
0.9999999999999999
 10
211.5664435617331
 20
380.2717275681776
 30
0.0
 10
210.9767433919214
 20
380.378718597267
 30
0.0
 10
209.5834607596229
 20
380.6315059462847
 30
0.0
 10
204.9999466898579
 20
380.7617669871366
 30
0.0
 10
201.0261997432491
 20
380.8040573252576
 30
0.0
 10
197.8674912891991
 20
380.8376736703199
 30
0.0
  0
SPLINE
  5
11C
330
1F
100
AcDbEntity
  8
0
  6
Continuous
 62
     8
370
    18
100
AcDbSpline
210
0.0
220
0.0
230
1.0
 70
     8
 71
     3
 72
    12
 73
     8
 74
     0
 42
0.000000001
 43
0.00000001
 40
0.0
 40
0.0
 40
0.0
 40
0.0
 40
0.125
 40
0.125
 40
0.25
 40
0.5
 40
1.0
 40
1.0
 40
1.0
 40
1.0
 10
260.5538319709684
 20
428.7925313827687
 30
0.0
 10
257.9419571969845
 20
428.8167937886415
 30
0.0
 10
255.3300666461778
 20
428.8374227016251
 30
0.0
 10
250.1062804662065
 20
428.8775698469606
 30
0.0
 10
242.2705822694381
 20
428.9334888716021
 30
0.0
 10
223.9871539921948
 20
429.0338553931511
 30
0.0
 10
208.3154169318431
 20
429.0682665022193
 30
0.0
 10
197.8674912891988
 20
429.0682665022192
 30
0.0
  0
SPLINE
  5
11D
330
1F
100
AcDbEntity
  8
0
  6
Continuous
 62
     8
370
    18
100
AcDbSpline
210
0.0
220
0.0
230
1.0
 70
     8
 71
     3
 72
    30
 73
    26
 74
     0
 42
0.000000001
 43
0.00000001
 40
0.0
 40
0.0
 40
0.0
 40
0.0
 40
0.1249999999999983
 40
0.1249999999999983
 40
0.1874999999999981
 40
0.1874999999999981
 40
0.249999999999998
 40
0.249999999999998
 40
0.3749999999999977
 40
0.3749999999999977
 40
0.4374999999999982
 40
0.4374999999999982
 40
0.4999999999999986
 40
0.4999999999999986
 40
0.6249999999999993
 40
0.6249999999999993
 40
0.6874999999999992
 40
0.6874999999999992
 40
0.7499999999999991
 40
0.7499999999999991
 40
0.8124999999999991
 40
0.8124999999999991
 40
0.874999999999999
 40
0.874999999999999
 40
1.0
 40
1.0
 40
1.0
 40
1.0
 10
281.3812190779422
 20
407.9651969926792
 30
0.0
 10
281.3684715499248
 20
409.3367222392477
 30
0.0
 10
281.2231014424809
 20
410.6848770821905
 30
0.0
 10
280.8137962400368
 20
412.6734077191634
 30
0.0
 10
280.6452560593037
 20
413.3305937787381
 30
0.0
 10
280.2424956275039
 20
414.6333919103263
 30
0.0
 10
280.0073349998162
 20
415.280267481371
 30
0.0
 10
279.2176778535362
 20
417.1620491064479
 30
0.0
 10
278.5762290624965
 20
418.3525060720767
 30
0.0
 10
277.4429239801633
 20
420.042866350122
 30
0.0
 10
277.0350603332955
 20
420.5919796898735
 30
0.0
 10
276.1657199488732
 20
421.6496503747451
 30
0.0
 10
275.7086405324181
 20
422.1532077807257
 30
0.0
 10
274.2722837941359
 20
423.5904253798318
 30
0.0
 10
273.2284867770136
 20
424.4513064021783
 30
0.0
 10
271.5306963925964
 20
425.5936229810017
 30
0.0
 10
270.9417556766801
 20
425.9493381131559
 30
0.0
 10
269.7449461624096
 20
426.5950311763563
 30
0.0
 10
269.1340137010923
 20
426.8872380200557
 30
0.0
 10
267.8875175397088
 20
427.4114097459004
 30
0.0
 10
267.25195348387
 20
427.643373757948
 30
0.0
 10
265.9559220769998
 20
428.0463944353734
 30
0.0
 10
265.2932639695762
 20
428.217889477986
 30
0.0
 10
263.2816372705886
 20
428.6343367762383
 30
0.0
 10
261.9253612118461
 20
428.7797908794969
 30
0.0
 10
260.5538319709689
 20
428.7925313827708
 30
0.0
  0
SPLINE
  5
11E
330
1F
100
AcDbEntity
  8
0
  6
Continuous
 62
     8
370
    18
100
AcDbSpline
210
0.0
220
0.0
230
1.0
 70
     8
 71
     3
 72
    19
 73
    15
 74
     0
 42
0.000000001
 43
0.00000001
 40
0.0
 40
0.0
 40
0.0
 40
0.0
 40
0.0624999999999999
 40
0.0624999999999999
 40
0.1249999999999998
 40
0.2499999999999997
 40
0.4999999999999998
 40
0.4999999999999998
 40
0.7499999999999998
 40
0.7499999999999998
 40
0.8749999999999999
 40
0.9375
 40
0.9375
 40
1.0
 40
1.0
 40
1.0
 40
1.0
 10
281.3811518694542
 20
282.5925058518432
 30
0.0
 10
281.4054197076841
 20
285.2043816332087
 30
0.0
 10
281.4260478665918
 20
287.8162718977704
 30
0.0
 10
281.4661948347092
 20
293.0400570748522
 30
0.0
 10
281.5221138511497
 20
300.8757521839523
 30
0.0
 10
281.6224824871531
 20
319.1591621722089
 30
0.0
 10
281.6569001783248
 20
334.8308645506219
 30
0.0
 10
281.6569150559451
 20
355.7266526922931
 30
0.0
 10
281.633984563523
 20
366.1745555850988
 30
0.0
 10
281.5651774815252
 20
381.8461699626559
 30
0.0
 10
281.5221710756164
 20
389.6819361379447
 30
0.0
 10
281.4662592173836
 20
397.5176407874823
 30
0.0
 10
281.4261166155335
 20
402.7414302140642
 30
0.0
 10
281.4054949323022
 20
405.3533221969608
 30
0.0
 10
281.3812190779427
 20
407.9651969926792
 30
0.0
  0
SPLINE
  5
11F
330
1F
100
AcDbEntity
  8
0
  6
Continuous
 62
     8
370
    18
100
AcDbSpline
210
0.0
220
0.0
230
1.0
 70
     8
 71
     3
 72
    30
 73
    26
 74
     0
 42
0.000000001
 43
0.00000001
 40
0.0
 40
0.0
 40
0.0
 40
0.0
 40
0.1250000000000011
 40
0.1250000000000011
 40
0.1875000000000012
 40
0.1875000000000012
 40
0.2500000000000012
 40
0.2500000000000012
 40
0.3750000000000001
 40
0.3750000000000001
 40
0.4375000000000001
 40
0.4375000000000001
 40
0.5000000000000001
 40
0.5000000000000001
 40
0.6250000000000001
 40
0.6250000000000001
 40
0.6875000000000001
 40
0.6875000000000001
 40
0.7500000000000001
 40
0.7500000000000001
 40
0.8125000000000001
 40
0.8125000000000001
 40
0.8750000000000001
 40
0.8750000000000001
 40
1.0
 40
1.0
 40
1.0
 40
1.0
 10
260.5538356115725
 20
261.7651895939609
 30
0.0
 10
261.925358239445
 20
261.777932883477
 30
0.0
 10
263.2735106759953
 20
261.923299389222
 30
0.0
 10
265.2620380844506
 20
262.3325996859865
 30
0.0
 10
265.9192231312421
 20
262.5011383181538
 30
0.0
 10
267.222019374387
 20
262.9038957881431
 30
0.0
 10
267.8688940193001
 20
263.1390549867763
 30
0.0
 10
269.7506728741212
 20
263.9287079530449
 30
0.0
 10
270.9411281301858
 20
264.5701541150954
 30
0.0
 10
272.6314861510542
 20
265.7034553038849
 30
0.0
 10
273.1805988361516
 20
266.1113177007569
 30
0.0
 10
274.2382680889897
 20
266.9806553993577
 30
0.0
 10
274.7418248352766
 20
267.4377334747356
 30
0.0
 10
276.1790406462315
 20
268.8740861709454
 30
0.0
 10
277.0399207284754
 20
269.9178804691295
 30
0.0
 10
278.1822363729281
 20
271.6156666584765
 30
0.0
 10
278.5379512350478
 20
272.2046058917316
 30
0.0
 10
279.1836439695728
 20
273.401412449565
 30
0.0
 10
279.4758507523539
 20
274.0123434348789
 30
0.0
 10
280.0000225841516
 20
275.2588366385978
 30
0.0
 10
280.2319867627872
 20
275.8943992128927
 30
0.0
 10
280.6350080402552
 20
277.190427635985
 30
0.0
 10
280.8065035198204
 20
277.8530842484814
 30
0.0
 10
281.222952596231
 20
279.8647063064722
 30
0.0
 10
281.3684085446684
 20
281.220979427753
 30
0.0
 10
281.3811518694563
 20
282.5925058518427
 30
0.0
  0
SPLINE
  5
120
330
1F
100
AcDbEntity
  8
0
  6
Continuous
 62
     8
370
    18
100
AcDbSpline
210
0.0
220
0.0
230
1.0
 70
     8
 71
     3
 72
    17
 73
    13
 74
     0
 42
0.000000001
 43
0.00000001
 40
0.0
 40
0.0
 40
0.0
 40
0.0
 40
0.0625
 40
0.0625
 40
0.1249999999999999
 40
0.25
 40
0.5
 40
0.7500000000000001
 40
0.8750000000000001
 40
0.9375
 40
0.9375
 40
1.0
 40
1.0
 40
1.0
 40
1.0
 10
135.1811444707361
 20
261.7651223854738
 30
0.0
 10
137.7930755500883
 20
261.7408460079907
 30
0.0
 10
140.4050066253056
 20
261.7202240667384
 30
0.0
 10
145.6288687771881
 20
261.6800810024684
 30
0.0
 10
153.4646620027598
 20
261.6241687280158
 30
0.0
 10
171.7481795133309
 20
261.5238209963525
 30
0.0
 10
197.8674901976862
 20
261.4664969031426
 30
0.0
 10
223.9868008220095
 20
261.5238575185127
 30
0.0
 10
242.2703182275137
 20
261.6242258527599
 30
0.0
 10
250.1061113945463
 20
261.6801453484101
 30
0.0
 10
255.3299735044001
 20
261.7202928093174
 30
0.0
 10
257.9419045600413
 20
261.7409212421969
 30
0.0
 10
260.5538356115725
 20
261.7651895939611
 30
0.0
  0
SPLINE
  5
121
330
1F
100
AcDbEntity
  8
0
  6
Continuous
 62
     8
370
    18
100
AcDbSpline
210
0.0
220
0.0
230
1.0
 70
     8
 71
     3
 72
    30
 73
    26
 74
     0
 42
0.000000001
 43
0.00000001
 40
0.0
 40
0.0
 40
0.0
 40
0.0
 40
0.1249999999999989
 40
0.1249999999999989
 40
0.1874999999999979
 40
0.1874999999999979
 40
0.2499999999999969
 40
0.2499999999999969
 40
0.3749999999999956
 40
0.3749999999999956
 40
0.4374999999999953
 40
0.4374999999999953
 40
0.4999999999999949
 40
0.4999999999999949
 40
0.6249999999999951
 40
0.6249999999999951
 40
0.6874999999999962
 40
0.6874999999999962
 40
0.7499999999999972
 40
0.7499999999999972
 40
0.8124999999999982
 40
0.8124999999999982
 40
0.8749999999999992
 40
0.8749999999999992
 40
1.0
 40
1.0
 40
1.0
 40
1.0
 10
114.3538100806469
 20
282.5925094924472
 30
0.0
 10
114.3665505489551
 20
281.2209840156519
 30
0.0
 10
114.511915228676
 20
279.8728287121199
 30
0.0
 10
114.9212137082859
 20
277.8842968861601
 30
0.0
 10
115.0897518943133
 20
277.2271103480773
 30
0.0
 10
115.4925087501934
 20
275.9243110753521
 30
0.0
 10
115.7276677885104
 20
275.2774348756976
 30
0.0
 10
116.5173206031949
 20
273.3956515014496
 30
0.0
 10
117.1587670969856
 20
272.2051933490941
 30
0.0
 10
118.2920692567187
 20
270.5148310622604
 30
0.0
 10
118.6999320625055
 20
269.9657169609803
 30
0.0
 10
119.5692707005942
 20
268.9080449295017
 30
0.0
 10
120.0263493105743
 20
268.4044868220773
 30
0.0
 10
121.4627037747873
 20
266.9672669822294
 30
0.0
 10
122.5064994724839
 20
266.1063842901116
 30
0.0
 10
124.2042879729804
 20
264.9640647047356
 30
0.0
 10
124.7932280016004
 20
264.6083485276401
 30
0.0
 10
125.9900362456155
 20
263.9626531279609
 30
0.0
 10
126.6009681172238
 20
263.670444994755
 30
0.0
 10
127.8474631639917
 20
263.1462703916146
 30
0.0
 10
128.4830266951471
 20
262.9143047923165
 30
0.0
 10
129.7790570824952
 20
262.5112805516606
 30
0.0
 10
130.441714681625
 20
262.3397835292397
 30
0.0
 10
132.4533398894892
 20
261.9233295268162
 30
0.0
 10
133.8096153992061
 20
261.7778699490403
 30
0.0
 10
135.1811444707358
 20
261.7651223854722
 30
0.0
  0
SPLINE
  5
122
330
1F
100
AcDbEntity
  8
0
  6
Continuous
 62
     8
370
    18
100
AcDbSpline
210
0.0
220
0.0
230
1.0
 70
     8
 71
     3
 72
    12
 73
     8
 74
     0
 42
0.000000001
 43
0.00000001
 40
0.0
 40
0.0
 40
0.0
 40
0.0
 40
0.5000000000000002
 40
0.7500000000000003
 40
0.8750000000000001
 40
0.8750000000000001
 40
1.0
 40
1.0
 40
1.0
 40
1.0
 10
114.0780749611968
 20
345.2788501742166
 30
0.0
 10
114.0780749611968
 20
334.8309245315724
 30
0.0
 10
114.1124860702642
 20
319.1591874712207
 30
0.0
 10
114.2128525918141
 20
300.8757591939775
 30
0.0
 10
114.2687716164559
 20
293.0400609972091
 30
0.0
 10
114.3089187617914
 20
287.8162748172379
 30
0.0
 10
114.3295476747738
 20
285.204384266431
 30
0.0
 10
114.3538100806466
 20
282.5925094924471
 30
0.0
  0
SPLINE
  5
123
330
1F
100
AcDbEntity
  8
0
  6
Continuous
 62
     8
370
    18
100
AcDbSpline
210
0.0
220
0.0
230
1.0
 70
     8
 71
     3
 72
    30
 73
    26
 74
     0
 42
0.000000001
 43
0.00000001
 40
0.0
 40
0.0
 40
0.0
 40
0.0
 40
0.1249999999999981
 40
0.1249999999999981
 40
0.1874999999999978
 40
0.1874999999999978
 40
0.2499999999999974
 40
0.2499999999999974
 40
0.3124999999999971
 40
0.3124999999999971
 40
0.3749999999999968
 40
0.3749999999999968
 40
0.4999999999999964
 40
0.4999999999999964
 40
0.5624999999999962
 40
0.5624999999999962
 40
0.6249999999999961
 40
0.6249999999999961
 40
0.7499999999999964
 40
0.7499999999999964
 40
0.8124999999999969
 40
0.8124999999999969
 40
0.8749999999999974
 40
0.8749999999999974
 40
1.0
 40
1.0
 40
1.0
 40
1.0
 10
260.5619980362138
 20
429.7760187155438
 30
0.0
 10
261.9979434484893
 20
429.7634017550487
 30
0.0
 10
263.4179565735203
 20
429.6116720120809
 30
0.0
 10
265.5241823452872
 20
429.1763203634574
 30
0.0
 10
266.2180027293843
 20
428.9969589243756
 30
0.0
 10
267.5749739133515
 20
428.5753379990651
 30
0.0
 10
268.240420660857
 20
428.332619741822
 30
0.0
 10
269.5455236729378
 20
427.7840704672198
 30
0.0
 10
270.1851802970024
 20
427.4782403296225
 30
0.0
 10
271.4382612796304
 20
426.8023861927226
 30
0.0
 10
272.0548961674958
 20
426.4300265778592
 30
0.0
 10
273.8324895819073
 20
425.2342138880504
 30
0.0
 10
274.9253169603058
 20
424.3329577015936
 30
0.0
 10
276.4291007863893
 20
422.828267723206
 30
0.0
 10
276.9076288087669
 20
422.3010596211503
 30
0.0
 10
277.8177438558718
 20
421.1936905304611
 30
0.0
 10
278.2447243222007
 20
420.6187674209938
 30
0.0
 10
279.4310897850184
 20
418.848954697221
 30
0.0
 10
280.1024965400895
 20
417.602533490074
 30
0.0
 10
280.9288742822599
 20
415.6322600847134
 30
0.0
 10
281.1749384873021
 20
414.954954459952
 30
0.0
 10
281.5962796595802
 20
413.5908855750914
 30
0.0
 10
281.7725415855824
 20
412.9028002824973
 30
0.0
 10
282.2004017219444
 20
410.8207963701088
 30
0.0
 10
282.3520418474059
 20
409.4092998655256
 30
0.0
 10
282.3646586308802
 20
407.9733557178791
 30
0.0
  0
SPLINE
  5
124
330
1F
100
AcDbEntity
  8
0
  6
Continuous
 62
     8
370
    18
100
AcDbSpline
210
0.0
220
0.0
230
1.0
 70
     8
 71
     3
 72
    30
 73
    26
 74
     0
 42
0.000000001
 43
0.00000001
 40
0.0
 40
0.0
 40
0.0
 40
0.0
 40
0.1250000000000004
 40
0.1250000000000004
 40
0.1875
 40
0.1875
 40
0.2499999999999997
 40
0.2499999999999997
 40
0.3124999999999993
 40
0.3124999999999993
 40
0.3749999999999988
 40
0.3749999999999988
 40
0.4999999999999981
 40
0.4999999999999981
 40
0.5624999999999986
 40
0.5624999999999986
 40
0.624999999999999
 40
0.624999999999999
 40
0.7499999999999999
 40
0.7499999999999999
 40
0.8124999999999996
 40
0.8124999999999996
 40
0.8749999999999992
 40
0.8749999999999992
 40
1.0
 40
1.0
 40
1.0
 40
1.0
 10
282.3646602504392
 20
282.5843430059916
 30
0.0
 10
282.3520433713414
 20
281.1483975939356
 30
0.0
 10
282.2003137097335
 20
279.7283844683403
 30
0.0
 10
281.7649621855688
 20
277.622158694462
 30
0.0
 10
281.5856007808684
 20
276.9283382809889
 30
0.0
 10
281.1639799266964
 20
275.5713670642176
 30
0.0
 10
280.9212617044064
 20
274.9059203023864
 30
0.0
 10
280.3727125004856
 20
273.6008172649378
 30
0.0
 10
280.0668823986093
 20
272.9611606298338
 30
0.0
 10
279.3910283361416
 20
271.7080796275533
 30
0.0
 10
279.0186687596137
 20
271.0914447285369
 30
0.0
 10
277.8228561486027
 20
269.3138512297592
 30
0.0
 10
276.9216000154164
 20
268.2210238042405
 30
0.0
 10
275.4169101293639
 20
266.7172399107999
 30
0.0
 10
274.8897020601429
 20
266.238711866554
 30
0.0
 10
273.7823330412387
 20
265.3285967752599
 30
0.0
 10
273.2074099353649
 20
264.9016162605895
 30
0.0
 10
271.4375972660484
 20
263.7152506901586
 30
0.0
 10
270.1911761008022
 20
263.0438438678754
 30
0.0
 10
268.2209027724854
 20
262.2174660215147
 30
0.0
 10
267.5435971712153
 20
261.9714017783921
 30
0.0
 10
266.1795282930179
 20
261.5500605188431
 30
0.0
 10
265.4914430034732
 20
261.3737985502913
 30
0.0
 10
263.4094390996689
 20
260.9459382879575
 30
0.0
 10
261.9979426000364
 20
260.7942980809204
 30
0.0
 10
260.561998457424
 20
260.7816812129765
 30
0.0
  0
SPLINE
  5
125
330
1F
100
AcDbEntity
  8
0
  6
Continuous
 62
     8
370
    18
100
AcDbSpline
210
0.0
220
0.0
230
1.0
 70
     8
 71
     3
 72
    17
 73
    13
 74
     0
 42
0.000000001
 43
0.00000001
 40
0.0
 40
0.0
 40
0.0
 40
0.0
 40
0.0625000000000001
 40
0.0625000000000001
 40
0.1250000000000001
 40
0.2500000000000001
 40
0.4999999999999999
 40
0.7499999999999999
 40
0.8749999999999999
 40
0.9374999999999999
 40
0.9374999999999999
 40
1.0
 40
1.0
 40
1.0
 40
1.0
 10
260.5619984574242
 20
260.781681212976
 30
0.0
 10
257.9497273598852
 20
260.7587651005194
 30
0.0
 10
255.3374562601518
 20
260.737230972413
 30
0.0
 10
250.1129140627924
 20
260.6970784674564
 30
0.0
 10
242.2761007668637
 20
260.6411520284159
 30
0.0
 10
223.9902030771367
 20
260.5407725160003
 30
0.0
 10
197.8674920940193
 20
260.4834139703441
 30
0.0
 10
171.7447811138486
 20
260.5407731611538
 30
0.0
 10
153.4588834292763
 20
260.6411531797005
 30
0.0
 10
145.6220701362199
 20
260.6970798434642
 30
0.0
 10
140.3975279409226
 20
260.7372324987901
 30
0.0
 10
137.7852568443353
 20
260.7587668810807
 30
0.0
 10
135.1729857455359
 20
260.7816828325344
 30
0.0
  0
SPLINE
  5
126
330
1F
100
AcDbEntity
  8
0
  6
Continuous
 62
     8
370
    18
100
AcDbSpline
210
0.0
220
0.0
230
1.0
 70
     8
 71
     3
 72
    30
 73
    26
 74
     0
 42
0.000000001
 43
0.00000001
 40
0.0
 40
0.0
 40
0.0
 40
0.0
 40
0.1250000000000011
 40
0.1250000000000011
 40
0.1875000000000017
 40
0.1875000000000017
 40
0.2500000000000022
 40
0.2500000000000022
 40
0.3125000000000028
 40
0.3125000000000028
 40
0.3750000000000033
 40
0.3750000000000033
 40
0.5000000000000034
 40
0.5000000000000034
 40
0.5625000000000034
 40
0.5625000000000034
 40
0.6250000000000034
 40
0.6250000000000034
 40
0.7500000000000026
 40
0.7500000000000026
 40
0.8125000000000016
 40
0.8125000000000016
 40
0.8750000000000006
 40
0.8750000000000006
 40
1.0
 40
1.0
 40
1.0
 40
1.0
 10
135.1729857455359
 20
260.7816828325347
 30
0.0
 10
133.7370403265955
 20
260.794299627179
 30
0.0
 10
132.3170271705083
 20
260.9460292073165
 30
0.0
 10
130.2108013171727
 20
261.3813806262016
 30
0.0
 10
129.5169809366832
 20
261.5607419822809
 30
0.0
 10
128.1600097173677
 20
261.9823627525102
 30
0.0
 10
127.494562944569
 20
262.2250809349773
 30
0.0
 10
126.1894598678088
 20
262.7736300679191
 30
0.0
 10
125.5498032043538
 20
263.0794601386215
 30
0.0
 10
124.2967221295462
 20
263.7553141520988
 30
0.0
 10
123.6800871915431
 20
264.1276737095362
 30
0.0
 10
121.9024936801971
 20
265.3234861942582
 30
0.0
 10
120.8096662103638
 20
266.2247422617945
 30
0.0
 10
119.3058822154689
 20
267.7294320966932
 30
0.0
 10
118.8273541314851
 20
268.2566401567493
 30
0.0
 10
117.9172389515031
 20
269.3640091770077
 30
0.0
 10
117.4902584448877
 20
269.9389322178658
 30
0.0
 10
116.3038928071882
 20
271.7087448005598
 30
0.0
 10
115.6324859151224
 20
272.9551659376126
 30
0.0
 10
114.8061079481778
 20
274.9254392804127
 30
0.0
 10
114.5600436674234
 20
275.6027448861925
 30
0.0
 10
114.1387023523634
 20
276.9668137010843
 30
0.0
 10
113.9624403518796
 20
277.6548989641384
 30
0.0
 10
113.5345799852695
 20
279.7369028042746
 30
0.0
 10
113.3829396972313
 20
281.1483992823235
 30
0.0
 10
113.3703227478721
 20
282.5843434272019
 30
0.0
  0
SPLINE
  5
127
330
1F
100
AcDbEntity
  8
0
  6
Continuous
 62
     8
370
    18
100
AcDbSpline
210
0.0
220
0.0
230
1.0
 70
     8
 71
     3
 72
    30
 73
    26
 74
     0
 42
0.000000001
 43
0.00000001
 40
0.0
 40
0.0
 40
0.0
 40
0.0
 40
0.1249999999999998
 40
0.1249999999999998
 40
0.1874999999999999
 40
0.1874999999999999
 40
0.2499999999999999
 40
0.2499999999999999
 40
0.3124999999999999
 40
0.3124999999999999
 40
0.3749999999999999
 40
0.3749999999999999
 40
0.5
 40
0.5
 40
0.5624999999999996
 40
0.5624999999999996
 40
0.6249999999999991
 40
0.6249999999999991
 40
0.7499999999999988
 40
0.7499999999999988
 40
0.8124999999999993
 40
0.8124999999999993
 40
0.8749999999999999
 40
0.8749999999999999
 40
1.0
 40
1.0
 40
1.0
 40
1.0
 10
113.3704190779854
 20
407.9732602934794
 30
0.0
 10
113.3830394949641
 20
409.4092044733726
 30
0.0
 10
113.5347724857146
 20
410.8292158623954
 30
0.0
 10
113.9701278982259
 20
412.9354383832571
 30
0.0
 10
114.1494906318314
 20
413.629258494311
 30
0.0
 10
114.5711136421607
 20
414.9862282639515
 30
0.0
 10
114.8138327530443
 20
415.6516741961681
 30
0.0
 10
115.3623832872524
 20
416.9567753935362
 30
0.0
 10
115.6682138315373
 20
417.5964310178811
 30
0.0
 10
116.3440682604997
 20
418.8495098399817
 30
0.0
 10
116.7164277743305
 20
419.4661436529536
 30
0.0
 10
117.9122411411445
 20
421.2437360918413
 30
0.0
 10
118.8134970440104
 20
422.3365625231298
 30
0.0
 10
120.3181851527798
 20
423.8403448158543
 30
0.0
 10
120.8453923877857
 20
424.3188723095047
 30
0.0
 10
121.9527591434383
 20
425.2289863492055
 30
0.0
 10
122.5276826841384
 20
425.6559677595055
 30
0.0
 10
124.2974939835606
 20
426.8423342653129
 30
0.0
 10
125.5439134365785
 20
427.5137417226097
 30
0.0
 10
127.5141825689821
 20
428.3401212857133
 30
0.0
 10
128.1914867494479
 20
428.586186385584
 30
0.0
 10
129.5555550643159
 20
429.0075303243367
 30
0.0
 10
130.2436400166573
 20
429.1837937083344
 30
0.0
 10
132.3256427433396
 20
429.6116584550182
 30
0.0
 10
133.7371382359973
 20
429.7633019794023
 30
0.0
 10
135.1730811699358
 20
429.7759223854304
 30
0.0
  0
SPLINE
  5
128
330
1F
100
AcDbEntity
  8
0
  6
Continuous
 62
     8
370
    18
100
AcDbSpline
210
0.0
220
0.0
230
1.0
 70
     8
 71
     3
 72
    30
 73
    26
 74
     0
 42
0.000000001
 43
0.00000001
 40
0.0
 40
0.0
 40
0.0
 40
0.0
 40
0.1250000000000006
 40
0.1250000000000006
 40
0.1875000000000009
 40
0.1875000000000009
 40
0.2500000000000013
 40
0.2500000000000013
 40
0.3750000000000017
 40
0.3750000000000017
 40
0.437500000000002
 40
0.437500000000002
 40
0.5000000000000023
 40
0.5000000000000023
 40
0.6250000000000021
 40
0.6250000000000021
 40
0.6875000000000019
 40
0.6875000000000019
 40
0.7500000000000018
 40
0.7500000000000018
 40
0.8125000000000016
 40
0.8125000000000016
 40
0.8750000000000014
 40
0.8750000000000014
 40
1.0
 40
1.0
 40
1.0
 40
1.0
 10
135.1813558258495
 20
428.7966605290363
 30
0.0
 10
133.8095287357237
 20
428.7839862018271
 30
0.0
 10
132.461077056777
 20
428.6386330036664
 30
0.0
 10
130.4721043963646
 20
428.2292945434325
 30
0.0
 10
129.8147715847102
 20
428.0607331717086
 30
0.0
 10
128.5116808703053
 20
427.657911287327
 30
0.0
 10
127.8646602443159
 20
427.4227104793948
 30
0.0
 10
125.9824591855811
 20
426.6329104443392
 30
0.0
 10
124.7917372950265
 20
425.991335410884
 30
0.0
 10
123.1010006936377
 20
424.8577963055901
 30
0.0
 10
122.5517642976787
 20
424.4498461191126
 30
0.0
 10
121.493860676074
 20
423.5803214427092
 30
0.0
 10
120.9901930357894
 20
423.1231441716524
 30
0.0
 10
119.5526627734261
 20
421.6864773482328
 30
0.0
 10
118.6915971377896
 20
420.6424517826935
 30
0.0
 10
117.549040747152
 20
418.9442846056953
 30
0.0
 10
117.193252463313
 20
418.3552131350323
 30
0.0
 10
116.5474300826863
 20
417.1581384422404
 30
0.0
 10
116.2551664026675
 20
416.5470705480387
 30
0.0
 10
115.7308967907997
 20
415.3002977632171
 30
0.0
 10
115.4988917177993
 20
414.6645925214369
 30
0.0
 10
115.0958059176374
 20
413.3682724963579
 30
0.0
 10
114.9242866286062
 20
412.7054658263063
 30
0.0
 10
114.5077975094088
 20
410.6933907768613
 30
0.0
 10
114.3623552889711
 20
409.3368156916749
 30
0.0
 10
114.3496809343776
 20
407.9649856375661
 30
0.0
  0
SPLINE
  5
129
330
1F
100
AcDbEntity
  8
0
  6
Continuous
 62
     8
370
    18
100
AcDbSpline
210
0.0
220
0.0
230
1.0
 70
     8
 71
     3
 72
    13
 73
     9
 74
     0
 42
0.000000001
 43
0.00000001
 40
0.0
 40
0.0
 40
0.0
 40
0.0
 40
0.1249999999999998
 40
0.1249999999999998
 40
0.2499999999999997
 40
0.4999999999999997
 40
0.4999999999999997
 40
1.0
 40
1.0
 40
1.0
 40
1.0
 10
114.349680934379
 20
407.964985637566
 30
0.0
 10
114.3255498634618
 20
405.3531186523322
 30
0.0
 10
114.3054840750347
 20
402.7412345731128
 30
0.0
 10
114.2659635133999
 20
397.5174632427861
 30
0.0
 10
114.2109003797092
 20
389.6817879304596
 30
0.0
 10
114.1685140010831
 20
381.8460575870844
 30
0.0
 10
114.1006873466534
 20
366.174523371587
 30
0.0
 10
114.0780749611978
 20
355.7267358148479
 30
0.0
 10
114.0780749611978
 20
345.2788501742166
 30
0.0
  0
SPLINE
  5
12A
330
1F
100
AcDbEntity
  8
0
  6
Continuous
 62
     8
370
    18
100
AcDbSpline
210
0.0
220
0.0
230
1.0
 70
     8
 71
     3
 72
    14
 73
    10
 74
     0
 42
0.000000001
 43
0.00000001
 40
0.0
 40
0.0
 40
0.0
 40
0.0
 40
0.5
 40
0.5
 40
0.75
 40
0.75
 40
0.875
 40
0.875
 40
1.0
 40
1.0
 40
1.0
 40
1.0
 10
197.8674912891988
 20
429.0682665022186
 30
0.0
 10
187.4196056485675
 20
429.0682665022186
 30
0.0
 10
176.9718180918284
 20
429.0456541167619
 30
0.0
 10
161.300283876331
 20
428.9778274623322
 30
0.0
 10
156.0764636474143
 20
428.9495698765822
 30
0.0
 10
148.2407699917138
 20
428.89873224039
 30
0.0
 10
145.6288782206294
 20
428.8803779500163
 30
0.0
 10
140.4051068903027
 20
428.8408573883816
 30
0.0
 10
137.7932228110832
 20
428.820791599954
 30
0.0
 10
135.1813558258495
 20
428.7966605290367
 30
0.0
  0
SPLINE
  5
12B
330
1F
100
AcDbEntity
  8
0
  6
Continuous
 62
     8
370
    18
100
AcDbSpline
210
0.0
220
0.0
230
1.0
 70
     8
 71
     3
 72
    14
 73
    10
 74
     0
 42
0.000000001
 43
0.00000001
 40
0.0
 40
0.0
 40
0.0
 40
0.0
 40
0.4999999999999999
 40
0.4999999999999999
 40
0.75
 40
0.75
 40
0.875
 40
0.875
 40
1.0
 40
1.0
 40
1.0
 40
1.0
 10
113.0949986330804
 20
345.2788501742166
 30
0.0
 10
113.0949986330804
 20
355.7281204490375
 30
0.0
 10
113.1179482829881
 20
366.1772897938576
 30
0.0
 10
113.1868005993904
 20
381.8508923614639
 30
0.0
 10
113.2154894893878
 20
387.0754013073009
 30
0.0
 10
113.2671320368657
 20
394.9121268340537
 30
0.0
 10
113.2857811011539
 20
397.5243623608062
 30
0.0
 10
113.3259495228408
 20
402.7488207763921
 30
0.0
 10
113.3474966764375
 20
405.3610432894548
 30
0.0
 10
113.3704190779857
 20
407.9732602934795
 30
0.0
  0
SPLINE
  5
12C
330
1F
100
AcDbEntity
  8
0
  6
Continuous
 62
     8
370
    18
100
AcDbSpline
210
0.0
220
0.0
230
1.0
 70
     8
 71
     3
 72
    13
 73
     9
 74
     0
 42
0.000000001
 43
0.00000001
 40
0.0
 40
0.0
 40
0.0
 40
0.0
 40
0.1250000000000002
 40
0.1250000000000002
 40
0.2500000000000003
 40
0.5000000000000003
 40
0.5000000000000003
 40
1.0
 40
1.0
 40
1.0
 40
1.0
 10
135.173081169936
 20
429.7759223854299
 30
0.0
 10
137.7852981739606
 20
429.7988447869781
 30
0.0
 10
140.3975206870233
 20
429.8203919405748
 30
0.0
 10
145.6219791026092
 20
429.8605603622617
 30
0.0
 10
153.4586856831961
 20
429.9165075290278
 30
0.0
 10
161.2954491019516
 20
429.9595408640252
 30
0.0
 10
176.9690516695579
 20
430.0283931804275
 30
0.0
 10
187.418221014378
 20
430.0513428303354
 30
0.0
 10
197.8674912891988
 20
430.0513428303354
 30
0.0
  0
SPLINE
  5
12D
330
1F
100
AcDbEntity
  8
0
  6
Continuous
 62
     8
370
    18
100
AcDbSpline
210
0.0
220
0.0
230
1.0
 70
     8
 71
     3
 72
    12
 73
     8
 74
     0
 42
0.000000001
 43
0.00000001
 40
0.0
 40
0.0
 40
0.0
 40
0.0
 40
0.5000000000000001
 40
0.75
 40
0.8750000000000001
 40
0.8750000000000001
 40
1.0
 40
1.0
 40
1.0
 40
1.0
 10
197.8674912891988
 20
430.0513428303354
 30
0.0
 10
208.3167773141165
 20
430.0513428303354
 30
0.0
 10
223.9905551692479
 20
430.0169262548599
 30
0.0
 10
242.2763647720631
 20
429.9165462770636
 30
0.0
 10
250.1130836236387
 20
429.8606202748227
 30
0.0
 10
255.3375502595708
 20
429.8204682439141
 30
0.0
 10
257.9497770787793
 20
429.798934543251
 30
0.0
 10
260.5619980362138
 20
429.7760187155439
 30
0.0
  0
SPLINE
  5
12E
330
1F
100
AcDbEntity
  8
0
  6
Continuous
 62
     7
370
    25
100
AcDbSpline
210
0.0
220
0.0
230
1.0
 70
     8
 71
     3
 72
    19
 73
    15
 74
     0
 42
0.000000001
 43
0.00000001
 40
0.0
 40
0.0
 40
0.0
 40
0.0
 40
0.0453333969614381
 40
0.1079110108235504
 40
0.174298107037001
 40
0.2432878769818156
 40
0.3842879495322865
 40
0.5228039647451048
 40
0.6111278719902504
 40
0.6953644279915455
 40
0.7755142028639314
 40
0.8521744097272386
 40
0.9264723360581636
 40
1.0
 40
1.0
 40
1.0
 40
1.0
 10
114.3300393663052
 20
148.282007323803
 30
0.0
 10
115.2698113518133
 20
148.2629809035857
 30
0.0
 10
117.5068319965732
 20
148.2176906677858
 30
0.0
 10
120.7960279300039
 20
148.1610427472883
 30
0.0
 10
124.3518065587457
 20
148.1048563083795
 30
0.0
 10
129.0473104883797
 20
148.0380905465034
 30
0.0
 10
134.5606196887787
 20
147.9695081997624
 30
0.0
 10
139.8627772605367
 20
147.9116198859217
 30
0.0
 10
143.9449654337087
 20
147.8703606729118
 30
0.0
 10
146.9675978497194
 20
147.8412696064178
 30
0.0
 10
149.531991546371
 20
147.8174668598383
 30
0.0
 10
151.6277425629638
 20
147.7985099053951
 30
0.0
 10
153.3065621773351
 20
147.7835947216865
 30
0.0
 10
154.0615103966985
 20
147.7770040744602
 30
0.0
 10
154.4370176337365
 20
147.7737259215131
 30
0.0
  0
SPLINE
  5
12F
330
1F
100
AcDbEntity
  8
0
  6
Continuous
 62
     7
370
    25
100
AcDbSpline
210
0.0
220
0.0
230
1.0
 70
     8
 71
     3
 72
     9
 73
     5
 74
     0
 42
0.000000001
 43
0.00000001
 40
0.0
 40
0.0
 40
0.0
 40
0.0
 40
0.4130662141687818
 40
1.0
 40
1.0
 40
1.0
 40
1.0
 10
222.3029611698989
 20
147.6492136812225
 30
0.0
 10
225.337945686549
 20
147.6638285735628
 30
0.0
 10
232.6853984980977
 20
147.6992100495563
 30
0.0
 10
239.7938663420707
 20
147.7612508153991
 30
0.0
 10
243.9660662851933
 20
147.797664636971
 30
0.0
  0
LINE
  5
130
330
1F
100
AcDbEntity
  8
0
  6
Continuous
 62
     7
370
    25
100
AcDbLine
 10
241.4143281124
 20
147.7747410631
 30
0.0
 11
244.263024076
 21
147.8015668786
 31
0.0
  0
SPLINE
  5
131
330
1F
100
AcDbEntity
  8
0
  6
Continuous
 62
     7
370
    25
100
AcDbSpline
210
0.0
220
0.0
230
1.0
 70
     8
 71
     3
 72
    15
 73
    11
 74
     0
 42
0.000000001
 43
0.00000001
 40
0.0
 40
0.0
 40
0.0
 40
0.0
 40
0.0928697619787883
 40
0.1944397728585875
 40
0.3056358602272145
 40
0.4271774472963056
 40
0.5596290897576663
 40
0.7034430056976834
 40
0.8589895759811513
 40
0.9999999999999999
 40
0.9999999999999999
 40
0.9999999999999999
 40
0.9999999999999999
 10
245.3568140111569
 20
147.8107320240155
 30
0.0
 10
246.9009058428476
 20
147.8259121631928
 30
0.0
 10
250.1337435139004
 20
147.8576945512458
 30
0.0
 10
254.668660761561
 20
147.9078730522458
 30
0.0
 10
259.2446865075677
 20
147.9623063780637
 30
0.0
 10
263.8209438463034
 20
148.0211085231926
 30
0.0
 10
268.4170685285699
 20
148.0843041468071
 30
0.0
 10
273.0222244551159
 20
148.1519093288685
 30
0.0
 10
277.4080032869016
 20
148.219964028517
 30
0.0
 10
280.111597892567
 20
148.2649962848908
 30
0.0
 10
281.3971350036267
 20
148.2864087542906
 30
0.0
  0
LINE
  5
132
330
1F
100
AcDbEntity
  8
0
  6
Continuous
 62
     7
370
    25
100
AcDbLine
 10
112.8674903951
 20
162.3068405411
 30
0.0
 11
113.0950013242
 21
149.2729531696
 31
0.0
  0
LINE
  5
133
330
1F
100
AcDbEntity
  8
0
  6
Continuous
 62
     7
370
    25
100
AcDbLine
 10
282.6399812542
 20
149.2725890225
 30
0.0
 11
282.8674921833
 21
162.3068405411
 31
0.0
  0
SPLINE
  5
134
330
1F
100
AcDbEntity
  8
0
  6
Continuous
 62
     7
370
    25
100
AcDbSpline
210
0.0
220
0.0
230
1.0
 70
     8
 71
     3
 72
    11
 73
     7
 74
     0
 42
0.000000001
 43
0.00000001
 40
0.0
 40
0.0
 40
0.0
 40
0.0
 40
0.2630501411018635
 40
0.5425535641674153
 40
0.7857094044075337
 40
1.0
 40
1.0
 40
1.0
 40
1.0
 10
281.8573126636151
 20
148.2603857389107
 30
0.0
 10
281.9266959107275
 20
148.2790494189628
 30
0.0
 10
282.0698021940264
 20
148.3175441564692
 30
0.0
 10
282.3278385050587
 20
148.4922943398433
 30
0.0
 10
282.5877856344731
 20
148.8169806900109
 30
0.0
 10
282.6186929188036
 20
149.1270578380021
 30
0.0
 10
282.6331714234951
 20
149.2723133510366
 30
0.0
  0
SPLINE
  5
135
330
1F
100
AcDbEntity
  8
0
  6
Continuous
 62
     7
370
    25
100
AcDbSpline
210
0.0
220
0.0
230
1.0
 70
     8
 71
     3
 72
    15
 73
    11
 74
     0
 42
0.000000001
 43
0.00000001
 40
0.0
 40
0.0
 40
0.0
 40
0.0
 40
0.0389729286087597
 40
0.1972308876432277
 40
0.3269971149243996
 40
0.4409493675743288
 40
0.5442025969094466
 40
0.6575361035726045
 40
0.8315987139406383
 40
1.0
 40
1.0
 40
1.0
 40
1.0
 10
113.1085464797619
 20
149.2427708676472
 30
0.0
 10
113.1060706575743
 20
149.2139455067465
 30
0.0
 10
113.0935412268865
 20
149.0680685680605
 30
0.0
 10
113.1920038875262
 20
148.8340031205042
 30
0.0
 10
113.3564081404669
 20
148.5997316564584
 30
0.0
 10
113.5328310341486
 20
148.4569655840539
 30
0.0
 10
113.6768136240284
 20
148.379461506922
 30
0.0
 10
113.7904421237829
 20
148.3365592229492
 30
0.0
 10
113.8659087773862
 20
148.3168967726455
 30
0.0
 10
113.889061398777
 20
148.3127835769019
 30
0.0
 10
113.9004463396672
 20
148.3107609769717
 30
0.0
  0
LINE
  5
136
330
1F
100
AcDbEntity
  8
0
  6
Continuous
 62
     7
370
    25
100
AcDbLine
 10
222.3674906484
 20
138.3068403324
 30
0.0
 11
222.3674906484
 21
147.6460266954
 31
0.0
  0
LINE
  5
137
330
1F
100
AcDbEntity
  8
0
  6
Continuous
 62
     7
370
    25
100
AcDbLine
 10
173.3674919299
 20
147.6518996155
 30
0.0
 11
173.3674919299
 21
138.3068403324
 31
0.0
  0
ARC
  5
138
330
1F
100
AcDbEntity
  8
0
  6
Continuous
 62
     7
370
    25
100
AcDbCircle
 10
197.8674912892
 20
138.3068405411
 30
0.0
 40
24.5
100
AcDbArc
 50
180.0
 51
187.2450514536
  0
ARC
  5
139
330
1F
100
AcDbEntity
  8
0
  6
Continuous
 62
     7
370
    25
100
AcDbCircle
 10
197.8674912892
 20
138.3068405411
 30
0.0
 40
24.50000000000001
100
AcDbArc
 50
352.7345219469
 51
0.0
  0
LINE
  5
13A
330
1F
100
AcDbEntity
  8
0
  6
Continuous
 62
     7
370
    25
100
AcDbLine
 10
222.9144321821
 20
132.9674190006
 30
0.0
 11
222.9385422609
 21
135.3779072037
 31
0.0
  0
SPLINE
  5
13B
330
1F
100
AcDbEntity
  8
0
  6
Continuous
 62
     7
370
    25
100
AcDbSpline
210
0.0
220
0.0
230
1.0
 70
     8
 71
     3
 72
    16
 73
    12
 74
     0
 42
0.000000001
 43
0.00000001
 40
0.0
 40
0.0
 40
0.0
 40
0.0
 40
0.1244809558032373
 40
0.1746244040376812
 40
0.2219348053590069
 40
0.2712766981331904
 40
0.3545556902327854
 40
0.4506032512129107
 40
0.644072851040263
 40
0.8442780720980296
 40
1.0
 40
1.0
 40
1.0
 40
1.0
 10
222.4728157810572
 20
114.6863764247313
 30
0.0
 10
222.4743385571404
 20
114.807180446401
 30
0.0
 10
222.4764747382476
 20
114.9766467728227
 30
0.0
 10
222.4796107924992
 20
115.5247123992768
 30
0.0
 10
222.4884937712477
 20
116.0071022175621
 30
0.0
 10
222.5066026580288
 20
116.6622710658704
 30
0.0
 10
222.5376562800338
 20
117.5093811119124
 30
0.0
 10
222.5933451012476
 20
118.8424380559958
 30
0.0
 10
222.6639360737647
 20
120.5337274686617
 30
0.0
 10
222.7258578802983
 20
122.4295345670975
 30
0.0
 10
222.7549201861634
 20
123.7091326418305
 30
0.0
 10
222.7676352552775
 20
124.2689704617872
 30
0.0
  0
SPLINE
  5
13C
330
1F
100
AcDbEntity
  8
0
  6
Continuous
 62
     7
370
    25
100
AcDbSpline
210
0.0
220
0.0
230
1.0
 70
     8
 71
     3
 72
    16
 73
    12
 74
     0
 42
0.000000001
 43
0.00000001
 40
0.0
 40
0.0
 40
0.0
 40
0.0
 40
0.1557210434134326
 40
0.3559251273209881
 40
0.5493936282559382
 40
0.6745633997795075
 40
0.728724842697528
 40
0.7780664552135668
 40
0.8253765878154626
 40
0.8755197512389888
 40
0.9999999999999999
 40
0.9999999999999999
 40
0.9999999999999999
 40
0.9999999999999999
 10
172.96734732312
 20
124.2689704617872
 30
0.0
 10
172.9800599578947
 20
123.7091717972333
 30
0.0
 10
173.0091166996913
 20
122.4296632183799
 30
0.0
 10
173.0710888088729
 20
120.5330470214027
 30
0.0
 10
173.1457064838827
 20
118.7439335930263
 30
0.0
 10
173.201950152056
 20
117.4005190451654
 30
0.0
 10
173.2313213885274
 20
116.5561995585541
 30
0.0
 10
173.2464861153461
 20
116.0071142725258
 30
0.0
 10
173.25537251849
 20
115.5247091184404
 30
0.0
 10
173.2585073095412
 20
114.9766491490985
 30
0.0
 10
173.2606438004297
 20
114.8071814353538
 30
0.0
 10
173.2621667973403
 20
114.6863764247313
 30
0.0
  0
LINE
  5
13D
330
1F
100
AcDbEntity
  8
0
  6
Continuous
 62
     7
370
    25
100
AcDbLine
 10
172.7964403175
 20
135.3778028956
 30
0.0
 11
172.8205503963
 21
132.9674190006
 31
0.0
  0
SPLINE
  5
13E
330
1F
100
AcDbEntity
  8
0
  6
Continuous
 62
     7
370
    25
100
AcDbSpline
210
0.0
220
0.0
230
1.0
 70
     8
 71
     3
 72
    19
 73
    15
 74
     0
 42
0.000000001
 43
0.00000001
 40
0.0
 40
0.0
 40
0.0
 40
0.0
 40
0.0009510551628877
 40
0.1077422042679565
 40
0.2206564869538051
 40
0.3399312463147642
 40
0.4558870633946761
 40
0.5234700573349429
 40
0.58860304997593
 40
0.6569306957640954
 40
0.735839349418008
 40
0.8550443996023013
 40
0.9761590124222187
 40
0.9999999999999999
 40
0.9999999999999999
 40
0.9999999999999999
 40
0.9999999999999999
 10
222.0646729759577
 20
102.6137201210871
 30
0.0
 10
222.06466071283
 20
102.6150655707333
 30
0.0
 10
222.0632714596473
 20
102.767487550305
 30
0.0
 10
222.0482431173755
 20
103.0307721526906
 30
0.0
 10
222.0372448510693
 20
103.3535618470229
 30
0.0
 10
222.0341872390018
 20
103.5667011990108
 30
0.0
 10
222.0353100135818
 20
103.9369071608319
 30
0.0
 10
222.058157926643
 20
104.6110607783655
 30
0.0
 10
222.0966060697301
 20
105.4998679762733
 30
0.0
 10
222.1540456315906
 20
106.8184686314899
 30
0.0
 10
222.2334954042189
 20
108.6924842198208
 30
0.0
 10
222.3288776781983
 20
110.973020785806
 30
0.0
 10
222.403458299872
 20
112.8612782616072
 30
0.0
 10
222.4432090728636
 20
113.8975428050321
 30
0.0
 10
222.449746920884
 20
114.0679782351866
 30
0.0
  0
LINE
  5
13F
330
1F
100
AcDbEntity
  8
0
  6
Continuous
 62
     7
370
    25
100
AcDbLine
 10
221.9765624098
 20
102.852354767
 30
0.0
 11
222.0016112618
 21
102.6714136919
 31
0.0
  0
SPLINE
  5
140
330
1F
100
AcDbEntity
  8
0
  6
Continuous
 62
     7
370
    25
100
AcDbSpline
210
0.0
220
0.0
230
1.0
 70
     8
 71
     3
 72
    14
 73
    10
 74
     0
 42
0.000000001
 43
0.00000001
 40
0.0
 40
0.0
 40
0.0
 40
0.0
 40
0.2127365796197047
 40
0.3807962231790631
 40
0.541180251696045
 40
0.6921153608612908
 40
0.8338469354048433
 40
0.9714096694114517
 40
1.0
 40
1.0
 40
1.0
 40
1.0
 10
173.4192455254201
 20
110.6839468798056
 30
0.0
 10
173.4491820742398
 20
109.9548740689898
 30
0.0
 10
173.5027681793937
 20
108.6498414635137
 30
0.0
 10
173.5785659053622
 20
106.9077223571666
 30
0.0
 10
173.641537303274
 20
105.4974000596054
 30
0.0
 10
173.6872383411979
 20
104.3212487221166
 30
0.0
 10
173.7086784771302
 20
103.4231413004956
 30
0.0
 10
173.7133558118883
 20
102.8966143379025
 30
0.0
 10
173.7125782885463
 20
102.7195886539095
 30
0.0
 10
173.7124444983605
 20
102.6891274473086
 30
0.0
  0
LINE
  5
141
330
1F
100
AcDbEntity
  8
0
  6
Continuous
 62
     7
370
    25
100
AcDbLine
 10
173.672280281
 20
102.5956263861
 30
0.0
 11
173.7294858388
 21
102.1357541999
 31
0.0
  0
LINE
  5
142
330
1F
100
AcDbEntity
  8
0
  6
Continuous
 62
     7
370
    25
100
AcDbLine
 10
222.0054967396
 20
102.1357541999
 30
0.0
 11
222.0627022974
 21
102.5956226608
 31
0.0
  0
SPLINE
  5
143
330
1F
100
AcDbEntity
  8
0
  6
Continuous
 62
     7
370
    25
100
AcDbSpline
210
0.0
220
0.0
230
1.0
 70
     8
 71
     3
 72
    20
 73
    16
 74
     0
 42
0.000000001
 43
0.00000001
 40
0.0
 40
0.0
 40
0.0
 40
0.0
 40
0.1124942516311427
 40
0.2119142107309817
 40
0.2982602434234962
 40
0.3715322835246219
 40
0.4317299650286532
 40
0.4829512357211498
 40
0.535158701486456
 40
0.5978783876447844
 40
0.6625529710312142
 40
0.7303988665437038
 40
0.8086332195029354
 40
0.8984843862642778
 40
1.0
 40
1.0
 40
1.0
 40
1.0
 10
220.7166059009436
 20
100.701908590497
 30
0.0
 10
220.7494929833628
 20
100.72888224776
 30
0.0
 10
220.8114449499126
 20
100.7796946333399
 30
0.0
 10
220.8978270534517
 20
100.8505027965518
 30
0.0
 10
220.9720315912358
 20
100.9113261696859
 30
0.0
 10
221.0341474238908
 20
100.9622359691826
 30
0.0
 10
221.0848896315734
 20
101.0038317049433
 30
0.0
 10
221.1291525144107
 20
101.0402044410213
 30
0.0
 10
221.1823565341267
 20
101.0834879077861
 30
0.0
 10
221.2496616602669
 20
101.1354305187156
 30
0.0
 10
221.3314501940636
 20
101.1992003735564
 30
0.0
 10
221.4234594523036
 20
101.2722987830973
 30
0.0
 10
221.5897590656315
 20
101.4245936173198
 30
0.0
 10
221.8002499614671
 20
101.6626288794947
 30
0.0
 10
221.9087341431002
 20
101.8924773441058
 30
0.0
 10
221.9662824712399
 20
102.0144065937414
 30
0.0
  0
SPLINE
  5
144
330
1F
100
AcDbEntity
  8
0
  6
Continuous
 62
     7
370
    25
100
AcDbSpline
210
0.0
220
0.0
230
1.0
 70
     8
 71
     3
 72
    13
 73
     9
 74
     0
 42
0.000000001
 43
0.00000001
 40
0.0
 40
0.0
 40
0.0
 40
0.0
 40
0.1321074149642775
 40
0.2779816835046824
 40
0.4376676309871739
 40
0.6112303150897267
 40
0.7986747448850722
 40
1.0
 40
1.0
 40
1.0
 40
1.0
 10
173.7687317721251
 20
102.0143246373549
 30
0.0
 10
173.817759152165
 20
101.9120037841122
 30
0.0
 10
173.9209230332008
 20
101.6966992680885
 30
0.0
 10
174.1495052990374
 20
101.446468388165
 30
0.0
 10
174.3978864761591
 20
101.2225145000381
 30
0.0
 10
174.6225339578427
 20
101.0275925446277
 30
0.0
 10
174.8359849811729
 20
100.8513738679266
 30
0.0
 10
174.9561480826399
 20
100.7529023087418
 30
0.0
 10
175.0183748148087
 20
100.701908590497
 30
0.0
  0
SPLINE
  5
145
330
1F
100
AcDbEntity
  8
0
  6
Continuous
 62
     7
370
    25
100
AcDbSpline
210
0.0
220
0.0
230
1.0
 70
     8
 71
     3
 72
    11
 73
     7
 74
     0
 42
0.000000001
 43
0.00000001
 40
0.0
 40
0.0
 40
0.0
 40
0.0
 40
0.3025444277842368
 40
0.6570134286244692
 40
0.8941008192195316
 40
1.0
 40
1.0
 40
1.0
 40
1.0
 10
219.5171555570963
 20
100.3273157498255
 30
0.0
 10
219.6395037363422
 20
100.3361375945212
 30
0.0
 10
219.905198257048
 20
100.3552953442534
 30
0.0
 10
220.0549393608714
 20
100.3910421331004
 30
0.0
 10
220.1625318208352
 20
100.4194016675272
 30
0.0
 10
220.2577625476563
 20
100.454366930174
 30
0.0
 10
220.2871656112078
 20
100.4651626667395
 30
0.0
  0
SPLINE
  5
146
330
1F
100
AcDbEntity
  8
0
  6
Continuous
 62
     7
370
    25
100
AcDbSpline
210
0.0
220
0.0
230
1.0
 70
     8
 71
     3
 72
    14
 73
    10
 74
     0
 42
0.000000001
 43
0.00000001
 40
0.0
 40
0.0
 40
0.0
 40
0.0
 40
0.09626431400598
 40
0.2106846714244948
 40
0.4757493832093925
 40
0.615781998396857
 40
0.7543225179748784
 40
0.8917392523718722
 40
1.0
 40
1.0
 40
1.0
 40
1.0
 10
207.1788320384625
 20
99.95324072450545
 30
0.0
 10
207.5230773058891
 20
99.95669586794531
 30
0.0
 10
208.2764946216008
 20
99.96425781619024
 30
0.0
 10
210.1026494067337
 20
99.99001895187831
 30
0.0
 10
212.2335516011478
 20
100.0348165020021
 30
0.0
 10
214.5436360560988
 20
100.1024676781887
 30
0.0
 10
216.3188010515327
 20
100.1668125895294
 30
0.0
 10
217.9249945333453
 20
100.2364313095495
 30
0.0
 10
218.8298485508641
 20
100.2855608382848
 30
0.0
 10
219.2285833947066
 20
100.3072103580847
 30
0.0
  0
SPLINE
  5
147
330
1F
100
AcDbEntity
  8
0
  6
Continuous
 62
     7
370
    25
100
AcDbSpline
210
0.0
220
0.0
230
1.0
 70
     8
 71
     3
 72
    15
 73
    11
 74
     0
 42
0.000000001
 43
0.00000001
 40
0.0
 40
0.0
 40
0.0
 40
0.0
 40
0.0884098390134404
 40
0.2115076716789569
 40
0.3404486226388869
 40
0.476557212159787
 40
0.6173218784386509
 40
0.7567085988537219
 40
0.8870658624301822
 40
0.9999999999999999
 40
0.9999999999999999
 40
0.9999999999999999
 40
0.9999999999999999
 10
176.4986803821925
 20
100.3073742708578
 30
0.0
 10
176.8324373596309
 20
100.2891244638079
 30
0.0
 10
177.6309023494142
 20
100.2454644567225
 30
0.0
 10
179.027169315649
 20
100.182693210417
 30
0.0
 10
180.6681778934117
 20
100.1197523458368
 30
0.0
 10
182.3987008196661
 20
100.0657411331116
 30
0.0
 10
184.1435145129071
 20
100.0214768765399
 30
0.0
 10
185.8067346625365
 20
99.98829621152616
 30
0.0
 10
187.2960582896481
 20
99.96606938128544
 30
0.0
 10
188.1566630168331
 20
99.95731033620692
 30
0.0
 10
188.5561496086124
 20
99.95324444979575
 30
0.0
  0
SPLINE
  5
148
330
1F
100
AcDbEntity
  8
0
  6
Continuous
 62
     7
370
    25
100
AcDbSpline
210
0.0
220
0.0
230
1.0
 70
     8
 71
     3
 72
     9
 73
     5
 74
     0
 42
0.000000001
 43
0.00000001
 40
0.0
 40
0.0
 40
0.0
 40
0.0
 40
0.417777596053456
 40
1.0
 40
1.0
 40
1.0
 40
1.0
 10
175.0444350830916
 20
100.6811624488249
 30
0.0
 10
175.1831695435405
 20
100.5907476258251
 30
0.0
 10
175.5152468539551
 20
100.3743290723795
 30
0.0
 10
176.0795064514256
 20
100.3345431900068
 30
0.0
 10
176.4080310307149
 20
100.3113789579287
 30
0.0
  0
SPLINE
  5
149
330
1F
100
AcDbEntity
  8
0
  6
Continuous
 62
     7
370
    25
100
AcDbSpline
210
0.0
220
0.0
230
1.0
 70
     8
 71
     3
 72
     9
 73
     5
 74
     0
 42
0.000000001
 43
0.00000001
 40
0.0
 40
0.0
 40
0.0
 40
0.0
 40
0.4882772965792289
 40
1.0
 40
1.0
 40
1.0
 40
1.0
 10
188.5564392499331
 20
99.95281976670172
 30
0.0
 10
190.0616200670896
 20
99.93621717756777
 30
0.0
 10
193.1442553395086
 20
99.90221479971757
 30
0.0
 10
196.2686616469635
 20
99.89762181614275
 30
0.0
 10
197.8674912891992
 20
99.89527148217108
 30
0.0
  0
SPLINE
  5
14A
330
1F
100
AcDbEntity
  8
0
  6
Continuous
 62
     7
370
    25
100
AcDbSpline
210
0.0
220
0.0
230
1.0
 70
     8
 71
     3
 72
     9
 73
     5
 74
     0
 42
0.000000001
 43
0.00000001
 40
0.0
 40
0.0
 40
0.0
 40
0.0
 40
0.511722703420721
 40
1.0
 40
1.0
 40
1.0
 40
1.0
 10
197.8674912891992
 20
99.89527148217108
 30
0.0
 10
199.4663209314346
 20
99.89762181614276
 30
0.0
 10
202.5907272388892
 20
99.90221479971758
 30
0.0
 10
205.6733625113079
 20
99.93621717756778
 30
0.0
 10
207.1785433284644
 20
99.95281976670172
 30
0.0
  0
SPLINE
  5
14B
330
1F
100
AcDbEntity
  8
0
  6
Continuous
 62
     7
370
    25
100
AcDbSpline
210
0.0
220
0.0
230
1.0
 70
    24
 71
     3
 72
    30
 73
    26
 74
     0
 42
0.000000001
 43
0.00000001
 40
0.0
 40
0.0
 40
0.0
 40
0.0
 40
0.1249999999999978
 40
0.1249999999999978
 40
0.1874999999999973
 40
0.1874999999999973
 40
0.2499999999999968
 40
0.2499999999999968
 40
0.3749999999999968
 40
0.3749999999999968
 40
0.4374999999999969
 40
0.4374999999999969
 40
0.4999999999999969
 40
0.4999999999999969
 40
0.6249999999999987
 40
0.6249999999999987
 40
0.687499999999999
 40
0.687499999999999
 40
0.7499999999999993
 40
0.7499999999999993
 40
0.8124999999999998
 40
0.8124999999999998
 40
0.8750000000000001
 40
0.8750000000000001
 40
1.0
 40
1.0
 40
1.0
 40
1.0
 10
113.1447201064098
 20
162.3068405410657
 30
0.0
 10
113.1573743533895
 20
162.3068405410657
 30
0.0
 10
113.309052666064
 20
162.3068405410657
 30
0.0
 10
113.7365767751557
 20
162.3068405410657
 30
0.0
 10
113.9126615635765
 20
162.3068405410657
 30
0.0
 10
114.3334446525462
 20
162.3068405410657
 30
0.0
 10
114.5794898739351
 20
162.3068405410657
 30
0.0
 10
115.4063575348719
 20
162.3068405410656
 30
0.0
 10
116.0779270903992
 20
162.3068405410656
 30
0.0
 10
117.2635801510754
 20
162.3068405410656
 30
0.0
 10
117.689333219495
 20
162.3068405410656
 30
0.0
 10
118.6003602404857
 20
162.3068405410656
 30
0.0
 10
119.0792444416023
 20
162.3068405410656
 30
0.0
 10
120.5836673754165
 20
162.3068405410656
 30
0.0
 10
121.6763564986926
 20
162.3068405410656
 30
0.0
 10
123.4523303939525
 20
162.3068405410656
 30
0.0
 10
124.0693211990196
 20
162.3068405410656
 30
0.0
 10
125.3233557360635
 20
162.3068405410656
 30
0.0
 10
125.963301524314
 20
162.3068405410656
 30
0.0
 10
127.2685631852651
 20
162.3068405410657
 30
0.0
 10
127.9338796497584
 20
162.3068405410657
 30
0.0
 10
129.2901155681526
 20
162.3068405410657
 30
0.0
 10
129.9824628738682
 20
162.3068405410657
 30
0.0
 10
132.0901435932221
 20
162.3068405410657
 30
0.0
 10
133.5106854316497
 20
162.3068405410657
 30
0.0
 10
134.9466848514944
 20
162.3068405410657
 30
0.0
  0
SPLINE
  5
14C
330
1F
100
AcDbEntity
  8
0
  6
Continuous
 62
     7
370
    25
100
AcDbSpline
210
0.0
220
0.0
230
1.0
 70
    24
 71
     3
 72
    30
 73
    26
 74
     0
 42
0.000000001
 43
0.00000001
 40
0.0
 40
0.0
 40
0.0
 40
0.0
 40
0.1250000000000003
 40
0.1250000000000003
 40
0.187500000000001
 40
0.187500000000001
 40
0.2500000000000018
 40
0.2500000000000018
 40
0.3750000000000021
 40
0.3750000000000021
 40
0.4375000000000018
 40
0.4375000000000018
 40
0.5000000000000014
 40
0.5000000000000014
 40
0.6250000000000007
 40
0.6250000000000007
 40
0.6875000000000004
 40
0.6875000000000004
 40
0.7500000000000001
 40
0.7500000000000001
 40
0.8124999999999998
 40
0.8124999999999998
 40
0.8749999999999994
 40
0.8749999999999994
 40
1.0
 40
1.0
 40
1.0
 40
1.0
 10
260.7882977269031
 20
162.3068405410661
 30
0.0
 10
262.2242955716844
 20
162.3068405410662
 30
0.0
 10
263.6353574484442
 20
162.3068405410662
 30
0.0
 10
265.7160761927448
 20
162.3068405410662
 30
0.0
 10
266.403626633551
 20
162.3068405410662
 30
0.0
 10
267.7664206937819
 20
162.3068405410662
 30
0.0
 10
268.4440784876152
 20
162.3068405410662
 30
0.0
 10
270.4160688082466
 20
162.3068405410662
 30
0.0
 10
271.662653597166
 20
162.3068405410662
 30
0.0
 10
273.4316555071322
 20
162.3068405410662
 30
0.0
 10
274.0051404535373
 20
162.3068405410662
 30
0.0
 10
275.1139100896661
 20
162.3068405410662
 30
0.0
 10
275.6415686461207
 20
162.3068405410662
 30
0.0
 10
277.1470435000097
 20
162.3068405410662
 30
0.0
 10
278.0480679330148
 20
162.3068405410662
 30
0.0
 10
279.243002454418
 20
162.3068405410662
 30
0.0
 10
279.6157041387374
 20
162.3068405410662
 30
0.0
 10
280.2921711287211
 20
162.3068405410662
 30
0.0
 10
280.5981440286197
 20
162.3068405410662
 30
0.0
 10
281.1467837393138
 20
162.3068405410663
 30
0.0
 10
281.3894490734057
 20
162.3068405410663
 30
0.0
 10
281.8108924836677
 20
162.3068405410663
 30
0.0
 10
281.9899662397536
 20
162.3068405410663
 30
0.0
 10
282.4258301144012
 20
162.3068405410663
 30
0.0
 10
282.577608211128
 20
162.3068405410663
 30
0.0
 10
282.5902624719874
 20
162.3068405410663
 30
0.0
  0
SPLINE
  5
14D
330
1F
100
AcDbEntity
  8
0
  6
Continuous
 62
     7
370
    25
100
AcDbSpline
210
0.0
220
0.0
230
1.0
 70
     8
 71
     3
 72
    30
 73
    26
 74
     0
 42
0.000000001
 43
0.00000001
 40
0.0
 40
0.0
 40
0.0
 40
0.0
 40
0.1249999999999983
 40
0.1249999999999983
 40
0.1874999999999981
 40
0.1874999999999981
 40
0.249999999999998
 40
0.249999999999998
 40
0.3749999999999977
 40
0.3749999999999977
 40
0.4374999999999982
 40
0.4374999999999982
 40
0.4999999999999986
 40
0.4999999999999986
 40
0.6249999999999993
 40
0.6249999999999993
 40
0.6874999999999992
 40
0.6874999999999992
 40
0.7499999999999991
 40
0.7499999999999991
 40
0.8124999999999991
 40
0.8124999999999991
 40
0.874999999999999
 40
0.874999999999999
 40
1.0
 40
1.0
 40
1.0
 40
1.0
 10
281.3812190779421
 20
148.2860521493824
 30
0.0
 10
281.3684715499248
 20
148.2866943832457
 30
0.0
 10
281.2231014424809
 20
148.287165343874
 30
0.0
 10
280.8137962400368
 20
148.2877642225218
 30
0.0
 10
280.6452560593037
 20
148.2879439090981
 30
0.0
 10
280.2424956275039
 20
148.2882716993057
 30
0.0
 10
280.0073349998162
 20
148.2884198278066
 30
0.0
 10
279.2176778535361
 20
148.2888127428488
 30
0.0
 10
278.5762290624965
 20
148.2890106806137
 30
0.0
 10
277.4429239801633
 20
148.2892142346013
 30
0.0
 10
277.0350603332954
 20
148.2892663488282
 30
0.0
 10
276.1657199488731
 20
148.2893366384092
 30
0.0
 10
275.708640532418
 20
148.2893545699119
 30
0.0
 10
274.2722837941359
 20
148.2893580260388
 30
0.0
 10
273.2284867770136
 20
148.2892934965177
 30
0.0
 10
271.5306963925964
 20
148.2890971847751
 30
0.0
 10
270.94175567668
 20
148.2890147972192
 30
0.0
 10
269.7449461624096
 20
148.2888205376594
 30
0.0
 10
269.1340137010923
 20
148.2887084098287
 30
0.0
 10
267.8875175397087
 20
148.2884537617518
 30
0.0
 10
267.25195348387
 20
148.2883113082829
 30
0.0
 10
265.9559220769998
 20
148.2879920631705
 30
0.0
 10
265.2932639695762
 20
148.2878147368234
 30
0.0
 10
263.2816372705886
 20
148.2872203233355
 30
0.0
 10
261.925361211846
 20
148.2867535855201
 30
0.0
 10
260.5538319709688
 20
148.2861206940559
 30
0.0
  0
SPLINE
  5
14E
330
1F
100
AcDbEntity
  8
0
  6
Continuous
 62
     7
370
    25
100
AcDbSpline
210
0.0
220
0.0
230
1.0
 70
     8
 71
     3
 72
    30
 73
    26
 74
     0
 42
0.000000001
 43
0.00000001
 40
0.0
 40
0.0
 40
0.0
 40
0.0
 40
0.1250000000000006
 40
0.1250000000000006
 40
0.1875000000000009
 40
0.1875000000000009
 40
0.2500000000000013
 40
0.2500000000000013
 40
0.3750000000000017
 40
0.3750000000000017
 40
0.437500000000002
 40
0.437500000000002
 40
0.5000000000000023
 40
0.5000000000000023
 40
0.6250000000000021
 40
0.6250000000000021
 40
0.6875000000000019
 40
0.6875000000000019
 40
0.7500000000000018
 40
0.7500000000000018
 40
0.8125000000000016
 40
0.8125000000000016
 40
0.8750000000000014
 40
0.8750000000000014
 40
1.0
 40
1.0
 40
1.0
 40
1.0
 10
135.1813558258495
 20
148.2806313992533
 30
0.0
 10
133.8095287357236
 20
148.2810630190761
 30
0.0
 10
132.4610770567769
 20
148.2813623749851
 30
0.0
 10
130.4721043963646
 20
148.2817538697788
 30
0.0
 10
129.8147715847101
 20
148.2818727619672
 30
0.0
 10
128.5116808703053
 20
148.282093912459
 30
0.0
 10
127.8646602443159
 20
148.2821961817761
 30
0.0
 10
125.9824591855811
 20
148.2824731209261
 30
0.0
 10
124.7917372950265
 20
148.2826208863255
 30
0.0
 10
123.1010006936377
 20
148.2827749202628
 30
0.0
 10
122.5517642976786
 20
148.2828148730166
 30
0.0
 10
121.493860676074
 20
148.2828684429969
 30
0.0
 10
120.9901930357894
 20
148.2828818613035
 30
0.0
 10
119.5526627734261
 20
148.2828821092868
 30
0.0
 10
118.6915971377896
 20
148.2828286297089
 30
0.0
 10
117.5490407471519
 20
148.2826749411201
 30
0.0
 10
117.1932524633129
 20
148.2826113514661
 30
0.0
 10
116.5474300826863
 20
148.2824651016985
 30
0.0
 10
116.2551664026675
 20
148.2823822544147
 30
0.0
 10
115.7308967907996
 20
148.2821990297836
 30
0.0
 10
115.4988917177993
 20
148.2820987271906
 30
0.0
 10
115.0958059176374
 20
148.2818792426458
 30
0.0
 10
114.9242866286062
 20
148.2817597538863
 30
0.0
 10
114.5077975094087
 20
148.2813644863867
 30
0.0
 10
114.3623552889711
 20
148.2810630200087
 30
0.0
 10
114.3496809343776
 20
148.2806313992534
 30
0.0
  0
LINE
  5
14F
330
1F
100
AcDbEntity
  8
0
  6
Continuous
 62
     7
370
    25
100
AcDbLine
 10
260.7883000813
 20
162.3068405411
 30
0.0
 11
134.9466824971
 21
162.3068405411
 31
0.0
  0
SPLINE
  5
150
330
1F
100
AcDbEntity
  8
0
  6
Continuous
 62
     7
370
    25
100
AcDbSpline
210
0.0
220
0.0
230
1.0
 70
     8
 71
     3
 72
     9
 73
     5
 74
     0
 42
0.000000001
 43
0.00000001
 40
0.0
 40
0.0
 40
0.0
 40
0.0
 40
0.123418897374835
 40
1.0
 40
1.0
 40
1.0
 40
1.0
 10
154.4370623372201
 20
147.7783210670963
 30
0.0
 10
155.2227888882343
 20
147.7699376765633
 30
0.0
 10
161.5891279799535
 20
147.7020113645378
 30
0.0
 10
167.9558106780581
 20
147.6759542782616
 30
0.0
 10
173.5367244176272
 20
147.6531131288424
 30
0.0
  0
SPLINE
  5
151
330
1F
100
AcDbEntity
  8
0
  6
Continuous
 62
     7
370
    25
100
AcDbSpline
210
0.0
220
0.0
230
1.0
 70
     8
 71
     3
 72
    11
 73
     7
 74
     0
 42
0.000000001
 43
0.00000001
 40
0.0
 40
0.0
 40
0.0
 40
0.0
 40
0.2236372491054134
 40
0.4915058359318735
 40
0.7593786624210042
 40
1.0
 40
1.0
 40
1.0
 40
1.0
 10
114.3300319157246
 20
148.2813945135489
 30
0.0
 10
114.2950252344055
 20
148.2827693079749
 30
0.0
 10
114.218088193578
 20
148.2857908058974
 30
0.0
 10
114.1413969741999
 20
148.2884954359541
 30
0.0
 10
114.0891235764761
 20
148.2901941229302
 30
0.0
 10
114.0827925711581
 20
148.2903954652143
 30
0.0
 10
114.0797967157963
 20
148.2904907411352
 30
0.0
  0
SPLINE
  5
152
330
1F
100
AcDbEntity
  8
0
  6
Continuous
 62
     7
370
    25
100
AcDbSpline
210
0.0
220
0.0
230
1.0
 70
     8
 71
     3
 72
    17
 73
    13
 74
     0
 42
0.000000001
 43
0.00000001
 40
0.0
 40
0.0
 40
0.0
 40
0.0
 40
0.016608280116865
 40
0.1224680520170747
 40
0.2283270566829065
 40
0.3341844543495445
 40
0.4400419213305364
 40
0.5489689468172928
 40
0.6548301697050769
 40
0.7637613424254949
 40
0.8798354074563882
 40
1.0
 40
1.0
 40
1.0
 40
1.0
 10
173.4137637607459
 20
147.6518996155277
 30
0.0
 10
173.3989447904214
 20
147.6520976807874
 30
0.0
 10
173.2896709573833
 20
147.65355819725
 30
0.0
 10
173.7494049735872
 20
147.653258731226
 30
0.0
 10
174.8095305898164
 20
147.6588137410351
 30
0.0
 10
176.5711289997849
 20
147.6670004931483
 30
0.0
 10
178.9249162821248
 20
147.6838621758054
 30
0.0
 10
181.8197572770699
 20
147.6998585349665
 30
0.0
 10
185.1974181210395
 20
147.7152511301748
 30
0.0
 10
189.0206051910465
 20
147.7281579071047
 30
0.0
 10
193.2943928266674
 20
147.7376633098973
 30
0.0
 10
196.3256296108056
 20
147.738937415204
 30
0.0
 10
197.8674912891988
 20
147.7395854985729
 30
0.0
  0
SPLINE
  5
153
330
1F
100
AcDbEntity
  8
0
  6
Continuous
 62
     7
370
    25
100
AcDbSpline
210
0.0
220
0.0
230
1.0
 70
     8
 71
     3
 72
     9
 73
     5
 74
     0
 42
0.000000001
 43
0.00000001
 40
0.0
 40
0.0
 40
0.0
 40
0.0
 40
0.779271081796472
 40
1.0
 40
1.0
 40
1.0
 40
1.0
 10
281.4768115125302
 20
148.2876520699277
 30
0.0
 10
281.5293872267146
 20
148.2884767367234
 30
0.0
 10
281.5968550378686
 20
148.2895349907957
 30
0.0
 10
281.60597368533
 20
148.2896923277977
 30
0.0
 10
281.6079864345197
 20
148.289727056624
 30
0.0
  0
LINE
  5
154
330
1F
100
AcDbEntity
  8
0
  6
Continuous
 62
     7
370
    25
100
AcDbLine
 10
281.5414900027
 20
148.2885917744
 30
0.0
 11
281.3812205635
 21
148.2860520577
 31
0.0
  0
SPLINE
  5
155
330
1F
100
AcDbEntity
  8
0
  6
Continuous
 62
     7
370
    25
100
AcDbSpline
210
0.0
220
0.0
230
1.0
 70
     8
 71
     3
 72
    17
 73
    13
 74
     0
 42
0.000000001
 43
0.00000001
 40
0.0
 40
0.0
 40
0.0
 40
0.0
 40
0.105851438034996
 40
0.2147726303950658
 40
0.3206240577216388
 40
0.4295450863856084
 40
0.5353984022702672
 40
0.6443213556395736
 40
0.7501769551112271
 40
0.8560265982485682
 40
0.9618761847567187
 40
1.0
 40
1.0
 40
1.0
 40
1.0
 10
197.8674912891988
 20
147.7395854985729
 30
0.0
 10
199.2252836545365
 20
147.7390709081347
 30
0.0
 10
201.9802451670812
 20
147.7380268038315
 30
0.0
 10
205.9784615269211
 20
147.7297576370256
 30
0.0
 10
209.7819119484359
 20
147.7172267046354
 30
0.0
 10
213.2141249666857
 20
147.7009737474457
 30
0.0
 10
216.2409210883467
 20
147.6829115928604
 30
0.0
 10
218.717809272061
 20
147.6618679796595
 30
0.0
 10
220.617277244796
 20
147.6498019571186
 30
0.0
 10
221.8246071396723
 20
147.6440905828763
 30
0.0
 10
222.3915646345607
 20
147.6465604073103
 30
0.0
 10
222.308078827226
 20
147.6461384331332
 30
0.0
 10
222.2859719834927
 20
147.6460266953721
 30
0.0
  0
LINE
  5
156
330
1F
100
AcDbEntity
  8
0
  6
Continuous
 62
     7
370
    25
100
AcDbLine
 10
282.630124136
 20
149.2727846003
 30
0.0
 11
282.6294237815
 21
149.2727734244
 31
0.0
  0
SPLINE
  5
157
330
1F
100
AcDbEntity
  8
0
  6
Continuous
 62
     7
370
    25
100
AcDbSpline
210
0.0
220
0.0
230
1.0
 70
     8
 71
     3
 72
    36
 73
    32
 74
     0
 42
0.000000001
 43
0.00000001
 40
0.0
 40
0.0
 40
0.0
 40
0.0
 40
0.1249999999999997
 40
0.1249999999999997
 40
0.1874999999999996
 40
0.1874999999999996
 40
0.2499999999999994
 40
0.2499999999999994
 40
0.3749999999999994
 40
0.3749999999999994
 40
0.4062499999999994
 40
0.4062499999999994
 40
0.4374999999999994
 40
0.4374999999999994
 40
0.4999999999999994
 40
0.4999999999999994
 40
0.5624999999999996
 40
0.5624999999999996
 40
0.5937499999999998
 40
0.5937499999999998
 40
0.625
 40
0.625
 40
0.6875
 40
0.6875
 40
0.7499999999999999
 40
0.7499999999999999
 40
0.8124999999999999
 40
0.8124999999999999
 40
0.875
 40
0.875
 40
1.0
 40
1.0
 40
1.0
 40
1.0
 10
222.804014033561
 20
134.5576983083158
 30
0.0
 10
222.6690634807115
 20
134.0208363498034
 30
0.0
 10
222.4385701424396
 20
133.4888536964105
 30
0.0
 10
221.9428511872352
 20
132.6985390392577
 30
0.0
 10
221.7517864574477
 20
132.4364196893918
 30
0.0
 10
221.3085583200677
 20
131.9153012576123
 30
0.0
 10
221.0554895046157
 20
131.6557010830943
 30
0.0
 10
220.2021049039045
 20
130.8961309033719
 30
0.0
 10
219.5060425825567
 20
130.4111900320574
 30
0.0
 10
218.4217503904245
 20
129.8411364877092
 30
0.0
 10
218.1931363022005
 20
129.7285495190712
 30
0.0
 10
217.7177090883299
 20
129.5096140490534
 30
0.0
 10
217.4712104881876
 20
129.4033139876891
 30
0.0
 10
216.7053590702892
 20
129.0939170545251
 30
0.0
 10
216.1596305997599
 20
128.9003306579392
 30
0.0
 10
214.9963833348416
 20
128.5390438627953
 30
0.0
 10
214.3787072671284
 20
128.3714001735086
 30
0.0
 10
213.396980284626
 20
128.1398431794777
 30
0.0
 10
213.059268234972
 20
128.0656847841458
 30
0.0
 10
212.3749431441733
 20
127.9256417184576
 30
0.0
 10
212.0279838404981
 20
127.8596278318706
 30
0.0
 10
210.9738779669943
 20
127.6726380098858
 30
0.0
 10
210.2535381534617
 20
127.5626849050561
 30
0.0
 10
208.7834485461875
 20
127.3673504562255
 30
0.0
 10
208.0344630459027
 20
127.2813305522565
 30
0.0
 10
206.5104246104899
 20
127.1310698400487
 30
0.0
 10
205.7331896380313
 20
127.0668693605363
 30
0.0
 10
204.1766928012211
 20
126.9601077102015
 30
0.0
 10
203.3949669416497
 20
126.9173463189497
 30
0.0
 10
201.0406429692422
 20
126.8169934655961
 30
0.0
 10
199.4589499002789
 20
126.7871762435452
 30
0.0
 10
197.8674912891991
 20
126.7871811015933
 30
0.0
  0
SPLINE
  5
158
330
1F
100
AcDbEntity
  8
0
  6
Continuous
 62
     7
370
    25
100
AcDbSpline
210
0.0
220
0.0
230
1.0
 70
     8
 71
     3
 72
    34
 73
    30
 74
     0
 42
0.000000001
 43
0.00000001
 40
0.0
 40
0.0
 40
0.0
 40
0.0
 40
0.1249999999999989
 40
0.1249999999999989
 40
0.2499999999999978
 40
0.2499999999999978
 40
0.3124999999999972
 40
0.3124999999999972
 40
0.3749999999999966
 40
0.3749999999999966
 40
0.4374999999999961
 40
0.4374999999999961
 40
0.4687499999999959
 40
0.4687499999999959
 40
0.4999999999999959
 40
0.4999999999999959
 40
0.6249999999999967
 40
0.6249999999999967
 40
0.656249999999997
 40
0.656249999999997
 40
0.6874999999999974
 40
0.6874999999999974
 40
0.749999999999998
 40
0.749999999999998
 40
0.8124999999999986
 40
0.8124999999999986
 40
0.8749999999999991
 40
0.8749999999999991
 40
1.0
 40
1.0
 40
1.0
 40
1.0
 10
197.8674912891991
 20
126.7871810991583
 30
0.0
 10
196.2784470931975
 20
126.7871762484804
 30
0.0
 10
194.7038884729225
 20
126.8169412903396
 30
0.0
 10
191.5900450073551
 20
126.9489639269201
 30
0.0
 10
190.0507331510073
 20
127.0511660121019
 30
0.0
 10
187.7752292394053
 20
127.273242093991
 30
0.0
 10
187.0209204359008
 20
127.3589260683245
 30
0.0
 10
185.5307428100774
 20
127.5554009454809
 30
0.0
 10
184.8053871811756
 20
127.665556105318
 30
0.0
 10
183.4001552436539
 20
127.9133333488244
 30
0.0
 10
182.7202671935874
 20
128.0509483413275
 30
0.0
 10
181.7388916996136
 20
128.2805964187253
 30
0.0
 10
181.4181906512049
 20
128.3610255788446
 30
0.0
 10
180.7904000096266
 20
128.5301044442009
 30
0.0
 10
180.4837168663423
 20
128.6186715229979
 30
0.0
 10
179.0079356730803
 20
129.0748193184711
 30
0.0
 10
177.990529463089
 20
129.4872896809807
 30
0.0
 10
176.902681493691
 20
130.0564578874044
 30
0.0
 10
176.6936968337302
 20
130.1733533667402
 30
0.0
 10
176.296822425563
 20
130.4102877096585
 30
0.0
 10
176.10911655622
 20
130.5301510346287
 30
0.0
 10
175.575479919869
 20
130.8935765028043
 30
0.0
 10
175.2588361847843
 20
131.1409489075882
 30
0.0
 10
174.6913749409166
 20
131.6442577512857
 30
0.0
 10
174.4406148304969
 20
131.9002016577631
 30
0.0
 10
173.9962930869662
 20
132.4195310291869
 30
0.0
 10
173.8025395875319
 20
132.6833372658624
 30
0.0
 10
173.2990546776327
 20
133.4819528686917
 30
0.0
 10
173.0666114980986
 20
134.0180818339205
 30
0.0
 10
172.9309685448372
 20
134.5576983083157
 30
0.0
  0
LWPOLYLINE
  5
159
330
1F
100
AcDbEntity
  8
0
  6
Continuous
 62
     7
370
    25
100
AcDbPolyline
 90
       29
 70
   128
 43
0.0
 10
173.7590255283
 20
134.5576988629
 10
174.229812815
 20
133.7220510563
 10
174.9475421451
 20
132.9072052708
 10
175.9047145091
 20
132.1216737947
 10
177.0913330905
 20
131.3736615798
 10
178.4949982606
 20
130.6709861478
 10
180.1010472767
 20
130.0209825954
 10
181.892703294
 20
129.4304495773
 10
183.8512457974
 20
128.9055487236
 10
185.9562164239
 20
128.4517673871
 10
188.1856229223
 20
128.0738478622
 10
190.5161761746
 20
127.7757352313
 10
192.9235281489
 20
127.5605438373
 10
195.3825296435
 20
127.4305237553
 10
197.8674912892
 20
127.3870347163
 10
200.3524529349
 20
127.4305237553
 10
202.8114544294
 20
127.5605438373
 10
205.2188064038
 20
127.7757352313
 10
207.5493596561
 20
128.0738478622
 10
209.7787661545
 20
128.4517673871
 10
211.883736781
 20
128.9055487236
 10
213.8422792844
 20
129.4304495773
 10
215.6339353017
 20
130.0209825954
 10
217.2399843178
 20
130.6709861478
 10
218.6436494879
 20
131.3736615798
 10
219.8302680693
 20
132.1216737947
 10
220.7874404333
 20
132.9072052708
 10
221.5051697634
 20
133.7220510563
 10
221.9759570501
 20
134.5576988629
  0
LINE
  5
15A
330
1F
100
AcDbEntity
  8
0
  6
Continuous
 62
     7
370
    25
100
AcDbLine
 10
173.7590255283
 20
134.5576988629
 30
0.0
 11
173.5677747123
 21
135.2185728124
 31
0.0
  0
SPLINE
  5
15B
330
1F
100
AcDbEntity
  8
0
  6
Continuous
 62
     7
370
    25
100
AcDbSpline
210
0.0
220
0.0
230
1.0
 70
     8
 71
     3
 72
     9
 73
     5
 74
     0
 42
0.000000001
 43
0.00000001
 40
0.0
 40
0.0
 40
0.0
 40
0.0
 40
0.1131496731345162
 40
1.0
 40
1.0
 40
1.0
 40
1.0
 10
222.1588594905737
 20
135.210436778368
 30
0.0
 10
222.1609369171403
 20
135.1949329826494
 30
0.0
 10
222.1792969044828
 20
135.0579127395583
 30
0.0
 10
222.0715300872411
 20
134.7928075165398
 30
0.0
 10
221.975957050145
 20
134.5576988628521
 30
0.0
  0
SPLINE
  5
15C
330
1F
100
AcDbEntity
  8
0
  6
Continuous
 62
     7
370
    25
100
AcDbSpline
210
0.0
220
0.0
230
1.0
 70
     8
 71
     3
 72
    11
 73
     7
 74
     0
 42
0.000000001
 43
0.00000001
 40
0.0
 40
0.0
 40
0.0
 40
0.0
 40
0.1536147248126983
 40
0.4341101129418482
 40
0.716711358983748
 40
1.0
 40
1.0
 40
1.0
 40
1.0
 10
222.9369124464396
 20
135.3779221048966
 30
0.0
 10
222.9373782386797
 20
135.348039346372
 30
0.0
 10
222.9386945520877
 20
135.2635916627667
 30
0.0
 10
222.9158862075516
 20
135.0836853445756
 30
0.0
 10
222.8732043975031
 20
134.8443451597843
 30
0.0
 10
222.8270965202703
 20
134.6533249735292
 30
0.0
 10
222.8040145776871
 20
134.5576988628521
 30
0.0
  0
SPLINE
  5
15D
330
1F
100
AcDbEntity
  8
0
  6
Continuous
 62
     7
370
    25
100
AcDbSpline
210
0.0
220
0.0
230
1.0
 70
     8
 71
     3
 72
     9
 73
     5
 74
     0
 42
0.000000001
 43
0.00000001
 40
0.0
 40
0.0
 40
0.0
 40
0.0
 40
0.795355119970291
 40
1.0
 40
1.0
 40
1.0
 40
1.0
 10
222.4731864474419
 20
114.6963788291826
 30
0.0
 10
222.5397435693355
 20
116.5015003951812
 30
0.0
 10
222.6234258393334
 20
118.7710797574992
 30
0.0
 10
222.6804377905576
 20
121.0414547635787
 30
0.0
 10
222.6921049944762
 20
121.5060753843203
 30
0.0
  0
SPLINE
  5
15E
330
1F
100
AcDbEntity
  8
0
  6
Continuous
 62
     7
370
    25
100
AcDbSpline
210
0.0
220
0.0
230
1.0
 70
     8
 71
     3
 72
    10
 73
     6
 74
     0
 42
0.000000001
 43
0.00000001
 40
0.0
 40
0.0
 40
0.0
 40
0.0
 40
0.1754286404607992
 40
0.7161730305054432
 40
1.0
 40
1.0
 40
1.0
 40
1.0
 10
222.7636994860772
 20
124.2690747699156
 30
0.0
 10
222.7772729811673
 20
124.7776227162436
 30
0.0
 10
222.8326856611478
 20
126.8537279800272
 30
0.0
 10
222.8824631233219
 20
129.7533180199351
 30
0.0
 10
222.9045220981023
 20
132.1444038889445
 30
0.0
 10
222.9121150515679
 20
132.9674432149544
 30
0.0
  0
LINE
  5
15F
330
1F
100
AcDbEntity
  8
0
  6
Continuous
 62
     7
370
    25
100
AcDbLine
 10
222.4731845848
 20
114.6963229498
 30
0.0
 11
222.4468430571
 21
114.0680974445
 31
0.0
  0
SPLINE
  5
160
330
1F
100
AcDbEntity
  8
0
  6
Continuous
 62
     7
370
    25
100
AcDbSpline
210
0.0
220
0.0
230
1.0
 70
     8
 71
     3
 72
     9
 73
     5
 74
     0
 42
0.000000001
 43
0.00000001
 40
0.0
 40
0.0
 40
0.0
 40
0.0
 40
0.795355119970291
 40
1.0
 40
1.0
 40
1.0
 40
1.0
 10
173.2617961309556
 20
114.6963788291826
 30
0.0
 10
173.195239009062
 20
116.5015003951812
 30
0.0
 10
173.1115567390641
 20
118.7710797574992
 30
0.0
 10
173.0545447878398
 20
121.0414547635787
 30
0.0
 10
173.0428775839213
 20
121.5060753843203
 30
0.0
  0
SPLINE
  5
161
330
1F
100
AcDbEntity
  8
0
  6
Continuous
 62
     7
370
    25
100
AcDbSpline
210
0.0
220
0.0
230
1.0
 70
     8
 71
     3
 72
    10
 73
     6
 74
     0
 42
0.000000001
 43
0.00000001
 40
0.0
 40
0.0
 40
0.0
 40
0.0
 40
0.1754286404607992
 40
0.7161730305054432
 40
1.0
 40
1.0
 40
1.0
 40
1.0
 10
172.9712830923203
 20
124.2690747699156
 30
0.0
 10
172.9577095972301
 20
124.7776227162436
 30
0.0
 10
172.9022969172496
 20
126.8537279800272
 30
0.0
 10
172.8525194550756
 20
129.7533180199351
 30
0.0
 10
172.8304604802952
 20
132.1444038889445
 30
0.0
 10
172.8228675268296
 20
132.9674432149544
 30
0.0
  0
SPLINE
  5
162
330
1F
100
AcDbEntity
  8
0
  6
Continuous
 62
     7
370
    25
100
AcDbSpline
210
0.0
220
0.0
230
1.0
 70
     8
 71
     3
 72
    11
 73
     7
 74
     0
 42
0.000000001
 43
0.00000001
 40
0.0
 40
0.0
 40
0.0
 40
0.0
 40
0.2798343689759507
 40
0.5603290789707673
 40
0.8428912445595943
 40
1.0
 40
1.0
 40
1.0
 40
1.0
 10
172.9309680007104
 20
134.5576988628521
 30
0.0
 10
172.9081476424568
 20
134.6521970529708
 30
0.0
 10
172.8624530754572
 20
134.8414164259428
 30
0.0
 10
172.8195966303946
 20
135.0803657248535
 30
0.0
 10
172.796377830966
 20
135.2616475600288
 30
0.0
 10
172.797671272913
 20
135.347236087836
 30
0.0
 10
172.7981334618929
 20
135.3778196594134
 30
0.0
  0
LINE
  5
163
330
1F
100
AcDbEntity
  8
0
  6
Continuous
 62
     7
370
    25
100
AcDbLine
 10
173.2617979936
 20
114.6963229498
 30
0.0
 11
173.430019065
 21
110.6843976399
 31
0.0
  0
SPLINE
  5
164
330
1F
100
AcDbEntity
  8
0
  6
Continuous
 62
     7
370
    25
100
AcDbSpline
210
0.0
220
0.0
230
1.0
 70
     8
 71
     3
 72
     8
 73
     4
 74
     0
 42
0.000000001
 43
0.00000001
 40
0.0
 40
0.0
 40
0.0
 40
0.0
 40
1.0
 40
1.0
 40
1.0
 40
1.0
 10
222.6554505467669
 20
135.7638458925977
 30
0.0
 10
222.830156641488
 20
135.7638458925977
 30
0.0
 10
222.9228340721883
 20
135.6617101175541
 30
0.0
 10
222.9373203578821
 20
135.4540785249399
 30
0.0
  0
LINE
  5
165
330
1F
100
AcDbEntity
  8
0
  6
Continuous
 62
     7
370
    25
100
AcDbLine
 10
222.2351571612
 20
135.763845416
 30
0.0
 11
222.6554500006
 21
135.763845416
 31
0.0
  0
SPLINE
  5
166
330
1F
100
AcDbEntity
  8
0
  6
Continuous
 62
     7
370
    25
100
AcDbSpline
210
0.0
220
0.0
230
1.0
 70
     8
 71
     3
 72
     8
 73
     4
 74
     0
 42
0.000000001
 43
0.00000001
 40
0.0
 40
0.0
 40
0.0
 40
0.0
 40
1.0
 40
1.0
 40
1.0
 40
1.0
 10
172.7976622205161
 20
135.4540785249398
 30
0.0
 10
172.8121485062099
 20
135.6617101175547
 30
0.0
 10
172.904825936913
 20
135.7638458925975
 30
0.0
 10
173.0795320316348
 20
135.7638458925976
 30
0.0
  0
LINE
  5
167
330
1F
100
AcDbEntity
  8
0
  6
Continuous
 62
     7
370
    25
100
AcDbLine
 10
173.0795325778
 20
135.763845416
 30
0.0
 11
173.4998254172
 21
135.763845416
 31
0.0
  0
SPLINE
  5
168
330
1F
100
AcDbEntity
  8
0
  6
Continuous
 62
     7
370
    25
100
AcDbSpline
210
0.0
220
0.0
230
1.0
 70
     8
 71
     3
 72
     9
 73
     5
 74
     0
 42
0.000000001
 43
0.00000001
 40
0.0
 40
0.0
 40
0.0
 40
0.0
 40
0.6647634222344365
 40
1.0
 40
1.0
 40
1.0
 40
1.0
 10
220.6578990511302
 20
100.6565606316939
 30
0.0
 10
220.5814626613748
 20
100.6016262359533
 30
0.0
 10
220.4664798160515
 20
100.5189887232636
 30
0.0
 10
220.3288769356353
 20
100.4921830419444
 30
0.0
 10
220.2827474169138
 20
100.4831967970743
 30
0.0
  0
SPLINE
  5
169
330
1F
100
AcDbEntity
  8
0
  6
Continuous
 62
     7
370
    25
100
AcDbSpline
210
0.0
220
0.0
230
1.0
 70
     8
 71
     3
 72
     9
 73
     5
 74
     0
 42
0.000000001
 43
0.00000001
 40
0.0
 40
0.0
 40
0.0
 40
0.0
 40
0.1584903676664746
 40
1.0
 40
1.0
 40
1.0
 40
1.0
 10
219.5172840796116
 20
100.324339242877
 30
0.0
 10
219.5113473906459
 20
100.3235803134951
 30
0.0
 10
219.4738896633832
 20
100.3187918244966
 30
0.0
 10
219.3406054816944
 20
100.313880341244
 30
0.0
 10
219.2284455589655
 20
100.309747280778
 30
0.0
  0
LINE
  5
16A
330
1F
100
AcDbEntity
  8
0
  6
Continuous
 62
     7
370
    25
100
AcDbLine
 10
207.1817405589
 20
99.9659476897
 30
0.0
 11
207.1810485862
 21
99.9643495402
 31
0.0
  0
SPLINE
  5
16B
330
1F
100
AcDbEntity
  8
0
  6
Continuous
 62
     7
370
    25
100
AcDbSpline
210
0.0
220
0.0
230
1.0
 70
     8
 71
     3
 72
    10
 73
     6
 74
     0
 42
0.000000001
 43
0.00000001
 40
0.0
 40
0.0
 40
0.0
 40
0.0
 40
0.1319042009876916
 40
0.5656515354487137
 40
1.0
 40
1.0
 40
1.0
 40
1.0
 10
176.4988275311593
 20
100.3100713810339
 30
0.0
 10
176.4072634157006
 20
100.3139760294112
 30
0.0
 10
176.0146043334773
 20
100.3307205328725
 30
0.0
 10
175.8883532748428
 20
100.3606329538474
 30
0.0
 10
175.8406146042469
 20
100.3828888629012
 30
0.0
 10
175.816728740156
 20
100.3940245232001
 30
0.0
  0
SPLINE
  5
16C
330
1F
100
AcDbEntity
  8
0
  6
Continuous
 62
     8
370
    18
100
AcDbSpline
210
0.0
220
0.0
230
1.0
 70
     8
 71
     3
 72
    30
 73
    26
 74
     0
 42
0.000000001
 43
0.00000001
 40
0.0
 40
0.0
 40
0.0
 40
0.0
 40
0.1249999999999998
 40
0.1249999999999998
 40
0.1874999999999999
 40
0.1874999999999999
 40
0.2499999999999999
 40
0.2499999999999999
 40
0.3124999999999999
 40
0.3124999999999999
 40
0.3749999999999999
 40
0.3749999999999999
 40
0.5
 40
0.5
 40
0.5624999999999996
 40
0.5624999999999996
 40
0.6249999999999991
 40
0.6249999999999991
 40
0.7499999999999988
 40
0.7499999999999988
 40
0.8124999999999993
 40
0.8124999999999993
 40
0.8749999999999999
 40
0.8749999999999999
 40
1.0
 40
1.0
 40
1.0
 40
1.0
 10
113.3704190779854
 20
149.2629677476022
 30
0.0
 10
113.3830394949641
 20
149.2622932365439
 30
0.0
 10
113.5347724857146
 20
149.2616074562631
 30
0.0
 10
113.9701278982259
 20
149.2607010064891
 30
0.0
 10
114.1494906318314
 20
149.2604194808899
 30
0.0
 10
114.5711136421607
 20
149.2599096097649
 30
0.0
 10
114.8138327530443
 20
149.2596801392553
 30
0.0
 10
115.3623832872524
 20
149.2592730138066
 30
0.0
 10
115.6682138315373
 20
149.2590952826996
 30
0.0
 10
116.3440682604997
 20
149.258790876178
 30
0.0
 10
116.7164277743305
 20
149.2586637043958
 30
0.0
 10
117.9122411411445
 20
149.2583630110047
 30
0.0
 10
118.8134970440103
 20
149.2582668030527
 30
0.0
 10
120.3181851527798
 20
149.2582672622645
 30
0.0
 10
120.8453923877857
 20
149.2582918762389
 30
0.0
 10
121.9527591434383
 20
149.2583923974398
 30
0.0
 10
122.5276826841383
 20
149.2584680106293
 30
0.0
 10
124.2974939835606
 20
149.2587696563828
 30
0.0
 10
125.5439134365784
 20
149.2590709216849
 30
0.0
 10
127.5141825689821
 20
149.2596865736378
 30
0.0
 10
128.1914867494479
 20
149.259920712598
 30
0.0
 10
129.5555550643159
 20
149.2604346580738
 30
0.0
 10
130.2436400166573
 20
149.2607147177343
 30
0.0
 10
132.3256427433395
 20
149.2616118976161
 30
0.0
 10
133.7371382359972
 20
149.2622932371291
 30
0.0
 10
135.1730811699358
 20
149.2629677476023
 30
0.0
  0
SPLINE
  5
16D
330
1F
100
AcDbEntity
  8
0
  6
Continuous
 62
     8
370
    18
100
AcDbSpline
210
0.0
220
0.0
230
1.0
 70
     8
 71
     3
 72
    30
 73
    26
 74
     0
 42
0.000000001
 43
0.00000001
 40
0.0
 40
0.0
 40
0.0
 40
0.0
 40
0.1249999999999981
 40
0.1249999999999981
 40
0.1874999999999978
 40
0.1874999999999978
 40
0.2499999999999974
 40
0.2499999999999974
 40
0.3124999999999971
 40
0.3124999999999971
 40
0.3749999999999968
 40
0.3749999999999968
 40
0.4999999999999964
 40
0.4999999999999964
 40
0.5624999999999962
 40
0.5624999999999962
 40
0.6249999999999961
 40
0.6249999999999961
 40
0.7499999999999964
 40
0.7499999999999964
 40
0.8124999999999969
 40
0.8124999999999969
 40
0.8749999999999974
 40
0.8749999999999974
 40
1.0
 40
1.0
 40
1.0
 40
1.0
 10
260.5619980362137
 20
149.2685348899335
 30
0.0
 10
261.9979434484892
 20
149.2680601165085
 30
0.0
 10
263.4179565735202
 20
149.2675380560904
 30
0.0
 10
265.5241823452872
 20
149.2668287523981
 30
0.0
 10
266.2180027293842
 20
149.2666044506429
 30
0.0
 10
267.5749739133515
 20
149.2661932388327
 30
0.0
 10
268.240420660857
 20
149.2660054295729
 30
0.0
 10
269.5455236729378
 20
149.2656688666407
 30
0.0
 10
270.1851802970024
 20
149.2655200445591
 30
0.0
 10
271.4382612796304
 20
149.2652630151017
 30
0.0
 10
272.0548961674958
 20
149.2651543790779
 30
0.0
 10
273.8324895819073
 20
149.2648956873189
 30
0.0
 10
274.9253169603058
 20
149.2648103263073
 30
0.0
 10
276.4291007863893
 20
149.2648075512546
 30
0.0
 10
276.9076288087669
 20
149.2648276906304
 30
0.0
 10
277.8177438558718
 20
149.264911669093
 30
0.0
 10
278.2447243222007
 20
149.2649752582701
 30
0.0
 10
279.4310897850183
 20
149.2652279472344
 30
0.0
 10
280.1024965400895
 20
149.2654796170437
 30
0.0
 10
280.9288742822598
 20
149.2659805136625
 30
0.0
 10
281.1749384873021
 20
149.2661692622895
 30
0.0
 10
281.5962796595802
 20
149.2665776098438
 30
0.0
 10
281.7725415855824
 20
149.2667974494239
 30
0.0
 10
282.2004017219443
 20
149.2674891023069
 30
0.0
 10
282.3520418474059
 20
149.2680002774453
 30
0.0
 10
282.3646586308802
 20
149.2684655596333
 30
0.0
  0
SPLINE
  5
16E
330
1F
100
AcDbEntity
  8
0
  6
Continuous
 62
     8
370
    18
100
AcDbSpline
210
0.0
220
0.0
230
1.0
 70
     8
 71
     3
 72
    12
 73
     8
 74
     0
 42
0.000000001
 43
0.00000001
 40
0.0
 40
0.0
 40
0.0
 40
0.0
 40
0.5000000000000001
 40
0.75
 40
0.8750000000000001
 40
0.8750000000000001
 40
1.0
 40
1.0
 40
1.0
 40
1.0
 10
197.8674912891988
 20
149.2729535393723
 30
0.0
 10
208.3167773141165
 20
149.2729535393724
 30
0.0
 10
223.9905551692478
 20
149.272368945627
 30
0.0
 10
242.2763647720631
 20
149.270663254408
 30
0.0
 10
250.1130836236387
 20
149.2697124225697
 30
0.0
 10
255.3375502595707
 20
149.2690296390141
 30
0.0
 10
257.9497770787792
 20
149.2673076197094
 30
0.0
 10
260.5619980362137
 20
149.2685348899335
 30
0.0
  0
SPLINE
  5
16F
330
1F
100
AcDbEntity
  8
0
  6
Continuous
 62
     8
370
    18
100
AcDbSpline
210
0.0
220
0.0
230
1.0
 70
     8
 71
     3
 72
    13
 73
     9
 74
     0
 42
0.000000001
 43
0.00000001
 40
0.0
 40
0.0
 40
0.0
 40
0.0
 40
0.1250000000000002
 40
0.1250000000000002
 40
0.2500000000000003
 40
0.5000000000000003
 40
0.5000000000000003
 40
1.0
 40
1.0
 40
1.0
 40
1.0
 10
135.173081169936
 20
149.2629677476023
 30
0.0
 10
137.7852981739606
 20
149.2621210741521
 30
0.0
 10
140.3975206870233
 20
149.2646177022312
 30
0.0
 10
145.6219791026092
 20
149.2662466133528
 30
0.0
 10
153.458685683196
 20
149.2684198293321
 30
0.0
 10
161.2954491019516
 20
149.2699218746349
 30
0.0
 10
176.9690516695578
 20
149.2722581443624
 30
0.0
 10
187.418221014378
 20
149.2729535393724
 30
0.0
 10
197.8674912891988
 20
149.2729535393723
 30
0.0
  0
SPLINE
  5
170
330
1F
100
AcDbEntity
  8
0
  6
Continuous
 62
     8
370
    18
100
AcDbSpline
210
0.0
220
0.0
230
1.0
 70
     8
 71
     3
 72
    12
 73
     8
 74
     0
 42
0.000000001
 43
0.00000001
 40
0.0
 40
0.0
 40
0.0
 40
0.0
 40
0.125
 40
0.125
 40
0.25
 40
0.5
 40
1.0
 40
1.0
 40
1.0
 40
1.0
 10
260.5538319709684
 20
148.2861206940558
 30
0.0
 10
257.9419571969845
 20
148.2849154457819
 30
0.0
 10
255.3300666461777
 20
148.286622667927
 30
0.0
 10
250.1062804662065
 20
148.287305464016
 30
0.0
 10
242.270582269438
 20
148.2882563104073
 30
0.0
 10
223.9871539921948
 20
148.2899620120684
 30
0.0
 10
208.3154169318431
 20
148.290546595077
 30
0.0
 10
197.8674912891988
 20
148.2905465950768
 30
0.0
  0
SPLINE
  5
171
330
1F
100
AcDbEntity
  8
0
  6
Continuous
 62
     8
370
    18
100
AcDbSpline
210
0.0
220
0.0
230
1.0
 70
     8
 71
     3
 72
    14
 73
    10
 74
     0
 42
0.000000001
 43
0.00000001
 40
0.0
 40
0.0
 40
0.0
 40
0.0
 40
0.5
 40
0.5
 40
0.75
 40
0.75
 40
0.875
 40
0.875
 40
1.0
 40
1.0
 40
1.0
 40
1.0
 10
197.8674912891988
 20
148.2905465950769
 30
0.0
 10
187.4196056485675
 20
148.290546595077
 30
0.0
 10
176.9718180918284
 20
148.2898566248737
 30
0.0
 10
161.300283876331
 20
148.287538403215
 30
0.0
 10
156.0764636474142
 20
148.2865447810423
 30
0.0
 10
148.2407699917137
 20
148.2846109367913
 30
0.0
 10
145.6288782206294
 20
148.2838917531419
 30
0.0
 10
140.4051068903026
 20
148.2822756407007
 30
0.0
 10
137.7932228110832
 20
148.2798096239923
 30
0.0
 10
135.1813558258494
 20
148.2806313992533
 30
0.0
  0
SPLINE
  5
172
330
1F
100
AcDbEntity
  8
0
  6
Continuous
 62
     8
370
    18
100
AcDbSpline
210
0.0
220
0.0
230
1.0
 70
    24
 71
     3
 72
     8
 73
     4
 74
     0
 42
0.000000001
 43
0.00000001
 40
0.0111997370830301
 40
0.0111997370830301
 40
0.0111997370830301
 40
0.0111997370830301
 40
0.5336939878144027
 40
0.5336939878144027
 40
0.5336939878144027
 40
0.5336939878144027
 10
197.8674912891988
 20
148.2905465950769
 30
0.0
 10
197.8674912891988
 20
148.0386671252458
 30
0.0
 10
197.8674912891988
 20
147.8569372442821
 30
0.0
 10
197.8674912891988
 20
147.7415508191898
 30
0.0
  0
LINE
  5
173
330
1F
100
AcDbEntity
  8
0
  6
Continuous
 62
     8
370
    18
100
AcDbLine
 10
197.8674912892
 20
147.7415505892
 30
0.0
 11
197.8674912892
 21
147.7395854986
 31
0.0
  0
LINE
  5
174
330
1F
100
AcDbEntity
  8
0
  6
Continuous
 62
     8
370
    18
100
AcDbLine
 10
281.6079864345
 20
148.2897270566
 30
0.0
 11
281.622082933
 21
148.2899617499
 31
0.0
  0
SPLINE
  5
175
330
1F
100
AcDbEntity
  8
0
  6
Continuous
 62
     8
370
    18
100
AcDbSpline
210
0.0
220
0.0
230
1.0
 70
     8
 71
     3
 72
    10
 73
     6
 74
     0
 42
0.000000001
 43
0.00000001
 40
0.0
 40
0.0
 40
0.0
 40
0.0
 40
0.4779783165154706
 40
0.9559589383729838
 40
1.0
 40
1.0
 40
1.0
 40
1.0
 10
114.0780756316784
 20
148.2905466204896
 30
0.0
 10
114.0820544603912
 20
148.2904792699451
 30
0.0
 10
114.090012137007
 20
148.290344568531
 30
0.0
 10
114.1203747340836
 20
148.289825469063
 30
0.0
 10
114.1521438206765
 20
148.2892881043796
 30
0.0
 10
114.1548240624074
 20
148.2892427688852
 30
0.0
  0
SPLINE
  5
176
330
1F
100
AcDbEntity
  8
0
  6
Continuous
 62
     8
370
    18
100
AcDbSpline
210
0.0
220
0.0
230
1.0
 70
     8
 71
     3
 72
    14
 73
    10
 74
     0
 42
0.000000001
 43
0.00000001
 40
0.0
 40
0.0
 40
0.0
 40
0.0
 40
0.4999999999999999
 40
0.4999999999999999
 40
0.75
 40
0.75
 40
0.875
 40
0.875
 40
1.0
 40
1.0
 40
1.0
 40
1.0
 10
113.0949986330803
 20
149.2729535393723
 30
0.0
 10
113.0949986330803
 20
149.2729535393723
 30
0.0
 10
113.1179482829881
 20
149.2722581443624
 30
0.0
 10
113.1868005993904
 20
149.2699218746349
 30
0.0
 10
113.2154894893877
 20
149.2689205110997
 30
0.0
 10
113.2671320368656
 20
149.2669714675507
 30
0.0
 10
113.2857811011538
 20
149.2662466133528
 30
0.0
 10
113.3259495228407
 20
149.2646177022312
 30
0.0
 10
113.3474966764375
 20
149.262121074152
 30
0.0
 10
113.3704190779857
 20
149.2629677476022
 30
0.0
  0
SPLINE
  5
177
330
1F
100
AcDbEntity
  8
0
  6
Continuous
 62
     8
370
    18
100
AcDbSpline
210
0.0
220
0.0
230
1.0
 70
     8
 71
     3
 72
    10
 73
     6
 74
     0
 42
0.000000001
 43
0.00000001
 40
0.0
 40
0.0
 40
0.0
 40
0.0
 40
0.4612689547535522
 40
0.922545406905454
 40
1.0
 40
1.0
 40
1.0
 40
1.0
 10
282.3646599493626
 20
149.2684651261583
 30
0.0
 10
282.4352315316339
 20
149.2695654016503
 30
0.0
 10
282.5763758432365
 20
149.271765970518
 30
0.0
 10
282.6546529933123
 20
149.2731973460978
 30
0.0
 10
282.6332074157143
 20
149.2728364824503
 30
0.0
 10
282.630124136031
 20
149.2727846002593
 30
0.0
  0
LINE
  5
178
330
1F
100
AcDbEntity
  8
0
  6
Continuous
 62
     8
370
    18
100
AcDbLine
 10
222.4468430571
 20
114.0680974445
 30
0.0
 11
221.9718908958
 21
102.7409387848
 31
0.0
  0
SPLINE
  5
179
330
1F
100
AcDbEntity
  8
0
  6
Continuous
 62
     8
370
    18
100
AcDbSpline
210
0.0
220
0.0
230
1.0
 70
     8
 71
     3
 72
    28
 73
    24
 74
     0
 42
0.000000001
 43
0.00000001
 40
0.0
 40
0.0
 40
0.0
 40
0.0
 40
0.2500000000000001
 40
0.2500000000000001
 40
0.3750000000000001
 40
0.3750000000000001
 40
0.4375000000000001
 40
0.4375000000000001
 40
0.5
 40
0.5
 40
0.5625
 40
0.5625
 40
0.625
 40
0.625
 40
0.6875000000000001
 40
0.6875000000000001
 40
0.7500000000000001
 40
0.7500000000000001
 40
0.8125000000000001
 40
0.8125000000000001
 40
0.8750000000000001
 40
0.8750000000000001
 40
1.0
 40
1.0
 40
1.0
 40
1.0
 10
197.867491289199
 20
102.8986631632278
 30
0.0
 10
201.0413535580275
 20
102.8986577543453
 30
0.0
 10
204.1722284958805
 20
102.9257968546469
 30
0.0
 10
208.9389158452593
 20
102.9781590221744
 30
0.0
 10
210.6190871058442
 20
102.9955411990986
 30
0.0
 10
213.1720799247399
 20
103.0113004377564
 30
0.0
 10
214.0162546230087
 20
103.0150049773577
 30
0.0
 10
215.6311257127975
 20
103.0184258521206
 30
0.0
 10
216.4186644328432
 20
103.0180796536453
 30
0.0
 10
217.8441049551852
 20
103.0122658219772
 30
0.0
 10
218.4864250503614
 20
103.0065731316379
 30
0.0
 10
219.6151577693051
 20
102.9901656274176
 30
0.0
 10
220.0991897814065
 20
102.9794296675857
 30
0.0
 10
220.8602894185844
 20
102.9552471832748
 30
0.0
 10
221.1503711542576
 20
102.9412497760979
 30
0.0
 10
221.5495665444317
 20
102.9118910652088
 30
0.0
 10
221.6647020925015
 20
102.8968528584122
 30
0.0
 10
221.8024529328504
 20
102.8673636822853
 30
0.0
 10
221.8249504012747
 20
102.8532156827532
 30
0.0
 10
221.8611194552796
 20
102.8272396328909
 30
0.0
 10
221.8772362886009
 20
102.815027666797
 30
0.0
 10
221.9234671998965
 20
102.7798456458863
 30
0.0
 10
221.9498814015427
 20
102.7588849134429
 30
0.0
 10
221.9718642816451
 20
102.7410693513494
 30
0.0
  0
SPLINE
  5
17A
330
1F
100
AcDbEntity
  8
0
  6
Continuous
 62
     8
370
    18
100
AcDbSpline
210
0.0
220
0.0
230
1.0
 70
     8
 71
     3
 72
    28
 73
    24
 74
     0
 42
0.000000001
 43
0.00000001
 40
0.0
 40
0.0
 40
0.0
 40
0.0
 40
0.125
 40
0.125
 40
0.1875000000000001
 40
0.1875000000000001
 40
0.2500000000000001
 40
0.2500000000000001
 40
0.3125000000000001
 40
0.3125000000000001
 40
0.3750000000000001
 40
0.3750000000000001
 40
0.4375000000000001
 40
0.4375000000000001
 40
0.4999999999999999
 40
0.4999999999999999
 40
0.5624999999999999
 40
0.5624999999999999
 40
0.6249999999999999
 40
0.6249999999999999
 40
0.7499999999999999
 40
0.7499999999999999
 40
1.0
 40
1.0
 40
1.0
 40
1.0
 10
173.7631182967533
 20
102.7410693513493
 30
0.0
 10
173.7851164431967
 20
102.7588972858401
 30
0.0
 10
173.8115515700012
 20
102.7798744239934
 30
0.0
 10
173.8578216291606
 20
102.8150843805909
 30
0.0
 10
173.8739384134692
 20
102.8273044741196
 30
0.0
 10
173.9101729142949
 20
102.8533059248967
 30
0.0
 10
173.9327242680944
 20
102.8674532370899
 30
0.0
 10
174.0711231780076
 20
102.8969850072547
 30
0.0
 10
174.1876499234957
 20
102.9121040229418
 30
0.0
 10
174.5867697730634
 20
102.9413593051172
 30
0.0
 10
174.8777845336682
 20
102.9553993663158
 30
0.0
 10
175.6464097051495
 20
102.9797120666103
 30
0.0
 10
176.1219744506654
 20
102.9902077036007
 30
0.0
 10
177.2515690030455
 20
103.006606028969
 30
0.0
 10
177.9136059268296
 20
103.0124198873918
 30
0.0
 10
179.3403727592669
 20
103.0181143492267
 30
0.0
 10
180.1261429336008
 20
103.0184307203318
 30
0.0
 10
181.7614416016806
 20
103.0148603018106
 30
0.0
 10
182.6034650903434
 20
103.0110985180254
 30
0.0
 10
185.1604612151622
 20
102.9951655015792
 30
0.0
 10
186.8474182791082
 20
102.9775820839461
 30
0.0
 10
191.5869792494922
 20
102.9255569290724
 30
0.0
 10
194.7089149377899
 20
102.8986577806167
 30
0.0
 10
197.8674912891992
 20
102.8986631632278
 30
0.0
  0
LINE
  5
17B
330
1F
100
AcDbEntity
  8
0
  6
Continuous
 62
     8
370
    18
100
AcDbLine
 10
173.430019065
 20
110.6843976399
 30
0.0
 11
173.7630916826
 21
102.7409387848
 31
0.0
  0
SPLINE
  5
17C
330
1F
100
AcDbEntity
  8
0
  6
Continuous
 62
     8
370
    18
100
AcDbSpline
210
0.0
220
0.0
230
1.0
 70
     8
 71
     3
 72
    28
 73
    24
 74
     0
 42
0.000000001
 43
0.00000001
 40
0.0
 40
0.0
 40
0.0
 40
0.0
 40
0.1250000000000006
 40
0.1250000000000006
 40
0.1875000000000006
 40
0.1875000000000006
 40
0.2500000000000007
 40
0.2500000000000007
 40
0.3125000000000008
 40
0.3125000000000008
 40
0.3750000000000009
 40
0.3750000000000009
 40
0.4375000000000009
 40
0.4375000000000009
 40
0.500000000000001
 40
0.500000000000001
 40
0.5625000000000009
 40
0.5625000000000009
 40
0.6250000000000008
 40
0.6250000000000008
 40
0.7500000000000006
 40
0.7500000000000006
 40
1.0
 40
1.0
 40
1.0
 40
1.0
 10
220.6099532878726
 20
101.3538671876983
 30
0.0
 10
220.5868055804512
 20
101.372831510542
 30
0.0
 10
220.563255224755
 20
101.3909716058117
 30
0.0
 10
220.5265411211598
 20
101.4169551502747
 30
0.0
 10
220.5144248400381
 20
101.4252803620438
 30
0.0
 10
220.48791904739
 20
101.4421519179747
 30
0.0
 10
220.4708939332681
 20
101.4509440588579
 30
0.0
 10
220.3516823812879
 20
101.4692681303888
 30
0.0
 10
220.2493439884654
 20
101.4786129510589
 30
0.0
 10
219.8966373937047
 20
101.4972151385873
 30
0.0
 10
219.6409905664631
 20
101.5063022622122
 30
0.0
 10
218.9681894012903
 20
101.5229596404654
 30
0.0
 10
218.5415272258915
 20
101.530844740664
 30
0.0
 10
217.5423255217719
 20
101.5441870673824
 30
0.0
 10
216.9750486960532
 20
101.5495049762099
 30
0.0
 10
215.7085901158891
 20
101.5571171871085
 30
0.0
 10
215.0093773144576
 20
101.5594602363561
 30
0.0
 10
213.5611016857529
 20
101.5620944157582
 30
0.0
 10
212.799576659227
 20
101.5623885075502
 30
0.0
 10
210.4637998139551
 20
101.5611609720607
 30
0.0
 10
208.8821616392041
 20
101.5574520468364
 30
0.0
 10
204.1531771359292
 20
101.5536872032694
 30
0.0
 10
201.0171288195567
 20
101.5539728100197
 30
0.0
 10
197.8674916745264
 20
101.5539732983654
 30
0.0
  0
SPLINE
  5
17D
330
1F
100
AcDbEntity
  8
0
  6
Continuous
 62
     8
370
    18
100
AcDbSpline
210
0.0
220
0.0
230
1.0
 70
     8
 71
     3
 72
    28
 73
    24
 74
     0
 42
0.000000001
 43
0.00000001
 40
0.0
 40
0.0
 40
0.0
 40
0.0
 40
0.25
 40
0.25
 40
0.375
 40
0.375
 40
0.4375
 40
0.4375
 40
0.5
 40
0.5
 40
0.5625
 40
0.5625
 40
0.625
 40
0.625
 40
0.6875
 40
0.6875
 40
0.75
 40
0.75
 40
0.8125
 40
0.8125
 40
0.875
 40
0.875
 40
1.0
 40
1.0
 40
1.0
 40
1.0
 10
197.8674909038718
 20
101.5539732983655
 30
0.0
 10
194.7310615453359
 20
101.5539728120371
 30
0.0
 10
191.6086372209456
 20
101.5537814443185
 30
0.0
 10
186.9023951002417
 20
101.5573559273792
 30
0.0
 10
185.3127948424653
 20
101.5611033399316
 30
0.0
 10
182.9721133889776
 20
101.5623864453043
 30
0.0
 10
182.2123767112211
 20
101.5621356033308
 30
0.0
 10
180.7454109327475
 20
101.5595239650005
 30
0.0
 10
180.0478145496422
 20
101.5572064661408
 30
0.0
 10
178.780078559218
 20
101.549664264053
 30
0.0
 10
178.1953240099029
 20
101.5442160772172
 30
0.0
 10
177.1953572417156
 20
101.5308767084197
 30
0.0
 10
176.7761713882204
 20
101.5231597519808
 30
0.0
 10
176.0967316027196
 20
101.5064015984595
 30
0.0
 10
175.8402445486261
 20
101.4972858109168
 30
0.0
 10
175.4876198773807
 20
101.4787466258666
 30
0.0
 10
175.3840392385041
 20
101.4693499020812
 30
0.0
 10
175.2642473837016
 20
101.4510000474664
 30
0.0
 10
175.247167650252
 20
101.4422088223787
 30
0.0
 10
175.2206119364517
 20
101.4253241747925
 30
0.0
 10
175.2084995608311
 20
101.4169952575647
 30
0.0
 10
175.1717595383005
 20
101.3909964059402
 30
0.0
 10
175.1481930733869
 20
101.3728446808582
 30
0.0
 10
175.1250292905258
 20
101.3538671876981
 30
0.0
  0
SPLINE
  5
17E
330
1F
100
AcDbEntity
  8
0
  6
Continuous
 62
     8
370
    18
100
AcDbSpline
210
0.0
220
0.0
230
1.0
 70
     8
 71
     3
 72
    14
 73
    10
 74
     0
 42
0.000000001
 43
0.00000001
 40
0.0
 40
0.0
 40
0.0
 40
0.0
 40
0.25
 40
0.25
 40
0.5
 40
0.5
 40
0.75
 40
0.75
 40
1.0
 40
1.0
 40
1.0
 40
1.0
 10
175.1250292905258
 20
101.3538671876981
 30
0.0
 10
174.9633648199545
 20
101.3640700643512
 30
0.0
 10
174.7924106718702
 20
101.4027242277625
 30
0.0
 10
174.4646165078657
 20
101.5476055317662
 30
0.0
 10
174.3085760573935
 20
101.6540936321648
 30
0.0
 10
174.0482834330811
 20
101.9192199827703
 30
0.0
 10
173.9446831376678
 20
102.0771942489371
 30
0.0
 10
173.8058533361002
 20
102.4076022829394
 30
0.0
 10
173.7703482253441
 20
102.5792413999838
 30
0.0
 10
173.7631182967533
 20
102.7410693513493
 30
0.0
  0
LINE
  5
17F
330
1F
100
AcDbEntity
  8
0
  6
Continuous
 62
     8
370
    18
100
AcDbLine
 10
222.0537765018
 20
102.5503603837
 30
0.0
 11
222.0374094389
 21
102.5883397183
 31
0.0
  0
LINE
  5
180
330
1F
100
AcDbEntity
  8
0
  6
Continuous
 62
     8
370
    18
100
AcDbLine
 10
222.0316762171
 20
102.6016427299
 30
0.0
 11
221.9716934554
 21
102.7408419272
 31
0.0
  0
SPLINE
  5
181
330
1F
100
AcDbEntity
  8
0
  6
Continuous
 62
     8
370
    18
100
AcDbSpline
210
0.0
220
0.0
230
1.0
 70
     8
 71
     3
 72
    10
 73
     6
 74
     0
 42
0.000000001
 43
0.00000001
 40
0.0
 40
0.0
 40
0.0
 40
0.0
 40
0.5
 40
0.5
 40
1.0
 40
1.0
 40
1.0
 40
1.0
 10
173.6812062752997
 20
102.5503601230591
 30
0.0
 10
173.6701184349187
 20
102.5848458636468
 30
0.0
 10
173.6641033136769
 20
102.6234501804392
 30
0.0
 10
173.6993624885301
 20
102.6804912483588
 30
0.0
 10
173.7237755569809
 20
102.7016680909109
 30
0.0
 10
173.7632898979084
 20
102.7408420463864
 30
0.0
  0
SPLINE
  5
182
330
1F
100
AcDbEntity
  8
0
  6
Continuous
 62
     8
370
    18
100
AcDbSpline
210
0.0
220
0.0
230
1.0
 70
     8
 71
     3
 72
     9
 73
     5
 74
     0
 42
0.000000001
 43
0.00000001
 40
0.1055971148082074
 40
0.1055971148082074
 40
0.1055971148082074
 40
0.1055971148082074
 40
0.125
 40
1.0
 40
1.0
 40
1.0
 40
1.0
 10
219.918434363954
 20
100.3940343158504
 30
0.0
 10
219.8370145031095
 20
100.3898409889209
 30
0.0
 10
216.0732570430858
 20
100.1978397600234
 30
0.0
 10
211.8210564235259
 20
100.0655788869766
 30
0.0
 10
207.193620886229
 20
99.99336373318121
 30
0.0
  0
SPLINE
  5
183
330
1F
100
AcDbEntity
  8
0
  6
Continuous
 62
     8
370
    18
100
AcDbSpline
210
0.0
220
0.0
230
1.0
 70
     8
 71
     3
 72
     8
 73
     4
 74
     0
 42
0.000000001
 43
0.00000001
 40
0.0
 40
0.0
 40
0.0
 40
0.0
 40
0.3559074851186002
 40
0.3559074851186002
 40
0.3559074851186002
 40
0.3559074851186002
 10
207.193620886229
 20
99.99336373318118
 30
0.0
 10
204.2713451366589
 20
99.94775908002359
 30
0.0
 10
201.1626352709823
 20
99.92495675344479
 30
0.0
 10
197.8674912891992
 20
99.92495675344477
 30
0.0
  0
SPLINE
  5
184
330
1F
100
AcDbEntity
  8
0
  6
Continuous
 62
     8
370
    18
100
AcDbSpline
210
0.0
220
0.0
230
1.0
 70
     8
 71
     3
 72
    10
 73
     6
 74
     0
 42
0.000000001
 43
0.00000001
 40
0.0
 40
0.0
 40
0.0
 40
0.0
 40
0.5
 40
0.5
 40
1.0
 40
1.0
 40
1.0
 40
1.0
 10
220.7455330319051
 20
101.1125910851651
 30
0.0
 10
220.7506030026526
 20
101.1526141640549
 30
0.0
 10
220.7538969395205
 20
101.1934747856823
 30
0.0
 10
220.694226799975
 20
101.273357775397
 30
0.0
 10
220.650279562278
 20
101.3135049459804
 30
0.0
 10
220.6095730225286
 20
101.3538432267402
 30
0.0
  0
SPLINE
  5
185
330
1F
100
AcDbEntity
  8
0
  6
Continuous
 62
     8
370
    18
100
AcDbSpline
210
0.0
220
0.0
230
1.0
 70
     8
 71
     3
 72
    10
 73
     6
 74
     0
 42
0.000000001
 43
0.00000001
 40
0.0
 40
0.0
 40
0.0
 40
0.0
 40
0.5
 40
0.5
 40
1.0
 40
1.0
 40
1.0
 40
1.0
 10
219.918779381147
 20
100.3944237602135
 30
0.0
 10
220.0653155303502
 20
100.5140990418291
 30
0.0
 10
220.2121517952392
 20
100.6337945114011
 30
0.0
 10
220.5062270760269
 20
100.8732173240851
 30
0.0
 10
220.6991255308374
 20
100.9929613697849
 30
0.0
 10
220.7450134049618
 20
101.1125600016259
 30
0.0
  0
SPLINE
  5
186
330
1F
100
AcDbEntity
  8
0
  6
Continuous
 62
     8
370
    18
100
AcDbSpline
210
0.0
220
0.0
230
1.0
 70
     8
 71
     3
 72
    10
 73
     6
 74
     0
 42
0.000000001
 43
0.00000001
 40
0.0
 40
0.0
 40
0.0
 40
0.0
 40
0.5
 40
0.5
 40
1.0
 40
1.0
 40
1.0
 40
1.0
 10
175.1254095558697
 20
101.35384322674
 30
0.0
 10
175.0847030159764
 20
101.3135049459899
 30
0.0
 10
175.0407557784817
 20
101.2733577753925
 30
0.0
 10
174.9810856388196
 20
101.1934747856865
 30
0.0
 10
174.9843795757547
 20
101.1526141640535
 30
0.0
 10
174.9894495464933
 20
101.1125910851649
 30
0.0
  0
SPLINE
  5
187
330
1F
100
AcDbEntity
  8
0
  6
Continuous
 62
     8
370
    18
100
AcDbSpline
210
0.0
220
0.0
230
1.0
 70
     8
 71
     3
 72
     9
 73
     5
 74
     0
 42
0.000000001
 43
0.00000001
 40
0.0
 40
0.0
 40
0.0
 40
0.0
 40
0.5
 40
1.0
 40
1.0
 40
1.0
 40
1.0
 10
197.8674912891992
 20
99.92495675344477
 30
0.0
 10
196.2199192983076
 20
99.92495675344476
 30
0.0
 10
193.0179923745778
 20
99.93635791673414
 30
0.0
 10
190.0024995669545
 20
99.97056140660233
 30
0.0
 10
188.5413616921695
 20
99.9933637331811
 30
0.0
  0
SPLINE
  5
188
330
1F
100
AcDbEntity
  8
0
  6
Continuous
 62
     8
370
    18
100
AcDbSpline
210
0.0
220
0.0
230
1.0
 70
     8
 71
     3
 72
     8
 73
     4
 74
     0
 42
0.000000001
 43
0.00000001
 40
0.3559074851186003
 40
0.3559074851186003
 40
0.3559074851186003
 40
0.3559074851186003
 40
0.9319856916867358
 40
0.9319856916867358
 40
0.9319856916867358
 40
0.9319856916867358
 10
188.5413616921695
 20
99.99336373318113
 30
0.0
 10
183.8113140160189
 20
100.0671802385952
 30
0.0
 10
179.5697095043693
 20
100.2007371004673
 30
0.0
 10
175.8165481572209
 20
100.3940343187974
 30
0.0
  0
SPLINE
  5
189
330
1F
100
AcDbEntity
  8
0
  6
Continuous
 62
     8
370
    18
100
AcDbSpline
210
0.0
220
0.0
230
1.0
 70
     8
 71
     3
 72
    10
 73
     6
 74
     0
 42
0.000000001
 43
0.00000001
 40
0.0
 40
0.0
 40
0.0
 40
0.0
 40
0.5
 40
0.5
 40
1.0
 40
1.0
 40
1.0
 40
1.0
 10
174.9899691735114
 20
101.112560001431
 30
0.0
 10
175.0358547713535
 20
100.9929673063074
 30
0.0
 10
175.2287518310255
 20
100.873220311491
 30
0.0
 10
175.5228289508385
 20
100.6337960048318
 30
0.0
 10
175.6696661338302
 20
100.5140997884168
 30
0.0
 10
175.8162031972514
 20
100.3944237602134
 30
0.0
  0
SPLINE
  5
18A
330
1F
100
AcDbEntity
  8
0
  6
Continuous
 62
     8
370
    18
100
AcDbSpline
210
0.0
220
0.0
230
1.0
 70
     8
 71
     3
 72
    13
 73
     9
 74
     0
 42
0.000000001
 43
0.00000001
 40
0.0
 40
0.0
 40
0.0
 40
0.0
 40
0.0565118513404787
 40
0.2163376020745506
 40
0.3794344305435953
 40
0.5425294257786379
 40
0.7023557539093581
 40
1.0
 40
1.0
 40
1.0
 40
1.0
 10
221.9909047774676
 20
102.1380005499735
 30
0.0
 10
221.9870822976736
 20
102.105545885691
 30
0.0
 10
221.9724491527138
 20
101.9813035527914
 30
0.0
 10
221.8614942681029
 20
101.7861790582047
 30
0.0
 10
221.7000794821352
 20
101.55807541037
 30
0.0
 10
221.4884651367943
 20
101.3715272247825
 30
0.0
 10
221.1794026001912
 20
101.1843408336917
 30
0.0
 10
220.9162424194494
 20
101.1408688109603
 30
0.0
 10
220.7450224153403
 20
101.1125845929995
 30
0.0
  0
SPLINE
  5
18B
330
1F
100
AcDbEntity
  8
0
  6
Continuous
 62
     8
370
    18
100
AcDbSpline
210
0.0
220
0.0
230
1.0
 70
     8
 71
     3
 72
    10
 73
     6
 74
     0
 42
0.000000001
 43
0.00000001
 40
0.0
 40
0.0
 40
0.0
 40
0.0
 40
0.084709744739177
 40
0.4050362178166278
 40
1.0
 40
1.0
 40
1.0
 40
1.0
 10
220.7128396324519
 20
100.7060809156313
 30
0.0
 10
220.694970845415
 20
100.6893797263405
 30
0.0
 10
220.6095319630209
 20
100.6095236653378
 30
0.0
 10
220.3513519661173
 20
100.4671580024421
 30
0.0
 10
220.0891728934675
 20
100.4230747365076
 30
0.0
 10
219.9187493018511
 20
100.3944194039717
 30
0.0
  0
SPLINE
  5
18C
330
1F
100
AcDbEntity
  8
0
  6
Continuous
 62
     8
370
    18
100
AcDbSpline
210
0.0
220
0.0
230
1.0
 70
     8
 71
     3
 72
    10
 73
     6
 74
     0
 42
0.000000001
 43
0.00000001
 40
0.0
 40
0.0
 40
0.0
 40
0.0
 40
0.084691206938626
 40
0.4050208954587561
 40
1.0
 40
1.0
 40
1.0
 40
1.0
 10
175.0221410833005
 20
100.7060809156313
 30
0.0
 10
175.0400049756431
 20
100.6893835274708
 30
0.0
 10
175.125435918648
 20
100.6095311868435
 30
0.0
 10
175.3836109296373
 20
100.4671763188758
 30
0.0
 10
175.6457833012106
 20
100.4230843055037
 30
0.0
 10
175.816203474224
 20
100.394423129262
 30
0.0
  0
SPLINE
  5
18D
330
1F
100
AcDbEntity
  8
0
  6
Continuous
 62
     8
370
    18
100
AcDbSpline
210
0.0
220
0.0
230
1.0
 70
     8
 71
     3
 72
    10
 73
     6
 74
     0
 42
0.000000001
 43
0.00000001
 40
0.0
 40
0.0
 40
0.0
 40
0.0
 40
0.0567288353182427
 40
0.3868495486525032
 40
1.0
 40
1.0
 40
1.0
 40
1.0
 10
175.0417044453028
 20
100.6884863695517
 30
0.0
 10
175.0533696500698
 20
100.6776961953051
 30
0.0
 10
175.1329178934587
 20
100.6041150259799
 30
0.0
 10
175.3846448375059
 20
100.4673756831226
 30
0.0
 10
175.6465041544149
 20
100.4229211257338
 30
0.0
 10
175.8167194269303
 20
100.3940245232001
 30
0.0
  0
LINE
  5
18E
330
1F
100
AcDbEntity
  8
0
  6
Continuous
 62
     8
370
    18
100
AcDbLine
 10
220.2827474169
 20
100.4831967971
 30
0.0
 11
219.9182631515
 21
100.3940245232
 31
0.0
  0
SPLINE
  5
18F
330
1F
100
AcDbEntity
  8
0
  6
Continuous
 62
     8
370
    18
100
AcDbSpline
210
0.0
220
0.0
230
1.0
 70
     8
 71
     3
 72
     9
 73
     5
 74
     0
 42
0.000000001
 43
0.00000001
 40
0.0
 40
0.0
 40
0.0
 40
0.0
 40
0.5150037276922309
 40
1.0
 40
1.0
 40
1.0
 40
1.0
 10
219.9182538382414
 20
100.3940245232001
 30
0.0
 10
219.9111108678091
 20
100.3829527471098
 30
0.0
 10
219.8972411227018
 20
100.3614543083707
 30
0.0
 10
219.641377151744
 20
100.3364609355348
 30
0.0
 10
219.5172840796116
 20
100.324339242877
 30
0.0
  0
LINE
  5
190
330
1F
100
AcDbEntity
  8
0
  6
Continuous
 62
     8
370
    18
100
AcDbLine
 10
207.1936205096
 20
99.993362101
 30
0.0
 11
207.1817405589
 21
99.9659476897
 31
0.0
  0
LINE
  5
191
330
1F
100
AcDbEntity
  8
0
  6
Continuous
 62
     8
370
    18
100
AcDbLine
 10
188.5413620688
 20
99.993362101
 30
0.0
 11
188.5539311982
 21
99.9642042539
 31
0.0
  0
LINE
  5
192
330
1F
100
AcDbEntity
  8
0
  6
Continuous
 62
     8
370
    18
100
AcDbLine
 10
197.8674912892
 20
99.9055905363
 30
0.0
 11
197.8674912892
 21
99.9249583206
 31
0.0
  0
ENDSEC
  0
SECTION
  2
OBJECTS
  0
DICTIONARY
  5
C
330
0
100
AcDbDictionary
281
     1
  3
ACAD_GROUP
350
D
  3
ACAD_LAYOUT
350
1A
  3
ACAD_MLINESTYLE
350
17
  3
ACAD_PLOTSETTINGS
350
19
  3
ACAD_PLOTSTYLENAME
350
E
  3
ACAD_SCALELIST
350
47
  0
DICTIONARY
  5
D
102
{ACAD_REACTORS
330
C
102
}
330
C
100
AcDbDictionary
281
     1
  0
DICTIONARY
  5
1A
102
{ACAD_REACTORS
330
C
102
}
330
C
100
AcDbDictionary
281
     1
  3
Layout1
350
1E
  3
Layout2
350
26
  3
Model
350
22
  0
DICTIONARY
  5
17
102
{ACAD_REACTORS
330
C
102
}
330
C
100
AcDbDictionary
281
     1
  3
Standard
350
18
  0
DICTIONARY
  5
19
102
{ACAD_REACTORS
330
C
102
}
330
C
100
AcDbDictionary
281
     1
  0
ACDBDICTIONARYWDFLT
  5
E
102
{ACAD_REACTORS
330
C
102
}
330
C
100
AcDbDictionary
281
     1
  3
Normal
350
F
100
AcDbDictionaryWithDefault
340
F
  0
DICTIONARY
  5
47
102
{ACAD_REACTORS
330
C
102
}
330
C
100
AcDbDictionary
281
     1
  3
A0
350
48
  3
A1
350
49
  3
A2
350
4A
  3
A3
350
4B
  3
A4
350
4C
  3
A5
350
4D
  3
A6
350
4E
  3
A7
350
4F
  3
A8
350
50
  3
A9
350
51
  3
B0
350
52
  3
B1
350
53
  3
B2
350
54
  3
B3
350
55
  3
B4
350
56
  3
B5
350
57
  3
B6
350
58
  3
B7
350
59
  3
B8
350
5A
  3
B9
350
5B
  3
C0
350
5C
  3
C1
350
5D
  3
C2
350
5E
  3
C3
350
5F
  3
C4
350
60
  3
C5
350
61
  3
C6
350
62
  3
C7
350
63
  3
C8
350
64
  3
C9
350
65
  3
D0
350
66
  3
D1
350
67
  3
D2
350
68
  0
LAYOUT
  5
1E
102
{ACAD_REACTORS
330
1A
102
}
330
1A
100
AcDbPlotSettings
  1

  2
none_device
  4

  6

 40
0.0
 41
0.0
 42
0.0
 43
0.0
 44
0.0
 45
0.0
 46
0.0
 47
0.0
 48
0.0
 49
0.0
140
0.0
141
0.0
142
1.0
143
1.0
 70
   688
 72
     1
 73
     0
 74
     5
  7

 75
    16
147
1.0
148
0.0
149
0.0
100
AcDbLayout
  1
Layout1
 70
     1
 71
     1
 10
0.0
 20
0.0
 11
420.0
 21
297.0
 12
0.0
 22
0.0
 32
0.0
 14
1.0000000000E+20
 24
1.0000000000E+20
 34
1.0000000000E+20
 15
-1.0000000000E+20
 25
-1.0000000000E+20
 35
-1.0000000000E+20
146
0.0
 13
0.0
 23
0.0
 33
0.0
 16
1.0
 26
0.0
 36
0.0
 17
0.0
 27
1.0
 37
0.0
 76
     0
330
1B
  0
LAYOUT
  5
26
102
{ACAD_REACTORS
330
1A
102
}
330
1A
100
AcDbPlotSettings
  1

  2
none_device
  4

  6

 40
0.0
 41
0.0
 42
0.0
 43
0.0
 44
0.0
 45
0.0
 46
0.0
 47
0.0
 48
0.0
 49
0.0
140
0.0
141
0.0
142
1.0
143
1.0
 70
   688
 72
     1
 73
     0
 74
     5
  7

 75
    16
147
1.0
148
0.0
149
0.0
100
AcDbLayout
  1
Layout2
 70
     1
 71
     2
 10
0.0
 20
0.0
 11
0.0
 21
0.0
 12
0.0
 22
0.0
 32
0.0
 14
0.0
 24
0.0
 34
0.0
 15
0.0
 25
0.0
 35
0.0
146
0.0
 13
0.0
 23
0.0
 33
0.0
 16
1.0
 26
0.0
 36
0.0
 17
0.0
 27
1.0
 37
0.0
 76
     0
330
23
  0
LAYOUT
  5
22
102
{ACAD_REACTORS
330
1A
102
}
330
1A
100
AcDbPlotSettings
  1

  2
none_device
  4
Letter_(8.50_x_11.00_Inches)
  6

 40
6.35
 41
6.35
 42
6.35000508
 43
6.35000508
 44
215.9
 45
279.4
 46
0.0
 47
0.0
 48
0.0
 49
0.0
140
0.0
141
0.0
142
1.0
143
1.0
 70
  1712
 72
     1
 73
     0
 74
     0
  7

 75
     0
147
1.0
148
0.0
149
0.0
100
AcDbLayout
  1
Model
 70
     1
 71
     0
 10
0.0
 20
0.0
 11
594.0
 21
841.0
 12
0.0
 22
0.0
 32
0.0
 14
0.0
 24
0.0
 34
0.0
 15
594.0
 25
841.0
 35
0.0
146
0.0
 13
0.0
 23
0.0
 33
0.0
 16
1.0
 26
0.0
 36
0.0
 17
0.0
 27
1.0
 37
0.0
 76
     0
330
1F
331
29
  0
MLINESTYLE
  5
18
102
{ACAD_REACTORS
330
17
102
}
330
17
100
AcDbMlineStyle
  2
Standard
 70
     0
  3

 62
   256
 51
90.0
 52
90.0
 71
     2
 49
0.5
 62
   256
  6
BYLAYER
 49
-0.5
 62
   256
  6
BYLAYER
  0
ACDBPLACEHOLDER
  5
F
102
{ACAD_REACTORS
330
E
102
}
330
E
  0
SCALE
  5
48
102
{ACAD_REACTORS
330
47
102
}
330
47
100
AcDbScale
 70
     0
300
1:1
140
1.0
141
1.0
290
     1
  0
SCALE
  5
49
102
{ACAD_REACTORS
330
47
102
}
330
47
100
AcDbScale
 70
     0
300
1:2
140
1.0
141
2.0
290
     0
  0
SCALE
  5
4A
102
{ACAD_REACTORS
330
47
102
}
330
47
100
AcDbScale
 70
     0
300
1:4
140
1.0
141
4.0
290
     0
  0
SCALE
  5
4B
102
{ACAD_REACTORS
330
47
102
}
330
47
100
AcDbScale
 70
     0
300
1:5
140
1.0
141
5.0
290
     0
  0
SCALE
  5
4C
102
{ACAD_REACTORS
330
47
102
}
330
47
100
AcDbScale
 70
     0
300
1:8
140
1.0
141
8.0
290
     0
  0
SCALE
  5
4D
102
{ACAD_REACTORS
330
47
102
}
330
47
100
AcDbScale
 70
     0
300
1:10
140
1.0
141
10.0
290
     0
  0
SCALE
  5
4E
102
{ACAD_REACTORS
330
47
102
}
330
47
100
AcDbScale
 70
     0
300
1:16
140
1.0
141
16.0
290
     0
  0
SCALE
  5
4F
102
{ACAD_REACTORS
330
47
102
}
330
47
100
AcDbScale
 70
     0
300
1:20
140
1.0
141
20.0
290
     0
  0
SCALE
  5
50
102
{ACAD_REACTORS
330
47
102
}
330
47
100
AcDbScale
 70
     0
300
1:30
140
1.0
141
30.0
290
     0
  0
SCALE
  5
51
102
{ACAD_REACTORS
330
47
102
}
330
47
100
AcDbScale
 70
     0
300
1:40
140
1.0
141
40.0
290
     0
  0
SCALE
  5
52
102
{ACAD_REACTORS
330
47
102
}
330
47
100
AcDbScale
 70
     0
300
1:50
140
1.0
141
50.0
290
     0
  0
SCALE
  5
53
102
{ACAD_REACTORS
330
47
102
}
330
47
100
AcDbScale
 70
     0
300
1:100
140
1.0
141
100.0
290
     0
  0
SCALE
  5
54
102
{ACAD_REACTORS
330
47
102
}
330
47
100
AcDbScale
 70
     0
300
2:1
140
2.0
141
1.0
290
     0
  0
SCALE
  5
55
102
{ACAD_REACTORS
330
47
102
}
330
47
100
AcDbScale
 70
     0
300
4:1
140
4.0
141
1.0
290
     0
  0
SCALE
  5
56
102
{ACAD_REACTORS
330
47
102
}
330
47
100
AcDbScale
 70
     0
300
8:1
140
8.0
141
1.0
290
     0
  0
SCALE
  5
57
102
{ACAD_REACTORS
330
47
102
}
330
47
100
AcDbScale
 70
     0
300
10:1
140
10.0
141
1.0
290
     0
  0
SCALE
  5
58
102
{ACAD_REACTORS
330
47
102
}
330
47
100
AcDbScale
 70
     0
300
100:1
140
100.0
141
1.0
290
     0
  0
SCALE
  5
59
102
{ACAD_REACTORS
330
47
102
}
330
47
100
AcDbScale
 70
     0
300
1/128" = 1'-0"
140
0.0078125
141
12.0
290
     0
  0
SCALE
  5
5A
102
{ACAD_REACTORS
330
47
102
}
330
47
100
AcDbScale
 70
     0
300
1/64" = 1'-0"
140
0.015625
141
12.0
290
     0
  0
SCALE
  5
5B
102
{ACAD_REACTORS
330
47
102
}
330
47
100
AcDbScale
 70
     0
300
1/32" = 1'-0"
140
0.03125
141
12.0
290
     0
  0
SCALE
  5
5C
102
{ACAD_REACTORS
330
47
102
}
330
47
100
AcDbScale
 70
     0
300
1/16" = 1'-0"
140
0.0625
141
12.0
290
     0
  0
SCALE
  5
5D
102
{ACAD_REACTORS
330
47
102
}
330
47
100
AcDbScale
 70
     0
300
3/32" = 1'-0"
140
0.09375
141
12.0
290
     0
  0
SCALE
  5
5E
102
{ACAD_REACTORS
330
47
102
}
330
47
100
AcDbScale
 70
     0
300
1/8" = 1'-0"
140
0.125
141
12.0
290
     0
  0
SCALE
  5
5F
102
{ACAD_REACTORS
330
47
102
}
330
47
100
AcDbScale
 70
     0
300
3/16" = 1'-0"
140
0.1875
141
12.0
290
     0
  0
SCALE
  5
60
102
{ACAD_REACTORS
330
47
102
}
330
47
100
AcDbScale
 70
     0
300
1/4" = 1'-0"
140
0.25
141
12.0
290
     0
  0
SCALE
  5
61
102
{ACAD_REACTORS
330
47
102
}
330
47
100
AcDbScale
 70
     0
300
3/8" = 1'-0"
140
0.375
141
12.0
290
     0
  0
SCALE
  5
62
102
{ACAD_REACTORS
330
47
102
}
330
47
100
AcDbScale
 70
     0
300
1/2" = 1'-0"
140
0.5
141
12.0
290
     0
  0
SCALE
  5
63
102
{ACAD_REACTORS
330
47
102
}
330
47
100
AcDbScale
 70
     0
300
3/4" = 1'-0"
140
0.75
141
12.0
290
     0
  0
SCALE
  5
64
102
{ACAD_REACTORS
330
47
102
}
330
47
100
AcDbScale
 70
     0
300
1" = 1'-0"
140
1.0
141
12.0
290
     0
  0
SCALE
  5
65
102
{ACAD_REACTORS
330
47
102
}
330
47
100
AcDbScale
 70
     0
300
1-1/2" = 1'-0"
140
1.5
141
12.0
290
     0
  0
SCALE
  5
66
102
{ACAD_REACTORS
330
47
102
}
330
47
100
AcDbScale
 70
     0
300
3" = 1'-0"
140
3.0
141
12.0
290
     0
  0
SCALE
  5
67
102
{ACAD_REACTORS
330
47
102
}
330
47
100
AcDbScale
 70
     0
300
6" = 1'-0"
140
6.0
141
12.0
290
     0
  0
SCALE
  5
68
102
{ACAD_REACTORS
330
47
102
}
330
47
100
AcDbScale
 70
     0
300
1'-0" = 1'-0"
140
12.0
141
12.0
290
     0
  0
ENDSEC
  0
EOF
