  0
SECTION
  2
HEADER
  9
$ACADVER
  1
AC1009
  9
$DWGCODEPAGE
  3
ansi_1252
  9
$INSBASE
 10
0.0
 20
0.0
 30
0.0
  9
$EXTMIN
 10
0.0
 20
0.0
 30
0.0
  9
$EXTMAX
 10
841.0
 20
1189.0
 30
0.0
  9
$LIMMIN
 10
0.0
 20
0.0
  9
$LIMMAX
 10
841.0
 20
1189.0
  9
$ORTHOMODE
 70
     0
  9
$REGENMODE
 70
     1
  9
$FILLMODE
 70
     1
  9
$QTEXTMODE
 70
     0
  9
$MIRRTEXT
 70
     1
  9
$DRAGMODE
 70
     2
  9
$LTSCALE
 40
1.0
  9
$OSMODE
 70
    37
  9
$ATTMODE
 70
     1
  9
$TEXTSIZE
 40
10.0
  9
$TRACEWID
 40
1.0
  9
$TEXTSTYLE
  7
STANDARD
  9
$CLAYER
  8
0
  9
$CELTYPE
  6
BYLAYER
  9
$CECOLOR
 62
   256
  9
$DIMSCALE
 40
1.0
  9
$DIMASZ
 40
2.5
  9
$DIMEXO
 40
0.0
  9
$DIMDLI
 40
3.75
  9
$DIMRND
 40
0.0
  9
$DIMDLE
 40
0.0
  9
$DIMEXE
 40
1.0
  9
$DIMTP
 40
0.0
  9
$DIMTM
 40
0.0
  9
$DIMTXT
 40
3.5
  9
$DIMCEN
 40
2.5
  9
$DIMTSZ
 40
0.0
  9
$DIMTOL
 70
     0
  9
$DIMLIM
 70
     0
  9
$DIMTIH
 70
     1
  9
$DIMTOH
 70
     1
  9
$DIMSE1
 70
     0
  9
$DIMSE2
 70
     0
  9
$DIMTAD
 70
     1
  9
$DIMZIN
 70
     0
  9
$DIMBLK
  1

  9
$DIMASO
 70
     1
  9
$DIMSHO
 70
     1
  9
$DIMPOST
  1

  9
$DIMAPOST
  1

  9
$DIMALT
 70
     0
  9
$DIMALTD
 70
     3
  9
$DIMALTF
 40
0.0393700787
  9
$DIMLFAC
 40
2.0
  9
$DIMTOFL
 70
     1
  9
$DIMTVP
 40
0.0
  9
$DIMTIX
 70
     0
  9
$DIMSOXD
 70
     0
  9
$DIMSAH
 70
     0
  9
$DIMBLK1
  1

  9
$DIMBLK2
  1

  9
$DIMSTYLE
  2
ISO-25
  9
$DIMCLRD
 70
     0
  9
$DIMCLRE
 70
     0
  9
$DIMCLRT
 70
     0
  9
$DIMTFAC
 40
1.0
  9
$DIMGAP
 40
1.5
  9
$LUNITS
 70
     2
  9
$LUPREC
 70
     2
  9
$SKETCHINC
 40
1.0
  9
$FILLETRAD
 40
10.0
  9
$AUNITS
 70
     0
  9
$AUPREC
 70
     2
  9
$MENU
  1
.
  9
$ELEVATION
 40
0.0
  9
$PELEVATION
 40
0.0
  9
$THICKNESS
 40
0.0
  9
$LIMCHECK
 70
     0
  9
$CHAMFERA
 40
0.0
  9
$CHAMFERB
 40
0.0
  9
$SKPOLY
 70
     0
  9
$TDCREATE
 40
2458712.395864248
  9
$TDUPDATE
 40
2458712.39586478
  9
$TDINDWG
 40
0.0000000116
  9
$TDUSRTIMER
 40
0.0000000116
  9
$USRTIMER
 70
     1
  9
$ANGBASE
 50
0.0
  9
$ANGDIR
 70
     0
  9
$PDMODE
 70
     0
  9
$PDSIZE
 40
-1.0
  9
$PLINEWID
 40
0.0
  9
$COORDS
 70
     1
  9
$SPLFRAME
 70
     0
  9
$SPLINETYPE
 70
     6
  9
$SPLINESEGS
 70
     8
  9
$ATTDIA
 70
     0
  9
$ATTREQ
 70
     1
  9
$HANDLING
 70
     1
  9
$HANDSEED
  5
46B
  9
$SURFTAB1
 70
     6
  9
$SURFTAB2
 70
     6
  9
$SURFTYPE
 70
     6
  9
$SURFU
 70
     6
  9
$SURFV
 70
     6
  9
$UCSNAME
  2

  9
$UCSORG
 10
0.0
 20
0.0
 30
0.0
  9
$UCSXDIR
 10
1.0
 20
0.0
 30
0.0
  9
$UCSYDIR
 10
0.0
 20
1.0
 30
0.0
  9
$PUCSNAME
  2

  9
$PUCSORG
 10
0.0
 20
0.0
 30
0.0
  9
$PUCSXDIR
 10
1.0
 20
0.0
 30
0.0
  9
$PUCSYDIR
 10
0.0
 20
1.0
 30
0.0
  9
$USERI1
 70
     0
  9
$USERI2
 70
     0
  9
$USERI3
 70
     0
  9
$USERI4
 70
     0
  9
$USERI5
 70
     0
  9
$USERR1
 40
0.0
  9
$USERR2
 40
0.0
  9
$USERR3
 40
0.0
  9
$USERR4
 40
0.0
  9
$USERR5
 40
0.0
  9
$WORLDVIEW
 70
     1
  9
$SHADEDGE
 70
     3
  9
$SHADEDIF
 70
    70
  9
$TILEMODE
 70
     1
  9
$MAXACTVP
 70
    64
  9
$PLIMCHECK
 70
     0
  9
$PEXTMIN
 10
1.0000000000E+20
 20
1.0000000000E+20
 30
1.0000000000E+20
  9
$PEXTMAX
 10
-1.0000000000E+20
 20
-1.0000000000E+20
 30
-1.0000000000E+20
  9
$PLIMMIN
 10
0.0
 20
0.0
  9
$PLIMMAX
 10
420.0
 20
297.0
  9
$UNITMODE
 70
     0
  9
$VISRETAIN
 70
     1
  9
$PLINEGEN
 70
     0
  9
$PSLTSCALE
 70
     1
  0
ENDSEC
  0
SECTION
  2
TABLES
  0
TABLE
  2
VPORT
 70
     1
  0
VPORT
  2
*ACTIVE
 70
     0
 10
0.0
 20
0.0
 11
1.0
 21
1.0
 12
420.5
 22
594.5
 13
0.0
 23
0.0
 14
10.0
 24
10.0
 15
10.0
 25
10.0
 16
0.0
 26
0.0
 36
1.0
 17
0.0
 27
0.0
 37
0.0
 40
1189.0
 41
0.7073170732
 42
50.0
 43
0.0
 44
0.0
 50
0.0
 51
0.0
 71
     0
 72
  2000
 73
     1
 74
     3
 75
     0
 76
     0
 77
     0
 78
     0
  0
ENDTAB
  0
TABLE
  2
LTYPE
 70
     6
  0
LTYPE
  2
CONTINUOUS
 70
     0
  3
Solid line
 72
    65
 73
     0
 40
0.0
  0
LTYPE
  2
HIDDEN
 70
     0
  3
Hidden __ __ __ __ __ __ __ __ __ __ __ __ __ __
 72
    65
 73
     2
 40
1.905
 49
1.27
 49
-0.635
  0
LTYPE
  2
PHANTOM
 70
     0
  3
Phantom ______  __  __  ______  __  __  ______
 72
    65
 73
     6
 40
12.7
 49
6.35
 49
-1.27
 49
1.27
 49
-1.27
 49
1.27
 49
-1.27
  0
LTYPE
  2
CENTER
 70
     0
  3
Center ____ _ ____ _ ____ _ ____ _ ____ _ ____
 72
    65
 73
     4
 40
10.16
 49
6.35
 49
-1.27
 49
1.27
 49
-1.27
  0
LTYPE
  2
CENTERX2
 70
     0
  3
Center (2x) ________  __  ________  __  _____
 72
    65
 73
     4
 40
20.32
 49
12.7
 49
-2.54
 49
2.54
 49
-2.54
  0
LTYPE
  2
DOT2
 70
     0
  3
Dot (.5x) ........................................
 72
    65
 73
     2
 40
0.635
 49
0.0
 49
-0.635
  0
ENDTAB
  0
TABLE
  2
LAYER
 70
     1
  0
LAYER
  2
0
 70
     0
 62
     7
  6
CONTINUOUS
  0
ENDTAB
  0
TABLE
  2
STYLE
 70
     1
  0
STYLE
  2
STANDARD
 70
     0
 40
0.0
 41
1.0
 50
0.0
 71
     0
 42
10.0
  3
txt
  4

  0
ENDTAB
  0
TABLE
  2
VIEW
 70
     0
  0
ENDTAB
  0
TABLE
  2
UCS
 70
     0
  0
ENDTAB
  0
TABLE
  2
APPID
 70
     1
  0
APPID
  2
ACAD
 70
     0
  0
ENDTAB
  0
TABLE
  2
DIMSTYLE
 70
     2
  0
DIMSTYLE
  2
ISO-25
 70
     0
  3

  4

  5

  6

  7

 40
1.0
 41
2.5
 42
0.625
 43
3.75
 44
1.25
 45
0.0
 46
0.0
 47
0.0
 48
0.0
140
2.5
141
2.5
142
0.0
143
0.0393700787
144
1.0
145
0.0
146
1.0
147
0.625
 71
     0
 72
     0
 73
     0
 74
     0
 75
     0
 76
     0
 77
     1
 78
     8
170
     0
171
     3
172
     1
173
     0
174
     0
175
     0
176
     0
177
     0
178
     0
  0
DIMSTYLE
  2
SLDDIMSTYLE0
 70
     0
  3

  4

  5

  6

  7

 40
1.0
 41
2.5
 42
0.0625
 43
0.38
 44
0.0
 45
0.000000001
 46
0.0
 47
0.0
 48
0.0
140
6.0
141
0.09
142
0.0
143
25.4
144
2.0
145
0.0
146
1.0
147
1.5
 71
     0
 72
     0
 73
     0
 74
     0
 75
     0
 76
     0
 77
     1
 78
    12
170
     0
171
     2
172
     0
173
     1
174
     0
175
     0
176
     0
177
     0
178
     0
  0
ENDTAB
  0
ENDSEC
  0
SECTION
  2
BLOCKS
  0
BLOCK
  8
0
  2
$MODEL_SPACE
 70
     0
 10
0.0
 20
0.0
 30
0.0
  3
$MODEL_SPACE
  1

  0
ENDBLK
  5
21
  8
0
  0
BLOCK
 67
     1
  8
0
  2
$PAPER_SPACE
 70
     0
 10
0.0
 20
0.0
 30
0.0
  3
$PAPER_SPACE
  1

  0
ENDBLK
  5
1D
 67
     1
  8
0
  0
BLOCK
  8
0
  2
_D
 70
     0
 10
0.0
 20
0.0
 30
0.0
  3
_D
  1

  0
SOLID
  5
7A
  8
0
  6
CONTINUOUS
 62
     7
 10
42.7614395004
 20
152.0299240879
 30
0.0
 11
42.4614395004
 21
149.5299240879
 31
0.0
 12
43.0614395004
 22
149.5299240879
 32
0.0
 13
43.0614395004
 23
149.5299240879
 33
0.0
  0
SOLID
  5
7B
  8
0
  6
CONTINUOUS
 62
     7
 10
42.7614395004
 20
52.0299240879
 30
0.0
 11
43.0614395004
 21
54.5299240879
 31
0.0
 12
42.4614395004
 22
54.5299240879
 32
0.0
 13
42.4614395004
 23
54.5299240879
 33
0.0
  0
LINE
  5
7C
  8
0
  6
CONTINUOUS
 62
     7
 10
56.6850079902
 20
152.0299240879
 30
0.0
 11
41.7614395004
 21
152.0299240879
 31
0.0
  0
LINE
  5
7D
  8
0
  6
CONTINUOUS
 62
     7
 10
56.6850079902
 20
52.0299240879
 30
0.0
 11
41.7614395004
 21
52.0299240879
 31
0.0
  0
LINE
  5
7E
  8
0
  6
CONTINUOUS
 62
     7
 10
42.7614395004
 20
152.0299240879
 30
0.0
 11
42.7614395004
 21
52.0299240879
 31
0.0
  0
TEXT
  5
7F
  8
0
  6
CONTINUOUS
 62
     7
 10
40.6418793617
 20
94.3680541463
 30
0.0
 40
6.0
  1
100
 50
90.0
 41
0.7
 11
42.7614397332
 21
94.3680541463
 31
0.0
 73
     1
  0
TEXT
  5
80
  8
0
  6
CONTINUOUS
 62
     7
 10
40.6418793617
 20
105.7430548466
 30
0.0
 40
6.0
  1
mm
 50
90.0
 41
0.7
 11
42.7614397332
 21
105.7430548466
 31
0.0
 73
     1
  0
ENDBLK
  5
79
  8
0
  0
BLOCK
  8
0
  2
_D_1
 70
     0
 10
0.0
 20
0.0
 30
0.0
  3
_D_1
  1

  0
SOLID
  5
85
  8
0
  6
CONTINUOUS
 62
     7
 10
56.6850079902
 20
38.4602342313
 30
0.0
 11
59.1850079902
 21
38.1602342313
 31
0.0
 12
59.1850079902
 22
38.7602342313
 32
0.0
 13
59.1850079902
 23
38.7602342313
 33
0.0
  0
SOLID
  5
86
  8
0
  6
CONTINUOUS
 62
     7
 10
156.6850079902
 20
38.4602342313
 30
0.0
 11
154.1850079902
 21
38.7602342313
 31
0.0
 12
154.1850079902
 22
38.1602342313
 32
0.0
 13
154.1850079902
 23
38.1602342313
 33
0.0
  0
LINE
  5
87
  8
0
  6
CONTINUOUS
 62
     7
 10
56.6850079902
 20
52.0299240879
 30
0.0
 11
56.6850079902
 21
37.4602342313
 31
0.0
  0
LINE
  5
88
  8
0
  6
CONTINUOUS
 62
     7
 10
156.6850079902
 20
52.0299240879
 30
0.0
 11
156.6850079902
 21
37.4602342313
 31
0.0
  0
LINE
  5
89
  8
0
  6
CONTINUOUS
 62
     7
 10
56.6850079902
 20
38.4602342313
 30
0.0
 11
156.6850079902
 21
38.4602342313
 31
0.0
  0
TEXT
  5
8A
  8
0
  6
CONTINUOUS
 62
     7
 10
93.9626484861
 20
40.57979437
 30
0.0
 40
6.0
  1
100
 41
0.7
 11
93.9626484861
 21
38.4602339984
 31
0.0
 73
     1
  0
TEXT
  5
8B
  8
0
  6
CONTINUOUS
 62
     7
 10
105.3376491864
 20
40.57979437
 30
0.0
 40
6.0
  1
mm
 41
0.7
 11
105.3376491864
 21
38.4602339984
 31
0.0
 73
     1
  0
ENDBLK
  5
84
  8
0
  0
ENDSEC
  0
SECTION
  2
ENTITIES
  0
LINE
  5
73
  8
0
  6
CONTINUOUS
 62
     7
 10
56.6850079902
 20
152.0299240879
 30
0.0
 11
56.6850079902
 21
52.0299240879
 31
0.0
  0
LINE
  5
74
  8
0
  6
CONTINUOUS
 62
     7
 10
56.6850079902
 20
52.0299240879
 30
0.0
 11
156.6850079902
 21
52.0299240879
 31
0.0
  0
DIMENSION
  5
75
  8
0
  6
CONTINUOUS
 62
     7
  2
_D
 10
42.7614395004
 20
52.0299240879
 30
0.0
 11
42.7614395004
 21
105.4472211621
 31
0.0
 70
   160
  1
<>mm
  3
SLDDIMSTYLE0
 13
56.6850079902
 23
152.0299240879
 33
0.0
 14
56.6850079902
 24
52.0299240879
 34
0.0
 50
90.0
  0
DIMENSION
  5
81
  8
0
  6
CONTINUOUS
 62
     7
  2
_D_1
 10
156.6850079902
 20
38.4602342313
 30
0.0
 11
105.0418155019
 21
38.4602342313
 31
0.0
 70
   160
  1
<>mm
  3
SLDDIMSTYLE0
 13
56.6850079902
 23
52.0299240879
 33
0.0
 14
156.6850079902
 24
52.0299240879
 34
0.0
  0
TEXT
  5
8C
  8
0
  6
CONTINUOUS
 62
     7
 10
658.0168509251
 20
39.0761681714
 30
0.0
 40
10.0
  1
KLUDI GmbH & Co KG
 41
0.6222222222
 11
658.0168509251
 21
35.5435675522
 31
0.0
 73
     1
  0
TEXT
  5
8D
  8
0
  6
CONTINUOUS
 62
     7
 10
362.6071641649
 20
39.0761681714
 30
0.0
 40
10.0
  1
20 143 05 20
 41
0.6125
 11
362.6071641649
 21
35.5435675522
 31
0.0
 73
     1
  0
LINE
  5
8E
  8
0
  6
CONTINUOUS
 62
     7
 10
194.9431676703
 20
431.0561531285
 30
0.0
 11
194.9431676703
 21
438.2561530049
 31
0.0
  0
LINE
  5
8F
  8
0
  6
CONTINUOUS
 62
     7
 10
137.9431639152
 20
438.2561530049
 30
0.0
 11
137.9431639152
 21
431.0561531285
 31
0.0
  0
ARC
  5
90
  8
0
  6
CONTINUOUS
 62
     7
 10
138.7431689937
 20
438.2561531879
 30
0.0
 40
0.8000000000000114
 50
90.0
 51
180.0
  0
ARC
  5
91
  8
0
  6
CONTINUOUS
 62
     7
 10
194.1431689937
 20
438.2561531879
 30
0.0
 40
0.8000000000000114
 50
0.0
 51
90.0
  0
ARC
  5
92
  8
0
  6
CONTINUOUS
 62
     7
 10
147.4431689937
 20
439.5561531879
 30
0.0
 40
0.5
 50
270.0
 51
0.0
  0
ARC
  5
93
  8
0
  6
CONTINUOUS
 62
     7
 10
185.4431689937
 20
439.5561531879
 30
0.0
 40
0.5
 50
180.0
 51
270.0
  0
ARC
  5
94
  8
0
  6
CONTINUOUS
 62
     7
 10
148.5431689937
 20
445.6561531879
 30
0.0
 40
0.6000000000000227
 50
90.0
 51
180.0
  0
ARC
  5
95
  8
0
  6
CONTINUOUS
 62
     7
 10
184.3431689937
 20
445.6561531879
 30
0.0
 40
0.6000000000000227
 50
0.0
 51
90.0
  0
LINE
  5
96
  8
0
  6
CONTINUOUS
 62
     7
 10
184.9431697564
 20
439.5561531248
 30
0.0
 11
184.9431697564
 21
445.6561534727
 31
0.0
  0
LINE
  5
97
  8
0
  6
CONTINUOUS
 62
     7
 10
147.9431692796
 20
445.6561534727
 30
0.0
 11
147.9431692796
 21
439.5561531248
 31
0.0
  0
ARC
  5
98
  8
0
  6
CONTINUOUS
 62
     7
 10
157.9431689937
 20
446.7561531879
 30
0.0
 40
0.5
 50
270.0
 51
0.0
  0
ARC
  5
99
  8
0
  6
CONTINUOUS
 62
     7
 10
174.9431689937
 20
446.7561531879
 30
0.0
 40
0.5
 50
180.0
 51
270.0
  0
ARC
  5
9A
  8
0
  6
CONTINUOUS
 62
     7
 10
158.0431689937
 20
476.9561531879
 30
0.0
 40
0.4000000000000341
 50
0.0
 51
90.0
  0
ARC
  5
9B
  8
0
  6
CONTINUOUS
 62
     7
 10
174.8431689937
 20
476.9561531879
 30
0.0
 40
0.4000000000000341
 50
90.0
 51
180.0
  0
LINE
  5
9C
  8
0
  6
CONTINUOUS
 62
     7
 10
174.4431708293
 20
466.6561541209
 30
0.0
 11
174.4431708293
 21
476.9561533878
 31
0.0
  0
LINE
  5
9D
  8
0
  6
CONTINUOUS
 62
     7
 10
158.4431682067
 20
476.9561533878
 30
0.0
 11
158.4431682067
 21
466.6561541209
 31
0.0
  0
ARC
  5
9E
  8
0
  6
CONTINUOUS
 62
     7
 10
174.1431689937
 20
466.6561531879
 30
0.0
 40
0.3000000000000114
 50
270.0
 51
0.0
  0
ARC
  5
9F
  8
0
  6
CONTINUOUS
 62
     7
 10
158.7431689937
 20
466.6561531879
 30
0.0
 40
0.3000000000000114
 50
180.0
 51
270.0
  0
LINE
  5
A0
  8
0
  6
CONTINUOUS
 62
     7
 10
174.4431708293
 20
446.7561534668
 30
0.0
 11
174.4431708293
 21
465.7561537872
 31
0.0
  0
LINE
  5
A1
  8
0
  6
CONTINUOUS
 62
     7
 10
158.4431682067
 20
465.7561537872
 30
0.0
 11
158.4431682067
 21
446.7561534668
 31
0.0
  0
ARC
  5
A2
  8
0
  6
CONTINUOUS
 62
     7
 10
158.7431689937
 20
465.7561531879
 30
0.0
 40
0.2999999999999829
 50
90.0
 51
180.0
  0
ARC
  5
A3
  8
0
  6
CONTINUOUS
 62
     7
 10
174.1431689937
 20
465.7561531879
 30
0.0
 40
0.2999999999999829
 50
0.0
 51
90.0
  0
ARC
  5
A4
  8
0
  6
CONTINUOUS
 62
     7
 10
160.3431689937
 20
466.3561531879
 30
0.0
 40
0.3000000000000682
 50
270.0
 51
0.0
  0
ARC
  5
A5
  8
0
  6
CONTINUOUS
 62
     7
 10
172.5431689937
 20
466.3561531879
 30
0.0
 40
0.3000000000000682
 50
180.0
 51
270.0
  0
ARC
  5
A6
  8
0
  6
CONTINUOUS
 62
     7
 10
338.6670832771
 20
438.2561531879
 30
0.0
 40
0.8000000000000682
 50
90.0
 51
180.0
  0
ARC
  5
A7
  8
0
  6
CONTINUOUS
 62
     7
 10
394.0670832771
 20
438.2561531879
 30
0.0
 40
0.8000000000000114
 50
0.0
 51
90.0
  0
LINE
  5
A8
  8
0
  6
CONTINUOUS
 62
     7
 10
394.8670778709
 20
431.0561531285
 30
0.0
 11
394.8670778709
 21
438.2561530049
 31
0.0
  0
LINE
  5
A9
  8
0
  6
CONTINUOUS
 62
     7
 10
337.8670815663
 20
438.2561530049
 30
0.0
 11
337.8670815663
 21
431.0561531285
 31
0.0
  0
ARC
  5
AA
  8
0
  6
CONTINUOUS
 62
     7
 10
347.3670832771
 20
439.5561531879
 30
0.0
 40
0.5
 50
270.0
 51
0.0
  0
ARC
  5
AB
  8
0
  6
CONTINUOUS
 62
     7
 10
385.3670832771
 20
439.5561531879
 30
0.0
 40
0.5
 50
180.0
 51
270.0
  0
ARC
  5
AC
  8
0
  6
CONTINUOUS
 62
     7
 10
348.4670832771
 20
445.6561531879
 30
0.0
 40
0.6000000000000227
 50
90.0
 51
180.0
  0
ARC
  5
AD
  8
0
  6
CONTINUOUS
 62
     7
 10
384.2670832771
 20
445.6561531879
 30
0.0
 40
0.6000000000000227
 50
0.0
 51
90.0
  0
LINE
  5
AE
  8
0
  6
CONTINUOUS
 62
     7
 10
384.867079957
 20
439.5561531248
 30
0.0
 11
384.867079957
 21
445.6561534727
 31
0.0
  0
LINE
  5
AF
  8
0
  6
CONTINUOUS
 62
     7
 10
347.8670869308
 20
445.6561534727
 30
0.0
 11
347.8670869308
 21
439.5561531248
 31
0.0
  0
ARC
  5
B0
  8
0
  6
CONTINUOUS
 62
     7
 10
357.8670832771
 20
446.7561531879
 30
0.0
 40
0.5
 50
270.0
 51
0.0
  0
ARC
  5
B1
  8
0
  6
CONTINUOUS
 62
     7
 10
374.8670832771
 20
446.7561531879
 30
0.0
 40
0.5
 50
180.0
 51
270.0
  0
ARC
  5
B2
  8
0
  6
CONTINUOUS
 62
     7
 10
357.9670832771
 20
476.9561531879
 30
0.0
 40
0.4000000000000341
 50
0.0
 51
90.0
  0
ARC
  5
B3
  8
0
  6
CONTINUOUS
 62
     7
 10
374.7670832771
 20
476.9561531879
 30
0.0
 40
0.4000000000000341
 50
90.0
 51
180.0
  0
LINE
  5
B4
  8
0
  6
CONTINUOUS
 62
     7
 10
374.3670810299
 20
446.7561534668
 30
0.0
 11
374.3670810299
 21
465.7561537872
 31
0.0
  0
LINE
  5
B5
  8
0
  6
CONTINUOUS
 62
     7
 10
358.3670858579
 20
465.7561537872
 30
0.0
 11
358.3670858579
 21
446.7561534668
 31
0.0
  0
ARC
  5
B6
  8
0
  6
CONTINUOUS
 62
     7
 10
358.6670832771
 20
465.7561531879
 30
0.0
 40
0.3000000000000114
 50
90.0
 51
180.0
  0
ARC
  5
B7
  8
0
  6
CONTINUOUS
 62
     7
 10
374.0670832771
 20
465.7561531879
 30
0.0
 40
0.3000000000000114
 50
0.0
 51
90.0
  0
ARC
  5
B8
  8
0
  6
CONTINUOUS
 62
     7
 10
374.0670832771
 20
466.6561531879
 30
0.0
 40
0.3000000000000114
 50
270.0
 51
0.0
  0
ARC
  5
B9
  8
0
  6
CONTINUOUS
 62
     7
 10
358.6670832771
 20
466.6561531879
 30
0.0
 40
0.3000000000000114
 50
180.0
 51
270.0
  0
LINE
  5
BA
  8
0
  6
CONTINUOUS
 62
     7
 10
374.3670810299
 20
466.6561541209
 30
0.0
 11
374.3670810299
 21
476.9561533878
 31
0.0
  0
LINE
  5
BB
  8
0
  6
CONTINUOUS
 62
     7
 10
358.3670858579
 20
476.9561533878
 30
0.0
 11
358.3670858579
 21
466.6561541209
 31
0.0
  0
ARC
  5
BC
  8
0
  6
CONTINUOUS
 62
     7
 10
360.2670832771
 20
466.3561531879
 30
0.0
 40
0.3000000000000682
 50
270.0
 51
0.0
  0
ARC
  5
BD
  8
0
  6
CONTINUOUS
 62
     7
 10
372.4670832771
 20
466.3561531879
 30
0.0
 40
0.3000000000000682
 50
180.0
 51
270.0
  0
ARC
  5
BE
  8
0
  6
CONTINUOUS
 62
     7
 10
265.5330702459
 20
636.9269722736
 30
0.0
 40
22.72346652142886
 50
248.9846373612
 51
272.3003200287
  0
ARC
  5
BF
  8
0
  6
CONTINUOUS
 62
     7
 10
267.7544626484
 20
634.7241543724
 30
0.0
 40
20.54410351225635
 50
266.3459060278
 51
291.6530329296
  0
LINE
  5
C0
  8
0
  6
CONTINUOUS
 62
     7
 10
276.4451302873
 20
616.9442740331
 30
0.0
 11
276.4451302873
 21
650.0313487897
 31
0.0
  0
LINE
  5
C1
  8
0
  6
CONTINUOUS
 62
     7
 10
256.4451307343
 20
650.0313487897
 30
0.0
 11
256.4451307343
 21
616.9442740331
 31
0.0
  0
ARC
  5
C2
  8
0
  6
CONTINUOUS
 62
     7
 10
266.4451305108
 20
712.228174597
 30
0.0
 40
10.0
 50
0.0
 51
180.0
  0
LINE
  5
C3
  8
0
  6
CONTINUOUS
 62
     7
 10
256.4451307343
 20
712.2281697641
 30
0.0
 11
256.4451307343
 21
650.0313487897
 31
0.0
  0
LINE
  5
C4
  8
0
  6
CONTINUOUS
 62
     7
 10
276.4451302873
 20
650.0313487897
 30
0.0
 11
276.4451302873
 21
712.2281697641
 31
0.0
  0
LINE
  5
C5
  8
0
  6
CONTINUOUS
 62
     7
 10
294.9451305257
 20
431.0561531285
 30
0.0
 11
294.9451305257
 21
438.2561530049
 31
0.0
  0
LINE
  5
C6
  8
0
  6
CONTINUOUS
 62
     7
 10
237.9451304959
 20
438.2561530049
 30
0.0
 11
237.9451304959
 21
431.0561531285
 31
0.0
  0
ARC
  5
C7
  8
0
  6
CONTINUOUS
 62
     7
 10
294.1451305108
 20
438.2561531879
 30
0.0
 40
0.8000000000000114
 50
0.0
 51
90.0
  0
ARC
  5
C8
  8
0
  6
CONTINUOUS
 62
     7
 10
238.7451305108
 20
438.2561531879
 30
0.0
 40
0.8000000000000114
 50
90.0
 51
180.0
  0
ARC
  5
C9
  8
0
  6
CONTINUOUS
 62
     7
 10
285.5451305108
 20
439.6561531879
 30
0.0
 40
0.5999999999999659
 50
180.0
 51
270.0
  0
ARC
  5
CA
  8
0
  6
CONTINUOUS
 62
     7
 10
247.3451305108
 20
439.6561531879
 30
0.0
 40
0.5999999999999943
 50
270.0
 51
0.0
  0
LINE
  5
CB
  8
0
  6
CONTINUOUS
 62
     7
 10
284.9451307492
 20
439.6561534206
 30
0.0
 11
284.9451307492
 21
445.856153133
 31
0.0
  0
LINE
  5
CC
  8
0
  6
CONTINUOUS
 62
     7
 10
247.9451302724
 20
445.856153133
 30
0.0
 11
247.9451302724
 21
439.6561534206
 31
0.0
  0
ARC
  5
CD
  8
0
  6
CONTINUOUS
 62
     7
 10
284.3451305108
 20
445.8561531879
 30
0.0
 40
0.6000000000000796
 50
0.0
 51
90.0
  0
ARC
  5
CE
  8
0
  6
CONTINUOUS
 62
     7
 10
248.5451305108
 20
445.8561531879
 30
0.0
 40
0.6000000000000796
 50
90.0
 51
180.0
  0
ARC
  5
CF
  8
0
  6
CONTINUOUS
 62
     7
 10
277.0451305108
 20
447.0561531879
 30
0.0
 40
0.6000000000000227
 50
180.0
 51
270.0
  0
ARC
  5
D0
  8
0
  6
CONTINUOUS
 62
     7
 10
255.8451305108
 20
447.0561531879
 30
0.0
 40
0.5999999999999659
 50
270.0
 51
0.0
  0
ARC
  5
D1
  8
0
  6
CONTINUOUS
 62
     7
 10
256.7451305108
 20
466.8561531879
 30
0.0
 40
0.3000000000000114
 50
180.0
 51
270.0
  0
ARC
  5
D2
  8
0
  6
CONTINUOUS
 62
     7
 10
276.1451305108
 20
466.8561531879
 30
0.0
 40
0.3000000000000114
 50
270.0
 51
0.0
  0
LINE
  5
D3
  8
0
  6
CONTINUOUS
 62
     7
 10
276.4451302873
 20
466.8561537812
 30
0.0
 11
276.4451302873
 21
616.9442740331
 31
0.0
  0
LINE
  5
D4
  8
0
  6
CONTINUOUS
 62
     7
 10
256.4451307343
 20
616.9442740331
 30
0.0
 11
256.4451307343
 21
466.8561537812
 31
0.0
  0
LINE
  5
D5
  8
0
  6
CONTINUOUS
 62
     7
 10
276.4451302873
 20
447.0561529572
 30
0.0
 11
276.4451302873
 21
465.7561537872
 31
0.0
  0
LINE
  5
D6
  8
0
  6
CONTINUOUS
 62
     7
 10
256.4451307343
 20
465.7561537872
 30
0.0
 11
256.4451307343
 21
447.0561529572
 31
0.0
  0
ARC
  5
D7
  8
0
  6
CONTINUOUS
 62
     7
 10
276.1451305108
 20
465.7561531879
 30
0.0
 40
0.3000000000000114
 50
0.0
 51
90.0
  0
ARC
  5
D8
  8
0
  6
CONTINUOUS
 62
     7
 10
256.7451305108
 20
465.7561531879
 30
0.0
 40
0.3000000000000114
 50
90.0
 51
180.0
  0
LINE
  5
D9
  8
0
  6
CONTINUOUS
 62
     7
 10
256.7451302247
 20
466.5561524282
 30
0.0
 11
256.7451302247
 21
466.0561514149
 31
0.0
  0
LINE
  5
DA
  8
0
  6
CONTINUOUS
 62
     7
 10
276.1451307969
 20
466.0561514149
 30
0.0
 11
276.1451307969
 21
466.5561524282
 31
0.0
  0
LINE
  5
DB
  8
0
  6
CONTINUOUS
 62
     7
 10
170.3134704666
 20
477.3561527083
 30
0.0
 11
162.9135612683
 21
477.3561527083
 31
0.0
  0
LINE
  5
DC
  8
0
  6
CONTINUOUS
 62
     7
 10
162.9135612683
 20
486.3561523209
 30
0.0
 11
170.3134704666
 21
486.3561523209
 31
0.0
  0
ARC
  5
DD
  8
0
  6
CONTINUOUS
 62
     7
 10
170.3134687312
 20
485.556159395
 30
0.0
 40
0.7999929258467738
 50
359.9995906775
 51
89.9998757105
  0
ARC
  5
DE
  8
0
  6
CONTINUOUS
 62
     7
 10
170.3134671812
 20
478.1561471842
 30
0.0
 40
0.7999944758943939
 50
270.0002353047
 51
0.0002983073
  0
LINE
  5
DF
  8
0
  6
CONTINUOUS
 62
     7
 10
171.1134616571
 20
485.5561536799
 30
0.0
 11
171.1134616571
 21
478.1561513493
 31
0.0
  0
LINE
  5
E0
  8
0
  6
CONTINUOUS
 62
     7
 10
162.8004987078
 20
486.3561523209
 30
0.0
 11
162.9135612683
 21
486.3561523209
 31
0.0
  0
LINE
  5
E1
  8
0
  6
CONTINUOUS
 62
     7
 10
162.9135612683
 20
477.3561527083
 30
0.0
 11
162.8004987078
 21
477.3561527083
 31
0.0
  0
LINE
  5
E2
  8
0
  6
CONTINUOUS
 62
     7
 10
194.9431676703
 20
431.0561531285
 30
0.0
 11
137.9431639152
 21
431.0561531285
 31
0.0
  0
LINE
  5
E3
  8
0
  6
CONTINUOUS
 62
     7
 10
166.443169518
 20
439.0561530428
 30
0.0
 11
194.1431690292
 21
439.0561530428
 31
0.0
  0
LINE
  5
E4
  8
0
  6
CONTINUOUS
 62
     7
 10
138.7431625562
 20
439.0561530428
 30
0.0
 11
166.443169518
 21
439.0561530428
 31
0.0
  0
LINE
  5
E5
  8
0
  6
CONTINUOUS
 62
     7
 10
166.443169518
 20
446.2561533848
 30
0.0
 11
184.3431670504
 21
446.2561533848
 31
0.0
  0
LINE
  5
E6
  8
0
  6
CONTINUOUS
 62
     7
 10
148.5431719856
 20
446.2561533848
 30
0.0
 11
166.443169518
 21
446.2561533848
 31
0.0
  0
LINE
  5
E7
  8
0
  6
CONTINUOUS
 62
     7
 10
154.9617428618
 20
486.3561523209
 30
0.0
 11
162.8004987078
 21
486.3561523209
 31
0.0
  0
LINE
  5
E8
  8
0
  6
CONTINUOUS
 62
     7
 10
162.8004987078
 20
477.3561527083
 30
0.0
 11
154.9617428618
 21
477.3561527083
 31
0.0
  0
LINE
  5
E9
  8
0
  6
CONTINUOUS
 62
     7
 10
170.3134704666
 20
486.3561523209
 30
0.0
 11
177.9614541965
 21
486.3561523209
 31
0.0
  0
LINE
  5
EA
  8
0
  6
CONTINUOUS
 62
     7
 10
177.9614541965
 20
477.3561527083
 30
0.0
 11
170.3134704666
 21
477.3561527083
 31
0.0
  0
LINE
  5
EB
  8
0
  6
CONTINUOUS
 62
     7
 10
174.143165751
 20
466.3561527679
 30
0.0
 11
158.7431658344
 21
466.3561527679
 31
0.0
  0
LINE
  5
EC
  8
0
  6
CONTINUOUS
 62
     7
 10
166.443169518
 20
466.0561514149
 30
0.0
 11
174.143165751
 21
466.0561514149
 31
0.0
  0
LINE
  5
ED
  8
0
  6
CONTINUOUS
 62
     7
 10
158.7431658344
 20
466.0561514149
 30
0.0
 11
166.443169518
 21
466.0561514149
 31
0.0
  0
LINE
  5
EE
  8
0
  6
CONTINUOUS
 62
     7
 10
154.9617428618
 20
477.3561527083
 30
0.0
 11
132.2620217042
 21
477.3561527083
 31
0.0
  0
LINE
  5
EF
  8
0
  6
CONTINUOUS
 62
     7
 10
132.2620217042
 20
486.3561523209
 30
0.0
 11
154.9617428618
 21
486.3561523209
 31
0.0
  0
LINE
  5
F0
  8
0
  6
CONTINUOUS
 62
     7
 10
200.661175354
 20
477.3561527083
 30
0.0
 11
177.9614541965
 21
477.3561527083
 31
0.0
  0
LINE
  5
F1
  8
0
  6
CONTINUOUS
 62
     7
 10
177.9614541965
 20
486.3561523209
 30
0.0
 11
200.661175354
 21
486.3561523209
 31
0.0
  0
ARC
  5
F2
  8
0
  6
CONTINUOUS
 62
     7
 10
200.661166134
 20
485.5561519105
 30
0.0
 40
0.8000004104184583
 50
0.0001267204
 51
89.9993396677
  0
ARC
  5
F3
  8
0
  6
CONTINUOUS
 62
     7
 10
200.6611645838
 20
478.1561546689
 30
0.0
 40
0.8000019606413764
 50
270.0007713569
 51
359.999762255
  0
LINE
  5
F4
  8
0
  6
CONTINUOUS
 62
     7
 10
201.4611665444
 20
485.5561536799
 30
0.0
 11
201.4611665444
 21
478.1561513493
 31
0.0
  0
LINE
  5
F5
  8
0
  6
CONTINUOUS
 62
     7
 10
131.4251724916
 20
485.5561536799
 30
0.0
 11
131.4251724916
 21
478.1561513493
 31
0.0
  0
ARC
  5
F6
  8
0
  6
CONTINUOUS
 62
     7
 10
132.2251733131
 20
478.1561535297
 30
0.0
 40
0.8000008215680171
 50
180.0001561575
 51
269.9987766137
  0
LINE
  5
F7
  8
0
  6
CONTINUOUS
 62
     7
 10
132.2620217042
 20
477.3561527083
 30
0.0
 11
132.2251562314
 21
477.3561527083
 31
0.0
  0
ARC
  5
F8
  8
0
  6
CONTINUOUS
 62
     7
 10
132.2251717629
 20
485.5561530497
 30
0.0
 40
0.7999992713292765
 50
90.0011123611
 51
179.9999548678
  0
LINE
  5
F9
  8
0
  6
CONTINUOUS
 62
     7
 10
132.2251562314
 20
486.3561523209
 30
0.0
 11
132.2620217042
 21
486.3561523209
 31
0.0
  0
ARC
  5
FA
  8
0
  6
CONTINUOUS
 62
     7
 10
370.0670832771
 20
478.1561531879
 30
0.0
 40
0.8000000000000114
 50
270.0
 51
0.0
  0
LINE
  5
FB
  8
0
  6
CONTINUOUS
 62
     7
 10
361.8670855002
 20
478.1561513493
 30
0.0
 11
361.8670855002
 21
485.5561536799
 31
0.0
  0
LINE
  5
FC
  8
0
  6
CONTINUOUS
 62
     7
 10
362.6670841413
 20
486.3561523209
 30
0.0
 11
370.0670827465
 21
486.3561523209
 31
0.0
  0
LINE
  5
FD
  8
0
  6
CONTINUOUS
 62
     7
 10
370.0670827465
 20
477.3561527083
 30
0.0
 11
362.6670841413
 21
477.3561527083
 31
0.0
  0
ARC
  5
FE
  8
0
  6
CONTINUOUS
 62
     7
 10
362.6670832771
 20
485.5561531879
 30
0.0
 40
0.8000000000000114
 50
90.0
 51
180.0
  0
ARC
  5
FF
  8
0
  6
CONTINUOUS
 62
     7
 10
362.6670832771
 20
478.1561531879
 30
0.0
 40
0.8000000000000114
 50
180.0
 51
270.0
  0
LINE
  5
100
  8
0
  6
CONTINUOUS
 62
     7
 10
370.8670813875
 20
485.5561536799
 30
0.0
 11
370.8670813875
 21
478.1561513493
 31
0.0
  0
ARC
  5
101
  8
0
  6
CONTINUOUS
 62
     7
 10
370.0670832771
 20
485.5561531879
 30
0.0
 40
0.8000000000000114
 50
0.0
 51
90.0
  0
LINE
  5
102
  8
0
  6
CONTINUOUS
 62
     7
 10
366.3670797186
 20
439.0561530428
 30
0.0
 11
394.0670792298
 21
439.0561530428
 31
0.0
  0
LINE
  5
103
  8
0
  6
CONTINUOUS
 62
     7
 10
338.6670802074
 20
439.0561530428
 30
0.0
 11
366.3670797186
 21
439.0561530428
 31
0.0
  0
LINE
  5
104
  8
0
  6
CONTINUOUS
 62
     7
 10
394.8670778709
 20
431.0561531285
 30
0.0
 11
337.8670815663
 21
431.0561531285
 31
0.0
  0
LINE
  5
105
  8
0
  6
CONTINUOUS
 62
     7
 10
366.3670797186
 20
446.2561533848
 30
0.0
 11
384.2670847015
 21
446.2561533848
 31
0.0
  0
LINE
  5
106
  8
0
  6
CONTINUOUS
 62
     7
 10
348.4670821862
 20
446.2561533848
 30
0.0
 11
366.3670797186
 21
446.2561533848
 31
0.0
  0
LINE
  5
107
  8
0
  6
CONTINUOUS
 62
     7
 10
377.8670806723
 20
477.3561527083
 30
0.0
 11
370.0670827465
 21
477.3561527083
 31
0.0
  0
LINE
  5
108
  8
0
  6
CONTINUOUS
 62
     7
 10
362.6670841413
 20
477.3561527083
 30
0.0
 11
354.8670862155
 21
477.3561527083
 31
0.0
  0
LINE
  5
109
  8
0
  6
CONTINUOUS
 62
     7
 10
354.8670862155
 20
486.3561523209
 30
0.0
 11
362.6670841413
 21
486.3561523209
 31
0.0
  0
LINE
  5
10A
  8
0
  6
CONTINUOUS
 62
     7
 10
370.0670827465
 20
486.3561523209
 30
0.0
 11
377.8670806723
 21
486.3561523209
 31
0.0
  0
LINE
  5
10B
  8
0
  6
CONTINUOUS
 62
     7
 10
366.3670797186
 20
466.0561514149
 30
0.0
 11
374.0670834022
 21
466.0561514149
 31
0.0
  0
LINE
  5
10C
  8
0
  6
CONTINUOUS
 62
     7
 10
358.6670834856
 20
466.0561514149
 30
0.0
 11
366.3670797186
 21
466.0561514149
 31
0.0
  0
LINE
  5
10D
  8
0
  6
CONTINUOUS
 62
     7
 10
374.0670834022
 20
466.3561527679
 30
0.0
 11
358.6670834856
 21
466.3561527679
 31
0.0
  0
ARC
  5
10E
  8
0
  6
CONTINUOUS
 62
     7
 10
400.5670832771
 20
478.1561531879
 30
0.0
 40
0.8000000000000114
 50
270.0
 51
0.0
  0
LINE
  5
10F
  8
0
  6
CONTINUOUS
 62
     7
 10
400.5670849519
 20
477.3561527083
 30
0.0
 11
377.8670806723
 21
477.3561527083
 31
0.0
  0
LINE
  5
110
  8
0
  6
CONTINUOUS
 62
     7
 10
401.3670835929
 20
485.5561536799
 30
0.0
 11
401.3670835929
 21
478.1561513493
 31
0.0
  0
ARC
  5
111
  8
0
  6
CONTINUOUS
 62
     7
 10
400.5670832771
 20
485.5561531879
 30
0.0
 40
0.8000000000000114
 50
0.0
 51
90.0
  0
LINE
  5
112
  8
0
  6
CONTINUOUS
 62
     7
 10
377.8670806723
 20
486.3561523209
 30
0.0
 11
400.5670849519
 21
486.3561523209
 31
0.0
  0
LINE
  5
113
  8
0
  6
CONTINUOUS
 62
     7
 10
332.1670819359
 20
486.3561523209
 30
0.0
 11
354.8670862155
 21
486.3561523209
 31
0.0
  0
LINE
  5
114
  8
0
  6
CONTINUOUS
 62
     7
 10
354.8670862155
 20
477.3561527083
 30
0.0
 11
332.1670819359
 21
477.3561527083
 31
0.0
  0
ARC
  5
115
  8
0
  6
CONTINUOUS
 62
     7
 10
332.1670832771
 20
485.5561531879
 30
0.0
 40
0.8000000000000114
 50
90.0
 51
180.0
  0
ARC
  5
116
  8
0
  6
CONTINUOUS
 62
     7
 10
332.1670832771
 20
478.1561531879
 30
0.0
 40
0.8000000000000114
 50
180.0
 51
270.0
  0
LINE
  5
117
  8
0
  6
CONTINUOUS
 62
     7
 10
331.3670832949
 20
478.1561513493
 30
0.0
 11
331.3670832949
 21
485.5561536799
 31
0.0
  0
POLYLINE
  5
118
  8
0
  6
CONTINUOUS
 62
     7
 66
     1
 10
0.0
 20
0.0
 30
0.0
 70
   128
  0
VERTEX
  5
2F8
  8
0
  6
CONTINUOUS
 62
     7
 10
266.4451305108
 20
614.2305639634
 30
0.0
  0
VERTEX
  5
2F9
  8
0
  6
CONTINUOUS
 62
     7
 10
264.5695393957
 20
614.2752525459
 30
0.0
  0
VERTEX
  5
2FA
  8
0
  6
CONTINUOUS
 62
     7
 10
262.7660263615
 20
614.4076046596
 30
0.0
  0
VERTEX
  5
2FB
  8
0
  6
CONTINUOUS
 62
     7
 10
261.1038991535
 20
614.6225390086
 30
0.0
  0
VERTEX
  5
2FC
  8
0
  6
CONTINUOUS
 62
     7
 10
259.6470321814
 20
614.9117854486
 30
0.0
  0
VERTEX
  5
2FD
  8
0
  6
CONTINUOUS
 62
     7
 10
258.4514128329
 20
615.2642277131
 30
0.0
  0
VERTEX
  5
2FE
  8
0
  6
CONTINUOUS
 62
     7
 10
257.5629869761
 20
615.6663355479
 30
0.0
  0
VERTEX
  5
2FF
  8
0
  6
CONTINUOUS
 62
     7
 10
257.0158973621
 20
616.1026415477
 30
0.0
  0
VERTEX
  5
300
  8
0
  6
CONTINUOUS
 62
     7
 10
256.8311676668
 20
616.5563968072
 30
0.0
  0
VERTEX
  5
301
  8
0
  6
CONTINUOUS
 62
     7
 10
257.0158973621
 20
617.0101371656
 30
0.0
  0
VERTEX
  5
302
  8
0
  6
CONTINUOUS
 62
     7
 10
257.5629869761
 20
617.4464431653
 30
0.0
  0
VERTEX
  5
303
  8
0
  6
CONTINUOUS
 62
     7
 10
258.4514128329
 20
617.8485510001
 30
0.0
  0
VERTEX
  5
304
  8
0
  6
CONTINUOUS
 62
     7
 10
259.6470321814
 20
618.2009932647
 30
0.0
  0
VERTEX
  5
305
  8
0
  6
CONTINUOUS
 62
     7
 10
261.1038991535
 20
618.4902397046
 30
0.0
  0
VERTEX
  5
306
  8
0
  6
CONTINUOUS
 62
     7
 10
262.7660263615
 20
618.7051740537
 30
0.0
  0
VERTEX
  5
307
  8
0
  6
CONTINUOUS
 62
     7
 10
264.5695393957
 20
618.8375261674
 30
0.0
  0
VERTEX
  5
308
  8
0
  6
CONTINUOUS
 62
     7
 10
266.4451305108
 20
618.8822147498
 30
0.0
  0
VERTEX
  5
309
  8
0
  6
CONTINUOUS
 62
     7
 10
268.3207216259
 20
618.8375261674
 30
0.0
  0
VERTEX
  5
30A
  8
0
  6
CONTINUOUS
 62
     7
 10
270.1242346602
 20
618.7051740537
 30
0.0
  0
VERTEX
  5
30B
  8
0
  6
CONTINUOUS
 62
     7
 10
271.7863618681
 20
618.4902397046
 30
0.0
  0
VERTEX
  5
30C
  8
0
  6
CONTINUOUS
 62
     7
 10
273.2432288403
 20
618.2009932647
 30
0.0
  0
VERTEX
  5
30D
  8
0
  6
CONTINUOUS
 62
     7
 10
274.4388481887
 20
617.8485510001
 30
0.0
  0
VERTEX
  5
30E
  8
0
  6
CONTINUOUS
 62
     7
 10
275.3272740455
 20
617.4464431653
 30
0.0
  0
VERTEX
  5
30F
  8
0
  6
CONTINUOUS
 62
     7
 10
275.8743636595
 20
617.0101371656
 30
0.0
  0
VERTEX
  5
310
  8
0
  6
CONTINUOUS
 62
     7
 10
276.0590933548
 20
616.5563968072
 30
0.0
  0
VERTEX
  5
311
  8
0
  6
CONTINUOUS
 62
     7
 10
275.8743636595
 20
616.1026415477
 30
0.0
  0
VERTEX
  5
312
  8
0
  6
CONTINUOUS
 62
     7
 10
275.3272740455
 20
615.6663355479
 30
0.0
  0
VERTEX
  5
313
  8
0
  6
CONTINUOUS
 62
     7
 10
274.4388481887
 20
615.2642277131
 30
0.0
  0
VERTEX
  5
314
  8
0
  6
CONTINUOUS
 62
     7
 10
273.2432288403
 20
614.9117854486
 30
0.0
  0
VERTEX
  5
315
  8
0
  6
CONTINUOUS
 62
     7
 10
271.7863618681
 20
614.6225390086
 30
0.0
  0
VERTEX
  5
316
  8
0
  6
CONTINUOUS
 62
     7
 10
270.1242346602
 20
614.4076046596
 30
0.0
  0
VERTEX
  5
317
  8
0
  6
CONTINUOUS
 62
     7
 10
268.3207216259
 20
614.2752525459
 30
0.0
  0
VERTEX
  5
318
  8
0
  6
CONTINUOUS
 62
     7
 10
266.4451305108
 20
614.2305639634
 30
0.0
  0
SEQEND
  5
44B
  8
0
  6
CONTINUOUS
 62
     7
  0
POLYLINE
  5
119
  8
0
  6
CONTINUOUS
 62
     7
 66
     1
 10
0.0
 20
0.0
 30
0.0
 70
   128
  0
VERTEX
  5
319
  8
0
  6
CONTINUOUS
 62
     7
 10
257.1947224723
 20
616.0252896199
 30
0.0
  0
VERTEX
  5
31A
  8
0
  6
CONTINUOUS
 62
     7
 10
256.7270150693
 20
616.3739171872
 30
0.0
  0
VERTEX
  5
31B
  8
0
  6
CONTINUOUS
 62
     7
 10
256.4564574795
 20
616.8291625629
 30
0.0
  0
VERTEX
  5
31C
  8
0
  6
CONTINUOUS
 62
     7
 10
256.5469159098
 20
617.2885653625
 30
0.0
  0
VERTEX
  5
31D
  8
0
  6
CONTINUOUS
 62
     7
 10
256.9951223494
 20
617.7355256925
 30
0.0
  0
VERTEX
  5
31E
  8
0
  6
CONTINUOUS
 62
     7
 10
257.7848764421
 20
618.153875793
 30
0.0
  0
VERTEX
  5
31F
  8
0
  6
CONTINUOUS
 62
     7
 10
258.887634548
 20
618.5285207877
 30
0.0
  0
VERTEX
  5
320
  8
0
  6
CONTINUOUS
 62
     7
 10
260.2635407174
 20
618.84590062
 30
0.0
  0
VERTEX
  5
321
  8
0
  6
CONTINUOUS
 62
     7
 10
261.8628651189
 20
619.0945562969
 30
0.0
  0
VERTEX
  5
322
  8
0
  6
CONTINUOUS
 62
     7
 10
263.627804984
 20
619.2655024181
 30
0.0
  0
VERTEX
  5
323
  8
0
  6
CONTINUOUS
 62
     7
 10
265.4945700714
 20
619.3525401006
 30
0.0
  0
VERTEX
  5
324
  8
0
  6
CONTINUOUS
 62
     7
 10
267.3956909502
 20
619.3525401006
 30
0.0
  0
VERTEX
  5
325
  8
0
  6
CONTINUOUS
 62
     7
 10
269.2624560377
 20
619.2655024181
 30
0.0
  0
VERTEX
  5
326
  8
0
  6
CONTINUOUS
 62
     7
 10
271.0273959028
 20
619.0945562969
 30
0.0
  0
VERTEX
  5
327
  8
0
  6
CONTINUOUS
 62
     7
 10
272.6267203042
 20
618.84590062
 30
0.0
  0
VERTEX
  5
328
  8
0
  6
CONTINUOUS
 62
     7
 10
274.0026264736
 20
618.5285207877
 30
0.0
  0
VERTEX
  5
329
  8
0
  6
CONTINUOUS
 62
     7
 10
275.1053845795
 20
618.153875793
 30
0.0
  0
VERTEX
  5
32A
  8
0
  6
CONTINUOUS
 62
     7
 10
275.8951386722
 20
617.7355256925
 30
0.0
  0
VERTEX
  5
32B
  8
0
  6
CONTINUOUS
 62
     7
 10
276.3433451118
 20
617.2885653625
 30
0.0
  0
VERTEX
  5
32C
  8
0
  6
CONTINUOUS
 62
     7
 10
276.4338035421
 20
616.8291625629
 30
0.0
  0
VERTEX
  5
32D
  8
0
  6
CONTINUOUS
 62
     7
 10
276.1632459523
 20
616.3739171872
 30
0.0
  0
VERTEX
  5
32E
  8
0
  6
CONTINUOUS
 62
     7
 10
275.544045894
 20
615.9406659255
 30
0.0
  0
SEQEND
  5
44C
  8
0
  6
CONTINUOUS
 62
     7
  0
POLYLINE
  5
11A
  8
0
  6
CONTINUOUS
 62
     7
 66
     1
 10
0.0
 20
0.0
 30
0.0
 70
   128
  0
VERTEX
  5
32F
  8
0
  6
CONTINUOUS
 62
     7
 10
266.4451305108
 20
614.5307031522
 30
0.0
  0
VERTEX
  5
330
  8
0
  6
CONTINUOUS
 62
     7
 10
264.6161587262
 20
614.5742890487
 30
0.0
  0
VERTEX
  5
331
  8
0
  6
CONTINUOUS
 62
     7
 10
262.8574733907
 20
614.7033480058
 30
0.0
  0
VERTEX
  5
332
  8
0
  6
CONTINUOUS
 62
     7
 10
261.2366596522
 20
614.912932838
 30
0.0
  0
VERTEX
  5
333
  8
0
  6
CONTINUOUS
 62
     7
 10
259.8160043644
 20
615.1949969182
 30
0.0
  0
VERTEX
  5
334
  8
0
  6
CONTINUOUS
 62
     7
 10
258.6501030536
 20
615.5386773
 30
0.0
  0
VERTEX
  5
335
  8
0
  6
CONTINUOUS
 62
     7
 10
257.7837597864
 20
615.9308013568
 30
0.0
  0
VERTEX
  5
336
  8
0
  6
CONTINUOUS
 62
     7
 10
257.2502684133
 20
616.3562593112
 30
0.0
  0
VERTEX
  5
337
  8
0
  6
CONTINUOUS
 62
     7
 10
257.0701301383
 20
616.7987343917
 30
0.0
  0
VERTEX
  5
338
  8
0
  6
CONTINUOUS
 62
     7
 10
257.2375977697
 20
617.2254887471
 30
0.0
  0
SEQEND
  5
44D
  8
0
  6
CONTINUOUS
 62
     7
  0
POLYLINE
  5
11B
  8
0
  6
CONTINUOUS
 62
     7
 66
     1
 10
0.0
 20
0.0
 30
0.0
 70
   128
  0
VERTEX
  5
339
  8
0
  6
CONTINUOUS
 62
     7
 10
275.6526632519
 20
617.2254887471
 30
0.0
  0
VERTEX
  5
33A
  8
0
  6
CONTINUOUS
 62
     7
 10
275.8201308833
 20
616.7987343917
 30
0.0
  0
VERTEX
  5
33B
  8
0
  6
CONTINUOUS
 62
     7
 10
275.6399926083
 20
616.3562593112
 30
0.0
  0
VERTEX
  5
33C
  8
0
  6
CONTINUOUS
 62
     7
 10
275.1065012353
 20
615.9308013568
 30
0.0
  0
VERTEX
  5
33D
  8
0
  6
CONTINUOUS
 62
     7
 10
274.240157968
 20
615.5386773
 30
0.0
  0
VERTEX
  5
33E
  8
0
  6
CONTINUOUS
 62
     7
 10
273.0742566572
 20
615.1949969182
 30
0.0
  0
VERTEX
  5
33F
  8
0
  6
CONTINUOUS
 62
     7
 10
271.6536013694
 20
614.912932838
 30
0.0
  0
VERTEX
  5
340
  8
0
  6
CONTINUOUS
 62
     7
 10
270.0327876309
 20
614.7033480058
 30
0.0
  0
VERTEX
  5
341
  8
0
  6
CONTINUOUS
 62
     7
 10
268.2741022954
 20
614.5742890487
 30
0.0
  0
VERTEX
  5
342
  8
0
  6
CONTINUOUS
 62
     7
 10
266.4451305108
 20
614.5307031522
 30
0.0
  0
SEQEND
  5
44E
  8
0
  6
CONTINUOUS
 62
     7
  0
LINE
  5
11C
  8
0
  6
CONTINUOUS
 62
     7
 10
294.9451305257
 20
431.0561531285
 30
0.0
 11
237.9451304959
 21
431.0561531285
 31
0.0
  0
LINE
  5
11D
  8
0
  6
CONTINUOUS
 62
     7
 10
238.7451309996
 20
439.0561530428
 30
0.0
 11
294.1451300221
 21
439.0561530428
 31
0.0
  0
LINE
  5
11E
  8
0
  6
CONTINUOUS
 62
     7
 10
284.3451299058
 20
446.4561530451
 30
0.0
 11
248.5451311158
 21
446.4561530451
 31
0.0
  0
LINE
  5
11F
  8
0
  6
CONTINUOUS
 62
     7
 10
276.1451307969
 20
466.5561524282
 30
0.0
 11
256.745131156
 21
466.5561524282
 31
0.0
  0
LINE
  5
120
  8
0
  6
CONTINUOUS
 62
     7
 10
256.745131156
 20
466.0561514149
 30
0.0
 11
276.1451307969
 21
466.0561514149
 31
0.0
  0
ARC
  5
121
  8
0
  6
CONTINUOUS
 62
     8
 10
122.7918243237
 20
477.9560718934
 30
0.0
 40
40.12622183167883
 50
359.143350247
 51
0.285692382
  0
ARC
  5
122
  8
0
  6
CONTINUOUS
 62
     8
 10
162.9135677648
 20
478.1561429447
 30
0.0
 40
0.7999902363863526
 50
179.9993980536
 51
269.9995347176
  0
LINE
  5
123
  8
0
  6
CONTINUOUS
 62
     8
 10
162.917547329
 20
478.1561513493
 30
0.0
 11
162.1135775285
 21
478.1561513493
 31
0.0
  0
LINE
  5
124
  8
0
  6
CONTINUOUS
 62
     8
 10
162.917547329
 20
485.5561536799
 30
0.0
 11
162.1135775285
 21
485.5561536799
 31
0.0
  0
ARC
  5
125
  8
0
  6
CONTINUOUS
 62
     8
 10
162.9135662147
 20
485.5561636346
 30
0.0
 40
0.7999886863288502
 50
90.0003542658
 51
180.000712963
  0
ARC
  5
126
  8
0
  6
CONTINUOUS
 62
     8
 10
122.7920430774
 20
485.7562342258
 30
0.0
 40
40.12600308615504
 50
359.7143045041
 51
0.8566528668
  0
LINE
  5
127
  8
0
  6
CONTINUOUS
 62
     8
 10
162.917547329
 20
485.5561536799
 30
0.0
 11
162.917547329
 21
478.1561513493
 31
0.0
  0
LINE
  5
128
  8
0
  6
CONTINUOUS
 62
     8
 10
162.1135775285
 20
478.1561513493
 30
0.0
 11
162.1135775285
 21
485.5561536799
 31
0.0
  0
LINE
  5
129
  8
0
  6
CONTINUOUS
 62
     8
 10
162.917547329
 20
478.1561513493
 30
0.0
 11
170.3174565272
 21
478.1561513493
 31
0.0
  0
ARC
  5
12A
  8
0
  6
CONTINUOUS
 62
     8
 10
130.1314610845
 20
477.9563722059
 30
0.0
 40
40.18649202687419
 50
359.1442068963
 51
0.2848357328
  0
ARC
  5
12B
  8
0
  6
CONTINUOUS
 62
     8
 10
130.1316798382
 20
485.7559339133
 30
0.0
 40
40.1862732813178
 50
359.7151611628
 51
0.8557962082
  0
LINE
  5
12C
  8
0
  6
CONTINUOUS
 62
     8
 10
170.3174565272
 20
485.5561536799
 30
0.0
 11
162.917547329
 21
485.5561536799
 31
0.0
  0
LINE
  5
12D
  8
0
  6
CONTINUOUS
 62
     8
 10
170.3174565272
 20
478.1561513493
 30
0.0
 11
170.3174565272
 21
485.5561536799
 31
0.0
  0
LINE
  5
12E
  8
0
  6
CONTINUOUS
 62
     8
 10
171.1134616571
 20
485.5561536799
 30
0.0
 11
170.3174565272
 21
485.5561536799
 31
0.0
  0
LINE
  5
12F
  8
0
  6
CONTINUOUS
 62
     8
 10
171.1134616571
 20
478.1561513493
 30
0.0
 11
170.3174565272
 21
478.1561513493
 31
0.0
  0
LINE
  5
130
  8
0
  6
CONTINUOUS
 62
     8
 10
162.1135775285
 20
485.5561536799
 30
0.0
 11
162.0005075173
 21
485.5561536799
 31
0.0
  0
ARC
  5
131
  8
0
  6
CONTINUOUS
 62
     8
 10
162.8005004432
 20
485.556159395
 30
0.0
 40
0.7999929258467738
 50
90.0001242895
 51
180.0004093225
  0
LINE
  5
132
  8
0
  6
CONTINUOUS
 62
     8
 10
162.0005075173
 20
478.1561513493
 30
0.0
 11
162.1135775285
 21
478.1561513493
 31
0.0
  0
LINE
  5
133
  8
0
  6
CONTINUOUS
 62
     8
 10
162.0005075173
 20
485.5561536799
 30
0.0
 11
162.0005075173
 21
478.1561513493
 31
0.0
  0
ARC
  5
134
  8
0
  6
CONTINUOUS
 62
     8
 10
162.8005019932
 20
478.1561471842
 30
0.0
 40
0.7999944758943939
 50
179.9997016927
 51
269.9997646953
  0
LINE
  5
135
  8
0
  6
CONTINUOUS
 62
     8
 10
162.0005075173
 20
485.5561536799
 30
0.0
 11
154.9657289224
 21
485.5561536799
 31
0.0
  0
ARC
  5
136
  8
0
  6
CONTINUOUS
 62
     8
 10
114.7424121198
 20
485.7557468665
 30
0.0
 40
40.22381200282036
 50
359.715693427
 51
0.855263944
  0
LINE
  5
137
  8
0
  6
CONTINUOUS
 62
     8
 10
154.9657289224
 20
478.1561513493
 30
0.0
 11
162.0005075173
 21
478.1561513493
 31
0.0
  0
ARC
  5
138
  8
0
  6
CONTINUOUS
 62
     8
 10
114.7421933661
 20
477.9565592527
 30
0.0
 40
40.22403074839695
 50
359.1447391547
 51
0.2843034743
  0
LINE
  5
139
  8
0
  6
CONTINUOUS
 62
     8
 10
154.9657289224
 20
485.5561536799
 30
0.0
 11
154.9657289224
 21
478.1561513493
 31
0.0
  0
ARC
  5
13A
  8
0
  6
CONTINUOUS
 62
     8
 10
137.7796635681
 20
485.7559339133
 30
0.0
 40
40.1862732813178
 50
359.7151611628
 51
0.8557962082
  0
LINE
  5
13B
  8
0
  6
CONTINUOUS
 62
     8
 10
177.9654402571
 20
485.5561536799
 30
0.0
 11
171.1134616571
 21
485.5561536799
 31
0.0
  0
LINE
  5
13C
  8
0
  6
CONTINUOUS
 62
     8
 10
171.1134616571
 20
478.1561513493
 30
0.0
 11
177.9654402571
 21
478.1561513493
 31
0.0
  0
ARC
  5
13D
  8
0
  6
CONTINUOUS
 62
     8
 10
137.7794448144
 20
477.9563722059
 30
0.0
 40
40.18649202687419
 50
359.1442068963
 51
0.2848357328
  0
LINE
  5
13E
  8
0
  6
CONTINUOUS
 62
     8
 10
177.9654402571
 20
485.5561536799
 30
0.0
 11
177.9654402571
 21
478.1561513493
 31
0.0
  0
ARC
  5
13F
  8
0
  6
CONTINUOUS
 62
     8
 10
132.262016066
 20
485.5561742189
 30
0.0
 40
0.7999781019606732
 50
89.9995961858
 51
180.001471043
  0
ARC
  5
140
  8
0
  6
CONTINUOUS
 62
     8
 10
92.140861033
 20
485.7566097023
 30
0.0
 40
40.12563999436412
 50
359.7137657658
 51
0.8561244128
  0
LINE
  5
141
  8
0
  6
CONTINUOUS
 62
     8
 10
132.2660003142
 20
485.5561536799
 30
0.0
 11
131.4620379643
 21
485.5561536799
 31
0.0
  0
LINE
  5
142
  8
0
  6
CONTINUOUS
 62
     8
 10
132.2660003142
 20
485.5561536799
 30
0.0
 11
132.2660003142
 21
478.1561513493
 31
0.0
  0
LINE
  5
143
  8
0
  6
CONTINUOUS
 62
     8
 10
132.2660003142
 20
478.1561513493
 30
0.0
 11
131.4620379643
 21
478.1561513493
 31
0.0
  0
LINE
  5
144
  8
0
  6
CONTINUOUS
 62
     8
 10
131.4620379643
 20
478.1561513493
 30
0.0
 11
131.4620379643
 21
485.5561536799
 31
0.0
  0
ARC
  5
145
  8
0
  6
CONTINUOUS
 62
     8
 10
132.262017616
 20
478.1561323601
 30
0.0
 40
0.7999796518368396
 50
179.998639965
 51
270.0002928062
  0
ARC
  5
146
  8
0
  6
CONTINUOUS
 62
     8
 10
92.1406448601
 20
477.955696402
 30
0.0
 40
40.1258561591814
 50
359.1438786643
 51
0.2862311571
  0
LINE
  5
147
  8
0
  6
CONTINUOUS
 62
     8
 10
132.2660003142
 20
478.1561513493
 30
0.0
 11
154.9657289224
 21
478.1561513493
 31
0.0
  0
LINE
  5
148
  8
0
  6
CONTINUOUS
 62
     8
 10
154.9657289224
 20
485.5561536799
 30
0.0
 11
132.2660003142
 21
485.5561536799
 31
0.0
  0
LINE
  5
149
  8
0
  6
CONTINUOUS
 62
     8
 10
177.9654402571
 20
478.1561513493
 30
0.0
 11
200.6651614146
 21
478.1561513493
 31
0.0
  0
ARC
  5
14A
  8
0
  6
CONTINUOUS
 62
     8
 10
160.4791659719
 20
477.9563722059
 30
0.0
 40
40.18649202687419
 50
359.1442068963
 51
0.2848357328
  0
ARC
  5
14B
  8
0
  6
CONTINUOUS
 62
     8
 10
160.4793847256
 20
485.7559339133
 30
0.0
 40
40.1862732813178
 50
359.7151611628
 51
0.8557962082
  0
LINE
  5
14C
  8
0
  6
CONTINUOUS
 62
     8
 10
200.6651614146
 20
485.5561536799
 30
0.0
 11
177.9654402571
 21
485.5561536799
 31
0.0
  0
LINE
  5
14D
  8
0
  6
CONTINUOUS
 62
     8
 10
200.6651614146
 20
478.1561513493
 30
0.0
 11
200.6651614146
 21
485.5561536799
 31
0.0
  0
LINE
  5
14E
  8
0
  6
CONTINUOUS
 62
     8
 10
201.4611665444
 20
485.5561536799
 30
0.0
 11
200.6651614146
 21
485.5561536799
 31
0.0
  0
LINE
  5
14F
  8
0
  6
CONTINUOUS
 62
     8
 10
201.4611665444
 20
478.1561513493
 30
0.0
 11
200.6651614146
 21
478.1561513493
 31
0.0
  0
LINE
  5
150
  8
0
  6
CONTINUOUS
 62
     8
 10
131.4251724916
 20
478.1561513493
 30
0.0
 11
131.4620379643
 21
478.1561513493
 31
0.0
  0
LINE
  5
151
  8
0
  6
CONTINUOUS
 62
     8
 10
131.4620379643
 20
485.5561536799
 30
0.0
 11
131.4251724916
 21
485.5561536799
 31
0.0
  0
LINE
  5
152
  8
0
  6
CONTINUOUS
 62
     8
 10
370.0670827465
 20
478.1561513493
 30
0.0
 11
370.0670827465
 21
477.3561527083
 31
0.0
  0
LINE
  5
153
  8
0
  6
CONTINUOUS
 62
     8
 10
370.8670813875
 20
478.1561513493
 30
0.0
 11
370.0670827465
 21
478.1561513493
 31
0.0
  0
LINE
  5
154
  8
0
  6
CONTINUOUS
 62
     8
 10
362.6670841413
 20
485.5561536799
 30
0.0
 11
362.6670841413
 21
478.1561513493
 31
0.0
  0
LINE
  5
155
  8
0
  6
CONTINUOUS
 62
     8
 10
362.6670841413
 20
478.1561513493
 30
0.0
 11
361.8670855002
 21
478.1561513493
 31
0.0
  0
LINE
  5
156
  8
0
  6
CONTINUOUS
 62
     8
 10
362.6670841413
 20
485.5561536799
 30
0.0
 11
361.8670855002
 21
485.5561536799
 31
0.0
  0
LINE
  5
157
  8
0
  6
CONTINUOUS
 62
     8
 10
370.0670827465
 20
486.3561523209
 30
0.0
 11
370.0670827465
 21
485.5561536799
 31
0.0
  0
LINE
  5
158
  8
0
  6
CONTINUOUS
 62
     8
 10
370.0670827465
 20
485.5561536799
 30
0.0
 11
362.6670841413
 21
485.5561536799
 31
0.0
  0
LINE
  5
159
  8
0
  6
CONTINUOUS
 62
     8
 10
362.6670841413
 20
486.3561523209
 30
0.0
 11
362.6670841413
 21
485.5561536799
 31
0.0
  0
LINE
  5
15A
  8
0
  6
CONTINUOUS
 62
     8
 10
362.6670841413
 20
478.1561513493
 30
0.0
 11
370.0670827465
 21
478.1561513493
 31
0.0
  0
LINE
  5
15B
  8
0
  6
CONTINUOUS
 62
     8
 10
362.6670841413
 20
478.1561513493
 30
0.0
 11
362.6670841413
 21
477.3561527083
 31
0.0
  0
LINE
  5
15C
  8
0
  6
CONTINUOUS
 62
     8
 10
370.0670827465
 20
478.1561513493
 30
0.0
 11
370.0670827465
 21
485.5561536799
 31
0.0
  0
LINE
  5
15D
  8
0
  6
CONTINUOUS
 62
     8
 10
370.8670813875
 20
485.5561536799
 30
0.0
 11
370.0670827465
 21
485.5561536799
 31
0.0
  0
LINE
  5
15E
  8
0
  6
CONTINUOUS
 62
     8
 10
370.8670813875
 20
478.1561513493
 30
0.0
 11
377.8670806723
 21
478.1561513493
 31
0.0
  0
LINE
  5
15F
  8
0
  6
CONTINUOUS
 62
     8
 10
377.8670806723
 20
478.1561513493
 30
0.0
 11
377.8670806723
 21
477.3561527083
 31
0.0
  0
LINE
  5
160
  8
0
  6
CONTINUOUS
 62
     8
 10
377.8670806723
 20
485.5561536799
 30
0.0
 11
370.8670813875
 21
485.5561536799
 31
0.0
  0
LINE
  5
161
  8
0
  6
CONTINUOUS
 62
     8
 10
377.8670806723
 20
485.5561536799
 30
0.0
 11
377.8670806723
 21
478.1561513493
 31
0.0
  0
LINE
  5
162
  8
0
  6
CONTINUOUS
 62
     8
 10
354.8670862155
 20
478.1561513493
 30
0.0
 11
361.8670855002
 21
478.1561513493
 31
0.0
  0
LINE
  5
163
  8
0
  6
CONTINUOUS
 62
     8
 10
354.8670862155
 20
478.1561513493
 30
0.0
 11
354.8670862155
 21
477.3561527083
 31
0.0
  0
LINE
  5
164
  8
0
  6
CONTINUOUS
 62
     8
 10
361.8670855002
 20
485.5561536799
 30
0.0
 11
354.8670862155
 21
485.5561536799
 31
0.0
  0
LINE
  5
165
  8
0
  6
CONTINUOUS
 62
     8
 10
354.8670862155
 20
485.5561536799
 30
0.0
 11
354.8670862155
 21
478.1561513493
 31
0.0
  0
LINE
  5
166
  8
0
  6
CONTINUOUS
 62
     8
 10
354.8670862155
 20
486.3561523209
 30
0.0
 11
354.8670862155
 21
485.5561536799
 31
0.0
  0
LINE
  5
167
  8
0
  6
CONTINUOUS
 62
     8
 10
377.8670806723
 20
486.3561523209
 30
0.0
 11
377.8670806723
 21
485.5561536799
 31
0.0
  0
LINE
  5
168
  8
0
  6
CONTINUOUS
 62
     8
 10
400.5670849519
 20
478.1561513493
 30
0.0
 11
400.5670849519
 21
477.3561527083
 31
0.0
  0
LINE
  5
169
  8
0
  6
CONTINUOUS
 62
     8
 10
401.3670835929
 20
478.1561513493
 30
0.0
 11
400.5670849519
 21
478.1561513493
 31
0.0
  0
LINE
  5
16A
  8
0
  6
CONTINUOUS
 62
     8
 10
377.8670806723
 20
478.1561513493
 30
0.0
 11
400.5670849519
 21
478.1561513493
 31
0.0
  0
LINE
  5
16B
  8
0
  6
CONTINUOUS
 62
     8
 10
400.5670849519
 20
478.1561513493
 30
0.0
 11
400.5670849519
 21
485.5561536799
 31
0.0
  0
LINE
  5
16C
  8
0
  6
CONTINUOUS
 62
     8
 10
401.3670835929
 20
485.5561536799
 30
0.0
 11
400.5670849519
 21
485.5561536799
 31
0.0
  0
LINE
  5
16D
  8
0
  6
CONTINUOUS
 62
     8
 10
400.5670849519
 20
486.3561523209
 30
0.0
 11
400.5670849519
 21
485.5561536799
 31
0.0
  0
LINE
  5
16E
  8
0
  6
CONTINUOUS
 62
     8
 10
400.5670849519
 20
485.5561536799
 30
0.0
 11
377.8670806723
 21
485.5561536799
 31
0.0
  0
LINE
  5
16F
  8
0
  6
CONTINUOUS
 62
     8
 10
354.8670862155
 20
485.5561536799
 30
0.0
 11
332.1670819359
 21
485.5561536799
 31
0.0
  0
LINE
  5
170
  8
0
  6
CONTINUOUS
 62
     8
 10
332.1670819359
 20
485.5561536799
 30
0.0
 11
332.1670819359
 21
486.3561523209
 31
0.0
  0
LINE
  5
171
  8
0
  6
CONTINUOUS
 62
     8
 10
332.1670819359
 20
478.1561513493
 30
0.0
 11
354.8670862155
 21
478.1561513493
 31
0.0
  0
LINE
  5
172
  8
0
  6
CONTINUOUS
 62
     8
 10
332.1670819359
 20
477.3561527083
 30
0.0
 11
332.1670819359
 21
478.1561513493
 31
0.0
  0
LINE
  5
173
  8
0
  6
CONTINUOUS
 62
     8
 10
332.1670819359
 20
485.5561536799
 30
0.0
 11
332.1670819359
 21
478.1561513493
 31
0.0
  0
LINE
  5
174
  8
0
  6
CONTINUOUS
 62
     8
 10
332.1670819359
 20
485.5561536799
 30
0.0
 11
331.3670832949
 21
485.5561536799
 31
0.0
  0
LINE
  5
175
  8
0
  6
CONTINUOUS
 62
     8
 10
332.1670819359
 20
478.1561513493
 30
0.0
 11
331.3670832949
 21
478.1561513493
 31
0.0
  0
LINE
  5
176
  8
0
  6
CONTINUOUS
 62
     7
 10
563.8861038886
 20
431.0561531285
 30
0.0
 11
563.8861038886
 21
438.2561530049
 31
0.0
  0
LINE
  5
177
  8
0
  6
CONTINUOUS
 62
     7
 10
506.8861038588
 20
438.2561530049
 30
0.0
 11
506.8861038588
 21
431.0561531285
 31
0.0
  0
ARC
  5
178
  8
0
  6
CONTINUOUS
 62
     7
 10
507.68610368
 20
438.2561531879
 30
0.0
 40
0.8000000000000114
 50
90.0
 51
180.0
  0
ARC
  5
179
  8
0
  6
CONTINUOUS
 62
     7
 10
563.08610368
 20
438.2561531879
 30
0.0
 40
0.8000000000000682
 50
0.0
 51
90.0
  0
ARC
  5
17A
  8
0
  6
CONTINUOUS
 62
     7
 10
516.38610368
 20
439.5561531879
 30
0.0
 40
0.5
 50
270.0
 51
0.0
  0
ARC
  5
17B
  8
0
  6
CONTINUOUS
 62
     7
 10
554.38610368
 20
439.5561531879
 30
0.0
 40
0.5
 50
180.0
 51
270.0
  0
ARC
  5
17C
  8
0
  6
CONTINUOUS
 62
     7
 10
517.48610368
 20
445.6561531879
 30
0.0
 40
0.6000000000000227
 50
90.0
 51
180.0
  0
ARC
  5
17D
  8
0
  6
CONTINUOUS
 62
     7
 10
553.28610368
 20
445.6561531879
 30
0.0
 40
0.6000000000000227
 50
0.0
 51
90.0
  0
LINE
  5
17E
  8
0
  6
CONTINUOUS
 62
     7
 10
553.8861041121
 20
439.5561531248
 30
0.0
 11
553.8861041121
 21
445.6561534727
 31
0.0
  0
LINE
  5
17F
  8
0
  6
CONTINUOUS
 62
     7
 10
516.8861036353
 20
445.6561534727
 30
0.0
 11
516.8861036353
 21
439.5561531248
 31
0.0
  0
ARC
  5
180
  8
0
  6
CONTINUOUS
 62
     7
 10
526.88610368
 20
446.7561531879
 30
0.0
 40
0.5
 50
270.0
 51
0.0
  0
ARC
  5
181
  8
0
  6
CONTINUOUS
 62
     7
 10
543.88610368
 20
446.7561531879
 30
0.0
 40
0.5
 50
180.0
 51
270.0
  0
ARC
  5
182
  8
0
  6
CONTINUOUS
 62
     7
 10
526.98610368
 20
476.9561531879
 30
0.0
 40
0.4000000000000341
 50
0.0
 51
90.0
  0
ARC
  5
183
  8
0
  6
CONTINUOUS
 62
     7
 10
543.78610368
 20
476.9561531879
 30
0.0
 40
0.4000000000000341
 50
90.0
 51
180.0
  0
ARC
  5
184
  8
0
  6
CONTINUOUS
 62
     7
 10
543.08610368
 20
466.6561531879
 30
0.0
 40
0.3000000000000114
 50
270.0
 51
0.0
  0
ARC
  5
185
  8
0
  6
CONTINUOUS
 62
     7
 10
527.68610368
 20
466.6561531879
 30
0.0
 40
0.3000000000000114
 50
180.0
 51
270.0
  0
LINE
  5
186
  8
0
  6
CONTINUOUS
 62
     7
 10
543.386103788
 20
466.6561541209
 30
0.0
 11
543.386103788
 21
476.9561533878
 31
0.0
  0
LINE
  5
187
  8
0
  6
CONTINUOUS
 62
     7
 10
527.3861034937
 20
476.9561533878
 30
0.0
 11
527.3861034937
 21
466.6561541209
 31
0.0
  0
ARC
  5
188
  8
0
  6
CONTINUOUS
 62
     7
 10
527.68610368
 20
465.7561531879
 30
0.0
 40
0.2999999999999545
 50
90.0
 51
180.0
  0
ARC
  5
189
  8
0
  6
CONTINUOUS
 62
     7
 10
543.08610368
 20
465.7561531879
 30
0.0
 40
0.3000000000000682
 50
0.0
 51
90.0
  0
LINE
  5
18A
  8
0
  6
CONTINUOUS
 62
     7
 10
543.386103788
 20
446.7561534668
 30
0.0
 11
543.386103788
 21
465.7561537872
 31
0.0
  0
LINE
  5
18B
  8
0
  6
CONTINUOUS
 62
     7
 10
527.3861034937
 20
465.7561537872
 30
0.0
 11
527.3861034937
 21
446.7561534668
 31
0.0
  0
ARC
  5
18C
  8
0
  6
CONTINUOUS
 62
     7
 10
529.28610368
 20
466.3561531879
 30
0.0
 40
0.3000000000000682
 50
270.0
 51
0.0
  0
ARC
  5
18D
  8
0
  6
CONTINUOUS
 62
     7
 10
541.48610368
 20
466.3561531879
 30
0.0
 40
0.3000000000000682
 50
180.0
 51
270.0
  0
ARC
  5
18E
  8
0
  6
CONTINUOUS
 62
     7
 10
554.48610368
 20
439.6561531879
 30
0.0
 40
0.6000000000000227
 50
180.0
 51
270.0
  0
ARC
  5
18F
  8
0
  6
CONTINUOUS
 62
     7
 10
516.28610368
 20
439.6561531879
 30
0.0
 40
0.6000000000000227
 50
270.0
 51
0.0
  0
LINE
  5
190
  8
0
  6
CONTINUOUS
 62
     7
 10
553.8861041121
 20
445.6561534727
 30
0.0
 11
553.8861041121
 21
445.856153133
 31
0.0
  0
LINE
  5
191
  8
0
  6
CONTINUOUS
 62
     7
 10
516.8861036353
 20
445.856153133
 30
0.0
 11
516.8861036353
 21
445.6561534727
 31
0.0
  0
ARC
  5
192
  8
0
  6
CONTINUOUS
 62
     7
 10
553.28610368
 20
445.8561531879
 30
0.0
 40
0.6000000000000796
 50
0.0
 51
90.0
  0
ARC
  5
193
  8
0
  6
CONTINUOUS
 62
     7
 10
517.48610368
 20
445.8561531879
 30
0.0
 40
0.6000000000000796
 50
90.0
 51
180.0
  0
ARC
  5
194
  8
0
  6
CONTINUOUS
 62
     7
 10
545.98610368
 20
447.0561531879
 30
0.0
 40
0.6000000000000227
 50
180.0
 51
270.0
  0
ARC
  5
195
  8
0
  6
CONTINUOUS
 62
     7
 10
524.78610368
 20
447.0561531879
 30
0.0
 40
0.6000000000000227
 50
270.0
 51
0.0
  0
ARC
  5
196
  8
0
  6
CONTINUOUS
 62
     7
 10
545.08610368
 20
465.7561531879
 30
0.0
 40
0.3000000000000682
 50
0.0
 51
90.0
  0
ARC
  5
197
  8
0
  6
CONTINUOUS
 62
     7
 10
525.68610368
 20
465.7561531879
 30
0.0
 40
0.2999999999999545
 50
90.0
 51
180.0
  0
LINE
  5
198
  8
0
  6
CONTINUOUS
 62
     7
 10
545.3861036502
 20
447.0561529572
 30
0.0
 11
545.3861036502
 21
465.7561537872
 31
0.0
  0
LINE
  5
199
  8
0
  6
CONTINUOUS
 62
     7
 10
525.3861040972
 20
452.6876752327
 30
0.0
 11
525.3861040972
 21
447.0561529572
 31
0.0
  0
LINE
  5
19A
  8
0
  6
CONTINUOUS
 62
     7
 10
525.3861040972
 20
465.7561537872
 30
0.0
 11
525.3861040972
 21
456.8458144615
 31
0.0
  0
ARC
  5
19B
  8
0
  6
CONTINUOUS
 62
     7
 10
617.4315004425
 20
630.1827778344
 30
0.0
 40
72.04539676251997
 50
14.0
 51
180.0
  0
ARC
  5
19C
  8
0
  6
CONTINUOUS
 62
     7
 10
617.4315004425
 20
630.1827778344
 30
0.0
 40
92.04539676251989
 50
14.0
 51
180.0
  0
LINE
  5
19D
  8
0
  6
CONTINUOUS
 62
     7
 10
545.3861036502
 20
466.8561537812
 30
0.0
 11
545.3861036502
 21
477.3561527083
 31
0.0
  0
LINE
  5
19E
  8
0
  6
CONTINUOUS
 62
     7
 10
545.3861036502
 20
486.3561523209
 30
0.0
 11
545.3861036502
 21
630.1827785621
 31
0.0
  0
LINE
  5
19F
  8
0
  6
CONTINUOUS
 62
     7
 10
525.3861040972
 20
630.1827785621
 30
0.0
 11
525.3861040972
 21
486.3561523209
 31
0.0
  0
LINE
  5
1A0
  8
0
  6
CONTINUOUS
 62
     7
 10
525.3861040972
 20
477.3561527083
 30
0.0
 11
525.3861040972
 21
466.8561537812
 31
0.0
  0
ARC
  5
1A1
  8
0
  6
CONTINUOUS
 62
     7
 10
525.68610368
 20
466.8561531879
 30
0.0
 40
0.3000000000000114
 50
180.0
 51
270.0
  0
ARC
  5
1A2
  8
0
  6
CONTINUOUS
 62
     7
 10
545.08610368
 20
466.8561531879
 30
0.0
 40
0.3000000000000682
 50
270.0
 51
0.0
  0
LINE
  5
1A3
  8
0
  6
CONTINUOUS
 62
     7
 10
714.9922863744
 20
619.3634924541
 30
0.0
 11
706.7427502178
 21
652.4505821119
 31
0.0
  0
LINE
  5
1A4
  8
0
  6
CONTINUOUS
 62
     7
 10
687.3368338846
 20
647.6121303687
 30
0.0
 11
695.5863849424
 21
614.5250556121
 31
0.0
  0
ARC
  5
1A5
  8
0
  6
CONTINUOUS
 62
     7
 10
695.9744959495
 20
614.6218212807
 30
0.0
 40
0.4000000000000681
 50
194.0
 51
281.9995981045
  0
ARC
  5
1A6
  8
0
  6
CONTINUOUS
 62
     7
 10
714.604173894
 20
619.2667216762
 30
0.0
 40
0.4000000000000506
 50
286.0004018955
 51
14.0
  0
LINE
  5
1A7
  8
0
  6
CONTINUOUS
 62
     7
 10
525.6861035876
 20
466.5561524282
 30
0.0
 11
525.6861035876
 21
466.0561514149
 31
0.0
  0
LINE
  5
1A8
  8
0
  6
CONTINUOUS
 62
     7
 10
545.0861036942
 20
466.0561514149
 30
0.0
 11
545.0861036942
 21
466.5561524282
 31
0.0
  0
LINE
  5
1A9
  8
0
  6
CONTINUOUS
 62
     7
 10
518.1861032896
 20
446.6061527903
 30
0.0
 11
518.1861032896
 21
446.4561530451
 31
0.0
  0
LINE
  5
1AA
  8
0
  6
CONTINUOUS
 62
     7
 10
523.9861027502
 20
446.4561530451
 30
0.0
 11
523.9861027502
 21
446.6061527903
 31
0.0
  0
ARC
  5
1AB
  8
0
  6
CONTINUOUS
 62
     7
 10
518.53610368
 20
446.6061531879
 30
0.0
 40
0.3499999999999659
 50
90.0
 51
180.0
  0
ARC
  5
1AC
  8
0
  6
CONTINUOUS
 62
     7
 10
523.63610368
 20
446.6061531879
 30
0.0
 40
0.3500000000000227
 50
0.0
 51
90.0
  0
LINE
  5
1AD
  8
0
  6
CONTINUOUS
 62
     7
 10
523.6361042761
 20
446.956153127
 30
0.0
 11
518.5361036264
 21
446.956153127
 31
0.0
  0
ARC
  5
1AE
  8
0
  6
CONTINUOUS
 62
     7
 10
523.28610368
 20
463.5677320769
 30
0.0
 40
0.4000000000000341
 50
0.0
 51
90.0
  0
ARC
  5
1AF
  8
0
  6
CONTINUOUS
 62
     7
 10
523.48610368
 20
458.9677320769
 30
0.0
 40
0.1999999999999886
 50
270.0
 51
0.0
  0
LINE
  5
1B0
  8
0
  6
CONTINUOUS
 62
     7
 10
523.6861032598
 20
458.9677323649
 30
0.0
 11
523.6861032598
 21
463.5677320013
 31
0.0
  0
ARC
  5
1B1
  8
0
  6
CONTINUOUS
 62
     7
 10
526.18610368
 20
456.2561531879
 30
0.0
 40
1.000000000000036
 50
143.5318605338
 51
180.0
  0
ARC
  5
1B2
  8
0
  6
CONTINUOUS
 62
     7
 10
526.18610368
 20
453.2561531879
 30
0.0
 40
1.0
 50
180.0
 51
215.6821596005
  0
LINE
  5
1B3
  8
0
  6
CONTINUOUS
 62
     7
 10
519.0861036234
 20
458.7677327047
 30
0.0
 11
519.0861036234
 21
446.956153127
 31
0.0
  0
LINE
  5
1B4
  8
0
  6
CONTINUOUS
 62
     7
 10
523.086104279
 20
446.956153127
 30
0.0
 11
523.086104279
 21
458.7677327047
 31
0.0
  0
LINE
  5
1B5
  8
0
  6
CONTINUOUS
 62
     7
 10
531.856498418
 20
486.3561523209
 30
0.0
 11
539.2564069178
 21
486.3561523209
 31
0.0
  0
LINE
  5
1B6
  8
0
  6
CONTINUOUS
 62
     7
 10
539.2564069178
 20
477.3561527083
 30
0.0
 11
531.856498418
 21
477.3561527083
 31
0.0
  0
LINE
  5
1B7
  8
0
  6
CONTINUOUS
 62
     7
 10
540.0563969878
 20
485.5561536799
 30
0.0
 11
540.0563969878
 21
478.1561513493
 31
0.0
  0
ARC
  5
1B8
  8
0
  6
CONTINUOUS
 62
     7
 10
539.2564013006
 20
478.1561483955
 30
0.0
 40
0.7999956871994378
 50
270.0004023086
 51
0.0002115539
  0
ARC
  5
1B9
  8
0
  6
CONTINUOUS
 62
     7
 10
539.2564028507
 20
485.5561581838
 30
0.0
 40
0.7999941371030582
 50
359.999677428
 51
89.9997087094
  0
LINE
  5
1BA
  8
0
  6
CONTINUOUS
 62
     7
 10
531.7434302695
 20
486.3561523209
 30
0.0
 11
531.856498418
 21
486.3561523209
 31
0.0
  0
LINE
  5
1BB
  8
0
  6
CONTINUOUS
 62
     7
 10
531.856498418
 20
477.3561527083
 30
0.0
 11
531.7434302695
 21
477.3561527083
 31
0.0
  0
LINE
  5
1BC
  8
0
  6
CONTINUOUS
 62
     7
 10
563.8861038886
 20
431.0561531285
 30
0.0
 11
506.8861038588
 21
431.0561531285
 31
0.0
  0
LINE
  5
1BD
  8
0
  6
CONTINUOUS
 62
     7
 10
507.6861024998
 20
439.0561530428
 30
0.0
 11
563.086103385
 21
439.0561530428
 31
0.0
  0
LINE
  5
1BE
  8
0
  6
CONTINUOUS
 62
     7
 10
553.2861032687
 20
446.2561533848
 30
0.0
 11
517.4861044787
 21
446.2561533848
 31
0.0
  0
LINE
  5
1BF
  8
0
  6
CONTINUOUS
 62
     7
 10
523.9046753548
 20
486.3561523209
 30
0.0
 11
531.7434302695
 21
486.3561523209
 31
0.0
  0
LINE
  5
1C0
  8
0
  6
CONTINUOUS
 62
     7
 10
531.7434302695
 20
477.3561527083
 30
0.0
 11
523.9046753548
 21
477.3561527083
 31
0.0
  0
LINE
  5
1C1
  8
0
  6
CONTINUOUS
 62
     7
 10
539.2564069178
 20
486.3561523209
 30
0.0
 11
546.9043904148
 21
486.3561523209
 31
0.0
  0
LINE
  5
1C2
  8
0
  6
CONTINUOUS
 62
     7
 10
546.9043904148
 20
477.3561527083
 30
0.0
 11
539.2564069178
 21
477.3561527083
 31
0.0
  0
LINE
  5
1C3
  8
0
  6
CONTINUOUS
 62
     7
 10
543.0861035992
 20
466.3561527679
 30
0.0
 11
527.6861989104
 21
466.3561527679
 31
0.0
  0
LINE
  5
1C4
  8
0
  6
CONTINUOUS
 62
     7
 10
527.6861048468
 20
466.0561514149
 30
0.0
 11
543.0861035992
 21
466.0561514149
 31
0.0
  0
LINE
  5
1C5
  8
0
  6
CONTINUOUS
 62
     7
 10
501.2049579226
 20
486.3561523209
 30
0.0
 11
523.9046753548
 21
486.3561523209
 31
0.0
  0
LINE
  5
1C6
  8
0
  6
CONTINUOUS
 62
     7
 10
523.9046753548
 20
477.3561527083
 30
0.0
 11
501.2049579226
 21
477.3561527083
 31
0.0
  0
LINE
  5
1C7
  8
0
  6
CONTINUOUS
 62
     7
 10
546.9043904148
 20
486.3561523209
 30
0.0
 11
569.6041097097
 21
486.3561523209
 31
0.0
  0
LINE
  5
1C8
  8
0
  6
CONTINUOUS
 62
     7
 10
569.6041097097
 20
477.3561527083
 30
0.0
 11
546.9043904148
 21
477.3561527083
 31
0.0
  0
ARC
  5
1C9
  8
0
  6
CONTINUOUS
 62
     7
 10
569.6041037504
 20
478.1561479954
 30
0.0
 40
0.7999952871499363
 50
270.0004268098
 51
0.0002402058
  0
LINE
  5
1CA
  8
0
  6
CONTINUOUS
 62
     7
 10
570.4040990375
 20
485.5561536799
 30
0.0
 11
570.4040990375
 21
478.1561513493
 31
0.0
  0
ARC
  5
1CB
  8
0
  6
CONTINUOUS
 62
     7
 10
569.6041053005
 20
485.5561585838
 30
0.0
 40
0.799993737055943
 50
359.9996487762
 51
89.9996842081
  0
ARC
  5
1CC
  8
0
  6
CONTINUOUS
 62
     7
 10
501.168101066
 20
478.1561450644
 30
0.0
 40
0.799992356087632
 50
179.9995498709
 51
269.9999165171
  0
LINE
  5
1CD
  8
0
  6
CONTINUOUS
 62
     7
 10
501.2049579226
 20
477.3561527083
 30
0.0
 11
501.1680999004
 21
477.3561527083
 31
0.0
  0
ARC
  5
1CE
  8
0
  6
CONTINUOUS
 62
     7
 10
501.1680995159
 20
485.5561615148
 30
0.0
 40
0.7999908060441477
 50
89.9999724671
 51
180.0005611449
  0
LINE
  5
1CF
  8
0
  6
CONTINUOUS
 62
     7
 10
501.1680999004
 20
486.3561523209
 30
0.0
 11
501.2049579226
 21
486.3561523209
 31
0.0
  0
LINE
  5
1D0
  8
0
  6
CONTINUOUS
 62
     7
 10
500.3681087099
 20
485.5561536799
 30
0.0
 11
500.3681087099
 21
478.1561513493
 31
0.0
  0
LINE
  5
1D1
  8
0
  6
CONTINUOUS
 62
     7
 10
517.4861044787
 20
446.4561530451
 30
0.0
 11
527.2861036636
 21
446.4561530451
 31
0.0
  0
LINE
  5
1D2
  8
0
  6
CONTINUOUS
 62
     7
 10
543.4861036182
 20
446.4561530451
 30
0.0
 11
553.2861032687
 21
446.4561530451
 31
0.0
  0
LINE
  5
1D3
  8
0
  6
CONTINUOUS
 62
     7
 10
525.6861035876
 20
466.0561514149
 30
0.0
 11
527.6861048468
 21
466.0561514149
 31
0.0
  0
LINE
  5
1D4
  8
0
  6
CONTINUOUS
 62
     7
 10
543.0861035992
 20
466.0561514149
 30
0.0
 11
545.0861036942
 21
466.0561514149
 31
0.0
  0
POLYLINE
  5
1D5
  8
0
  6
CONTINUOUS
 62
     7
 66
     1
 10
0.0
 20
0.0
 30
0.0
 70
   128
  0
VERTEX
  5
343
  8
0
  6
CONTINUOUS
 62
     7
 10
525.5659154781
 20
453.4697515021
 30
0.0
  0
VERTEX
  5
344
  8
0
  6
CONTINUOUS
 62
     7
 10
525.6375258021
 20
454.0546332548
 30
0.0
  0
VERTEX
  5
345
  8
0
  6
CONTINUOUS
 62
     7
 10
525.667260138
 20
454.7197018812
 30
0.0
  0
VERTEX
  5
346
  8
0
  6
CONTINUOUS
 62
     7
 10
525.6444743999
 20
455.3708304713
 30
0.0
  0
VERTEX
  5
347
  8
0
  6
CONTINUOUS
 62
     7
 10
525.5798694842
 20
455.9522141764
 30
0.0
  0
VERTEX
  5
348
  8
0
  6
CONTINUOUS
 62
     7
 10
525.4962786265
 20
456.4158842961
 30
0.0
  0
VERTEX
  5
349
  8
0
  6
CONTINUOUS
 62
     7
 10
525.4220037885
 20
456.7271267126
 30
0.0
  0
VERTEX
  5
34A
  8
0
  6
CONTINUOUS
 62
     7
 10
525.3863527604
 20
456.8552990506
 30
0.0
  0
VERTEX
  5
34B
  8
0
  6
CONTINUOUS
 62
     7
 10
525.3889986478
 20
456.8458144615
 30
0.0
  0
SEQEND
  5
44F
  8
0
  6
CONTINUOUS
 62
     7
  0
ARC
  5
1D6
  8
0
  6
CONTINUOUS
 62
     7
 10
519.0653548143
 20
454.4791811195
 30
0.0
 40
6.578467685967643
 50
344.1971117998
 51
351.1734071054
  0
LINE
  5
1D7
  8
0
  6
CONTINUOUS
 62
     7
 10
545.0861036942
 20
466.5561524282
 30
0.0
 11
543.3689464979
 21
466.5561524282
 31
0.0
  0
LINE
  5
1D8
  8
0
  6
CONTINUOUS
 62
     7
 10
527.4032612495
 20
466.5561524282
 30
0.0
 11
525.6861035876
 21
466.5561524282
 31
0.0
  0
POLYLINE
  5
1D9
  8
0
  6
CONTINUOUS
 62
     7
 66
     1
 10
0.0
 20
0.0
 30
0.0
 70
   128
  0
VERTEX
  5
34C
  8
0
  6
CONTINUOUS
 62
     7
 10
696.0576639675
 20
614.2305639634
 30
0.0
  0
VERTEX
  5
34D
  8
0
  6
CONTINUOUS
 62
     7
 10
696.2368951343
 20
614.2752525459
 30
0.0
  0
VERTEX
  5
34E
  8
0
  6
CONTINUOUS
 62
     7
 10
696.7677341007
 20
614.4076046596
 30
0.0
  0
VERTEX
  5
34F
  8
0
  6
CONTINUOUS
 62
     7
 10
697.6297811769
 20
614.6225390086
 30
0.0
  0
VERTEX
  5
350
  8
0
  6
CONTINUOUS
 62
     7
 10
698.7898812793
 20
614.9117854486
 30
0.0
  0
VERTEX
  5
351
  8
0
  6
CONTINUOUS
 62
     7
 10
700.2034650348
 20
615.2642277131
 30
0.0
  0
VERTEX
  5
352
  8
0
  6
CONTINUOUS
 62
     7
 10
701.816232612
 20
615.6663355479
 30
0.0
  0
VERTEX
  5
353
  8
0
  6
CONTINUOUS
 62
     7
 10
703.566165378
 20
616.1026415477
 30
0.0
  0
VERTEX
  5
354
  8
0
  6
CONTINUOUS
 62
     7
 10
705.3860441946
 20
616.5563968072
 30
0.0
  0
VERTEX
  5
355
  8
0
  6
CONTINUOUS
 62
     7
 10
707.2059230112
 20
617.0101371656
 30
0.0
  0
VERTEX
  5
356
  8
0
  6
CONTINUOUS
 62
     7
 10
708.9558706783
 20
617.4464431653
 30
0.0
  0
VERTEX
  5
357
  8
0
  6
CONTINUOUS
 62
     7
 10
710.5686233543
 20
617.8485510001
 30
0.0
  0
VERTEX
  5
358
  8
0
  6
CONTINUOUS
 62
     7
 10
711.9822071098
 20
618.2009932647
 30
0.0
  0
VERTEX
  5
359
  8
0
  6
CONTINUOUS
 62
     7
 10
713.1423221134
 20
618.4902397046
 30
0.0
  0
VERTEX
  5
35A
  8
0
  6
CONTINUOUS
 62
     7
 10
714.0043542885
 20
618.7051740537
 30
0.0
  0
VERTEX
  5
35B
  8
0
  6
CONTINUOUS
 62
     7
 10
714.5351932548
 20
618.8375261674
 30
0.0
  0
VERTEX
  5
35C
  8
0
  6
CONTINUOUS
 62
     7
 10
714.7144244217
 20
618.8822147498
 30
0.0
  0
VERTEX
  5
35D
  8
0
  6
CONTINUOUS
 62
     7
 10
714.7144244217
 20
618.8822147498
 30
0.0
  0
SEQEND
  5
450
  8
0
  6
CONTINUOUS
 62
     7
  0
LINE
  5
1DA
  8
0
  6
CONTINUOUS
 62
     7
 10
497.5861028932
 20
458.7677327047
 30
0.0
 11
497.386103233
 21
458.7677327047
 31
0.0
  0
ARC
  5
1DB
  8
0
  6
CONTINUOUS
 62
     7
 10
497.38610368
 20
458.9677320769
 30
0.0
 40
0.1999999999999886
 50
180.0
 51
270.0
  0
LINE
  5
1DC
  8
0
  6
CONTINUOUS
 62
     7
 10
497.1861035727
 20
458.9677323649
 30
0.0
 11
497.1861035727
 21
463.5677320013
 31
0.0
  0
ARC
  5
1DD
  8
0
  6
CONTINUOUS
 62
     7
 10
497.58610368
 20
463.5677320769
 30
0.0
 40
0.4000000000000341
 50
90.0
 51
180.0
  0
LINE
  5
1DE
  8
0
  6
CONTINUOUS
 62
     7
 10
497.5861028932
 20
463.9677313218
 30
0.0
 11
521.0861039512
 21
463.9677313218
 31
0.0
  0
LINE
  5
1DF
  8
0
  6
CONTINUOUS
 62
     7
 10
521.0861039512
 20
458.7677327047
 30
0.0
 11
497.5861028932
 21
458.7677327047
 31
0.0
  0
LINE
  5
1E0
  8
0
  6
CONTINUOUS
 62
     7
 10
521.0861039512
 20
463.9677313218
 30
0.0
 11
523.2861039393
 21
463.9677313218
 31
0.0
  0
LINE
  5
1E1
  8
0
  6
CONTINUOUS
 62
     7
 10
523.4861035995
 20
458.7677327047
 30
0.0
 11
521.0861039512
 21
458.7677327047
 31
0.0
  0
LINE
  5
1E2
  8
0
  6
CONTINUOUS
 62
     7
 10
525.1861035057
 20
456.2561531613
 30
0.0
 11
525.1861035057
 21
453.2561526696
 31
0.0
  0
ARC
  5
1E3
  8
0
  6
CONTINUOUS
 62
     8
 10
531.8565043774
 20
478.1561479954
 30
0.0
 40
0.7999952871499363
 50
179.9997597942
 51
269.9995731902
  0
LINE
  5
1E4
  8
0
  6
CONTINUOUS
 62
     8
 10
531.8604835473
 20
478.1561513493
 30
0.0
 11
531.0565090902
 21
478.1561513493
 31
0.0
  0
ARC
  5
1E5
  8
0
  6
CONTINUOUS
 62
     8
 10
491.7083070657
 20
477.9561569613
 30
0.0
 40
40.15267455556236
 50
359.1437932518
 51
0.2853827763
  0
LINE
  5
1E6
  8
0
  6
CONTINUOUS
 62
     8
 10
531.8604835473
 20
485.5561536799
 30
0.0
 11
531.8604835473
 21
478.1561513493
 31
0.0
  0
LINE
  5
1E7
  8
0
  6
CONTINUOUS
 62
     8
 10
531.0565090902
 20
478.1561513493
 30
0.0
 11
531.0565090902
 21
485.5561536799
 31
0.0
  0
LINE
  5
1E8
  8
0
  6
CONTINUOUS
 62
     8
 10
531.8604835473
 20
485.5561536799
 30
0.0
 11
531.0565090902
 21
485.5561536799
 31
0.0
  0
ARC
  5
1E9
  8
0
  6
CONTINUOUS
 62
     8
 10
531.8565028273
 20
485.5561585838
 30
0.0
 40
0.7999937370559804
 50
90.0003157919
 51
180.0003512238
  0
ARC
  5
1EA
  8
0
  6
CONTINUOUS
 62
     8
 10
491.7085250893
 20
485.7561491539
 30
0.0
 40
40.15245654011873
 50
359.7146141244
 51
0.8562098476
  0
LINE
  5
1EB
  8
0
  6
CONTINUOUS
 62
     8
 10
539.2603916979
 20
485.5561536799
 30
0.0
 11
531.8604835473
 21
485.5561536799
 31
0.0
  0
ARC
  5
1EC
  8
0
  6
CONTINUOUS
 62
     8
 10
499.1048825724
 20
485.7561489951
 30
0.0
 40
40.15600716270502
 50
359.7146395853
 51
0.856134362
  0
LINE
  5
1ED
  8
0
  6
CONTINUOUS
 62
     8
 10
531.8604835473
 20
478.1561513493
 30
0.0
 11
539.2603916979
 21
478.1561513493
 31
0.0
  0
ARC
  5
1EE
  8
0
  6
CONTINUOUS
 62
     8
 10
499.1046646448
 20
477.9561571196
 30
0.0
 40
40.15622508222197
 50
359.1438687355
 51
0.2853573172
  0
LINE
  5
1EF
  8
0
  6
CONTINUOUS
 62
     8
 10
539.2603916979
 20
478.1561513493
 30
0.0
 11
539.2603916979
 21
485.5561536799
 31
0.0
  0
LINE
  5
1F0
  8
0
  6
CONTINUOUS
 62
     8
 10
540.0563969878
 20
478.1561513493
 30
0.0
 11
539.2603916979
 21
478.1561513493
 31
0.0
  0
LINE
  5
1F1
  8
0
  6
CONTINUOUS
 62
     8
 10
540.0563969878
 20
485.5561536799
 30
0.0
 11
539.2603916979
 21
485.5561536799
 31
0.0
  0
LINE
  5
1F2
  8
0
  6
CONTINUOUS
 62
     8
 10
531.0565090902
 20
485.5561536799
 30
0.0
 11
530.9434409418
 21
485.5561536799
 31
0.0
  0
ARC
  5
1F3
  8
0
  6
CONTINUOUS
 62
     8
 10
531.7434346788
 20
485.5561585838
 30
0.0
 40
0.7999937370559804
 50
90.0003157919
 51
180.0003512238
  0
ARC
  5
1F4
  8
0
  6
CONTINUOUS
 62
     8
 10
531.7434362289
 20
478.1561479954
 30
0.0
 40
0.7999952871499363
 50
179.9997597942
 51
269.9995731902
  0
LINE
  5
1F5
  8
0
  6
CONTINUOUS
 62
     8
 10
530.9434409418
 20
478.1561513493
 30
0.0
 11
531.0565090902
 21
478.1561513493
 31
0.0
  0
LINE
  5
1F6
  8
0
  6
CONTINUOUS
 62
     8
 10
530.9434409418
 20
485.5561536799
 30
0.0
 11
530.9434409418
 21
478.1561513493
 31
0.0
  0
LINE
  5
1F7
  8
0
  6
CONTINUOUS
 62
     8
 10
530.9434409418
 20
485.5561536799
 30
0.0
 11
523.9086614155
 21
485.5561536799
 31
0.0
  0
ARC
  5
1F8
  8
0
  6
CONTINUOUS
 62
     8
 10
483.7601526352
 20
485.7561196038
 30
0.0
 40
40.14900675790349
 50
359.7146317735
 51
0.8563255975
  0
ARC
  5
1F9
  8
0
  6
CONTINUOUS
 62
     8
 10
483.7599346935
 20
477.9561865113
 30
0.0
 40
40.14922469155444
 50
359.1436775012
 51
0.2853651278
  0
LINE
  5
1FA
  8
0
  6
CONTINUOUS
 62
     8
 10
523.9086614155
 20
478.1561513493
 30
0.0
 11
530.9434409418
 21
478.1561513493
 31
0.0
  0
LINE
  5
1FB
  8
0
  6
CONTINUOUS
 62
     8
 10
523.9086614155
 20
485.5561536799
 30
0.0
 11
523.9086614155
 21
478.1561513493
 31
0.0
  0
ARC
  5
1FC
  8
0
  6
CONTINUOUS
 62
     8
 10
506.7503020457
 20
485.7561186924
 30
0.0
 40
40.15857135299399
 50
359.7147010408
 51
0.8561229312
  0
LINE
  5
1FD
  8
0
  6
CONTINUOUS
 62
     8
 10
546.9083755441
 20
485.5561536799
 30
0.0
 11
540.0563969878
 21
485.5561536799
 31
0.0
  0
LINE
  5
1FE
  8
0
  6
CONTINUOUS
 62
     8
 10
540.0563969878
 20
478.1561513493
 30
0.0
 11
546.9083755441
 21
478.1561513493
 31
0.0
  0
ARC
  5
1FF
  8
0
  6
CONTINUOUS
 62
     8
 10
506.7500840221
 20
477.9561874229
 30
0.0
 40
40.15878936844108
 50
359.1438801672
 51
0.2852958608
  0
LINE
  5
200
  8
0
  6
CONTINUOUS
 62
     8
 10
546.9083755441
 20
485.5561536799
 30
0.0
 11
546.9083755441
 21
478.1561513493
 31
0.0
  0
LINE
  5
201
  8
0
  6
CONTINUOUS
 62
     8
 10
543.3860043694
 20
476.9561533878
 30
0.0
 11
527.3861034937
 21
476.9561533878
 31
0.0
  0
ARC
  5
202
  8
0
  6
CONTINUOUS
 62
     8
 10
501.2049634002
 20
485.5561556528
 30
0.0
 40
0.7999966680765055
 50
90.0003923087
 51
180.0001413032
  0
ARC
  5
203
  8
0
  6
CONTINUOUS
 62
     8
 10
461.00445454
 20
485.7558406754
 30
0.0
 40
40.20498534120085
 50
359.7154266067
 51
0.8555307643
  0
LINE
  5
204
  8
0
  6
CONTINUOUS
 62
     8
 10
501.2089439832
 20
485.5561536799
 30
0.0
 11
500.4049667321
 21
485.5561536799
 31
0.0
  0
LINE
  5
205
  8
0
  6
CONTINUOUS
 62
     8
 10
501.2089439832
 20
485.5561536799
 30
0.0
 11
501.2089439832
 21
478.1561513493
 31
0.0
  0
LINE
  5
206
  8
0
  6
CONTINUOUS
 62
     8
 10
501.2089439832
 20
478.1561513493
 30
0.0
 11
500.4049667321
 21
478.1561513493
 31
0.0
  0
LINE
  5
207
  8
0
  6
CONTINUOUS
 62
     8
 10
500.4049667321
 20
478.1561513493
 30
0.0
 11
500.4049667321
 21
485.5561536799
 31
0.0
  0
ARC
  5
208
  8
0
  6
CONTINUOUS
 62
     8
 10
501.2049649504
 20
478.1561509265
 30
0.0
 40
0.7999982182118381
 50
179.9999697167
 51
269.9994966713
  0
ARC
  5
209
  8
0
  6
CONTINUOUS
 62
     8
 10
461.0042357863
 20
477.9564654437
 30
0.0
 40
40.20520408676722
 50
359.1444723373
 51
0.2845702917
  0
LINE
  5
20A
  8
0
  6
CONTINUOUS
 62
     8
 10
523.9086614155
 20
485.5561536799
 30
0.0
 11
501.2089439832
 21
485.5561536799
 31
0.0
  0
LINE
  5
20B
  8
0
  6
CONTINUOUS
 62
     8
 10
501.2089439832
 20
478.1561513493
 30
0.0
 11
523.9086614155
 21
478.1561513493
 31
0.0
  0
ARC
  5
20C
  8
0
  6
CONTINUOUS
 62
     8
 10
529.4282039032
 20
485.7560567862
 30
0.0
 40
40.18038728072022
 50
359.7149442221
 51
0.8557463508
  0
LINE
  5
20D
  8
0
  6
CONTINUOUS
 62
     8
 10
569.6080939077
 20
485.5561536799
 30
0.0
 11
546.9083755441
 21
485.5561536799
 31
0.0
  0
LINE
  5
20E
  8
0
  6
CONTINUOUS
 62
     8
 10
546.9083755441
 20
478.1561513493
 30
0.0
 11
569.6080939077
 21
478.1561513493
 31
0.0
  0
ARC
  5
20F
  8
0
  6
CONTINUOUS
 62
     8
 10
529.4279857978
 20
477.9562493293
 30
0.0
 40
40.18060537802802
 50
359.1442567454
 51
0.2850526817
  0
LINE
  5
210
  8
0
  6
CONTINUOUS
 62
     8
 10
569.6080939077
 20
478.1561513493
 30
0.0
 11
569.6080939077
 21
485.5561536799
 31
0.0
  0
LINE
  5
211
  8
0
  6
CONTINUOUS
 62
     8
 10
570.4040990375
 20
478.1561513493
 30
0.0
 11
569.6080939077
 21
478.1561513493
 31
0.0
  0
LINE
  5
212
  8
0
  6
CONTINUOUS
 62
     8
 10
570.4040990375
 20
485.5561536799
 30
0.0
 11
569.6080939077
 21
485.5561536799
 31
0.0
  0
LINE
  5
213
  8
0
  6
CONTINUOUS
 62
     8
 10
500.3681087099
 20
478.1561513493
 30
0.0
 11
500.4049667321
 21
478.1561513493
 31
0.0
  0
LINE
  5
214
  8
0
  6
CONTINUOUS
 62
     8
 10
500.4049667321
 20
485.5561536799
 30
0.0
 11
500.3681087099
 21
485.5561536799
 31
0.0
  0
LINE
  5
215
  8
0
  6
CONTINUOUS
 62
     8
 10
553.8861041121
 20
445.856153133
 30
0.0
 11
553.8517895319
 21
445.856153133
 31
0.0
  0
LINE
  5
216
  8
0
  6
CONTINUOUS
 62
     8
 10
516.9204191469
 20
445.856153133
 30
0.0
 11
516.8861036353
 21
445.856153133
 31
0.0
  0
POLYLINE
  5
217
  8
0
  6
CONTINUOUS
 62
     8
 66
     1
 10
0.0
 20
0.0
 30
0.0
 70
   128
  0
VERTEX
  5
35E
  8
0
  6
CONTINUOUS
 62
     8
 10
695.5863849424
 20
614.5250556121
 30
0.0
  0
VERTEX
  5
35F
  8
0
  6
CONTINUOUS
 62
     8
 10
695.7617269062
 20
614.5687756191
 30
0.0
  0
VERTEX
  5
360
  8
0
  6
CONTINUOUS
 62
     8
 10
696.281419804
 20
614.6983412156
 30
0.0
  0
VERTEX
  5
361
  8
0
  6
CONTINUOUS
 62
     8
 10
697.1266881727
 20
614.9090883384
 30
0.0
  0
VERTEX
  5
362
  8
0
  6
CONTINUOUS
 62
     8
 10
698.2669697307
 20
615.193402494
 30
0.0
  0
VERTEX
  5
363
  8
0
  6
CONTINUOUS
 62
     8
 10
699.6610627674
 20
615.54098698
 30
0.0
  0
VERTEX
  5
364
  8
0
  6
CONTINUOUS
 62
     8
 10
701.2585864567
 20
615.9392950187
 30
0.0
  0
VERTEX
  5
365
  8
0
  6
CONTINUOUS
 62
     8
 10
703.0017689966
 20
616.3739171872
 30
0.0
  0
VERTEX
  5
366
  8
0
  6
CONTINUOUS
 62
     8
 10
704.8276529812
 20
616.8291625629
 30
0.0
  0
VERTEX
  5
367
  8
0
  6
CONTINUOUS
 62
     8
 10
706.6702113651
 20
617.2885653625
 30
0.0
  0
VERTEX
  5
368
  8
0
  6
CONTINUOUS
 62
     8
 10
708.4628657602
 20
617.7355256925
 30
0.0
  0
VERTEX
  5
369
  8
0
  6
CONTINUOUS
 62
     8
 10
710.1408110164
 20
618.153875793
 30
0.0
  0
VERTEX
  5
36A
  8
0
  6
CONTINUOUS
 62
     8
 10
711.6434143089
 20
618.5285207877
 30
0.0
  0
VERTEX
  5
36B
  8
0
  6
CONTINUOUS
 62
     8
 10
712.9163758062
 20
618.84590062
 30
0.0
  0
VERTEX
  5
36C
  8
0
  6
CONTINUOUS
 62
     8
 10
713.9136658214
 20
619.0945562969
 30
0.0
  0
VERTEX
  5
36D
  8
0
  6
CONTINUOUS
 62
     8
 10
714.5992533468
 20
619.2655024181
 30
0.0
  0
VERTEX
  5
36E
  8
0
  6
CONTINUOUS
 62
     8
 10
714.9483577513
 20
619.3525401006
 30
0.0
  0
VERTEX
  5
36F
  8
0
  6
CONTINUOUS
 62
     8
 10
714.9922863744
 20
619.3634924541
 30
0.0
  0
SEQEND
  5
451
  8
0
  6
CONTINUOUS
 62
     8
  0
LINE
  5
218
  8
0
  6
CONTINUOUS
 62
     8
 10
497.1861035727
 20
458.9677323649
 30
0.0
 11
497.5861028932
 21
458.9677323649
 31
0.0
  0
LINE
  5
219
  8
0
  6
CONTINUOUS
 62
     8
 10
497.5861028932
 20
458.7677327047
 30
0.0
 11
497.5861028932
 21
458.9677323649
 31
0.0
  0
LINE
  5
21A
  8
0
  6
CONTINUOUS
 62
     8
 10
497.1861035727
 20
463.5677320013
 30
0.0
 11
497.5861028932
 21
463.5677320013
 31
0.0
  0
LINE
  5
21B
  8
0
  6
CONTINUOUS
 62
     8
 10
497.5861028932
 20
463.5677320013
 30
0.0
 11
497.5861028932
 21
458.9677323649
 31
0.0
  0
LINE
  5
21C
  8
0
  6
CONTINUOUS
 62
     8
 10
497.5861028932
 20
463.9677313218
 30
0.0
 11
497.5861028932
 21
463.5677320013
 31
0.0
  0
LINE
  5
21D
  8
0
  6
CONTINUOUS
 62
     8
 10
521.0861039512
 20
463.9677313218
 30
0.0
 11
521.0861039512
 21
463.5677320013
 31
0.0
  0
LINE
  5
21E
  8
0
  6
CONTINUOUS
 62
     8
 10
521.0861039512
 20
463.5677320013
 30
0.0
 11
497.5861028932
 21
463.5677320013
 31
0.0
  0
LINE
  5
21F
  8
0
  6
CONTINUOUS
 62
     8
 10
521.0861039512
 20
458.9677323649
 30
0.0
 11
521.0861039512
 21
463.5677320013
 31
0.0
  0
LINE
  5
220
  8
0
  6
CONTINUOUS
 62
     8
 10
497.5861028932
 20
458.9677323649
 30
0.0
 11
521.0861039512
 21
458.9677323649
 31
0.0
  0
LINE
  5
221
  8
0
  6
CONTINUOUS
 62
     8
 10
521.0861039512
 20
458.9677323649
 30
0.0
 11
521.0861039512
 21
458.7677327047
 31
0.0
  0
LINE
  5
222
  8
0
  6
CONTINUOUS
 62
     8
 10
523.6861032598
 20
463.5677320013
 30
0.0
 11
521.0861039512
 21
463.5677320013
 31
0.0
  0
LINE
  5
223
  8
0
  6
CONTINUOUS
 62
     8
 10
521.0861039512
 20
458.9677323649
 30
0.0
 11
523.6861032598
 21
458.9677323649
 31
0.0
  0
LINE
  5
224
  8
0
  6
CONTINUOUS
 62
     7
 10
256.4451307343
 20
302.6173191643
 30
0.0
 11
256.4451307343
 21
140.9636235362
 31
0.0
  0
LINE
  5
225
  8
0
  6
CONTINUOUS
 62
     7
 10
276.4451302873
 20
140.9636235362
 30
0.0
 11
276.4451302873
 21
302.6173191643
 31
0.0
  0
LINE
  5
226
  8
0
  6
CONTINUOUS
 62
     7
 10
276.4451302873
 20
132.7140873795
 30
0.0
 11
276.4451302873
 21
140.9636235362
 31
0.0
  0
LINE
  5
227
  8
0
  6
CONTINUOUS
 62
     7
 10
256.4451307343
 20
140.9636235362
 30
0.0
 11
256.4451307343
 21
132.7140873795
 31
0.0
  0
ARC
  5
228
  8
0
  6
CONTINUOUS
 62
     7
 10
267.9451305108
 20
311.817319358
 30
0.0
 40
1.000000000000012
 50
32.4542311753
 51
90.0
  0
ARC
  5
229
  8
0
  6
CONTINUOUS
 62
     7
 10
264.9451305108
 20
311.817319358
 30
0.0
 40
1.0
 50
90.0
 51
148.5059875693
  0
ARC
  5
22A
  8
0
  6
CONTINUOUS
 62
     7
 10
169.9727739608
 20
336.8353246881
 30
0.0
 40
0.8000000000000338
 50
0.2853896719
 51
90.2853896719
  0
LINE
  5
22B
  8
0
  6
CONTINUOUS
 62
     7
 10
162.5688825088
 20
337.5984563058
 30
0.0
 11
169.968791707
 21
337.635314328
 31
0.0
  0
ARC
  5
22C
  8
0
  6
CONTINUOUS
 62
     7
 10
162.5728657586
 20
336.7984655188
 30
0.0
 40
0.7999999999999768
 50
90.2853896719
 51
180.2853896719
  0
LINE
  5
22D
  8
0
  6
CONTINUOUS
 62
     7
 10
170.7727615075
 20
336.8393091982
 30
0.0
 11
170.8858315187
 21
314.139591766
 31
0.0
  0
LINE
  5
22E
  8
0
  6
CONTINUOUS
 62
     7
 10
161.8859473901
 20
314.0947616225
 30
0.0
 11
161.7728773789
 21
336.7944790548
 31
0.0
  0
ARC
  5
22F
  8
0
  6
CONTINUOUS
 62
     7
 10
177.8857451934
 20
314.1744578408
 30
0.0
 40
7.000000000000027
 50
180.2853896719
 51
270.2853896719
  0
ARC
  5
230
  8
0
  6
CONTINUOUS
 62
     7
 10
154.8860305108
 20
314.0598955578
 30
0.0
 40
7.000000000000027
 50
270.2853896719
 51
0.2853896719
  0
LINE
  5
231
  8
0
  6
CONTINUOUS
 62
     7
 10
177.9206101136
 20
307.1745450175
 30
0.0
 11
200.6203312712
 21
307.2876122346
 31
0.0
  0
ARC
  5
232
  8
0
  6
CONTINUOUS
 62
     7
 10
200.6243151545
 20
306.487622593
 30
0.0
 40
0.8000000000000336
 50
0.2853896719
 51
90.2853896719
  0
LINE
  5
233
  8
0
  6
CONTINUOUS
 62
     7
 10
131.4620379643
 20
298.7430313401
 30
0.0
 11
131.4251724916
 21
306.1429394907
 31
0.0
  0
LINE
  5
234
  8
0
  6
CONTINUOUS
 62
     7
 10
201.4243085222
 20
306.4916071048
 30
0.0
 11
201.4611665444
 21
299.0916991871
 31
0.0
  0
ARC
  5
235
  8
0
  6
CONTINUOUS
 62
     7
 10
132.2251636635
 20
306.1469243251
 30
0.0
 40
0.7999999999999778
 50
90.2853896719
 51
180.2853896719
  0
LINE
  5
236
  8
0
  6
CONTINUOUS
 62
     7
 10
132.2211776214
 20
306.9469139477
 30
0.0
 11
154.9208987789
 21
307.0599820962
 31
0.0
  0
ARC
  5
237
  8
0
  6
CONTINUOUS
 62
     7
 10
155.0005927939
 20
291.0601808751
 30
0.0
 40
7.000000000000083
 50
0.2853896719
 51
90.2853896719
  0
ARC
  5
238
  8
0
  6
CONTINUOUS
 62
     7
 10
132.2620228328
 20
298.7470161229
 30
0.0
 40
0.8000000000001471
 50
180.2853896719
 51
270.2853896719
  0
LINE
  5
239
  8
0
  6
CONTINUOUS
 62
     7
 10
154.9657289224
 20
298.0600940386
 30
0.0
 11
132.2660003142
 21
297.9470260502
 31
0.0
  0
ARC
  5
23A
  8
0
  6
CONTINUOUS
 62
     7
 10
200.6611743238
 20
299.0877143908
 30
0.0
 40
0.7999999999999768
 50
270.2853896719
 51
0.2853896719
  0
LINE
  5
23B
  8
0
  6
CONTINUOUS
 62
     7
 10
200.6651614146
 20
298.287724308
 30
0.0
 11
177.9654402571
 21
298.1746563232
 31
0.0
  0
ARC
  5
23C
  8
0
  6
CONTINUOUS
 62
     7
 10
178.0003074765
 20
291.1747431582
 30
0.0
 40
7.000000000000083
 50
90.2853896719
 51
180.2853896719
  0
LINE
  5
23D
  8
0
  6
CONTINUOUS
 62
     7
 10
171.0003916459
 20
291.1398762403
 30
0.0
 11
171.1134616571
 21
268.4401574111
 31
0.0
  0
LINE
  5
23E
  8
0
  6
CONTINUOUS
 62
     7
 10
162.1135775285
 20
268.3953291303
 30
0.0
 11
162.0005075173
 21
291.0950474938
 31
0.0
  0
LINE
  5
23F
  8
0
  6
CONTINUOUS
 62
     7
 10
170.3174565272
 20
267.6361838853
 30
0.0
 11
162.917547329
 21
267.5993240005
 31
0.0
  0
ARC
  5
240
  8
0
  6
CONTINUOUS
 62
     7
 10
170.3134722287
 20
268.4361731971
 30
0.0
 40
0.8000000000000625
 50
270.2853896719
 51
0.2853896719
  0
ARC
  5
241
  8
0
  6
CONTINUOUS
 62
     7
 10
162.9135640265
 20
268.3993140278
 30
0.0
 40
0.8000000000001759
 50
180.2853896719
 51
270.2853896719
  0
ARC
  5
242
  8
0
  6
CONTINUOUS
 62
     7
 10
166.4431689937
 20
302.617319358
 30
0.0
 40
18.50000000000005
 50
194.3634282757
 51
256.2073510681
  0
ARC
  5
243
  8
0
  6
CONTINUOUS
 62
     7
 10
166.4431689937
 20
302.617319358
 30
0.0
 40
18.5
 50
104.3634282757
 51
166.2073510681
  0
ARC
  5
244
  8
0
  6
CONTINUOUS
 62
     7
 10
166.4431689937
 20
302.617319358
 30
0.0
 40
18.5
 50
14.3634282757
 51
76.2073510681
  0
ARC
  5
245
  8
0
  6
CONTINUOUS
 62
     7
 10
166.4431689937
 20
302.617319358
 30
0.0
 40
18.49999999999999
 50
284.3634282757
 51
346.2073510681
  0
ARC
  5
246
  8
0
  6
CONTINUOUS
 62
     7
 10
166.4431689937
 20
302.617319358
 30
0.0
 40
28.50000000000005
 50
189.3701099593
 51
261.2006693845
  0
ARC
  5
247
  8
0
  6
CONTINUOUS
 62
     7
 10
166.4431689937
 20
302.617319358
 30
0.0
 40
28.50000000000004
 50
99.3701099593
 51
171.2006693845
  0
ARC
  5
248
  8
0
  6
CONTINUOUS
 62
     7
 10
166.4431689937
 20
302.617319358
 30
0.0
 40
28.5
 50
9.3701099593
 51
81.2006693845
  0
ARC
  5
249
  8
0
  6
CONTINUOUS
 62
     7
 10
166.4431689937
 20
302.617319358
 30
0.0
 40
28.5
 50
279.3701099593
 51
351.2006693845
  0
LINE
  5
24A
  8
0
  6
CONTINUOUS
 62
     7
 10
362.6670841413
 20
337.6173211759
 30
0.0
 11
370.0670827465
 21
337.6173211759
 31
0.0
  0
ARC
  5
24B
  8
0
  6
CONTINUOUS
 62
     7
 10
370.0670832771
 20
336.817319358
 30
0.0
 40
0.8000000000000682
 50
0.0
 51
90.0
  0
ARC
  5
24C
  8
0
  6
CONTINUOUS
 62
     7
 10
362.6670832771
 20
336.817319358
 30
0.0
 40
0.8000000000000682
 50
90.0
 51
180.0
  0
LINE
  5
24D
  8
0
  6
CONTINUOUS
 62
     7
 10
361.8670855002
 20
314.1173201179
 30
0.0
 11
361.8670855002
 21
336.8173188096
 31
0.0
  0
LINE
  5
24E
  8
0
  6
CONTINUOUS
 62
     7
 10
370.8670813875
 20
336.8173188096
 30
0.0
 11
370.8670813875
 21
314.1173201179
 31
0.0
  0
ARC
  5
24F
  8
0
  6
CONTINUOUS
 62
     7
 10
377.8670832771
 20
314.117319358
 30
0.0
 40
7.0
 50
180.0
 51
270.0
  0
ARC
  5
250
  8
0
  6
CONTINUOUS
 62
     7
 10
354.8670832771
 20
314.117319358
 30
0.0
 40
7.0
 50
270.0
 51
0.0
  0
LINE
  5
251
  8
0
  6
CONTINUOUS
 62
     7
 10
332.1670819359
 20
307.1173189705
 30
0.0
 11
354.8670862155
 21
307.1173189705
 31
0.0
  0
ARC
  5
252
  8
0
  6
CONTINUOUS
 62
     7
 10
400.5670832771
 20
306.317319358
 30
0.0
 40
0.8000000000000114
 50
0.0
 51
90.0
  0
LINE
  5
253
  8
0
  6
CONTINUOUS
 62
     7
 10
377.8670806723
 20
307.1173189705
 30
0.0
 11
400.5670849519
 21
307.1173189705
 31
0.0
  0
ARC
  5
254
  8
0
  6
CONTINUOUS
 62
     7
 10
332.1670832771
 20
306.317319358
 30
0.0
 40
0.8000000000000114
 50
90.0
 51
180.0
  0
LINE
  5
255
  8
0
  6
CONTINUOUS
 62
     7
 10
331.3670832949
 20
298.9173193378
 30
0.0
 11
331.3670832949
 21
306.3173193982
 31
0.0
  0
LINE
  5
256
  8
0
  6
CONTINUOUS
 62
     7
 10
401.3670835929
 20
306.3173193982
 30
0.0
 11
401.3670835929
 21
298.9173193378
 31
0.0
  0
ARC
  5
257
  8
0
  6
CONTINUOUS
 62
     7
 10
400.5670832771
 20
298.917319358
 30
0.0
 40
0.8000000000000114
 50
270.0
 51
0.0
  0
LINE
  5
258
  8
0
  6
CONTINUOUS
 62
     7
 10
354.8670862155
 20
298.117319358
 30
0.0
 11
332.1670819359
 21
298.117319358
 31
0.0
  0
LINE
  5
259
  8
0
  6
CONTINUOUS
 62
     7
 10
400.5670849519
 20
298.117319358
 30
0.0
 11
377.8670806723
 21
298.117319358
 31
0.0
  0
ARC
  5
25A
  8
0
  6
CONTINUOUS
 62
     7
 10
332.1670832771
 20
298.917319358
 30
0.0
 40
0.8000000000000114
 50
180.0
 51
270.0
  0
ARC
  5
25B
  8
0
  6
CONTINUOUS
 62
     7
 10
377.8670832771
 20
291.117319358
 30
0.0
 40
7.0
 50
90.0
 51
180.0
  0
ARC
  5
25C
  8
0
  6
CONTINUOUS
 62
     7
 10
354.8670832771
 20
291.117319358
 30
0.0
 40
7.0
 50
0.0
 51
90.0
  0
LINE
  5
25D
  8
0
  6
CONTINUOUS
 62
     7
 10
370.8670813875
 20
291.1173191419
 30
0.0
 11
370.8670813875
 21
268.4173195189
 31
0.0
  0
LINE
  5
25E
  8
0
  6
CONTINUOUS
 62
     7
 10
361.8670855002
 20
268.4173195189
 30
0.0
 11
361.8670855002
 21
291.1173191419
 31
0.0
  0
ARC
  5
25F
  8
0
  6
CONTINUOUS
 62
     7
 10
370.0670832771
 20
268.417319358
 30
0.0
 40
0.8000000000000114
 50
270.0
 51
0.0
  0
LINE
  5
260
  8
0
  6
CONTINUOUS
 62
     7
 10
370.0670827465
 20
267.6173190152
 30
0.0
 11
362.6670841413
 21
267.6173190152
 31
0.0
  0
ARC
  5
261
  8
0
  6
CONTINUOUS
 62
     7
 10
362.6670832771
 20
268.417319358
 30
0.0
 40
0.8000000000000114
 50
180.0
 51
270.0
  0
ARC
  5
262
  8
0
  6
CONTINUOUS
 62
     7
 10
366.3670832771
 20
302.617319358
 30
0.0
 40
18.50000000000002
 50
194.0780386038
 51
255.9219613962
  0
ARC
  5
263
  8
0
  6
CONTINUOUS
 62
     7
 10
366.3670832771
 20
302.617319358
 30
0.0
 40
18.5
 50
104.0780386038
 51
165.9219613962
  0
ARC
  5
264
  8
0
  6
CONTINUOUS
 62
     7
 10
366.3670832771
 20
302.617319358
 30
0.0
 40
18.49999999999999
 50
14.0780386038
 51
75.9219613962
  0
ARC
  5
265
  8
0
  6
CONTINUOUS
 62
     7
 10
366.3670832771
 20
302.617319358
 30
0.0
 40
18.50000000000002
 50
284.0780386038
 51
345.9219613962
  0
ARC
  5
266
  8
0
  6
CONTINUOUS
 62
     7
 10
366.3670832771
 20
302.617319358
 30
0.0
 40
28.50000000000002
 50
189.0847202874
 51
260.9152797126
  0
ARC
  5
267
  8
0
  6
CONTINUOUS
 62
     7
 10
366.3670832771
 20
302.617319358
 30
0.0
 40
28.50000000000003
 50
99.0847202874
 51
170.9152797126
  0
ARC
  5
268
  8
0
  6
CONTINUOUS
 62
     7
 10
366.3670832771
 20
302.617319358
 30
0.0
 40
28.50000000000003
 50
9.0847202874
 51
80.9152797126
  0
ARC
  5
269
  8
0
  6
CONTINUOUS
 62
     7
 10
366.3670832771
 20
302.617319358
 30
0.0
 40
28.50000000000001
 50
279.0847202874
 51
350.9152797126
  0
ARC
  5
26A
  8
0
  6
CONTINUOUS
 62
     7
 10
266.4451305108
 20
302.617319358
 30
0.0
 40
10.0
 50
0.0
 51
180.0
  0
ARC
  5
26B
  8
0
  6
CONTINUOUS
 62
     7
 10
266.4451305108
 20
132.9458322722
 30
0.0
 40
10.00268470086491
 50
181.327562832
 51
358.6724371681
  0
ARC
  5
26C
  8
0
  6
CONTINUOUS
 62
     7
 10
264.2451305108
 20
340.417319358
 30
0.0
 40
0.4000000000000341
 50
90.0
 51
180.0
  0
LINE
  5
26D
  8
0
  6
CONTINUOUS
 62
     7
 10
264.2451305227
 20
340.8173194653
 30
0.0
 11
268.6451304989
 21
340.8173194653
 31
0.0
  0
LINE
  5
26E
  8
0
  6
CONTINUOUS
 62
     7
 10
269.0451305179
 20
340.4173201447
 30
0.0
 11
269.0451305179
 21
316.9173190868
 31
0.0
  0
ARC
  5
26F
  8
0
  6
CONTINUOUS
 62
     7
 10
268.6451305108
 20
340.417319358
 30
0.0
 40
0.4000000000000341
 50
0.0
 51
90.0
  0
LINE
  5
270
  8
0
  6
CONTINUOUS
 62
     7
 10
263.8451305037
 20
316.9173190868
 30
0.0
 11
263.8451305037
 21
340.4173201447
 31
0.0
  0
ARC
  5
271
  8
0
  6
CONTINUOUS
 62
     7
 10
266.4451305108
 20
316.917319358
 30
0.0
 40
2.600000000000023
 50
180.0
 51
0.0
  0
LINE
  5
272
  8
0
  6
CONTINUOUS
 62
     7
 10
267.9451305239
 20
312.8173195323
 30
0.0
 11
264.9451304978
 21
312.8173195323
 31
0.0
  0
ARC
  5
273
  8
0
  6
CONTINUOUS
 62
     7
 10
266.4451305108
 20
316.917319358
 30
0.0
 40
2.900000000000034
 50
270.0
 51
26.2915552747
  0
ARC
  5
274
  8
0
  6
CONTINUOUS
 62
     7
 10
266.4451305108
 20
316.917319358
 30
0.0
 40
2.900000000000034
 50
153.7084447253
 51
270.0
  0
ARC
  5
275
  8
0
  6
CONTINUOUS
 62
     7
 10
266.4451305108
 20
302.617319358
 30
0.0
 40
18.50000000000006
 50
302.7204433664
 51
0.0
  0
ARC
  5
276
  8
0
  6
CONTINUOUS
 62
     7
 10
266.4451305108
 20
302.617319358
 30
0.0
 40
18.50000000000003
 50
98.0791261963
 51
237.2795566336
  0
ARC
  5
277
  8
0
  6
CONTINUOUS
 62
     7
 10
266.4451305108
 20
302.617319358
 30
0.0
 40
18.50000000000006
 50
0.0
 51
81.9208738037
  0
ARC
  5
278
  8
0
  6
CONTINUOUS
 62
     7
 10
266.4451305108
 20
302.617319358
 30
0.0
 40
28.5
 50
290.5409775375
 51
0.0
  0
ARC
  5
279
  8
0
  6
CONTINUOUS
 62
     7
 10
266.4451305108
 20
302.617319358
 30
0.0
 40
28.50000000000003
 50
95.2342609975
 51
249.4590224625
  0
ARC
  5
27A
  8
0
  6
CONTINUOUS
 62
     7
 10
266.4451305108
 20
302.617319358
 30
0.0
 40
28.5
 50
0.0
 51
84.7657390025
  0
POLYLINE
  5
27B
  8
0
  6
CONTINUOUS
 62
     8
 66
     1
 10
0.0
 20
0.0
 30
0.0
 70
   128
  0
VERTEX
  5
370
  8
0
  6
CONTINUOUS
 62
     8
 10
169.9727703171
 20
336.8353231376
 30
0.0
  0
VERTEX
  5
371
  8
0
  6
CONTINUOUS
 62
     8
 10
170.1288450794
 20
336.8361017233
 30
0.0
  0
VERTEX
  5
372
  8
0
  6
CONTINUOUS
 62
     8
 10
170.2789146738
 20
336.8368505066
 30
0.0
  0
VERTEX
  5
373
  8
0
  6
CONTINUOUS
 62
     8
 10
170.417227252
 20
336.8375396853
 30
0.0
  0
VERTEX
  5
374
  8
0
  6
CONTINUOUS
 62
     8
 10
170.5384556489
 20
336.8381431824
 30
0.0
  0
VERTEX
  5
375
  8
0
  6
CONTINUOUS
 62
     8
 10
170.6379432516
 20
336.838638646
 30
0.0
  0
VERTEX
  5
376
  8
0
  6
CONTINUOUS
 62
     8
 10
170.7118679123
 20
336.8390074497
 30
0.0
  0
VERTEX
  5
377
  8
0
  6
CONTINUOUS
 62
     8
 10
170.7573909597
 20
336.8392346924
 30
0.0
  0
VERTEX
  5
378
  8
0
  6
CONTINUOUS
 62
     8
 10
170.7727615075
 20
336.8393091982
 30
0.0
  0
SEQEND
  5
452
  8
0
  6
CONTINUOUS
 62
     8
  0
POLYLINE
  5
27C
  8
0
  6
CONTINUOUS
 62
     8
 66
     1
 10
0.0
 20
0.0
 30
0.0
 70
   128
  0
VERTEX
  5
379
  8
0
  6
CONTINUOUS
 62
     8
 10
169.968791707
 20
337.635314328
 30
0.0
  0
VERTEX
  5
37A
  8
0
  6
CONTINUOUS
 62
     8
 10
169.9688662128
 20
337.6199437803
 30
0.0
  0
VERTEX
  5
37B
  8
0
  6
CONTINUOUS
 62
     8
 10
169.9690897303
 20
337.5744207328
 30
0.0
  0
VERTEX
  5
37C
  8
0
  6
CONTINUOUS
 62
     8
 10
169.9694622593
 20
337.5004923469
 30
0.0
  0
VERTEX
  5
37D
  8
0
  6
CONTINUOUS
 62
     8
 10
169.9699539976
 20
337.4010047441
 30
0.0
  0
VERTEX
  5
37E
  8
0
  6
CONTINUOUS
 62
     8
 10
169.9705574946
 20
337.2797763473
 30
0.0
  0
VERTEX
  5
37F
  8
0
  6
CONTINUOUS
 62
     8
 10
169.9712503986
 20
337.1414674943
 30
0.0
  0
VERTEX
  5
380
  8
0
  6
CONTINUOUS
 62
     8
 10
169.9719954567
 20
336.9913941747
 30
0.0
  0
VERTEX
  5
381
  8
0
  6
CONTINUOUS
 62
     8
 10
169.9727703171
 20
336.8353231376
 30
0.0
  0
SEQEND
  5
453
  8
0
  6
CONTINUOUS
 62
     8
  0
LINE
  5
27D
  8
0
  6
CONTINUOUS
 62
     8
 10
169.9727703171
 20
336.8353231376
 30
0.0
 11
162.5728685694
 21
336.7984651154
 31
0.0
  0
POLYLINE
  5
27E
  8
0
  6
CONTINUOUS
 62
     8
 66
     1
 10
0.0
 20
0.0
 30
0.0
 70
   128
  0
VERTEX
  5
382
  8
0
  6
CONTINUOUS
 62
     8
 10
162.5688825088
 20
337.5984563058
 30
0.0
  0
VERTEX
  5
383
  8
0
  6
CONTINUOUS
 62
     8
 10
162.5689570146
 20
337.5830857581
 30
0.0
  0
VERTEX
  5
384
  8
0
  6
CONTINUOUS
 62
     8
 10
162.5691879826
 20
337.5375589853
 30
0.0
  0
VERTEX
  5
385
  8
0
  6
CONTINUOUS
 62
     8
 10
162.569553061
 20
337.4636343246
 30
0.0
  0
VERTEX
  5
386
  8
0
  6
CONTINUOUS
 62
     8
 10
162.5700447993
 20
337.3641429966
 30
0.0
  0
VERTEX
  5
387
  8
0
  6
CONTINUOUS
 62
     8
 10
162.5706482964
 20
337.2429145998
 30
0.0
  0
VERTEX
  5
388
  8
0
  6
CONTINUOUS
 62
     8
 10
162.5713412004
 20
337.1046094721
 30
0.0
  0
VERTEX
  5
389
  8
0
  6
CONTINUOUS
 62
     8
 10
162.5720862584
 20
336.9545361525
 30
0.0
  0
VERTEX
  5
38A
  8
0
  6
CONTINUOUS
 62
     8
 10
162.5728685694
 20
336.7984651154
 30
0.0
  0
SEQEND
  5
454
  8
0
  6
CONTINUOUS
 62
     8
  0
POLYLINE
  5
27F
  8
0
  6
CONTINUOUS
 62
     8
 66
     1
 10
0.0
 20
0.0
 30
0.0
 70
   128
  0
VERTEX
  5
38B
  8
0
  6
CONTINUOUS
 62
     8
 10
161.7728773789
 20
336.7944790548
 30
0.0
  0
VERTEX
  5
38C
  8
0
  6
CONTINUOUS
 62
     8
 10
161.7882479267
 20
336.7945572859
 30
0.0
  0
VERTEX
  5
38D
  8
0
  6
CONTINUOUS
 62
     8
 10
161.8337709742
 20
336.7947845286
 30
0.0
  0
VERTEX
  5
38E
  8
0
  6
CONTINUOUS
 62
     8
 10
161.9076956348
 20
336.7951533323
 30
0.0
  0
VERTEX
  5
38F
  8
0
  6
CONTINUOUS
 62
     8
 10
162.0071906881
 20
336.7956487959
 30
0.0
  0
VERTEX
  5
390
  8
0
  6
CONTINUOUS
 62
     8
 10
162.1284116344
 20
336.796252293
 30
0.0
  0
VERTEX
  5
391
  8
0
  6
CONTINUOUS
 62
     8
 10
162.2667242127
 20
336.7969414717
 30
0.0
  0
VERTEX
  5
392
  8
0
  6
CONTINUOUS
 62
     8
 10
162.416793807
 20
336.7976865297
 30
0.0
  0
VERTEX
  5
393
  8
0
  6
CONTINUOUS
 62
     8
 10
162.5728685694
 20
336.7984651154
 30
0.0
  0
SEQEND
  5
455
  8
0
  6
CONTINUOUS
 62
     8
  0
LINE
  5
280
  8
0
  6
CONTINUOUS
 62
     8
 10
170.3134704666
 20
268.4361732131
 30
0.0
 11
170.2004079061
 21
291.1358915767
 31
0.0
  0
LINE
  5
281
  8
0
  6
CONTINUOUS
 62
     8
 10
162.9135612683
 20
268.3993133282
 30
0.0
 11
170.3134704666
 21
268.4361732131
 31
0.0
  0
LINE
  5
282
  8
0
  6
CONTINUOUS
 62
     8
 10
162.8004987078
 20
291.0990326231
 30
0.0
 11
162.9135612683
 21
268.3993133282
 31
0.0
  0
ARC
  5
283
  8
0
  6
CONTINUOUS
 62
     8
 10
155.0005927939
 20
291.0601808751
 30
0.0
 40
7.800000000000032
 50
0.2853896719
 51
90.2853896719
  0
LINE
  5
284
  8
0
  6
CONTINUOUS
 62
     8
 10
132.2620217042
 20
298.7470161202
 30
0.0
 11
154.9617428618
 21
298.860084094
 31
0.0
  0
LINE
  5
285
  8
0
  6
CONTINUOUS
 62
     8
 10
132.2251562314
 20
306.1469246199
 30
0.0
 11
132.2620217042
 21
298.7470161202
 31
0.0
  0
LINE
  5
286
  8
0
  6
CONTINUOUS
 62
     8
 10
154.9248848395
 20
306.2599927684
 30
0.0
 11
132.2251562314
 21
306.1469246199
 31
0.0
  0
ARC
  5
287
  8
0
  6
CONTINUOUS
 62
     8
 10
154.8860305108
 20
314.0598955578
 30
0.0
 40
7.800000000000004
 50
270.2853896719
 51
0.2853896719
  0
LINE
  5
288
  8
0
  6
CONTINUOUS
 62
     8
 10
162.5728685694
 20
336.7984651154
 30
0.0
 11
162.6859311299
 21
314.0987476831
 31
0.0
  0
LINE
  5
289
  8
0
  6
CONTINUOUS
 62
     8
 10
170.0858403282
 20
314.1356057054
 30
0.0
 11
169.9727703171
 21
336.8353231376
 31
0.0
  0
ARC
  5
28A
  8
0
  6
CONTINUOUS
 62
     8
 10
177.8857451934
 20
314.1744578408
 30
0.0
 40
7.800000000000004
 50
180.2853896719
 51
270.2853896719
  0
LINE
  5
28B
  8
0
  6
CONTINUOUS
 62
     8
 10
200.6243173318
 20
306.4876229068
 30
0.0
 11
177.9245961742
 21
306.3745547583
 31
0.0
  0
LINE
  5
28C
  8
0
  6
CONTINUOUS
 62
     8
 10
200.661175354
 20
299.087714407
 30
0.0
 11
200.6243173318
 21
306.4876229068
 31
0.0
  0
LINE
  5
28D
  8
0
  6
CONTINUOUS
 62
     8
 10
177.9614541965
 20
298.974646375
 30
0.0
 11
200.661175354
 21
299.087714407
 31
0.0
  0
ARC
  5
28E
  8
0
  6
CONTINUOUS
 62
     8
 10
178.0003074765
 20
291.1747431582
 30
0.0
 40
7.800000000000061
 50
90.2853896719
 51
180.2853896719
  0
POLYLINE
  5
28F
  8
0
  6
CONTINUOUS
 62
     8
 66
     1
 10
0.0
 20
0.0
 30
0.0
 70
   128
  0
VERTEX
  5
394
  8
0
  6
CONTINUOUS
 62
     8
 10
170.8858315187
 20
314.139591766
 30
0.0
  0
VERTEX
  5
395
  8
0
  6
CONTINUOUS
 62
     8
 10
170.8704609709
 20
314.1395153975
 30
0.0
  0
VERTEX
  5
396
  8
0
  6
CONTINUOUS
 62
     8
 10
170.8249379234
 20
314.1392881548
 30
0.0
  0
VERTEX
  5
397
  8
0
  6
CONTINUOUS
 62
     8
 10
170.7510058122
 20
314.1389193511
 30
0.0
  0
VERTEX
  5
398
  8
0
  6
CONTINUOUS
 62
     8
 10
170.6515182095
 20
314.1384238875
 30
0.0
  0
VERTEX
  5
399
  8
0
  6
CONTINUOUS
 62
     8
 10
170.5302898126
 20
314.1378203904
 30
0.0
  0
VERTEX
  5
39A
  8
0
  6
CONTINUOUS
 62
     8
 10
170.3919846849
 20
314.1371312117
 30
0.0
  0
VERTEX
  5
39B
  8
0
  6
CONTINUOUS
 62
     8
 10
170.2419150906
 20
314.136384291
 30
0.0
  0
VERTEX
  5
39C
  8
0
  6
CONTINUOUS
 62
     8
 10
170.0858403282
 20
314.1356057054
 30
0.0
  0
SEQEND
  5
456
  8
0
  6
CONTINUOUS
 62
     8
  0
POLYLINE
  5
290
  8
0
  6
CONTINUOUS
 62
     8
 66
     1
 10
0.0
 20
0.0
 30
0.0
 70
   128
  0
VERTEX
  5
39D
  8
0
  6
CONTINUOUS
 62
     8
 10
161.8859473901
 20
314.0947616225
 30
0.0
  0
VERTEX
  5
39E
  8
0
  6
CONTINUOUS
 62
     8
 10
161.9013179379
 20
314.094837991
 30
0.0
  0
VERTEX
  5
39F
  8
0
  6
CONTINUOUS
 62
     8
 10
161.9468409853
 20
314.0950652337
 30
0.0
  0
VERTEX
  5
3A0
  8
0
  6
CONTINUOUS
 62
     8
 10
162.020765646
 20
314.0954340374
 30
0.0
  0
VERTEX
  5
3A1
  8
0
  6
CONTINUOUS
 62
     8
 10
162.1202532487
 20
314.095929501
 30
0.0
  0
VERTEX
  5
3A2
  8
0
  6
CONTINUOUS
 62
     8
 10
162.2414816456
 20
314.0965329981
 30
0.0
  0
VERTEX
  5
3A3
  8
0
  6
CONTINUOUS
 62
     8
 10
162.3797942238
 20
314.0972221768
 30
0.0
  0
VERTEX
  5
3A4
  8
0
  6
CONTINUOUS
 62
     8
 10
162.5298638182
 20
314.0979690975
 30
0.0
  0
VERTEX
  5
3A5
  8
0
  6
CONTINUOUS
 62
     8
 10
162.6859311299
 20
314.0987476831
 30
0.0
  0
SEQEND
  5
457
  8
0
  6
CONTINUOUS
 62
     8
  0
POLYLINE
  5
291
  8
0
  6
CONTINUOUS
 62
     8
 66
     1
 10
0.0
 20
0.0
 30
0.0
 70
   128
  0
VERTEX
  5
3A6
  8
0
  6
CONTINUOUS
 62
     8
 10
177.9206101136
 20
307.1745450175
 30
0.0
  0
VERTEX
  5
3A7
  8
0
  6
CONTINUOUS
 62
     8
 10
177.92069207
 20
307.1591735384
 30
0.0
  0
VERTEX
  5
3A8
  8
0
  6
CONTINUOUS
 62
     8
 10
177.9209155874
 20
307.1136486283
 30
0.0
  0
VERTEX
  5
3A9
  8
0
  6
CONTINUOUS
 62
     8
 10
177.9212806659
 20
307.0397221049
 30
0.0
  0
VERTEX
  5
3AA
  8
0
  6
CONTINUOUS
 62
     8
 10
177.9217798548
 20
306.9402326396
 30
0.0
  0
VERTEX
  5
3AB
  8
0
  6
CONTINUOUS
 62
     8
 10
177.9223833518
 20
306.819005174
 30
0.0
  0
VERTEX
  5
3AC
  8
0
  6
CONTINUOUS
 62
     8
 10
177.9230688052
 20
306.6806972524
 30
0.0
  0
VERTEX
  5
3AD
  8
0
  6
CONTINUOUS
 62
     8
 10
177.9238213139
 20
306.5306248641
 30
0.0
  0
VERTEX
  5
3AE
  8
0
  6
CONTINUOUS
 62
     8
 10
177.9245961742
 20
306.3745547583
 30
0.0
  0
SEQEND
  5
458
  8
0
  6
CONTINUOUS
 62
     8
  0
POLYLINE
  5
292
  8
0
  6
CONTINUOUS
 62
     8
 66
     1
 10
0.0
 20
0.0
 30
0.0
 70
   128
  0
VERTEX
  5
3AF
  8
0
  6
CONTINUOUS
 62
     8
 10
154.9208987789
 20
307.0599820962
 30
0.0
  0
VERTEX
  5
3B0
  8
0
  6
CONTINUOUS
 62
     8
 10
154.9209732847
 20
307.0446106171
 30
0.0
  0
VERTEX
  5
3B1
  8
0
  6
CONTINUOUS
 62
     8
 10
154.9212042527
 20
306.9990866384
 30
0.0
  0
VERTEX
  5
3B2
  8
0
  6
CONTINUOUS
 62
     8
 10
154.9215693312
 20
306.925160115
 30
0.0
  0
VERTEX
  5
3B3
  8
0
  6
CONTINUOUS
 62
     8
 10
154.9220610695
 20
306.8256706497
 30
0.0
  0
VERTEX
  5
3B4
  8
0
  6
CONTINUOUS
 62
     8
 10
154.9226645665
 20
306.7044431841
 30
0.0
  0
VERTEX
  5
3B5
  8
0
  6
CONTINUOUS
 62
     8
 10
154.9233574705
 20
306.5661352625
 30
0.0
  0
VERTEX
  5
3B6
  8
0
  6
CONTINUOUS
 62
     8
 10
154.9241025286
 20
306.4160628742
 30
0.0
  0
VERTEX
  5
3B7
  8
0
  6
CONTINUOUS
 62
     8
 10
154.9248848395
 20
306.2599927684
 30
0.0
  0
SEQEND
  5
459
  8
0
  6
CONTINUOUS
 62
     8
  0
POLYLINE
  5
293
  8
0
  6
CONTINUOUS
 62
     8
 66
     1
 10
0.0
 20
0.0
 30
0.0
 70
   128
  0
VERTEX
  5
3B8
  8
0
  6
CONTINUOUS
 62
     8
 10
200.6203312712
 20
307.2876122346
 30
0.0
  0
VERTEX
  5
3B9
  8
0
  6
CONTINUOUS
 62
     8
 10
200.620405777
 20
307.2722407555
 30
0.0
  0
VERTEX
  5
3BA
  8
0
  6
CONTINUOUS
 62
     8
 10
200.620636745
 20
307.2267167768
 30
0.0
  0
VERTEX
  5
3BB
  8
0
  6
CONTINUOUS
 62
     8
 10
200.6210018234
 20
307.1527902534
 30
0.0
  0
VERTEX
  5
3BC
  8
0
  6
CONTINUOUS
 62
     8
 10
200.6215010123
 20
307.0533007881
 30
0.0
  0
VERTEX
  5
3BD
  8
0
  6
CONTINUOUS
 62
     8
 10
200.6221045094
 20
306.9320733225
 30
0.0
  0
VERTEX
  5
3BE
  8
0
  6
CONTINUOUS
 62
     8
 10
200.6227899628
 20
306.7937654009
 30
0.0
  0
VERTEX
  5
3BF
  8
0
  6
CONTINUOUS
 62
     8
 10
200.6235350208
 20
306.6436930126
 30
0.0
  0
VERTEX
  5
3C0
  8
0
  6
CONTINUOUS
 62
     8
 10
200.6243173318
 20
306.4876229068
 30
0.0
  0
SEQEND
  5
45A
  8
0
  6
CONTINUOUS
 62
     8
  0
POLYLINE
  5
294
  8
0
  6
CONTINUOUS
 62
     8
 66
     1
 10
0.0
 20
0.0
 30
0.0
 70
   128
  0
VERTEX
  5
3C1
  8
0
  6
CONTINUOUS
 62
     8
 10
200.6243173318
 20
306.4876229068
 30
0.0
  0
VERTEX
  5
3C2
  8
0
  6
CONTINUOUS
 62
     8
 10
200.7803846436
 20
306.4883996299
 30
0.0
  0
VERTEX
  5
3C3
  8
0
  6
CONTINUOUS
 62
     8
 10
200.9304616885
 20
306.4891474819
 30
0.0
  0
VERTEX
  5
3C4
  8
0
  6
CONTINUOUS
 62
     8
 10
201.0687668161
 20
306.4898366606
 30
0.0
  0
VERTEX
  5
3C5
  8
0
  6
CONTINUOUS
 62
     8
 10
201.189995213
 20
306.4904401576
 30
0.0
  0
VERTEX
  5
3C6
  8
0
  6
CONTINUOUS
 62
     8
 10
201.2894828157
 20
306.4909356212
 30
0.0
  0
VERTEX
  5
3C7
  8
0
  6
CONTINUOUS
 62
     8
 10
201.3634074764
 20
306.491304425
 30
0.0
  0
VERTEX
  5
3C8
  8
0
  6
CONTINUOUS
 62
     8
 10
201.4089305239
 20
306.4915307364
 30
0.0
  0
VERTEX
  5
3C9
  8
0
  6
CONTINUOUS
 62
     8
 10
201.4243085222
 20
306.4916071048
 30
0.0
  0
SEQEND
  5
45B
  8
0
  6
CONTINUOUS
 62
     8
  0
POLYLINE
  5
295
  8
0
  6
CONTINUOUS
 62
     8
 66
     1
 10
0.0
 20
0.0
 30
0.0
 70
   128
  0
VERTEX
  5
3CA
  8
0
  6
CONTINUOUS
 62
     8
 10
131.4251724916
 20
306.1429394907
 30
0.0
  0
VERTEX
  5
3CB
  8
0
  6
CONTINUOUS
 62
     8
 10
131.4405504899
 20
306.1430158591
 30
0.0
  0
VERTEX
  5
3CC
  8
0
  6
CONTINUOUS
 62
     8
 10
131.4860735374
 20
306.1432431018
 30
0.0
  0
VERTEX
  5
3CD
  8
0
  6
CONTINUOUS
 62
     8
 10
131.559998198
 20
306.1436109742
 30
0.0
  0
VERTEX
  5
3CE
  8
0
  6
CONTINUOUS
 62
     8
 10
131.6594783502
 20
306.1441064378
 30
0.0
  0
VERTEX
  5
3CF
  8
0
  6
CONTINUOUS
 62
     8
 10
131.7807141976
 20
306.1447108662
 30
0.0
  0
VERTEX
  5
3D0
  8
0
  6
CONTINUOUS
 62
     8
 10
131.9190267758
 20
306.1453991136
 30
0.0
  0
VERTEX
  5
3D1
  8
0
  6
CONTINUOUS
 62
     8
 10
132.0690963702
 20
306.1461469656
 30
0.0
  0
VERTEX
  5
3D2
  8
0
  6
CONTINUOUS
 62
     8
 10
132.2251562314
 20
306.1469246199
 30
0.0
  0
SEQEND
  5
45C
  8
0
  6
CONTINUOUS
 62
     8
  0
POLYLINE
  5
296
  8
0
  6
CONTINUOUS
 62
     8
 66
     1
 10
0.0
 20
0.0
 30
0.0
 70
   128
  0
VERTEX
  5
3D3
  8
0
  6
CONTINUOUS
 62
     8
 10
131.4620379643
 20
298.7430313401
 30
0.0
  0
VERTEX
  5
3D4
  8
0
  6
CONTINUOUS
 62
     8
 10
131.4774010615
 20
298.7431079414
 30
0.0
  0
VERTEX
  5
3D5
  8
0
  6
CONTINUOUS
 62
     8
 10
131.522924109
 20
298.7433346602
 30
0.0
  0
VERTEX
  5
3D6
  8
0
  6
CONTINUOUS
 62
     8
 10
131.5968487697
 20
298.7437028819
 30
0.0
  0
VERTEX
  5
3D7
  8
0
  6
CONTINUOUS
 62
     8
 10
131.696343823
 20
298.7441984619
 30
0.0
  0
VERTEX
  5
3D8
  8
0
  6
CONTINUOUS
 62
     8
 10
131.8175647693
 20
298.7448023082
 30
0.0
  0
VERTEX
  5
3D9
  8
0
  6
CONTINUOUS
 62
     8
 10
131.9558773475
 20
298.7454911959
 30
0.0
  0
VERTEX
  5
3DA
  8
0
  6
CONTINUOUS
 62
     8
 10
132.1059469419
 20
298.7462387568
 30
0.0
  0
VERTEX
  5
3DB
  8
0
  6
CONTINUOUS
 62
     8
 10
132.2620217042
 20
298.7470161202
 30
0.0
  0
SEQEND
  5
45D
  8
0
  6
CONTINUOUS
 62
     8
  0
POLYLINE
  5
297
  8
0
  6
CONTINUOUS
 62
     8
 66
     1
 10
0.0
 20
0.0
 30
0.0
 70
   128
  0
VERTEX
  5
3DC
  8
0
  6
CONTINUOUS
 62
     8
 10
200.661175354
 20
299.087714407
 30
0.0
  0
VERTEX
  5
3DD
  8
0
  6
CONTINUOUS
 62
     8
 10
200.8172426658
 20
299.0884917704
 30
0.0
  0
VERTEX
  5
3DE
  8
0
  6
CONTINUOUS
 62
     8
 10
200.9673197107
 20
299.0892392731
 30
0.0
  0
VERTEX
  5
3DF
  8
0
  6
CONTINUOUS
 62
     8
 10
201.1056248384
 20
299.089928219
 30
0.0
  0
VERTEX
  5
3E0
  8
0
  6
CONTINUOUS
 62
     8
 10
201.2268532352
 20
299.0905320653
 30
0.0
  0
VERTEX
  5
3E1
  8
0
  6
CONTINUOUS
 62
     8
 10
201.326340838
 20
299.0910275871
 30
0.0
  0
VERTEX
  5
3E2
  8
0
  6
CONTINUOUS
 62
     8
 10
201.4002654986
 20
299.091395867
 30
0.0
  0
VERTEX
  5
3E3
  8
0
  6
CONTINUOUS
 62
     8
 10
201.4457959967
 20
299.0916225858
 30
0.0
  0
VERTEX
  5
3E4
  8
0
  6
CONTINUOUS
 62
     8
 10
201.4611665444
 20
299.0916991871
 30
0.0
  0
SEQEND
  5
45E
  8
0
  6
CONTINUOUS
 62
     8
  0
POLYLINE
  5
298
  8
0
  6
CONTINUOUS
 62
     8
 66
     1
 10
0.0
 20
0.0
 30
0.0
 70
   128
  0
VERTEX
  5
3E5
  8
0
  6
CONTINUOUS
 62
     8
 10
132.2211776214
 20
306.9469139477
 30
0.0
  0
VERTEX
  5
3E6
  8
0
  6
CONTINUOUS
 62
     8
 10
132.2212521272
 20
306.9315424686
 30
0.0
  0
VERTEX
  5
3E7
  8
0
  6
CONTINUOUS
 62
     8
 10
132.2214756446
 20
306.8860184899
 30
0.0
  0
VERTEX
  5
3E8
  8
0
  6
CONTINUOUS
 62
     8
 10
132.2218481736
 20
306.8120919665
 30
0.0
  0
VERTEX
  5
3E9
  8
0
  6
CONTINUOUS
 62
     8
 10
132.2223399119
 20
306.7126025012
 30
0.0
  0
VERTEX
  5
3EA
  8
0
  6
CONTINUOUS
 62
     8
 10
132.2229508596
 20
306.5913750356
 30
0.0
  0
VERTEX
  5
3EB
  8
0
  6
CONTINUOUS
 62
     8
 10
132.223636313
 20
306.453067114
 30
0.0
  0
VERTEX
  5
3EC
  8
0
  6
CONTINUOUS
 62
     8
 10
132.224381371
 20
306.3029947257
 30
0.0
  0
VERTEX
  5
3ED
  8
0
  6
CONTINUOUS
 62
     8
 10
132.2251562314
 20
306.1469246199
 30
0.0
  0
SEQEND
  5
45F
  8
0
  6
CONTINUOUS
 62
     8
  0
POLYLINE
  5
299
  8
0
  6
CONTINUOUS
 62
     8
 66
     1
 10
0.0
 20
0.0
 30
0.0
 70
   128
  0
VERTEX
  5
3EE
  8
0
  6
CONTINUOUS
 62
     8
 10
162.8004987078
 20
291.0990326231
 30
0.0
  0
VERTEX
  5
3EF
  8
0
  6
CONTINUOUS
 62
     8
 10
162.6444239454
 20
291.0982549688
 30
0.0
  0
VERTEX
  5
3F0
  8
0
  6
CONTINUOUS
 62
     8
 10
162.494354351
 20
291.0975075824
 30
0.0
  0
VERTEX
  5
3F1
  8
0
  6
CONTINUOUS
 62
     8
 10
162.3560417728
 20
291.0968184037
 30
0.0
  0
VERTEX
  5
3F2
  8
0
  6
CONTINUOUS
 62
     8
 10
162.2348208265
 20
291.0962149067
 30
0.0
  0
VERTEX
  5
3F3
  8
0
  6
CONTINUOUS
 62
     8
 10
162.1353257732
 20
291.0957194431
 30
0.0
  0
VERTEX
  5
3F4
  8
0
  6
CONTINUOUS
 62
     8
 10
162.0614011126
 20
291.095351105
 30
0.0
  0
VERTEX
  5
3F5
  8
0
  6
CONTINUOUS
 62
     8
 10
162.0158780651
 20
291.095124328
 30
0.0
  0
VERTEX
  5
3F6
  8
0
  6
CONTINUOUS
 62
     8
 10
162.0005075173
 20
291.0950474938
 30
0.0
  0
SEQEND
  5
460
  8
0
  6
CONTINUOUS
 62
     8
  0
POLYLINE
  5
29A
  8
0
  6
CONTINUOUS
 62
     8
 66
     1
 10
0.0
 20
0.0
 30
0.0
 70
   128
  0
VERTEX
  5
3F7
  8
0
  6
CONTINUOUS
 62
     8
 10
154.9617428618
 20
298.860084094
 30
0.0
  0
VERTEX
  5
3F8
  8
0
  6
CONTINUOUS
 62
     8
 10
154.9625177221
 20
298.7040138137
 30
0.0
  0
VERTEX
  5
3F9
  8
0
  6
CONTINUOUS
 62
     8
 10
154.9632627802
 20
298.5539411634
 30
0.0
  0
VERTEX
  5
3FA
  8
0
  6
CONTINUOUS
 62
     8
 10
154.9639556842
 20
298.4156334455
 30
0.0
  0
VERTEX
  5
3FB
  8
0
  6
CONTINUOUS
 62
     8
 10
154.9645591812
 20
298.2944057035
 30
0.0
  0
VERTEX
  5
3FC
  8
0
  6
CONTINUOUS
 62
     8
 10
154.9650509195
 20
298.1949166747
 30
0.0
  0
VERTEX
  5
3FD
  8
0
  6
CONTINUOUS
 62
     8
 10
154.9654234486
 20
298.1209896579
 30
0.0
  0
VERTEX
  5
3FE
  8
0
  6
CONTINUOUS
 62
     8
 10
154.965646966
 20
298.0754656232
 30
0.0
  0
VERTEX
  5
3FF
  8
0
  6
CONTINUOUS
 62
     8
 10
154.9657289224
 20
298.0600940386
 30
0.0
  0
SEQEND
  5
461
  8
0
  6
CONTINUOUS
 62
     8
  0
POLYLINE
  5
29B
  8
0
  6
CONTINUOUS
 62
     8
 66
     1
 10
0.0
 20
0.0
 30
0.0
 70
   128
  0
VERTEX
  5
400
  8
0
  6
CONTINUOUS
 62
     8
 10
132.2660003142
 20
297.9470260502
 30
0.0
  0
VERTEX
  5
401
  8
0
  6
CONTINUOUS
 62
     8
 10
132.2659258084
 20
297.9623976312
 30
0.0
  0
VERTEX
  5
402
  8
0
  6
CONTINUOUS
 62
     8
 10
132.265702291
 20
298.0079216682
 30
0.0
  0
VERTEX
  5
403
  8
0
  6
CONTINUOUS
 62
     8
 10
132.265329762
 20
298.0818486862
 30
0.0
  0
VERTEX
  5
404
  8
0
  6
CONTINUOUS
 62
     8
 10
132.2648380237
 20
298.181337715
 30
0.0
  0
VERTEX
  5
405
  8
0
  6
CONTINUOUS
 62
     8
 10
132.2642419772
 20
298.3025654571
 30
0.0
  0
VERTEX
  5
406
  8
0
  6
CONTINUOUS
 62
     8
 10
132.2635416226
 20
298.4408731604
 30
0.0
  0
VERTEX
  5
407
  8
0
  6
CONTINUOUS
 62
     8
 10
132.2627965646
 20
298.5909458107
 30
0.0
  0
VERTEX
  5
408
  8
0
  6
CONTINUOUS
 62
     8
 10
132.2620217042
 20
298.7470161202
 30
0.0
  0
SEQEND
  5
462
  8
0
  6
CONTINUOUS
 62
     8
  0
POLYLINE
  5
29C
  8
0
  6
CONTINUOUS
 62
     8
 66
     1
 10
0.0
 20
0.0
 30
0.0
 70
   128
  0
VERTEX
  5
409
  8
0
  6
CONTINUOUS
 62
     8
 10
200.661175354
 20
299.087714407
 30
0.0
  0
VERTEX
  5
40A
  8
0
  6
CONTINUOUS
 62
     8
 10
200.6619502144
 20
298.9316440685
 30
0.0
  0
VERTEX
  5
40B
  8
0
  6
CONTINUOUS
 62
     8
 10
200.662702723
 20
298.7815714473
 30
0.0
  0
VERTEX
  5
40C
  8
0
  6
CONTINUOUS
 62
     8
 10
200.6633881764
 20
298.6432637003
 30
0.0
  0
VERTEX
  5
40D
  8
0
  6
CONTINUOUS
 62
     8
 10
200.6639916735
 20
298.5220359728
 30
0.0
  0
VERTEX
  5
40E
  8
0
  6
CONTINUOUS
 62
     8
 10
200.6644908624
 20
298.422546944
 30
0.0
  0
VERTEX
  5
40F
  8
0
  6
CONTINUOUS
 62
     8
 10
200.6648559408
 20
298.3486199405
 30
0.0
  0
VERTEX
  5
410
  8
0
  6
CONTINUOUS
 62
     8
 10
200.6650794582
 20
298.3030959035
 30
0.0
  0
VERTEX
  5
411
  8
0
  6
CONTINUOUS
 62
     8
 10
200.6651614146
 20
298.287724308
 30
0.0
  0
SEQEND
  5
463
  8
0
  6
CONTINUOUS
 62
     8
  0
POLYLINE
  5
29D
  8
0
  6
CONTINUOUS
 62
     8
 66
     1
 10
0.0
 20
0.0
 30
0.0
 70
   128
  0
VERTEX
  5
412
  8
0
  6
CONTINUOUS
 62
     8
 10
177.9614541965
 20
298.974646375
 30
0.0
  0
VERTEX
  5
413
  8
0
  6
CONTINUOUS
 62
     8
 10
177.9622365074
 20
298.8185760946
 30
0.0
  0
VERTEX
  5
414
  8
0
  6
CONTINUOUS
 62
     8
 10
177.9629815655
 20
298.6685034734
 30
0.0
  0
VERTEX
  5
415
  8
0
  6
CONTINUOUS
 62
     8
 10
177.9636670189
 20
298.5301957265
 30
0.0
  0
VERTEX
  5
416
  8
0
  6
CONTINUOUS
 62
     8
 10
177.9642705159
 20
298.408967999
 30
0.0
  0
VERTEX
  5
417
  8
0
  6
CONTINUOUS
 62
     8
 10
177.9647697048
 20
298.3094789556
 30
0.0
  0
VERTEX
  5
418
  8
0
  6
CONTINUOUS
 62
     8
 10
177.9651347833
 20
298.2355519375
 30
0.0
  0
VERTEX
  5
419
  8
0
  6
CONTINUOUS
 62
     8
 10
177.9653657513
 20
298.1900279078
 30
0.0
  0
VERTEX
  5
41A
  8
0
  6
CONTINUOUS
 62
     8
 10
177.9654402571
 20
298.1746563232
 30
0.0
  0
SEQEND
  5
464
  8
0
  6
CONTINUOUS
 62
     8
  0
POLYLINE
  5
29E
  8
0
  6
CONTINUOUS
 62
     8
 66
     1
 10
0.0
 20
0.0
 30
0.0
 70
   128
  0
VERTEX
  5
41B
  8
0
  6
CONTINUOUS
 62
     8
 10
170.2004079061
 20
291.1358915767
 30
0.0
  0
VERTEX
  5
41C
  8
0
  6
CONTINUOUS
 62
     8
 10
170.3564752178
 20
291.1366687654
 30
0.0
  0
VERTEX
  5
41D
  8
0
  6
CONTINUOUS
 62
     8
 10
170.5065448122
 20
291.1374166174
 30
0.0
  0
VERTEX
  5
41E
  8
0
  6
CONTINUOUS
 62
     8
 10
170.6448573904
 20
291.1381053304
 30
0.0
  0
VERTEX
  5
41F
  8
0
  6
CONTINUOUS
 62
     8
 10
170.7660857873
 20
291.1387092931
 30
0.0
  0
VERTEX
  5
420
  8
0
  6
CONTINUOUS
 62
     8
 10
170.86557339
 20
291.1392047567
 30
0.0
  0
VERTEX
  5
421
  8
0
  6
CONTINUOUS
 62
     8
 10
170.9394980507
 20
291.1395730948
 30
0.0
  0
VERTEX
  5
422
  8
0
  6
CONTINUOUS
 62
     8
 10
170.9850210981
 20
291.1397998719
 30
0.0
  0
VERTEX
  5
423
  8
0
  6
CONTINUOUS
 62
     8
 10
171.0003916459
 20
291.1398762403
 30
0.0
  0
SEQEND
  5
465
  8
0
  6
CONTINUOUS
 62
     8
  0
POLYLINE
  5
29F
  8
0
  6
CONTINUOUS
 62
     8
 66
     1
 10
0.0
 20
0.0
 30
0.0
 70
   128
  0
VERTEX
  5
424
  8
0
  6
CONTINUOUS
 62
     8
 10
170.3134704666
 20
268.4361732131
 30
0.0
  0
VERTEX
  5
425
  8
0
  6
CONTINUOUS
 62
     8
 10
170.469545229
 20
268.4369499361
 30
0.0
  0
VERTEX
  5
426
  8
0
  6
CONTINUOUS
 62
     8
 10
170.6196148233
 20
268.4376987195
 30
0.0
  0
VERTEX
  5
427
  8
0
  6
CONTINUOUS
 62
     8
 10
170.757919951
 20
268.4383878982
 30
0.0
  0
VERTEX
  5
428
  8
0
  6
CONTINUOUS
 62
     8
 10
170.8791483479
 20
268.4389913952
 30
0.0
  0
VERTEX
  5
429
  8
0
  6
CONTINUOUS
 62
     8
 10
170.9786359506
 20
268.4394868588
 30
0.0
  0
VERTEX
  5
42A
  8
0
  6
CONTINUOUS
 62
     8
 10
171.0525680618
 20
268.4398537999
 30
0.0
  0
VERTEX
  5
42B
  8
0
  6
CONTINUOUS
 62
     8
 10
171.0980911093
 20
268.4400810426
 30
0.0
  0
VERTEX
  5
42C
  8
0
  6
CONTINUOUS
 62
     8
 10
171.1134616571
 20
268.4401574111
 30
0.0
  0
SEQEND
  5
466
  8
0
  6
CONTINUOUS
 62
     8
  0
POLYLINE
  5
2A0
  8
0
  6
CONTINUOUS
 62
     8
 66
     1
 10
0.0
 20
0.0
 30
0.0
 70
   128
  0
VERTEX
  5
42D
  8
0
  6
CONTINUOUS
 62
     8
 10
162.9135612683
 20
268.3993133282
 30
0.0
  0
VERTEX
  5
42E
  8
0
  6
CONTINUOUS
 62
     8
 10
162.7574939566
 20
268.3985366052
 30
0.0
  0
VERTEX
  5
42F
  8
0
  6
CONTINUOUS
 62
     8
 10
162.6074243622
 20
268.3977896845
 30
0.0
  0
VERTEX
  5
430
  8
0
  6
CONTINUOUS
 62
     8
 10
162.469111784
 20
268.3971005058
 30
0.0
  0
VERTEX
  5
431
  8
0
  6
CONTINUOUS
 62
     8
 10
162.3478833871
 20
268.3964970088
 30
0.0
  0
VERTEX
  5
432
  8
0
  6
CONTINUOUS
 62
     8
 10
162.2483957844
 20
268.3960015452
 30
0.0
  0
VERTEX
  5
433
  8
0
  6
CONTINUOUS
 62
     8
 10
162.1744711237
 20
268.3956327414
 30
0.0
  0
VERTEX
  5
434
  8
0
  6
CONTINUOUS
 62
     8
 10
162.1289480763
 20
268.3954054987
 30
0.0
  0
VERTEX
  5
435
  8
0
  6
CONTINUOUS
 62
     8
 10
162.1135775285
 20
268.3953291303
 30
0.0
  0
SEQEND
  5
467
  8
0
  6
CONTINUOUS
 62
     8
  0
POLYLINE
  5
2A1
  8
0
  6
CONTINUOUS
 62
     8
 66
     1
 10
0.0
 20
0.0
 30
0.0
 70
   128
  0
VERTEX
  5
436
  8
0
  6
CONTINUOUS
 62
     8
 10
170.3134704666
 20
268.4361732131
 30
0.0
  0
VERTEX
  5
437
  8
0
  6
CONTINUOUS
 62
     8
 10
170.3142527776
 20
268.280102176
 30
0.0
  0
VERTEX
  5
438
  8
0
  6
CONTINUOUS
 62
     8
 10
170.3149978356
 20
268.130030719
 30
0.0
  0
VERTEX
  5
439
  8
0
  6
CONTINUOUS
 62
     8
 10
170.3156832891
 20
267.9917218661
 30
0.0
  0
VERTEX
  5
43A
  8
0
  6
CONTINUOUS
 62
     8
 10
170.3162867861
 20
267.8704953319
 30
0.0
  0
VERTEX
  5
43B
  8
0
  6
CONTINUOUS
 62
     8
 10
170.316785975
 20
267.7710058665
 30
0.0
  0
VERTEX
  5
43C
  8
0
  6
CONTINUOUS
 62
     8
 10
170.3171510534
 20
267.6970793432
 30
0.0
  0
VERTEX
  5
43D
  8
0
  6
CONTINUOUS
 62
     8
 10
170.3173820214
 20
267.6515544331
 30
0.0
  0
VERTEX
  5
43E
  8
0
  6
CONTINUOUS
 62
     8
 10
170.3174565272
 20
267.6361838853
 30
0.0
  0
SEQEND
  5
468
  8
0
  6
CONTINUOUS
 62
     8
  0
POLYLINE
  5
2A2
  8
0
  6
CONTINUOUS
 62
     8
 66
     1
 10
0.0
 20
0.0
 30
0.0
 70
   128
  0
VERTEX
  5
43F
  8
0
  6
CONTINUOUS
 62
     8
 10
162.9135612683
 20
268.3993133282
 30
0.0
  0
VERTEX
  5
440
  8
0
  6
CONTINUOUS
 62
     8
 10
162.9143435793
 20
268.2432441538
 30
0.0
  0
VERTEX
  5
441
  8
0
  6
CONTINUOUS
 62
     8
 10
162.9150886374
 20
268.0931708342
 30
0.0
  0
VERTEX
  5
442
  8
0
  6
CONTINUOUS
 62
     8
 10
162.9157815414
 20
267.9548638439
 30
0.0
  0
VERTEX
  5
443
  8
0
  6
CONTINUOUS
 62
     8
 10
162.9163850384
 20
267.833635447
 30
0.0
  0
VERTEX
  5
444
  8
0
  6
CONTINUOUS
 62
     8
 10
162.9168767767
 20
267.7341459816
 30
0.0
  0
VERTEX
  5
445
  8
0
  6
CONTINUOUS
 62
     8
 10
162.9172418551
 20
267.6602194583
 30
0.0
  0
VERTEX
  5
446
  8
0
  6
CONTINUOUS
 62
     8
 10
162.9174728231
 20
267.6146964109
 30
0.0
  0
VERTEX
  5
447
  8
0
  6
CONTINUOUS
 62
     8
 10
162.917547329
 20
267.5993240005
 30
0.0
  0
SEQEND
  5
469
  8
0
  6
CONTINUOUS
 62
     8
  0
ARC
  5
2A3
  8
0
  6
CONTINUOUS
 62
     8
 10
166.4431689937
 20
302.617319358
 30
0.0
 40
17.90000000000001
 50
284.8455636886
 51
345.7252156553
  0
ARC
  5
2A4
  8
0
  6
CONTINUOUS
 62
     8
 10
166.4431689937
 20
302.617319358
 30
0.0
 40
17.89999999999997
 50
14.8455636885
 51
75.7252156553
  0
ARC
  5
2A5
  8
0
  6
CONTINUOUS
 62
     8
 10
166.4431689937
 20
302.617319358
 30
0.0
 40
17.90000000000001
 50
104.8455636886
 51
165.7252156553
  0
ARC
  5
2A6
  8
0
  6
CONTINUOUS
 62
     8
 10
166.4431689937
 20
302.617319358
 30
0.0
 40
17.90000000000006
 50
194.8455636886
 51
255.7252156553
  0
ARC
  5
2A7
  8
0
  6
CONTINUOUS
 62
     8
 10
166.4431689937
 20
302.617319358
 30
0.0
 40
19.00000000000004
 50
193.9856231603
 51
256.5851561835
  0
ARC
  5
2A8
  8
0
  6
CONTINUOUS
 62
     8
 10
166.4431689937
 20
302.617319358
 30
0.0
 40
19.0
 50
103.9856231603
 51
166.5851561835
  0
ARC
  5
2A9
  8
0
  6
CONTINUOUS
 62
     8
 10
166.4431689937
 20
302.617319358
 30
0.0
 40
18.99999999999995
 50
13.9856231603
 51
76.5851561835
  0
ARC
  5
2AA
  8
0
  6
CONTINUOUS
 62
     8
 10
166.4431689937
 20
302.617319358
 30
0.0
 40
18.99999999999999
 50
283.9856231603
 51
346.5851561835
  0
ARC
  5
2AB
  8
0
  6
CONTINUOUS
 62
     8
 10
166.4431689937
 20
302.617319358
 30
0.0
 40
27.69999999999999
 50
279.6348043611
 51
350.9359749827
  0
ARC
  5
2AC
  8
0
  6
CONTINUOUS
 62
     8
 10
166.4431689937
 20
302.617319358
 30
0.0
 40
27.7
 50
9.6348043611
 51
80.9359749827
  0
ARC
  5
2AD
  8
0
  6
CONTINUOUS
 62
     8
 10
166.4431689937
 20
302.617319358
 30
0.0
 40
27.7
 50
99.6348043611
 51
170.9359749827
  0
ARC
  5
2AE
  8
0
  6
CONTINUOUS
 62
     8
 10
166.4431689937
 20
302.617319358
 30
0.0
 40
27.70000000000005
 50
189.6348043611
 51
260.9359749827
  0
LINE
  5
2AF
  8
0
  6
CONTINUOUS
 62
     8
 10
370.0670827465
 20
337.6173211759
 30
0.0
 11
370.0670827465
 21
336.8173188096
 31
0.0
  0
LINE
  5
2B0
  8
0
  6
CONTINUOUS
 62
     8
 10
370.0670827465
 20
336.8173188096
 30
0.0
 11
362.6670841413
 21
336.8173188096
 31
0.0
  0
LINE
  5
2B1
  8
0
  6
CONTINUOUS
 62
     8
 10
362.6670841413
 20
337.6173211759
 30
0.0
 11
362.6670841413
 21
336.8173188096
 31
0.0
  0
LINE
  5
2B2
  8
0
  6
CONTINUOUS
 62
     8
 10
370.0670827465
 20
336.8173188096
 30
0.0
 11
370.8670813875
 21
336.8173188096
 31
0.0
  0
LINE
  5
2B3
  8
0
  6
CONTINUOUS
 62
     8
 10
361.8670855002
 20
336.8173188096
 30
0.0
 11
362.6670841413
 21
336.8173188096
 31
0.0
  0
LINE
  5
2B4
  8
0
  6
CONTINUOUS
 62
     8
 10
362.6670841413
 20
336.8173188096
 30
0.0
 11
362.6670841413
 21
314.1173201179
 31
0.0
  0
LINE
  5
2B5
  8
0
  6
CONTINUOUS
 62
     8
 10
361.8670855002
 20
314.1173201179
 30
0.0
 11
362.6670841413
 21
314.1173201179
 31
0.0
  0
LINE
  5
2B6
  8
0
  6
CONTINUOUS
 62
     8
 10
370.0670827465
 20
268.4173195189
 30
0.0
 11
370.0670827465
 21
291.1173191419
 31
0.0
  0
LINE
  5
2B7
  8
0
  6
CONTINUOUS
 62
     8
 10
362.6670841413
 20
268.4173195189
 30
0.0
 11
370.0670827465
 21
268.4173195189
 31
0.0
  0
LINE
  5
2B8
  8
0
  6
CONTINUOUS
 62
     8
 10
362.6670841413
 20
291.1173191419
 30
0.0
 11
362.6670841413
 21
268.4173195189
 31
0.0
  0
ARC
  5
2B9
  8
0
  6
CONTINUOUS
 62
     8
 10
354.8670832771
 20
291.117319358
 30
0.0
 40
7.800000000000011
 50
0.0
 51
90.0
  0
LINE
  5
2BA
  8
0
  6
CONTINUOUS
 62
     8
 10
332.1670819359
 20
298.9173193378
 30
0.0
 11
354.8670862155
 21
298.9173193378
 31
0.0
  0
LINE
  5
2BB
  8
0
  6
CONTINUOUS
 62
     8
 10
332.1670819359
 20
306.3173193982
 30
0.0
 11
332.1670819359
 21
298.9173193378
 31
0.0
  0
LINE
  5
2BC
  8
0
  6
CONTINUOUS
 62
     8
 10
354.8670862155
 20
306.3173193982
 30
0.0
 11
332.1670819359
 21
306.3173193982
 31
0.0
  0
ARC
  5
2BD
  8
0
  6
CONTINUOUS
 62
     8
 10
354.8670832771
 20
314.117319358
 30
0.0
 40
7.800000000000011
 50
270.0
 51
0.0
  0
LINE
  5
2BE
  8
0
  6
CONTINUOUS
 62
     8
 10
370.0670827465
 20
314.1173201179
 30
0.0
 11
370.0670827465
 21
336.8173188096
 31
0.0
  0
ARC
  5
2BF
  8
0
  6
CONTINUOUS
 62
     8
 10
377.8670832771
 20
314.117319358
 30
0.0
 40
7.800000000000011
 50
180.0
 51
270.0
  0
LINE
  5
2C0
  8
0
  6
CONTINUOUS
 62
     8
 10
400.5670849519
 20
306.3173193982
 30
0.0
 11
377.8670806723
 21
306.3173193982
 31
0.0
  0
LINE
  5
2C1
  8
0
  6
CONTINUOUS
 62
     8
 10
400.5670849519
 20
298.9173193378
 30
0.0
 11
400.5670849519
 21
306.3173193982
 31
0.0
  0
LINE
  5
2C2
  8
0
  6
CONTINUOUS
 62
     8
 10
377.8670806723
 20
298.9173193378
 30
0.0
 11
400.5670849519
 21
298.9173193378
 31
0.0
  0
ARC
  5
2C3
  8
0
  6
CONTINUOUS
 62
     8
 10
377.8670832771
 20
291.117319358
 30
0.0
 40
7.800000000000011
 50
90.0
 51
180.0
  0
LINE
  5
2C4
  8
0
  6
CONTINUOUS
 62
     8
 10
370.8670813875
 20
314.1173201179
 30
0.0
 11
370.0670827465
 21
314.1173201179
 31
0.0
  0
LINE
  5
2C5
  8
0
  6
CONTINUOUS
 62
     8
 10
377.8670806723
 20
307.1173189705
 30
0.0
 11
377.8670806723
 21
306.3173193982
 31
0.0
  0
LINE
  5
2C6
  8
0
  6
CONTINUOUS
 62
     8
 10
354.8670862155
 20
307.1173189705
 30
0.0
 11
354.8670862155
 21
306.3173193982
 31
0.0
  0
LINE
  5
2C7
  8
0
  6
CONTINUOUS
 62
     8
 10
332.1670819359
 20
307.1173189705
 30
0.0
 11
332.1670819359
 21
306.3173193982
 31
0.0
  0
LINE
  5
2C8
  8
0
  6
CONTINUOUS
 62
     8
 10
400.5670849519
 20
306.3173193982
 30
0.0
 11
401.3670835929
 21
306.3173193982
 31
0.0
  0
LINE
  5
2C9
  8
0
  6
CONTINUOUS
 62
     8
 10
400.5670849519
 20
307.1173189705
 30
0.0
 11
400.5670849519
 21
306.3173193982
 31
0.0
  0
LINE
  5
2CA
  8
0
  6
CONTINUOUS
 62
     8
 10
331.3670832949
 20
306.3173193982
 30
0.0
 11
332.1670819359
 21
306.3173193982
 31
0.0
  0
LINE
  5
2CB
  8
0
  6
CONTINUOUS
 62
     8
 10
331.3670832949
 20
298.9173193378
 30
0.0
 11
332.1670819359
 21
298.9173193378
 31
0.0
  0
LINE
  5
2CC
  8
0
  6
CONTINUOUS
 62
     8
 10
400.5670849519
 20
298.9173193378
 30
0.0
 11
401.3670835929
 21
298.9173193378
 31
0.0
  0
LINE
  5
2CD
  8
0
  6
CONTINUOUS
 62
     8
 10
400.5670849519
 20
298.9173193378
 30
0.0
 11
400.5670849519
 21
298.117319358
 31
0.0
  0
LINE
  5
2CE
  8
0
  6
CONTINUOUS
 62
     8
 10
354.8670862155
 20
298.9173193378
 30
0.0
 11
354.8670862155
 21
298.117319358
 31
0.0
  0
LINE
  5
2CF
  8
0
  6
CONTINUOUS
 62
     8
 10
332.1670819359
 20
298.117319358
 30
0.0
 11
332.1670819359
 21
298.9173193378
 31
0.0
  0
LINE
  5
2D0
  8
0
  6
CONTINUOUS
 62
     8
 10
377.8670806723
 20
298.9173193378
 30
0.0
 11
377.8670806723
 21
298.117319358
 31
0.0
  0
LINE
  5
2D1
  8
0
  6
CONTINUOUS
 62
     8
 10
370.0670827465
 20
291.1173191419
 30
0.0
 11
370.8670813875
 21
291.1173191419
 31
0.0
  0
LINE
  5
2D2
  8
0
  6
CONTINUOUS
 62
     8
 10
362.6670841413
 20
291.1173191419
 30
0.0
 11
361.8670855002
 21
291.1173191419
 31
0.0
  0
LINE
  5
2D3
  8
0
  6
CONTINUOUS
 62
     8
 10
370.0670827465
 20
268.4173195189
 30
0.0
 11
370.8670813875
 21
268.4173195189
 31
0.0
  0
LINE
  5
2D4
  8
0
  6
CONTINUOUS
 62
     8
 10
362.6670841413
 20
268.4173195189
 30
0.0
 11
361.8670855002
 21
268.4173195189
 31
0.0
  0
LINE
  5
2D5
  8
0
  6
CONTINUOUS
 62
     8
 10
370.0670827465
 20
268.4173195189
 30
0.0
 11
370.0670827465
 21
267.6173190152
 31
0.0
  0
LINE
  5
2D6
  8
0
  6
CONTINUOUS
 62
     8
 10
362.6670841413
 20
268.4173195189
 30
0.0
 11
362.6670841413
 21
267.6173190152
 31
0.0
  0
ARC
  5
2D7
  8
0
  6
CONTINUOUS
 62
     8
 10
366.3670832771
 20
302.617319358
 30
0.0
 40
17.90000000000001
 50
284.5601740166
 51
345.4398259834
  0
ARC
  5
2D8
  8
0
  6
CONTINUOUS
 62
     8
 10
366.3670832771
 20
302.617319358
 30
0.0
 40
17.90000000000001
 50
14.5601740166
 51
75.4398259834
  0
ARC
  5
2D9
  8
0
  6
CONTINUOUS
 62
     8
 10
366.3670832771
 20
302.617319358
 30
0.0
 40
17.90000000000001
 50
104.5601740166
 51
165.4398259834
  0
ARC
  5
2DA
  8
0
  6
CONTINUOUS
 62
     8
 10
366.3670832771
 20
302.617319358
 30
0.0
 40
17.90000000000001
 50
194.5601740166
 51
255.4398259834
  0
ARC
  5
2DB
  8
0
  6
CONTINUOUS
 62
     8
 10
366.3670832771
 20
302.617319358
 30
0.0
 40
19.00000000000005
 50
193.7002334884
 51
256.2997665116
  0
ARC
  5
2DC
  8
0
  6
CONTINUOUS
 62
     8
 10
366.3670832771
 20
302.617319358
 30
0.0
 40
18.99999999999998
 50
103.7002334884
 51
166.2997665116
  0
ARC
  5
2DD
  8
0
  6
CONTINUOUS
 62
     8
 10
366.3670832771
 20
302.617319358
 30
0.0
 40
18.99999999999998
 50
13.7002334884
 51
76.2997665116
  0
ARC
  5
2DE
  8
0
  6
CONTINUOUS
 62
     8
 10
366.3670832771
 20
302.617319358
 30
0.0
 40
19.00000000000005
 50
283.7002334884
 51
346.2997665116
  0
ARC
  5
2DF
  8
0
  6
CONTINUOUS
 62
     8
 10
366.3670832771
 20
302.617319358
 30
0.0
 40
27.7
 50
279.3494146892
 51
350.6505853108
  0
ARC
  5
2E0
  8
0
  6
CONTINUOUS
 62
     8
 10
366.3670832771
 20
302.617319358
 30
0.0
 40
27.70000000000001
 50
9.3494146892
 51
80.6505853108
  0
ARC
  5
2E1
  8
0
  6
CONTINUOUS
 62
     8
 10
366.3670832771
 20
302.617319358
 30
0.0
 40
27.70000000000001
 50
99.3494146892
 51
170.6505853108
  0
ARC
  5
2E2
  8
0
  6
CONTINUOUS
 62
     8
 10
366.3670832771
 20
302.617319358
 30
0.0
 40
27.7
 50
189.3494146892
 51
260.6505853108
  0
LINE
  5
2E3
  8
0
  6
CONTINUOUS
 62
     8
 10
264.2451305227
 20
340.8173194653
 30
0.0
 11
264.2451305227
 21
340.4173201447
 31
0.0
  0
LINE
  5
2E4
  8
0
  6
CONTINUOUS
 62
     8
 10
264.2451305227
 20
340.4173201447
 30
0.0
 11
263.8451305037
 21
340.4173201447
 31
0.0
  0
LINE
  5
2E5
  8
0
  6
CONTINUOUS
 62
     8
 10
268.6451304989
 20
340.8173194653
 30
0.0
 11
268.6451304989
 21
340.4173201447
 31
0.0
  0
LINE
  5
2E6
  8
0
  6
CONTINUOUS
 62
     8
 10
268.6451304989
 20
340.4173201447
 30
0.0
 11
264.2451305227
 21
340.4173201447
 31
0.0
  0
LINE
  5
2E7
  8
0
  6
CONTINUOUS
 62
     8
 10
268.6451304989
 20
316.9173190868
 30
0.0
 11
269.0451305179
 21
316.9173190868
 31
0.0
  0
LINE
  5
2E8
  8
0
  6
CONTINUOUS
 62
     8
 10
268.6451304989
 20
316.9173190868
 30
0.0
 11
268.6451304989
 21
340.4173201447
 31
0.0
  0
LINE
  5
2E9
  8
0
  6
CONTINUOUS
 62
     8
 10
269.0451305179
 20
340.4173201447
 30
0.0
 11
268.6451304989
 21
340.4173201447
 31
0.0
  0
LINE
  5
2EA
  8
0
  6
CONTINUOUS
 62
     8
 10
264.2451305227
 20
340.4173201447
 30
0.0
 11
264.2451305227
 21
316.9173190868
 31
0.0
  0
LINE
  5
2EB
  8
0
  6
CONTINUOUS
 62
     8
 10
264.2451305227
 20
316.9173190868
 30
0.0
 11
263.8451305037
 21
316.9173190868
 31
0.0
  0
ARC
  5
2EC
  8
0
  6
CONTINUOUS
 62
     8
 10
266.4451305108
 20
316.917319358
 30
0.0
 40
2.200000000000045
 50
180.0
 51
0.0
  0
POLYLINE
  5
2ED
  8
0
  6
CONTINUOUS
 62
     8
 66
     1
 10
0.0
 20
0.0
 30
0.0
 70
   128
  0
VERTEX
  5
448
  8
0
  6
CONTINUOUS
 62
     8
 10
277.0451301994
 20
302.6173191643
 30
0.0
  0
VERTEX
  5
449
  8
0
  6
CONTINUOUS
 62
     8
 10
276.8646454724
 20
300.6695744148
 30
0.0
  0
VERTEX
  5
44A
  8
0
  6
CONTINUOUS
 62
     8
 10
276.4451302873
 20
299.1016402407
 30
0.0
  0
SEQEND
  5
46A
  8
0
  6
CONTINUOUS
 62
     8
  0
ARC
  5
2EE
  8
0
  6
CONTINUOUS
 62
     8
 10
266.4451305108
 20
302.617319358
 30
0.0
 40
10.60000000000002
 50
0.0
 51
199.3700382455
  0
ARC
  5
2EF
  8
0
  6
CONTINUOUS
 62
     8
 10
266.4451305108
 20
302.617319358
 30
0.0
 40
17.89999999999998
 50
0.0
 51
81.6481627209
  0
ARC
  5
2F0
  8
0
  6
CONTINUOUS
 62
     8
 10
266.4451305108
 20
302.617319358
 30
0.0
 40
17.90000000000001
 50
98.3518372791
 51
236.0368756489
  0
ARC
  5
2F1
  8
0
  6
CONTINUOUS
 62
     8
 10
266.4451305108
 20
302.617319358
 30
0.0
 40
17.90000000000004
 50
303.9631243511
 51
0.0
  0
ARC
  5
2F2
  8
0
  6
CONTINUOUS
 62
     8
 10
266.4451305108
 20
302.617319358
 30
0.0
 40
19.10000000000002
 50
301.5713677391
 51
0.0
  0
ARC
  5
2F3
  8
0
  6
CONTINUOUS
 62
     8
 10
266.4451305108
 20
302.617319358
 30
0.0
 40
19.09999999999999
 50
97.8237160603
 51
238.4286322609
  0
ARC
  5
2F4
  8
0
  6
CONTINUOUS
 62
     8
 10
266.4451305108
 20
302.617319358
 30
0.0
 40
19.10000000000002
 50
0.0
 51
82.1762839397
  0
ARC
  5
2F5
  8
0
  6
CONTINUOUS
 62
     8
 10
266.4451305108
 20
302.617319358
 30
0.0
 40
27.70000000000005
 50
0.0
 51
84.6141285059
  0
ARC
  5
2F6
  8
0
  6
CONTINUOUS
 62
     8
 10
266.4451305108
 20
302.617319358
 30
0.0
 40
27.70000000000003
 50
95.3858714941
 51
248.8377124472
  0
ARC
  5
2F7
  8
0
  6
CONTINUOUS
 62
     8
 10
266.4451305108
 20
302.617319358
 30
0.0
 40
27.70000000000005
 50
291.1622875528
 51
0.0
  0
ENDSEC
  0
EOF
