  0
SECTION
  2
HEADER
  9
$ACADVER
  1
AC1024
  9
$ACADMAINTVER
 70
     6
  9
$DWGCODEPAGE
  3
ANSI_1252
  9
$INSBASE
 10
0.0
 20
0.0
 30
0.0
  9
$EXTMIN
 10
0.0
 20
0.0
 30
0.0
  9
$EXTMAX
 10
594.0
 20
841.0
 30
0.0
  9
$LIMMIN
 10
0.0
 20
0.0
  9
$LIMMAX
 10
594.0
 20
841.0
  9
$ORTHOMODE
 70
     0
  9
$REGENMODE
 70
     1
  9
$FILLMODE
 70
     1
  9
$QTEXTMODE
 70
     0
  9
$MIRRTEXT
 70
     1
  9
$LTSCALE
 40
1.0
  9
$ATTMODE
 70
     1
  9
$TEXTSIZE
 40
10.0
  9
$TRACEWID
 40
1.0
  9
$TEXTSTYLE
  7
Standard
  9
$CLAYER
  8
0
  9
$CELTYPE
  6
ByLayer
  9
$CECOLOR
 62
   256
  9
$CELTSCALE
 40
1.0
  9
$DISPSILH
 70
     0
  9
$DIMSCALE
 40
1.0
  9
$DIMASZ
 40
2.5
  9
$DIMEXO
 40
0.0
  9
$DIMDLI
 40
3.75
  9
$DIMRND
 40
0.0
  9
$DIMDLE
 40
0.0
  9
$DIMEXE
 40
1.0
  9
$DIMTP
 40
0.0
  9
$DIMTM
 40
0.0
  9
$DIMTXT
 40
3.5
  9
$DIMCEN
 40
2.5
  9
$DIMTSZ
 40
0.0
  9
$DIMTOL
 70
     0
  9
$DIMLIM
 70
     0
  9
$DIMTIH
 70
     1
  9
$DIMTOH
 70
     1
  9
$DIMSE1
 70
     0
  9
$DIMSE2
 70
     0
  9
$DIMTAD
 70
     1
  9
$DIMZIN
 70
     0
  9
$DIMBLK
  1

  9
$DIMASO
 70
     1
  9
$DIMSHO
 70
     1
  9
$DIMPOST
  1

  9
$DIMAPOST
  1

  9
$DIMALT
 70
     0
  9
$DIMALTD
 70
     3
  9
$DIMALTF
 40
0.0393700787
  9
$DIMLFAC
 40
1.0
  9
$DIMTOFL
 70
     1
  9
$DIMTVP
 40
0.0
  9
$DIMTIX
 70
     0
  9
$DIMSOXD
 70
     0
  9
$DIMSAH
 70
     0
  9
$DIMBLK1
  1

  9
$DIMBLK2
  1

  9
$DIMSTYLE
  2
ISO-25
  9
$DIMCLRD
 70
     0
  9
$DIMCLRE
 70
     0
  9
$DIMCLRT
 70
     0
  9
$DIMTFAC
 40
1.0
  9
$DIMGAP
 40
1.5
  9
$DIMJUST
 70
     0
  9
$DIMSD1
 70
     0
  9
$DIMSD2
 70
     0
  9
$DIMTOLJ
 70
     0
  9
$DIMTZIN
 70
     0
  9
$DIMALTZ
 70
     0
  9
$DIMALTTZ
 70
     0
  9
$DIMUPT
 70
     0
  9
$DIMDEC
 70
     2
  9
$DIMTDEC
 70
     2
  9
$DIMALTU
 70
     2
  9
$DIMALTTD
 70
     3
  9
$DIMTXSTY
  7
Standard
  9
$DIMAUNIT
 70
     0
  9
$DIMADEC
 70
     2
  9
$DIMALTRND
 40
0.0
  9
$DIMAZIN
 70
     0
  9
$DIMDSEP
 70
    44
  9
$DIMATFIT
 70
     3
  9
$DIMFRAC
 70
     0
  9
$DIMLDRBLK
  1

  9
$DIMLUNIT
 70
     2
  9
$DIMLWD
 70
    -2
  9
$DIMLWE
 70
    -2
  9
$DIMTMOVE
 70
     0
  9
$DIMFXL
 40
1.0
  9
$DIMFXLON
 70
     0
  9
$DIMJOGANG
 40
0.7853981634
  9
$DIMTFILL
 70
     0
  9
$DIMTFILLCLR
 70
     0
  9
$DIMARCSYM
 70
     0
  9
$DIMLTYPE
  6

  9
$DIMLTEX1
  6

  9
$DIMLTEX2
  6

  9
$DIMTXTDIRECTION
 70
     0
  9
$LUNITS
 70
     2
  9
$LUPREC
 70
     2
  9
$SKETCHINC
 40
1.0
  9
$FILLETRAD
 40
10.0
  9
$AUNITS
 70
     0
  9
$AUPREC
 70
     2
  9
$MENU
  1
.
  9
$ELEVATION
 40
0.0
  9
$PELEVATION
 40
0.0
  9
$THICKNESS
 40
0.0
  9
$LIMCHECK
 70
     0
  9
$CHAMFERA
 40
10.0
  9
$CHAMFERB
 40
10.0
  9
$CHAMFERC
 40
20.0
  9
$CHAMFERD
 40
0.0
  9
$SKPOLY
 70
     0
  9
$TDCREATE
 40
2456170.280641481
  9
$TDUCREATE
 40
2456170.197308148
  9
$TDUPDATE
 40
2456170.280641493
  9
$TDUUPDATE
 40
2456170.19730816
  9
$TDINDWG
 40
0.0000000116
  9
$TDUSRTIMER
 40
0.0000000116
  9
$USRTIMER
 70
     1
  9
$ANGBASE
 50
0.0
  9
$ANGDIR
 70
     0
  9
$PDMODE
 70
     0
  9
$PDSIZE
 40
-1.0
  9
$PLINEWID
 40
0.0
  9
$SPLFRAME
 70
     0
  9
$SPLINETYPE
 70
     6
  9
$SPLINESEGS
 70
     8
  9
$HANDSEED
  5
1A1
  9
$SURFTAB1
 70
     6
  9
$SURFTAB2
 70
     6
  9
$SURFTYPE
 70
     6
  9
$SURFU
 70
     6
  9
$SURFV
 70
     6
  9
$UCSBASE
  2

  9
$UCSNAME
  2

  9
$UCSORG
 10
0.0
 20
0.0
 30
0.0
  9
$UCSXDIR
 10
1.0
 20
0.0
 30
0.0
  9
$UCSYDIR
 10
0.0
 20
1.0
 30
0.0
  9
$UCSORTHOREF
  2

  9
$UCSORTHOVIEW
 70
     0
  9
$UCSORGTOP
 10
0.0
 20
0.0
 30
0.0
  9
$UCSORGBOTTOM
 10
0.0
 20
0.0
 30
0.0
  9
$UCSORGLEFT
 10
0.0
 20
0.0
 30
0.0
  9
$UCSORGRIGHT
 10
0.0
 20
0.0
 30
0.0
  9
$UCSORGFRONT
 10
0.0
 20
0.0
 30
0.0
  9
$UCSORGBACK
 10
0.0
 20
0.0
 30
0.0
  9
$PUCSBASE
  2

  9
$PUCSNAME
  2

  9
$PUCSORG
 10
0.0
 20
0.0
 30
0.0
  9
$PUCSXDIR
 10
1.0
 20
0.0
 30
0.0
  9
$PUCSYDIR
 10
0.0
 20
1.0
 30
0.0
  9
$PUCSORTHOREF
  2

  9
$PUCSORTHOVIEW
 70
     0
  9
$PUCSORGTOP
 10
0.0
 20
0.0
 30
0.0
  9
$PUCSORGBOTTOM
 10
0.0
 20
0.0
 30
0.0
  9
$PUCSORGLEFT
 10
0.0
 20
0.0
 30
0.0
  9
$PUCSORGRIGHT
 10
0.0
 20
0.0
 30
0.0
  9
$PUCSORGFRONT
 10
0.0
 20
0.0
 30
0.0
  9
$PUCSORGBACK
 10
0.0
 20
0.0
 30
0.0
  9
$USERI1
 70
     0
  9
$USERI2
 70
     0
  9
$USERI3
 70
     0
  9
$USERI4
 70
     0
  9
$USERI5
 70
     0
  9
$USERR1
 40
0.0
  9
$USERR2
 40
0.0
  9
$USERR3
 40
0.0
  9
$USERR4
 40
0.0
  9
$USERR5
 40
0.0
  9
$WORLDVIEW
 70
     1
  9
$SHADEDGE
 70
     3
  9
$SHADEDIF
 70
    70
  9
$TILEMODE
 70
     1
  9
$MAXACTVP
 70
    64
  9
$PINSBASE
 10
0.0
 20
0.0
 30
0.0
  9
$PLIMCHECK
 70
     0
  9
$PEXTMIN
 10
1.0000000000E+20
 20
1.0000000000E+20
 30
1.0000000000E+20
  9
$PEXTMAX
 10
-1.0000000000E+20
 20
-1.0000000000E+20
 30
-1.0000000000E+20
  9
$PLIMMIN
 10
0.0
 20
0.0
  9
$PLIMMAX
 10
420.0
 20
297.0
  9
$UNITMODE
 70
     0
  9
$VISRETAIN
 70
     1
  9
$PLINEGEN
 70
     0
  9
$PSLTSCALE
 70
     1
  9
$TREEDEPTH
 70
  3020
  9
$CMLSTYLE
  2
Standard
  9
$CMLJUST
 70
     0
  9
$CMLSCALE
 40
20.0
  9
$PROXYGRAPHICS
 70
     1
  9
$MEASUREMENT
 70
     1
  9
$CELWEIGHT
370
    -1
  9
$ENDCAPS
280
     0
  9
$JOINSTYLE
280
     0
  9
$LWDISPLAY
290
     1
  9
$INSUNITS
 70
     4
  9
$HYPERLINKBASE
  1

  9
$STYLESHEET
  1

  9
$XEDIT
290
     1
  9
$CEPSNTYPE
380
     0
  9
$PSTYLEMODE
290
     1
  9
$FINGERPRINTGUID
  2
{72AF9F50-0652-4FA8-A8EA-889442A65D5C}
  9
$VERSIONGUID
  2
{FAEB1C32-E019-11D5-929B-00C0DF256EC4}
  9
$EXTNAMES
290
     1
  9
$PSVPSCALE
 40
0.0
  9
$OLESTARTUP
290
     0
  9
$SORTENTS
280
   127
  9
$INDEXCTL
280
     0
  9
$HIDETEXT
280
     1
  9
$XCLIPFRAME
280
     2
  9
$HALOGAP
280
     0
  9
$OBSCOLOR
 70
   257
  9
$OBSLTYPE
280
     0
  9
$INTERSECTIONDISPLAY
280
     0
  9
$INTERSECTIONCOLOR
 70
   257
  9
$DIMASSOC
280
     2
  9
$PROJECTNAME
  1

  9
$CAMERADISPLAY
290
     0
  9
$LENSLENGTH
 40
50.0
  9
$CAMERAHEIGHT
 40
0.0
  9
$STEPSPERSEC
 40
2.0
  9
$STEPSIZE
 40
6.0
  9
$3DDWFPREC
 40
2.0
  9
$PSOLWIDTH
 40
5.0
  9
$PSOLHEIGHT
 40
80.0
  9
$LOFTANG1
 40
1.5707963268
  9
$LOFTANG2
 40
1.5707963268
  9
$LOFTMAG1
 40
0.0
  9
$LOFTMAG2
 40
0.0
  9
$LOFTPARAM
 70
     7
  9
$LOFTNORMALS
280
     1
  9
$LATITUDE
 40
37.795
  9
$LONGITUDE
 40
-122.394
  9
$NORTHDIRECTION
 40
0.0
  9
$TIMEZONE
 70
 -8000
  9
$LIGHTGLYPHDISPLAY
280
     1
  9
$TILEMODELIGHTSYNCH
280
     1
  9
$SOLIDHIST
280
     1
  9
$SHOWHIST
280
     1
  9
$DWFFRAME
280
     2
  9
$DGNFRAME
280
     2
  9
$REALWORLDSCALE
290
     1
  9
$INTERFERECOLOR
 62
   256
  9
$CSHADOW
280
     0
  9
$SHADOWPLANELOCATION
 40
0.0
  0
ENDSEC
  0
SECTION
  2
CLASSES
  0
CLASS
  1
ACDBDICTIONARYWDFLT
  2
AcDbDictionaryWithDefault
  3
ObjectDBX Classes
 90
        0
 91
        4
280
     0
281
     0
  0
CLASS
  1
VISUALSTYLE
  2
AcDbVisualStyle
  3
ObjectDBX Classes
 90
     4095
 91
        4
280
     0
281
     0
  0
CLASS
  1
MATERIAL
  2
AcDbMaterial
  3
ObjectDBX Classes
 90
     1153
 91
        4
280
     0
281
     0
  0
ENDSEC
  0
SECTION
  2
TABLES
  0
TABLE
  2
VPORT
  5
8
330
0
100
AcDbSymbolTable
 70
     1
  0
VPORT
  5
29
330
8
100
AcDbSymbolTableRecord
100
AcDbViewportTableRecord
  2
*Active
 70
     0
 10
0.0
 20
0.0
 11
1.0
 21
1.0
 12
297.0
 22
420.5
 13
0.0
 23
0.0
 14
10.0
 24
10.0
 15
10.0
 25
10.0
 16
0.0
 26
0.0
 36
1.0
 17
0.0
 27
0.0
 37
0.0
 40
841.0
 41
0.7063020214
 42
50.0
 43
0.0
 44
0.0
 50
0.0
 51
0.0
 71
     0
 72
  2000
 73
     1
 74
     3
 75
     0
 76
     0
 77
     0
 78
     0
281
     0
 65
     1
110
0.0
120
0.0
130
0.0
111
1.0
121
0.0
131
0.0
112
0.0
122
1.0
132
0.0
 79
     0
146
0.0
 60
     3
 61
     5
292
     1
282
     1
141
0.0
142
0.0
 63
   250
  0
ENDTAB
  0
TABLE
  2
LTYPE
  5
5
330
0
100
AcDbSymbolTable
 70
     6
  0
LTYPE
  5
14
330
5
100
AcDbSymbolTableRecord
100
AcDbLinetypeTableRecord
  2
ByBlock
 70
     0
  3

 72
    65
 73
     0
 40
0.0
  0
LTYPE
  5
15
330
5
100
AcDbSymbolTableRecord
100
AcDbLinetypeTableRecord
  2
ByLayer
 70
     0
  3

 72
    65
 73
     0
 40
0.0
  0
LTYPE
  5
16
330
5
100
AcDbSymbolTableRecord
100
AcDbLinetypeTableRecord
  2
Continuous
 70
     0
  3
Solid line
 72
    65
 73
     0
 40
0.0
  0
LTYPE
  5
3F
330
5
100
AcDbSymbolTableRecord
100
AcDbLinetypeTableRecord
  2
HIDDEN
 70
     0
  3
Hidden __ __ __ __ __ __ __ __ __ __ __ __ __ __
 72
    65
 73
     2
 40
1.905
 49
1.27
 74
     0
 49
-0.635
 74
     0
  0
LTYPE
  5
40
330
5
100
AcDbSymbolTableRecord
100
AcDbLinetypeTableRecord
  2
PHANTOM
 70
     0
  3
Phantom ______  __  __  ______  __  __  ______
 72
    65
 73
     6
 40
12.7
 49
6.35
 74
     0
 49
-1.27
 74
     0
 49
1.27
 74
     0
 49
-1.27
 74
     0
 49
1.27
 74
     0
 49
-1.27
 74
     0
  0
LTYPE
  5
41
330
5
100
AcDbSymbolTableRecord
100
AcDbLinetypeTableRecord
  2
CENTER
 70
     0
  3
Center ____ _ ____ _ ____ _ ____ _ ____ _ ____
 72
    65
 73
     4
 40
10.16
 49
6.35
 74
     0
 49
-1.27
 74
     0
 49
1.27
 74
     0
 49
-1.27
 74
     0
  0
LTYPE
  5
42
330
5
100
AcDbSymbolTableRecord
100
AcDbLinetypeTableRecord
  2
CENTERX2
 70
     0
  3
Center (2x) ________  __  ________  __  _____
 72
    65
 73
     4
 40
20.32
 49
12.7
 74
     0
 49
-2.54
 74
     0
 49
2.54
 74
     0
 49
-2.54
 74
     0
  0
LTYPE
  5
43
330
5
100
AcDbSymbolTableRecord
100
AcDbLinetypeTableRecord
  2
DOT2
 70
     0
  3
Dot (.5x) ........................................
 72
    65
 73
     2
 40
0.635
 49
0.0
 74
     0
 49
-0.635
 74
     0
  0
ENDTAB
  0
TABLE
  2
LAYER
  5
2
330
0
100
AcDbSymbolTable
 70
     1
  0
LAYER
  5
10
330
2
100
AcDbSymbolTableRecord
100
AcDbLayerTableRecord
  2
0
 70
     0
 62
     7
  6
Continuous
370
    -3
390
F
347
3E
  0
ENDTAB
  0
TABLE
  2
STYLE
  5
3
330
0
100
AcDbSymbolTable
 70
     3
  0
STYLE
  5
11
330
3
100
AcDbSymbolTableRecord
100
AcDbTextStyleTableRecord
  2
Standard
 70
     0
 40
0.0
 41
1.0
 50
0.0
 71
     0
 42
2.5
  3
txt
  4

  0
STYLE
  5
4A
330
3
100
AcDbSymbolTableRecord
100
AcDbTextStyleTableRecord
  2
SLDTEXTSTYLE0
 70
     0
 40
0.0
 41
0.96
 50
0.0
 71
     0
 42
0.2
  3
ISOCP3
  4

  0
STYLE
  5
61
330
3
100
AcDbSymbolTableRecord
100
AcDbTextStyleTableRecord
  2
SLDTEXTSTYLE1
 70
     0
 40
0.0
 41
0.605
 50
0.0
 71
     0
 42
0.2
  3
TXT
  4

  0
ENDTAB
  0
TABLE
  2
VIEW
  5
6
330
0
100
AcDbSymbolTable
 70
     0
  0
ENDTAB
  0
TABLE
  2
UCS
  5
7
330
0
100
AcDbSymbolTable
 70
     0
  0
ENDTAB
  0
TABLE
  2
APPID
  5
9
330
0
100
AcDbSymbolTable
 70
     1
  0
APPID
  5
12
330
9
100
AcDbSymbolTableRecord
100
AcDbRegAppTableRecord
  2
ACAD
 70
     0
  0
ENDTAB
  0
TABLE
  2
DIMSTYLE
  5
A
330
0
100
AcDbSymbolTable
 70
     2
100
AcDbDimStyleTable
  0
DIMSTYLE
105
27
330
A
100
AcDbSymbolTableRecord
100
AcDbDimStyleTableRecord
  2
ISO-25
 70
     0
 41
2.5
 42
0.625
 43
3.75
 44
1.25
 73
     0
 74
     0
 77
     1
 78
     8
140
2.5
141
2.5
143
0.0393700787
147
0.625
171
     3
172
     1
178
     0
271
     2
272
     2
274
     3
278
    44
283
     0
284
     8
340
11
  0
DIMSTYLE
105
4B
102
{ACAD_REACTORS
330
49
330
56
102
}
330
A
100
AcDbSymbolTableRecord
100
AcDbDimStyleTableRecord
  2
SLDDIMSTYLE0
 70
     0
 41
2.5
 44
0.0
 45
0.000000001
 73
     0
 74
     0
 77
     1
 78
    12
 79
     3
140
6.0
147
1.5
173
     1
178
     0
271
     2
272
     2
276
     2
284
    12
340
4A
  0
ENDTAB
  0
TABLE
  2
BLOCK_RECORD
  5
1
330
0
100
AcDbSymbolTable
 70
     3
  0
BLOCK_RECORD
  5
1F
330
1
100
AcDbSymbolTableRecord
100
AcDbBlockTableRecord
  2
*Model_Space
340
22
 70
     0
280
     1
281
     0
  0
BLOCK_RECORD
  5
1B
330
1
100
AcDbSymbolTableRecord
100
AcDbBlockTableRecord
  2
*Paper_Space
340
1E
 70
     0
280
     1
281
     0
  0
BLOCK_RECORD
  5
23
330
1
100
AcDbSymbolTableRecord
100
AcDbBlockTableRecord
  2
*Paper_Space0
340
26
 70
     0
280
     1
281
     0
  0
BLOCK_RECORD
  5
4C
330
1
100
AcDbSymbolTableRecord
100
AcDbBlockTableRecord
  2
*D1
340
0
 70
     0
280
     1
281
     0
  0
BLOCK_RECORD
  5
57
330
1
100
AcDbSymbolTableRecord
100
AcDbBlockTableRecord
  2
*D2
340
0
 70
     0
280
     1
281
     0
  0
ENDTAB
  0
ENDSEC
  0
SECTION
  2
BLOCKS
  0
BLOCK
  5
20
330
1F
100
AcDbEntity
  8
0
100
AcDbBlockBegin
  2
*Model_Space
 70
     0
 10
0.0
 20
0.0
 30
0.0
  3
*Model_Space
  1

  0
ENDBLK
  5
21
330
1F
100
AcDbEntity
  8
0
100
AcDbBlockEnd
  0
BLOCK
  5
1C
330
1B
100
AcDbEntity
 67
     1
  8
0
100
AcDbBlockBegin
  2
*Paper_Space
 70
     0
 10
0.0
 20
0.0
 30
0.0
  3
*Paper_Space
  1

  0
ENDBLK
  5
1D
330
1B
100
AcDbEntity
 67
     1
  8
0
100
AcDbBlockEnd
  0
BLOCK
  5
24
330
23
100
AcDbEntity
  8
0
100
AcDbBlockBegin
  2
*Paper_Space0
 70
     0
 10
0.0
 20
0.0
 30
0.0
  3
*Paper_Space0
  1

  0
ENDBLK
  5
25
330
23
100
AcDbEntity
  8
0
100
AcDbBlockEnd
  0
BLOCK
  5
4D
330
4C
100
AcDbEntity
  8
0
100
AcDbBlockBegin
  2
*D1
 70
     1
 10
0.0
 20
0.0
 30
0.0
  3
*D1
  1

  0
SOLID
  5
4F
330
4C
100
AcDbEntity
  8
0
  6
Continuous
 62
     7
370
     0
100
AcDbTrace
 10
42.7614395004
 20
152.0299240879
 30
0.0
 11
42.4614395004
 21
149.5299240879
 31
0.0
 12
43.0614395004
 22
149.5299240879
 32
0.0
 13
43.0614395004
 23
149.5299240879
 33
0.0
  0
SOLID
  5
50
330
4C
100
AcDbEntity
  8
0
  6
Continuous
 62
     7
370
     0
100
AcDbTrace
 10
42.7614395004
 20
52.0299240879
 30
0.0
 11
43.0614395004
 21
54.5299240879
 31
0.0
 12
42.4614395004
 22
54.5299240879
 32
0.0
 13
42.4614395004
 23
54.5299240879
 33
0.0
  0
LINE
  5
51
330
4C
100
AcDbEntity
  8
0
  6
Continuous
 62
     7
370
     0
100
AcDbLine
 10
56.6850079902
 20
152.0299240879
 30
0.0
 11
41.7614395004
 21
152.0299240879
 31
0.0
  0
LINE
  5
52
330
4C
100
AcDbEntity
  8
0
  6
Continuous
 62
     7
370
     0
100
AcDbLine
 10
56.6850079902
 20
52.0299240879
 30
0.0
 11
41.7614395004
 21
52.0299240879
 31
0.0
  0
LINE
  5
53
330
4C
100
AcDbEntity
  8
0
  6
Continuous
 62
     7
370
     0
100
AcDbLine
 10
42.7614395004
 20
152.0299240879
 30
0.0
 11
42.7614395004
 21
52.0299240879
 31
0.0
  0
MTEXT
  5
54
330
4C
100
AcDbEntity
  8
0
  6
Continuous
 62
     7
370
     0
100
AcDbMText
 10
35.0270332946
 20
91.6722208134
 30
0.1
 40
6.0
 41
0.0
 46
0.0
 71
     1
 72
     1
  1
100
  7
SLDTEXTSTYLE0
 11
-7.044195017643634E-15
 21
1.0
 31
0.0
 73
     1
 44
1.0
  0
MTEXT
  5
55
330
4C
100
AcDbEntity
  8
0
  6
Continuous
 62
     7
370
     0
100
AcDbMText
 10
35.0270332946
 20
108.4388881795
 30
0.1
 40
6.0
 41
0.0
 46
0.0
 71
     1
 72
     1
  1
mm
  7
SLDTEXTSTYLE0
 11
-7.044195017643634E-15
 21
1.0
 31
0.0
 73
     1
 44
1.0
  0
ENDBLK
  5
4E
330
4C
100
AcDbEntity
  8
0
100
AcDbBlockEnd
  0
BLOCK
  5
58
330
57
100
AcDbEntity
  8
0
100
AcDbBlockBegin
  2
*D2
 70
     1
 10
0.0
 20
0.0
 30
0.0
  3
*D2
  1

  0
SOLID
  5
5A
330
57
100
AcDbEntity
  8
0
  6
Continuous
 62
     7
370
     0
100
AcDbTrace
 10
56.6850079902
 20
38.4602342313
 30
0.0
 11
59.1850079902
 21
38.1602342313
 31
0.0
 12
59.1850079902
 22
38.7602342313
 32
0.0
 13
59.1850079902
 23
38.7602342313
 33
0.0
  0
SOLID
  5
5B
330
57
100
AcDbEntity
  8
0
  6
Continuous
 62
     7
370
     0
100
AcDbTrace
 10
156.6850079902
 20
38.4602342313
 30
0.0
 11
154.1850079902
 21
38.7602342313
 31
0.0
 12
154.1850079902
 22
38.1602342313
 32
0.0
 13
154.1850079902
 23
38.1602342313
 33
0.0
  0
LINE
  5
5C
330
57
100
AcDbEntity
  8
0
  6
Continuous
 62
     7
370
     0
100
AcDbLine
 10
56.6850079902
 20
52.0299240879
 30
0.0
 11
56.6850079902
 21
37.4602342313
 31
0.0
  0
LINE
  5
5D
330
57
100
AcDbEntity
  8
0
  6
Continuous
 62
     7
370
     0
100
AcDbLine
 10
156.6850079902
 20
52.0299240879
 30
0.0
 11
156.6850079902
 21
37.4602342313
 31
0.0
  0
LINE
  5
5E
330
57
100
AcDbEntity
  8
0
  6
Continuous
 62
     7
370
     0
100
AcDbLine
 10
56.6850079902
 20
38.4602342313
 30
0.0
 11
156.6850079902
 21
38.4602342313
 31
0.0
  0
MTEXT
  5
5F
330
57
100
AcDbEntity
  8
0
  6
Continuous
 62
     7
370
     0
100
AcDbMText
 10
91.2668151533
 20
46.1946404371
 30
0.1
 40
6.0
 41
0.0
 46
0.0
 71
     1
 72
     1
  1
100
  7
SLDTEXTSTYLE0
 73
     1
 44
1.0
  0
MTEXT
  5
60
330
57
100
AcDbEntity
  8
0
  6
Continuous
 62
     7
370
     0
100
AcDbMText
 10
108.0334825193
 20
46.1946404371
 30
0.1
 40
6.0
 41
0.0
 46
0.0
 71
     1
 72
     1
  1
mm
  7
SLDTEXTSTYLE0
 73
     1
 44
1.0
  0
ENDBLK
  5
59
330
57
100
AcDbEntity
  8
0
100
AcDbBlockEnd
  0
ENDSEC
  0
SECTION
  2
ENTITIES
  0
LINE
  5
44
330
1F
100
AcDbEntity
  8
0
  6
Continuous
 62
     7
370
    15
100
AcDbLine
 10
148.569469985
 20
226.9574647501
 30
0.0
 11
148.9670991418
 21
226.705506638
 31
0.0
  0
LINE
  5
45
330
1F
100
AcDbEntity
  8
0
  6
Continuous
 62
     7
370
    15
100
AcDbLine
 10
154.4640029199
 20
226.1951034731
 30
0.0
 11
151.9458097842
 21
226.1067057638
 31
0.0
  0
LINE
  5
46
330
1F
100
AcDbEntity
  8
0
  6
Continuous
 62
     7
370
     0
100
AcDbLine
 10
56.6850079902
 20
152.0299240879
 30
0.0
 11
56.6850079902
 21
52.0299240879
 31
0.0
  0
LINE
  5
47
330
1F
100
AcDbEntity
  8
0
  6
Continuous
 62
     7
370
     0
100
AcDbLine
 10
56.6850079902
 20
52.0299240879
 30
0.0
 11
156.6850079902
 21
52.0299240879
 31
0.0
  0
ARC
  5
48
330
1F
100
AcDbEntity
  8
0
  6
Continuous
 62
     7
370
    15
100
AcDbCircle
 10
373.7807520847
 20
492.5114000055
 30
0.0
 40
21.34271580761623
100
AcDbArc
 50
343.0265157157
 51
1.0144761584
  0
DIMENSION
  5
49
330
1F
100
AcDbEntity
  8
0
  6
Continuous
 62
     7
370
     0
100
AcDbDimension
280
     0
  2
*D1
 10
42.7614395004
 20
52.0299240879
 30
0.0
 11
42.7614395004
 21
105.4472211621
 31
0.0
 70
   160
  1
<>mm
 71
     2
 42
-1.0
 73
     0
 74
     0
 75
     0
  3
SLDDIMSTYLE0
100
AcDbAlignedDimension
 13
56.6850079902
 23
152.0299240879
 33
0.0
 14
56.6850079902
 24
52.0299240879
 34
0.0
 50
90.0
100
AcDbRotatedDimension
  0
DIMENSION
  5
56
330
1F
100
AcDbEntity
  8
0
  6
Continuous
 62
     7
370
     0
100
AcDbDimension
280
     0
  2
*D2
 10
156.6850079902
 20
38.4602342313
 30
0.0
 11
105.0418155019
 21
38.4602342313
 31
0.0
 70
   160
  1
<>mm
 71
     2
 42
-1.0
 73
     0
 74
     0
 75
     0
  3
SLDDIMSTYLE0
100
AcDbAlignedDimension
 13
56.6850079902
 23
52.0299240879
 33
0.0
 14
156.6850079902
 24
52.0299240879
 34
0.0
100
AcDbRotatedDimension
  0
MTEXT
  5
62
330
1F
100
AcDbEntity
  8
0
  6
Continuous
 62
     7
370
     0
100
AcDbMText
 10
281.4641439558
 20
48.5426967482
 30
0.0
 40
10.0
 41
0.0
 46
0.0
 71
     1
 72
     1
  1
42 803 05 78
  7
SLDTEXTSTYLE1
 73
     1
 44
1.0
  0
MTEXT
  5
63
330
1F
100
AcDbEntity
  8
0
  6
Continuous
 62
     7
370
     0
100
AcDbMText
 10
412.8252631579
 20
48.4342449499
 30
0.0
 40
10.0
 41
0.0
 46
0.0
 71
     1
 72
     1
  1
KLUDI GmbH & Co KG
  7
SLDTEXTSTYLE1
 73
     1
 44
1.0
  0
LINE
  5
64
330
1F
100
AcDbEntity
  8
0
  6
Continuous
 62
     7
370
    15
100
AcDbLine
 10
192.2534361541
 20
619.7831735823
 30
0.0
 11
192.2534361541
 21
620.7709357586
 31
0.0
  0
LINE
  5
65
330
1F
100
AcDbEntity
  8
0
  6
Continuous
 62
     7
370
    15
100
AcDbLine
 10
170.1874361541
 20
620.7709357586
 30
0.0
 11
170.1874361541
 21
619.7831735823
 31
0.0
  0
LINE
  5
66
330
1F
100
AcDbEntity
  8
0
  6
Continuous
 62
     7
370
    15
100
AcDbLine
 10
192.2534361541
 20
620.7709357586
 30
0.0
 11
192.2534361541
 21
663.2447093383
 31
0.0
  0
LINE
  5
67
330
1F
100
AcDbEntity
  8
0
  6
Continuous
 62
     7
370
    15
100
AcDbLine
 10
170.1874361541
 20
663.2447093383
 30
0.0
 11
170.1874361541
 21
620.7709357586
 31
0.0
  0
ARC
  5
68
330
1F
100
AcDbEntity
  8
0
  6
Continuous
 62
     7
370
    15
100
AcDbCircle
 10
181.2204361541
 20
750.2719515073
 30
0.0
 40
11.03300000000002
100
AcDbArc
 50
0.0
 51
180.0
  0
LINE
  5
69
330
1F
100
AcDbEntity
  8
0
  6
Continuous
 62
     7
370
    15
100
AcDbLine
 10
170.1874361541
 20
750.2719515073
 30
0.0
 11
170.1874361541
 21
663.2447093383
 31
0.0
  0
LINE
  5
6A
330
1F
100
AcDbEntity
  8
0
  6
Continuous
 62
     7
370
    15
100
AcDbLine
 10
192.2534361541
 20
663.2447093383
 30
0.0
 11
192.2534361541
 21
750.2719515073
 31
0.0
  0
SPLINE
  5
6B
330
1F
100
AcDbEntity
  8
0
  6
Continuous
 62
     7
370
    15
100
AcDbSpline
210
0.0
220
0.0
230
1.0
 70
     8
 71
     3
 72
     9
 73
     5
 74
     0
 42
0.00000001
 43
0.00000001
 40
0.0
 40
0.0
 40
0.0
 40
0.0
 40
0.4996995766961895
 40
1.0
 40
1.0
 40
1.0
 40
1.0
 10
150.2815588474496
 20
546.5057665933848
 30
0.0
 10
150.0674378952576
 20
546.4479152404857
 30
0.0
 10
149.6389385284827
 20
546.3321429733136
 30
0.0
 10
149.220023880982
 20
546.1854267388424
 30
0.0
 10
149.0104407055093
 20
546.1120245446309
 30
0.0
  0
SPLINE
  5
6C
330
1F
100
AcDbEntity
  8
0
  6
Continuous
 62
     7
370
    15
100
AcDbSpline
210
0.0
220
0.0
230
1.0
 70
     8
 71
     3
 72
     9
 73
     5
 74
     0
 42
0.00000001
 43
0.00000001
 40
0.0
 40
0.0
 40
0.0
 40
0.0
 40
0.5003005011051295
 40
1.0
 40
1.0
 40
1.0
 40
1.0
 10
149.0104394165592
 20
546.1120240754915
 30
0.0
 10
148.8026018329181
 20
546.033494596431
 30
0.0
 10
148.387176337277
 20
545.8765299743947
 30
0.0
 10
147.9843124602722
 20
545.6896698102464
 30
0.0
 10
147.78300158281
 20
545.5962958798583
 30
0.0
  0
SPLINE
  5
6D
330
1F
100
AcDbEntity
  8
0
  6
Continuous
 62
     7
370
    15
100
AcDbSpline
210
0.0
220
0.0
230
1.0
 70
     8
 71
     3
 72
    20
 73
    16
 74
     0
 42
0.00000001
 43
0.00000001
 40
0.0
 40
0.0
 40
0.0
 40
0.0
 40
0.1572313422649111
 40
0.3086976172043301
 40
0.4312840847686387
 40
0.4809977403373495
 40
0.5214510836639321
 40
0.5646742906308113
 40
0.6170155186907075
 40
0.6852803687600295
 40
0.8202765834307709
 40
0.91477368058769
 40
0.9612140652001777
 40
0.982675397628933
 40
0.9999999999999999
 40
0.9999999999999999
 40
0.9999999999999999
 40
0.9999999999999999
 10
166.6605541165635
 20
482.9005458057857
 30
0.0
 10
166.6598981828342
 20
482.5171152568481
 30
0.0
 10
166.6586103659373
 20
481.7643130793983
 30
0.0
 10
166.4335283794412
 20
480.5003605522124
 30
0.0
 10
166.1137969701909
 20
479.3861468657317
 30
0.0
 10
165.7952713171144
 20
478.4734297631307
 30
0.0
 10
165.5359198398775
 20
477.7796760026351
 30
0.0
 10
165.15029996859
 20
476.8171203696398
 30
0.0
 10
164.6374717971183
 20
475.6536605049564
 30
0.0
 10
163.7773409400205
 20
473.8522117047469
 30
0.0
 10
162.6884428988793
 20
471.7465505522186
 30
0.0
 10
161.6573423566148
 20
469.754389309981
 30
0.0
 10
161.0596741580444
 20
468.5634503582468
 30
0.0
 10
160.7500510440221
 20
467.9339530335919
 30
0.0
 10
160.6107392814371
 20
467.6460361256843
 30
0.0
 10
160.5485125772245
 20
467.5174316206968
 30
0.0
  0
LINE
  5
6E
330
1F
100
AcDbEntity
  8
0
  6
Continuous
 62
     7
370
    15
100
AcDbLine
 10
157.1484361541
 20
489.2913515073
 30
0.0
 11
157.1484361541
 21
387.1859515073
 31
0.0
  0
LINE
  5
6F
330
1F
100
AcDbEntity
  8
0
  6
Continuous
 62
     7
370
    15
100
AcDbLine
 10
205.2924361541
 20
387.1859515073
 30
0.0
 11
205.2924361541
 21
489.2913515073
 31
0.0
  0
ARC
  5
70
330
1F
100
AcDbEntity
  8
0
  6
Continuous
 62
     7
370
    15
100
AcDbCircle
 10
164.6709361541
 20
498.2352662714
 30
0.0
 40
7.522500000000008
100
AcDbArc
 50
128.5063730324
 51
180.0
  0
ARC
  5
71
330
1F
100
AcDbEntity
  8
0
  6
Continuous
 62
     7
370
    15
100
AcDbCircle
 10
197.7699361541
 20
498.2352662714
 30
0.0
 40
7.522500000000035
100
AcDbArc
 50
0.0
 51
53.53076561
  0
LINE
  5
72
330
1F
100
AcDbEntity
  8
0
  6
Continuous
 62
     7
370
    15
100
AcDbLine
 10
157.1484361541
 20
498.2352662714
 30
0.0
 11
157.1484361541
 21
489.6925515073
 31
0.0
  0
LINE
  5
73
330
1F
100
AcDbEntity
  8
0
  6
Continuous
 62
     7
370
    15
100
AcDbLine
 10
205.2924361541
 20
489.6925515073
 30
0.0
 11
205.2924361541
 21
498.2352662714
 31
0.0
  0
ARC
  5
74
330
1F
100
AcDbEntity
  8
0
  6
Continuous
 62
     7
370
    15
100
AcDbCircle
 10
157.3490361541
 20
489.6925515073
 30
0.0
 40
0.2006000000000085
100
AcDbArc
 50
180.0
 51
270.0
  0
ARC
  5
75
330
1F
100
AcDbEntity
  8
0
  6
Continuous
 62
     7
370
    15
100
AcDbCircle
 10
205.0918361541
 20
489.6925515073
 30
0.0
 40
0.2006000000000085
100
AcDbArc
 50
270.0
 51
360.0
  0
ARC
  5
76
330
1F
100
AcDbEntity
  8
0
  6
Continuous
 62
     7
370
    15
100
AcDbCircle
 10
205.0918361541
 20
489.2913515073
 30
0.0
 40
0.2006000000000654
100
AcDbArc
 50
0.0
 51
90.0
  0
ARC
  5
77
330
1F
100
AcDbEntity
  8
0
  6
Continuous
 62
     7
370
    15
100
AcDbCircle
 10
157.3490361541
 20
489.2913515073
 30
0.0
 40
0.2006000000000654
100
AcDbArc
 50
90.0
 51
180.0
  0
LINE
  5
78
330
1F
100
AcDbEntity
  8
0
  6
Continuous
 62
     7
370
    15
100
AcDbLine
 10
202.2412429111
 20
504.2846812956
 30
0.0
 11
193.8908026421
 21
510.4567458422
 31
0.0
  0
LINE
  5
79
330
1F
100
AcDbEntity
  8
0
  6
Continuous
 62
     7
370
    15
100
AcDbLine
 10
168.5500696661
 20
510.4567458422
 30
0.0
 11
166.7434112556
 21
509.1213896258
 31
0.0
  0
ARC
  5
7A
330
1F
100
AcDbEntity
  8
0
  6
Continuous
 62
     7
370
    15
100
AcDbCircle
 10
168.8481567832
 20
510.0534515073
 30
0.0
 40
0.5015000000000214
100
AcDbArc
 50
90.0
 51
126.46923439
  0
ARC
  5
7B
330
1F
100
AcDbEntity
  8
0
  6
Continuous
 62
     7
370
    15
100
AcDbCircle
 10
193.592715525
 20
510.0534515073
 30
0.0
 40
0.5015000000000214
100
AcDbArc
 50
53.53076561
 51
90.0
  0
LINE
  5
7C
330
1F
100
AcDbEntity
  8
0
  6
Continuous
 62
     7
370
    15
100
AcDbLine
 10
193.2062861541
 20
510.5549515073
 30
0.0
 11
193.2062861541
 21
510.7555515073
 31
0.0
  0
LINE
  5
7D
330
1F
100
AcDbEntity
  8
0
  6
Continuous
 62
     7
370
    15
100
AcDbLine
 10
169.2345861541
 20
510.7555515073
 30
0.0
 11
169.2345861541
 21
510.5549515073
 31
0.0
  0
LINE
  5
7E
330
1F
100
AcDbEntity
  8
0
  6
Continuous
 62
     7
370
    15
100
AcDbLine
 10
170.1874361541
 20
619.7831735823
 30
0.0
 11
170.1874361541
 21
510.7555515073
 31
0.0
  0
LINE
  5
7F
330
1F
100
AcDbEntity
  8
0
  6
Continuous
 62
     7
370
    15
100
AcDbLine
 10
192.2534361541
 20
510.7555515073
 30
0.0
 11
192.2534361541
 21
619.7831735823
 31
0.0
  0
LWPOLYLINE
  5
80
330
1F
100
AcDbEntity
  8
0
  6
Continuous
 62
     7
370
    15
100
AcDbPolyline
 90
       36
 70
   128
 43
0.0
 10
192.2534361541
 20
619.7831735823
 10
192.0761313051
 20
620.1252636563
 10
191.5499154819
 20
620.4563586737
 10
190.6917016939
 20
620.7658169685
 10
189.5290736385
 20
621.0436922963
 10
188.099399138
 20
621.2810535154
 10
186.4486291072
 20
621.4702716411
 10
184.629820653
 20
621.605265047
 10
182.7014317759
 20
621.681694934
 10
180.7254424808
 20
621.6971047826
 10
178.7653626898
 20
621.6509993077
 10
176.8841909799
 20
621.5448603772
 10
175.1423897577
 20
621.3820993835
 10
173.5959419478
 20
621.1679475989
 10
172.2945516552
 20
620.9092880381
 10
171.2800466345
 20
620.6144342321
 10
170.585033912
 20
620.2928630249
 10
170.2318517685
 20
619.9549099795
 10
170.2318517685
 20
619.6114371851
 10
170.585033912
 20
619.2734841398
 10
171.2800466345
 20
618.9519129326
 10
172.2945516552
 20
618.6570591266
 10
173.5959419478
 20
618.3983995657
 10
175.1423897577
 20
618.1842477812
 10
176.8841909799
 20
618.0214867875
 10
178.7653626898
 20
617.9153478569
 10
180.7254424808
 20
617.869242382
 10
182.7014317759
 20
617.8846522307
 10
184.629820653
 20
617.9610821177
 10
186.4486291072
 20
618.0960755236
 10
188.099399138
 20
618.2852936492
 10
189.5290736385
 20
618.5226548684
 10
190.6917016939
 20
618.8005301962
 10
191.5499154819
 20
619.1099884909
 10
192.0761313051
 20
619.4410835084
 10
192.2534361541
 20
619.7831735823
  0
SPLINE
  5
81
330
1F
100
AcDbEntity
  8
0
  6
Continuous
 62
     7
370
    15
100
AcDbSpline
210
0.0
220
0.0
230
1.0
 70
     8
 71
     3
 72
    26
 73
    22
 74
     0
 42
0.00000001
 43
0.00000001
 40
0.0
 40
0.0
 40
0.0
 40
0.0
 40
0.1250000000000007
 40
0.1250000000000007
 40
0.2500000000000014
 40
0.2500000000000014
 40
0.3125000000000016
 40
0.3125000000000016
 40
0.3437500000000016
 40
0.3437500000000016
 40
0.3750000000000016
 40
0.3750000000000016
 40
0.5000000000000013
 40
0.5000000000000013
 40
0.625000000000001
 40
0.625000000000001
 40
0.7500000000000007
 40
0.7500000000000007
 40
0.8750000000000004
 40
0.8750000000000004
 40
1.0
 40
1.0
 40
1.0
 40
1.0
 10
172.5625557438842
 20
493.1334215435485
 30
0.0
 10
172.9115274099045
 20
492.1746947814503
 30
0.0
 10
173.2907183042796
 20
491.2262513037282
 30
0.0
 10
174.1467717736077
 20
489.3724180676365
 30
0.0
 10
174.6227507459224
 20
488.4699901476264
 30
0.0
 10
175.450533417966
 20
487.1975640979331
 30
0.0
 10
175.7460314914106
 20
486.7865434451808
 30
0.0
 10
176.2255550484084
 20
486.1943367068948
 30
0.0
 10
176.3914118048542
 20
486.0009671686354
 30
0.0
 10
176.7360559130904
 20
485.622892190079
 30
0.0
 10
176.9153862326769
 20
485.4377480482391
 30
0.0
 10
177.8326171637433
 20
484.5476936701873
 30
0.0
 10
178.6421124320213
 20
483.9431213933146
 30
0.0
 10
180.3712548975762
 20
482.8901558824984
 30
0.0
 10
181.2915117131811
 20
482.4381104100177
 30
0.0
 10
183.1537280327013
 20
481.6061298547544
 30
0.0
 10
184.0987839604804
 20
481.2231460147527
 30
0.0
 10
185.9906098230587
 20
480.4611524988785
 30
0.0
 10
186.9376680289722
 20
480.0828017933592
 30
0.0
 10
188.8223760598481
 20
479.3040275048293
 30
0.0
 10
189.7597806378463
 20
478.9041209579461
 30
0.0
 10
190.6913940940238
 20
478.4885432676322
 30
0.0
  0
SPLINE
  5
82
330
1F
100
AcDbEntity
  8
0
  6
Continuous
 62
     7
370
    15
100
AcDbSpline
210
0.0
220
0.0
230
1.0
 70
     8
 71
     3
 72
    26
 73
    22
 74
     0
 42
0.00000001
 43
0.00000001
 40
0.0
 40
0.0
 40
0.0
 40
0.0
 40
0.1249999999999998
 40
0.1249999999999998
 40
0.2499999999999999
 40
0.2499999999999999
 40
0.3750000000000001
 40
0.3750000000000001
 40
0.5000000000000002
 40
0.5000000000000002
 40
0.6250000000000004
 40
0.6250000000000004
 40
0.65625
 40
0.65625
 40
0.6874999999999997
 40
0.6874999999999997
 40
0.7499999999999998
 40
0.7499999999999998
 40
0.8749999999999999
 40
0.8749999999999999
 40
1.0
 40
1.0
 40
1.0
 40
1.0
 10
160.5485125772244
 20
467.5174316206968
 30
0.0
 10
160.9947725753148
 20
468.4340594034994
 30
0.0
 10
161.456080279044
 20
469.3435103968054
 30
0.0
 10
162.3992639320574
 20
471.1515530886264
 30
0.0
 10
162.8815534637538
 20
472.050143827247
 30
0.0
 10
163.840976165416
 20
473.8499069552054
 30
0.0
 10
164.3187537418545
 20
474.7507598410617
 30
0.0
 10
165.2105074159497
 20
476.5851035041705
 30
0.0
 10
165.6248958085544
 20
477.5229201078943
 30
0.0
 10
166.2726626038156
 20
479.441009844171
 30
0.0
 10
166.5041603874789
 20
480.4244726088728
 30
0.0
 10
166.6346841186071
 20
481.6958785009735
 30
0.0
 10
166.6530507528731
 20
481.9529784502611
 30
0.0
 10
166.6740415447018
 20
482.4641336506576
 30
0.0
 10
166.6767996478135
 20
482.7188739796645
 30
0.0
 10
166.6634728494542
 20
483.4807624638728
 30
0.0
 10
166.625638522992
 20
483.9855650526542
 30
0.0
 10
166.4418571378459
 20
485.4923884066937
 30
0.0
 10
166.2264086972527
 20
486.4896416889408
 30
0.0
 10
165.6905626624266
 20
488.4600209064944
 30
0.0
 10
165.3711817330673
 20
489.4308877752137
 30
0.0
 10
165.0224621546825
 20
490.3890519135459
 30
0.0
  0
SPLINE
  5
83
330
1F
100
AcDbEntity
  8
0
  6
Continuous
 62
     7
370
    15
100
AcDbSpline
210
0.0
220
0.0
230
1.0
 70
     8
 71
     3
 72
    18
 73
    14
 74
     0
 42
0.00000001
 43
0.00000001
 40
0.0
 40
0.0
 40
0.0
 40
0.0
 40
0.2500000000000004
 40
0.2500000000000004
 40
0.3750000000000003
 40
0.3750000000000003
 40
0.5000000000000002
 40
0.5000000000000002
 40
0.75
 40
0.75
 40
0.875
 40
0.875
 40
1.0
 40
1.0
 40
1.0
 40
1.0
 10
159.6133187649322
 20
449.5316107809668
 30
0.0
 10
159.0815976022888
 20
450.9925026689693
 30
0.0
 10
158.7051047009412
 20
452.4817059953674
 30
0.0
 10
158.3637657011093
 20
454.7562562882002
 30
0.0
 10
158.2875065654694
 20
455.5212829218876
 30
0.0
 10
158.2118920613881
 20
457.0653619607481
 30
0.0
 10
158.2131112072582
 20
457.845342446108
 30
0.0
 10
158.3326743733649
 20
460.1538833321632
 30
0.0
 10
158.5642345081045
 20
461.6688599951511
 30
0.0
 10
159.1385932661682
 20
463.9053583016799
 30
0.0
 10
159.36923077348
 20
464.6475632252321
 30
0.0
 10
159.9045435311843
 20
466.1048193578744
 30
0.0
 10
160.2083738877104
 20
466.8185883780961
 30
0.0
 10
160.5485125772244
 20
467.5174316206968
 30
0.0
  0
SPLINE
  5
84
330
1F
100
AcDbEntity
  8
0
  6
Continuous
 62
     7
370
    15
100
AcDbSpline
210
0.0
220
0.0
230
1.0
 70
     8
 71
     3
 72
    18
 73
    14
 74
     0
 42
0.00000001
 43
0.00000001
 40
0.0
 40
0.0
 40
0.0
 40
0.0
 40
0.2500000000000004
 40
0.2500000000000004
 40
0.3750000000000002
 40
0.3750000000000002
 40
0.5000000000000001
 40
0.5000000000000001
 40
0.7499999999999998
 40
0.7499999999999998
 40
0.8749999999999999
 40
0.8749999999999999
 40
1.0
 40
1.0
 40
1.0
 40
1.0
 10
190.691394184863
 20
478.4885432270986
 30
0.0
 10
192.1110044421086
 20
477.855094999228
 30
0.0
 10
193.4431375082724
 20
477.0903706356797
 30
0.0
 10
195.3153564206274
 20
475.7543342462861
 30
0.0
 10
195.918272054653
 20
475.2772543617427
 30
0.0
 10
197.0807333123372
 20
474.2580443046728
 30
0.0
 10
197.6405299558928
 20
473.714871252327
 30
0.0
 10
199.2167788051501
 20
472.0238488982117
 30
0.0
 10
200.1447752531421
 20
470.8040300268292
 30
0.0
 10
201.3530852677825
 20
468.8360319163984
 30
0.0
 10
201.7262465865421
 20
468.1541340839988
 30
0.0
 10
202.4015321270492
 20
466.7560489623907
 30
0.0
 10
202.7033471491444
 20
466.0413139060549
 30
0.0
 10
202.9691893072652
 20
465.310822819969
 30
0.0
  0
SPLINE
  5
85
330
1F
100
AcDbEntity
  8
0
  6
Continuous
 62
     7
370
    15
100
AcDbSpline
210
0.0
220
0.0
230
1.0
 70
    24
 71
     3
 72
    20
 73
    16
 74
     0
 42
0.00000001
 43
0.00000001
 40
0.0
 40
0.0
 40
0.0
 40
0.0
 40
0.0624999999999996
 40
0.0624999999999996
 40
0.1249999999999991
 40
0.1249999999999991
 40
0.1874999999999987
 40
0.1874999999999987
 40
0.2499999999999983
 40
0.2499999999999983
 40
0.3749999999999983
 40
0.3749999999999983
 40
0.4999999999999984
 40
0.4999999999999984
 40
1.0
 40
1.0
 40
1.0
 40
1.0
 10
155.5789476262475
 20
539.7955013484403
 30
0.0
 10
155.9325999527568
 20
538.8238495670013
 30
0.0
 10
156.2864705343594
 20
537.8515981346219
 30
0.0
 10
156.9941110147429
 20
535.907371893642
 30
0.0
 10
157.347937094567
 20
534.9352427288941
 30
0.0
 10
158.055595127446
 20
532.9909682628293
 30
0.0
 10
158.4094268247539
 20
532.0188236641715
 30
0.0
 10
159.1170884327015
 20
530.0745393756865
 30
0.0
 10
159.4709177327012
 20
529.1024013635791
 30
0.0
 10
160.532402765563
 20
526.185995204651
 30
0.0
 10
161.2400580729157
 20
524.2417282269076
 30
0.0
 10
162.6553703888226
 20
520.3531895974091
 30
0.0
 10
163.3630264785413
 20
518.4089204701338
 30
0.0
 10
166.9013069534213
 20
508.687574761533
 30
0.0
 10
169.7319313526242
 20
500.9104981416293
 30
0.0
 10
172.5625557438842
 20
493.1334215435485
 30
0.0
  0
SPLINE
  5
86
330
1F
100
AcDbEntity
  8
0
  6
Continuous
 62
     7
370
    15
100
AcDbSpline
210
0.0
220
0.0
230
1.0
 70
    24
 71
     3
 72
    20
 73
    16
 74
     0
 42
0.00000001
 43
0.00000001
 40
0.0
 40
0.0
 40
0.0
 40
0.0
 40
0.4999999999999991
 40
0.4999999999999991
 40
0.6249999999999993
 40
0.6249999999999993
 40
0.7499999999999996
 40
0.7499999999999996
 40
0.8124999999999997
 40
0.8124999999999997
 40
0.8749999999999998
 40
0.8749999999999998
 40
0.9374999999999999
 40
0.9374999999999999
 40
1.0
 40
1.0
 40
1.0
 40
1.0
 10
165.0224621546825
 20
490.3890519135459
 30
0.0
 10
162.191815913413
 20
498.1661885440344
 30
0.0
 10
159.3611697955698
 20
505.9433248354121
 30
0.0
 10
155.8228617978868
 20
515.6647461622923
 30
0.0
 10
155.1152001863602
 20
517.6090304606109
 30
0.0
 10
153.699877263838
 20
521.4975982315455
 30
0.0
 10
152.9922149869786
 20
523.441884357851
 30
0.0
 10
151.9307225912581
 20
526.3583107460668
 30
0.0
 10
151.5768921361319
 20
527.3304519318576
 30
0.0
 10
150.8692323063804
 20
529.2747313347891
 30
0.0
 10
150.5153994951194
 20
530.2468789940078
 30
0.0
 10
149.8077483517057
 20
532.1911345314222
 30
0.0
 10
149.453934661995
 20
533.1632296546136
 30
0.0
 10
148.7463545131378
 20
535.1072901360874
 30
0.0
 10
148.3925026348169
 20
536.0794901816229
 30
0.0
 10
148.038868719912
 20
537.0510913775944
 30
0.0
  0
SPLINE
  5
87
330
1F
100
AcDbEntity
  8
0
  6
Continuous
 62
     7
370
    15
100
AcDbSpline
210
0.0
220
0.0
230
1.0
 70
    24
 71
     3
 72
    10
 73
     6
 74
     0
 42
0.00000001
 43
0.00000001
 40
0.0
 40
0.0
 40
0.0
 40
0.0
 40
0.5
 40
0.5
 40
1.0
 40
1.0
 40
1.0
 40
1.0
 10
155.0912279700203
 20
541.1355000909722
 30
0.0
 10
155.1712627871635
 20
540.9156062380972
 30
0.0
 10
155.252159593358
 20
540.6933440897675
 30
0.0
 10
155.4149007490207
 20
540.2462164393604
 30
0.0
 10
155.4967629984271
 20
540.021301757607
 30
0.0
 10
155.5789476262474
 20
539.7955013484406
 30
0.0
  0
SPLINE
  5
88
330
1F
100
AcDbEntity
  8
0
  6
Continuous
 62
     7
370
    15
100
AcDbSpline
210
0.0
220
0.0
230
1.0
 70
    24
 71
     3
 72
    10
 73
     6
 74
     0
 42
0.00000001
 43
0.00000001
 40
0.0
 40
0.0
 40
0.0
 40
0.0
 40
0.5
 40
0.5
 40
1.0
 40
1.0
 40
1.0
 40
1.0
 10
148.038868719912
 20
537.0510913775944
 30
0.0
 10
147.9587018092851
 20
537.2713481543332
 30
0.0
 10
147.8787284128897
 20
537.4910732550902
 30
0.0
 10
147.7198441474505
 20
537.9276041866988
 30
0.0
 10
147.6408642659127
 20
538.1445996278192
 30
0.0
 10
147.562702856061
 20
538.3593463364632
 30
0.0
  0
ARC
  5
89
330
1F
100
AcDbEntity
  8
0
  6
Continuous
 62
     7
370
    15
100
AcDbCircle
 10
181.2910878342
 20
457.4216734664
 30
0.0
 40
23.069
100
AcDbArc
 50
334.0470386774
 51
19.9975860193
  0
ARC
  5
8A
330
1F
100
AcDbEntity
  8
0
  6
Continuous
 62
     7
370
    15
100
AcDbCircle
 10
181.2910878342
 20
457.4216734664
 30
0.0
 40
23.069
100
AcDbArc
 50
199.9999999997
 51
245.9529613219
  0
ARC
  5
8B
330
1F
100
AcDbEntity
  8
0
  6
Continuous
 62
     7
370
    15
100
AcDbCircle
 10
181.2910878342
 20
457.4216734664
 30
0.0
 40
23.069
100
AcDbArc
 50
289.9999999997
 51
334.0470386774
  0
ARC
  5
8C
330
1F
100
AcDbEntity
  8
0
  6
Continuous
 62
     7
370
    15
100
AcDbCircle
 10
181.2910878342
 20
457.4216734664
 30
0.0
 40
23.069
100
AcDbArc
 50
245.9529613219
 51
289.9999999997
  0
SPLINE
  5
8D
330
1F
100
AcDbEntity
  8
0
  6
Continuous
 62
     7
370
    15
100
AcDbSpline
210
0.0
220
0.0
230
1.0
 70
    24
 71
     3
 72
     8
 73
     4
 74
     0
 42
0.00000001
 43
0.00000001
 40
0.0
 40
0.0
 40
0.0
 40
0.0
 40
1.0
 40
1.0
 40
1.0
 40
1.0
 10
147.562702856061
 20
538.3593463364632
 30
0.0
 10
147.4137525931712
 20
538.768583820382
 30
0.0
 10
147.2744872877661
 20
539.1512121023026
 30
0.0
 10
147.1424979453429
 20
539.5138498402256
 30
0.0
  0
SPLINE
  5
8E
330
1F
100
AcDbEntity
  8
0
  6
Continuous
 62
     7
370
    15
100
AcDbSpline
210
0.0
220
0.0
230
1.0
 70
    24
 71
     3
 72
     8
 73
     4
 74
     0
 42
0.00000001
 43
0.00000001
 40
0.0
 40
0.0
 40
0.0
 40
0.0
 40
1.0
 40
1.0
 40
1.0
 40
1.0
 10
154.6856524820242
 20
542.2498095861455
 30
0.0
 10
154.8132597940066
 20
541.8992113779103
 30
0.0
 10
154.9477021156885
 20
541.5298341348637
 30
0.0
 10
155.0912279700203
 20
541.1355000909722
 30
0.0
  0
SPLINE
  5
8F
330
1F
100
AcDbEntity
  8
0
  6
Continuous
 62
     7
370
    15
100
AcDbSpline
210
0.0
220
0.0
230
1.0
 70
    24
 71
     3
 72
    12
 73
     8
 74
     0
 42
0.00000001
 43
0.00000001
 40
0.0
 40
0.0
 40
0.0
 40
0.0
 40
0.2499999999999996
 40
0.2499999999999996
 40
0.4999999999999991
 40
0.4999999999999991
 40
1.0
 40
1.0
 40
1.0
 40
1.0
 10
154.0409307701468
 20
544.0211679313918
 30
0.0
 10
154.0788664583203
 20
543.9169404847419
 30
0.0
 10
154.1211666818813
 20
543.8007215756679
 30
0.0
 10
154.214301818767
 20
543.5448348901124
 30
0.0
 10
154.2654129362778
 20
543.4044082488657
 30
0.0
 10
154.4285031500419
 20
542.9563215692069
 30
0.0
 10
154.5508275459304
 20
542.620238053649
 30
0.0
 10
154.6856524820242
 20
542.2498095861455
 30
0.0
  0
SPLINE
  5
90
330
1F
100
AcDbEntity
  8
0
  6
Continuous
 62
     7
370
    15
100
AcDbSpline
210
0.0
220
0.0
230
1.0
 70
    24
 71
     3
 72
    12
 73
     8
 74
     0
 42
0.00000001
 43
0.00000001
 40
0.0
 40
0.0
 40
0.0
 40
0.0
 40
0.5
 40
0.5
 40
0.75
 40
0.75
 40
1.0
 40
1.0
 40
1.0
 40
1.0
 10
147.1424979453429
 20
539.5138498402256
 30
0.0
 10
147.0083527759831
 20
539.8824106639768
 30
0.0
 10
146.8866448675102
 20
540.216800394281
 30
0.0
 10
146.7243817100768
 20
540.6626147553466
 30
0.0
 10
146.6735193682155
 20
540.8023578911136
 30
0.0
 10
146.5807958416023
 20
541.0571136867401
 30
0.0
 10
146.5386720118692
 20
541.1728479577547
 30
0.0
 10
146.5008813239123
 20
541.2766770195838
 30
0.0
  0
SPLINE
  5
91
330
1F
100
AcDbEntity
  8
0
  6
Continuous
 62
     7
370
    15
100
AcDbSpline
210
0.0
220
0.0
230
1.0
 70
    24
 71
     3
 72
     8
 73
     4
 74
     0
 42
0.00000001
 43
0.00000001
 40
0.0
 40
0.0
 40
0.0
 40
0.0
 40
1.0
 40
1.0
 40
1.0
 40
1.0
 10
146.5008813239123
 20
541.2766770195839
 30
0.0
 10
146.4325839001664
 20
541.4643226491357
 30
0.0
 10
146.3802985690348
 20
541.607975415791
 30
0.0
 10
146.3440689917021
 20
541.7075153614308
 30
0.0
  0
SPLINE
  5
92
330
1F
100
AcDbEntity
  8
0
  6
Continuous
 62
     7
370
    15
100
AcDbSpline
210
0.0
220
0.0
230
1.0
 70
    24
 71
     3
 72
     8
 73
     4
 74
     0
 42
0.00000001
 43
0.00000001
 40
0.0
 40
0.0
 40
0.0
 40
0.0
 40
1.0
 40
1.0
 40
1.0
 40
1.0
 10
153.8842617748919
 20
544.4516124581907
 30
0.0
 10
153.9204803759517
 20
544.3521026696131
 30
0.0
 10
153.9727180444914
 20
544.2085808548525
 30
0.0
 10
154.0409307701468
 20
544.0211679313918
 30
0.0
  0
ARC
  5
93
330
1F
100
AcDbEntity
  8
0
  6
Continuous
 62
     7
370
    15
100
AcDbCircle
 10
150.9982592539
 20
543.58311375
 30
0.0
 40
3.008999325232397
100
AcDbArc
 50
20.0000091593
 51
104.6035240875
  0
ARC
  5
94
330
1F
100
AcDbEntity
  8
0
  6
Continuous
 62
     7
370
    15
100
AcDbCircle
 10
149.1132345743
 20
542.897021115
 30
0.0
 40
3.008999392054979
100
AcDbArc
 50
115.3964770704
 51
199.9999917471
  0
ARC
  5
95
330
1F
100
AcDbEntity
  8
0
  6
Continuous
 62
     7
370
    15
100
AcDbCircle
 10
181.2204361541
 20
457.3959515073
 30
0.0
 40
23.06900000000005
100
AcDbArc
 50
198.6658703761
 51
290.0982770188
  0
LWPOLYLINE
  5
96
330
1F
100
AcDbEntity
  8
0
  6
Continuous
 62
     7
370
    15
100
AcDbPolyline
 90
        3
 70
   128
 43
0.0
 10
160.2547412233
 20
467.0197967403
 10
160.3469808808
 20
467.2182539844
 10
160.8113350615
 20
468.1498974617
  0
LINE
  5
97
330
1F
100
AcDbEntity
  8
0
  6
Continuous
 62
     7
370
    15
100
AcDbLine
 10
181.2204361541
 20
387.1859515073
 30
0.0
 11
205.2924361541
 21
387.1859515073
 31
0.0
  0
LINE
  5
98
330
1F
100
AcDbEntity
  8
0
  6
Continuous
 62
     7
370
    15
100
AcDbLine
 10
157.1484361541
 20
387.1859515073
 30
0.0
 11
181.2204361541
 21
387.1859515073
 31
0.0
  0
LINE
  5
99
330
1F
100
AcDbEntity
  8
0
  6
Continuous
 62
     7
370
    15
100
AcDbLine
 10
157.3490361541
 20
489.4919515073
 30
0.0
 11
165.3117607803
 21
489.4919515073
 31
0.0
  0
LINE
  5
9A
330
1F
100
AcDbEntity
  8
0
  6
Continuous
 62
     7
370
    15
100
AcDbLine
 10
174.0686919601
 20
489.4919515073
 30
0.0
 11
205.0918361541
 21
489.4919515073
 31
0.0
  0
LINE
  5
9B
330
1F
100
AcDbEntity
  8
0
  6
Continuous
 62
     7
370
    15
100
AcDbLine
 10
168.8481567832
 20
510.5549515073
 30
0.0
 11
193.5927151629
 21
510.5549515073
 31
0.0
  0
LINE
  5
9C
330
1F
100
AcDbEntity
  8
0
  6
Continuous
 62
     7
370
    15
100
AcDbLine
 10
193.2062861541
 20
510.7555515073
 30
0.0
 11
169.2345861541
 21
510.7555515073
 31
0.0
  0
LWPOLYLINE
  5
9D
330
1F
100
AcDbEntity
  8
0
  6
Continuous
 62
     8
370
     0
100
AcDbPolyline
 90
       19
 70
   128
 43
0.0
 10
192.2534361541
 20
620.7709357586
 10
192.0761313051
 20
621.1130258325
 10
191.5499154819
 20
621.44412085
 10
190.6917016939
 20
621.7535791448
 10
189.5290736385
 20
622.0314544725
 10
188.099399138
 20
622.2688156917
 10
186.4486291072
 20
622.4580338174
 10
184.629820653
 20
622.5930272233
 10
182.7014317759
 20
622.6694571103
 10
180.7254424808
 20
622.6848669589
 10
178.7653626898
 20
622.638761484
 10
176.8841909799
 20
622.5326225534
 10
175.1423897577
 20
622.3698615597
 10
173.5959419478
 20
622.1557097752
 10
172.2945516552
 20
621.8970502144
 10
171.2800466345
 20
621.6021964084
 10
170.585033912
 20
621.2806252011
 10
170.2318517685
 20
620.9426721558
 10
170.1874361541
 20
620.7709357586
  0
ARC
  5
9E
330
1F
100
AcDbEntity
  8
0
  6
Continuous
 62
     8
370
     0
100
AcDbCircle
 10
181.2910878342
 20
457.4216734664
 30
0.0
 40
20.5217485971914
100
AcDbArc
 50
245.9529613219
 51
289.9999999997
  0
ARC
  5
9F
330
1F
100
AcDbEntity
  8
0
  6
Continuous
 62
     8
370
     0
100
AcDbCircle
 10
181.2910878342
 20
457.4216734664
 30
0.0
 40
20.52174859719139
100
AcDbArc
 50
199.9999999997
 51
245.9529613219
  0
ARC
  5
A0
330
1F
100
AcDbEntity
  8
0
  6
Continuous
 62
     8
370
     0
100
AcDbCircle
 10
181.2910878342
 20
457.4216734664
 30
0.0
 40
20.52174859719138
100
AcDbArc
 50
334.0470386774
 51
19.9999999997
  0
ARC
  5
A1
330
1F
100
AcDbEntity
  8
0
  6
Continuous
 62
     8
370
     0
100
AcDbCircle
 10
181.2910878342
 20
457.4216734664
 30
0.0
 40
20.5217485971914
100
AcDbArc
 50
289.9999999997
 51
334.0470386774
  0
SPLINE
  5
A2
330
1F
100
AcDbEntity
  8
0
  6
Continuous
 62
     8
370
     0
100
AcDbSpline
210
0.0
220
0.0
230
1.0
 70
     8
 71
     3
 72
    30
 73
    26
 74
     0
 42
0.00000001
 43
0.00000001
 40
0.0
 40
0.0
 40
0.0
 40
0.0
 40
0.1250000000000003
 40
0.1250000000000003
 40
0.1875000000000004
 40
0.1875000000000004
 40
0.2500000000000004
 40
0.2500000000000004
 40
0.3750000000000004
 40
0.3750000000000004
 40
0.4375000000000006
 40
0.4375000000000006
 40
0.5000000000000007
 40
0.5000000000000007
 40
0.6250000000000006
 40
0.6250000000000006
 40
0.6875000000000006
 40
0.6875000000000006
 40
0.7500000000000007
 40
0.7500000000000007
 40
0.8125000000000007
 40
0.8125000000000007
 40
0.8750000000000008
 40
0.8750000000000008
 40
1.0
 40
1.0
 40
1.0
 40
1.0
 10
189.7218536619321
 20
476.17766363815
 30
0.0
 10
188.7132600150823
 20
476.6386104539625
 30
0.0
 10
187.6977353674293
 20
477.0835033003627
 30
0.0
 10
186.1646552308119
 20
477.728051639528
 30
0.0
 10
185.6518453914082
 20
477.9387439955069
 30
0.0
 10
184.6236388233751
 20
478.354063103267
 30
0.0
 10
184.1083396415319
 20
478.5589156930556
 30
0.0
 10
182.5660375895087
 20
479.1818994876954
 30
0.0
 10
181.542041801564
 20
479.6071006020738
 30
0.0
 10
180.0333713919286
 20
480.3089033315278
 30
0.0
 10
179.5346924976993
 20
480.5544890030677
 30
0.0
 10
178.560677909425
 20
481.0767458119141
 30
0.0
 10
178.0846701081117
 20
481.3538120779662
 30
0.0
 10
176.6992375490584
 20
482.2467307985011
 30
0.0
 10
175.8344647347839
 20
482.9272898473492
 30
0.0
 10
174.6418590926575
 20
484.0996704879553
 30
0.0
 10
174.2678869630612
 20
484.5100187243858
 30
0.0
 10
173.5665393257347
 20
485.3607329625557
 30
0.0
 10
173.238445860978
 20
485.8019994908827
 30
0.0
 10
172.6209539267276
 20
486.7117941760134
 30
0.0
 10
172.3314984172198
 20
487.1802823052932
 30
0.0
 10
171.7856589437399
 20
488.1405595440132
 30
0.0
 10
171.5287759373769
 20
488.6334174605192
 30
0.0
 10
170.8038321292189
 20
490.1323337892525
 30
0.0
 10
170.3798593814815
 20
491.1591026261619
 30
0.0
 10
170.0009427009204
 20
492.2010706442133
 30
0.0
  0
SPLINE
  5
A3
330
1F
100
AcDbEntity
  8
0
  6
Continuous
 62
     8
370
     0
100
AcDbSpline
210
0.0
220
0.0
230
1.0
 70
     8
 71
     3
 72
    25
 73
    21
 74
     0
 42
0.00000001
 43
0.00000001
 40
0.0
 40
0.0
 40
0.0
 40
0.0
 40
0.0156250000000002
 40
0.0156250000000002
 40
0.0312500000000005
 40
0.0625000000000009
 40
0.0625000000000009
 40
0.1250000000000011
 40
0.1250000000000011
 40
0.250000000000001
 40
0.250000000000001
 40
0.3750000000000009
 40
0.3750000000000009
 40
0.5000000000000008
 40
0.5000000000000008
 40
0.7500000000000007
 40
0.7500000000000007
 40
0.8750000000000003
 40
0.8750000000000003
 40
1.0
 40
1.0
 40
1.0
 40
1.0
 10
200.5752301918613
 20
464.4405272778481
 30
0.0
 10
200.5461531959908
 20
464.520354191385
 30
0.0
 10
200.5157705578488
 20
464.6021940804108
 30
0.0
 10
200.4548917255356
 20
464.7630540705953
 30
0.0
 10
200.3621565162933
 20
465.0035375413034
 30
0.0
 10
200.2651876098571
 20
465.2416112564645
 30
0.0
 10
200.0656403018287
 20
465.7145658654355
 30
0.0
 10
199.9251178950374
 20
466.0256052829001
 30
0.0
 10
199.4813282543835
 20
466.946074946402
 30
0.0
 10
199.1560223574369
 20
467.5429611684191
 30
0.0
 10
198.4468886745322
 20
468.703423926533
 30
0.0
 10
198.0629833520401
 20
469.2669563054098
 30
0.0
 10
197.2357420369622
 20
470.360193672854
 30
0.0
 10
196.791509716916
 20
470.8903562075543
 30
0.0
 10
195.3982317737412
 20
472.3949984063398
 30
0.0
 10
194.3804079957119
 20
473.2966328667042
 30
0.0
 10
192.7230221046627
 20
474.5000836428728
 30
0.0
 10
192.146399695092
 20
474.877377097668
 30
0.0
 10
190.9584560967713
 20
475.5729089819655
 30
0.0
 10
190.348634064825
 20
475.8911154681055
 30
0.0
 10
189.721853653263
 20
476.1776636190393
 30
0.0
  0
SPLINE
  5
A4
330
1F
100
AcDbEntity
  8
0
  6
Continuous
 62
     8
370
     0
100
AcDbSpline
210
0.0
220
0.0
230
1.0
 70
     8
 71
     3
 72
    20
 73
    16
 74
     0
 42
0.00000001
 43
0.00000001
 40
0.0
 40
0.0
 40
0.0
 40
0.0
 40
0.125
 40
0.125
 40
0.25
 40
0.25
 40
0.4999999999999997
 40
0.4999999999999997
 40
0.6249999999999998
 40
0.6249999999999998
 40
0.7499999999999999
 40
0.7499999999999999
 40
0.875
 40
0.875
 40
1.0
 40
1.0
 40
1.0
 40
1.0
 10
162.7767687039863
 20
466.3706986416274
 30
0.0
 10
162.4808005027791
 20
465.7482959076605
 30
0.0
 10
162.2181745057791
 20
465.1125411030879
 30
0.0
 10
161.7552095559759
 20
463.8161189949868
 30
0.0
 10
161.5559978534434
 20
463.1564374264556
 30
0.0
 10
161.0598964206312
 20
461.1691578581355
 30
0.0
 10
160.8597408130678
 20
459.8241966524241
 30
0.0
 10
160.7595753655501
 20
457.7759540059762
 30
0.0
 10
160.7600507611674
 20
457.0842656901352
 30
0.0
 10
160.8290599180218
 20
455.7150282608896
 30
0.0
 10
160.8972010359487
 20
455.0365538014188
 30
0.0
 10
161.099902900791
 20
453.6917378376779
 30
0.0
 10
161.2343758744801
 20
453.0253803215478
 30
0.0
 10
161.5699850243435
 20
451.7048428367228
 30
0.0
 10
161.7718355745037
 20
451.0492765602722
 30
0.0
 10
162.0069454764959
 20
450.4028196549973
 30
0.0
  0
SPLINE
  5
A5
330
1F
100
AcDbEntity
  8
0
  6
Continuous
 62
     8
370
     0
100
AcDbSpline
210
0.0
220
0.0
230
1.0
 70
     8
 71
     3
 72
    30
 73
    26
 74
     0
 42
0.00000001
 43
0.00000001
 40
0.0
 40
0.0
 40
0.0
 40
0.0
 40
0.1250000000000002
 40
0.1250000000000002
 40
0.1875000000000003
 40
0.1875000000000003
 40
0.2500000000000004
 40
0.2500000000000004
 40
0.3125000000000005
 40
0.3125000000000005
 40
0.3750000000000006
 40
0.3750000000000006
 40
0.5000000000000008
 40
0.5000000000000008
 40
0.5625000000000006
 40
0.5625000000000006
 40
0.6250000000000003
 40
0.6250000000000003
 40
0.7499999999999998
 40
0.7499999999999998
 40
0.8124999999999997
 40
0.8124999999999997
 40
0.8749999999999996
 40
0.8749999999999996
 40
1.0
 40
1.0
 40
1.0
 40
1.0
 10
167.5840751976494
 20
491.3214028128729
 30
0.0
 10
167.9636175631347
 20
490.27952183597
 30
0.0
 10
168.2987763945021
 20
489.2205969636539
 30
0.0
 10
168.7069194122053
 20
487.6063960369865
 30
0.0
 10
168.826938213943
 20
487.0637304940774
 30
0.0
 10
169.0260557621539
 20
485.9772701691683
 30
0.0
 10
169.1054592096164
 20
485.4323358608902
 30
0.0
 10
169.2172409511828
 20
484.3384903319743
 30
0.0
 10
169.2495498355186
 20
483.7895731108276
 30
0.0
 10
169.2591215659553
 20
482.687084707307
 30
0.0
 10
169.2364133508864
 20
482.1323635091813
 30
0.0
 10
169.0764312968385
 20
480.4676924839458
 30
0.0
 10
168.8514443760796
 20
479.3904992590955
 30
0.0
 10
168.3641186132623
 20
477.8159603730198
 30
0.0
 10
168.1775770806869
 20
477.2977484822386
 30
0.0
 10
167.7671520326825
 20
476.2716023733924
 30
0.0
 10
167.5430075408137
 20
475.7629332168417
 30
0.0
 10
166.8384257595883
 20
474.2555809060669
 30
0.0
 10
166.3273231838672
 20
473.2716565228541
 30
0.0
 10
165.5463091381301
 20
471.8030676663321
 30
0.0
 10
165.2832471912896
 20
471.3149194680434
 30
0.0
 10
164.762561893038
 20
470.3358610742261
 30
0.0
 10
164.5051591226388
 20
469.8448402275214
 30
0.0
 10
163.7450645881409
 20
468.3656628739959
 30
0.0
 10
163.2531058098193
 20
467.3721004183257
 30
0.0
 10
162.7767687214103
 20
466.3706986332763
 30
0.0
  0
SPLINE
  5
A6
330
1F
100
AcDbEntity
  8
0
  6
Continuous
 62
     8
370
     0
100
AcDbSpline
210
0.0
220
0.0
230
1.0
 70
     8
 71
     3
 72
    24
 73
    20
 74
     0
 42
0.00000001
 43
0.00000001
 40
0.0
 40
0.0
 40
0.0
 40
0.0
 40
0.5
 40
0.5
 40
0.625
 40
0.625
 40
0.6875
 40
0.6875
 40
0.75
 40
0.75
 40
0.8125
 40
0.8125
 40
0.875
 40
0.875
 40
0.9375
 40
0.9375
 40
0.96875
 40
0.96875
 40
1.0
 40
1.0
 40
1.0
 40
1.0
 10
170.0009426965488
 20
492.2010706426269
 30
0.0
 10
167.1641196889165
 20
499.9951744027684
 30
0.0
 10
164.3273062429256
 20
507.7892816541853
 30
0.0
 10
160.7812729220761
 20
517.5319096790245
 30
0.0
 10
160.0719854262819
 20
519.4804057570921
 30
0.0
 10
159.0075807521901
 20
522.4029779441285
 30
0.0
 10
158.6531775056182
 20
523.3773132518178
 30
0.0
 10
157.9467462029222
 20
525.3268457523442
 30
0.0
 10
157.5940740019699
 20
526.3018079531748
 30
0.0
 10
156.88495918412
 20
528.2503708275576
 30
0.0
 10
156.5280740838354
 20
529.2238129814734
 30
0.0
 10
155.8078771503415
 20
531.1683803223924
 30
0.0
 10
155.4459697765638
 20
532.1400118982444
 30
0.0
 10
154.73467491913
 20
534.087788702929
 30
0.0
 10
154.3865281366594
 20
535.0643810205116
 30
0.0
 10
153.8832584599351
 20
536.5361029908911
 30
0.0
 10
153.7163129410839
 20
537.0270331102669
 30
0.0
 10
153.3647380926999
 20
538.0022053619924
 30
0.0
 10
153.1798657865046
 20
538.4864504179701
 30
0.0
 10
152.9801759230854
 20
538.9645590393613
 30
0.0
  0
LINE
  5
A7
330
1F
100
AcDbEntity
  8
0
  6
Continuous
 62
     8
370
     0
100
AcDbLine
 10
152.9801759231
 20
538.9645590394
 30
0.0
 11
152.980154876
 21
538.9646093601
 31
0.0
  0
SPLINE
  5
A8
330
1F
100
AcDbEntity
  8
0
  6
Continuous
 62
     8
370
     0
100
AcDbSpline
210
0.0
220
0.0
230
1.0
 70
     8
 71
     3
 72
    24
 73
    20
 74
     0
 42
0.00000001
 43
0.00000001
 40
0.0
 40
0.0
 40
0.0
 40
0.0
 40
0.0312499999999996
 40
0.0312499999999996
 40
0.0624999999999991
 40
0.0624999999999991
 40
0.1249999999999989
 40
0.1249999999999989
 40
0.1874999999999987
 40
0.1874999999999987
 40
0.2499999999999984
 40
0.2499999999999984
 40
0.3124999999999982
 40
0.3124999999999982
 40
0.3749999999999981
 40
0.3749999999999981
 40
0.4999999999999986
 40
0.4999999999999986
 40
1.0
 40
1.0
 40
1.0
 40
1.0
 10
150.5637480798399
 20
538.0850512311833
 30
0.0
 10
150.718036849563
 20
537.5906399836272
 30
0.0
 10
150.8877454832454
 20
537.1006534655536
 30
0.0
 10
151.2452523370355
 20
536.127639792906
 30
0.0
 10
151.4329285238234
 20
535.6442548172172
 30
0.0
 10
151.993406440865
 20
534.1933543144416
 30
0.0
 10
152.3544520920406
 20
533.2214563783473
 30
0.0
 10
153.0615756688314
 20
531.2721605020724
 30
0.0
 10
153.4088914029853
 20
530.2952175772368
 30
0.0
 10
154.1071326147331
 20
528.3426581552085
 30
0.0
 10
154.4594594699797
 20
527.3675565107203
 30
0.0
 10
155.168758360877
 20
525.4190597845388
 30
0.0
 10
155.5252896146478
 20
524.4455015199654
 30
0.0
 10
156.2372675795837
 20
522.4979865771819
 30
0.0
 10
156.5920696036866
 20
521.5237963929038
 30
0.0
 10
157.6552813454765
 20
518.6007905170115
 30
0.0
 10
158.3644046172912
 20
516.6522350451963
 30
0.0
 10
161.9104252649904
 20
506.9096049350061
 30
0.0
 10
164.7472550198911
 20
499.1155056045056
 30
0.0
 10
167.5840752020179
 20
491.3214028144675
 30
0.0
  0
SPLINE
  5
A9
330
1F
100
AcDbEntity
  8
0
  6
Continuous
 62
     8
370
     0
100
AcDbSpline
210
0.0
220
0.0
230
1.0
 70
     8
 71
     3
 72
     8
 73
     4
 74
     0
 42
0.00000001
 43
0.00000001
 40
0.0
 40
0.0
 40
0.0
 40
0.0
 40
1.0
 40
1.0
 40
1.0
 40
1.0
 10
150.3327031320819
 20
546.2391153462867
 30
0.0
 10
150.2710154443501
 20
546.408656086742
 30
0.0
 10
150.2398082308462
 20
546.4943409582876
 30
0.0
 10
150.239603628329
 20
546.4949033339201
 30
0.0
  0
SPLINE
  5
AA
330
1F
100
AcDbEntity
  8
0
  6
Continuous
 62
     8
370
     0
100
AcDbSpline
210
0.0
220
0.0
230
1.0
 70
     8
 71
     3
 72
     8
 73
     4
 74
     0
 42
0.00000001
 43
0.00000001
 40
0.0
 40
0.0
 40
0.0
 40
0.0
 40
1.0
 40
1.0
 40
1.0
 40
1.0
 10
150.5836791673009
 20
545.5497669782773
 30
0.0
 10
150.4742910943619
 20
545.8498923092619
 30
0.0
 10
150.3906936915238
 20
546.079735691307
 30
0.0
 10
150.3327031320818
 20
546.2391153462867
 30
0.0
  0
SPLINE
  5
AB
330
1F
100
AcDbEntity
  8
0
  6
Continuous
 62
     8
370
     0
100
AcDbSpline
210
0.0
220
0.0
230
1.0
 70
     8
 71
     3
 72
    12
 73
     8
 74
     0
 42
0.00000001
 43
0.00000001
 40
0.0
 40
0.0
 40
0.0
 40
0.0
 40
0.499999999999996
 40
0.499999999999996
 40
0.749999999999998
 40
0.749999999999998
 40
1.0
 40
1.0
 40
1.0
 40
1.0
 10
151.6076272199122
 20
542.7361424199983
 30
0.0
 10
151.3907469014472
 20
543.3244527081177
 30
0.0
 10
151.1988034555934
 20
543.8579637023798
 30
0.0
 10
150.9407652118008
 20
544.5696756029126
 30
0.0
 10
150.8595599720454
 20
544.792851078694
 30
0.0
 10
150.7114198818136
 20
545.1994727110535
 30
0.0
 10
150.6440557793811
 20
545.3841131716285
 30
0.0
 10
150.5836791673009
 20
545.5497669782771
 30
0.0
  0
SPLINE
  5
AC
330
1F
100
AcDbEntity
  8
0
  6
Continuous
 62
     8
370
     0
100
AcDbSpline
210
0.0
220
0.0
230
1.0
 70
     8
 71
     3
 72
     8
 73
     4
 74
     0
 42
0.00000001
 43
0.00000001
 40
0.0
 40
0.0
 40
0.0
 40
0.0
 40
1.0
 40
1.0
 40
1.0
 40
1.0
 10
152.2787581602179
 20
540.8910858969845
 30
0.0
 10
152.0510802808717
 20
541.5461366100102
 30
0.0
 10
151.8211767844227
 20
542.1568671463625
 30
0.0
 10
151.6076272199122
 20
542.7361424199983
 30
0.0
  0
SPLINE
  5
AD
330
1F
100
AcDbEntity
  8
0
  6
Continuous
 62
     8
370
     0
100
AcDbSpline
210
0.0
220
0.0
230
1.0
 70
     8
 71
     3
 72
     8
 73
     4
 74
     0
 42
0.00000001
 43
0.00000001
 40
0.0
 40
0.0
 40
0.0
 40
0.0
 40
1.0
 40
1.0
 40
1.0
 40
1.0
 10
152.9801527132723
 20
538.9646145310045
 30
0.0
 10
152.7127876976193
 20
539.6038536669503
 30
0.0
 10
152.4996586034721
 20
540.2555345062349
 30
0.0
 10
152.2787581602178
 20
540.8910858969846
 30
0.0
  0
SPLINE
  5
AE
330
1F
100
AcDbEntity
  8
0
  6
Continuous
 62
     8
370
     0
100
AcDbSpline
210
0.0
220
0.0
230
1.0
 70
     8
 71
     3
 72
     8
 73
     4
 74
     0
 42
0.00000001
 43
0.00000001
 40
0.0
 40
0.0
 40
0.0
 40
0.0
 40
1.0
 40
1.0
 40
1.0
 40
1.0
 10
149.1861287800402
 20
541.8696586819309
 30
0.0
 10
149.4022353396298
 20
541.2684055390166
 30
0.0
 10
149.6265307341592
 20
540.6302843668176
 30
0.0
 10
149.8833387720116
 20
539.9576208374012
 30
0.0
  0
SPLINE
  5
AF
330
1F
100
AcDbEntity
  8
0
  6
Continuous
 62
     8
370
     0
100
AcDbSpline
210
0.0
220
0.0
230
1.0
 70
     8
 71
     3
 72
    12
 73
     8
 74
     0
 42
0.00000001
 43
0.00000001
 40
0.0
 40
0.0
 40
0.0
 40
0.0
 40
0.2499999999999998
 40
0.2499999999999998
 40
0.4999999999999997
 40
0.4999999999999997
 40
1.0
 40
1.0
 40
1.0
 40
1.0
 10
148.1667514256578
 20
544.6698579283125
 30
0.0
 10
148.2267543819873
 20
544.5047723496535
 30
0.0
 10
148.2935606967719
 20
544.3207851706753
 30
0.0
 10
148.4408076503925
 20
543.9158354625265
 30
0.0
 10
148.5216658818866
 20
543.6937404129825
 30
0.0
 10
148.7801750076482
 20
542.9862016736417
 30
0.0
 10
148.9751026909787
 20
542.4567769051174
 30
0.0
 10
149.1861287800403
 20
541.8696586819309
 30
0.0
  0
SPLINE
  5
B0
330
1F
100
AcDbEntity
  8
0
  6
Continuous
 62
     8
370
     0
100
AcDbSpline
210
0.0
220
0.0
230
1.0
 70
     8
 71
     3
 72
     8
 73
     4
 74
     0
 42
0.00000001
 43
0.00000001
 40
0.0
 40
0.0
 40
0.0
 40
0.0
 40
1.0
 40
1.0
 40
1.0
 40
1.0
 10
147.915676680358
 20
545.359882870087
 30
0.0
 10
147.9737179571065
 20
545.2004674554361
 30
0.0
 10
148.0574955699512
 20
544.9704525533863
 30
0.0
 10
148.1667514256577
 20
544.6698579283125
 30
0.0
  0
SPLINE
  5
B1
330
1F
100
AcDbEntity
  8
0
  6
Continuous
 62
     8
370
     0
100
AcDbSpline
210
0.0
220
0.0
230
1.0
 70
     8
 71
     3
 72
     8
 73
     4
 74
     0
 42
0.00000001
 43
0.00000001
 40
0.0
 40
0.0
 40
0.0
 40
0.0
 40
1.0
 40
1.0
 40
1.0
 40
1.0
 10
147.8227361503472
 20
545.6152358157378
 30
0.0
 10
147.8229303668333
 20
545.6147024416344
 30
0.0
 10
147.8540490594442
 20
545.5291484909052
 30
0.0
 10
147.9156766803579
 20
545.359882870087
 30
0.0
  0
SPLINE
  5
B2
330
1F
100
AcDbEntity
  8
0
  6
Continuous
 62
     8
370
     0
100
AcDbSpline
210
0.0
220
0.0
230
1.0
 70
     8
 71
     3
 72
    10
 73
     6
 74
     0
 42
0.00000001
 43
0.00000001
 40
0.0
 40
0.0
 40
0.0
 40
0.0
 40
0.5
 40
0.5
 40
1.0
 40
1.0
 40
1.0
 40
1.0
 10
149.8833387720116
 20
539.9576208374012
 30
0.0
 10
150.0000702871951
 20
539.6518631451805
 30
0.0
 10
150.1202372539919
 20
539.3442665241289
 30
0.0
 10
150.3519456500658
 20
538.7214185976794
 30
0.0
 10
150.4642471108079
 20
538.40446275986
 30
0.0
 10
150.5637480798399
 20
538.0850512311833
 30
0.0
  0
SPLINE
  5
B3
330
1F
100
AcDbEntity
  8
0
  6
Continuous
 62
     8
370
     0
100
AcDbSpline
210
0.0
220
0.0
230
1.0
 70
     8
 71
     3
 72
    37
 73
    33
 74
     0
 42
0.00000001
 43
0.00000001
 40
0.0
 40
0.0
 40
0.0
 40
0.0
 40
0.0334559675863648
 40
0.0653370345122033
 40
0.0958514514343618
 40
0.1252365396524251
 40
0.1537578254555504
 40
0.1817054666792435
 40
0.2103989467153223
 40
0.2396914480134203
 40
0.2697343114503505
 40
0.3001611113817161
 40
0.3600968894619785
 40
0.4242930803080968
 40
0.4878122328037985
 40
0.5341881183185987
 40
0.5834876190490629
 40
0.6247597999049328
 40
0.633900862513237
 40
0.6433984956753613
 40
0.6580156183460242
 40
0.6987423725854469
 40
0.718114739246934
 40
0.7358366772760719
 40
0.7749887516354946
 40
0.8087583805751458
 40
0.8442763194726449
 40
0.8763816537745218
 40
0.9096137438144302
 40
0.9534524874197592
 40
0.9954328359637554
 40
1.0
 40
1.0
 40
1.0
 40
1.0
 10
195.2601720390988
 20
436.1134096274862
 30
0.0
 10
194.5815993212742
 20
435.6215891379478
 30
0.0
 10
193.2563969050209
 20
434.6611000348954
 30
0.0
 10
191.0441130929825
 20
433.4799268009824
 30
0.0
 10
188.7595988548894
 20
432.5416078622213
 30
0.0
 10
186.4093858089964
 20
431.8604180239168
 30
0.0
 10
184.0236990592178
 20
431.4335909643048
 30
0.0
 10
181.5978749508376
 20
431.2607808770157
 30
0.0
 10
179.1411577613795
 20
431.3530275955277
 30
0.0
 10
176.6714947530999
 20
431.7155872759744
 30
0.0
 10
174.2534257210982
 20
432.3450803981231
 30
0.0
 10
171.202168035604
 20
433.5047432065742
 30
0.0
 10
167.7131408738402
 20
435.5184187009383
 30
0.0
 10
164.278871269222
 20
438.5610488682173
 30
0.0
 10
161.8098862858585
 20
441.7731841704297
 30
0.0
 10
160.0813767725739
 20
444.9600976404956
 30
0.0
 10
158.9601957332083
 20
447.8727997707819
 30
0.0
 10
158.3979404967539
 20
450.178040304088
 30
0.0
 10
158.144616894119
 20
451.6512501931033
 30
0.0
 10
158.0213110773505
 20
452.4894070873553
 30
0.0
 10
157.8275025457953
 20
454.1790406120586
 30
0.0
 10
157.7217272374234
 20
456.2976088123692
 30
0.0
 10
157.7369574790924
 20
458.5257563960125
 30
0.0
 10
157.8323848519637
 20
460.6659367048761
 30
0.0
 10
158.090093965594
 20
463.0603493538841
 30
0.0
 10
158.6261698537167
 20
465.6340407128409
 30
0.0
 10
159.3218742503173
 20
467.8811437521626
 30
0.0
 10
160.2036055556805
 20
470.0047370099798
 30
0.0
 10
161.3558622886453
 20
472.2030745099652
 30
0.0
 10
162.915110706443
 20
474.4579317853183
 30
0.0
 10
164.245218559973
 20
476.1063593924707
 30
0.0
 10
165.1032038016282
 20
476.8503207293832
 30
0.0
 10
165.1873878776852
 20
476.9233169707279
 30
0.0
  0
SPLINE
  5
B4
330
1F
100
AcDbEntity
  8
0
  6
Continuous
 62
     8
370
     0
100
AcDbSpline
210
0.0
220
0.0
230
1.0
 70
     8
 71
     3
 72
    33
 73
    29
 74
     0
 42
0.00000001
 43
0.00000001
 40
0.0
 40
0.0
 40
0.0
 40
0.0
 40
0.013956188312426
 40
0.0461378011321484
 40
0.078598420745675
 40
0.1119428506934132
 40
0.1464817344537184
 40
0.1824948190841685
 40
0.2202290782970182
 40
0.2693408548635024
 40
0.3174416811440814
 40
0.367868627044941
 40
0.4180983748579165
 40
0.4687677466047688
 40
0.5218626032795262
 40
0.534418230484358
 40
0.5462152537481076
 40
0.5626176310315477
 40
0.6095557168210467
 40
0.6534745894827034
 40
0.6687395939161216
 40
0.6846909925326191
 40
0.7002295781616207
 40
0.752140501672053
 40
0.8018875664945954
 40
0.8522276077933032
 40
0.928929648256091
 40
1.0
 40
1.0
 40
1.0
 40
1.0
 10
179.8036143258586
 20
483.4128393846066
 30
0.0
 10
180.1465178056125
 20
483.442454559608
 30
0.0
 10
181.2801233576615
 20
483.5403594476849
 30
0.0
 10
183.2320081563734
 20
483.4330980556222
 30
0.0
 10
185.6150177896329
 20
483.1037563610814
 30
0.0
 10
187.9663491904754
 20
482.5075019701548
 30
0.0
 10
190.2648913953096
 20
481.6639860047517
 30
0.0
 10
192.4863625121457
 20
480.5682711147388
 30
0.0
 10
194.7818275314254
 20
479.1105437096639
 30
0.0
 10
197.0059069025506
 20
477.2782452000951
 30
0.0
 10
199.0822850102047
 20
475.05795414448
 30
0.0
 10
200.8262123456948
 20
472.6395198333278
 30
0.0
 10
202.2595044059925
 20
470.0208144635596
 30
0.0
 10
203.3871376206999
 20
467.1969565173798
 30
0.0
 10
203.9866124584384
 20
464.8950957329807
 30
0.0
 10
204.2786374647142
 20
463.2543122324304
 30
0.0
 10
204.4112988901093
 20
462.3661823205836
 30
0.0
 10
204.6086579323
 20
460.6725492480124
 30
0.0
 10
204.745380637699
 20
458.0460206749734
 30
0.0
 10
204.6830154233333
 20
455.3878320969609
 30
0.0
 10
204.5454832684585
 20
453.6215433826492
 30
0.0
 10
204.4290379543251
 20
452.5577471965476
 30
0.0
 10
204.1631259772697
 20
450.7345720270719
 30
0.0
 10
203.6213919128041
 20
448.3594299455515
 30
0.0
 10
202.5984247244682
 20
445.5209216792435
 30
0.0
 10
201.0261894486942
 20
442.415679249264
 30
0.0
 10
198.7584910628367
 20
439.1540295777554
 30
0.0
 10
196.3962698554631
 20
437.1008672213919
 30
0.0
 10
195.2601720390988
 20
436.1134096274862
 30
0.0
  0
LINE
  5
B5
330
1F
100
AcDbEntity
  8
0
  6
Continuous
 62
     8
370
     0
100
AcDbLine
 10
157.1484361541
 20
498.2352662714
 30
0.0
 11
162.0447227331
 21
498.2352662714
 31
0.0
  0
LINE
  5
B6
330
1F
100
AcDbEntity
  8
0
  6
Continuous
 62
     8
370
     0
100
AcDbLine
 10
170.6303348556
 20
498.2352662714
 30
0.0
 11
205.2924361541
 21
498.2352662714
 31
0.0
  0
LINE
  5
B7
330
1F
100
AcDbEntity
  8
0
  6
Continuous
 62
     8
370
     0
100
AcDbLine
 10
168.396830536
 20
504.2846812956
 30
0.0
 11
202.2412429111
 21
504.2846812956
 31
0.0
  0
SPLINE
  5
B8
330
1F
100
AcDbEntity
  8
0
  6
Continuous
 62
     7
370
    15
100
AcDbSpline
210
0.0
220
0.0
230
1.0
 70
     8
 71
     3
 72
     9
 73
     5
 74
     0
 42
0.00000001
 43
0.00000001
 40
0.0
 40
0.0
 40
0.0
 40
0.0
 40
0.5704191239865339
 40
1.0
 40
1.0
 40
1.0
 40
1.0
 10
411.1916460961431
 20
536.0646687161149
 30
0.0
 10
411.2134395493726
 20
536.8754760647776
 30
0.0
 10
411.2516455847474
 20
538.2968999171131
 30
0.0
 10
411.0143611961655
 20
539.6957272093758
 30
0.0
 10
410.9124283606542
 20
540.2966366629777
 30
0.0
  0
SPLINE
  5
B9
330
1F
100
AcDbEntity
  8
0
  6
Continuous
 62
     7
370
    15
100
AcDbSpline
210
0.0
220
0.0
230
1.0
 70
     8
 71
     3
 72
     9
 73
     5
 74
     0
 42
0.00000001
 43
0.00000001
 40
0.0
 40
0.0
 40
0.0
 40
0.0
 40
0.5124773726654279
 40
1.0
 40
1.0
 40
1.0
 40
1.0
 10
395.3855199471114
 20
541.0105620359037
 30
0.0
 10
395.2388209646324
 20
540.1723981624673
 30
0.0
 10
394.952566409205
 20
538.5368842487952
 30
0.0
 10
394.9883038321407
 20
536.8749726298967
 30
0.0
 10
395.0057266344645
 20
536.0647531110535
 30
0.0
  0
SPLINE
  5
BA
330
1F
100
AcDbEntity
  8
0
  6
Continuous
 62
     7
370
    15
100
AcDbSpline
210
0.0
220
0.0
230
1.0
 70
     8
 71
     3
 72
     9
 73
     5
 74
     0
 42
0.00000001
 43
0.00000001
 40
0.0
 40
0.0
 40
0.0
 40
0.0
 40
0.2694115922673301
 40
1.0
 40
1.0
 40
1.0
 40
1.0
 10
403.1052081886519
 20
546.5762099831934
 30
0.0
 10
402.9206394976179
 20
546.5793104560807
 30
0.0
 10
402.235558764897
 20
546.5908187689234
 30
0.0
 10
401.5645254081397
 20
546.4418566586866
 30
0.0
 10
401.074276216491
 20
546.333026667756
 30
0.0
  0
SPLINE
  5
BB
330
1F
100
AcDbEntity
  8
0
  6
Continuous
 62
     7
370
    15
100
AcDbSpline
210
0.0
220
0.0
230
1.0
 70
     8
 71
     3
 72
     9
 73
     5
 74
     0
 42
0.00000001
 43
0.00000001
 40
0.0
 40
0.0
 40
0.0
 40
0.0
 40
0.2710878386553947
 40
1.0
 40
1.0
 40
1.0
 40
1.0
 10
405.1247406920568
 20
546.3260213700495
 30
0.0
 10
404.9468528957371
 20
546.3737245392492
 30
0.0
 10
404.2906530558549
 20
546.5496939572664
 30
0.0
 10
403.6072839011761
 20
546.5679932587452
 30
0.0
 10
403.1091678136429
 20
546.581331842137
 30
0.0
  0
SPLINE
  5
BC
330
1F
100
AcDbEntity
  8
0
  6
Continuous
 62
     7
370
    15
100
AcDbSpline
210
0.0
220
0.0
230
1.0
 70
     8
 71
     3
 72
     9
 73
     5
 74
     0
 42
0.00000001
 43
0.00000001
 40
0.0
 40
0.0
 40
0.0
 40
0.0
 40
0.267237856215513
 40
1.0
 40
1.0
 40
1.0
 40
1.0
 10
401.0718605340776
 20
546.3254910208888
 30
0.0
 10
400.8908377774947
 20
546.2831978689602
 30
0.0
 10
400.2134533711593
 20
546.1249375366574
 30
0.0
 10
399.5930414370222
 20
545.8092416709931
 30
0.0
 10
399.1384270581346
 20
545.5779116916851
 30
0.0
  0
SPLINE
  5
BD
330
1F
100
AcDbEntity
  8
0
  6
Continuous
 62
     7
370
    15
100
AcDbSpline
210
0.0
220
0.0
230
1.0
 70
     8
 71
     3
 72
     9
 73
     5
 74
     0
 42
0.00000001
 43
0.00000001
 40
0.0
 40
0.0
 40
0.0
 40
0.0
 40
0.3006961450370774
 40
1.0
 40
1.0
 40
1.0
 40
1.0
 10
406.9151517351645
 20
545.6456003304294
 30
0.0
 10
406.7463320942103
 20
545.7373370404273
 30
0.0
 10
406.1849027452128
 20
546.0424181381132
 30
0.0
 10
405.5617742601502
 20
546.2060889283794
 30
0.0
 10
405.1260181084088
 20
546.3205445429574
 30
0.0
  0
SPLINE
  5
BE
330
1F
100
AcDbEntity
  8
0
  6
Continuous
 62
     7
370
    15
100
AcDbSpline
210
0.0
220
0.0
230
1.0
 70
     8
 71
     3
 72
     9
 73
     5
 74
     0
 42
0.00000001
 43
0.00000001
 40
0.0
 40
0.0
 40
0.0
 40
0.0
 40
0.535710939372659
 40
1.0
 40
1.0
 40
1.0
 40
1.0
 10
409.9937210331846
 20
542.8004014222237
 30
0.0
 10
409.9500473610266
 20
542.8832314955292
 30
0.0
 10
409.8685226637539
 20
543.0378485981827
 30
0.0
 10
409.7524517599949
 20
543.169403103266
 30
0.0
 10
409.6985613091224
 20
543.2304824208524
 30
0.0
  0
SPLINE
  5
BF
330
1F
100
AcDbEntity
  8
0
  6
Continuous
 62
     7
370
    15
100
AcDbSpline
210
0.0
220
0.0
230
1.0
 70
     8
 71
     3
 72
    10
 73
     6
 74
     0
 42
0.00000001
 43
0.00000001
 40
0.0
 40
0.0
 40
0.0
 40
0.0
 40
0.1651063350466481
 40
0.7089788076939587
 40
1.0
 40
1.0
 40
1.0
 40
1.0
 10
409.1942734455583
 20
543.8458955167616
 30
0.0
 10
409.0950527614663
 20
543.971557515469
 30
0.0
 10
408.6689918093754
 20
544.5111594271144
 30
0.0
 10
407.8902645459611
 20
545.1320960978177
 30
0.0
 10
407.1599985981198
 20
545.4992938666462
 30
0.0
 10
406.9054477783418
 20
545.627289007803
 30
0.0
  0
SPLINE
  5
C0
330
1F
100
AcDbEntity
  8
0
  6
Continuous
 62
     7
370
    15
100
AcDbSpline
210
0.0
220
0.0
230
1.0
 70
     8
 71
     3
 72
     9
 73
     5
 74
     0
 42
0.00000001
 43
0.00000001
 40
0.0
 40
0.0
 40
0.0
 40
0.0
 40
0.5296992532112191
 40
1.0
 40
1.0
 40
1.0
 40
1.0
 10
399.1373974801689
 20
545.5692396612013
 30
0.0
 10
398.9463625200519
 20
545.4713258978243
 30
0.0
 10
398.5857145505503
 20
545.2864780567455
 30
0.0
 10
398.2824059037276
 20
545.0212949204963
 30
0.0
 10
398.1397596206194
 20
544.8965790934825
 30
0.0
  0
SPLINE
  5
C1
330
1F
100
AcDbEntity
  8
0
  6
Continuous
 62
     7
370
    15
100
AcDbSpline
210
0.0
220
0.0
230
1.0
 70
     8
 71
     3
 72
     9
 73
     5
 74
     0
 42
0.00000001
 43
0.00000001
 40
0.0
 40
0.0
 40
0.0
 40
0.0
 40
0.5212006188846302
 40
1.0
 40
1.0
 40
1.0
 40
1.0
 10
398.126929630901
 20
544.9125476814922
 30
0.0
 10
397.9598396978908
 20
544.7934130212469
 30
0.0
 10
397.6392531004154
 20
544.5648356636447
 30
0.0
 10
397.3864476059058
 20
544.2662310168398
 30
0.0
 10
397.2654044915921
 20
544.1232592967515
 30
0.0
  0
SPLINE
  5
C2
330
1F
100
AcDbEntity
  8
0
  6
Continuous
 62
     7
370
    15
100
AcDbSpline
210
0.0
220
0.0
230
1.0
 70
     8
 71
     3
 72
     9
 73
     5
 74
     0
 42
0.00000001
 43
0.00000001
 40
0.0
 40
0.0
 40
0.0
 40
0.0
 40
0.7729584847507363
 40
0.9999999999999999
 40
0.9999999999999999
 40
0.9999999999999999
 40
0.9999999999999999
 10
396.8850964905209
 20
543.7335391757499
 30
0.0
 10
396.7404394381339
 20
543.5780374438417
 30
0.0
 10
396.5532921912367
 20
543.3768601038215
 30
0.0
 10
396.4226423898112
 20
543.1381666799653
 30
0.0
 10
396.3929794609285
 20
543.0839733633329
 30
0.0
  0
SPLINE
  5
C3
330
1F
100
AcDbEntity
  8
0
  6
Continuous
 62
     7
370
    15
100
AcDbSpline
210
0.0
220
0.0
230
1.0
 70
     8
 71
     3
 72
     9
 73
     5
 74
     0
 42
0.00000001
 43
0.00000001
 40
0.0
 40
0.0
 40
0.0
 40
0.0
 40
0.6585969888636418
 40
1.0
 40
1.0
 40
1.0
 40
1.0
 10
410.0930496211076
 20
542.6385901555697
 30
0.0
 10
410.0765724224623
 20
542.6782755667127
 30
0.0
 10
410.0515537859912
 20
542.7385330713993
 30
0.0
 10
410.0111565973085
 20
542.789683052294
 30
0.0
 10
409.9973648754508
 20
542.8071458097912
 30
0.0
  0
SPLINE
  5
C4
330
1F
100
AcDbEntity
  8
0
  6
Continuous
 62
     7
370
    15
100
AcDbSpline
210
0.0
220
0.0
230
1.0
 70
     8
 71
     3
 72
     9
 73
     5
 74
     0
 42
0.00000001
 43
0.00000001
 40
0.0
 40
0.0
 40
0.0
 40
0.0
 40
0.7036992264433077
 40
0.9999999999999999
 40
0.9999999999999999
 40
0.9999999999999999
 40
0.9999999999999999
 10
396.2034486737163
 20
542.8030269781486
 30
0.0
 10
396.1567812475454
 20
542.7413047719378
 30
0.0
 10
396.0904639568374
 20
542.6535937103201
 30
0.0
 10
396.0470312050108
 20
542.5531393401387
 30
0.0
 10
396.0341620470468
 20
542.5233746325467
 30
0.0
  0
ARC
  5
C5
330
1F
100
AcDbEntity
  8
0
  6
Continuous
 62
     7
370
    15
100
AcDbCircle
 10
303.0494673461
 20
498.2352662714
 30
0.0
 40
7.522500000000019
100
AcDbArc
 50
126.46923439
 51
180.0
  0
ARC
  5
C6
330
1F
100
AcDbEntity
  8
0
  6
Continuous
 62
     7
370
    15
100
AcDbCircle
 10
336.1484673461
 20
498.2352662714
 30
0.0
 40
7.522500000000036
100
AcDbArc
 50
0.0
 51
53.53076561
  0
LINE
  5
C7
330
1F
100
AcDbEntity
  8
0
  6
Continuous
 62
     7
370
    15
100
AcDbLine
 10
295.5269673461
 20
498.2352662714
 30
0.0
 11
295.5269673461
 21
489.6925515073
 31
0.0
  0
LINE
  5
C8
330
1F
100
AcDbEntity
  8
0
  6
Continuous
 62
     7
370
    15
100
AcDbLine
 10
343.6709673461
 20
489.6925515073
 30
0.0
 11
343.6709673461
 21
498.2352662714
 31
0.0
  0
LINE
  5
C9
330
1F
100
AcDbEntity
  8
0
  6
Continuous
 62
     7
370
    15
100
AcDbLine
 10
295.5269673461
 20
489.2913515073
 30
0.0
 11
295.5269673461
 21
387.1859515073
 31
0.0
  0
LINE
  5
CA
330
1F
100
AcDbEntity
  8
0
  6
Continuous
 62
     7
370
    15
100
AcDbLine
 10
343.6709673461
 20
483.4731065704
 30
0.0
 11
343.6709673461
 21
489.2913515073
 31
0.0
  0
LINE
  5
CB
330
1F
100
AcDbEntity
  8
0
  6
Continuous
 62
     7
370
    15
100
AcDbLine
 10
343.6709673461
 20
387.1859515073
 30
0.0
 11
343.6709673461
 21
431.3197275561
 31
0.0
  0
ARC
  5
CC
330
1F
100
AcDbEntity
  8
0
  6
Continuous
 62
     7
370
    15
100
AcDbCircle
 10
295.7275673461
 20
489.6925515073
 30
0.0
 40
0.2006000000000085
100
AcDbArc
 50
180.0
 51
270.0
  0
ARC
  5
CD
330
1F
100
AcDbEntity
  8
0
  6
Continuous
 62
     7
370
    15
100
AcDbCircle
 10
343.4703673461
 20
489.6925515073
 30
0.0
 40
0.2006000000000085
100
AcDbArc
 50
270.0
 51
360.0
  0
ARC
  5
CE
330
1F
100
AcDbEntity
  8
0
  6
Continuous
 62
     7
370
    15
100
AcDbCircle
 10
343.4703673461
 20
489.2913515073
 30
0.0
 40
0.2006000000000654
100
AcDbArc
 50
0.0
 51
90.0
  0
ARC
  5
CF
330
1F
100
AcDbEntity
  8
0
  6
Continuous
 62
     7
370
    15
100
AcDbCircle
 10
295.7275673461
 20
489.2913515073
 30
0.0
 40
0.2006000000000654
100
AcDbArc
 50
90.0
 51
180.0
  0
SPLINE
  5
D0
330
1F
100
AcDbEntity
  8
0
  6
Continuous
 62
     7
370
    15
100
AcDbSpline
210
0.0
220
0.0
230
1.0
 70
     8
 71
     3
 72
    13
 73
     9
 74
     0
 42
0.00000001
 43
0.00000001
 40
0.0
 40
0.0
 40
0.0
 40
0.0
 40
0.2394559159850864
 40
0.3683600757064576
 40
0.5000000745853956
 40
0.6316400612599011
 40
0.7605441872450401
 40
1.0
 40
1.0
 40
1.0
 40
1.0
 10
346.6963392692818
 20
480.4649939536661
 30
0.0
 10
346.3157696399564
 20
480.5054159634531
 30
0.0
 10
345.7303313688109
 20
480.5675979919244
 30
0.0
 10
345.0259977191026
 20
480.9448573520509
 30
0.0
 10
344.5413236833066
 20
481.3353128602644
 30
0.0
 10
344.1508684133159
 20
481.8199870153686
 30
0.0
 10
343.7736095185066
 20
482.5243206670863
 30
0.0
 10
343.7114280832459
 20
483.1097587930959
 30
0.0
 10
343.6710064614769
 20
483.4903283055158
 30
0.0
  0
SPLINE
  5
D1
330
1F
100
AcDbEntity
  8
0
  6
Continuous
 62
     7
370
    15
100
AcDbSpline
210
0.0
220
0.0
230
1.0
 70
     8
 71
     3
 72
    13
 73
     9
 74
     0
 42
0.00000001
 43
0.00000001
 40
0.0
 40
0.0
 40
0.0
 40
0.0
 40
0.2394555959297581
 40
0.3683597647125913
 40
0.4999998690830918
 40
0.6316399948109936
 40
0.7605442226829323
 40
0.9999999999999999
 40
0.9999999999999999
 40
0.9999999999999999
 40
0.9999999999999999
 10
343.6708733298302
 20
431.3017185131445
 30
0.0
 10
343.7112998995951
 20
431.68228453369
 30
0.0
 10
343.7734889733938
 20
432.2677175415989
 30
0.0
 10
344.1507506885011
 20
432.9720433600334
 30
0.0
 10
344.5412049918582
 20
433.4567134886935
 30
0.0
 10
345.0258751995786
 20
433.8471678495651
 30
0.0
 10
345.7302012934258
 20
434.2244298529505
 30
0.0
 10
346.3156345952147
 20
434.286619516142
 30
0.0
 10
346.6962008466328
 20
434.3270464732786
 30
0.0
  0
LINE
  5
D2
330
1F
100
AcDbEntity
  8
0
  6
Continuous
 62
     7
370
    15
100
AcDbLine
 10
346.6759559396
 20
434.3269515073
 30
0.0
 11
372.2564673461
 21
434.3269515073
 31
0.0
  0
LINE
  5
D3
330
1F
100
AcDbEntity
  8
0
  6
Continuous
 62
     7
370
    15
100
AcDbLine
 10
372.2564673461
 20
480.4649515073
 30
0.0
 11
346.6764664652
 21
480.4649515073
 31
0.0
  0
ARC
  5
D4
330
1F
100
AcDbEntity
  8
0
  6
Continuous
 62
     7
370
    15
100
AcDbCircle
 10
372.2564673461
 20
434.8284515073
 30
0.0
 40
0.5014999999999645
100
AcDbArc
 50
270.0
 51
0.0
  0
ARC
  5
D5
330
1F
100
AcDbEntity
  8
0
  6
Continuous
 62
     7
370
    15
100
AcDbCircle
 10
372.2564673461
 20
479.9634515073
 30
0.0
 40
0.5015000000000214
100
AcDbArc
 50
0.0
 51
90.0
  0
LINE
  5
D6
330
1F
100
AcDbEntity
  8
0
  6
Continuous
 62
     7
370
    15
100
AcDbLine
 10
374.7639673461
 20
479.4619515072
 30
0.0
 11
372.7579673461
 21
479.4619515072
 31
0.0
  0
LINE
  5
D7
330
1F
100
AcDbEntity
  8
0
  6
Continuous
 62
     7
370
    15
100
AcDbLine
 10
372.7579673462
 20
435.3299515072
 30
0.0
 11
374.7639673462
 21
435.3299515072
 31
0.0
  0
ARC
  5
D8
330
1F
100
AcDbEntity
  8
0
  6
Continuous
 62
     7
370
    15
100
AcDbCircle
 10
374.8376536489
 20
457.3960745401
 30
0.0
 40
22.06600000000002
100
AcDbArc
 50
269.8145789352
 51
295.0792823406
  0
ARC
  5
D9
330
1F
100
AcDbEntity
  8
0
  6
Continuous
 62
     7
370
    15
100
AcDbCircle
 10
374.8376536489
 20
457.3960745401
 30
0.0
 40
22.06600000000002
100
AcDbArc
 50
75.181877441
 51
90.1843276443
  0
LINE
  5
DA
330
1F
100
AcDbEntity
  8
0
  6
Continuous
 62
     7
370
    15
100
AcDbLine
 10
340.6197741031
 20
504.2846812956
 30
0.0
 11
332.2693338342
 21
510.4567458422
 31
0.0
  0
LINE
  5
DB
330
1F
100
AcDbEntity
  8
0
  6
Continuous
 62
     7
370
    15
100
AcDbLine
 10
306.9286008581
 20
510.4567458422
 30
0.0
 11
298.5781605891
 21
504.2846812956
 31
0.0
  0
ARC
  5
DC
330
1F
100
AcDbEntity
  8
0
  6
Continuous
 62
     7
370
    15
100
AcDbCircle
 10
278.8451820712
 20
457.4216734664
 30
0.0
 40
133.730653226773
100
AcDbArc
 50
351.1727494786
 51
0.0
  0
ARC
  5
DD
330
1F
100
AcDbEntity
  8
0
  6
Continuous
 62
     7
370
    15
100
AcDbCircle
 10
307.2266879753
 20
510.0534515073
 30
0.0
 40
0.5015000000000214
100
AcDbArc
 50
90.0
 51
126.46923439
  0
ARC
  5
DE
330
1F
100
AcDbEntity
  8
0
  6
Continuous
 62
     7
370
    15
100
AcDbCircle
 10
331.971246717
 20
510.0534515073
 30
0.0
 40
0.5015000000000214
100
AcDbArc
 50
53.53076561
 51
90.0
  0
SPLINE
  5
DF
330
1F
100
AcDbEntity
  8
0
  6
Continuous
 62
     7
370
    15
100
AcDbSpline
210
0.0
220
0.0
230
1.0
 70
     8
 71
     3
 72
    14
 73
    10
 74
     0
 42
0.00000001
 43
0.00000001
 40
0.0
 40
0.0
 40
0.0
 40
0.0
 40
0.0628502781995693
 40
0.1932816353786047
 40
0.415166574296458
 40
0.5929496388090352
 40
0.7528467341628602
 40
0.9594053162138262
 40
0.9999999999999999
 40
0.9999999999999999
 40
0.9999999999999999
 40
0.9999999999999999
 10
394.3106780395098
 20
486.7178054402409
 30
0.0
 10
394.2473296122456
 20
486.5134513428561
 30
0.0
 10
394.0525160335147
 20
485.8850071216003
 30
0.0
 10
393.4265932503835
 20
484.7450995107925
 30
0.0
 10
392.5836941031038
 20
483.5578950092596
 30
0.0
 10
391.5342477920004
 20
482.5668410370559
 30
0.0
 10
390.2339713004369
 20
481.7582364792989
 30
0.0
 10
389.1026916439557
 20
481.3025602498789
 30
0.0
 10
388.2933386676511
 20
481.1247256976242
 30
0.0
 10
388.160403227639
 20
481.0955165451958
 30
0.0
  0
SPLINE
  5
E0
330
1F
100
AcDbEntity
  8
0
  6
Continuous
 62
     7
370
    15
100
AcDbSpline
210
0.0
220
0.0
230
1.0
 70
     8
 71
     3
 72
    10
 73
     6
 74
     0
 42
0.00000001
 43
0.00000001
 40
0.0
 40
0.0
 40
0.0
 40
0.0
 40
0.4190927800627923
 40
0.703607219002912
 40
1.0
 40
1.0
 40
1.0
 40
1.0
 10
383.5602428956262
 20
480.5331431834337
 30
0.0
 10
383.3144320123255
 20
480.5229636861075
 30
0.0
 10
382.9017446069878
 20
480.5058735138467
 30
0.0
 10
382.3112214062826
 20
480.4952410236892
 30
0.0
 10
381.9687461187639
 20
480.4918298709789
 30
0.0
 10
381.7940070220432
 20
480.4900894191416
 30
0.0
  0
SPLINE
  5
E1
330
1F
100
AcDbEntity
  8
0
  6
Continuous
 62
     7
370
    15
100
AcDbSpline
210
0.0
220
0.0
230
1.0
 70
     8
 71
     3
 72
    15
 73
    11
 74
     0
 42
0.00000001
 43
0.00000001
 40
0.0
 40
0.0
 40
0.0
 40
0.0
 40
0.1266663856521949
 40
0.257169293478841
 40
0.3850740692733602
 40
0.5057735678715309
 40
0.6192080620371342
 40
0.7338340466433859
 40
0.8622736931568034
 40
1.0
 40
1.0
 40
1.0
 40
1.0
 10
412.5758352980092
 20
457.4216734664227
 30
0.0
 10
412.5578032601954
 20
458.9901710626768
 30
0.0
 10
412.521193022991
 20
462.1746735380178
 30
0.0
 10
412.2901299437297
 20
466.8692858027304
 30
0.0
 10
412.0390134744981
 20
471.2984285394909
 30
0.0
 10
411.7844820223361
 20
475.2601220091822
 30
0.0
 10
411.5480225370188
 20
478.8688318570867
 30
0.0
 10
411.3490794600032
 20
482.7352774563648
 30
0.0
 10
411.2060997330423
 20
487.0995773261305
 30
0.0
 10
411.1841995115934
 20
490.1716218819067
 30
0.0
 10
411.1728673461486
 20
491.7612367285431
 30
0.0
  0
LINE
  5
E2
330
1F
100
AcDbEntity
  8
0
  6
Continuous
 62
     7
370
    15
100
AcDbLine
 10
331.5848173461
 20
510.5549515073
 30
0.0
 11
331.5848173461
 21
510.7555515073
 31
0.0
  0
LINE
  5
E3
330
1F
100
AcDbEntity
  8
0
  6
Continuous
 62
     7
370
    15
100
AcDbLine
 10
307.6131173461
 20
510.7555515073
 30
0.0
 11
307.6131173461
 21
510.5549515073
 31
0.0
  0
LINE
  5
E4
330
1F
100
AcDbEntity
  8
0
  6
Continuous
 62
     7
370
    15
100
AcDbLine
 10
383.0406322145
 20
480.0729392576
 30
0.0
 11
382.8233273637
 21
479.516849726
 31
0.0
  0
LINE
  5
E5
330
1F
100
AcDbEntity
  8
0
  6
Continuous
 62
     7
370
    15
100
AcDbLine
 10
382.7879673461
 20
479.33507046
 30
0.0
 11
382.7879673461
 21
479.1132945676
 31
0.0
  0
ARC
  5
E6
330
1F
100
AcDbEntity
  8
0
  6
Continuous
 62
     7
370
    15
100
AcDbCircle
 10
424.9139673461
 20
644.9569515073
 30
0.0
 40
94.28200000000012
100
AcDbArc
 50
10.0
 51
180.0
  0
ARC
  5
E7
330
1F
100
AcDbEntity
  8
0
  6
Continuous
 62
     7
370
    15
100
AcDbCircle
 10
424.9139673461
 20
644.9569515073
 30
0.0
 40
116.3480000000002
100
AcDbArc
 50
10.0
 51
180.0
  0
LINE
  5
E8
330
1F
100
AcDbEntity
  8
0
  6
Continuous
 62
     7
370
    15
100
AcDbLine
 10
308.5659673461
 20
644.9569515073
 30
0.0
 11
308.5659673461
 21
510.7555515073
 31
0.0
  0
LINE
  5
E9
330
1F
100
AcDbEntity
  8
0
  6
Continuous
 62
     7
370
    15
100
AcDbLine
 10
330.6319673461
 20
510.7555515073
 30
0.0
 11
330.6319673461
 21
644.9569515073
 31
0.0
  0
LINE
  5
EA
330
1F
100
AcDbEntity
  8
0
  6
Continuous
 62
     7
370
    15
100
AcDbLine
 10
546.9836520482
 20
622.6867961028
 30
0.0
 11
539.4943797936
 21
665.1605696825
 31
0.0
  0
LINE
  5
EB
330
1F
100
AcDbEntity
  8
0
  6
Continuous
 62
     7
370
    15
100
AcDbLine
 10
517.7636119156
 20
661.3288489941
 30
0.0
 11
525.2528841702
 21
618.8550754144
 31
0.0
  0
LINE
  5
EC
330
1F
100
AcDbEntity
  8
0
  6
Continuous
 62
     7
370
    15
100
AcDbLine
 10
547.1578211704
 20
621.6990339265
 30
0.0
 11
546.9836520482
 21
622.6867961028
 31
0.0
  0
LINE
  5
ED
330
1F
100
AcDbEntity
  8
0
  6
Continuous
 62
     7
370
    15
100
AcDbLine
 10
525.2528841702
 20
618.8550754144
 30
0.0
 11
525.4270532924
 21
617.8673132381
 31
0.0
  0
LINE
  5
EE
330
1F
100
AcDbEntity
  8
0
  6
Continuous
 62
     7
370
    15
100
AcDbLine
 10
385.8859422142
 20
434.3526734664
 30
0.0
 11
408.0185037067
 21
434.3526734664
 31
0.0
  0
ARC
  5
EF
330
1F
100
AcDbEntity
  8
0
  6
Continuous
 62
     7
370
    15
100
AcDbCircle
 10
408.0185037067
 20
437.3616734664
 30
0.0
 40
3.009000000000015
100
AcDbArc
 50
270.0
 51
351.1727494786
  0
LINE
  5
F0
330
1F
100
AcDbEntity
  8
0
  6
Continuous
 62
     7
370
    15
100
AcDbLine
 10
381.8496372097
 20
480.4906734664
 30
0.0
 11
380.4810673461
 21
480.4906734664
 31
0.0
  0
SPLINE
  5
F1
330
1F
100
AcDbEntity
  8
0
  6
Continuous
 62
     7
370
    15
100
AcDbSpline
210
0.0
220
0.0
230
1.0
 70
     8
 71
     3
 72
    12
 73
     8
 74
     0
 42
0.00000001
 43
0.00000001
 40
0.8952832756313802
 40
0.8952832756313802
 40
0.8952832756313802
 40
0.8952832756313802
 40
0.9214624567598514
 40
0.947641637839901
 40
0.9738208189199504
 40
0.9912736063066502
 40
1.0
 40
1.0
 40
1.0
 40
1.0
 10
395.0851707774935
 20
491.3214063546313
 30
0.0
 10
395.0732861766255
 20
491.3644368929284
 30
0.0
 10
395.0546903125789
 20
491.4441460335496
 30
0.0
 10
395.036784418989
 20
491.5541303008676
 30
0.0
 10
395.0278587253488
 20
491.6471953093933
 30
0.0
 10
395.024929958013
 20
491.7157234107368
 30
0.0
 10
395.0245673463951
 20
491.7498584394862
 30
0.0
 10
395.0245673461492
 20
491.761236456333
 30
0.0
  0
SPLINE
  5
F2
330
1F
100
AcDbEntity
  8
0
  6
Continuous
 62
     7
370
    15
100
AcDbSpline
210
0.0
220
0.0
230
1.0
 70
     8
 71
     3
 72
     8
 73
     4
 74
     0
 42
0.00000001
 43
0.00000001
 40
0.0
 40
0.0
 40
0.0
 40
0.0
 40
1.0
 40
1.0
 40
1.0
 40
1.0
 10
396.1620834966391
 20
542.7367034193695
 30
0.0
 10
395.8016660616827
 20
542.1577415336076
 30
0.0
 10
395.5277026409889
 20
541.5462412794934
 30
0.0
 10
395.3521842904605
 20
540.890977668715
 30
0.0
  0
SPLINE
  5
F3
330
1F
100
AcDbEntity
  8
0
  6
Continuous
 62
     7
370
    15
100
AcDbSpline
210
0.0
220
0.0
230
1.0
 70
     8
 71
     3
 72
     8
 73
     4
 74
     0
 42
0.00000001
 43
0.00000001
 40
0.0
 40
0.0
 40
0.0
 40
0.0
 40
1.0
 40
1.0
 40
1.0
 40
1.0
 10
410.8452346186583
 20
540.8910858969845
 30
0.0
 10
410.6694571991474
 20
541.5461366100102
 30
0.0
 10
410.3946375170987
 20
542.1568671463625
 30
0.0
 10
410.0346760902429
 20
542.7361424199983
 30
0.0
  0
SPLINE
  5
F4
330
1F
100
AcDbEntity
  8
0
  6
Continuous
 62
     7
370
    15
100
AcDbSpline
210
0.0
220
0.0
230
1.0
 70
     8
 71
     3
 72
     8
 73
     4
 74
     0
 42
0.00000001
 43
0.00000001
 40
0.0
 40
0.0
 40
0.0
 40
0.0
 40
1.0
 40
1.0
 40
1.0
 40
1.0
 10
411.1122802769081
 20
538.9646145310045
 30
0.0
 10
411.0903778358403
 20
539.6038536669503
 30
0.0
 10
411.0157795569525
 20
540.2555345062349
 30
0.0
 10
410.8452346186583
 20
540.8910858969846
 30
0.0
  0
LINE
  5
F5
330
1F
100
AcDbEntity
  8
0
  6
Continuous
 62
     7
370
    15
100
AcDbLine
 10
295.5269673461
 20
387.1859515073
 30
0.0
 11
343.6709673461
 21
387.1859515073
 31
0.0
  0
LINE
  5
F6
330
1F
100
AcDbEntity
  8
0
  6
Continuous
 62
     7
370
    15
100
AcDbLine
 10
295.7275673461
 20
489.4919515073
 30
0.0
 11
343.4703673292
 21
489.4919515073
 31
0.0
  0
LINE
  5
F7
330
1F
100
AcDbEntity
  8
0
  6
Continuous
 62
     7
370
    15
100
AcDbLine
 10
372.7579673461
 20
479.9634515073
 30
0.0
 11
372.7579673461
 21
434.8284515073
 31
0.0
  0
ELLIPSE
  5
F8
330
1F
100
AcDbEntity
  8
0
  6
Continuous
 62
     7
370
    15
100
AcDbEllipse
 10
380.4810673461
 20
457.4216734664
 30
0.0
 11
-5.441389415986009
 21
23.06480901855332
 31
0.0
210
0.0
220
0.0
230
0.9999999999999999
 40
0.0808086252
 41
1.900800326755705
 42
2.822202899042819
  0
LINE
  5
F9
330
1F
100
AcDbEntity
  8
0
  6
Continuous
 62
     7
370
    15
100
AcDbLine
 10
380.4810673461
 20
449.5316107802
 30
0.0
 11
380.4810673461
 21
479.0994425354
 31
0.0
  0
SPLINE
  5
FA
330
1F
100
AcDbEntity
  8
0
  6
Continuous
 62
     7
370
    15
100
AcDbSpline
210
0.0
220
0.0
230
1.0
 70
     8
 71
     3
 72
    12
 73
     8
 74
     0
 42
0.00000001
 43
0.00000001
 40
0.0
 40
0.0
 40
0.0
 40
0.0
 40
0.2500000000000164
 40
0.2500000000000164
 40
0.5000000000000328
 40
0.5000000000000328
 40
1.0
 40
1.0
 40
1.0
 40
1.0
 10
389.1063470412953
 20
479.0871357668578
 30
0.0
 10
389.1291310317308
 20
479.0802162726394
 30
0.0
 10
389.1262705176635
 20
479.0579473956281
 30
0.0
 10
389.1090739939344
 20
479.0145389367694
 30
0.0
 10
389.0935671390918
 20
478.9912052663978
 30
0.0
 10
389.0388035069033
 20
478.9215494537756
 30
0.0
 10
388.9901916636528
 20
478.8744457379925
 30
0.0
 10
388.9356224336975
 20
478.8290892151883
 30
0.0
  0
SPLINE
  5
FB
330
1F
100
AcDbEntity
  8
0
  6
Continuous
 62
     7
370
    15
100
AcDbSpline
210
0.0
220
0.0
230
1.0
 70
     8
 71
     3
 72
    12
 73
     8
 74
     0
 42
0.00000001
 43
0.00000001
 40
0.0
 40
0.0
 40
0.0
 40
0.0
 40
0.2499999999999991
 40
0.2499999999999991
 40
0.4999999999999982
 40
0.4999999999999982
 40
1.0
 40
1.0
 40
1.0
 40
1.0
 10
388.6394635808589
 20
480.0237849130864
 30
0.0
 10
388.6394754386889
 20
479.9431929031907
 30
0.0
 10
388.6504284418091
 20
479.8633148061028
 30
0.0
 10
388.6873463580246
 20
479.7045381416663
 30
0.0
 10
388.7146089573571
 20
479.6257242491303
 30
0.0
 10
388.8320095860857
 20
479.3916063171916
 30
0.0
 10
388.9564304920747
 20
479.2385392436345
 30
0.0
 10
389.1063470412954
 20
479.0871357668578
 30
0.0
  0
SPLINE
  5
FC
330
1F
100
AcDbEntity
  8
0
  6
Continuous
 62
     7
370
    15
100
AcDbSpline
210
0.0
220
0.0
230
1.0
 70
     8
 71
     3
 72
    22
 73
    18
 74
     0
 42
0.00000001
 43
0.00000001
 40
0.0
 40
0.0
 40
0.0
 40
0.0
 40
0.125
 40
0.125
 40
0.25
 40
0.25
 40
0.375
 40
0.375
 40
0.5
 40
0.5
 40
0.625
 40
0.625
 40
0.75
 40
0.75
 40
0.875
 40
0.875
 40
1.0
 40
1.0
 40
1.0
 40
1.0
 10
387.5089331392678
 20
477.9844800951291
 30
0.0
 10
387.2282154030596
 20
477.8915154879298
 30
0.0
 10
386.9438576933395
 20
477.8222055497727
 30
0.0
 10
386.3684097191582
 20
477.7289158395799
 30
0.0
 10
386.0748768138354
 20
477.7054099686692
 30
0.0
 10
385.5110930462035
 20
477.7034410318709
 30
0.0
 10
385.2361910527423
 20
477.7242655278777
 30
0.0
 10
384.7097781244113
 20
477.8040923173102
 30
0.0
 10
384.4655477553122
 20
477.8617375575091
 30
0.0
 10
384.0140438368286
 20
478.0047465710969
 30
0.0
 10
383.8066933243351
 20
478.0907925156882
 30
0.0
 10
383.4490262025116
 20
478.2765964788814
 30
0.0
 10
383.2948798130548
 20
478.3778803807345
 30
0.0
 10
383.0439299783742
 20
478.5877190211996
 30
0.0
 10
382.9494654858995
 20
478.6939639398242
 30
0.0
 10
382.8212308214528
 20
478.9058396348347
 30
0.0
 10
382.7879673461487
 20
479.0119303496937
 30
0.0
 10
382.7879673461487
 20
479.1132945675579
 30
0.0
  0
SPLINE
  5
FD
330
1F
100
AcDbEntity
  8
0
  6
Continuous
 62
     7
370
    15
100
AcDbSpline
210
0.0
220
0.0
230
1.0
 70
     8
 71
     3
 72
    10
 73
     6
 74
     0
 42
0.00000001
 43
0.00000001
 40
0.0
 40
0.0
 40
0.0
 40
0.0
 40
0.5
 40
0.5
 40
1.0
 40
1.0
 40
1.0
 40
1.0
 10
388.9356224336975
 20
478.8290892151883
 30
0.0
 10
388.7336777783399
 20
478.6612380768562
 30
0.0
 10
388.5149381148585
 20
478.504525765914
 30
0.0
 10
388.0404125818945
 20
478.220046106938
 30
0.0
 10
387.7819811422976
 20
478.091295165352
 30
0.0
 10
387.5089331392678
 20
477.9844800951291
 30
0.0
  0
LINE
  5
FE
330
1F
100
AcDbEntity
  8
0
  6
Continuous
 62
     7
370
    15
100
AcDbLine
 10
319.5989673461
 20
510.5549515073
 30
0.0
 11
331.971246717
 21
510.5549515073
 31
0.0
  0
LINE
  5
FF
330
1F
100
AcDbEntity
  8
0
  6
Continuous
 62
     7
370
    15
100
AcDbLine
 10
307.2266879753
 20
510.5549515073
 30
0.0
 11
319.5989673461
 21
510.5549515073
 31
0.0
  0
SPLINE
  5
100
330
1F
100
AcDbEntity
  8
0
  6
Continuous
 62
     7
370
    15
100
AcDbSpline
210
0.0
220
0.0
230
1.0
 70
     8
 71
     3
 72
    12
 73
     8
 74
     0
 42
0.00000001
 43
0.00000001
 40
0.0
 40
0.0
 40
0.0
 40
0.0
 40
0.5000000000000012
 40
0.5000000000000012
 40
0.7500000000000006
 40
0.7500000000000006
 40
1.0
 40
1.0
 40
1.0
 40
1.0
 10
389.1063470412953
 20
480.9604340608381
 30
0.0
 10
388.9577362569038
 20
480.8103492999469
 30
0.0
 10
388.8334959453512
 20
480.6581099531496
 30
0.0
 10
388.7153478930109
 20
480.4237202946097
 30
0.0
 10
388.6877704548726
 20
480.3445467103135
 30
0.0
 10
388.6504431082367
 20
480.184623415383
 30
0.0
 10
388.639475415599
 20
480.1041904020615
 30
0.0
 10
388.6394635852127
 20
480.0237849136418
 30
0.0
  0
SPLINE
  5
101
330
1F
100
AcDbEntity
  8
0
  6
Continuous
 62
     7
370
    15
100
AcDbSpline
210
0.0
220
0.0
230
1.0
 70
     8
 71
     3
 72
    12
 73
     8
 74
     0
 42
0.00000001
 43
0.00000001
 40
0.0
 40
0.0
 40
0.0
 40
0.0
 40
0.50000000000001
 40
0.50000000000001
 40
0.750000000000005
 40
0.750000000000005
 40
1.0
 40
1.0
 40
1.0
 40
1.0
 10
388.9356224336975
 20
480.97309754838
 30
0.0
 10
388.9902446357015
 20
480.9840118773983
 30
0.0
 10
389.0379262362595
 20
480.9916250979625
 30
0.0
 10
389.0930525976329
 20
480.9937426312815
 30
0.0
 10
389.1088799828022
 20
480.9928711198793
 30
0.0
 10
389.1262903787097
 20
480.9843944675335
 30
0.0
 10
389.1291795329257
 20
480.9764644521894
 30
0.0
 10
389.1063470412954
 20
480.9604340608381
 30
0.0
  0
LINE
  5
102
330
1F
100
AcDbEntity
  8
0
  6
Continuous
 62
     7
370
    15
100
AcDbLine
 10
331.5848173461
 20
510.7555515073
 30
0.0
 11
307.6131173461
 21
510.7555515073
 31
0.0
  0
LWPOLYLINE
  5
103
330
1F
100
AcDbEntity
  8
0
  6
Continuous
 62
     7
370
    15
100
AcDbPolyline
 90
        7
 70
   128
 43
0.0
 10
387.5089331393
 20
477.9844800951
 10
386.2391109182
 20
477.9763598049
 10
385.0254927321
 20
478.1043973927
 10
383.9896965843
 20
478.3557620721
 10
383.2355207374
 20
478.7052643142
 10
382.8385419765
 20
479.1178801176
 10
382.8233273637
 20
479.516849726
  0
LWPOLYLINE
  5
104
330
1F
100
AcDbEntity
  8
0
  6
Continuous
 62
     7
370
    15
100
AcDbPolyline
 90
        5
 70
   128
 43
0.0
 10
384.0485486981
 20
479.0082474717
 10
383.7124349218
 20
479.1477018114
 10
383.1878122602
 20
479.5055628022
 10
383.0072044572
 20
479.9010933818
 10
383.0406322145
 20
480.0729392576
  0
LWPOLYLINE
  5
105
330
1F
100
AcDbEntity
  8
0
  6
Continuous
 62
     7
370
    15
100
AcDbPolyline
 90
       15
 70
   128
 43
0.0
 10
389.1063470413
 20
480.9604340608
 10
388.1131877795
 20
481.163007434
 10
386.9830469227
 20
481.2467488777
 10
385.833809095
 20
481.2029233492
 10
384.7853509193
 20
481.0361022751
 10
383.9470367259
 20
480.7636867073
 10
383.406310795
 20
480.4140922247
 10
383.2195760721
 20
480.0237849138
 10
383.406310795
 20
479.633477603
 10
383.9470367259
 20
479.2838831204
 10
384.7853509193
 20
479.0114675526
 10
385.833809095
 20
478.8446464785
 10
386.9830469227
 20
478.80082095
 10
388.1131877795
 20
478.8845623937
 10
389.1063470413
 20
479.0871357669
  0
LINE
  5
106
330
1F
100
AcDbEntity
  8
0
  6
Continuous
 62
     7
370
    15
100
AcDbLine
 10
547.1578211704
 20
621.6990339265
 30
0.0
 11
525.4270532924
 21
617.8673132381
 31
0.0
  0
ELLIPSE
  5
107
330
1F
100
AcDbEntity
  8
0
  6
Continuous
 62
     7
370
    15
100
AcDbEllipse
 10
380.4810673461
 20
457.4216734664
 30
0.0
 11
-5.441389415986009
 21
23.06480901855332
 31
0.0
210
0.0
220
0.0
230
0.9999999999999999
 40
0.0808086252
 41
2.822202899042819
 42
3.122530803157348
  0
LINE
  5
108
330
1F
100
AcDbEntity
  8
0
  6
Continuous
 62
     7
370
    15
100
AcDbLine
 10
380.4810673461
 20
480.4906734664
 30
0.0
 11
380.4810673461
 21
479.0994425354
 31
0.0
  0
SPLINE
  5
109
330
1F
100
AcDbEntity
  8
0
  6
Continuous
 62
     8
370
     0
100
AcDbSpline
210
0.0
220
0.0
230
1.0
 70
     8
 71
     3
 72
     8
 73
     4
 74
     0
 42
0.00000001
 43
0.00000001
 40
0.0
 40
0.0
 40
0.0
 40
0.0
 40
1.0
 40
1.0
 40
1.0
 40
1.0
 10
401.0284807328692
 20
545.3596112128056
 30
0.0
 10
401.7088400694892
 20
545.5301025648399
 30
0.0
 10
402.4010248167947
 20
545.6157728455858
 30
0.0
 10
403.1052255669315
 20
545.6152358157378
 30
0.0
  0
SPLINE
  5
10A
330
1F
100
AcDbEntity
  8
0
  6
Continuous
 62
     8
370
     0
100
AcDbSpline
210
0.0
220
0.0
230
1.0
 70
     8
 71
     3
 72
     8
 73
     4
 74
     0
 42
0.00000001
 43
0.00000001
 40
0.0
 40
0.0
 40
0.0
 40
0.0
 40
1.0
 40
1.0
 40
1.0
 40
1.0
 10
403.1052255669316
 20
545.6152358157378
 30
0.0
 10
403.8046325831951
 20
545.6147024416344
 30
0.0
 10
404.4921207334835
 20
545.5291484909052
 30
0.0
 10
405.1678707829483
 20
545.359882870087
 30
0.0
  0
LINE
  5
10B
330
1F
100
AcDbEntity
  8
0
  6
Continuous
 62
     8
370
     0
100
AcDbLine
 10
408.116596782
 20
490.3890519135
 30
0.0
 11
398.0808350546
 21
490.3890519135
 31
0.0
  0
SPLINE
  5
10C
330
1F
100
AcDbEntity
  8
0
  6
Continuous
 62
     8
370
     0
100
AcDbSpline
210
0.0
220
0.0
230
1.0
 70
     8
 71
     3
 72
     8
 73
     4
 74
     0
 42
0.00000001
 43
0.00000001
 40
0.0
 40
0.0
 40
0.0
 40
0.0
 40
1.0
 40
1.0
 40
1.0
 40
1.0
 10
399.066197705193
 20
544.5923608669698
 30
0.0
 10
399.6837532265691
 20
544.9306526550396
 30
0.0
 10
400.3377848510849
 20
545.1865296243101
 30
0.0
 10
401.0284807328692
 20
545.3596112128056
 30
0.0
  0
SPLINE
  5
10D
330
1F
100
AcDbEntity
  8
0
  6
Continuous
 62
     8
370
     0
100
AcDbSpline
210
0.0
220
0.0
230
1.0
 70
     8
 71
     3
 72
     8
 73
     4
 74
     0
 42
0.00000001
 43
0.00000001
 40
0.0
 40
0.0
 40
0.0
 40
0.0
 40
1.0
 40
1.0
 40
1.0
 40
1.0
 10
405.1678707829483
 20
545.359882870087
 30
0.0
 10
405.8042963832269
 20
545.2004674554361
 30
0.0
 10
406.4103762339212
 20
544.9704525533863
 30
0.0
 10
406.9861534738706
 20
544.6698579283125
 30
0.0
  0
SPLINE
  5
10E
330
1F
100
AcDbEntity
  8
0
  6
Continuous
 62
     8
370
     0
100
AcDbSpline
210
0.0
220
0.0
230
1.0
 70
     8
 71
     3
 72
    12
 73
     8
 74
     0
 42
0.00000001
 43
0.00000001
 40
0.0
 40
0.0
 40
0.0
 40
0.0
 40
0.2499999999999998
 40
0.2499999999999998
 40
0.4999999999999997
 40
0.4999999999999997
 40
1.0
 40
1.0
 40
1.0
 40
1.0
 10
406.9861534738706
 20
544.6698579283125
 30
0.0
 10
407.3023684388333
 20
544.5047723496535
 30
0.0
 10
407.6046743119974
 20
544.3207851706753
 30
0.0
 10
408.1820000360693
 20
543.9158354625265
 30
0.0
 10
408.4578914476609
 20
543.6937404129825
 30
0.0
 10
409.2243073185779
 20
542.9862016736417
 30
0.0
 10
409.661123104224
 20
542.4567769051174
 30
0.0
 10
410.0265109679372
 20
541.8696586819309
 30
0.0
  0
SPLINE
  5
10F
330
1F
100
AcDbEntity
  8
0
  6
Continuous
 62
     8
370
     0
100
AcDbSpline
210
0.0
220
0.0
230
1.0
 70
     8
 71
     3
 72
     8
 73
     4
 74
     0
 42
0.00000001
 43
0.00000001
 40
0.0
 40
0.0
 40
0.0
 40
0.0
 40
1.0
 40
1.0
 40
1.0
 40
1.0
 10
398.0541540846817
 20
543.9360729557424
 30
0.0
 10
398.3736838512319
 20
544.1790667067829
 30
0.0
 10
398.7110547234749
 20
544.3978164897482
 30
0.0
 10
399.066197705193
 20
544.5923608669698
 30
0.0
  0
SPLINE
  5
110
330
1F
100
AcDbEntity
  8
0
  6
Continuous
 62
     8
370
     0
100
AcDbSpline
210
0.0
220
0.0
230
1.0
 70
     8
 71
     3
 72
     8
 73
     4
 74
     0
 42
0.00000001
 43
0.00000001
 40
0.0
 40
0.0
 40
0.0
 40
0.0
 40
1.0
 40
1.0
 40
1.0
 40
1.0
 10
396.8235593409221
 20
542.7672631827461
 30
0.0
 10
397.1880839709156
 20
543.1993877284144
 30
0.0
 10
397.5979420837722
 20
543.5891360597915
 30
0.0
 10
398.0541540846817
 20
543.9360729557424
 30
0.0
  0
SPLINE
  5
111
330
1F
100
AcDbEntity
  8
0
  6
Continuous
 62
     8
370
     0
100
AcDbSpline
210
0.0
220
0.0
230
1.0
 70
     8
 71
     3
 72
     8
 73
     4
 74
     0
 42
0.00000001
 43
0.00000001
 40
0.0
 40
0.0
 40
0.0
 40
0.0
 40
1.0
 40
1.0
 40
1.0
 40
1.0
 10
396.1717214130781
 20
541.8719493120092
 30
0.0
 10
396.3668964504767
 20
542.1849515835722
 30
0.0
 10
396.5840820934341
 20
542.4833756529226
 30
0.0
 10
396.8235593409221
 20
542.7672631827461
 30
0.0
  0
SPLINE
  5
112
330
1F
100
AcDbEntity
  8
0
  6
Continuous
 62
     8
370
     0
100
AcDbSpline
210
0.0
220
0.0
230
1.0
 70
     8
 71
     3
 72
     8
 73
     4
 74
     0
 42
0.00000001
 43
0.00000001
 40
0.0
 40
0.0
 40
0.0
 40
0.0
 40
1.0
 40
1.0
 40
1.0
 40
1.0
 10
395.3371637120372
 20
539.9551593345377
 30
0.0
 10
395.5133518421682
 20
540.6295431000254
 30
0.0
 10
395.7958728430152
 20
541.269200836787
 30
0.0
 10
396.1717214130781
 20
541.8719493120091
 30
0.0
  0
SPLINE
  5
113
330
1F
100
AcDbEntity
  8
0
  6
Continuous
 62
     8
370
     0
100
AcDbSpline
210
0.0
220
0.0
230
1.0
 70
     8
 71
     3
 72
     8
 73
     4
 74
     0
 42
0.00000001
 43
0.00000001
 40
0.0
 40
0.0
 40
0.0
 40
0.0
 40
1.0
 40
1.0
 40
1.0
 40
1.0
 10
410.0265109679372
 20
541.8696586819309
 30
0.0
 10
410.400695574656
 20
541.2684055390166
 30
0.0
 10
410.6834166789477
 20
540.6302843668176
 30
0.0
 10
410.8596564605736
 20
539.9576208374012
 30
0.0
  0
SPLINE
  5
114
330
1F
100
AcDbEntity
  8
0
  6
Continuous
 62
     8
370
     0
100
AcDbSpline
210
0.0
220
0.0
230
1.0
 70
     8
 71
     3
 72
    10
 73
     6
 74
     0
 42
0.00000001
 43
0.00000001
 40
0.0
 40
0.0
 40
0.0
 40
0.0
 40
0.5
 40
0.5
 40
1.0
 40
1.0
 40
1.0
 40
1.0
 10
410.8596564605736
 20
539.9576208374012
 30
0.0
 10
410.9397658563576
 20
539.6518631451805
 30
0.0
 10
410.9969919448195
 20
539.3442665241289
 30
0.0
 10
411.0779367981861
 20
538.7214185976794
 30
0.0
 10
411.101708601857
 20
538.40446275986
 30
0.0
 10
411.112282178094
 20
538.0850512311833
 30
0.0
  0
SPLINE
  5
115
330
1F
100
AcDbEntity
  8
0
  6
Continuous
 62
     8
370
     0
100
AcDbSpline
210
0.0
220
0.0
230
1.0
 70
     8
 71
     3
 72
     8
 73
     4
 74
     0
 42
0.00000001
 43
0.00000001
 40
0.0
 40
0.0
 40
0.0
 40
0.0
 40
1.0
 40
1.0
 40
1.0
 40
1.0
 10
395.0903014279657
 20
538.216899749246
 30
0.0
 10
395.1170512400445
 20
538.8117847679404
 30
0.0
 10
395.1886952100652
 20
539.3868761741355
 30
0.0
 10
395.3371637120372
 20
539.9551593345377
 30
0.0
  0
SPLINE
  5
116
330
1F
100
AcDbEntity
  8
0
  6
Continuous
 62
     8
370
    15
100
AcDbSpline
210
0.0
220
0.0
230
1.0
 70
     8
 71
     3
 72
    24
 73
    20
 74
     0
 42
0.00000001
 43
0.00000001
 40
0.0
 40
0.0
 40
0.0
 40
0.0
 40
0.2499999999999991
 40
0.2499999999999991
 40
0.4999999999999981
 40
0.4999999999999981
 40
0.6249999999999982
 40
0.6249999999999982
 40
0.7499999999999982
 40
0.7499999999999982
 40
0.8749999999999983
 40
0.8749999999999983
 40
0.9374999999999984
 40
0.9374999999999984
 40
0.9687499999999991
 40
0.9687499999999991
 40
0.9843749999999996
 40
0.9843749999999996
 40
1.0
 40
1.0
 40
1.0
 40
1.0
 10
395.0851717601836
 20
506.7863415051065
 30
0.0
 10
395.0852297630913
 20
509.4054897678682
 30
0.0
 10
395.0853618208262
 20
512.0246359031509
 30
0.0
 10
395.0847820287865
 20
517.2629307510543
 30
0.0
 10
395.0862248600282
 20
519.8828973540452
 30
0.0
 10
395.0845041542254
 20
523.8105025769255
 30
0.0
 10
395.0820922101564
 20
525.1188105216935
 30
0.0
 10
395.082126272993
 20
527.737964232099
 30
0.0
 10
395.086526525796
 20
529.0498147060517
 30
0.0
 10
395.0977205785864
 20
531.674652189365
 30
0.0
 10
395.1020420544005
 20
532.9864852697151
 30
0.0
 10
395.084428066814
 20
534.9418546915588
 30
0.0
 10
395.0720181844341
 20
535.5901659134366
 30
0.0
 10
395.0643931891548
 20
536.5683030986327
 30
0.0
 10
395.0638560780286
 20
536.895379159763
 30
0.0
 10
395.0687169328844
 20
537.3887900927607
 30
0.0
 10
395.0712785441872
 20
537.5537219555752
 30
0.0
 10
395.0787117814295
 20
537.8846545663228
 30
0.0
 10
395.0828502320634
 20
538.0511937322995
 30
0.0
 10
395.0903014279657
 20
538.216899749246
 30
0.0
  0
LINE
  5
117
330
1F
100
AcDbEntity
  8
0
  6
Continuous
 62
     8
370
    15
100
AcDbLine
 10
395.0851707776
 20
506.7863457021
 30
0.0
 11
395.0851707776
 21
499.5069371599
 31
0.0
  0
LINE
  5
118
330
1F
100
AcDbEntity
  8
0
  6
Continuous
 62
     8
370
    15
100
AcDbLine
 10
395.0851707776
 20
499.5069371599
 30
0.0
 11
395.0851707776
 21
491.3214063544
 31
0.0
  0
SPLINE
  5
119
330
1F
100
AcDbEntity
  8
0
  6
Continuous
 62
     8
370
     0
100
AcDbSpline
210
0.0
220
0.0
230
1.0
 70
     8
 71
     3
 72
     8
 73
     4
 74
     0
 42
0.00000001
 43
0.00000001
 40
0.6838575018985282
 40
0.6838575018985282
 40
0.6838575018985282
 40
0.6838575018985282
 40
1.0
 40
1.0
 40
1.0
 40
1.0
 10
411.1122600813535
 20
491.3214028144675
 30
0.0
 10
411.1525940836441
 20
491.4674346253174
 30
0.0
 10
411.1728673461487
 20
491.61420745679
 30
0.0
 10
411.1728673461487
 20
491.7612367285472
 30
0.0
  0
SPLINE
  5
11A
330
1F
100
AcDbEntity
  8
0
  6
Continuous
 62
     8
370
    15
100
AcDbSpline
210
0.0
220
0.0
230
1.0
 70
     8
 71
     3
 72
    24
 73
    20
 74
     0
 42
0.00000001
 43
0.00000001
 40
0.0
 40
0.0
 40
0.0
 40
0.0
 40
0.0312499999999996
 40
0.0312499999999996
 40
0.0624999999999991
 40
0.0624999999999991
 40
0.1249999999999989
 40
0.1249999999999989
 40
0.1874999999999987
 40
0.1874999999999987
 40
0.2499999999999984
 40
0.2499999999999984
 40
0.3124999999999982
 40
0.3124999999999982
 40
0.3749999999999981
 40
0.3749999999999981
 40
0.4999999999999986
 40
0.4999999999999986
 40
1.0
 40
1.0
 40
1.0
 40
1.0
 10
411.112282178094
 20
538.0850512311833
 30
0.0
 10
411.1286764266381
 20
537.5906399836272
 30
0.0
 10
411.1335029612605
 20
537.1006534655536
 30
0.0
 10
411.1312336317496
 20
536.127639792906
 30
0.0
 10
411.1240692153689
 20
535.6442548172172
 30
0.0
 10
411.1039597774636
 20
534.1933543144416
 30
0.0
 10
411.0990854857278
 20
533.2214563783473
 30
0.0
 10
411.1005508808992
 20
531.2721605020724
 30
0.0
 10
411.1058455226923
 20
530.2952175772368
 30
0.0
 10
411.1137302907766
 20
528.3426581552085
 30
0.0
 10
411.1153344257107
 20
527.3675565107203
 30
0.0
 10
411.1152960871233
 20
525.4190597845388
 30
0.0
 10
411.1139594901291
 20
524.4455015199654
 30
0.0
 10
411.112145738719
 20
522.4979865771819
 30
0.0
 10
411.1121683536574
 20
521.5237963929038
 30
0.0
 10
411.1128519992953
 20
518.6007905170115
 30
0.0
 10
411.1125856205509
 20
516.6522350451963
 30
0.0
 10
411.1115026072446
 20
506.9096049350061
 30
0.0
 10
411.1122341131111
 20
499.1155056045056
 30
0.0
 10
411.1122600813535
 20
491.3214028144675
 30
0.0
  0
SPLINE
  5
11B
330
1F
100
AcDbEntity
  8
0
  6
Continuous
 62
     8
370
     0
100
AcDbSpline
210
0.0
220
0.0
230
1.0
 70
     8
 71
     3
 72
    14
 73
    10
 74
     0
 42
0.00000001
 43
0.00000001
 40
0.0
 40
0.0
 40
0.0
 40
0.0
 40
0.25
 40
0.25
 40
0.5
 40
0.5
 40
0.75
 40
0.75
 40
1.0
 40
1.0
 40
1.0
 40
1.0
 10
411.1122600723125
 20
491.3214810161622
 30
0.0
 10
411.0774381225128
 20
491.1954113606243
 30
0.0
 10
410.9738264443554
 20
491.0715983912464
 30
0.0
 10
410.6428603548403
 20
490.8450203106453
 30
0.0
 10
410.4156077172671
 20
490.7423248733543
 30
0.0
 10
409.8679114949322
 20
490.5718355697865
 30
0.0
 10
409.547636329592
 20
490.5040941298524
 30
0.0
 10
408.857002734455
 20
490.4126641401787
 30
0.0
 10
408.4868566780614
 20
490.3890037056337
 30
0.0
 10
408.1165967652644
 20
490.3889776865518
 30
0.0
  0
SPLINE
  5
11C
330
1F
100
AcDbEntity
  8
0
  6
Continuous
 62
     8
370
     0
100
AcDbSpline
210
0.0
220
0.0
230
1.0
 70
     8
 71
     3
 72
     8
 73
     4
 74
     0
 42
0.00000001
 43
0.00000001
 40
0.0
 40
0.0
 40
0.0
 40
0.0
 40
1.0
 40
1.0
 40
1.0
 40
1.0
 10
396.8256107038649
 20
543.6485323849782
 30
0.0
 10
396.5813526648301
 20
543.3591265714357
 30
0.0
 10
396.3602633144505
 20
543.0550525054892
 30
0.0
 10
396.1620834966391
 20
542.7367034193695
 30
0.0
  0
SPLINE
  5
11D
330
1F
100
AcDbEntity
  8
0
  6
Continuous
 62
     8
370
     0
100
AcDbSpline
210
0.0
220
0.0
230
1.0
 70
     8
 71
     3
 72
     8
 73
     4
 74
     0
 42
0.00000001
 43
0.00000001
 40
0.0
 40
0.0
 40
0.0
 40
0.0
 40
1.0
 40
1.0
 40
1.0
 40
1.0
 10
398.0538904891829
 20
544.8155550733912
 30
0.0
 10
397.5986489915426
 20
544.4692385655379
 30
0.0
 10
397.1895580266606
 20
544.0797504175821
 30
0.0
 10
396.8256107038649
 20
543.6485323849782
 30
0.0
  0
SPLINE
  5
11E
330
1F
100
AcDbEntity
  8
0
  6
Continuous
 62
     8
370
     0
100
AcDbSpline
210
0.0
220
0.0
230
1.0
 70
     8
 71
     3
 72
     8
 73
     4
 74
     0
 42
0.00000001
 43
0.00000001
 40
0.0
 40
0.0
 40
0.0
 40
0.0
 40
1.0
 40
1.0
 40
1.0
 40
1.0
 10
399.0670782965339
 20
545.4725206010158
 30
0.0
 10
398.7115155888232
 20
545.2778310519793
 30
0.0
 10
398.3737633222339
 20
545.0588923857264
 30
0.0
 10
398.0538904891829
 20
544.8155550733911
 30
0.0
  0
SPLINE
  5
11F
330
1F
100
AcDbEntity
  8
0
  6
Continuous
 62
     8
370
     0
100
AcDbSpline
210
0.0
220
0.0
230
1.0
 70
     8
 71
     3
 72
     8
 73
     4
 74
     0
 42
0.00000001
 43
0.00000001
 40
0.0
 40
0.0
 40
0.0
 40
0.0
 40
1.0
 40
1.0
 40
1.0
 40
1.0
 10
401.0273140699658
 20
546.2389866835714
 30
0.0
 10
400.3373760095436
 20
546.065977474994
 30
0.0
 10
399.6840266521499
 20
545.8103327352156
 30
0.0
 10
399.0670782965339
 20
545.4725206010158
 30
0.0
  0
SPLINE
  5
120
330
1F
100
AcDbEntity
  8
0
  6
Continuous
 62
     8
370
     0
100
AcDbSpline
210
0.0
220
0.0
230
1.0
 70
     8
 71
     3
 72
     8
 73
     4
 74
     0
 42
0.00000001
 43
0.00000001
 40
0.0
 40
0.0
 40
0.0
 40
0.0
 40
1.0
 40
1.0
 40
1.0
 40
1.0
 10
403.1055683226922
 20
546.4949033339201
 30
0.0
 10
402.4008418122295
 20
546.4954695872726
 30
0.0
 10
401.7081539772173
 20
546.4097144347691
 30
0.0
 10
401.0273140699658
 20
546.2389866835714
 30
0.0
  0
SPLINE
  5
121
330
1F
100
AcDbEntity
  8
0
  6
Continuous
 62
     8
370
     0
100
AcDbSpline
210
0.0
220
0.0
230
1.0
 70
     8
 71
     3
 72
     8
 73
     4
 74
     0
 42
0.00000001
 43
0.00000001
 40
0.0
 40
0.0
 40
0.0
 40
0.0
 40
1.0
 40
1.0
 40
1.0
 40
1.0
 10
405.1696086090298
 20
546.2391153462867
 30
0.0
 10
404.4934221008269
 20
546.408656086742
 30
0.0
 10
403.8054688450732
 20
546.4943409582876
 30
0.0
 10
403.1055683226923
 20
546.4949033339201
 30
0.0
  0
SPLINE
  5
122
330
1F
100
AcDbEntity
  8
0
  6
Continuous
 62
     8
370
     0
100
AcDbSpline
210
0.0
220
0.0
230
1.0
 70
     8
 71
     3
 72
     8
 73
     4
 74
     0
 42
0.00000001
 43
0.00000001
 40
0.0
 40
0.0
 40
0.0
 40
0.0
 40
1.0
 40
1.0
 40
1.0
 40
1.0
 10
406.9857824785133
 20
545.5497669782773
 30
0.0
 10
406.4106459889766
 20
545.8498923092619
 30
0.0
 10
405.8052692301284
 20
546.079735691307
 30
0.0
 10
405.1696086090298
 20
546.2391153462867
 30
0.0
  0
LINE
  5
123
330
1F
100
AcDbEntity
  8
0
  6
Continuous
 62
     8
370
     0
100
AcDbLine
 10
411.1122821781
 20
538.9645590394
 30
0.0
 11
411.1122804541
 21
538.9646093601
 31
0.0
  0
SPLINE
  5
124
330
1F
100
AcDbEntity
  8
0
  6
Continuous
 62
     8
370
     0
100
AcDbSpline
210
0.0
220
0.0
230
1.0
 70
     8
 71
     3
 72
     9
 73
     5
 74
     0
 42
0.00000001
 43
0.00000001
 40
0.0
 40
0.0
 40
0.0
 40
0.0
 40
0.000160290160832
 40
1.0
 40
1.0
 40
1.0
 40
1.0
 10
395.0851523103855
 20
538.9645584642888
 30
0.0
 10
395.0851516735477
 20
538.964539964565
 30
0.0
 10
395.0811786420294
 20
538.849125995802
 30
0.0
 10
395.0817687940474
 20
538.7311797504186
 30
0.0
 10
395.0823588514698
 20
538.613252410658
 30
0.0
  0
LWPOLYLINE
  5
125
330
1F
100
AcDbEntity
  8
0
  6
Continuous
 62
     8
370
     0
100
AcDbPolyline
 90
        3
 70
   128
 43
0.0
 10
401.02731407
 20
546.2389866836
 10
401.0538238448
 20
546.3320298408
 10
401.0680417252
 20
546.3410639381
  0
LWPOLYLINE
  5
126
330
1F
100
AcDbEntity
  8
0
  6
Continuous
 62
     8
370
     0
100
AcDbPolyline
 90
        3
 70
   128
 43
0.0
 10
403.1055683227
 20
546.4949033339
 10
403.1054804064
 20
546.5846800006
 10
403.105423418
 20
546.5921104503
  0
LWPOLYLINE
  5
127
330
1F
100
AcDbEntity
  8
0
  6
Continuous
 62
     8
370
     0
100
AcDbPolyline
 90
        3
 70
   128
 43
0.0
 10
405.169608609
 20
546.2391153463
 10
405.1431017868
 20
546.3321577461
 10
405.1288025919
 20
546.3412111754
  0
LWPOLYLINE
  5
128
330
1F
100
AcDbEntity
  8
0
  6
Continuous
 62
     8
370
     0
100
AcDbPolyline
 90
        3
 70
   128
 43
0.0
 10
399.0670782965
 20
545.472520601
 10
399.1188473486
 20
545.5754343284
 10
399.1304683643
 20
545.5829487518
  0
LWPOLYLINE
  5
129
330
1F
100
AcDbEntity
  8
0
  6
Continuous
 62
     8
370
     0
100
AcDbPolyline
 90
        3
 70
   128
 43
0.0
 10
406.9857824785
 20
545.5497669783
 10
406.9358548958
 20
545.651684361
 10
406.9229773452
 20
545.6598573949
  0
LINE
  5
12A
330
1F
100
AcDbEntity
  8
0
  6
Continuous
 62
     8
370
     0
100
AcDbLine
 10
410.0346760902
 20
542.73614242
 30
0.0
 11
410.0036481747
 21
542.8078066444
 31
0.0
  0
LINE
  5
12B
330
1F
100
AcDbEntity
  8
0
  6
Continuous
 62
     8
370
     0
100
AcDbLine
 10
398.0538904892
 20
544.8155550734
 30
0.0
 11
398.1180197502
 21
544.9264296032
 31
0.0
  0
LINE
  5
12C
330
1F
100
AcDbEntity
  8
0
  6
Continuous
 62
     8
370
     0
100
AcDbLine
 10
396.8256107039
 20
543.648532385
 30
0.0
 11
396.8744890508
 21
543.7449840458
 31
0.0
  0
LINE
  5
12D
330
1F
100
AcDbEntity
  8
0
  6
Continuous
 62
     8
370
     0
100
AcDbLine
 10
396.1620834966
 20
542.7367034194
 30
0.0
 11
396.1938196824
 21
542.809352569
 31
0.0
  0
LINE
  5
12E
330
1F
100
AcDbEntity
  8
0
  6
Continuous
 62
     8
370
     0
100
AcDbLine
 10
319.5989673461
 20
498.2352662714
 30
0.0
 11
343.6709673461
 21
498.2352662714
 31
0.0
  0
LINE
  5
12F
330
1F
100
AcDbEntity
  8
0
  6
Continuous
 62
     8
370
     0
100
AcDbLine
 10
295.5269673461
 20
498.2352662714
 30
0.0
 11
319.5989673461
 21
498.2352662714
 31
0.0
  0
LINE
  5
130
330
1F
100
AcDbEntity
  8
0
  6
Continuous
 62
     8
370
     0
100
AcDbLine
 10
319.5989673461
 20
504.2846812956
 30
0.0
 11
340.6197741031
 21
504.2846812956
 31
0.0
  0
LINE
  5
131
330
1F
100
AcDbEntity
  8
0
  6
Continuous
 62
     8
370
     0
100
AcDbLine
 10
298.5781605891
 20
504.2846812956
 30
0.0
 11
319.5989673461
 21
504.2846812956
 31
0.0
  0
SPLINE
  5
132
330
1F
100
AcDbEntity
  8
0
  6
Continuous
 62
     8
370
     0
100
AcDbSpline
210
0.0
220
0.0
230
1.0
 70
     8
 71
     3
 72
    37
 73
    33
 74
     0
 42
0.00000001
 43
0.00000001
 40
0.0
 40
0.0
 40
0.0
 40
0.0
 40
0.0232091428185872
 40
0.0514759195478827
 40
0.0804667832654704
 40
0.1098281393167783
 40
0.1676651686592122
 40
0.2296134254861665
 40
0.2909083515615527
 40
0.3356603100279791
 40
0.3832335085688717
 40
0.4230604768947118
 40
0.4318814503304703
 40
0.4410465084222473
 40
0.4551517887720404
 40
0.494452429481388
 40
0.5131464412206266
 40
0.5302478167700262
 40
0.5680289175761369
 40
0.6006160480418531
 40
0.6348902685491183
 40
0.6658713823602996
 40
0.697939796725
 40
0.7402434554318489
 40
0.7807537938025839
 40
0.8213646859009942
 40
0.8814961658313456
 40
0.9095743470533248
 40
0.9388232689698709
 40
0.9674746428356201
 40
0.9956359842191371
 40
0.9999999999999999
 40
0.9999999999999999
 40
0.9999999999999999
 40
0.9999999999999999
 10
343.654008369285
 20
431.319727556142
 30
0.0
 10
343.6437740285838
 20
431.3308862683089
 30
0.0
 10
343.6210751248511
 20
431.3556353499206
 30
0.0
 10
343.2766331564596
 20
431.720499346921
 30
0.0
 10
342.6863918271451
 20
432.3437606478828
 30
0.0
 10
341.5889369251873
 20
433.5054953303369
 30
0.0
 10
339.7001352838307
 20
435.5181441846996
 30
0.0
 10
336.8832825277089
 20
438.5611244417044
 30
0.0
 10
333.9755575948696
 20
441.7731699927543
 30
0.0
 10
331.230604908995
 20
444.960101189469
 30
0.0
 10
328.8700702877536
 20
447.8727989316041
 30
0.0
 10
327.2842118128231
 20
450.1780403438917
 30
0.0
 10
326.4559318557757
 20
451.6512501882375
 30
0.0
 10
326.028275485966
 20
452.4894070918169
 30
0.0
 10
325.3010425429414
 20
454.1790405822583
 30
0.0
 10
324.8195548927998
 20
456.2976090528257
 30
0.0
 10
324.8903140246008
 20
458.5257560221385
 30
0.0
 10
325.306938377729
 20
460.6659386449368
 30
0.0
 10
326.3270968752755
 20
463.0603328750354
 30
0.0
 10
327.9663414822649
 20
465.6340928494897
 30
0.0
 10
329.6555186217574
 20
467.8809456767836
 30
0.0
 10
331.3870991230816
 20
470.0054064316607
 30
0.0
 10
333.2722845891482
 20
472.2001173588607
 30
0.0
 10
335.287927207203
 20
474.4726615052215
 30
0.0
 10
337.3551011340627
 20
476.7386121372392
 30
0.0
 10
339.5386765226083
 20
479.098316544791
 30
0.0
 10
341.2477534058687
 20
480.9222471716569
 30
0.0
 10
342.4383135996846
 20
482.186824532433
 30
0.0
 10
343.1127484896885
 20
482.9001875554284
 30
0.0
 10
343.5251225180779
 20
483.3352368664649
 30
0.0
 10
343.6979681746769
 20
483.5191779930574
 30
0.0
 10
343.6600074390279
 20
483.4785568234338
 30
0.0
 10
343.654914143708
 20
483.4731065704395
 30
0.0
  0
SPLINE
  5
133
330
1F
100
AcDbEntity
  8
0
  6
Continuous
 62
     8
370
     0
100
AcDbSpline
210
0.0
220
0.0
230
1.0
 70
     8
 71
     3
 72
    46
 73
    42
 74
     0
 42
0.00000001
 43
0.00000001
 40
0.0
 40
0.0
 40
0.0
 40
0.0
 40
0.0048349485242676
 40
0.0351600714526714
 40
0.0658922243985179
 40
0.125565215131383
 40
0.1469174783463829
 40
0.1690654680657627
 40
0.192054637614533
 40
0.2095049214596612
 40
0.2278155077138253
 40
0.2469979193871008
 40
0.2649755880328237
 40
0.2823372070273413
 40
0.3013670942908147
 40
0.3220679639717945
 40
0.3334786196756522
 40
0.362156961773734
 40
0.3842454674512431
 40
0.4094523813040334
 40
0.4316811015183289
 40
0.449430810242391
 40
0.4780021810856288
 40
0.5043894236246274
 40
0.5313318134886552
 40
0.54568278994045
 40
0.5592300461331257
 40
0.5854496118597661
 40
0.6074718107321379
 40
0.6366488335108818
 40
0.6722707208773077
 40
0.689147343566713
 40
0.7345467497449932
 40
0.7769305557957272
 40
0.8187272335380951
 40
0.8525139129565479
 40
0.884555369965863
 40
0.9150333984418313
 40
0.9441590848387484
 40
0.9746762463704407
 40
1.0
 40
1.0
 40
1.0
 40
1.0
 10
346.6762637094172
 20
480.446854806185
 30
0.0
 10
346.6818759673107
 20
480.4526523755696
 30
0.0
 10
346.7226886848724
 20
480.4948126907818
 30
0.0
 10
346.5444407619248
 20
480.311453275816
 30
0.0
 10
345.9961759021389
 20
479.7482955345778
 30
0.0
 10
345.0152608031734
 20
478.7500146510868
 30
0.0
 10
343.8698170473353
 20
477.5692591574514
 30
0.0
 10
343.0526317772108
 20
476.7229637001631
 30
0.0
 10
342.21728483545
 20
475.8547383723546
 30
0.0
 10
341.3848593701569
 20
474.9874088587754
 30
0.0
 10
340.5727774413084
 20
474.1365112113717
 30
0.0
 10
339.7224952794832
 20
473.2392018245176
 30
0.0
 10
338.8611234480708
 20
472.3237827095954
 30
0.0
 10
337.9811645704635
 20
471.3820831272445
 30
0.0
 10
337.0407325633497
 20
470.3627552033274
 30
0.0
 10
336.1865535217678
 20
469.4211668448147
 30
0.0
 10
335.1602526458792
 20
468.2786988297125
 30
0.0
 10
334.1074217897173
 20
467.0747227009279
 30
0.0
 10
332.8279153279233
 20
465.5504139027414
 30
0.0
 10
331.6833650274846
 20
464.1002443793909
 30
0.0
 10
330.6602567403125
 20
462.6760743298293
 30
0.0
 10
329.6703904991966
 20
461.1046133424885
 30
0.0
 10
328.8114018815868
 20
459.2924048910548
 30
0.0
 10
328.5190406825674
 20
457.0072775119696
 30
0.0
 10
328.9913009020812
 20
455.1719159292393
 30
0.0
 10
329.6269526177458
 20
453.816389429351
 30
0.0
 10
330.3683744003168
 20
452.5450049054375
 30
0.0
 10
331.3146885086642
 20
451.1715335874536
 30
0.0
 10
332.5827114523404
 20
449.5420822333369
 30
0.0
 10
334.0422920687568
 20
447.7876950628661
 30
0.0
 10
335.42324809883
 20
446.2088331612998
 30
0.0
 10
337.0740599976642
 20
444.3933790308171
 30
0.0
 10
338.7946088143804
 20
442.5298951545009
 30
0.0
 10
340.8128244108625
 20
440.4002944261904
 30
0.0
 10
342.4970365614809
 20
438.6453361969853
 30
0.0
 10
343.8571164677487
 20
437.236280679627
 30
0.0
 10
344.9022609399912
 20
436.1590153146417
 30
0.0
 10
345.7128126858157
 20
435.3300988220377
 30
0.0
 10
346.2949720391434
 20
434.7376629955122
 30
0.0
 10
346.6424719110095
 20
434.3802944172449
 30
0.0
 10
346.6654958015526
 20
434.3562729138254
 30
0.0
 10
346.675937094107
 20
434.345379205643
 30
0.0
  0
SPLINE
  5
134
330
1F
100
AcDbEntity
  8
0
  6
Continuous
 62
     8
370
     0
100
AcDbSpline
210
0.0
220
0.0
230
1.0
 70
     8
 71
     3
 72
    14
 73
    10
 74
     0
 42
0.00000001
 43
0.00000001
 40
0.604258310084767
 40
0.604258310084767
 40
0.604258310084767
 40
0.604258310084767
 40
0.6770145513661534
 40
0.7133926720850947
 40
0.7497707928040362
 40
0.7861489135229777
 40
0.8225270342419189
 40
0.8589051549608604
 40
0.8952832756313802
 40
0.8952832756313802
 40
0.8952832756313802
 40
0.8952832756313802
 10
398.0808350575989
 20
490.3890519135459
 30
0.0
 10
397.6221319188568
 20
490.3890519135459
 30
0.0
 10
397.0190368352763
 20
490.4402464947381
 30
0.0
 10
396.3635367523335
 20
490.5661880064008
 30
0.0
 10
395.9471709129489
 20
490.6848712504645
 30
0.0
 10
395.6070101716272
 20
490.8231676801253
 30
0.0
 10
395.3454505376689
 20
490.977472457542
 30
0.0
 10
395.1648880203743
 20
491.1441807448739
 30
0.0
 10
395.1016854058064
 20
491.261611890015
 30
0.0
 10
395.0851707774935
 20
491.3214063546313
 30
0.0
  0
SPLINE
  5
135
330
1F
100
AcDbEntity
  8
0
  6
Continuous
 62
     8
370
     0
100
AcDbSpline
210
0.0
220
0.0
230
1.0
 70
    24
 71
     3
 72
    12
 73
     8
 74
     0
 42
0.00000001
 43
0.00000001
 40
0.8952831452635766
 40
0.8952831452635766
 40
0.8952831452635766
 40
0.8952831452635766
 40
0.9040095389569264
 40
0.9214623263436261
 40
0.9476415074236756
 40
0.9738206885037252
 40
1.0
 40
1.0
 40
1.0
 40
1.0
 10
381.756378808623
 20
479.0994425353773
 30
0.0
 10
381.756378808623
 20
479.0273836801207
 30
0.0
 10
381.756378808623
 20
478.8020702980575
 30
0.0
 10
381.756378808623
 20
478.3016705343939
 30
0.0
 10
381.756378808623
 20
477.5462992870931
 30
0.0
 10
381.756378808623
 20
476.6398608321836
 30
0.0
 10
381.756378808623
 20
476.0304242163393
 30
0.0
 10
381.756378808623
 20
475.7292120770186
 30
0.0
  0
SPLINE
  5
136
330
1F
100
AcDbEntity
  8
0
  6
Continuous
 62
     8
370
     0
100
AcDbSpline
210
0.0
220
0.0
230
1.0
 70
     8
 71
     3
 72
    14
 73
    10
 74
     0
 42
0.00000001
 43
0.00000001
 40
0.6042587306707186
 40
0.6042587306707186
 40
0.6042587306707186
 40
0.6042587306707186
 40
0.6406367209734347
 40
0.6770148416923762
 40
0.7133929624113174
 40
0.7497710831302589
 40
0.7861492038492004
 40
0.8225273245681417
 40
0.8952831452635766
 40
0.8952831452635766
 40
0.8952831452635766
 40
0.8952831452635766
 10
381.756378808623
 20
475.7292120770186
 30
0.0
 10
381.756378808623
 20
475.3106530879992
 30
0.0
 10
381.898573280326
 20
474.396654212553
 30
0.0
 10
382.5541697019798
 20
472.8910155187015
 30
0.0
 10
383.5752122721158
 20
471.3905342076063
 30
0.0
 10
384.8623477218627
 20
470.0292506398435
 30
0.0
 10
386.3099062517113
 20
468.9081976642249
 30
0.0
 10
388.3606590902614
 20
467.8165688207351
 30
0.0
 10
389.9156663596869
 20
467.5174339271896
 30
0.0
 10
390.866968366708
 20
467.5174316207169
 30
0.0
  0
LINE
  5
137
330
1F
100
AcDbEntity
  8
0
  6
Continuous
 62
     8
370
     0
100
AcDbLine
 10
390.8669683667
 20
467.5174316207
 30
0.0
 11
408.1076326279
 21
467.5174316207
 31
0.0
  0
SPLINE
  5
138
330
1F
100
AcDbEntity
  8
0
  6
Continuous
 62
     8
370
     0
100
AcDbSpline
210
0.0
220
0.0
230
1.0
 70
     8
 71
     3
 72
    20
 73
    16
 74
     0
 42
0.00000001
 43
0.00000001
 40
0.0
 40
0.0
 40
0.0
 40
0.0
 40
0.125
 40
0.125
 40
0.25
 40
0.25
 40
0.4999999999999997
 40
0.4999999999999997
 40
0.6249999999999998
 40
0.6249999999999998
 40
0.7499999999999999
 40
0.7499999999999999
 40
0.875
 40
0.875
 40
1.0
 40
1.0
 40
1.0
 40
1.0
 10
411.0736684795318
 20
466.3706986416274
 30
0.0
 10
411.061736387109
 20
465.7482959076605
 30
0.0
 10
411.0521452369985
 20
465.1125411030879
 30
0.0
 10
411.0352927070696
 20
463.8161189949868
 30
0.0
 10
411.0281863406404
 20
463.1564374264556
 30
0.0
 10
411.0099889966297
 20
461.1691578581355
 30
0.0
 10
411.0020806124969
 20
459.8241966524241
 30
0.0
 10
410.9954043792671
 20
457.7759540059762
 30
0.0
 10
410.9939443456936
 20
457.0842656901352
 30
0.0
 10
410.9921627846733
 20
455.7150282608896
 30
0.0
 10
410.9919147363221
 20
455.0365538014188
 30
0.0
 10
410.9917436494802
 20
453.6917378376779
 30
0.0
 10
410.991759918241
 20
453.0253803215478
 30
0.0
 10
410.9918465277822
 20
451.7048428367228
 30
0.0
 10
410.9916969470351
 20
451.0492765602722
 30
0.0
 10
410.991866036812
 20
450.4028196549973
 30
0.0
  0
ARC
  5
139
330
1F
100
AcDbEntity
  8
0
  6
Continuous
 62
     8
370
     0
100
AcDbCircle
 10
408.5202592337
 20
464.1754877218
 30
0.0
 40
3.367320854787226
100
AcDbArc
 50
40.6862290799
 51
97.0386321062
  0
SPLINE
  5
13A
330
1F
100
AcDbEntity
  8
0
  6
Continuous
 62
     8
370
     0
100
AcDbSpline
210
0.0
220
0.0
230
1.0
 70
     8
 71
     3
 72
    30
 73
    26
 74
     0
 42
0.00000001
 43
0.00000001
 40
0.0
 40
0.0
 40
0.0
 40
0.0
 40
0.1250000000000002
 40
0.1250000000000002
 40
0.1875000000000003
 40
0.1875000000000003
 40
0.2500000000000004
 40
0.2500000000000004
 40
0.3125000000000005
 40
0.3125000000000005
 40
0.3750000000000006
 40
0.3750000000000006
 40
0.5000000000000008
 40
0.5000000000000008
 40
0.5625000000000006
 40
0.5625000000000006
 40
0.6250000000000003
 40
0.6250000000000003
 40
0.7499999999999998
 40
0.7499999999999998
 40
0.8124999999999997
 40
0.8124999999999997
 40
0.8749999999999996
 40
0.8749999999999996
 40
1.0
 40
1.0
 40
1.0
 40
1.0
 10
411.1122600809139
 20
491.3214028128729
 30
0.0
 10
411.1123745940884
 20
490.27952183597
 30
0.0
 10
411.1164291619399
 20
489.2205969636539
 30
0.0
 10
411.1248565352632
 20
487.6063960369865
 30
0.0
 10
411.1280310667283
 20
487.0637304940774
 30
0.0
 10
411.1339878660244
 20
485.9772701691683
 30
0.0
 10
411.1367683801543
 20
485.4323358608902
 30
0.0
 10
411.1416594814582
 20
484.3384903319743
 30
0.0
 10
411.1437390593127
 20
483.7895731108276
 30
0.0
 10
411.1474076070467
 20
482.687084707307
 30
0.0
 10
411.1490489883195
 20
482.1323635091813
 30
0.0
 10
411.1548779308171
 20
480.4676924839458
 30
0.0
 10
411.1604404981249
 20
479.3904992590955
 30
0.0
 10
411.1650963695847
 20
477.8159603730198
 30
0.0
 10
411.1660629501731
 20
477.2977484822386
 30
0.0
 10
411.1662170311546
 20
476.2716023733924
 30
0.0
 10
411.1654165191775
 20
475.7629332168417
 30
0.0
 10
411.1603567979532
 20
474.2555809060669
 30
0.0
 10
411.1528570823442
 20
473.2716565228541
 30
0.0
 10
411.1382802995097
 20
471.8030676663321
 30
0.0
 10
411.1330875015796
 20
471.3149194680434
 30
0.0
 10
411.1237696542755
 20
470.3358610742261
 30
0.0
 10
411.1195452759339
 20
469.8448402275214
 30
0.0
 10
411.1053824688007
 20
468.3656628739959
 30
0.0
 10
411.0928897501969
 20
467.3721004183257
 30
0.0
 10
411.0736684828146
 20
466.3706986332763
 30
0.0
  0
LINE
  5
13B
330
1F
100
AcDbEntity
  8
0
  6
Continuous
 62
     8
370
     0
100
AcDbLine
 10
410.9918636299
 20
450.40282207
 30
0.0
 11
410.9918636299
 21
438.6809822449
 31
0.0
  0
SPLINE
  5
13C
330
1F
100
AcDbEntity
  8
0
  6
Continuous
 62
     8
370
     0
100
AcDbSpline
210
0.0
220
0.0
230
1.0
 70
     8
 71
     3
 72
    87
 73
    83
 74
     0
 42
0.00000001
 43
0.00000001
 40
0.0
 40
0.0
 40
0.0
 40
0.0
 40
0.0335711687056576
 40
0.067018047056459
 40
0.093392457496776
 40
0.120000673279818
 40
0.1470335355119635
 40
0.1735983359606556
 40
0.199756465814821
 40
0.2255699789452433
 40
0.25
 40
0.265591756233596
 40
0.3051824309723724
 40
0.3433879332470948
 40
0.375
 40
0.3817705848771541
 40
0.41229599014316
 40
0.4375
 40
0.4433947353476333
 40
0.4671842114838626
 40
0.4858887679867854
 40
0.5
 40
0.5209692807633557
 40
0.5485897842611636
 40
0.5625
 40
0.5674875894953508
 40
0.5685180150510237
 40
0.5830082359460304
 40
0.5841659094457906
 40
0.5979164154117349
 40
0.5991825692971162
 40
0.6096119775388815
 40
0.6109498247093306
 40
0.6301940187506019
 40
0.6316138840422743
 40
0.646292597575724
 40
0.6477198529092457
 40
0.6637500644552602
 40
0.6651096701025327
 40
0.6773868022334969
 40
0.6786298836040341
 40
0.6875
 40
0.6946697917715647
 40
0.6956818423244244
 40
0.7089223372078133
 40
0.7319585354591802
 40
0.749823589420505
 40
0.7673203212028574
 40
0.7810065472781169
 40
0.7970962540561054
 40
0.7980441722344717
 40
0.8097465277826166
 40
0.8108284135345581
 40
0.81590416886141
 40
0.8170368185464351
 40
0.8207486726336523
 40
0.8219144691504365
 40
0.8344204272246287
 40
0.8356473365345608
 40
0.8452134698577592
 40
0.846455229453319
 40
0.8616419003517818
 40
0.8628526543862504
 40
0.8746568686308852
 40
0.8934928481118956
 40
0.8944872684224783
 40
0.9084687759026806
 40
0.9093094680265338
 40
0.9208420823870498
 40
0.9215413730080736
 40
0.9306486505172666
 40
0.9312315391616997
 40
0.9416884209708023
 40
0.9504336215008937
 40
0.9618939958568822
 40
0.9709780577471064
 40
0.9784837120550812
 40
0.9844157704527053
 40
0.9898246057161714
 40
0.9940926327471847
 40
0.9962937090941468
 40
1.0
 40
1.0
 40
1.0
 40
1.0
 10
412.5758352980092
 20
457.4216734664227
 30
0.0
 10
412.5758352980092
 20
457.8414187405176
 30
0.0
 10
412.5706800663639
 20
458.6796375546093
 30
0.0
 10
412.5509138070587
 20
459.8456000336633
 30
0.0
 10
412.5236753638527
 20
460.9204734325507
 30
0.0
 10
412.4920592504112
 20
461.9106169956831
 30
0.0
 10
412.4548323669177
 20
462.896491829317
 30
0.0
 10
412.4132818713127
 20
463.8686485028265
 30
0.0
 10
412.3688971838226
 20
464.8164868099114
 30
0.0
 10
412.3232615466464
 20
465.7280521684793
 30
0.0
 10
412.2826050809603
 20
466.5036085347402
 30
0.0
 10
412.2328089764596
 20
467.430809216153
 30
0.0
 10
412.1734763875797
 20
468.5015346600485
 30
0.0
 10
412.1028706893525
 20
469.7293568743418
 30
0.0
 10
412.0530149742685
 20
470.5729771341167
 30
0.0
 10
412.0080513397688
 20
471.3244797728536
 30
0.0
 10
411.9671943643613
 20
471.9995314714863
 30
0.0
 10
411.9269320841007
 20
472.6558697446832
 30
0.0
 10
411.8911359983221
 20
473.2360386915242
 30
0.0
 10
411.8596442107153
 20
473.7438168101884
 30
0.0
 10
411.822987068479
 20
474.3318635544542
 30
0.0
 10
411.7883314462961
 20
474.8863765225018
 30
0.0
 10
411.7481884235447
 20
475.5276562108404
 30
0.0
 10
411.7086568431744
 20
476.1619822479192
 30
0.0
 10
411.6796475291764
 20
476.6328505511344
 30
0.0
 10
411.6673111986152
 20
476.8345060943008
 30
0.0
 10
411.6546469172577
 20
477.0420318020869
 30
0.0
 10
411.6444134426612
 20
477.2108135330351
 30
0.0
 10
411.6265053580571
 20
477.5085729995911
 30
0.0
 10
411.6167215250227
 20
477.6725356977134
 30
0.0
 10
411.6014487430081
 20
477.930896408766
 30
0.0
 10
411.5936741252465
 20
478.0633977488494
 30
0.0
 10
411.5752980095029
 20
478.3792077536888
 30
0.0
 10
411.5624140098247
 20
478.6039573890397
 30
0.0
 10
411.5419933266791
 20
478.9665862569202
 30
0.0
 10
411.5319743300711
 20
479.1470401965243
 30
0.0
 10
411.5138149622071
 20
479.479354753876
 30
0.0
 10
411.5033173384476
 20
479.6748600743387
 30
0.0
 10
411.4869960522771
 20
479.9848283820611
 30
0.0
 10
411.4789006280835
 20
480.1409888146868
 30
0.0
 10
411.4668618465432
 20
480.3771324060087
 30
0.0
 10
411.4576520327089
 20
480.560089014376
 30
0.0
 10
411.4486998499765
 20
480.7417462206006
 30
0.0
 10
411.4375419582612
 20
480.9707401202334
 30
0.0
 10
411.4183900727156
 20
481.3717167066256
 30
0.0
 10
411.3915452002361
 20
481.9655448119722
 30
0.0
 10
411.3640769877331
 20
482.6177455204875
 30
0.0
 10
411.3420763463943
 20
483.1765705821729
 30
0.0
 10
411.3219128505878
 20
483.7216123171163
 30
0.0
 10
411.3093916194558
 20
484.0820542328414
 30
0.0
 10
411.2980365579719
 20
484.4215685829926
 30
0.0
 10
411.2927383156228
 20
484.5846178249028
 30
0.0
 10
411.2860211884774
 20
484.7976765405465
 30
0.0
 10
411.2833135948267
 20
484.8848396854557
 30
0.0
 10
411.2796770205117
 20
485.0037032450506
 30
0.0
 10
411.2774964303821
 20
485.0758381587147
 30
0.0
 10
411.2712562779107
 20
485.2848133569468
 30
0.0
 10
411.2660691235764
 20
485.4647229095104
 30
0.0
 10
411.258219822995
 20
485.7472045843584
 30
0.0
 10
411.2542723303679
 20
485.8935716938655
 30
0.0
 10
411.2459837873457
 20
486.2106109425841
 30
0.0
 10
411.2406056052906
 20
486.426654679174
 30
0.0
 10
411.2323171212973
 20
486.7775008599251
 30
0.0
 10
411.2234469343971
 20
487.1700856781113
 30
0.0
 10
411.2155272595498
 20
487.5621206428733
 30
0.0
 10
411.2077765594134
 20
487.977905996979
 30
0.0
 10
411.2043424449137
 20
488.1747598505314
 30
0.0
 10
411.1990106175933
 20
488.5031874524641
 30
0.0
 10
411.196527867454
 20
488.6662625270679
 30
0.0
 10
411.1927437468717
 20
488.9326290542416
 30
0.0
 10
411.191006387689
 20
489.0623792447888
 30
0.0
 10
411.1878428675305
 20
489.3140510246519
 30
0.0
 10
411.1849664619442
 20
489.561265539178
 30
0.0
 10
411.1811442093416
 20
489.9443659241558
 30
0.0
 10
411.1781444095961
 20
490.3101116591276
 30
0.0
 10
411.1759217234417
 20
490.6599606308749
 30
0.0
 10
411.1745668285588
 20
490.9404739723969
 30
0.0
 10
411.1737289002535
 20
491.174887103033
 30
0.0
 10
411.1732442579844
 20
491.3687686824103
 30
0.0
 10
411.1730128870001
 20
491.5161160483481
 30
0.0
 10
411.1728940616677
 20
491.6422243824771
 30
0.0
 10
411.1728673461487
 20
491.7153715719802
 30
0.0
 10
411.1728673461486
 20
491.7612367285431
 30
0.0
  0
LINE
  5
13D
330
1F
100
AcDbEntity
  8
0
  6
Continuous
 62
     8
370
     0
100
AcDbLine
 10
410.9918636299
 20
438.6809822449
 30
0.0
 11
410.9918636299
 21
436.8999248692
 31
0.0
  0
SPLINE
  5
13E
330
1F
100
AcDbEntity
  8
0
  6
Continuous
 62
     8
370
     0
100
AcDbSpline
210
0.0
220
0.0
230
1.0
 70
    24
 71
     3
 72
     8
 73
     4
 74
     0
 42
0.00000001
 43
0.00000001
 40
0.0
 40
0.0
 40
0.0
 40
0.0
 40
1.0
 40
1.0
 40
1.0
 40
1.0
 10
381.756378808623
 20
479.0994425353773
 30
0.0
 10
381.756378808623
 20
479.9016753363315
 30
0.0
 10
381.756378808623
 20
480.3650508568705
 30
0.0
 10
381.756378808623
 20
480.4683089295542
 30
0.0
  0
LINE
  5
13F
330
1F
100
AcDbEntity
  8
0
  6
Continuous
 62
     8
370
     0
100
AcDbLine
 10
381.7563788086
 20
480.4683089296
 30
0.0
 11
381.8367502363
 21
480.4710372686
 31
0.0
  0
ARC
  5
140
330
1F
100
AcDbEntity
  8
0
  6
Continuous
 62
     8
370
     0
100
AcDbCircle
 10
386.8200195072
 20
487.8640409002
 30
0.0
 40
9.27933875304604
100
AcDbArc
 50
252.6221930005
 51
283.1788045914
  0
LINE
  5
141
330
1F
100
AcDbEntity
  8
0
  6
Continuous
 62
     7
370
    15
100
AcDbLine
 10
170.1874361541
 20
317.7012284905
 30
0.0
 11
170.1874361541
 21
108.671199982
 31
0.0
  0
LINE
  5
142
330
1F
100
AcDbEntity
  8
0
  6
Continuous
 62
     7
370
    15
100
AcDbLine
 10
192.2534361541
 20
108.671199982
 30
0.0
 11
192.2534361541
 21
317.7012284905
 31
0.0
  0
LINE
  5
143
330
1F
100
AcDbEntity
  8
0
  6
Continuous
 62
     7
370
    15
100
AcDbLine
 10
192.2534361541
 20
101.1819277274
 30
0.0
 11
192.2534361541
 21
108.671199982
 31
0.0
  0
LINE
  5
144
330
1F
100
AcDbEntity
  8
0
  6
Continuous
 62
     7
370
    15
100
AcDbLine
 10
170.1874361541
 20
108.671199982
 30
0.0
 11
170.1874361541
 21
101.1819277274
 31
0.0
  0
LINE
  5
145
330
1F
100
AcDbEntity
  8
0
  6
Continuous
 62
     7
370
    15
100
AcDbLine
 10
192.2534361541
 20
101.0077586052
 30
0.0
 11
192.2534361541
 21
101.1819277274
 31
0.0
  0
LINE
  5
146
330
1F
100
AcDbEntity
  8
0
  6
Continuous
 62
     7
370
    15
100
AcDbLine
 10
170.1874361541
 20
101.1819277274
 30
0.0
 11
170.1874361541
 21
101.0077586052
 31
0.0
  0
SPLINE
  5
147
330
1F
100
AcDbEntity
  8
0
  6
Continuous
 62
     7
370
    15
100
AcDbSpline
210
0.0
220
0.0
230
1.0
 70
     8
 71
     3
 72
     9
 73
     5
 74
     0
 42
0.00000001
 43
0.00000001
 40
0.0
 40
0.0
 40
0.0
 40
0.0
 40
0.5056683998133517
 40
1.0
 40
1.0
 40
1.0
 40
1.0
 10
150.5677688026543
 20
226.1876938887475
 30
0.0
 10
150.9146351911978
 20
226.1581194680961
 30
0.0
 10
151.6005914199666
 20
226.0996336685833
 30
0.0
 10
152.3003901269073
 20
226.1047698116868
 30
0.0
 10
152.6463227415179
 20
226.107308769526
 30
0.0
  0
SPLINE
  5
148
330
1F
100
AcDbEntity
  8
0
  6
Continuous
 62
     7
370
    15
100
AcDbSpline
210
0.0
220
0.0
230
1.0
 70
     8
 71
     3
 72
     9
 73
     5
 74
     0
 42
0.00000001
 43
0.00000001
 40
0.0
 40
0.0
 40
0.0
 40
0.0
 40
0.5096523797858908
 40
1.0
 40
1.0
 40
1.0
 40
1.0
 10
152.64624984653
 20
242.2957165685773
 30
0.0
 10
152.300423468057
 20
242.2984280033792
 30
0.0
 10
151.6218700222391
 20
242.303748168475
 30
0.0
 10
150.9566813910167
 20
242.2473215537522
 30
0.0
 10
150.6305077287033
 20
242.2196528975062
 30
0.0
  0
SPLINE
  5
149
330
1F
100
AcDbEntity
  8
0
  6
Continuous
 62
     7
370
    15
100
AcDbSpline
210
0.0
220
0.0
230
1.0
 70
     8
 71
     3
 72
     9
 73
     5
 74
     0
 42
0.00000001
 43
0.00000001
 40
0.0
 40
0.0
 40
0.0
 40
0.0
 40
0.1807141545657859
 40
0.9999999999999999
 40
0.9999999999999999
 40
0.9999999999999999
 40
0.9999999999999999
 10
146.1853779189659
 20
235.7676642095803
 30
0.0
 10
146.1735258226541
 20
235.6763350869678
 30
0.0
 10
146.1079410523836
 20
235.1709561761019
 30
0.0
 10
146.1084582589394
 20
234.6360893935818
 30
0.0
 10
146.1088819989497
 20
234.1978806094701
 30
0.0
  0
SPLINE
  5
14A
330
1F
100
AcDbEntity
  8
0
  6
Continuous
 62
     7
370
    15
100
AcDbSpline
210
0.0
220
0.0
230
1.0
 70
     8
 71
     3
 72
     9
 73
     5
 74
     0
 42
0.00000001
 43
0.00000001
 40
0.0
 40
0.0
 40
0.0
 40
0.0
 40
0.1618518151767853
 40
1.0
 40
1.0
 40
1.0
 40
1.0
 10
146.1133632509006
 20
234.1974754556609
 30
0.0
 10
146.1104251680593
 20
234.1126396262407
 30
0.0
 10
146.0922722493661
 20
233.5884822089912
 30
0.0
 10
146.1393215495123
 20
233.0697356151316
 30
0.0
 10
146.178755835027
 20
232.634949099105
 30
0.0
  0
SPLINE
  5
14B
330
1F
100
AcDbEntity
  8
0
  6
Continuous
 62
     7
370
    15
100
AcDbSpline
210
0.0
220
0.0
230
1.0
 70
     8
 71
     3
 72
     9
 73
     5
 74
     0
 42
0.00000001
 43
0.00000001
 40
0.0
 40
0.0
 40
0.0
 40
0.0
 40
0.1524250932194723
 40
1.0
 40
1.0
 40
1.0
 40
1.0
 10
146.182886501631
 20
232.637113425385
 30
0.0
 10
146.186985342618
 20
232.5614899228493
 30
0.0
 10
146.2138761970072
 20
232.0653544051439
 30
0.0
 10
146.302911088835
 20
231.6059987723683
 30
0.0
 10
146.3783748289762
 20
231.2166604647394
 30
0.0
  0
SPLINE
  5
14C
330
1F
100
AcDbEntity
  8
0
  6
Continuous
 62
     7
370
    15
100
AcDbSpline
210
0.0
220
0.0
230
1.0
 70
     8
 71
     3
 72
     9
 73
     5
 74
     0
 42
0.00000001
 43
0.00000001
 40
0.0
 40
0.0
 40
0.0
 40
0.0
 40
0.1846582531467809
 40
1.0
 40
1.0
 40
1.0
 40
1.0
 10
146.4067421039571
 20
237.3027696571235
 30
0.0
 10
146.3848230062073
 20
237.2154244969768
 30
0.0
 10
146.2661221229471
 20
236.7424147145369
 30
0.0
 10
146.2186722572399
 20
236.2075946023146
 30
0.0
 10
146.1799844008461
 20
235.771533437763
 30
0.0
  0
SPLINE
  5
14D
330
1F
100
AcDbEntity
  8
0
  6
Continuous
 62
     7
370
    15
100
AcDbSpline
210
0.0
220
0.0
230
1.0
 70
     8
 71
     3
 72
    10
 73
     6
 74
     0
 42
0.00000001
 43
0.00000001
 40
0.0
 40
0.0
 40
0.0
 40
0.0
 40
0.0820739244836285
 40
0.53476330988119
 40
1.0
 40
1.0
 40
1.0
 40
1.0
 10
146.3817032595688
 20
231.2200291080865
 30
0.0
 10
146.3953200753813
 20
231.1290474293193
 30
0.0
 10
146.4840422065544
 20
230.5362444899905
 30
0.0
 10
146.7723010014648
 20
229.5421999403302
 30
0.0
 10
147.1750073897242
 20
228.7490935098437
 30
0.0
 10
147.379112918656
 20
228.3471197338793
 30
0.0
  0
SPLINE
  5
14E
330
1F
100
AcDbEntity
  8
0
  6
Continuous
 62
     7
370
    15
100
AcDbSpline
210
0.0
220
0.0
230
1.0
 70
     8
 71
     3
 72
     9
 73
     5
 74
     0
 42
0.00000001
 43
0.00000001
 40
0.0
 40
0.0
 40
0.0
 40
0.0
 40
0.3291051776871323
 40
1.0
 40
1.0
 40
1.0
 40
1.0
 10
146.6097566663146
 20
238.1517286675608
 30
0.0
 10
146.5798290735895
 20
238.0656564692217
 30
0.0
 10
146.4888928174802
 20
237.8041224546432
 30
0.0
 10
146.4360932655799
 20
237.5070591309466
 30
0.0
 10
146.4006703195896
 20
237.3077608851795
 30
0.0
  0
SPLINE
  5
14F
330
1F
100
AcDbEntity
  8
0
  6
Continuous
 62
     7
370
    15
100
AcDbSpline
210
0.0
220
0.0
230
1.0
 70
     8
 71
     3
 72
     9
 73
     5
 74
     0
 42
0.00000001
 43
0.00000001
 40
0.0
 40
0.0
 40
0.0
 40
0.0
 40
0.8878165079149531
 40
1.0
 40
1.0
 40
1.0
 40
1.0
 10
147.0096246295955
 20
239.3058883145163
 30
0.0
 10
146.8721260660807
 20
238.9812804726475
 30
0.0
 10
146.7172533392402
 20
238.6156555501834
 30
0.0
 10
146.6097328825321
 20
238.2074372017379
 30
0.0
 10
146.597670862228
 20
238.161641841876
 30
0.0
  0
SPLINE
  5
150
330
1F
100
AcDbEntity
  8
0
  6
Continuous
 62
     7
370
    15
100
AcDbSpline
210
0.0
220
0.0
230
1.0
 70
     8
 71
     3
 72
     9
 73
     5
 74
     0
 42
0.00000001
 43
0.00000001
 40
0.0
 40
0.0
 40
0.0
 40
0.0
 40
0.4707144333765503
 40
1.0
 40
1.0
 40
1.0
 40
1.0
 10
147.3863584273317
 20
240.0548705573918
 30
0.0
 10
147.3162179837577
 20
239.9452400099225
 30
0.0
 10
147.1672095009057
 20
239.7123375542172
 30
0.0
 10
147.0613629616532
 20
239.4528699218595
 30
0.0
 10
147.0053399161498
 20
239.3155374490465
 30
0.0
  0
SPLINE
  5
151
330
1F
100
AcDbEntity
  8
0
  6
Continuous
 62
     7
370
    15
100
AcDbSpline
210
0.0
220
0.0
230
1.0
 70
     8
 71
     3
 72
    10
 73
     6
 74
     0
 42
0.00000001
 43
0.00000001
 40
0.0
 40
0.0
 40
0.0
 40
0.0
 40
0.2656785739310842
 40
0.7470251720544046
 40
1.0
 40
1.0
 40
1.0
 40
1.0
 10
148.6664983362899
 20
241.4735194781902
 30
0.0
 10
148.5179171292475
 20
241.3758789412826
 30
0.0
 10
148.1001419955113
 20
241.1013368967222
 30
0.0
 10
147.6845647228607
 20
240.5819218864925
 30
0.0
 10
147.4615187735808
 20
240.1911660940731
 30
0.0
 10
147.3846791109482
 20
240.0565501400144
 30
0.0
  0
SPLINE
  5
152
330
1F
100
AcDbEntity
  8
0
  6
Continuous
 62
     7
370
    15
100
AcDbSpline
210
0.0
220
0.0
230
1.0
 70
     8
 71
     3
 72
    10
 73
     6
 74
     0
 42
0.00000001
 43
0.00000001
 40
0.0
 40
0.0
 40
0.0
 40
0.0
 40
0.1533136991220875
 40
0.6566945636067826
 40
1.0
 40
1.0
 40
1.0
 40
1.0
 10
147.391753600514
 20
228.3572174641481
 30
0.0
 10
147.4325592719838
 20
228.2712795331132
 30
0.0
 10
147.607343800516
 20
227.9031782320461
 30
0.0
 10
148.012904669721
 20
227.3952746093824
 30
0.0
 10
148.4751902234352
 20
227.0628133888976
 30
0.0
 10
148.6626328968215
 20
226.928010517676
 30
0.0
  0
SPLINE
  5
153
330
1F
100
AcDbEntity
  8
0
  6
Continuous
 62
     7
370
    15
100
AcDbSpline
210
0.0
220
0.0
230
1.0
 70
     8
 71
     3
 72
    10
 73
     6
 74
     0
 42
0.00000001
 43
0.00000001
 40
0.0
 40
0.0
 40
0.0
 40
0.0
 40
0.1423962226221123
 40
0.6807870461554103
 40
1.0
 40
1.0
 40
1.0
 40
1.0
 10
148.9286162351956
 20
226.7475261317119
 30
0.0
 10
148.9984354687533
 20
226.6965901699148
 30
0.0
 10
149.3322366672913
 20
226.453068661153
 30
0.0
 10
149.930773609924
 20
226.2800456538793
 30
0.0
 10
150.341426705583
 20
226.2266876511604
 30
0.0
 10
150.4942779302727
 20
226.2068270044277
 30
0.0
  0
SPLINE
  5
154
330
1F
100
AcDbEntity
  8
0
  6
Continuous
 62
     7
370
    15
100
AcDbSpline
210
0.0
220
0.0
230
1.0
 70
     8
 71
     3
 72
    10
 73
     6
 74
     0
 42
0.00000001
 43
0.00000001
 40
0.0
 40
0.0
 40
0.0
 40
0.0
 40
0.4126600745298249
 40
0.9428291279773837
 40
1.0
 40
1.0
 40
1.0
 40
1.0
 10
150.402775203575
 20
242.1871265961906
 30
0.0
 10
150.1869468094781
 20
242.147244226363
 30
0.0
 10
149.6938307821256
 20
242.0561225931179
 30
0.0
 10
149.0912693872915
 20
241.8422987716503
 30
0.0
 10
148.8178787569806
 20
241.6077124335123
 30
0.0
 10
148.7912672836925
 20
241.584878117413
 30
0.0
  0
LINE
  5
155
330
1F
100
AcDbEntity
  8
0
  6
Continuous
 62
     7
370
    15
100
AcDbLine
 10
168.7241392812
 20
226.1273284905
 30
0.0
 11
168.9022700519
 21
226.1235695279
 31
0.0
  0
SPLINE
  5
156
330
1F
100
AcDbEntity
  8
0
  6
Continuous
 62
     7
370
    15
100
AcDbSpline
210
0.0
220
0.0
230
1.0
 70
     8
 71
     3
 72
     9
 73
     5
 74
     0
 42
0.00000001
 43
0.00000001
 40
0.0
 40
0.0
 40
0.0
 40
0.0
 40
0.4521362759351761
 40
1.0
 40
1.0
 40
1.0
 40
1.0
 10
162.158535349334
 20
226.1273284904849
 30
0.0
 10
163.357343876185
 20
225.9523817773211
 30
0.0
 10
166.0087757356868
 20
225.565448185669
 30
0.0
 10
168.7084064289149
 20
225.3350277597279
 30
0.0
 10
170.1874361541065
 20
225.2087887670712
 30
0.0
  0
LINE
  5
157
330
1F
100
AcDbEntity
  8
0
  6
Continuous
 62
     7
370
    15
100
AcDbLine
 10
204.3600878342
 20
229.2816921299
 30
0.0
 11
204.3600878342
 21
254.8519149186
 31
0.0
  0
SPLINE
  5
158
330
1F
100
AcDbEntity
  8
0
  6
Continuous
 62
     7
370
    15
100
AcDbSpline
210
0.0
220
0.0
230
1.0
 70
     8
 71
     3
 72
    10
 73
     6
 74
     0
 42
0.00000001
 43
0.00000001
 40
0.0
 40
0.0
 40
0.0
 40
0.0
 40
0.2280189626177112
 40
0.4757495590748108
 40
1.0
 40
1.0
 40
1.0
 40
1.0
 10
204.289394958719
 20
308.6527638406903
 30
0.0
 10
204.2903307968205
 20
308.9578898760853
 30
0.0
 10
204.2922833737424
 20
309.5945192824072
 30
0.0
 10
204.2633633045435
 20
310.4117882640605
 30
0.0
 10
204.2669439266558
 20
310.6180136200089
 30
0.0
 10
204.2693755184052
 20
310.7580607565972
 30
0.0
  0
SPLINE
  5
159
330
1F
100
AcDbEntity
  8
0
  6
Continuous
 62
     7
370
    15
100
AcDbSpline
210
0.0
220
0.0
230
1.0
 70
     8
 71
     3
 72
    10
 73
     6
 74
     0
 42
0.00000001
 43
0.00000001
 40
0.0
 40
0.0
 40
0.0
 40
0.0
 40
0.5237028367637543
 40
0.7723428751363544
 40
1.0
 40
1.0
 40
1.0
 40
1.0
 10
158.1728221318581
 20
310.7536625943283
 30
0.0
 10
158.1753975988298
 20
310.6119561494772
 30
0.0
 10
158.1791958283334
 20
310.4029712913508
 30
0.0
 10
158.1487255583901
 20
309.5965694438814
 30
0.0
 10
158.150550309552
 20
308.9581281171403
 30
0.0
 10
158.1514224911126
 20
308.6529704801465
 30
0.0
  0
LINE
  5
15A
330
1F
100
AcDbEntity
  8
0
  6
Continuous
 62
     7
370
    15
100
AcDbLine
 10
158.1514361541
 20
308.5996326942
 30
0.0
 11
158.1514361541
 21
265.0437284905
 31
0.0
  0
LINE
  5
15B
330
1F
100
AcDbEntity
  8
0
  6
Continuous
 62
     7
370
    15
100
AcDbLine
 10
204.2894361541
 20
265.0437284905
 30
0.0
 11
204.2894361541
 21
308.5944272145
 31
0.0
  0
ARC
  5
15C
330
1F
100
AcDbEntity
  8
0
  6
Continuous
 62
     7
370
    15
100
AcDbCircle
 10
158.6529361541
 20
265.0437284905
 30
0.0
 40
0.5015000000000214
100
AcDbArc
 50
180.0
 51
270.0
  0
ARC
  5
15D
330
1F
100
AcDbEntity
  8
0
  6
Continuous
 62
     7
370
    15
100
AcDbCircle
 10
203.7879361541
 20
265.0437284905
 30
0.0
 40
0.5015000000000214
100
AcDbArc
 50
270.0
 51
0.0
  0
LINE
  5
15E
330
1F
100
AcDbEntity
  8
0
  6
Continuous
 62
     7
370
    15
100
AcDbLine
 10
203.2864361541
 20
262.5362284906
 30
0.0
 11
203.2864361541
 21
264.5422284906
 31
0.0
  0
LINE
  5
15F
330
1F
100
AcDbEntity
  8
0
  6
Continuous
 62
     7
370
    15
100
AcDbLine
 10
159.1544361541
 20
264.5422284904
 30
0.0
 11
159.1544361541
 21
262.5362284904
 31
0.0
  0
ARC
  5
160
330
1F
100
AcDbEntity
  8
0
  6
Continuous
 62
     7
370
    15
100
AcDbCircle
 10
181.2204361541
 20
262.4625421877
 30
0.0
 40
22.06600000000001
100
AcDbArc
 50
179.8145617158
 51
194.818122559
  0
ARC
  5
161
330
1F
100
AcDbEntity
  8
0
  6
Continuous
 62
     7
370
    15
100
AcDbCircle
 10
181.2204361541
 20
262.4625421877
 30
0.0
 40
22.06600000000001
100
AcDbArc
 50
345.181877441
 51
0.1843083427
  0
LINE
  5
162
330
1F
100
AcDbEntity
  8
0
  6
Continuous
 62
     7
370
    15
100
AcDbLine
 10
158.2220878342
 20
256.8191284905
 30
0.0
 11
158.2220878342
 21
242.2756681261
 31
0.0
  0
ARC
  5
163
330
1F
100
AcDbEntity
  8
0
  6
Continuous
 62
     7
370
    15
100
AcDbCircle
 10
201.3510878342
 20
229.2816921299
 30
0.0
 40
3.008999999999986
100
AcDbArc
 50
278.8272505214
 51
0.0
  0
ARC
  5
164
330
1F
100
AcDbEntity
  8
0
  6
Continuous
 62
     7
370
    15
100
AcDbCircle
 10
181.2910878342
 20
358.4550137654
 30
0.0
 40
133.7306532267729
100
AcDbArc
 50
274.702002433
 51
278.8272505214
  0
ARC
  5
165
330
1F
100
AcDbEntity
  8
0
  6
Continuous
 62
     7
370
    15
100
AcDbCircle
 10
181.2204361541
 20
317.7012284905
 30
0.0
 40
11.03299999999999
100
AcDbArc
 50
0.0
 51
180.0
  0
ARC
  5
166
330
1F
100
AcDbEntity
  8
0
  6
Continuous
 62
     7
370
    15
100
AcDbCircle
 10
181.2204361541
 20
101.1341428603
 30
0.0
 40
11.03372384917903
100
AcDbArc
 50
180.6563008889
 51
359.3436991111
  0
SPLINE
  5
167
330
1F
100
AcDbEntity
  8
0
  6
Continuous
 62
     7
370
    15
100
AcDbSpline
210
0.0
220
0.0
230
1.0
 70
     8
 71
     3
 72
     8
 73
     4
 74
     0
 42
0.00000001
 43
0.00000001
 40
0.6838601914106994
 40
0.6838601914106994
 40
0.6838601914106994
 40
0.6838601914106994
 40
1.0
 40
1.0
 40
1.0
 40
1.0
 10
170.0009329706794
 20
242.2150222484307
 30
0.0
 10
169.5997173247574
 20
242.2553555675038
 30
0.0
 10
169.1964657870339
 20
242.2756284873072
 30
0.0
 10
168.7925096971885
 20
242.2756284904846
 30
0.0
  0
LINE
  5
168
330
1F
100
AcDbEntity
  8
0
  6
Continuous
 62
     7
370
    15
100
AcDbLine
 10
150.6306886072
 20
242.2170964914
 30
0.0
 11
150.5219516117
 21
242.2098944087
 31
0.0
  0
ARC
  5
169
330
1F
100
AcDbEntity
  8
0
  6
Continuous
 62
     7
370
    15
100
AcDbCircle
 10
181.2204361541
 20
317.7012284905
 30
0.0
 40
11.98585000000002
100
AcDbArc
 50
336.9995950786
 51
0.0
  0
ARC
  5
16A
330
1F
100
AcDbEntity
  8
0
  6
Continuous
 62
     7
370
    15
100
AcDbCircle
 10
181.2204361541
 20
317.7012284905
 30
0.0
 40
11.98585
100
AcDbArc
 50
0.0
 51
203.0004049214
  0
ARC
  5
16B
330
1F
100
AcDbEntity
  8
0
  6
Continuous
 62
     7
370
    15
100
AcDbCircle
 10
181.2204361541
 20
317.7012284905
 30
0.0
 40
24.072
100
AcDbArc
 50
180.0
 51
242.720387264
  0
ARC
  5
16C
330
1F
100
AcDbEntity
  8
0
  6
Continuous
 62
     7
370
    15
100
AcDbCircle
 10
181.2204361541
 20
317.7012284905
 30
0.0
 40
24.072
100
AcDbArc
 50
297.279612736
 51
180.0
  0
SPLINE
  5
16D
330
1F
100
AcDbEntity
  8
0
  6
Continuous
 62
     7
370
    15
100
AcDbSpline
210
0.0
220
0.0
230
1.0
 70
     8
 71
     3
 72
    10
 73
     6
 74
     0
 42
0.00000001
 43
0.00000001
 40
0.0
 40
0.0
 40
0.0
 40
0.0
 40
0.5
 40
0.5
 40
1.0
 40
1.0
 40
1.0
 40
1.0
 10
170.1639408602247
 20
248.3645734029363
 30
0.0
 10
170.0266795279387
 20
248.5665180582939
 30
0.0
 10
169.9115816216388
 20
248.7852577217753
 30
0.0
 10
169.7239547245832
 20
249.2597832547393
 30
0.0
 10
169.6510746870491
 20
249.5182146943362
 30
0.0
 10
169.604547066393
 20
249.791262697366
 30
0.0
  0
LINE
  5
16E
330
1F
100
AcDbEntity
  8
0
  6
Continuous
 62
     7
370
    15
100
AcDbLine
 10
202.9688569031
 20
256.8191284905
 30
0.0
 11
192.2534361541
 21
256.8191284905
 31
0.0
  0
ELLIPSE
  5
16F
330
1F
100
AcDbEntity
  8
0
  6
Continuous
 62
     7
370
    15
100
AcDbEllipse
 10
181.2910878342
 20
256.8191284905
 30
0.0
 11
23.0639299417341
 21
-2.080091385829462
 31
0.0
210
0.0
220
0.0
230
1.0
 40
0.2325035448
 41
0.0209659739973162
 42
0.3700318243905504
  0
ARC
  5
170
330
1F
100
AcDbEntity
  8
0
  6
Continuous
 62
     7
370
    15
100
AcDbCircle
 10
173.7527364105
 20
250.5032909948
 30
0.0
 40
4.208854847957128
100
AcDbArc
 50
147.8971066301
 51
189.7397900745
  0
ARC
  5
171
330
1F
100
AcDbEntity
  8
0
  6
Continuous
 62
     7
370
    15
100
AcDbCircle
 10
173.5320462712
 20
250.5000420749
 30
0.0
 40
3.98802714488581
100
AcDbArc
 50
146.999185601
 51
212.3757874722
  0
ARC
  5
172
330
1F
100
AcDbEntity
  8
0
  6
Continuous
 62
     7
370
    15
100
AcDbCircle
 10
173.4699894969
 20
250.5002284905
 30
0.0
 40
3.77090257101505
100
AcDbArc
 50
150.5162593242
 51
209.4837406758
  0
LINE
  5
173
330
1F
100
AcDbEntity
  8
0
  6
Continuous
 62
     7
370
    15
100
AcDbLine
 10
170.1874361541
 20
264.5422284905
 30
0.0
 11
158.6529361541
 21
264.5422284905
 31
0.0
  0
LINE
  5
174
330
1F
100
AcDbEntity
  8
0
  6
Continuous
 62
     7
370
    15
100
AcDbLine
 10
203.7879361541
 20
264.5422284905
 30
0.0
 11
192.2534361541
 21
264.5422284905
 31
0.0
  0
LINE
  5
175
330
1F
100
AcDbEntity
  8
0
  6
Continuous
 62
     7
370
    15
100
AcDbLine
 10
158.2220878342
 20
256.8191284905
 30
0.0
 11
170.1874361541
 21
256.8191284905
 31
0.0
  0
ARC
  5
176
330
1F
100
AcDbEntity
  8
0
  6
Continuous
 62
     8
370
     0
100
AcDbCircle
 10
181.2204361541
 20
101.3083119825
 30
0.0
 40
11.03372384917907
100
AcDbArc
 50
180.6563008889
 51
359.3436991111
  0
SPLINE
  5
177
330
1F
100
AcDbEntity
  8
0
  6
Continuous
 62
     8
370
     0
100
AcDbSpline
210
0.0
220
0.0
230
1.0
 70
     8
 71
     3
 72
     8
 73
     4
 74
     0
 42
0.00000001
 43
0.00000001
 40
0.0
 40
0.0
 40
0.0
 40
0.0
 40
1.0
 40
1.0
 40
1.0
 40
1.0
 10
153.8843007370148
 20
235.5005252493449
 30
0.0
 10
153.8453320391003
 20
235.0735500223365
 30
0.0
 10
153.8256642977941
 20
234.6391680369218
 30
0.0
 10
153.8257935512217
 20
234.1971889380509
 30
0.0
  0
SPLINE
  5
178
330
1F
100
AcDbEntity
  8
0
  6
Continuous
 62
     8
370
     0
100
AcDbSpline
210
0.0
220
0.0
230
1.0
 70
     8
 71
     3
 72
     8
 73
     4
 74
     0
 42
0.00000001
 43
0.00000001
 40
0.0
 40
0.0
 40
0.0
 40
0.0
 40
1.0
 40
1.0
 40
1.0
 40
1.0
 10
153.8257935512217
 20
234.1971889380509
 30
0.0
 10
153.8259219101265
 20
233.7582686393933
 30
0.0
 10
153.8455667504404
 20
233.3268848909121
 30
0.0
 10
153.8842617748919
 20
232.902857625683
 30
0.0
  0
SPLINE
  5
179
330
1F
100
AcDbEntity
  8
0
  6
Continuous
 62
     8
370
    15
100
AcDbSpline
210
0.0
220
0.0
230
1.0
 70
     8
 71
     3
 72
    24
 73
    20
 74
     0
 42
0.00000001
 43
0.00000001
 40
0.0
 40
0.0
 40
0.0
 40
0.0
 40
0.5
 40
0.5
 40
0.625
 40
0.625
 40
0.6875
 40
0.6875
 40
0.75
 40
0.75
 40
0.8125
 40
0.8125
 40
0.875
 40
0.875
 40
0.9375
 40
0.9375
 40
0.96875
 40
0.96875
 40
1.0
 40
1.0
 40
1.0
 40
1.0
 10
170.0009426965488
 20
226.1879357552803
 30
0.0
 10
167.1641196889165
 20
226.1879617235285
 30
0.0
 10
164.3273062429256
 20
226.1886932295456
 30
0.0
 10
160.7812729220761
 20
226.1876102153069
 30
0.0
 10
160.0719854262819
 20
226.1873438383867
 30
0.0
 10
159.0075807521901
 20
226.1880274846906
 30
0.0
 10
158.6531775056182
 20
226.1880500936163
 30
0.0
 10
157.9467462029222
 20
226.1862363397203
 30
0.0
 10
157.5940740019699
 20
226.1848997454104
 30
0.0
 10
156.88495918412
 20
226.1848614148479
 30
0.0
 10
156.5280740838354
 20
226.1864655578427
 30
0.0
 10
155.8078771503415
 20
226.1943503288732
 30
0.0
 10
155.4459697765638
 20
226.199644964589
 30
0.0
 10
154.73467491913
 20
226.2011103453579
 30
0.0
 10
154.3865281366594
 20
226.1962360408726
 30
0.0
 10
153.8832584599351
 20
226.1761266081311
 30
0.0
 10
153.7163129410839
 20
226.1689621991833
 30
0.0
 10
153.3647380926999
 20
226.1666928787567
 30
0.0
 10
153.1798657865046
 20
226.1715127989058
 30
0.0
 10
152.9801759230854
 20
226.1879136585398
 30
0.0
  0
SPLINE
  5
17A
330
1F
100
AcDbEntity
  8
0
  6
Continuous
 62
     8
370
     0
100
AcDbSpline
210
0.0
220
0.0
230
1.0
 70
     8
 71
     3
 72
     8
 73
     4
 74
     0
 42
0.00000001
 43
0.00000001
 40
0.0
 40
0.0
 40
0.0
 40
0.0
 40
0.3161424992488839
 40
0.3161424992488839
 40
0.3161424992488839
 40
0.3161424992488839
 10
170.0009427009189
 20
226.1879357557195
 30
0.0
 10
169.5997235966383
 20
226.1476017531369
 30
0.0
 10
169.1964685549101
 20
226.1273284904852
 30
0.0
 10
168.7925089492849
 20
226.1273284904852
 30
0.0
  0
LINE
  5
17B
330
1F
100
AcDbEntity
  8
0
  6
Continuous
 62
     8
370
    30
100
AcDbLine
 10
167.0216434059
 20
242.2150250591
 30
0.0
 11
170.0009329707
 21
242.2150250591
 31
0.0
  0
LINE
  5
17C
330
1F
100
AcDbEntity
  8
0
  6
Continuous
 62
     8
370
    30
100
AcDbLine
 10
164.3721553735
 20
242.2150250591
 30
0.0
 11
167.0216434059
 21
242.2150250591
 31
0.0
  0
SPLINE
  5
17D
330
1F
100
AcDbEntity
  8
0
  6
Continuous
 62
     8
370
    30
100
AcDbSpline
210
0.0
220
0.0
230
1.0
 70
     8
 71
     3
 72
    20
 73
    16
 74
     0
 42
0.00000001
 43
0.00000001
 40
0.0
 40
0.0
 40
0.0
 40
0.0
 40
0.0625
 40
0.0625
 40
0.125
 40
0.125
 40
0.25
 40
0.25
 40
0.375
 40
0.375
 40
0.5
 40
0.5
 40
0.7499999999999999
 40
0.7499999999999999
 40
1.0
 40
1.0
 40
1.0
 40
1.0
 10
152.9801743430857
 20
242.2150435262482
 30
0.0
 10
153.2474863829293
 20
242.2370645583229
 30
0.0
 10
153.4877867729681
 20
242.2382134762954
 30
0.0
 10
153.9453346259866
 20
242.2262366573396
 30
0.0
 10
154.1656265826324
 20
242.2143053981539
 30
0.0
 10
154.8551357818693
 20
242.1981346710159
 30
0.0
 10
155.3364912889283
 20
242.2028603400984
 30
0.0
 10
156.3014558607993
 20
242.2141233076502
 30
0.0
 10
156.78183959947
 20
242.2181656569928
 30
0.0
 10
157.7309035133277
 20
242.2180034954783
 30
0.0
 10
158.2021176971044
 20
242.2156022654069
 30
0.0
 10
159.6233216331992
 20
242.2140688086081
 30
0.0
 10
160.5747949924457
 20
242.2154077192556
 30
0.0
 10
162.4734805962272
 20
242.2148329161783
 30
0.0
 10
163.4228196451786
 20
242.2149663137809
 30
0.0
 10
164.3721653808675
 20
242.2150240764501
 30
0.0
  0
SPLINE
  5
17E
330
1F
100
AcDbEntity
  8
0
  6
Continuous
 62
     8
370
     0
100
AcDbSpline
210
0.0
220
0.0
230
1.0
 70
     8
 71
     3
 72
     8
 73
     4
 74
     0
 42
0.00000001
 43
0.00000001
 40
0.0
 40
0.0
 40
0.0
 40
0.0
 40
1.0
 40
1.0
 40
1.0
 40
1.0
 10
153.8842617748919
 20
232.902857625683
 30
0.0
 10
153.9204803759517
 20
232.5059674679578
 30
0.0
 10
153.9727180444914
 20
232.1279971778322
 30
0.0
 10
154.0409307701468
 20
231.7688947753596
 30
0.0
  0
SPLINE
  5
17F
330
1F
100
AcDbEntity
  8
0
  6
Continuous
 62
     8
370
     0
100
AcDbSpline
210
0.0
220
0.0
230
1.0
 70
     8
 71
     3
 72
     8
 73
     4
 74
     0
 42
0.00000001
 43
0.00000001
 40
0.0
 40
0.0
 40
0.0
 40
0.0
 40
1.0
 40
1.0
 40
1.0
 40
1.0
 10
154.0585780247254
 20
236.7248681934679
 30
0.0
 10
153.9817768157937
 20
236.3395195154781
 30
0.0
 10
153.9236316623665
 20
235.9314693578017
 30
0.0
 10
153.8843007370148
 20
235.5005252493449
 30
0.0
  0
SPLINE
  5
180
330
1F
100
AcDbEntity
  8
0
  6
Continuous
 62
     8
370
     0
100
AcDbSpline
210
0.0
220
0.0
230
1.0
 70
     8
 71
     3
 72
    11
 73
     7
 74
     0
 42
0.00000001
 43
0.00000001
 40
0.0
 40
0.0
 40
0.0
 40
0.0
 40
0.1653585493039139
 40
0.7045016232516532
 40
0.9225306682688214
 40
0.9999999999999999
 40
0.9999999999999999
 40
0.9999999999999999
 40
0.9999999999999999
 10
152.6070147186653
 20
242.2048760440912
 30
0.0
 10
152.5076584232419
 20
242.2041762187678
 30
0.0
 10
152.0843560194609
 20
242.2011946488497
 30
0.0
 10
151.4890453904721
 20
242.2259630128553
 30
0.0
 10
150.9622601169152
 20
242.2412028737905
 30
0.0
 10
150.7998264942312
 20
242.2287447218415
 30
0.0
 10
150.7572420836552
 20
242.2254786304446
 30
0.0
  0
SPLINE
  5
181
330
1F
100
AcDbEntity
  8
0
  6
Continuous
 62
     8
370
     0
100
AcDbSpline
210
0.0
220
0.0
230
1.0
 70
     8
 71
     3
 72
    12
 73
     8
 74
     0
 42
0.00000001
 43
0.00000001
 40
0.0
 40
0.0
 40
0.0
 40
0.0
 40
0.2499999999999996
 40
0.2499999999999996
 40
0.4999999999999991
 40
0.4999999999999991
 40
1.0
 40
1.0
 40
1.0
 40
1.0
 10
154.0409307701468
 20
231.7688947753596
 30
0.0
 10
154.0788664583203
 20
231.5691842868595
 30
0.0
 10
154.1211666818813
 20
231.3783266609184
 30
0.0
 10
154.214301818767
 20
231.0139228588814
 30
0.0
 10
154.2654129362778
 20
230.8397789944766
 30
0.0
 10
154.4285031500419
 20
230.3569611025857
 30
0.0
 10
154.5508275459304
 20
230.0829443937296
 30
0.0
 10
154.6856524820242
 20
229.8529280975661
 30
0.0
  0
SPLINE
  5
182
330
1F
100
AcDbEntity
  8
0
  6
Continuous
 62
     8
370
     0
100
AcDbSpline
210
0.0
220
0.0
230
1.0
 70
     8
 71
     3
 72
     8
 73
     4
 74
     0
 42
0.00000001
 43
0.00000001
 40
0.0
 40
0.0
 40
0.0
 40
0.0
 40
1.0
 40
1.0
 40
1.0
 40
1.0
 10
154.2088140836765
 20
237.3614949593476
 30
0.0
 10
154.1531702016323
 20
237.1605131056285
 30
0.0
 10
154.1031043592983
 20
236.9482782725809
 30
0.0
 10
154.0585780247254
 20
236.7248681934678
 30
0.0
  0
SPLINE
  5
183
330
1F
100
AcDbEntity
  8
0
  6
Continuous
 62
     8
370
     0
100
AcDbSpline
210
0.0
220
0.0
230
1.0
 70
     8
 71
     3
 72
     8
 73
     4
 74
     0
 42
0.00000001
 43
0.00000001
 40
0.0
 40
0.0
 40
0.0
 40
0.0
 40
1.0
 40
1.0
 40
1.0
 40
1.0
 10
154.4737853478601
 20
238.1274794342114
 30
0.0
 10
154.3758907439707
 20
237.9004538485085
 30
0.0
 10
154.2874422661835
 20
237.6454945167877
 30
0.0
 10
154.2088140836765
 20
237.3614949593476
 30
0.0
  0
SPLINE
  5
184
330
1F
100
AcDbEntity
  8
0
  6
Continuous
 62
     8
370
     0
100
AcDbSpline
210
0.0
220
0.0
230
1.0
 70
     8
 71
     3
 72
    13
 73
     9
 74
     0
 42
0.00000001
 43
0.00000001
 40
0.0
 40
0.0
 40
0.0
 40
0.0
 40
0.0411830998934187
 40
0.175891899214715
 40
0.3106071238419017
 40
0.5800289357034415
 40
0.714739840426823
 40
1.0
 40
1.0
 40
1.0
 40
1.0
 10
155.5789476262475
 20
229.1816515459094
 30
0.0
 10
155.7794760775738
 20
229.1736970225004
 30
0.0
 10
156.6359276375986
 20
229.1397234694316
 30
0.0
 10
158.148442260352
 20
229.2189402002623
 30
0.0
 10
160.7723493744942
 20
229.1575362349196
 30
0.0
 10
163.3962861827859
 20
229.1873373019091
 30
0.0
 10
166.7532978882889
 20
229.182102108964
 30
0.0
 10
168.7983558120194
 20
229.1830081827429
 30
0.0
 10
170.1874361541065
 20
229.1836236221689
 30
0.0
  0
SPLINE
  5
185
330
1F
100
AcDbEntity
  8
0
  6
Continuous
 62
     8
370
     0
100
AcDbSpline
210
0.0
220
0.0
230
1.0
 70
     8
 71
     3
 72
    10
 73
     6
 74
     0
 42
0.00000001
 43
0.00000001
 40
0.0
 40
0.0
 40
0.0
 40
0.0
 40
0.5
 40
0.5
 40
1.0
 40
1.0
 40
1.0
 40
1.0
 10
155.0912279700203
 20
229.35979540018
 30
0.0
 10
155.1712627871635
 20
229.3008074107158
 30
0.0
 10
155.252159593358
 20
229.2619936896797
 30
0.0
 10
155.4149007490207
 20
229.2065428545077
 30
0.0
 10
155.4967629984271
 20
229.1903246762718
 30
0.0
 10
155.5789476262474
 20
229.1816515459085
 30
0.0
  0
SPLINE
  5
186
330
1F
100
AcDbEntity
  8
0
  6
Continuous
 62
     8
370
     0
100
AcDbSpline
210
0.0
220
0.0
230
1.0
 70
     8
 71
     3
 72
     8
 73
     4
 74
     0
 42
0.00000001
 43
0.00000001
 40
0.0
 40
0.0
 40
0.0
 40
0.0
 40
1.0
 40
1.0
 40
1.0
 40
1.0
 10
154.6856524820242
 20
229.8529280975661
 30
0.0
 10
154.8132597940066
 20
229.6352253334041
 30
0.0
 10
154.9477021156885
 20
229.4655781318131
 30
0.0
 10
155.0912279700203
 20
229.35979540018
 30
0.0
  0
SPLINE
  5
187
330
1F
100
AcDbEntity
  8
0
  6
Continuous
 62
     8
370
     0
100
AcDbSpline
210
0.0
220
0.0
230
1.0
 70
     8
 71
     3
 72
     8
 73
     4
 74
     0
 42
0.00000001
 43
0.00000001
 40
0.0
 40
0.0
 40
0.0
 40
0.0
 40
1.0
 40
1.0
 40
1.0
 40
1.0
 10
154.6861764988973
 20
238.5518542043683
 30
0.0
 10
154.6119591636692
 20
238.4250293654942
 30
0.0
 10
154.5411377783392
 20
238.2836752240767
 30
0.0
 10
154.4737853478601
 20
238.1274794342114
 30
0.0
  0
SPLINE
  5
188
330
1F
100
AcDbEntity
  8
0
  6
Continuous
 62
     8
370
     0
100
AcDbSpline
210
0.0
220
0.0
230
1.0
 70
     8
 71
     3
 72
     8
 73
     4
 74
     0
 42
0.00000001
 43
0.00000001
 40
0.0
 40
0.0
 40
0.0
 40
0.0
 40
1.0
 40
1.0
 40
1.0
 40
1.0
 10
155.0908368225594
 20
239.0428602275244
 30
0.0
 10
154.9476691103788
 20
238.9375333699294
 30
0.0
 10
154.8134291822447
 20
238.769307458547
 30
0.0
 10
154.6861764988973
 20
238.5518542043684
 30
0.0
  0
SPLINE
  5
189
330
1F
100
AcDbEntity
  8
0
  6
Continuous
 62
     8
370
     0
100
AcDbSpline
210
0.0
220
0.0
230
1.0
 70
     8
 71
     3
 72
    10
 73
     6
 74
     0
 42
0.00000001
 43
0.00000001
 40
0.0
 40
0.0
 40
0.0
 40
0.0
 40
0.5
 40
0.5
 40
1.0
 40
1.0
 40
1.0
 40
1.0
 10
155.5790891030673
 20
239.2213204319123
 30
0.0
 10
155.4968144785153
 20
239.2126089059865
 30
0.0
 10
155.4148640449424
 20
239.19631508901
 30
0.0
 10
155.2519472075779
 20
239.1407126252524
 30
0.0
 10
155.1709635071545
 20
239.1018085180947
 30
0.0
 10
155.0908368225594
 20
239.0428602275244
 30
0.0
  0
SPLINE
  5
18A
330
1F
100
AcDbEntity
  8
0
  6
Continuous
 62
     8
370
     0
100
AcDbSpline
210
0.0
220
0.0
230
1.0
 70
     8
 71
     3
 72
    20
 73
    16
 74
     0
 42
0.00000001
 43
0.00000001
 40
0.0
 40
0.0
 40
0.0
 40
0.0
 40
0.2499999999999991
 40
0.2499999999999991
 40
0.4999999999999983
 40
0.4999999999999983
 40
0.6249999999999984
 40
0.6249999999999984
 40
0.7499999999999986
 40
0.7499999999999986
 40
0.8749999999999987
 40
0.8749999999999987
 40
0.9374999999999993
 40
0.9374999999999993
 40
1.0
 40
1.0
 40
1.0
 40
1.0
 10
166.9337781466916
 20
239.2193607813268
 30
0.0
 10
165.9875427833138
 20
239.2193029628318
 30
0.0
 10
165.0413074157835
 20
239.2191689587416
 30
0.0
 10
163.1488367264522
 20
239.21973993203
 30
0.0
 10
162.2026012865735
 20
239.2182785827892
 30
0.0
 10
160.7832483362365
 20
239.2199298226115
 30
0.0
 10
160.3101308053387
 20
239.22266742054
 30
0.0
 10
159.3638954648335
 20
239.2230292360488
 30
0.0
 10
158.890776053336
 20
239.218677743123
 30
0.0
 10
157.944534407318
 20
239.2058755987308
 30
0.0
 10
157.4714140265274
 20
239.2002953780354
 30
0.0
 10
156.7617470108237
 20
239.2170869127801
 30
0.0
 10
156.5251952788905
 20
239.2299975115494
 30
0.0
 10
156.0520863908586
 20
239.2457503020387
 30
0.0
 10
155.8155510548215
 20
239.2463578530418
 30
0.0
 10
155.5790891030673
 20
239.2213204319123
 30
0.0
  0
LINE
  5
18B
330
1F
100
AcDbEntity
  8
0
  6
Continuous
 62
     8
370
     0
100
AcDbLine
 10
166.9337890854
 20
239.219360782
 30
0.0
 11
170.1874361541
 21
239.219360782
 31
0.0
  0
ARC
  5
18C
330
1F
100
AcDbEntity
  8
0
  6
Continuous
 62
     8
370
     0
100
AcDbCircle
 10
181.2204361541
 20
317.7012284905
 30
0.0
 40
12.37227937088164
100
AcDbArc
 50
180.0
 51
206.905815116
  0
ARC
  5
18D
330
1F
100
AcDbEntity
  8
0
  6
Continuous
 62
     8
370
     0
100
AcDbCircle
 10
181.2204361541
 20
317.7012284905
 30
0.0
 40
12.37227937088164
100
AcDbArc
 50
333.094184884
 51
180.0
  0
ARC
  5
18E
330
1F
100
AcDbEntity
  8
0
  6
Continuous
 62
     8
370
     0
100
AcDbCircle
 10
181.2204361541
 20
317.7012284905
 30
0.0
 40
12.67036648801505
100
AcDbArc
 50
180.0
 51
209.451528209
  0
ARC
  5
18F
330
1F
100
AcDbEntity
  8
0
  6
Continuous
 62
     8
370
     0
100
AcDbCircle
 10
181.2204361541
 20
317.7012284905
 30
0.0
 40
12.67036648801505
100
AcDbArc
 50
330.548471791
 51
180.0
  0
ARC
  5
190
330
1F
100
AcDbEntity
  8
0
  6
Continuous
 62
     8
370
     0
100
AcDbCircle
 10
181.2204361541
 20
317.7012284905
 30
0.0
 40
21.02080675700125
100
AcDbArc
 50
180.0
 51
238.3411189868
  0
ARC
  5
191
330
1F
100
AcDbEntity
  8
0
  6
Continuous
 62
     8
370
     0
100
AcDbCircle
 10
181.2204361541
 20
317.7012284905
 30
0.0
 40
21.02080675700125
100
AcDbArc
 50
301.6588810132
 51
180.0
  0
SPLINE
  5
192
330
1F
100
AcDbEntity
  8
0
  6
Continuous
 62
     8
370
     0
100
AcDbSpline
210
0.0
220
0.0
230
1.0
 70
     8
 71
     3
 72
     9
 73
     5
 74
     0
 42
0.00000001
 43
0.00000001
 40
0.0
 40
0.0
 40
0.0
 40
0.0
 40
0.9623159163938056
 40
1.0
 40
1.0
 40
1.0
 40
1.0
 10
168.7925082013809
 20
242.2756284904846
 30
0.0
 10
169.2454109050261
 20
242.3093761541382
 30
0.0
 10
169.716049180804
 20
242.3444453690173
 30
0.0
 10
170.1703174699199
 20
242.6675329222427
 30
0.0
 10
170.1874361541065
 20
242.6797081806106
 30
0.0
  0
LINE
  5
193
330
1F
100
AcDbEntity
  8
0
  6
Continuous
 62
     8
370
     0
100
AcDbLine
 10
200.5752235566
 20
226.3083322067
 30
0.0
 11
192.2534361541
 21
225.2804727246
 31
0.0
  0
LINE
  5
194
330
1F
100
AcDbEntity
  8
0
  6
Continuous
 62
     8
370
     0
100
AcDbLine
 10
168.7925089493
 20
226.1273284905
 30
0.0
 11
170.1874361541
 21
226.0795567477
 31
0.0
  0
SPLINE
  5
195
330
1F
100
AcDbEntity
  8
0
  6
Continuous
 62
     8
370
     0
100
AcDbSpline
210
0.0
220
0.0
230
1.0
 70
     8
 71
     3
 72
    12
 73
     8
 74
     0
 42
0.00000001
 43
0.00000001
 40
0.0
 40
0.0
 40
0.0
 40
0.0
 40
0.0000044602647011
 40
0.2523574092085206
 40
0.5119806140438868
 40
0.76370569809219
 40
1.0
 40
1.0
 40
1.0
 40
1.0
 10
200.5752301918613
 20
226.3083297998217
 30
0.0
 10
200.5752233262811
 20
226.3083298047568
 30
0.0
 10
200.186775519595
 20
226.3086090272263
 30
0.0
 10
199.2187990740707
 20
226.3085475852859
 30
0.0
 10
197.2623783939296
 20
226.3076468308893
 30
0.0
 10
194.9390810657085
 20
226.2968092385076
 30
0.0
 10
193.1295794607873
 20
226.2756275301438
 30
0.0
 10
192.2534361541065
 20
226.2653715502891
 30
0.0
  0
LINE
  5
196
330
1F
100
AcDbEntity
  8
0
  6
Continuous
 62
     8
370
     0
100
AcDbLine
 10
160.5485125772
 20
246.4332274699
 30
0.0
 11
160.5485125772
 21
242.2756284905
 31
0.0
  0
SPLINE
  5
197
330
1F
100
AcDbEntity
  8
0
  6
Continuous
 62
     8
370
     0
100
AcDbSpline
210
0.0
220
0.0
230
1.0
 70
     8
 71
     3
 72
    14
 73
    10
 74
     0
 42
0.00000001
 43
0.00000001
 40
0.6042587306707186
 40
0.6042587306707186
 40
0.6042587306707186
 40
0.6042587306707186
 40
0.6406367209734347
 40
0.6770148416923762
 40
0.7133929624113174
 40
0.7497710831302589
 40
0.7861492038492004
 40
0.8225273245681417
 40
0.8952831452635766
 40
0.8952831452635766
 40
0.8952831452635766
 40
0.8952831452635766
 10
167.2549633326791
 20
255.5438170280108
 30
0.0
 10
166.7090306030416
 20
255.5438170280108
 30
0.0
 10
165.6206453441722
 20
255.4016225563077
 30
0.0
 10
164.1366579026109
 20
254.7460261346539
 30
0.0
 10
162.9025907739557
 20
253.724983564518
 30
0.0
 10
161.9534408019931
 20
252.437848114771
 30
0.0
 10
161.2747711594142
 20
250.9902895849225
 30
0.0
 10
160.6859962737089
 20
248.9395367463723
 30
0.0
 10
160.5485136372894
 20
247.3845294769469
 30
0.0
 10
160.5485125772336
 20
246.4332274699258
 30
0.0
  0
LINE
  5
198
330
1F
100
AcDbEntity
  8
0
  6
Continuous
 62
     8
370
     0
100
AcDbLine
 10
170.1874361541
 20
255.543817028
 30
0.0
 11
167.2549574612
 21
255.543817028
 31
0.0
  0
LINE
  5
199
330
1F
100
AcDbEntity
  8
0
  6
Continuous
 62
     8
370
     0
100
AcDbLine
 10
202.9691893073
 20
229.2816921299
 30
0.0
 11
204.3600878342
 21
229.2816921299
 31
0.0
  0
SPLINE
  5
19A
330
1F
100
AcDbEntity
  8
0
  6
Continuous
 62
     8
370
     0
100
AcDbSpline
210
0.0
220
0.0
230
1.0
 70
     8
 71
     3
 72
    17
 73
    13
 74
     0
 42
0.00000001
 43
0.00000001
 40
0.0
 40
0.0
 40
0.0
 40
0.0
 40
0.084437475686446
 40
0.2111998805989226
 40
0.3597472107019949
 40
0.4175581126751829
 40
0.5334027221522669
 40
0.6495172370722311
 40
0.7659037141773196
 40
0.8242367244028165
 40
0.9412972809008878
 40
1.0
 40
1.0
 40
1.0
 40
1.0
 10
192.2534361541065
 20
229.2171976491388
 30
0.0
 10
192.6682545568322
 20
229.2232598363234
 30
0.0
 10
193.7058222530909
 20
229.2384229282934
 30
0.0
 10
195.3517684426589
 20
229.2559413840033
 30
0.0
 10
196.7764654976052
 20
229.2678127926742
 30
0.0
 10
198.0574535915025
 20
229.2752175979332
 30
0.0
 10
199.1374666512887
 20
229.2795533408966
 30
0.0
 10
200.3085540988902
 20
229.2817061391368
 30
0.0
 10
201.1740141165332
 20
229.2818103339681
 30
0.0
 10
201.9509886119285
 20
229.2818121272468
 30
0.0
 10
202.5058143911098
 20
229.2817858622552
 30
0.0
 10
202.8531751808846
 20
229.2817128790628
 30
0.0
 10
202.9691893072652
 20
229.2816885035963
 30
0.0
  0
SPLINE
  5
19B
330
1F
100
AcDbEntity
  8
0
  6
Continuous
 62
     8
370
     0
100
AcDbSpline
210
0.0
220
0.0
230
1.0
 70
     8
 71
     3
 72
    24
 73
    20
 74
     0
 42
0.00000001
 43
0.00000001
 40
0.0
 40
0.0
 40
0.0
 40
0.0
 40
0.0184920772803387
 40
0.0553768457995336
 40
0.0948932637000909
 40
0.1196890613562478
 40
0.1471130729821939
 40
0.1772525414079047
 40
0.2349506869384232
 40
0.3097266477363468
 40
0.3798158045030655
 40
0.4658238293447521
 40
0.534930728213546
 40
0.6381877651378044
 40
0.7327422600556509
 40
0.8186897548152378
 40
0.8961578868142303
 40
0.9909423176424531
 40
1.0
 40
1.0
 40
1.0
 40
1.0
 10
204.2696717853463
 20
308.579497439271
 30
0.0
 10
204.2770884543586
 20
308.6071345136098
 30
0.0
 10
204.2992986003586
 20
308.6898972006138
 30
0.0
 10
204.2439138697138
 20
308.4811092038664
 30
0.0
 10
204.1645638031122
 20
308.1896090140845
 30
0.0
 10
204.0592798772625
 20
307.8171011107104
 30
0.0
 10
203.9473031763688
 20
307.442171849813
 30
0.0
 10
203.7635959911549
 20
306.8664121212314
 30
0.0
 10
203.4521918597523
 20
305.9718446314089
 30
0.0
 10
202.9678951411141
 20
304.7947907640321
 30
0.0
 10
202.3015608616609
 20
303.4097304577432
 30
0.0
 10
201.5296517399869
 20
302.0467853344298
 30
0.0
 10
200.5044710520616
 20
300.4910383224477
 30
0.0
 10
199.2764717419394
 20
298.9209186703619
 30
0.0
 10
197.7595672834501
 20
297.3191928187509
 30
0.0
 10
196.2079323702276
 20
295.9301719827249
 30
0.0
 10
194.4712408412331
 20
294.6477553984964
 30
0.0
 10
193.1714280066672
 20
293.7912978225846
 30
0.0
 10
192.3270844593785
 20
293.3927415635169
 30
0.0
 10
192.2534361541066
 20
293.3579772864284
 30
0.0
  0
SPLINE
  5
19C
330
1F
100
AcDbEntity
  8
0
  6
Continuous
 62
     8
370
     0
100
AcDbSpline
210
0.0
220
0.0
230
1.0
 70
     8
 71
     3
 72
    25
 73
    21
 74
     0
 42
0.00000001
 43
0.00000001
 40
0.0
 40
0.0
 40
0.0
 40
0.0
 40
0.0068923971404
 40
0.0691292218271884
 40
0.1337297988109187
 40
0.1827658634905781
 40
0.2342194157565684
 40
0.288122835773727
 40
0.3386408749256956
 40
0.3874277874776337
 40
0.4409026071986218
 40
0.4990729609653953
 40
0.5311374050797474
 40
0.6117248070101482
 40
0.6737944789244964
 40
0.7446270148895263
 40
0.8070906958157568
 40
0.8569681575672579
 40
0.9372549655693337
 40
0.9999999999999999
 40
0.9999999999999999
 40
0.9999999999999999
 40
0.9999999999999999
 10
170.1874361541066
 20
293.3523781211956
 30
0.0
 10
170.1323414642649
 20
293.3794541530472
 30
0.0
 10
169.5797538872598
 20
293.6510207755066
 30
0.0
 10
168.5948770689521
 20
294.2528135373981
 30
0.0
 10
167.3575294148304
 20
295.0818615704436
 30
0.0
 10
166.2793812507734
 20
295.9155978460088
 30
0.0
 10
165.3303930256549
 20
296.7273429900507
 30
0.0
 10
164.4364791168898
 20
297.5777197316587
 30
0.0
 10
163.6191031582824
 20
298.4390676389901
 30
0.0
 10
162.8614322320421
 20
299.3190325021651
 30
0.0
 10
162.1256524862852
 20
300.2594635410911
 30
0.0
 10
161.5240328667385
 20
301.1136400537895
 30
0.0
 10
160.864941083453
 20
302.1399503161738
 30
0.0
 10
160.2582396460401
 20
303.1927054065105
 30
0.0
 10
159.6221503582573
 20
304.4724788445936
 30
0.0
 10
159.1283327852005
 20
305.6160106419609
 30
0.0
 10
158.7489842034358
 20
306.6423676404113
 30
0.0
 10
158.4336218035369
 20
307.620942774738
 30
0.0
 10
158.1937412450968
 20
308.4921391035626
 30
0.0
 10
158.1735156459205
 20
308.5692774309197
 30
0.0
 10
158.1646431047079
 20
308.6031163784129
 30
0.0
  0
SPLINE
  5
19D
330
1F
100
AcDbEntity
  8
0
  6
Continuous
 62
     8
370
     0
100
AcDbSpline
210
0.0
220
0.0
230
1.0
 70
     8
 71
     3
 72
    14
 73
    10
 74
     0
 42
0.00000001
 43
0.00000001
 40
0.0
 40
0.0
 40
0.0
 40
0.0
 40
0.25
 40
0.25
 40
0.5
 40
0.5
 40
0.75
 40
0.75
 40
1.0
 40
1.0
 40
1.0
 40
1.0
 10
200.5752301918612
 20
226.3083297998217
 30
0.0
 10
200.9051076115447
 20
226.3628450290372
 30
0.0
 10
201.2257395339876
 20
226.4801533501761
 30
0.0
 10
201.8090334622207
 20
226.8259121806904
 30
0.0
 10
202.0715433962511
 20
227.0542725465699
 30
0.0
 10
202.5059667542231
 20
227.5938375141743
 30
0.0
 10
202.6777669187576
 20
227.9049014448067
 30
0.0
 10
202.9093907253065
 20
228.5712913698761
 30
0.0
 10
202.9691539802021
 20
228.9264436284252
 30
0.0
 10
202.9691893072652
 20
229.2816885035963
 30
0.0
  0
LINE
  5
19E
330
1F
100
AcDbEntity
  8
0
  6
Continuous
 62
     8
370
     0
100
AcDbLine
 10
201.8128364314
 20
226.3083322067
 30
0.0
 11
200.5752235566
 21
226.3083322067
 31
0.0
  0
ENDSEC
  0
SECTION
  2
OBJECTS
  0
DICTIONARY
  5
C
330
0
100
AcDbDictionary
281
     1
  3
ACAD_GROUP
350
D
  3
ACAD_LAYOUT
350
1A
  3
ACAD_MATERIAL
350
3B
  3
ACAD_MLEADERSTYLE
350
1A0
  3
ACAD_MLINESTYLE
350
17
  3
ACAD_PLOTSETTINGS
350
19
  3
ACAD_PLOTSTYLENAME
350
E
  3
ACAD_TABLESTYLE
350
19F
  3
ACAD_VISUALSTYLE
350
2A
  0
DICTIONARY
  5
D
102
{ACAD_REACTORS
330
C
102
}
330
C
100
AcDbDictionary
281
     1
  0
DICTIONARY
  5
1A
102
{ACAD_REACTORS
330
C
102
}
330
C
100
AcDbDictionary
281
     1
  3
Layout1
350
1E
  3
Layout2
350
26
  3
Model
350
22
  0
DICTIONARY
  5
3B
102
{ACAD_REACTORS
330
C
102
}
330
C
100
AcDbDictionary
281
     1
  3
ByBlock
350
3D
  3
ByLayer
350
3C
  3
Global
350
3E
  0
DICTIONARY
  5
1A0
102
{ACAD_REACTORS
330
C
102
}
330
C
100
AcDbDictionary
281
     1
  0
DICTIONARY
  5
17
102
{ACAD_REACTORS
330
C
102
}
330
C
100
AcDbDictionary
281
     1
  3
Standard
350
18
  0
DICTIONARY
  5
19
102
{ACAD_REACTORS
330
C
102
}
330
C
100
AcDbDictionary
281
     1
  0
ACDBDICTIONARYWDFLT
  5
E
102
{ACAD_REACTORS
330
C
102
}
330
C
100
AcDbDictionary
281
     1
  3
Normal
350
F
100
AcDbDictionaryWithDefault
340
F
  0
DICTIONARY
  5
19F
102
{ACAD_REACTORS
330
C
102
}
330
C
100
AcDbDictionary
281
     1
  0
DICTIONARY
  5
2A
102
{ACAD_REACTORS
330
C
102
}
330
C
100
AcDbDictionary
281
     1
  3
2dWireframe
350
2F
  3
3D Hidden
350
31
  3
3dWireframe
350
30
  3
Basic
350
32
  3
Brighten
350
36
  3
ColorChange
350
3A
  3
Conceptual
350
34
  3
Dim
350
35
  3
Facepattern
350
39
  3
Flat
350
2B
  3
FlatWithEdges
350
2C
  3
Gouraud
350
2D
  3
GouraudWithEdges
350
2E
  3
Linepattern
350
38
  3
Realistic
350
33
  3
Thicken
350
37
  0
LAYOUT
  5
1E
102
{ACAD_REACTORS
330
1A
102
}
330
1A
100
AcDbPlotSettings
  1

  2
none_device
  4

  6

 40
0.0
 41
0.0
 42
0.0
 43
0.0
 44
0.0
 45
0.0
 46
0.0
 47
0.0
 48
0.0
 49
0.0
140
0.0
141
0.0
142
1.0
143
1.0
 70
   688
 72
     0
 73
     0
 74
     5
  7

 75
    16
 76
     0
 77
     2
 78
   300
147
1.0
148
0.0
149
0.0
100
AcDbLayout
  1
Layout1
 70
     1
 71
     1
 10
0.0
 20
0.0
 11
420.0
 21
297.0
 12
0.0
 22
0.0
 32
0.0
 14
1.0000000000E+20
 24
1.0000000000E+20
 34
1.0000000000E+20
 15
-1.0000000000E+20
 25
-1.0000000000E+20
 35
-1.0000000000E+20
146
0.0
 13
0.0
 23
0.0
 33
0.0
 16
1.0
 26
0.0
 36
0.0
 17
0.0
 27
1.0
 37
0.0
 76
     0
330
1B
  0
LAYOUT
  5
26
102
{ACAD_REACTORS
330
1A
102
}
330
1A
100
AcDbPlotSettings
  1

  2
none_device
  4

  6

 40
0.0
 41
0.0
 42
0.0
 43
0.0
 44
0.0
 45
0.0
 46
0.0
 47
0.0
 48
0.0
 49
0.0
140
0.0
141
0.0
142
1.0
143
1.0
 70
   688
 72
     0
 73
     0
 74
     5
  7

 75
    16
 76
     0
 77
     2
 78
   300
147
1.0
148
0.0
149
0.0
100
AcDbLayout
  1
Layout2
 70
     1
 71
     2
 10
0.0
 20
0.0
 11
0.0
 21
0.0
 12
0.0
 22
0.0
 32
0.0
 14
0.0
 24
0.0
 34
0.0
 15
0.0
 25
0.0
 35
0.0
146
0.0
 13
0.0
 23
0.0
 33
0.0
 16
1.0
 26
0.0
 36
0.0
 17
0.0
 27
1.0
 37
0.0
 76
     0
330
23
  0
LAYOUT
  5
22
102
{ACAD_REACTORS
330
1A
102
}
330
1A
100
AcDbPlotSettings
  1

  2
none_device
  4

  6

 40
0.0
 41
0.0
 42
0.0
 43
0.0
 44
0.0
 45
0.0
 46
0.0
 47
0.0
 48
0.0
 49
0.0
140
0.0
141
0.0
142
1.0
143
1.0
 70
  1712
 72
     0
 73
     0
 74
     0
  7

 75
     0
 76
     0
 77
     2
 78
   300
147
1.0
148
0.0
149
0.0
100
AcDbLayout
  1
Model
 70
     1
 71
     0
 10
0.0
 20
0.0
 11
594.0
 21
841.0
 12
0.0
 22
0.0
 32
0.0
 14
0.0
 24
0.0
 34
0.0
 15
594.0
 25
841.0
 35
0.0
146
0.0
 13
0.0
 23
0.0
 33
0.0
 16
1.0
 26
0.0
 36
0.0
 17
0.0
 27
1.0
 37
0.0
 76
     0
330
1F
331
29
  0
MATERIAL
  5
3D
102
{ACAD_REACTORS
330
3B
102
}
330
3B
100
AcDbMaterial
  1
ByBlock
 72
     1
 94
      127
  0
MATERIAL
  5
3C
102
{ACAD_REACTORS
330
3B
102
}
330
3B
100
AcDbMaterial
  1
ByLayer
 72
     1
 94
      127
  0
MATERIAL
  5
3E
102
{ACAD_REACTORS
330
3B
102
}
330
3B
100
AcDbMaterial
  1
Global
 72
     1
 94
      127
  0
MLINESTYLE
  5
18
102
{ACAD_REACTORS
330
17
102
}
330
17
100
AcDbMlineStyle
  2
Standard
 70
     0
  3

 62
   256
 51
90.0
 52
90.0
 71
     2
 49
0.5
 62
   256
  6
BYLAYER
 49
-0.5
 62
   256
  6
BYLAYER
  0
ACDBPLACEHOLDER
  5
F
102
{ACAD_REACTORS
330
E
102
}
330
E
  0
VISUALSTYLE
  5
2F
102
{ACAD_REACTORS
330
2A
102
}
330
2A
100
AcDbVisualStyle
  2
2dWireframe
 70
     4
177
     2
291
     0
 71
     0
176
     1
 72
     2
176
     1
 73
     0
176
     1
 90
        0
176
     1
 40
-0.6
176
     1
 41
-30.0
176
     1
 62
     5
 63
     7
421
 16777215
176
     1
 74
     1
176
     1
 91
        4
176
     1
 64
     7
176
     1
 65
   257
176
     1
 75
     1
176
     1
175
     1
176
     1
 42
1.0
176
     1
 92
        0
176
     1
 66
   257
176
     1
 43
1.0
176
     1
 76
     1
176
     1
 77
     6
176
     1
 78
     2
176
     1
 67
     7
176
     1
 79
     5
176
     1
170
     0
176
     1
171
     0
176
     1
290
     0
176
     1
 93
        1
176
     1
 44
0.0
176
     1
173
     0
176
     1
  0
VISUALSTYLE
  5
31
102
{ACAD_REACTORS
330
2A
102
}
330
2A
100
AcDbVisualStyle
  2
3D Hidden
 70
     6
177
     2
291
     0
 71
     1
176
     1
 72
     2
176
     1
 73
     2
176
     1
 90
        0
176
     1
 40
-0.6
176
     1
 41
-30.0
176
     1
 62
     5
 63
     7
421
 16777215
176
     1
 74
     2
176
     1
 91
        2
176
     1
 64
     7
176
     1
 65
   257
176
     1
 75
     2
176
     1
175
     1
176
     1
 42
40.0
176
     1
 92
        0
176
     1
 66
   257
176
     1
 43
1.0
176
     1
 76
     1
176
     1
 77
     6
176
     1
 78
     2
176
     1
 67
     7
176
     1
 79
     3
176
     1
170
     0
176
     1
171
     0
176
     1
290
     0
176
     1
 93
        1
176
     1
 44
0.0
176
     1
173
     0
176
     1
  0
VISUALSTYLE
  5
30
102
{ACAD_REACTORS
330
2A
102
}
330
2A
100
AcDbVisualStyle
  2
3dWireframe
 70
     5
177
     2
291
     0
 71
     0
176
     1
 72
     2
176
     1
 73
     0
176
     1
 90
        0
176
     1
 40
-0.6
176
     1
 41
-30.0
176
     1
 62
     5
 63
     7
421
 16777215
176
     1
 74
     1
176
     1
 91
        4
176
     1
 64
     7
176
     1
 65
   257
176
     1
 75
     1
176
     1
175
     1
176
     1
 42
1.0
176
     1
 92
        0
176
     1
 66
   257
176
     1
 43
1.0
176
     1
 76
     1
176
     1
 77
     6
176
     1
 78
     2
176
     1
 67
     7
176
     1
 79
     5
176
     1
170
     0
176
     1
171
     0
176
     1
290
     0
176
     1
 93
        1
176
     1
 44
0.0
176
     1
173
     0
176
     1
  0
VISUALSTYLE
  5
32
102
{ACAD_REACTORS
330
2A
102
}
330
2A
100
AcDbVisualStyle
  2
Basic
 70
     7
177
     2
291
     1
 71
     1
176
     1
 72
     0
176
     1
 73
     1
176
     1
 90
        0
176
     1
 40
-0.6
176
     1
 41
-30.0
176
     1
 62
     5
 63
     7
421
 16777215
176
     1
 74
     0
176
     1
 91
        4
176
     1
 64
     7
176
     1
 65
   257
176
     1
 75
     1
176
     1
175
     1
176
     1
 42
1.0
176
     1
 92
        8
176
     1
 66
     7
176
     1
 43
1.0
176
     1
 76
     1
176
     1
 77
     6
176
     1
 78
     2
176
     1
 67
     7
176
     1
 79
     5
176
     1
170
     0
176
     1
171
     0
176
     1
290
     0
176
     1
 93
        1
176
     1
 44
0.0
176
     1
173
     0
176
     1
  0
VISUALSTYLE
  5
36
102
{ACAD_REACTORS
330
2A
102
}
330
2A
100
AcDbVisualStyle
  2
Brighten
 70
    12
177
     2
291
     1
 71
     2
176
     1
 72
     2
176
     1
 73
     0
176
     1
 90
        0
176
     1
 40
-0.6
176
     1
 41
-30.0
176
     1
 62
     5
 63
     7
421
 16777215
176
     1
 74
     1
176
     1
 91
        4
176
     1
 64
     7
176
     1
 65
   257
176
     1
 75
     1
176
     1
175
     1
176
     1
 42
1.0
176
     1
 92
        8
176
     1
 66
     7
176
     1
 43
1.0
176
     1
 76
     1
176
     1
 77
     6
176
     1
 78
     2
176
     1
 67
     7
176
     1
 79
     5
176
     1
170
     0
176
     1
171
     0
176
     1
290
     0
176
     1
 93
        1
176
     1
 44
50.0
176
     1
173
     0
176
     1
  0
VISUALSTYLE
  5
3A
102
{ACAD_REACTORS
330
2A
102
}
330
2A
100
AcDbVisualStyle
  2
ColorChange
 70
    16
177
     2
291
     1
 71
     2
176
     1
 72
     2
176
     1
 73
     3
176
     1
 90
        0
176
     1
 40
-0.6
176
     1
 41
-30.0
176
     1
 62
     5
 63
     8
421
  8421504
176
     1
 74
     1
176
     1
 91
        4
176
     1
 64
     7
176
     1
 65
   257
176
     1
 75
     1
176
     1
175
     1
176
     1
 42
1.0
176
     1
 92
        8
176
     1
 66
     8
424
  8421504
176
     1
 43
1.0
176
     1
 76
     1
176
     1
 77
     6
176
     1
 78
     2
176
     1
 67
     7
176
     1
 79
     5
176
     1
170
     0
176
     1
171
     0
176
     1
290
     0
176
     1
 93
        1
176
     1
 44
0.0
176
     1
173
     0
176
     1
  0
VISUALSTYLE
  5
34
102
{ACAD_REACTORS
330
2A
102
}
330
2A
100
AcDbVisualStyle
  2
Conceptual
 70
     9
177
     2
291
     0
 71
     3
176
     1
 72
     2
176
     1
 73
     0
176
     1
 90
        0
176
     1
 40
-0.6
176
     1
 41
-30.0
176
     1
 62
     5
 63
     7
421
 16777215
176
     1
 74
     2
176
     1
 91
        2
176
     1
 64
     7
176
     1
 65
   257
176
     1
 75
     1
176
     1
175
     1
176
     1
 42
40.0
176
     1
 92
        8
176
     1
 66
     7
176
     1
 43
1.0
176
     1
 76
     1
176
     1
 77
     6
176
     1
 78
     2
176
     1
 67
     7
176
     1
 79
     3
176
     1
170
     0
176
     1
171
     0
176
     1
290
     0
176
     1
 93
        1
176
     1
 44
0.0
176
     1
173
     0
176
     1
  0
VISUALSTYLE
  5
35
102
{ACAD_REACTORS
330
2A
102
}
330
2A
100
AcDbVisualStyle
  2
Dim
 70
    11
177
     2
291
     1
 71
     2
176
     1
 72
     2
176
     1
 73
     0
176
     1
 90
        0
176
     1
 40
-0.6
176
     1
 41
-30.0
176
     1
 62
     5
 63
     7
421
 16777215
176
     1
 74
     1
176
     1
 91
        4
176
     1
 64
     7
176
     1
 65
   257
176
     1
 75
     1
176
     1
175
     1
176
     1
 42
1.0
176
     1
 92
        8
176
     1
 66
     7
176
     1
 43
1.0
176
     1
 76
     1
176
     1
 77
     6
176
     1
 78
     2
176
     1
 67
     7
176
     1
 79
     5
176
     1
170
     0
176
     1
171
     0
176
     1
290
     0
176
     1
 93
        1
176
     1
 44
-50.0
176
     1
173
     0
176
     1
  0
VISUALSTYLE
  5
39
102
{ACAD_REACTORS
330
2A
102
}
330
2A
100
AcDbVisualStyle
  2
Facepattern
 70
    15
177
     2
291
     1
 71
     2
176
     1
 72
     2
176
     1
 73
     0
176
     1
 90
        0
176
     1
 40
-0.6
176
     1
 41
-30.0
176
     1
 62
     5
 63
     7
421
 16777215
176
     1
 74
     1
176
     1
 91
        4
176
     1
 64
     7
176
     1
 65
   257
176
     1
 75
     1
176
     1
175
     1
176
     1
 42
1.0
176
     1
 92
        8
176
     1
 66
     7
176
     1
 43
1.0
176
     1
 76
     1
176
     1
 77
     6
176
     1
 78
     2
176
     1
 67
     7
176
     1
 79
     5
176
     1
170
     0
176
     1
171
     0
176
     1
290
     0
176
     1
 93
        1
176
     1
 44
0.0
176
     1
173
     0
176
     1
  0
VISUALSTYLE
  5
2B
102
{ACAD_REACTORS
330
2A
102
}
330
2A
100
AcDbVisualStyle
  2
Flat
 70
     0
177
     2
291
     1
 71
     2
176
     1
 72
     1
176
     1
 73
     1
176
     1
 90
        2
176
     1
 40
-0.6
176
     1
 41
30.0
176
     1
 62
     5
 63
     7
421
 16777215
176
     1
 74
     0
176
     1
 91
        4
176
     1
 64
     7
176
     1
 65
   257
176
     1
 75
     1
176
     1
175
     1
176
     1
 42
1.0
176
     1
 92
        8
176
     1
 66
     7
176
     1
 43
1.0
176
     1
 76
     1
176
     1
 77
     6
176
     1
 78
     2
176
     1
 67
     7
176
     1
 79
     5
176
     1
170
     0
176
     1
171
     0
176
     1
290
     0
176
     1
 93
       13
176
     1
 44
0.0
176
     1
173
     0
176
     1
  0
VISUALSTYLE
  5
2C
102
{ACAD_REACTORS
330
2A
102
}
330
2A
100
AcDbVisualStyle
  2
FlatWithEdges
 70
     1
177
     2
291
     1
 71
     2
176
     1
 72
     1
176
     1
 73
     1
176
     1
 90
        2
176
     1
 40
-0.6
176
     1
 41
30.0
176
     1
 62
     5
 63
     7
421
 16777215
176
     1
 74
     1
176
     1
 91
        4
176
     1
 64
     7
176
     1
 65
   257
176
     1
 75
     1
176
     1
175
     1
176
     1
 42
1.0
176
     1
 92
        0
176
     1
 66
   257
176
     1
 43
1.0
176
     1
 76
     1
176
     1
 77
     6
176
     1
 78
     2
176
     1
 67
     7
176
     1
 79
     5
176
     1
170
     0
176
     1
171
     0
176
     1
290
     0
176
     1
 93
       13
176
     1
 44
0.0
176
     1
173
     0
176
     1
  0
VISUALSTYLE
  5
2D
102
{ACAD_REACTORS
330
2A
102
}
330
2A
100
AcDbVisualStyle
  2
Gouraud
 70
     2
177
     2
291
     1
 71
     2
176
     1
 72
     2
176
     1
 73
     1
176
     1
 90
        2
176
     1
 40
-0.6
176
     1
 41
30.0
176
     1
 62
     5
 63
     7
421
 16777215
176
     1
 74
     0
176
     1
 91
        4
176
     1
 64
     7
176
     1
 65
   257
176
     1
 75
     1
176
     1
175
     1
176
     1
 42
1.0
176
     1
 92
        0
176
     1
 66
     7
176
     1
 43
1.0
176
     1
 76
     1
176
     1
 77
     6
176
     1
 78
     2
176
     1
 67
     7
176
     1
 79
     5
176
     1
170
     0
176
     1
171
     0
176
     1
290
     0
176
     1
 93
       13
176
     1
 44
0.0
176
     1
173
     0
176
     1
  0
VISUALSTYLE
  5
2E
102
{ACAD_REACTORS
330
2A
102
}
330
2A
100
AcDbVisualStyle
  2
GouraudWithEdges
 70
     3
177
     2
291
     1
 71
     2
176
     1
 72
     2
176
     1
 73
     1
176
     1
 90
        2
176
     1
 40
-0.6
176
     1
 41
30.0
176
     1
 62
     5
 63
     7
421
 16777215
176
     1
 74
     1
176
     1
 91
        4
176
     1
 64
     7
176
     1
 65
   257
176
     1
 75
     1
176
     1
175
     1
176
     1
 42
1.0
176
     1
 92
        0
176
     1
 66
   257
176
     1
 43
1.0
176
     1
 76
     1
176
     1
 77
     6
176
     1
 78
     2
176
     1
 67
     7
176
     1
 79
     5
176
     1
170
     0
176
     1
171
     0
176
     1
290
     0
176
     1
 93
       13
176
     1
 44
0.0
176
     1
173
     0
176
     1
  0
VISUALSTYLE
  5
38
102
{ACAD_REACTORS
330
2A
102
}
330
2A
100
AcDbVisualStyle
  2
Linepattern
 70
    14
177
     2
291
     1
 71
     2
176
     1
 72
     2
176
     1
 73
     0
176
     1
 90
        0
176
     1
 40
-0.6
176
     1
 41
-30.0
176
     1
 62
     5
 63
     7
421
 16777215
176
     1
 74
     1
176
     1
 91
        4
176
     1
 64
     7
176
     1
 65
   257
176
     1
 75
     7
176
     1
175
     7
176
     1
 42
1.0
176
     1
 92
        8
176
     1
 66
     7
176
     1
 43
1.0
176
     1
 76
     1
176
     1
 77
     6
176
     1
 78
     2
176
     1
 67
     7
176
     1
 79
     5
176
     1
170
     0
176
     1
171
     0
176
     1
290
     0
176
     1
 93
        1
176
     1
 44
0.0
176
     1
173
     0
176
     1
  0
VISUALSTYLE
  5
33
102
{ACAD_REACTORS
330
2A
102
}
330
2A
100
AcDbVisualStyle
  2
Realistic
 70
     8
177
     2
291
     0
 71
     2
176
     1
 72
     2
176
     1
 73
     0
176
     1
 90
        0
176
     1
 40
-0.6
176
     1
 41
-30.0
176
     1
 62
     5
 63
     7
421
 16777215
176
     1
 74
     1
176
     1
 91
        0
176
     1
 64
     7
176
     1
 65
   257
176
     1
 75
     1
176
     1
175
     1
176
     1
 42
1.0
176
     1
 92
        8
176
     1
 66
     8
424
  7895160
176
     1
 43
1.0
176
     1
 76
     1
176
     1
 77
     6
176
     1
 78
     2
176
     1
 67
     7
176
     1
 79
     5
176
     1
170
     0
176
     1
171
     0
176
     1
290
     0
176
     1
 93
       13
176
     1
 44
0.0
176
     1
173
     0
176
     1
  0
VISUALSTYLE
  5
37
102
{ACAD_REACTORS
330
2A
102
}
330
2A
100
AcDbVisualStyle
  2
Thicken
 70
    13
177
     2
291
     1
 71
     2
176
     1
 72
     2
176
     1
 73
     0
176
     1
 90
        0
176
     1
 40
-0.6
176
     1
 41
-30.0
176
     1
 62
     5
 63
     7
421
 16777215
176
     1
 74
     1
176
     1
 91
        4
176
     1
 64
     7
176
     1
 65
   257
176
     1
 75
     1
176
     1
175
     1
176
     1
 42
1.0
176
     1
 92
       12
176
     1
 66
     7
176
     1
 43
1.0
176
     1
 76
     1
176
     1
 77
     6
176
     1
 78
     2
176
     1
 67
     7
176
     1
 79
     5
176
     1
170
     0
176
     1
171
     0
176
     1
290
     0
176
     1
 93
        1
176
     1
 44
0.0
176
     1
173
     0
176
     1
  0
ENDSEC
  0
EOF
