  0
SECTION
  2
HEADER
  9
$ACADVER
  1
AC1015
  9
$ACADMAINTVER
 70
     6
  9
$DWGCODEPAGE
  3
ANSI_1252
  9
$INSBASE
 10
0.0
 20
0.0
 30
0.0
  9
$EXTMIN
 10
0.0
 20
0.0
 30
0.0
  9
$EXTMAX
 10
594.0
 20
841.0
 30
0.0
  9
$LIMMIN
 10
0.0
 20
0.0
  9
$LIMMAX
 10
594.0
 20
841.0
  9
$ORTHOMODE
 70
     0
  9
$REGENMODE
 70
     1
  9
$FILLMODE
 70
     1
  9
$QTEXTMODE
 70
     0
  9
$MIRRTEXT
 70
     1
  9
$LTSCALE
 40
1.0
  9
$ATTMODE
 70
     1
  9
$TEXTSIZE
 40
10.0
  9
$TRACEWID
 40
1.0
  9
$TEXTSTYLE
  7
Standard
  9
$CLAYER
  8
0
  9
$CELTYPE
  6
ByLayer
  9
$CECOLOR
 62
   256
  9
$CELTSCALE
 40
1.0
  9
$DISPSILH
 70
     0
  9
$DIMSCALE
 40
1.0
  9
$DIMASZ
 40
2.5
  9
$DIMEXO
 40
0.0
  9
$DIMDLI
 40
3.75
  9
$DIMRND
 40
0.0
  9
$DIMDLE
 40
0.0
  9
$DIMEXE
 40
1.0
  9
$DIMTP
 40
0.0
  9
$DIMTM
 40
0.0
  9
$DIMTXT
 40
3.5
  9
$DIMCEN
 40
2.5
  9
$DIMTSZ
 40
0.0
  9
$DIMTOL
 70
     0
  9
$DIMLIM
 70
     0
  9
$DIMTIH
 70
     1
  9
$DIMTOH
 70
     1
  9
$DIMSE1
 70
     0
  9
$DIMSE2
 70
     0
  9
$DIMTAD
 70
     1
  9
$DIMZIN
 70
     0
  9
$DIMBLK
  1

  9
$DIMASO
 70
     1
  9
$DIMSHO
 70
     1
  9
$DIMPOST
  1

  9
$DIMAPOST
  1

  9
$DIMALT
 70
     0
  9
$DIMALTD
 70
     3
  9
$DIMALTF
 40
0.0393700787
  9
$DIMLFAC
 40
1.0
  9
$DIMTOFL
 70
     1
  9
$DIMTVP
 40
0.0
  9
$DIMTIX
 70
     0
  9
$DIMSOXD
 70
     0
  9
$DIMSAH
 70
     0
  9
$DIMBLK1
  1

  9
$DIMBLK2
  1

  9
$DIMSTYLE
  2
ISO-25
  9
$DIMCLRD
 70
     0
  9
$DIMCLRE
 70
     0
  9
$DIMCLRT
 70
     0
  9
$DIMTFAC
 40
1.0
  9
$DIMGAP
 40
1.5
  9
$DIMJUST
 70
     0
  9
$DIMSD1
 70
     0
  9
$DIMSD2
 70
     0
  9
$DIMTOLJ
 70
     0
  9
$DIMTZIN
 70
     0
  9
$DIMALTZ
 70
     0
  9
$DIMALTTZ
 70
     0
  9
$DIMUPT
 70
     0
  9
$DIMDEC
 70
     2
  9
$DIMTDEC
 70
     2
  9
$DIMALTU
 70
     2
  9
$DIMALTTD
 70
     3
  9
$DIMTXSTY
  7
Standard
  9
$DIMAUNIT
 70
     0
  9
$DIMADEC
 70
     2
  9
$DIMALTRND
 40
0.0
  9
$DIMAZIN
 70
     0
  9
$DIMDSEP
 70
    44
  9
$DIMATFIT
 70
     3
  9
$DIMFRAC
 70
     0
  9
$DIMLDRBLK
  1

  9
$DIMLUNIT
 70
     2
  9
$DIMLWD
 70
    -2
  9
$DIMLWE
 70
    -2
  9
$DIMTMOVE
 70
     0
  9
$LUNITS
 70
     2
  9
$LUPREC
 70
     2
  9
$SKETCHINC
 40
1.0
  9
$FILLETRAD
 40
10.0
  9
$AUNITS
 70
     0
  9
$AUPREC
 70
     2
  9
$MENU
  1
.
  9
$ELEVATION
 40
0.0
  9
$PELEVATION
 40
0.0
  9
$THICKNESS
 40
0.0
  9
$LIMCHECK
 70
     0
  9
$CHAMFERA
 40
10.0
  9
$CHAMFERB
 40
10.0
  9
$CHAMFERC
 40
20.0
  9
$CHAMFERD
 40
0.0
  9
$SKPOLY
 70
     0
  9
$TDCREATE
 40
2456169.49555412
  9
$TDUCREATE
 40
2456169.412220787
  9
$TDUPDATE
 40
2456169.495554132
  9
$TDUUPDATE
 40
2456169.412220798
  9
$TDINDWG
 40
0.0000000116
  9
$TDUSRTIMER
 40
0.0000000116
  9
$USRTIMER
 70
     1
  9
$ANGBASE
 50
0.0
  9
$ANGDIR
 70
     0
  9
$PDMODE
 70
     0
  9
$PDSIZE
 40
-1.0
  9
$PLINEWID
 40
0.0
  9
$SPLFRAME
 70
     0
  9
$SPLINETYPE
 70
     6
  9
$SPLINESEGS
 70
     8
  9
$HANDSEED
  5
19F
  9
$SURFTAB1
 70
     6
  9
$SURFTAB2
 70
     6
  9
$SURFTYPE
 70
     6
  9
$SURFU
 70
     6
  9
$SURFV
 70
     6
  9
$UCSBASE
  2

  9
$UCSNAME
  2

  9
$UCSORG
 10
0.0
 20
0.0
 30
0.0
  9
$UCSXDIR
 10
1.0
 20
0.0
 30
0.0
  9
$UCSYDIR
 10
0.0
 20
1.0
 30
0.0
  9
$UCSORTHOREF
  2

  9
$UCSORTHOVIEW
 70
     0
  9
$UCSORGTOP
 10
0.0
 20
0.0
 30
0.0
  9
$UCSORGBOTTOM
 10
0.0
 20
0.0
 30
0.0
  9
$UCSORGLEFT
 10
0.0
 20
0.0
 30
0.0
  9
$UCSORGRIGHT
 10
0.0
 20
0.0
 30
0.0
  9
$UCSORGFRONT
 10
0.0
 20
0.0
 30
0.0
  9
$UCSORGBACK
 10
0.0
 20
0.0
 30
0.0
  9
$PUCSBASE
  2

  9
$PUCSNAME
  2

  9
$PUCSORG
 10
0.0
 20
0.0
 30
0.0
  9
$PUCSXDIR
 10
1.0
 20
0.0
 30
0.0
  9
$PUCSYDIR
 10
0.0
 20
1.0
 30
0.0
  9
$PUCSORTHOREF
  2

  9
$PUCSORTHOVIEW
 70
     0
  9
$PUCSORGTOP
 10
0.0
 20
0.0
 30
0.0
  9
$PUCSORGBOTTOM
 10
0.0
 20
0.0
 30
0.0
  9
$PUCSORGLEFT
 10
0.0
 20
0.0
 30
0.0
  9
$PUCSORGRIGHT
 10
0.0
 20
0.0
 30
0.0
  9
$PUCSORGFRONT
 10
0.0
 20
0.0
 30
0.0
  9
$PUCSORGBACK
 10
0.0
 20
0.0
 30
0.0
  9
$USERI1
 70
     0
  9
$USERI2
 70
     0
  9
$USERI3
 70
     0
  9
$USERI4
 70
     0
  9
$USERI5
 70
     0
  9
$USERR1
 40
0.0
  9
$USERR2
 40
0.0
  9
$USERR3
 40
0.0
  9
$USERR4
 40
0.0
  9
$USERR5
 40
0.0
  9
$WORLDVIEW
 70
     1
  9
$SHADEDGE
 70
     3
  9
$SHADEDIF
 70
    70
  9
$TILEMODE
 70
     1
  9
$MAXACTVP
 70
    64
  9
$PINSBASE
 10
0.0
 20
0.0
 30
0.0
  9
$PLIMCHECK
 70
     0
  9
$PEXTMIN
 10
1.0000000000E+20
 20
1.0000000000E+20
 30
1.0000000000E+20
  9
$PEXTMAX
 10
-1.0000000000E+20
 20
-1.0000000000E+20
 30
-1.0000000000E+20
  9
$PLIMMIN
 10
0.0
 20
0.0
  9
$PLIMMAX
 10
420.0
 20
297.0
  9
$UNITMODE
 70
     0
  9
$VISRETAIN
 70
     1
  9
$PLINEGEN
 70
     0
  9
$PSLTSCALE
 70
     1
  9
$TREEDEPTH
 70
  3020
  9
$CMLSTYLE
  2
Standard
  9
$CMLJUST
 70
     0
  9
$CMLSCALE
 40
20.0
  9
$PROXYGRAPHICS
 70
     1
  9
$MEASUREMENT
 70
     1
  9
$CELWEIGHT
370
    -1
  9
$ENDCAPS
280
     0
  9
$JOINSTYLE
280
     0
  9
$LWDISPLAY
290
     1
  9
$INSUNITS
 70
     4
  9
$HYPERLINKBASE
  1

  9
$STYLESHEET
  1

  9
$XEDIT
290
     1
  9
$CEPSNTYPE
380
     0
  9
$PSTYLEMODE
290
     1
  9
$FINGERPRINTGUID
  2
{310BF913-A88C-4EFD-AC7F-7A91B8AED2A7}
  9
$VERSIONGUID
  2
{FAEB1C32-E019-11D5-929B-00C0DF256EC4}
  9
$EXTNAMES
290
     1
  9
$PSVPSCALE
 40
0.0
  9
$OLESTARTUP
290
     0
  0
ENDSEC
  0
SECTION
  2
CLASSES
  0
CLASS
  1
ACDBDICTIONARYWDFLT
  2
AcDbDictionaryWithDefault
  3
ObjectDBX Classes
 90
        0
280
     0
281
     0
  0
CLASS
  1
VISUALSTYLE
  2
AcDbVisualStyle
  3
ObjectDBX Classes
 90
     4095
280
     0
281
     0
  0
CLASS
  1
MATERIAL
  2
AcDbMaterial
  3
ObjectDBX Classes
 90
     1153
280
     0
281
     0
  0
CLASS
  1
ACDBPLACEHOLDER
  2
AcDbPlaceHolder
  3
ObjectDBX Classes
 90
        0
280
     0
281
     0
  0
CLASS
  1
LAYOUT
  2
AcDbLayout
  3
ObjectDBX Classes
 90
        0
280
     0
281
     0
  0
ENDSEC
  0
SECTION
  2
TABLES
  0
TABLE
  2
VPORT
  5
8
330
0
100
AcDbSymbolTable
 70
     1
  0
VPORT
  5
29
330
8
100
AcDbSymbolTableRecord
100
AcDbViewportTableRecord
  2
*Active
 70
     0
 10
0.0
 20
0.0
 11
1.0
 21
1.0
 12
297.0
 22
420.5
 13
0.0
 23
0.0
 14
10.0
 24
10.0
 15
10.0
 25
10.0
 16
0.0
 26
0.0
 36
1.0
 17
0.0
 27
0.0
 37
0.0
 40
841.0
 41
0.7063020214
 42
50.0
 43
0.0
 44
0.0
 50
0.0
 51
0.0
 71
     0
 72
  2000
 73
     1
 74
     3
 75
     0
 76
     0
 77
     0
 78
     0
281
     0
 65
     1
110
0.0
120
0.0
130
0.0
111
1.0
121
0.0
131
0.0
112
0.0
122
1.0
132
0.0
 79
     0
146
0.0
  0
ENDTAB
  0
TABLE
  2
LTYPE
  5
5
330
0
100
AcDbSymbolTable
 70
     8
  0
LTYPE
  5
14
330
5
100
AcDbSymbolTableRecord
100
AcDbLinetypeTableRecord
  2
ByBlock
 70
     0
  3

 72
    65
 73
     0
 40
0.0
  0
LTYPE
  5
15
330
5
100
AcDbSymbolTableRecord
100
AcDbLinetypeTableRecord
  2
ByLayer
 70
     0
  3

 72
    65
 73
     0
 40
0.0
  0
LTYPE
  5
16
330
5
100
AcDbSymbolTableRecord
100
AcDbLinetypeTableRecord
  2
Continuous
 70
     0
  3
Solid line
 72
    65
 73
     0
 40
0.0
  0
LTYPE
  5
3F
330
5
100
AcDbSymbolTableRecord
100
AcDbLinetypeTableRecord
  2
SLD-Durchgehend
 70
     0
  3
SolidWorks Line Style
 72
    65
 73
     0
 40
0.0
  0
LTYPE
  5
40
330
5
100
AcDbSymbolTableRecord
100
AcDbLinetypeTableRecord
  2
SLD-Gestrichelt
 70
     0
  3
SolidWorks Line Style
 72
    65
 73
     2
 40
1.905
 49
1.27
 74
     0
 49
-0.635
 74
     0
  0
LTYPE
  5
41
330
5
100
AcDbSymbolTableRecord
100
AcDbLinetypeTableRecord
  2
SLD-Phantom
 70
     0
  3
SolidWorks Line Style
 72
    65
 73
     6
 40
12.7
 49
6.35
 74
     0
 49
-1.27
 74
     0
 49
1.27
 74
     0
 49
-1.27
 74
     0
 49
1.27
 74
     0
 49
-1.27
 74
     0
  0
LTYPE
  5
42
330
5
100
AcDbSymbolTableRecord
100
AcDbLinetypeTableRecord
  2
SLD-Kette
 70
     0
  3
SolidWorks Line Style
 72
    65
 73
     4
 40
10.16
 49
6.35
 74
     0
 49
-1.27
 74
     0
 49
1.27
 74
     0
 49
-1.27
 74
     0
  0
LTYPE
  5
43
330
5
100
AcDbSymbolTableRecord
100
AcDbLinetypeTableRecord
  2
SLD-Punktstrich
 70
     0
  3
SolidWorks Line Style
 72
    65
 73
     4
 40
19.05
 49
15.24
 74
     0
 49
-1.27
 74
     0
 49
1.27
 74
     0
 49
-1.27
 74
     0
  0
LTYPE
  5
44
330
5
100
AcDbSymbolTableRecord
100
AcDbLinetypeTableRecord
  2
SLD-Naht
 70
     0
  3
SolidWorks Line Style
 72
    65
 73
     2
 40
0.635
 49
0.0
 74
     0
 49
-0.635
 74
     0
  0
LTYPE
  5
45
330
5
100
AcDbSymbolTableRecord
100
AcDbLinetypeTableRecord
  2
SLD-Dicke-Dünne-Kette
 70
     0
  3
SolidWorks Line Style
 72
    65
 73
     4
 40
10.16
 49
6.35
 74
     0
 49
-1.27
 74
     0
 49
1.27
 74
     0
 49
-1.27
 74
     0
  0
ENDTAB
  0
TABLE
  2
LAYER
  5
2
330
0
100
AcDbSymbolTable
 70
     1
  0
LAYER
  5
10
330
2
100
AcDbSymbolTableRecord
100
AcDbLayerTableRecord
  2
0
 70
     0
 62
     7
  6
Continuous
370
    -3
390
F
  0
ENDTAB
  0
TABLE
  2
STYLE
  5
3
330
0
100
AcDbSymbolTable
 70
     3
  0
STYLE
  5
11
330
3
100
AcDbSymbolTableRecord
100
AcDbTextStyleTableRecord
  2
Standard
 70
     0
 40
0.0
 41
1.0
 50
0.0
 71
     0
 42
2.5
  3
txt
  4

  0
STYLE
  5
49
330
3
100
AcDbSymbolTableRecord
100
AcDbTextStyleTableRecord
  2
SLDTEXTSTYLE0
 70
     0
 40
0.0
 41
0.96
 50
0.0
 71
     0
 42
0.2
  3
ISOCP3
  4

  0
STYLE
  5
60
330
3
100
AcDbSymbolTableRecord
100
AcDbTextStyleTableRecord
  2
SLDTEXTSTYLE1
 70
     0
 40
0.0
 41
0.605
 50
0.0
 71
     0
 42
0.2
  3
TXT
  4

  0
ENDTAB
  0
TABLE
  2
VIEW
  5
6
330
0
100
AcDbSymbolTable
 70
     0
  0
ENDTAB
  0
TABLE
  2
UCS
  5
7
330
0
100
AcDbSymbolTable
 70
     0
  0
ENDTAB
  0
TABLE
  2
APPID
  5
9
330
0
100
AcDbSymbolTable
 70
     1
  0
APPID
  5
12
330
9
100
AcDbSymbolTableRecord
100
AcDbRegAppTableRecord
  2
ACAD
 70
     0
  0
ENDTAB
  0
TABLE
  2
DIMSTYLE
  5
A
330
0
100
AcDbSymbolTable
 70
     2
100
AcDbDimStyleTable
  0
DIMSTYLE
105
27
330
A
100
AcDbSymbolTableRecord
100
AcDbDimStyleTableRecord
  2
ISO-25
 70
     0
 41
2.5
 42
0.625
 43
3.75
 44
1.25
 73
     0
 74
     0
 77
     1
 78
     8
140
2.5
141
2.5
143
0.0393700787
147
0.625
171
     3
172
     1
178
     0
271
     2
272
     2
274
     3
278
    44
283
     0
284
     8
340
11
  0
DIMSTYLE
105
4A
102
{ACAD_REACTORS
330
48
330
55
102
}
330
A
100
AcDbSymbolTableRecord
100
AcDbDimStyleTableRecord
  2
SLDDIMSTYLE0
 70
     0
 41
2.5
 44
0.0
 45
0.000000001
 73
     0
 74
     0
 77
     1
 78
    12
 79
     3
140
6.0
147
1.5
173
     1
178
     0
271
     2
272
     2
276
     2
284
    12
340
49
  0
ENDTAB
  0
TABLE
  2
BLOCK_RECORD
  5
1
330
0
100
AcDbSymbolTable
 70
     3
  0
BLOCK_RECORD
  5
1F
330
1
100
AcDbSymbolTableRecord
100
AcDbBlockTableRecord
  2
*Model_Space
340
22
  0
BLOCK_RECORD
  5
1B
330
1
100
AcDbSymbolTableRecord
100
AcDbBlockTableRecord
  2
*Paper_Space
340
1E
  0
BLOCK_RECORD
  5
23
330
1
100
AcDbSymbolTableRecord
100
AcDbBlockTableRecord
  2
*Paper_Space0
340
26
  0
BLOCK_RECORD
  5
4B
330
1
100
AcDbSymbolTableRecord
100
AcDbBlockTableRecord
  2
*D1
340
0
  0
BLOCK_RECORD
  5
56
330
1
100
AcDbSymbolTableRecord
100
AcDbBlockTableRecord
  2
*D2
340
0
  0
ENDTAB
  0
ENDSEC
  0
SECTION
  2
BLOCKS
  0
BLOCK
  5
20
330
1F
100
AcDbEntity
  8
0
100
AcDbBlockBegin
  2
*Model_Space
 70
     0
 10
0.0
 20
0.0
 30
0.0
  3
*Model_Space
  1

  0
ENDBLK
  5
21
330
1F
100
AcDbEntity
  8
0
100
AcDbBlockEnd
  0
BLOCK
  5
1C
330
1B
100
AcDbEntity
 67
     1
  8
0
100
AcDbBlockBegin
  2
*Paper_Space
 70
     0
 10
0.0
 20
0.0
 30
0.0
  3
*Paper_Space
  1

  0
ENDBLK
  5
1D
330
1B
100
AcDbEntity
 67
     1
  8
0
100
AcDbBlockEnd
  0
BLOCK
  5
24
330
23
100
AcDbEntity
  8
0
100
AcDbBlockBegin
  2
*Paper_Space0
 70
     0
 10
0.0
 20
0.0
 30
0.0
  3
*Paper_Space0
  1

  0
ENDBLK
  5
25
330
23
100
AcDbEntity
  8
0
100
AcDbBlockEnd
  0
BLOCK
  5
4C
330
4B
100
AcDbEntity
  8
0
100
AcDbBlockBegin
  2
*D1
 70
     1
 10
0.0
 20
0.0
 30
0.0
  3
*D1
  1

  0
SOLID
  5
4E
330
4B
100
AcDbEntity
  8
0
  6
SLD-Durchgehend
 62
     7
370
     0
100
AcDbTrace
 10
42.7614395004
 20
152.0299240879
 30
0.0
 11
42.4614395004
 21
149.5299240879
 31
0.0
 12
43.0614395004
 22
149.5299240879
 32
0.0
 13
43.0614395004
 23
149.5299240879
 33
0.0
  0
SOLID
  5
4F
330
4B
100
AcDbEntity
  8
0
  6
SLD-Durchgehend
 62
     7
370
     0
100
AcDbTrace
 10
42.7614395004
 20
52.0299240879
 30
0.0
 11
43.0614395004
 21
54.5299240879
 31
0.0
 12
42.4614395004
 22
54.5299240879
 32
0.0
 13
42.4614395004
 23
54.5299240879
 33
0.0
  0
LINE
  5
50
330
4B
100
AcDbEntity
  8
0
  6
SLD-Durchgehend
 62
     7
370
     0
100
AcDbLine
 10
56.6850079902
 20
152.0299240879
 30
0.0
 11
41.7614395004
 21
152.0299240879
 31
0.0
  0
LINE
  5
51
330
4B
100
AcDbEntity
  8
0
  6
SLD-Durchgehend
 62
     7
370
     0
100
AcDbLine
 10
56.6850079902
 20
52.0299240879
 30
0.0
 11
41.7614395004
 21
52.0299240879
 31
0.0
  0
LINE
  5
52
330
4B
100
AcDbEntity
  8
0
  6
SLD-Durchgehend
 62
     7
370
     0
100
AcDbLine
 10
42.7614395004
 20
152.0299240879
 30
0.0
 11
42.7614395004
 21
52.0299240879
 31
0.0
  0
MTEXT
  5
53
330
4B
100
AcDbEntity
  8
0
  6
SLD-Durchgehend
 62
     7
370
     0
100
AcDbMText
 10
35.0270332946
 20
91.6722208134
 30
0.1
 40
6.0
 41
0.0
 71
     1
 72
     1
  1
100
  7
SLDTEXTSTYLE0
 11
-7.044195017643634E-15
 21
1.0
 31
0.0
 73
     1
 44
1.0
  0
MTEXT
  5
54
330
4B
100
AcDbEntity
  8
0
  6
SLD-Durchgehend
 62
     7
370
     0
100
AcDbMText
 10
35.0270332946
 20
108.4388881795
 30
0.1
 40
6.0
 41
0.0
 71
     1
 72
     1
  1
mm
  7
SLDTEXTSTYLE0
 11
-7.044195017643634E-15
 21
1.0
 31
0.0
 73
     1
 44
1.0
  0
ENDBLK
  5
4D
330
4B
100
AcDbEntity
  8
0
100
AcDbBlockEnd
  0
BLOCK
  5
57
330
56
100
AcDbEntity
  8
0
100
AcDbBlockBegin
  2
*D2
 70
     1
 10
0.0
 20
0.0
 30
0.0
  3
*D2
  1

  0
SOLID
  5
59
330
56
100
AcDbEntity
  8
0
  6
SLD-Durchgehend
 62
     7
370
     0
100
AcDbTrace
 10
56.6850079902
 20
38.4602342313
 30
0.0
 11
59.1850079902
 21
38.1602342313
 31
0.0
 12
59.1850079902
 22
38.7602342313
 32
0.0
 13
59.1850079902
 23
38.7602342313
 33
0.0
  0
SOLID
  5
5A
330
56
100
AcDbEntity
  8
0
  6
SLD-Durchgehend
 62
     7
370
     0
100
AcDbTrace
 10
156.6850079902
 20
38.4602342313
 30
0.0
 11
154.1850079902
 21
38.7602342313
 31
0.0
 12
154.1850079902
 22
38.1602342313
 32
0.0
 13
154.1850079902
 23
38.1602342313
 33
0.0
  0
LINE
  5
5B
330
56
100
AcDbEntity
  8
0
  6
SLD-Durchgehend
 62
     7
370
     0
100
AcDbLine
 10
56.6850079902
 20
52.0299240879
 30
0.0
 11
56.6850079902
 21
37.4602342313
 31
0.0
  0
LINE
  5
5C
330
56
100
AcDbEntity
  8
0
  6
SLD-Durchgehend
 62
     7
370
     0
100
AcDbLine
 10
156.6850079902
 20
52.0299240879
 30
0.0
 11
156.6850079902
 21
37.4602342313
 31
0.0
  0
LINE
  5
5D
330
56
100
AcDbEntity
  8
0
  6
SLD-Durchgehend
 62
     7
370
     0
100
AcDbLine
 10
56.6850079902
 20
38.4602342313
 30
0.0
 11
156.6850079902
 21
38.4602342313
 31
0.0
  0
MTEXT
  5
5E
330
56
100
AcDbEntity
  8
0
  6
SLD-Durchgehend
 62
     7
370
     0
100
AcDbMText
 10
91.2668151533
 20
46.1946404371
 30
0.1
 40
6.0
 41
0.0
 71
     1
 72
     1
  1
100
  7
SLDTEXTSTYLE0
 73
     1
 44
1.0
  0
MTEXT
  5
5F
330
56
100
AcDbEntity
  8
0
  6
SLD-Durchgehend
 62
     7
370
     0
100
AcDbMText
 10
108.0334825193
 20
46.1946404371
 30
0.1
 40
6.0
 41
0.0
 71
     1
 72
     1
  1
mm
  7
SLDTEXTSTYLE0
 73
     1
 44
1.0
  0
ENDBLK
  5
58
330
56
100
AcDbEntity
  8
0
100
AcDbBlockEnd
  0
ENDSEC
  0
SECTION
  2
ENTITIES
  0
LINE
  5
46
330
1F
100
AcDbEntity
  8
0
  6
SLD-Durchgehend
 62
     7
370
     0
100
AcDbLine
 10
56.6850079902
 20
152.0299240879
 30
0.0
 11
56.6850079902
 21
52.0299240879
 31
0.0
  0
LINE
  5
47
330
1F
100
AcDbEntity
  8
0
  6
SLD-Durchgehend
 62
     7
370
     0
100
AcDbLine
 10
56.6850079902
 20
52.0299240879
 30
0.0
 11
156.6850079902
 21
52.0299240879
 31
0.0
  0
DIMENSION
  5
48
330
1F
100
AcDbEntity
  8
0
  6
SLD-Durchgehend
 62
     7
370
     0
100
AcDbDimension
  2
*D1
 10
42.7614395004
 20
52.0299240879
 30
0.0
 11
42.7614395004
 21
105.4472211621
 31
0.0
 70
   160
  1
<>mm
 71
     2
 42
-1.0
  3
SLDDIMSTYLE0
100
AcDbAlignedDimension
 13
56.6850079902
 23
152.0299240879
 33
0.0
 14
56.6850079902
 24
52.0299240879
 34
0.0
 50
90.0
100
AcDbRotatedDimension
  0
DIMENSION
  5
55
330
1F
100
AcDbEntity
  8
0
  6
SLD-Durchgehend
 62
     7
370
     0
100
AcDbDimension
  2
*D2
 10
156.6850079902
 20
38.4602342313
 30
0.0
 11
105.0418155019
 21
38.4602342313
 31
0.0
 70
   160
  1
<>mm
 71
     2
 42
-1.0
  3
SLDDIMSTYLE0
100
AcDbAlignedDimension
 13
56.6850079902
 23
52.0299240879
 33
0.0
 14
156.6850079902
 24
52.0299240879
 34
0.0
100
AcDbRotatedDimension
  0
MTEXT
  5
61
330
1F
100
AcDbEntity
  8
0
  6
Continuous
 62
     7
370
     0
100
AcDbMText
 10
222.8856995391
 20
49.3034557666
 30
0.0
 40
10.0
 41
0.0
 71
     1
 72
     1
  1
53 976 05
  7
SLDTEXTSTYLE1
 73
     1
 44
1.0
  0
MTEXT
  5
62
330
1F
100
AcDbEntity
  8
0
  6
Continuous
 62
     7
370
     0
100
AcDbMText
 10
412.8252631579
 20
48.4342449499
 30
0.0
 40
10.0
 41
0.0
 71
     1
 72
     1
  1
KLUDI GmbH & Co KG
  7
SLDTEXTSTYLE1
 73
     1
 44
1.0
  0
SPLINE
  5
63
330
1F
100
AcDbEntity
  8
0
  6
SLD-Durchgehend
 62
     7
370
    15
100
AcDbSpline
210
0.0
220
0.0
230
1.0
 70
     8
 71
     3
 72
    30
 73
    26
 74
     0
 42
0.00000001
 43
0.00000001
 40
0.0
 40
0.0
 40
0.0
 40
0.0
 40
0.0324113231351097
 40
0.093501149724423
 40
0.1532132801049795
 40
0.2051574618071506
 40
0.2395332304521958
 40
0.2706097028147766
 40
0.2992451595716654
 40
0.3266179448588221
 40
0.3541891380061647
 40
0.3823946035781888
 40
0.4321198905367557
 40
0.4730602228432812
 40
0.5056091139600857
 40
0.5188104297260305
 40
0.5303627285022368
 40
0.5454113028248275
 40
0.5669742622355999
 40
0.6069666226945858
 40
0.6605563445300445
 40
0.7284468900405325
 40
0.8112795474755384
 40
0.9093194102253153
 40
1.0
 40
1.0
 40
1.0
 40
1.0
 10
228.6996158996319
 20
526.4901001626445
 30
0.0
 10
228.7241165041894
 20
526.4957903195647
 30
0.0
 10
228.7947965774931
 20
526.5122054536196
 30
0.0
 10
228.4167951675005
 20
526.5763554158333
 30
0.0
 10
227.8432990169676
 20
526.6821795702092
 30
0.0
 10
227.0432296635762
 20
526.8342740984315
 30
0.0
 10
226.1489817743418
 20
527.0297819236446
 30
0.0
 10
225.2357168875495
 20
527.2569333253779
 30
0.0
 10
224.2028703704875
 20
527.5530345730227
 30
0.0
 10
223.0571557118668
 20
527.9339642429848
 30
0.0
 10
221.8286420764169
 20
528.4087206408683
 30
0.0
 10
220.2802115356617
 20
529.0987694175798
 30
0.0
 10
218.603732677573
 20
530.0079505657435
 30
0.0
 10
216.9644147941703
 20
531.0827161820808
 30
0.0
 10
215.8782552993284
 20
531.8845398947872
 30
0.0
 10
215.1949126522176
 20
532.4163479769759
 30
0.0
 10
214.745208836118
 20
532.7602612997619
 30
0.0
 10
214.1525085527338
 20
533.2917591129192
 30
0.0
 10
213.3005361724688
 20
534.1457379719956
 30
0.0
 10
212.1245958422839
 20
535.4920442818571
 30
0.0
 10
210.6453000385853
 20
537.471137941633
 30
0.0
 10
208.9636885973736
 20
540.1051443521948
 30
0.0
 10
207.1207645416119
 20
543.4422533708697
 30
0.0
 10
205.2749239820015
 20
547.1843521071575
 30
0.0
 10
204.0350265504295
 20
549.7930152928126
 30
0.0
 10
203.4392531254983
 20
551.0464836532069
 30
0.0
  0
SPLINE
  5
64
330
1F
100
AcDbEntity
  8
0
  6
SLD-Durchgehend
 62
     7
370
    15
100
AcDbSpline
210
0.0
220
0.0
230
1.0
 70
     8
 71
     3
 72
    51
 73
    47
 74
     0
 42
0.00000001
 43
0.00000001
 40
0.0
 40
0.0
 40
0.0
 40
0.0
 40
0.0270332284607913
 40
0.0623104831643642
 40
0.0919488499694899
 40
0.1160483506153909
 40
0.1347715823100846
 40
0.1488330991948005
 40
0.1711164907988436
 40
0.1973805928311655
 40
0.227788203528399
 40
0.2616335289297309
 40
0.2924845639457935
 40
0.3193927934270974
 40
0.3425840360201358
 40
0.3529377465406041
 40
0.363880759966236
 40
0.3767189374323064
 40
0.401096264177539
 40
0.4327346413283714
 40
0.467401543486979
 40
0.5076615459984914
 40
0.5449476642155822
 40
0.5694549151527928
 40
0.5911177103575751
 40
0.610099438727583
 40
0.626650264752882
 40
0.6411517999430544
 40
0.660793596621005
 40
0.6797517416021717
 40
0.698604198978655
 40
0.7173837889953159
 40
0.746811472441297
 40
0.7753060509419406
 40
0.7963605822857147
 40
0.8158808159666562
 40
0.8285607920523498
 40
0.8413167570412152
 40
0.8545669333915438
 40
0.8662759576614727
 40
0.8804772356051966
 40
0.8975180920061477
 40
0.9175907118452111
 40
0.9492293906219643
 40
0.9864958440881139
 40
0.9999999999999999
 40
0.9999999999999999
 40
0.9999999999999999
 40
0.9999999999999999
 10
170.7933756747937
 20
550.7706203186704
 30
0.0
 10
170.4192944150064
 20
549.9920138070312
 30
0.0
 10
169.5570524495717
 20
548.1973577227416
 30
0.0
 10
168.2632577794076
 20
545.569441772696
 30
0.0
 10
166.9577523994688
 20
543.0690905656519
 30
0.0
 10
165.8490693655402
 20
541.0831139132612
 30
0.0
 10
164.9390527204209
 20
539.5636902645517
 30
0.0
 10
164.0549216408633
 20
538.1507202136734
 30
0.0
 10
162.8834370885778
 20
536.5035792903559
 30
0.0
 10
161.2256467794088
 20
534.5331525330879
 30
0.0
 10
159.109684276612
 20
532.4658084096868
 30
0.0
 10
156.6435013391319
 20
530.5781631353243
 30
0.0
 10
154.051804075742
 20
529.0741113483274
 30
0.0
 10
151.6319960940159
 20
528.0360305632238
 30
0.0
 10
149.7888521794816
 20
527.4550096634305
 30
0.0
 10
148.4106130989541
 20
527.1150720416277
 30
0.0
 10
147.5831380715872
 20
526.9368409548517
 30
0.0
 10
146.7912128485403
 20
526.78339174175
 30
0.0
 10
146.1936905503736
 20
526.6749947184583
 30
0.0
 10
145.9040677334688
 20
526.6042750930438
 30
0.0
 10
145.9244068208243
 20
526.5550224302216
 30
0.0
 10
146.2003355666766
 20
526.5136451793322
 30
0.0
 10
146.6306755075928
 20
526.4781612604563
 30
0.0
 10
147.1738241119858
 20
526.4565815873773
 30
0.0
 10
147.7547319261157
 20
526.4444846949248
 30
0.0
 10
148.4373350056
 20
526.4379053707487
 30
0.0
 10
149.2319102228462
 20
526.4363815197204
 30
0.0
 10
150.2571864625441
 20
526.4389838396595
 30
0.0
 10
151.7572876186798
 20
526.4578845057559
 30
0.0
 10
153.4245567102953
 20
526.4848550697876
 30
0.0
 10
155.0128350138662
 20
526.5034581442002
 30
0.0
 10
156.8602150397478
 20
526.5152531406875
 30
0.0
 10
158.9066755258698
 20
526.5089301178418
 30
0.0
 10
160.9344464825606
 20
526.4810490692427
 30
0.0
 10
162.9968851227638
 20
526.4755665893024
 30
0.0
 10
164.7094224775789
 20
526.4849479463451
 30
0.0
 10
166.1800042460212
 20
526.5103966064211
 30
0.0
 10
167.4354678380695
 20
526.5458213174746
 30
0.0
 10
168.5918032065366
 20
526.6104322438086
 30
0.0
 10
169.8811163407107
 20
526.6519690695096
 30
0.0
 10
171.2738724524054
 20
526.6700527401165
 30
0.0
 10
172.9040426224494
 20
526.6641920168004
 30
0.0
 10
175.0368810934141
 20
526.6256017641983
 30
0.0
 10
177.7208445993295
 20
526.5486281089727
 30
0.0
 10
180.1590141058444
 20
526.4603471807155
 30
0.0
 10
181.6019744948172
 20
526.4439569772203
 30
0.0
 10
181.9857784772014
 20
526.4395974498061
 30
0.0
  0
LINE
  5
65
330
1F
100
AcDbEntity
  8
0
  6
SLD-Durchgehend
 62
     7
370
    15
100
AcDbLine
 10
184.6771379692
 20
600.9635426724
 30
0.0
 11
184.6771379692
 21
593.5648553693
 31
0.0
  0
LINE
  5
66
330
1F
100
AcDbEntity
  8
0
  6
SLD-Durchgehend
 62
     7
370
    15
100
AcDbLine
 10
189.6921379717
 20
593.5948961103
 30
0.0
 11
189.6921379717
 21
600.9635426724
 31
0.0
  0
SPLINE
  5
67
330
1F
100
AcDbEntity
  8
0
  6
SLD-Durchgehend
 62
     7
370
    15
100
AcDbSpline
210
0.0
220
0.0
230
1.0
 70
     8
 71
     3
 72
    11
 73
     7
 74
     0
 42
0.00000001
 43
0.00000001
 40
0.0
 40
0.0
 40
0.0
 40
0.0
 40
0.2541972138225818
 40
0.5432430315903449
 40
0.8009391817061668
 40
1.0
 40
1.0
 40
1.0
 40
1.0
 10
139.7235307136273
 20
526.360034678672
 30
0.0
 10
139.2146009607563
 20
526.3401316002494
 30
0.0
 10
138.1269708578977
 20
526.2975968749562
 30
0.0
 10
136.5841957595684
 20
526.1447366115508
 30
0.0
 10
135.2094341089469
 20
525.9481479904066
 30
0.0
 10
134.4230740896774
 20
525.7905346042278
 30
0.0
 10
134.0803678372597
 20
525.7218445747444
 30
0.0
  0
SPLINE
  5
68
330
1F
100
AcDbEntity
  8
0
  6
SLD-Durchgehend
 62
     7
370
    15
100
AcDbSpline
210
0.0
220
0.0
230
1.0
 70
     8
 71
     3
 72
    11
 73
     7
 74
     0
 42
0.00000001
 43
0.00000001
 40
0.0
 40
0.0
 40
0.0
 40
0.0
 40
0.1990572227577949
 40
0.4567487182368951
 40
0.7457893151145636
 40
1.0
 40
1.0
 40
1.0
 40
1.0
 10
240.2889083364701
 20
525.7218445747444
 30
0.0
 10
239.9462020795116
 20
525.7905345961836
 30
0.0
 10
239.1598420498228
 20
525.9481479639047
 30
0.0
 10
237.7850804992997
 20
526.144736762372
 30
0.0
 10
236.2422701820291
 20
526.297599718104
 30
0.0
 10
235.1546035256599
 20
526.3401355626944
 30
0.0
 10
234.6456374266839
 20
526.3600399173615
 30
0.0
  0
LINE
  5
69
330
1F
100
AcDbEntity
  8
0
  6
SLD-Durchgehend
 62
     7
370
    15
100
AcDbLine
 10
222.7911378482
 20
461.2102978552
 30
0.0
 11
222.7911378482
 21
499.3984070295
 31
0.0
  0
LINE
  5
6A
330
1F
100
AcDbEntity
  8
0
  6
SLD-Durchgehend
 62
     7
370
    15
100
AcDbLine
 10
151.5781383255
 20
499.3984070295
 30
0.0
 11
151.5781383255
 21
461.2102978552
 31
0.0
  0
SPLINE
  5
6B
330
1F
100
AcDbEntity
  8
0
  6
SLD-Durchgehend
 62
     7
370
    15
100
AcDbSpline
210
0.0
220
0.0
230
1.0
 70
     8
 71
     3
 72
    19
 73
    15
 74
     0
 42
0.00000001
 43
0.00000001
 40
0.0
 40
0.0
 40
0.0
 40
0.0
 40
0.1226687321932711
 40
0.248448063262818
 40
0.3113629106280992
 40
0.3742033589476988
 40
0.4370700613062256
 40
0.4999999604422471
 40
0.5629297927239217
 40
0.6257965038176959
 40
0.6886370083023103
 40
0.7515517602060172
 40
0.8773311940641333
 40
1.0
 40
1.0
 40
1.0
 40
1.0
 10
201.226638373146
 20
439.645791860838
 30
0.0
 10
202.6970149211426
 20
439.6474802790603
 30
0.0
 10
205.6750534080916
 20
439.650899929935
 30
0.0
 10
209.4029664985396
 20
440.060506347367
 30
0.0
 10
212.32144955737
 20
440.842731838378
 30
0.0
 10
214.4206646253226
 20
441.7015024006855
 30
0.0
 10
216.3721074801014
 20
442.8619913202218
 30
0.0
 10
218.1098220467671
 20
444.3271106251044
 30
0.0
 10
219.5749364324705
 20
446.0648280273098
 30
0.0
 10
220.7354350990404
 20
448.0162657152424
 30
0.0
 10
221.5941925609228
 20
450.1154856661583
 30
0.0
 10
222.3764386889137
 20
453.0339632644526
 30
0.0
 10
222.7860368580783
 20
456.7618803608607
 30
0.0
 10
222.7894517699868
 20
459.7399206019209
 30
0.0
 10
222.7911378482079
 20
461.2102978551579
 30
0.0
  0
SPLINE
  5
6C
330
1F
100
AcDbEntity
  8
0
  6
SLD-Durchgehend
 62
     7
370
    15
100
AcDbSpline
210
0.0
220
0.0
230
1.0
 70
     8
 71
     3
 72
    19
 73
    15
 74
     0
 42
0.00000001
 43
0.00000001
 40
0.0
 40
0.0
 40
0.0
 40
0.0
 40
0.122668805114658
 40
0.2484482381307412
 40
0.3113629896132639
 40
0.3742034936771914
 40
0.4370702043501031
 40
0.5000000362104927
 40
0.5629298953562271
 40
0.6257966417449089
 40
0.6886370896438219
 40
0.7515518866112988
 40
0.8773312168388135
 40
1.0
 40
1.0
 40
1.0
 40
1.0
 10
151.5781383255219
 20
461.2102978551579
 30
0.0
 10
151.5798244034031
 20
459.7399206014941
 30
0.0
 10
151.5832393146232
 20
456.7618803595693
 30
0.0
 10
151.9928374881673
 20
453.033963268661
 30
0.0
 10
152.7750836069896
 20
450.1154856588528
 30
0.0
 10
153.6338410968742
 20
448.0162657431019
 30
0.0
 10
154.7943396582539
 20
446.0648279230719
 30
0.0
 10
156.2594541299413
 20
444.327111378937
 30
0.0
 10
157.9971671886869
 20
442.8619901079857
 30
0.0
 10
159.9486113153236
 20
441.7015029844758
 30
0.0
 10
162.047826024699
 20
440.8427320900311
 30
0.0
 10
164.9663083432708
 20
440.0605059394158
 30
0.0
 10
168.6942215438212
 20
439.6508999752468
 30
0.0
 10
171.6722606383353
 20
439.6474802942793
 30
0.0
 10
173.1426378005838
 20
439.645791860838
 30
0.0
  0
ARC
  5
6D
330
1F
100
AcDbEntity
  8
0
  6
SLD-Durchgehend
 62
     7
370
    15
100
AcDbCircle
 10
201.4773879853
 20
605.5630729351
 30
0.0
 40
0.5015000000000215
100
AcDbArc
 50
0.0
 51
78.664614729
  0
ARC
  5
6E
330
1F
100
AcDbEntity
  8
0
  6
SLD-Durchgehend
 62
     7
370
    15
100
AcDbCircle
 10
172.8918879853
 20
605.5630729351
 30
0.0
 40
0.5015000000000271
100
AcDbArc
 50
101.335385271
 51
180.0
  0
LINE
  5
6F
330
1F
100
AcDbEntity
  8
0
  6
SLD-Durchgehend
 62
     7
370
    15
100
AcDbLine
 10
201.9788881058
 20
574.8855382824
 30
0.0
 11
201.9788881058
 21
605.5630766475
 31
0.0
  0
LINE
  5
70
330
1F
100
AcDbEntity
  8
0
  6
SLD-Durchgehend
 62
     7
370
    15
100
AcDbLine
 10
172.390388068
 20
605.5630766475
 30
0.0
 11
172.390388068
 21
574.8855382824
 31
0.0
  0
ARC
  5
71
330
1F
100
AcDbEntity
  8
0
  6
SLD-Durchgehend
 62
     7
370
    15
100
AcDbCircle
 10
201.4773879853
 20
574.8855399565
 30
0.0
 40
0.501499999999993
100
AcDbArc
 50
270.0
 51
0.0
  0
ARC
  5
72
330
1F
100
AcDbEntity
  8
0
  6
SLD-Durchgehend
 62
     7
370
    15
100
AcDbCircle
 10
172.8918879853
 20
574.8855399565
 30
0.0
 40
0.5015000000000214
100
AcDbArc
 50
180.0
 51
270.0
  0
ARC
  5
73
330
1F
100
AcDbEntity
  8
0
  6
SLD-Durchgehend
 62
     7
370
    15
100
AcDbCircle
 10
201.4773879853
 20
565.3570399565
 30
0.0
 40
0.5015000000000782
100
AcDbArc
 50
0.0
 51
90.0
  0
ARC
  5
74
330
1F
100
AcDbEntity
  8
0
  6
SLD-Durchgehend
 62
     7
370
    15
100
AcDbCircle
 10
172.8918879853
 20
565.3570399565
 30
0.0
 40
0.5015000000000782
100
AcDbArc
 50
90.0
 51
180.0
  0
LINE
  5
75
330
1F
100
AcDbEntity
  8
0
  6
SLD-Durchgehend
 62
     7
370
    15
100
AcDbLine
 10
172.390388068
 20
565.3570391858
 30
0.0
 11
172.390388068
 21
551.8165402734
 31
0.0
  0
LINE
  5
76
330
1F
100
AcDbEntity
  8
0
  6
SLD-Durchgehend
 62
     7
370
    15
100
AcDbLine
 10
201.9788881058
 20
551.8165402734
 30
0.0
 11
201.9788881058
 21
565.3570391858
 31
0.0
  0
ARC
  5
77
330
1F
100
AcDbEntity
  8
0
  6
SLD-Durchgehend
 62
     7
370
    15
100
AcDbCircle
 10
172.8918879853
 20
551.8165399565
 30
0.0
 40
0.5015000000000782
100
AcDbArc
 50
180.0
 51
270.0
  0
ARC
  5
78
330
1F
100
AcDbEntity
  8
0
  6
SLD-Durchgehend
 62
     7
370
    15
100
AcDbCircle
 10
201.4773879853
 20
551.8165399565
 30
0.0
 40
0.5015000000000782
100
AcDbArc
 50
270.0
 51
0.0
  0
ARC
  5
79
330
1F
100
AcDbEntity
  8
0
  6
SLD-Durchgehend
 62
     7
370
    15
100
AcDbCircle
 10
187.1846379853
 20
534.2640399565
 30
0.0
 40
73.21900000000004
100
AcDbArc
 50
78.664614729
 51
101.335385271
  0
LINE
  5
7A
330
1F
100
AcDbEntity
  8
0
  6
SLD-Durchgehend
 62
     7
370
    15
100
AcDbLine
 10
174.6471381971
 20
574.3840397024
 30
0.0
 11
174.6471381971
 21
565.8585414911
 31
0.0
  0
LINE
  5
7B
330
1F
100
AcDbEntity
  8
0
  6
SLD-Durchgehend
 62
     7
370
    15
100
AcDbLine
 10
199.7221379766
 20
565.8585414911
 30
0.0
 11
199.7221379766
 21
574.3840397024
 31
0.0
  0
SPLINE
  5
7C
330
1F
100
AcDbEntity
  8
0
  6
SLD-Durchgehend
 62
     7
370
    15
100
AcDbSpline
210
0.0
220
0.0
230
1.0
 70
     8
 71
     3
 72
    19
 73
    15
 74
     0
 42
0.00000001
 43
0.00000001
 40
0.0
 40
0.0
 40
0.0
 40
0.0
 40
0.0960716920214032
 40
0.2109880831575286
 40
0.3104335246062878
 40
0.3748164428462586
 40
0.4398525228303795
 40
0.6058093245794124
 40
0.7165994848357612
 40
0.7938978152665873
 40
0.857914664644345
 40
0.9141550102306171
 40
0.9680162246951368
 40
1.0
 40
1.0
 40
1.0
 40
1.0
 10
133.4204997161126
 20
525.6871360741375
 30
0.0
 10
133.3564977347611
 20
525.674718112158
 30
0.0
 10
133.2159396257126
 20
525.6474463743584
 30
0.0
 10
133.110070005869
 20
525.6012165146866
 30
0.0
 10
133.2213508017269
 20
525.6424769133353
 30
0.0
 10
133.2190218222525
 20
525.6410211856257
 30
0.0
 10
133.1592278536094
 20
525.6213702603413
 30
0.0
 10
133.081943268746
 20
525.5931648293841
 30
0.0
 10
132.9132387036088
 20
525.5129530373407
 30
0.0
 10
132.7200126826604
 20
525.3877079817428
 30
0.0
 10
132.4946056715457
 20
525.188496026777
 30
0.0
 10
132.2598245931066
 20
524.8573570180214
 30
0.0
 10
132.0822306761559
 20
524.4088005220035
 30
0.0
 10
132.1142320947813
 20
524.1072884337937
 30
0.0
 10
132.1261550524926
 20
523.9949522927222
 30
0.0
  0
LINE
  5
7D
330
1F
100
AcDbEntity
  8
0
  6
SLD-Durchgehend
 62
     7
370
    15
100
AcDbLine
 10
132.1096035877
 20
523.994492685
 30
0.0
 11
132.3192182222
 21
521.6943719113
 31
0.0
  0
LINE
  5
7E
330
1F
100
AcDbEntity
  8
0
  6
SLD-Durchgehend
 62
     7
370
    15
100
AcDbLine
 10
242.0500579515
 20
521.6943639951
 30
0.0
 11
242.2597023884
 21
523.9947976932
 31
0.0
  0
SPLINE
  5
7F
330
1F
100
AcDbEntity
  8
0
  6
SLD-Durchgehend
 62
     7
370
    15
100
AcDbSpline
210
0.0
220
0.0
230
1.0
 70
     8
 71
     3
 72
    19
 73
    15
 74
     0
 42
0.00000001
 43
0.00000001
 40
0.0
 40
0.0
 40
0.0
 40
0.0
 40
0.0232039522601411
 40
0.0793596545816817
 40
0.1347564452975667
 40
0.1935849707760822
 40
0.2646847563167802
 40
0.3583195811624814
 40
0.4885920228770093
 40
0.5838941396680289
 40
0.7221615546778641
 40
0.8347620735198973
 40
0.9508630165107468
 40
1.0
 40
1.0
 40
1.0
 40
1.0
 10
242.2435718813634
 20
523.9968205258069
 30
0.0
 10
242.2561553170809
 20
524.076950769974
 30
0.0
 10
242.2991918265856
 20
524.3510035876735
 30
0.0
 10
242.1370843321279
 20
524.8049757680682
 30
0.0
 10
241.9069092970864
 20
525.1516140978806
 30
0.0
 10
241.684264994755
 20
525.3602745817414
 30
0.0
 10
241.4983976943201
 20
525.4880664918072
 30
0.0
 10
241.3351070386955
 20
525.5722005135568
 30
0.0
 10
241.2434970518445
 20
525.6091410446993
 30
0.0
 10
241.1455204520981
 20
525.643186910184
 30
0.0
 10
241.210166982651
 20
525.6207338639958
 30
0.0
 10
241.2205728750796
 20
525.6163073263131
 30
0.0
 10
241.0934469238634
 20
525.663952363257
 30
0.0
 10
240.9824446900546
 20
525.6857493216735
 30
0.0
 10
240.9494358340001
 20
525.6922311071125
 30
0.0
  0
SPLINE
  5
80
330
1F
100
AcDbEntity
  8
0
  6
SLD-Durchgehend
 62
     7
370
    15
100
AcDbSpline
210
0.0
220
0.0
230
1.0
 70
     8
 71
     3
 72
    42
 73
    38
 74
     0
 42
0.00000001
 43
0.00000001
 40
0.0
 40
0.0
 40
0.0
 40
0.0
 40
0.1249999999999998
 40
0.1249999999999998
 40
0.1874999999999997
 40
0.1874999999999997
 40
0.2499999999999996
 40
0.2499999999999996
 40
0.3124999999999994
 40
0.3124999999999994
 40
0.3437499999999995
 40
0.3437499999999995
 40
0.3749999999999996
 40
0.3749999999999996
 40
0.4374999999999997
 40
0.4374999999999997
 40
0.4687499999999997
 40
0.4687499999999997
 40
0.4999999999999997
 40
0.4999999999999997
 40
0.5312499999999996
 40
0.5312499999999996
 40
0.5624999999999996
 40
0.5624999999999996
 40
0.5937499999999994
 40
0.5937499999999994
 40
0.6249999999999994
 40
0.6249999999999994
 40
0.6874999999999996
 40
0.6874999999999996
 40
0.7499999999999997
 40
0.7499999999999997
 40
0.8124999999999998
 40
0.8124999999999998
 40
0.8749999999999999
 40
0.8749999999999999
 40
1.0
 40
1.0
 40
1.0
 40
1.0
 10
187.1847655077072
 20
526.4283704418046
 30
0.0
 10
190.3136479231578
 20
526.4280527907083
 30
0.0
 10
193.4395244430471
 20
526.4280585512772
 30
0.0
 10
198.1219502497126
 20
526.4271971789265
 30
0.0
 10
199.679947992917
 20
526.4266018130617
 30
0.0
 10
202.780349371291
 20
526.4249374553071
 30
0.0
 10
204.3238084953588
 20
526.423892797095
 30
0.0
 10
207.3921874964609
 20
526.4218557192587
 30
0.0
 10
208.9171465350562
 20
526.4208770586133
 30
0.0
 10
211.1844558470411
 20
526.4197569710171
 30
0.0
 10
211.9389414658724
 20
526.4194435289437
 30
0.0
 10
213.4275742244365
 20
526.418879018529
 30
0.0
 10
214.1614009192325
 20
526.4186105599601
 30
0.0
 10
216.3257645399515
 20
526.4177683295787
 30
0.0
 10
217.7192720427398
 20
526.4171777644278
 30
0.0
 10
219.7068075345415
 20
526.416418537637
 30
0.0
 10
220.354906844145
 20
526.4161841893466
 30
0.0
 10
221.5852351000345
 20
526.4157841461424
 30
0.0
 10
222.1701510873213
 20
526.4156167857624
 30
0.0
 10
223.2776615372299
 20
526.4153742888374
 30
0.0
 10
223.8010239394735
 20
526.4152994669205
 30
0.0
 10
224.7826471680391
 20
526.415263125894
 30
0.0
 10
225.2346800767387
 20
526.4153020398624
 30
0.0
 10
226.0701661643046
 20
526.4155160530618
 30
0.0
 10
226.4536283765773
 20
526.4156912900319
 30
0.0
 10
227.1604274674683
 20
526.4162056947072
 30
0.0
 10
227.4842697626094
 20
526.4165473193232
 30
0.0
 10
228.3748055465486
 20
526.4178263411948
 30
0.0
 10
228.8543215211788
 20
526.4190313294072
 30
0.0
 10
229.6604032839551
 20
526.4218312745295
 30
0.0
 10
229.9859713959553
 20
526.4233657383105
 30
0.0
 10
230.5282877936652
 20
526.4254525466795
 30
0.0
 10
230.7450014598932
 20
526.4261247451221
 30
0.0
 10
231.0980207301497
 20
526.4270686372057
 30
0.0
 10
231.2336676427113
 20
526.4273492589562
 30
0.0
 10
231.5480778066507
 20
526.4281438468953
 30
0.0
 10
231.6358109858288
 20
526.4295909258266
 30
0.0
 10
231.6356240292293
 20
526.4281248387035
 30
0.0
  0
SPLINE
  5
81
330
1F
100
AcDbEntity
  8
0
  6
SLD-Durchgehend
 62
     7
370
    15
100
AcDbSpline
210
0.0
220
0.0
230
1.0
 70
     8
 71
     3
 72
    21
 73
    17
 74
     0
 42
0.00000001
 43
0.00000001
 40
0.0
 40
0.0
 40
0.0
 40
0.0
 40
0.0879486432638337
 40
0.175243933304077
 40
0.2612918885695347
 40
0.3455728740694627
 40
0.4277614552194748
 40
0.5078544237640056
 40
0.5862406415673236
 40
0.6636368488592863
 40
0.7409941569166735
 40
0.8194217741594422
 40
0.8999782697137125
 40
0.9834872385346982
 40
0.9917271768128919
 40
1.0
 40
1.0
 40
1.0
 40
1.0
 10
203.4494940591998
 20
551.031214848459
 30
0.0
 10
203.9573725858461
 20
549.979958420676
 30
0.0
 10
204.9693567091618
 20
547.8852551429551
 30
0.0
 10
206.5380286588015
 20
544.7911930233937
 30
0.0
 10
208.190728584237
 20
541.7959296250048
 30
0.0
 10
209.9640740127491
 20
538.9487793262156
 30
0.0
 10
211.8915324504501
 20
536.2989748396735
 30
0.0
 10
214.0017132895738
 20
533.8931075691742
 30
0.0
 10
216.3160408301741
 20
531.7733467139051
 30
0.0
 10
218.8473334756681
 20
529.9775065310978
 30
0.0
 10
221.5962506667146
 20
528.5340835714253
 30
0.0
 10
224.5528603398592
 20
527.4574303176759
 30
0.0
 10
227.7010144188077
 20
526.7488670380643
 30
0.0
 10
229.9808203238796
 20
526.5085448451428
 30
0.0
 10
231.3068432506232
 20
526.440904806552
 30
0.0
 10
231.5258850280069
 20
526.4323904738163
 30
0.0
 10
231.6356240258538
 20
526.4281248293676
 30
0.0
  0
SPLINE
  5
82
330
1F
100
AcDbEntity
  8
0
  6
SLD-Durchgehend
 62
     7
370
    15
100
AcDbSpline
210
0.0
220
0.0
230
1.0
 70
     8
 71
     3
 72
    42
 73
    38
 74
     0
 42
0.00000001
 43
0.00000001
 40
0.0
 40
0.0
 40
0.0
 40
0.0
 40
0.1250000000000005
 40
0.1250000000000005
 40
0.1875000000000007
 40
0.1875000000000007
 40
0.250000000000001
 40
0.250000000000001
 40
0.3125000000000012
 40
0.3125000000000012
 40
0.3437500000000013
 40
0.3437500000000013
 40
0.3750000000000014
 40
0.3750000000000014
 40
0.4375000000000016
 40
0.4375000000000016
 40
0.4687500000000016
 40
0.4687500000000016
 40
0.5000000000000014
 40
0.5000000000000014
 40
0.5312500000000014
 40
0.5312500000000014
 40
0.5625000000000013
 40
0.5625000000000013
 40
0.5937500000000012
 40
0.5937500000000012
 40
0.6250000000000011
 40
0.6250000000000011
 40
0.687500000000001
 40
0.687500000000001
 40
0.7500000000000008
 40
0.7500000000000008
 40
0.8125000000000006
 40
0.8125000000000006
 40
0.8750000000000003
 40
0.8750000000000003
 40
1.0
 40
1.0
 40
1.0
 40
1.0
 10
142.7336519413898
 20
526.4281248387035
 30
0.0
 10
142.7334650038091
 20
526.4295907766847
 30
0.0
 10
142.8211450075364
 20
526.4281437747618
 30
0.0
 10
143.1360576180253
 20
526.4273482269392
 30
0.0
 10
143.2719553815573
 20
526.4270668070777
 30
0.0
 10
143.6238351777738
 20
526.4261258778783
 30
0.0
 10
143.8397478334209
 20
526.425456804274
 30
0.0
 10
144.3817247110371
 20
526.4233723300696
 30
0.0
 10
144.7076054682188
 20
526.4218348576543
 30
0.0
 10
145.3158095600796
 20
526.4197234752068
 30
0.0
 10
145.5392792381915
 20
526.4190593234684
 30
0.0
 10
146.0310482821298
 20
526.4178922947038
 30
0.0
 10
146.2990663491564
 20
526.4173875149554
 30
0.0
 10
147.181366268068
 20
526.4161244180641
 30
0.0
 10
147.8736904413234
 20
526.4156266263163
 30
0.0
 10
149.1287570282377
 20
526.4153027445589
 30
0.0
 10
149.5859229605132
 20
526.4152633625177
 30
0.0
 10
150.5620398882624
 20
526.4152989760387
 30
0.0
 10
151.0822612506661
 20
526.4153727167411
 30
0.0
 10
152.1890112689095
 20
526.4156141037441
 30
0.0
 10
152.7765193911576
 20
526.4157818131513
 30
0.0
 10
154.01312148522
 20
526.4161836718398
 30
0.0
 10
154.6539563926725
 20
526.4164154214723
 30
0.0
 10
155.9754994617653
 20
526.4169199744125
 30
0.0
 10
156.6562024727175
 20
526.4171930918914
 30
0.0
 10
158.0525833949365
 20
526.4177583282042
 30
0.0
 10
158.769651721695
 20
526.4180510301906
 30
0.0
 10
160.9570006975378
 20
526.4189018002792
 30
0.0
 10
162.4421015935112
 20
526.419389649231
 30
0.0
 10
165.448228498168
 20
526.4208755395059
 30
0.0
 10
166.9694887983401
 20
526.4218507458053
 30
0.0
 10
170.0375004997426
 20
526.4238874363077
 30
0.0
 10
171.5850261534637
 20
526.4249354802341
 30
0.0
 10
174.6958151472851
 20
526.426605176641
 30
0.0
 10
176.2533350859791
 20
526.4271987848524
 30
0.0
 10
180.9307198418831
 20
526.4280577264161
 30
0.0
 10
184.0553555906286
 20
526.428052763048
 30
0.0
 10
187.184510462912
 20
526.4283704418046
 30
0.0
  0
SPLINE
  5
83
330
1F
100
AcDbEntity
  8
0
  6
SLD-Durchgehend
 62
     7
370
    15
100
AcDbSpline
210
0.0
220
0.0
230
1.0
 70
     8
 71
     3
 72
    21
 73
    17
 74
     0
 42
0.00000001
 43
0.00000001
 40
0.0
 40
0.0
 40
0.0
 40
0.0
 40
0.0879486432638338
 40
0.1752439333040774
 40
0.2612918885695353
 40
0.3455728740694634
 40
0.4277614552194756
 40
0.5078544237640066
 40
0.5862406415673248
 40
0.6636368488592876
 40
0.7409941569166748
 40
0.8194217741594443
 40
0.8999782697137144
 40
0.9834872385347003
 40
0.9917271768128924
 40
0.9999999999999999
 40
0.9999999999999999
 40
0.9999999999999999
 40
0.9999999999999999
 10
170.9197819114193
 20
551.031214848459
 30
0.0
 10
170.4119033847731
 20
549.979958420676
 30
0.0
 10
169.3999192614573
 20
547.8852551429551
 30
0.0
 10
167.8312473118176
 20
544.7911930233937
 30
0.0
 10
166.1785473863821
 20
541.7959296250048
 30
0.0
 10
164.40520195787
 20
538.9487793262156
 30
0.0
 10
162.477743520169
 20
536.2989748396735
 30
0.0
 10
160.3675626810453
 20
533.8931075691742
 30
0.0
 10
158.0532351404451
 20
531.7733467139051
 30
0.0
 10
155.521942494951
 20
529.9775065310978
 30
0.0
 10
152.7730253039046
 20
528.5340835714253
 30
0.0
 10
149.81641563076
 20
527.4574303176759
 30
0.0
 10
146.6682615518114
 20
526.7488670380643
 30
0.0
 10
144.3884556467395
 20
526.5085448451429
 30
0.0
 10
143.062432719996
 20
526.440904806552
 30
0.0
 10
142.8433909426123
 20
526.4323904738163
 30
0.0
 10
142.7336519447655
 20
526.4281248293676
 30
0.0
  0
LWPOLYLINE
  5
84
330
1F
100
AcDbEntity
  8
0
  6
SLD-Durchgehend
 62
     7
370
    15
100
AcDbPolyline
 90
        5
 70
   128
 43
0.0
 10
240.2873139122
 20
525.713145498
 10
240.6607183853
 20
525.7064959131
 10
240.9450288156
 20
525.6944734408
 10
240.9450288156
 20
525.6944733826
 10
240.9450288156
 20
525.6944733826
  0
SPLINE
  5
85
330
1F
100
AcDbEntity
  8
0
  6
SLD-Durchgehend
 62
     7
370
    15
100
AcDbSpline
210
0.0
220
0.0
230
1.0
 70
     8
 71
     3
 72
    60
 73
    56
 74
     0
 42
0.00000001
 43
0.00000001
 40
-0.0625000000000004
 40
-0.0625000000000004
 40
0.0
 40
0.0
 40
0.0312499999999996
 40
0.0312499999999996
 40
0.0624999999999992
 40
0.0624999999999992
 40
0.1249999999999985
 40
0.1249999999999985
 40
0.1874999999999977
 40
0.1874999999999977
 40
0.2499999999999969
 40
0.2499999999999969
 40
0.2812499999999969
 40
0.2812499999999969
 40
0.3124999999999969
 40
0.3124999999999969
 40
0.3749999999999969
 40
0.3749999999999969
 40
0.4062499999999971
 40
0.4062499999999971
 40
0.4374999999999972
 40
0.4374999999999972
 40
0.4687499999999973
 40
0.4687499999999973
 40
0.4999999999999974
 40
0.4999999999999974
 40
0.5312499999999977
 40
0.5312499999999977
 40
0.5624999999999978
 40
0.5624999999999978
 40
0.593749999999998
 40
0.593749999999998
 40
0.6249999999999981
 40
0.6249999999999981
 40
0.6562499999999983
 40
0.6562499999999983
 40
0.6874999999999984
 40
0.6874999999999984
 40
0.7187499999999987
 40
0.7187499999999987
 40
0.7499999999999988
 40
0.7499999999999988
 40
0.781249999999999
 40
0.781249999999999
 40
0.8124999999999992
 40
0.8124999999999992
 40
0.8437499999999993
 40
0.8437499999999993
 40
0.8749999999999994
 40
0.8749999999999994
 40
0.9062499999999994
 40
0.9062499999999994
 40
0.9374999999999996
 40
0.9374999999999996
 40
1.0
 40
1.0
 40
1.03125
 40
1.03125
 10
185.9791412944734
 20
594.0912847732529
 30
0.0
 10
185.6374295904536
 20
593.9643848928899
 30
0.0
 10
185.5363331061455
 20
593.9179799769286
 30
0.0
 10
185.3618973005254
 20
593.8210685400123
 30
0.0
 10
185.28817586085
 20
593.7705478047988
 30
0.0
 10
185.1021713834744
 20
593.6136059925601
 30
0.0
 10
185.0250011697991
 20
593.5006249278296
 30
0.0
 10
184.9631094763316
 20
593.2748379075322
 30
0.0
 10
184.9772618010831
 20
593.1592781005268
 30
0.0
 10
185.0938615448114
 20
592.9358432463943
 30
0.0
 10
185.197622146393
 20
592.8255323829748
 30
0.0
 10
185.4212579763818
 20
592.6738162541448
 30
0.0
 10
185.5071629358223
 20
592.6253345429019
 30
0.0
 10
185.7057826596826
 20
592.5333044787086
 30
0.0
 10
185.8173983578587
 20
592.490413016696
 30
0.0
 10
186.1859707407422
 20
592.3759801427764
 30
0.0
 10
186.4872434001828
 20
592.3168372800967
 30
0.0
 10
186.9765712070335
 20
592.2786714324375
 30
0.0
 10
187.1421526492982
 20
592.2742687088961
 30
0.0
 10
187.4785404748568
 20
592.2830459544668
 30
0.0
 10
187.6398699806032
 20
592.2959686282727
 30
0.0
 10
187.9502572994127
 20
592.3367747641215
 30
0.0
 10
188.0989188448051
 20
592.3649263291056
 30
0.0
 10
188.368737531327
 20
592.4313473050855
 30
0.0
 10
188.4932055240597
 20
592.470258391519
 30
0.0
 10
188.7171605572181
 20
592.5557522353082
 30
0.0
 10
188.8162771036543
 20
592.6021364526081
 30
0.0
 10
188.9890110989094
 20
592.6989539621272
 30
0.0
 10
189.0633582858848
 20
592.7496919662465
 30
0.0
 10
189.1901675410012
 20
592.8554089646716
 30
0.0
 10
189.2419046503613
 20
592.9099497383553
 30
0.0
 10
189.3221586328928
 20
593.0198023119408
 30
0.0
 10
189.3510890033477
 20
593.0754677805144
 30
0.0
 10
189.3872018762927
 20
593.1882344747561
 30
0.0
 10
189.3942901269827
 20
593.2457303000751
 30
0.0
 10
189.3857576189534
 20
593.3596369562754
 30
0.0
 10
189.3703473138423
 20
593.4161499751611
 30
0.0
 10
189.3165475998351
 20
593.5282680925499
 30
0.0
 10
189.2777345234382
 20
593.5842905037023
 30
0.0
 10
189.1766256397944
 20
593.6928572775494
 30
0.0
 10
189.114600235583
 20
593.7453915458608
 30
0.0
 10
188.9654830756664
 20
593.8466379078092
 30
0.0
 10
188.8774180008527
 20
593.8957913512937
 30
0.0
 10
188.6763707400685
 20
593.9870320026258
 30
0.0
 10
188.5640033543556
 20
594.0290561282488
 30
0.0
 10
188.311493075528
 20
594.1046707131275
 30
0.0
 10
188.173992205101
 20
594.1373827597776
 30
0.0
 10
187.8779866757156
 20
594.1902422401339
 30
0.0
 10
187.7189596004533
 20
594.2102734881465
 30
0.0
 10
187.3938949458591
 20
594.234296117822
 30
0.0
 10
187.2237259598038
 20
594.2384540802238
 30
0.0
 10
186.8930735967655
 20
594.2302648186392
 30
0.0
 10
186.7281921798604
 20
594.217964774463
 30
0.0
 10
186.257289300626
 20
594.1590115145815
 30
0.0
 10
185.9791412944734
 20
594.0912847732529
 30
0.0
 10
185.6374295904536
 20
593.9643848928899
 30
0.0
  0
SPLINE
  5
86
330
1F
100
AcDbEntity
  8
0
  6
SLD-Durchgehend
 62
     7
370
    15
100
AcDbSpline
210
0.0
220
0.0
230
1.0
 70
     8
 71
     3
 72
    18
 73
    14
 74
     0
 42
0.00000001
 43
0.00000001
 40
0.0
 40
0.0
 40
0.0
 40
0.0
 40
0.0561628957008231
 40
0.1381794731938667
 40
0.2211647220049054
 40
0.2965635850052798
 40
0.3727595571933407
 40
0.4580212566308997
 40
0.5817435086626511
 40
0.7060907537930783
 40
0.8524356404726632
 40
0.9708927226013127
 40
1.0
 40
1.0
 40
1.0
 40
1.0
 10
185.5558828443011
 20
594.4836907708836
 30
0.0
 10
185.6785513684208
 20
594.5290198804857
 30
0.0
 10
185.9803568901769
 20
594.6405446230586
 30
0.0
 10
186.587843026697
 20
594.755602153151
 30
0.0
 10
187.3131627313043
 20
594.7879335582887
 30
0.0
 10
188.0040846665889
 20
594.7219359975875
 30
0.0
 10
188.6157708041092
 20
594.5753078193317
 30
0.0
 10
189.1956104753044
 20
594.323373960822
 30
0.0
 10
189.6136945773912
 20
593.9567972372437
 30
0.0
 10
189.752776391125
 20
593.4850511579982
 30
0.0
 10
189.5202760111191
 20
593.0224848243588
 30
0.0
 10
189.0808778936087
 20
592.7088640467058
 30
0.0
 10
188.7698875095858
 20
592.5839247587278
 30
0.0
 10
188.7085442190712
 20
592.5592803085042
 30
0.0
  0
SPLINE
  5
87
330
1F
100
AcDbEntity
  8
0
  6
SLD-Durchgehend
 62
     7
370
    15
100
AcDbSpline
210
0.0
220
0.0
230
1.0
 70
     8
 71
     3
 72
    13
 73
     9
 74
     0
 42
0.00000001
 43
0.00000001
 40
0.0
 40
0.0
 40
0.0
 40
0.0
 40
0.0363257317759277
 40
0.2492352317174285
 40
0.4647230195118531
 40
0.7207386158692237
 40
0.9292716022528668
 40
1.0
 40
1.0
 40
1.0
 40
1.0
 10
185.5857339447087
 20
592.6013686382962
 30
0.0
 10
185.5379503209111
 20
592.6175739277973
 30
0.0
 10
185.2101011085967
 20
592.7287603757059
 30
0.0
 10
184.8632136057232
 20
593.0341024385328
 30
0.0
 10
184.6106793784872
 20
593.4939012899292
 30
0.0
 10
184.7551572209616
 20
593.9673602451207
 30
0.0
 10
185.1573357733015
 20
594.3048611367067
 30
0.0
 10
185.4753416479057
 20
594.4475516201142
 30
0.0
 10
185.5558828443011
 20
594.4836907708836
 30
0.0
  0
ARC
  5
88
330
1F
100
AcDbEntity
  8
0
  6
SLD-Durchgehend
 62
     7
370
    15
100
AcDbCircle
 10
187.1846379853
 20
600.9635399565
 30
0.0
 40
2.507499999999993
100
AcDbArc
 50
0.0
 51
180.0
  0
LWPOLYLINE
  5
89
330
1F
100
AcDbEntity
  8
0
  6
SLD-Durchgehend
 62
     7
370
    15
100
AcDbPolyline
 90
        3
 70
   128
 43
0.0
 10
132.1385528186
 20
523.9582287302
 10
132.1385155657
 20
523.9582574848
 10
132.1385155657
 20
523.9582577176
  0
SPLINE
  5
8A
330
1F
100
AcDbEntity
  8
0
  6
SLD-Durchgehend
 62
     7
370
    15
100
AcDbSpline
210
0.0
220
0.0
230
1.0
 70
     8
 71
     3
 72
     8
 73
     4
 74
     0
 42
0.00000001
 43
0.00000001
 40
0.1697971195247344
 40
0.1697971195247344
 40
0.1697971195247344
 40
0.1697971195247344
 40
0.8032587855161584
 40
0.8032587855161584
 40
0.8032587855161584
 40
0.8032587855161584
 10
139.2326696205086
 20
526.3643740268628
 30
0.0
 10
136.7050713356397
 20
526.2656504620279
 30
0.0
 10
134.9706727916605
 20
525.9998579058986
 30
0.0
 10
133.4242464699188
 20
525.6944733933655
 30
0.0
  0
SPLINE
  5
8B
330
1F
100
AcDbEntity
  8
0
  6
SLD-Durchgehend
 62
     7
370
    15
100
AcDbSpline
210
0.0
220
0.0
230
1.0
 70
     8
 71
     3
 72
    47
 73
    43
 74
     0
 42
0.00000001
 43
0.00000001
 40
0.0
 40
0.0
 40
0.0
 40
0.0
 40
0.1250000000000005
 40
0.1250000000000005
 40
0.1875000000000008
 40
0.1875000000000008
 40
0.2187500000000009
 40
0.2187500000000009
 40
0.2500000000000011
 40
0.2500000000000011
 40
0.3125000000000014
 40
0.3125000000000014
 40
0.3750000000000018
 40
0.3750000000000018
 40
0.3906250000000019
 40
0.3906250000000019
 40
0.4062500000000021
 40
0.4062500000000021
 40
0.4375000000000022
 40
0.4375000000000022
 40
0.5000000000000028
 40
0.5000000000000028
 40
0.5156250000000028
 40
0.5156250000000028
 40
0.5312500000000027
 40
0.5312500000000027
 40
0.5625000000000024
 40
0.5937500000000023
 40
0.5937500000000023
 40
0.6250000000000021
 40
0.6250000000000021
 40
0.6875000000000017
 40
0.6875000000000017
 40
0.7500000000000012
 40
0.7500000000000012
 40
0.7812500000000011
 40
0.7812500000000011
 40
0.8125000000000009
 40
0.8125000000000009
 40
0.8750000000000006
 40
0.8750000000000006
 40
1.0
 40
1.0
 40
1.0
 40
1.0
 10
187.1846379853096
 20
526.3643740268628
 30
0.0
 10
183.8272339887836
 20
526.3645219344788
 30
0.0
 10
180.477048350429
 20
526.3648781831124
 30
0.0
 10
175.4670853298915
 20
526.3668667523259
 30
0.0
 10
173.7996731661376
 20
526.3677159218244
 30
0.0
 10
171.3036973781558
 20
526.3691705514813
 30
0.0
 10
170.4725690047077
 20
526.3696849610055
 30
0.0
 10
168.8123412120698
 20
526.3707574587575
 30
0.0
 10
167.9820865893316
 20
526.3713163236873
 30
0.0
 10
165.5068358248178
 20
526.3730333565953
 30
0.0
 10
163.8759162548256
 20
526.3742536467204
 30
0.0
 10
160.6669864831063
 20
526.3766007013699
 30
0.0
 10
159.0888007901975
 20
526.377707678776
 30
0.0
 10
157.1623119382514
 20
526.3788733626875
 30
0.0
 10
156.779350750343
 20
526.3790960407318
 30
0.0
 10
156.0185495235991
 20
526.3795189970174
 30
0.0
 10
155.6400147599489
 20
526.3797194367764
 30
0.0
 10
154.5226586592015
 20
526.3802831381346
 30
0.0
 10
153.7995595754645
 20
526.3806116115314
 30
0.0
 10
151.7008825050479
 20
526.3814497661472
 30
0.0
 10
150.3959455290684
 20
526.3818282198447
 30
0.0
 10
148.8995821007378
 20
526.3818347639573
 30
0.0
 10
148.6067873834335
 20
526.3818109714551
 30
0.0
 10
148.0417175036324
 20
526.381722487479
 30
0.0
 10
147.7685140083811
 20
526.3816578660736
 30
0.0
 10
146.975829012757
 20
526.3814139047048
 30
0.0
 10
145.9907080676313
 20
526.3809569426463
 30
0.0
 10
145.1379788698599
 20
526.3803050014334
 30
0.0
 10
144.3459792530537
 20
526.3795605184491
 30
0.0
 10
143.9792052291447
 20
526.379137474465
 30
0.0
 10
142.9735138191951
 20
526.3777384567616
 30
0.0
 10
142.4248153582386
 20
526.3766298854218
 30
0.0
 10
141.4995116585737
 20
526.3742777147403
 30
0.0
 10
141.1235036116962
 20
526.3730537061338
 30
0.0
 10
140.6537294902172
 20
526.3713322135283
 30
0.0
 10
140.5130576338805
 20
526.3707724159301
 30
0.0
 10
140.2599406348193
 20
526.3696979561431
 30
0.0
 10
140.1472825703075
 20
526.3691825422487
 30
0.0
 10
139.8448003992679
 20
526.3677248794878
 30
0.0
 10
139.6901141813535
 20
526.3668736241283
 30
0.0
 10
139.3318688586916
 20
526.3648798042088
 30
0.0
 10
139.232858287319
 20
526.3645221319906
 30
0.0
 10
139.2326696205086
 20
526.3643740268628
 30
0.0
  0
SPLINE
  5
8C
330
1F
100
AcDbEntity
  8
0
  6
SLD-Durchgehend
 62
     7
370
    15
100
AcDbSpline
210
0.0
220
0.0
230
1.0
 70
     8
 71
     3
 72
    47
 73
    43
 74
     0
 42
0.00000001
 43
0.00000001
 40
0.0
 40
0.0
 40
0.0
 40
0.0
 40
0.124999999999999
 40
0.124999999999999
 40
0.1874999999999984
 40
0.1874999999999984
 40
0.2187499999999982
 40
0.2187499999999982
 40
0.249999999999998
 40
0.249999999999998
 40
0.3124999999999977
 40
0.3124999999999977
 40
0.3749999999999974
 40
0.3749999999999974
 40
0.3906249999999974
 40
0.3906249999999974
 40
0.4062499999999974
 40
0.4062499999999974
 40
0.4374999999999977
 40
0.4374999999999977
 40
0.4999999999999983
 40
0.4999999999999983
 40
0.5156249999999984
 40
0.5156249999999984
 40
0.5312499999999986
 40
0.5312499999999986
 40
0.5624999999999987
 40
0.5937499999999989
 40
0.5937499999999989
 40
0.624999999999999
 40
0.624999999999999
 40
0.6874999999999992
 40
0.6874999999999992
 40
0.7499999999999993
 40
0.7499999999999993
 40
0.7812499999999994
 40
0.7812499999999994
 40
0.8124999999999996
 40
0.8124999999999996
 40
0.8749999999999997
 40
0.8749999999999997
 40
1.0
 40
1.0
 40
1.0
 40
1.0
 10
235.1366063501106
 20
526.3643740268628
 30
0.0
 10
235.1364179349047
 20
526.3645219344788
 30
0.0
 10
235.0376650472184
 20
526.3648781831124
 30
0.0
 10
234.6804130735057
 20
526.3668667523259
 30
0.0
 10
234.5261618336815
 20
526.3677159218244
 30
0.0
 10
234.2245664471727
 20
526.3691705514813
 30
0.0
 10
234.1122430829351
 20
526.3696849610055
 30
0.0
 10
233.8598915317967
 20
526.3707574587575
 30
0.0
 10
233.7196365722075
 20
526.3713163236873
 30
0.0
 10
233.2518065564713
 20
526.3730333565953
 30
0.0
 10
232.8775495102127
 20
526.3742536467204
 30
0.0
 10
231.9575860649106
 20
526.3766007013699
 30
0.0
 10
231.4124482891474
 20
526.377707678776
 30
0.0
 10
230.5811774902634
 20
526.3788733626875
 30
0.0
 10
230.4073517735486
 20
526.3790960407318
 30
0.0
 10
230.0431055614589
 20
526.3795189970174
 30
0.0
 10
229.8522672304698
 20
526.3797194367764
 30
0.0
 10
229.2581171128998
 20
526.3802831381346
 30
0.0
 10
228.8321073096585
 20
526.3806116115314
 30
0.0
 10
227.4572087540609
 20
526.3814497661472
 30
0.0
 10
226.4114222905697
 20
526.3818282198447
 30
0.0
 10
224.9192743447854
 20
526.3818347639573
 30
0.0
 10
224.6111921414462
 20
526.3818109714551
 30
0.0
 10
223.9841778363357
 20
526.381722487479
 30
0.0
 10
223.6643687384593
 20
526.3816578660736
 30
0.0
 10
222.6867574440508
 20
526.3814139047048
 30
0.0
 10
221.3347910759351
 20
526.3809569426463
 30
0.0
 10
219.8934145563252
 20
526.3803050014334
 30
0.0
 10
218.41102459751
 20
526.3795605184491
 30
0.0
 10
217.6461939735428
 20
526.379137474465
 30
0.0
 10
215.3261224981763
 20
526.3777384567616
 30
0.0
 10
213.7430328223541
 20
526.3766298854218
 30
0.0
 10
210.5254422120906
 20
526.3742777147403
 30
0.0
 10
208.8907628582263
 20
526.3730537061338
 30
0.0
 10
206.4105909812679
 20
526.3713322135283
 30
0.0
 10
205.5794715246042
 20
526.3707724159301
 30
0.0
 10
203.9174245528302
 20
526.3696979561431
 30
0.0
 10
203.0853629402981
 20
526.3691825422487
 30
0.0
 10
200.5865274388619
 20
526.3677248794878
 30
0.0
 10
198.91712933283
 20
526.3668736241283
 30
0.0
 10
193.9010324109909
 20
526.3648798042088
 30
0.0
 10
190.5465253678288
 20
526.3645221319906
 30
0.0
 10
187.1846379853096
 20
526.3643740268628
 30
0.0
  0
LINE
  5
8D
330
1F
100
AcDbEntity
  8
0
  6
SLD-Durchgehend
 62
     7
370
    15
100
AcDbLine
 10
144.0193864742
 20
494.7253022963
 30
0.0
 11
151.5781383255
 21
494.7253022963
 31
0.0
  0
LINE
  5
8E
330
1F
100
AcDbEntity
  8
0
  6
SLD-Durchgehend
 62
     7
370
    15
100
AcDbLine
 10
222.7911378482
 20
494.7253022963
 30
0.0
 11
230.3498896995
 21
494.7253022963
 31
0.0
  0
SPLINE
  5
8F
330
1F
100
AcDbEntity
  8
0
  6
SLD-Durchgehend
 62
     7
370
    15
100
AcDbSpline
210
0.0
220
0.0
230
1.0
 70
     8
 71
     3
 72
    38
 73
    34
 74
     0
 42
0.00000001
 43
0.00000001
 40
0.0
 40
0.0
 40
0.0
 40
0.0
 40
0.1249999999999994
 40
0.1249999999999994
 40
0.1874999999999991
 40
0.1874999999999991
 40
0.218749999999999
 40
0.218749999999999
 40
0.2499999999999989
 40
0.2499999999999989
 40
0.3749999999999986
 40
0.3749999999999986
 40
0.4062499999999986
 40
0.4062499999999986
 40
0.4374999999999985
 40
0.4374999999999985
 40
0.4999999999999986
 40
0.4999999999999986
 40
0.6249999999999984
 40
0.6249999999999984
 40
0.6562499999999986
 40
0.6562499999999986
 40
0.6874999999999987
 40
0.6874999999999987
 40
0.7499999999999989
 40
0.7499999999999989
 40
0.8124999999999991
 40
0.8124999999999991
 40
0.8437499999999992
 40
0.8437499999999992
 40
0.8749999999999992
 40
0.8749999999999992
 40
1.0
 40
1.0
 40
1.0
 40
1.0
 10
187.1848990841333
 20
503.8942607211255
 30
0.0
 10
189.5394327704849
 20
503.8942134020665
 30
0.0
 10
191.8566819689054
 20
503.8720190347811
 30
0.0
 10
195.2782842567995
 20
503.8064901162459
 30
0.0
 10
196.409681897184
 20
503.7792200734964
 30
0.0
 10
198.0927364446585
 20
503.7299740894903
 30
0.0
 10
198.6528863696057
 20
503.7121127647115
 30
0.0
 10
199.7607577022043
 20
503.67379782757
 30
0.0
 10
200.307527472601
 20
503.6533866037223
 30
0.0
 10
203.0061084861193
 20
503.5451599736118
 30
0.0
 10
205.0533250509884
 20
503.4390445345871
 30
0.0
 10
207.4734167937568
 20
503.2820930279946
 30
0.0
 10
207.950412729969
 20
503.2494740754859
 30
0.0
 10
208.890162790321
 20
503.1817444028963
 30
0.0
 10
209.3541756050169
 20
503.1465307552151
 30
0.0
 10
210.7140239496045
 20
503.0379107884391
 30
0.0
 10
211.5763206562781
 20
502.9617001337641
 30
0.0
 10
214.0350656638624
 20
502.7220759949155
 30
0.0
 10
215.5046461207707
 20
502.5477798988792
 30
0.0
 10
217.1260821040881
 20
502.3114209829241
 30
0.0
 10
217.4400829909964
 20
502.263104674926
 30
0.0
 10
218.0398891285553
 20
502.1655778143991
 30
0.0
 10
218.326383645924
 20
502.1162777809691
 30
0.0
 10
219.1464223310505
 20
501.9667991178741
 30
0.0
 10
219.6406443804614
 20
501.8650468377399
 30
0.0
 10
220.5252113895419
 20
501.6573851710412
 30
0.0
 10
220.9155515311199
 20
501.5514755916594
 30
0.0
 10
221.4222926906143
 20
501.3894589265702
 30
0.0
 10
221.5780478881589
 20
501.3349267744076
 30
0.0
 10
221.8627152845704
 20
501.2247882274112
 30
0.0
 10
221.9916165231447
 20
501.169147989448
 30
0.0
 10
222.5624069299275
 20
500.8908211541727
 30
0.0
 10
222.7915011041732
 20
500.6657622829546
 30
0.0
 10
222.7913760358049
 20
500.4382882963082
 30
0.0
  0
SPLINE
  5
90
330
1F
100
AcDbEntity
  8
0
  6
SLD-Durchgehend
 62
     7
370
    15
100
AcDbSpline
210
0.0
220
0.0
230
1.0
 70
     8
 71
     3
 72
    34
 73
    30
 74
     0
 42
0.00000001
 43
0.00000001
 40
0.0
 40
0.0
 40
0.0
 40
0.0
 40
0.1250000000000004
 40
0.1250000000000004
 40
0.1875000000000005
 40
0.1875000000000005
 40
0.2500000000000007
 40
0.2500000000000007
 40
0.3750000000000008
 40
0.3750000000000008
 40
0.4375000000000007
 40
0.4375000000000007
 40
0.5000000000000006
 40
0.5000000000000006
 40
0.6250000000000004
 40
0.6250000000000004
 40
0.6562500000000004
 40
0.6562500000000004
 40
0.6875000000000004
 40
0.6875000000000004
 40
0.7500000000000004
 40
0.7500000000000004
 40
0.8125000000000004
 40
0.8125000000000004
 40
0.8437500000000004
 40
0.8437500000000004
 40
0.8750000000000003
 40
0.8750000000000003
 40
1.0
 40
1.0
 40
1.0
 40
1.0
 10
151.5778999499376
 20
500.4382625858057
 30
0.0
 10
151.5777579759479
 20
500.6656557770771
 30
0.0
 10
151.8066578721809
 20
500.8894281960477
 30
0.0
 10
152.4803787193779
 20
501.2198642065819
 30
0.0
 10
152.7605411299307
 20
501.3291307767263
 30
0.0
 10
153.4340784717097
 20
501.5458742147282
 30
0.0
 10
153.8292765933367
 20
501.6536227819644
 30
0.0
 10
155.1609476220241
 20
501.9671064509791
 30
0.0
 10
156.2473859116403
 20
502.1654980635131
 30
0.0
 10
158.1728598692524
 20
502.4473049856891
 30
0.0
 10
158.8655882339
 20
502.538719180841
 30
0.0
 10
160.3498896287358
 20
502.7154685657025
 30
0.0
 10
161.1310250031616
 20
502.7995807303303
 30
0.0
 10
163.5880981477704
 20
503.0394890376572
 30
0.0
 10
165.3765140590375
 20
503.1829869842343
 30
0.0
 10
167.8054298066258
 20
503.3412137959677
 30
0.0
 10
168.3020676488678
 20
503.3718544292178
 30
0.0
 10
169.3101931477725
 20
503.4306625007658
 30
0.0
 10
169.819826759159
 20
503.4587297912626
 30
0.0
 10
171.3650816134898
 20
503.5390074658355
 30
0.0
 10
172.4170120345363
 20
503.5873044129852
 30
0.0
 10
174.5636568425622
 20
503.6736321644366
 30
0.0
 10
175.6583737851728
 20
503.7116623555066
 30
0.0
 10
177.332658516868
 20
503.7609789182741
 30
0.0
 10
177.8961334874533
 20
503.7761268107527
 30
0.0
 10
179.0340139727233
 20
503.8037997783835
 30
0.0
 10
179.6097816706576
 20
503.8163488692426
 30
0.0
 10
182.4959868414878
 20
503.8719941916301
 30
0.0
 10
184.8286566846633
 20
503.8942133781984
 30
0.0
 10
187.1848990841328
 20
503.8942607316201
 30
0.0
  0
SPLINE
  5
91
330
1F
100
AcDbEntity
  8
0
  6
SLD-Durchgehend
 62
     7
370
    15
100
AcDbSpline
210
0.0
220
0.0
230
1.0
 70
     8
 71
     3
 72
     8
 73
     4
 74
     0
 42
0.00000001
 43
0.00000001
 40
0.0
 40
0.0
 40
0.0
 40
0.0
 40
1.0
 40
1.0
 40
1.0
 40
1.0
 10
151.5778999493386
 20
500.4382621284925
 30
0.0
 10
151.5781377446036
 20
500.0677031539132
 30
0.0
 10
151.5781379853096
 20
499.6963746592421
 30
0.0
 10
151.5781379853096
 20
499.3242953005693
 30
0.0
  0
SPLINE
  5
92
330
1F
100
AcDbEntity
  8
0
  6
SLD-Durchgehend
 62
     7
370
    15
100
AcDbSpline
210
0.0
220
0.0
230
1.0
 70
     8
 71
     3
 72
     8
 73
     4
 74
     0
 42
0.00000001
 43
0.00000001
 40
0.0
 40
0.0
 40
0.0
 40
0.0
 40
1.0
 40
1.0
 40
1.0
 40
1.0
 10
222.7913760212806
 20
500.4382621284923
 30
0.0
 10
222.7911382260156
 20
500.067703153913
 30
0.0
 10
222.7911379853095
 20
499.696374659242
 30
0.0
 10
222.7911379853095
 20
499.3242953005693
 30
0.0
  0
SPLINE
  5
93
330
1F
100
AcDbEntity
  8
0
  6
SLD-Durchgehend
 62
     7
370
    15
100
AcDbSpline
210
0.0
220
0.0
230
1.0
 70
    24
 71
     3
 72
    30
 73
    26
 74
     0
 42
0.00000001
 43
0.00000001
 40
0.0
 40
0.0
 40
0.0
 40
0.0
 40
0.1250000000000001
 40
0.1250000000000001
 40
0.1875000000000001
 40
0.1875000000000001
 40
0.2500000000000001
 40
0.2500000000000001
 40
0.3125000000000001
 40
0.3125000000000001
 40
0.375
 40
0.375
 40
0.5
 40
0.5
 40
0.5624999999999999
 40
0.5624999999999999
 40
0.6249999999999999
 40
0.6249999999999999
 40
0.7499999999999999
 40
0.7499999999999999
 40
0.8124999999999999
 40
0.8124999999999999
 40
0.875
 40
0.875
 40
1.0
 40
1.0
 40
1.0
 40
1.0
 10
171.3715785513885
 20
551.3150399565144
 30
0.0
 10
171.3709880816003
 20
551.3150399565144
 30
0.0
 10
171.4689628426681
 20
551.3150399565144
 30
0.0
 10
171.7607189444874
 20
551.3150399565144
 30
0.0
 10
171.8823952388578
 20
551.3150399565144
 30
0.0
 10
172.1768199900942
 20
551.3150399565144
 30
0.0
 10
172.3503515270433
 20
551.3150399565144
 30
0.0
 10
172.7437812283283
 20
551.3150399565144
 30
0.0
 10
172.9641100697738
 20
551.3150399565144
 30
0.0
 10
173.451705775693
 20
551.3150399565144
 30
0.0
 10
173.7203098501553
 20
551.3150399565144
 30
0.0
 10
174.5840813251769
 20
551.3150399565144
 30
0.0
 10
175.2376679048707
 20
551.3150399565144
 30
0.0
 10
176.3346033903583
 20
551.3150399565144
 30
0.0
 10
176.7200347465555
 20
551.3150399565144
 30
0.0
 10
177.5304307704247
 20
551.3150399565144
 30
0.0
 10
177.9486957172302
 20
551.3150399565144
 30
0.0
 10
179.2412082537344
 20
551.3150399565144
 30
0.0
 10
180.1533596164805
 20
551.3150399565144
 30
0.0
 10
181.596655410767
 20
551.3150399565144
 30
0.0
 10
182.0924938129508
 20
551.3150399565143
 30
0.0
 10
183.0885371219825
 20
551.3150399565144
 30
0.0
 10
183.5908091855155
 20
551.3150399565144
 30
0.0
 10
185.110129743545
 20
551.3150399565144
 30
0.0
 10
186.1398505318819
 20
551.3150399565144
 30
0.0
 10
187.1852966843756
 20
551.3150399565144
 30
0.0
  0
SPLINE
  5
94
330
1F
100
AcDbEntity
  8
0
  6
SLD-Durchgehend
 62
     7
370
    15
100
AcDbSpline
210
0.0
220
0.0
230
1.0
 70
     8
 71
     3
 72
    10
 73
     6
 74
     0
 42
0.00000001
 43
0.00000001
 40
0.0
 40
0.0
 40
0.0
 40
0.0
 40
0.5
 40
0.5
 40
1.0
 40
1.0
 40
1.0
 40
1.0
 10
170.9197819522471
 20
551.0312149331992
 30
0.0
 10
170.9604804653216
 20
551.1156869220234
 30
0.0
 10
171.0254050848931
 20
551.1883176461704
 30
0.0
 10
171.1842004369157
 20
551.2880752254403
 30
0.0
 10
171.2778130982952
 20
551.3150399565144
 30
0.0
 10
171.3715781447774
 20
551.3150399565144
 30
0.0
  0
SPLINE
  5
95
330
1F
100
AcDbEntity
  8
0
  6
SLD-Durchgehend
 62
     7
370
    15
100
AcDbSpline
210
0.0
220
0.0
230
1.0
 70
    24
 71
     3
 72
    30
 73
    26
 74
     0
 42
0.00000001
 43
0.00000001
 40
0.0
 40
0.0
 40
0.0
 40
0.0
 40
0.1249999999999998
 40
0.1249999999999998
 40
0.1874999999999998
 40
0.1874999999999998
 40
0.2499999999999998
 40
0.2499999999999998
 40
0.3124999999999997
 40
0.3124999999999997
 40
0.3749999999999998
 40
0.3749999999999998
 40
0.4999999999999999
 40
0.4999999999999999
 40
0.5624999999999999
 40
0.5624999999999999
 40
0.6249999999999999
 40
0.6249999999999999
 40
0.75
 40
0.75
 40
0.8125
 40
0.8125
 40
0.875
 40
0.875
 40
1.0
 40
1.0
 40
1.0
 40
1.0
 10
187.1852966801314
 20
551.3150399565144
 30
0.0
 10
188.230816967991
 20
551.3150399565144
 30
0.0
 10
189.266215016431
 20
551.3150399565144
 30
0.0
 10
190.8024943586069
 20
551.3150399565144
 30
0.0
 10
191.3108441987964
 20
551.3150399565144
 30
0.0
 10
192.3039694788458
 20
551.3150399565144
 30
0.0
 10
192.7910506038275
 20
551.3150399565144
 30
0.0
 10
193.7464083182736
 20
551.3150399565144
 30
0.0
 10
194.2146796973065
 20
551.3150399565144
 30
0.0
 10
195.1317545200906
 20
551.3150399565144
 30
0.0
 10
195.5829429353136
 20
551.3150399565144
 30
0.0
 10
196.8827548396595
 20
551.3150399565144
 30
0.0
 10
197.6806088782296
 20
551.3150399565144
 30
0.0
 10
198.7757378119329
 20
551.3150399565144
 30
0.0
 10
199.1237135290609
 20
551.3150399565144
 30
0.0
 10
199.7845838293624
 20
551.3150399565144
 30
0.0
 10
200.0927236260297
 20
551.3150399565144
 30
0.0
 10
200.948850325729
 20
551.3150399565144
 30
0.0
 10
201.4312230186837
 20
551.3150399565144
 30
0.0
 10
202.0191096210104
 20
551.3150399565144
 30
0.0
 10
202.1927819438006
 20
551.3150399565142
 30
0.0
 10
202.4870526989753
 20
551.3150399565142
 30
0.0
 10
202.6086764484043
 20
551.3150399565144
 30
0.0
 10
202.9003227895475
 20
551.3150399565144
 30
0.0
 10
202.9982878594921
 20
551.3150399565144
 30
0.0
 10
202.9976974192307
 20
551.3150399565144
 30
0.0
  0
SPLINE
  5
96
330
1F
100
AcDbEntity
  8
0
  6
SLD-Durchgehend
 62
     7
370
    15
100
AcDbSpline
210
0.0
220
0.0
230
1.0
 70
     8
 71
     3
 72
    10
 73
     6
 74
     0
 42
0.00000001
 43
0.00000001
 40
0.0
 40
0.0
 40
0.0
 40
0.0
 40
0.5
 40
0.5
 40
1.0
 40
1.0
 40
1.0
 40
1.0
 10
202.9976978258418
 20
551.3150399565144
 30
0.0
 10
203.0914628723239
 20
551.3150399565144
 30
0.0
 10
203.1850755337035
 20
551.2880752254403
 30
0.0
 10
203.3438708857261
 20
551.1883176461704
 30
0.0
 10
203.4087955052976
 20
551.1156869220234
 30
0.0
 10
203.4494940183721
 20
551.0312149331992
 30
0.0
  0
LINE
  5
97
330
1F
100
AcDbEntity
  8
0
  6
SLD-Durchgehend
 62
     7
370
    15
100
AcDbLine
 10
172.8918875793
 20
574.3840397024
 30
0.0
 11
201.4773876631
 21
574.3840397024
 31
0.0
  0
LINE
  5
98
330
1F
100
AcDbEntity
  8
0
  6
SLD-Durchgehend
 62
     7
370
    15
100
AcDbLine
 10
172.8918875793
 20
565.8585414911
 30
0.0
 11
201.4773876631
 21
565.8585414911
 31
0.0
  0
SPLINE
  5
99
330
1F
100
AcDbEntity
  8
0
  6
SLD-Durchgehend
 62
     7
370
    15
100
AcDbSpline
210
0.0
220
0.0
230
1.0
 70
     8
 71
     3
 72
     8
 73
     4
 74
     0
 42
0.00000001
 43
0.00000001
 40
0.0
 40
0.0
 40
0.0
 40
0.0
 40
1.0
 40
1.0
 40
1.0
 40
1.0
 10
144.0193870172591
 20
494.7253016811032
 30
0.0
 10
143.8196783367002
 20
494.7253016811032
 30
0.0
 10
143.6278496619124
 20
494.8290511704213
 30
0.0
 10
143.5176698375004
 20
494.9955922994735
 30
0.0
  0
SPLINE
  5
9A
330
1F
100
AcDbEntity
  8
0
  6
SLD-Durchgehend
 62
     7
370
    15
100
AcDbSpline
210
0.0
220
0.0
230
1.0
 70
     8
 71
     3
 72
     8
 73
     4
 74
     0
 42
0.00000001
 43
0.00000001
 40
0.0
 40
0.0
 40
0.0
 40
0.0
 40
1.0
 40
1.0
 40
1.0
 40
1.0
 10
230.8516061331185
 20
494.9955922994731
 30
0.0
 10
230.7414256292728
 20
494.8290501434308
 30
0.0
 10
230.5495994826468
 20
494.7253016811032
 30
0.0
 10
230.34988895336
 20
494.7253016811032
 30
0.0
  0
LINE
  5
9B
330
1F
100
AcDbEntity
  8
0
  6
SLD-Durchgehend
 62
     7
370
    15
100
AcDbLine
 10
132.0994856992
 20
523.9935656698
 30
0.0
 11
132.0990796426
 21
523.9940168956
 31
0.0
  0
SPLINE
  5
9C
330
1F
100
AcDbEntity
  8
0
  6
SLD-Durchgehend
 62
     7
370
    15
100
AcDbSpline
210
0.0
220
0.0
230
1.0
 70
     8
 71
     3
 72
    14
 73
    10
 74
     0
 42
0.00000001
 43
0.00000001
 40
0.0
 40
0.0
 40
0.0
 40
0.0
 40
0.0704579248829729
 40
0.2210112867011081
 40
0.3595693907154667
 40
0.4991360596772159
 40
0.6238343842817637
 40
0.7485629869904078
 40
0.9999999999999999
 40
0.9999999999999999
 40
0.9999999999999999
 40
0.9999999999999999
 10
132.3658365050053
 20
521.6997458753926
 30
0.0
 10
132.4359813862747
 20
521.0160526764577
 30
0.0
 10
132.6560107227983
 20
518.8714548351735
 30
0.0
 10
133.4237240798369
 20
515.4399068317267
 30
0.0
 10
134.6361294114183
 20
511.4371112995246
 30
0.0
 10
136.1094512950623
 20
507.7900594081754
 30
0.0
 10
137.7788497093864
 20
504.3820980481606
 30
0.0
 10
140.1669547559175
 20
500.1190279110321
 30
0.0
 10
142.1752687610948
 20
497.0481991549905
 30
0.0
 10
143.5176681020951
 20
494.99559259655
 30
0.0
  0
LWPOLYLINE
  5
9D
330
1F
100
AcDbEntity
  8
0
  6
SLD-Durchgehend
 62
     7
370
    15
100
AcDbPolyline
 90
        3
 70
   128
 43
0.0
 10
235.136604611
 20
526.3643740598
 10
234.8349417785
 20
526.3457750823
 10
234.6698778907
 20
526.3091390059
  0
LINE
  5
9E
330
1F
100
AcDbEntity
  8
0
  6
SLD-Durchgehend
 62
     7
370
    15
100
AcDbLine
 10
242.2701779047
 20
523.9939388973
 30
0.0
 11
242.2700847724
 21
523.9938428547
 31
0.0
  0
SPLINE
  5
9F
330
1F
100
AcDbEntity
  8
0
  6
SLD-Durchgehend
 62
     7
370
    15
100
AcDbSpline
210
0.0
220
0.0
230
1.0
 70
     8
 71
     3
 72
    15
 73
    11
 74
     0
 42
0.00000001
 43
0.00000001
 40
0.0
 40
0.0
 40
0.0
 40
0.0
 40
0.1491892215791799
 40
0.2985163398589486
 40
0.4477736654766779
 40
0.5978150436284189
 40
0.7167431749154692
 40
0.8356652815658838
 40
0.9572653161424611
 40
1.0
 40
1.0
 40
1.0
 40
1.0
 10
230.8516043463444
 20
494.99559259655
 30
0.0
 10
231.6503198525682
 20
496.2115519112891
 30
0.0
 10
233.2484891236637
 20
498.6445944609524
 30
0.0
 10
235.5072830311879
 20
502.3830864874664
 30
0.0
 10
237.5574708625465
 20
506.2511445963445
 30
0.0
 10
239.1872574847004
 20
509.9947058677656
 30
0.0
 10
240.4173118329876
 20
513.5757834423378
 30
0.0
 10
241.2923346214334
 20
516.9713672281023
 30
0.0
 10
241.8234438616682
 20
519.6876074698209
 30
0.0
 10
241.9810037903853
 20
521.282598725885
 30
0.0
 10
242.0219767132496
 20
521.6973707699967
 30
0.0
  0
SPLINE
  5
A0
330
1F
100
AcDbEntity
  8
0
  6
SLD-Durchgehend
 62
     7
370
    15
100
AcDbSpline
210
0.0
220
0.0
230
1.0
 70
     8
 71
     3
 72
    20
 73
    16
 74
     0
 42
0.00000001
 43
0.00000001
 40
0.0
 40
0.0
 40
0.0
 40
0.0
 40
0.2500000000000002
 40
0.2500000000000002
 40
0.5000000000000003
 40
0.5000000000000003
 40
0.7500000000000004
 40
0.7500000000000004
 40
0.8750000000000006
 40
0.8750000000000006
 40
0.9375000000000003
 40
0.9375000000000003
 40
0.9687500000000002
 40
0.9687500000000002
 40
1.0
 40
1.0
 40
1.0
 40
1.0
 10
139.2326696169891
 20
526.3643740240909
 30
0.0
 10
139.2325626606368
 20
526.3642895046122
 30
0.0
 10
139.2664427713196
 20
526.365575768148
 30
0.0
 10
139.4137595621948
 20
526.3708878547982
 30
0.0
 10
139.5270201309252
 20
526.3749343683061
 30
0.0
 10
139.8539500683534
 20
526.3847209983326
 30
0.0
 10
140.0674147534747
 20
526.3905225030528
 30
0.0
 10
140.4933826236388
 20
526.398194374397
 30
0.0
 10
140.653133509234
 20
526.4005576546328
 30
0.0
 10
140.9250552307592
 20
526.4032184181759
 30
0.0
 10
141.0210941970071
 20
526.4039554328432
 30
0.0
 10
141.1741329492127
 20
526.4047341848285
 30
0.0
 10
141.2266440858653
 20
526.4049390881243
 30
0.0
 10
141.3348281180609
 20
526.4052196448854
 30
0.0
 10
141.39081266107
 20
526.4052953005694
 30
0.0
 10
141.4478379853096
 20
526.4052953005694
 30
0.0
  0
SPLINE
  5
A1
330
1F
100
AcDbEntity
  8
0
  6
SLD-Durchgehend
 62
     7
370
    15
100
AcDbSpline
210
0.0
220
0.0
230
1.0
 70
     8
 71
     3
 72
    21
 73
    17
 74
     0
 42
0.00000001
 43
0.00000001
 40
0.0
 40
0.0
 40
0.0
 40
0.0
 40
0.0156250000000001
 40
0.0156250000000001
 40
0.0312500000000003
 40
0.0625000000000006
 40
0.0625000000000006
 40
0.1250000000000006
 40
0.1250000000000006
 40
0.2500000000000005
 40
0.2500000000000005
 40
0.5000000000000003
 40
0.5000000000000003
 40
0.7500000000000001
 40
0.7500000000000001
 40
1.0
 40
1.0
 40
1.0
 40
1.0
 10
232.9214379853103
 20
526.4052953005694
 30
0.0
 10
232.9498188568466
 20
526.4052953005694
 30
0.0
 10
232.9783703163751
 20
526.4052763616236
 30
0.0
 10
233.0340743758506
 20
526.4052034363259
 30
0.0
 10
233.1164128531711
 20
526.4050414432559
 30
0.0
 10
233.1951919493299
 20
526.4047339817157
 30
0.0
 10
233.3482527192851
 20
526.4039549800304
 30
0.0
 10
233.4443026937918
 20
526.4032177516442
 30
0.0
 10
233.7162493935882
 20
526.4005563373145
 30
0.0
 10
233.8760063621201
 20
526.3981926216486
 30
0.0
 10
234.3019766182525
 20
526.3905198588782
 30
0.0
 10
234.5154227197953
 20
526.384718334036
 30
0.0
 10
234.8423147692534
 20
526.3749323702103
 30
0.0
 10
234.9555547503423
 20
526.3708864960441
 30
0.0
 10
235.1028420050385
 20
526.3655754268002
 30
0.0
 10
235.1367133168611
 20
526.3642894991765
 30
0.0
 10
235.1366063536301
 20
526.3643740240909
 30
0.0
  0
LINE
  5
A2
330
1F
100
AcDbEntity
  8
0
  6
SLD-Durchgehend
 62
     7
370
    15
100
AcDbLine
 10
141.4478372076
 20
526.405295326
 30
0.0
 11
142.6352250615
 21
526.405295326
 31
0.0
  0
SPLINE
  5
A3
330
1F
100
AcDbEntity
  8
0
  6
SLD-Durchgehend
 62
     7
370
    15
100
AcDbSpline
210
0.0
220
0.0
230
1.0
 70
    24
 71
     3
 72
     9
 73
     5
 74
     0
 42
0.00000001
 43
0.00000001
 40
0.0
 40
0.0
 40
0.0
 40
0.0
 40
0.15479859690084
 40
1.0
 40
1.0
 40
1.0
 40
1.0
 10
231.7340511122441
 20
526.4052953259838
 30
0.0
 10
231.8117481074513
 20
526.4052953259838
 30
0.0
 10
232.3136712305463
 20
526.4052953259838
 30
0.0
 10
232.643048681993
 20
526.4052953259838
 30
0.0
 10
232.9214389661049
 20
526.4052953259838
 30
0.0
  0
SPLINE
  5
A4
330
1F
100
AcDbEntity
  8
0
  6
SLD-Durchgehend
 62
     8
370
     0
100
AcDbSpline
210
0.0
220
0.0
230
1.0
 70
     8
 71
     3
 72
    82
 73
    78
 74
     0
 42
0.00000001
 43
0.00000001
 40
0.0
 40
0.0
 40
0.0
 40
0.0
 40
0.0139121314941778
 40
0.0277320369276023
 40
0.0414609600447927
 40
0.0551004810141315
 40
0.0686525036140124
 40
0.0821192412464064
 40
0.095503201913356
 40
0.1088071723221857
 40
0.1220342013045403
 40
0.1351875827405989
 40
0.148270838172167
 40
0.1612876992666588
 40
0.1742420902589442
 40
0.1871381104515848
 40
0.199980016798725
 40
0.2127722065384912
 40
0.2255191997774629
 40
0.2382256218734371
 40
0.2508961854143552
 40
0.2635356715569331
 40
0.2761489104728324
 40
0.2887407606570413
 40
0.3013160868851987
 40
0.3138797366651818
 40
0.3264365151129759
 40
0.3389911582911085
 40
0.3515483051753402
 40
0.3641124685558167
 40
0.3766880063867249
 40
0.3892790972692316
 40
0.4018897137538527
 40
0.4145235962889028
 40
0.427184229172606
 40
0.4398748185908124
 40
0.452598451989782
 40
0.4653585368263964
 40
0.478158335559271
 40
0.4910008311815766
 40
0.5038887238862194
 40
0.5168244297288458
 40
0.5298100809883808
 40
0.5428475278957218
 40
0.5559383414000324
 40
0.5690838166680932
 40
0.5822849770624976
 40
0.5955425784141887
 40
0.6088571134872122
 40
0.6222288166203321
 40
0.6356576686118267
 40
0.6491434019800397
 40
0.6626855067724416
 40
0.676283208113942
 40
0.6899352309897072
 40
0.703639984776617
 40
0.7173957750972976
 40
0.7312008400566319
 40
0.7450533722448714
 40
0.7589515277734199
 40
0.7728934227989571
 40
0.7868771190628955
 40
0.8009006009870782
 40
0.8149617477847608
 40
0.8290583048308687
 40
0.8431878591485401
 40
0.8573478242694076
 40
0.8715354398718753
 40
0.8857477914576288
 40
0.899981854864793
 40
0.9142345696277236
 40
0.9285029440964131
 40
0.9427841938750469
 40
0.9570759136208477
 40
0.9713762806919908
 40
0.9856842877111438
 40
1.0
 40
1.0
 40
1.0
 40
1.0
 10
187.1845104629124
 20
526.4283704414215
 30
0.0
 10
187.1845070991278
 20
526.4358786424244
 30
0.0
 10
187.1845003938578
 20
526.4508452711946
 30
0.0
 10
187.1845312492314
 20
526.4845896821056
 30
0.0
 10
187.1845743951921
 20
526.5266692406019
 30
0.0
 10
187.1846234466007
 20
526.577969557838
 30
0.0
 10
187.184669610263
 20
526.6383647744966
 30
0.0
 10
187.1847078834344
 20
526.7079863789336
 30
0.0
 10
187.1847350369632
 20
526.7868869136702
 30
0.0
 10
187.1847497589169
 20
526.8751296118907
 30
0.0
 10
187.184752210959
 20
526.9727650248924
 30
0.0
 10
187.1847437336978
 20
527.0798376565715
 30
0.0
 10
187.1847265139185
 20
527.1963846295216
 30
0.0
 10
187.1847032727433
 20
527.322436449782
 30
0.0
 10
187.1846769690974
 20
527.4580171802493
 30
0.0
 10
187.1846505303031
 20
527.6031447203382
 30
0.0
 10
187.1846266168079
 20
527.7578309898081
 30
0.0
 10
187.1846074286541
 20
527.9220820548642
 30
0.0
 10
187.1845945599615
 20
528.095898172733
 30
0.0
 10
187.1845889063744
 20
528.2792737501754
 30
0.0
 10
187.1845906286235
 20
528.4721972098628
 30
0.0
 10
187.1845991732556
 20
528.6746507632663
 30
0.0
 10
187.1846133491926
 20
528.88661009239
 30
0.0
 10
187.184631456221
 20
529.108043947034
 30
0.0
 10
187.1846514587031
 20
529.3389136689398
 30
0.0
 10
187.1846711954639
 20
529.5791726580352
 30
0.0
 10
187.184688612702
 20
529.8287658028137
 30
0.0
 10
187.1847020097754
 20
530.0876288916484
 30
0.0
 10
187.1847102653026
 20
530.35568805961
 30
0.0
 10
187.1847130850477
 20
530.632859207551
 30
0.0
 10
187.1847110277376
 20
530.9190478388076
 30
0.0
 10
187.1847038277836
 20
531.2141515152645
 30
0.0
 10
187.1846918170784
 20
531.5180574026446
 30
0.0
 10
187.1846757663856
 20
531.8306423546123
 30
0.0
 10
187.1846568041473
 20
532.1517728811162
 30
0.0
 10
187.1846362070815
 20
532.4813067990203
 30
0.0
 10
187.1846153400182
 20
532.8190991947997
 30
0.0
 10
187.1845973545749
 20
533.1650051240811
 30
0.0
 10
187.1845847047638
 20
533.5188796177503
 30
0.0
 10
187.1845792301065
 20
533.8805731313023
 30
0.0
 10
187.1845820668434
 20
534.2499307868114
 30
0.0
 10
187.1845936143914
 20
534.6267927382773
 30
0.0
 10
187.1846135083245
 20
535.0109945047406
 30
0.0
 10
187.1846406232625
 20
535.4023672591063
 30
0.0
 10
187.1846731069618
 20
535.8007380642374
 30
0.0
 10
187.1847084494347
 20
536.2059300523505
 30
0.0
 10
187.1847435873231
 20
536.6177625477128
 30
0.0
 10
187.1847750385619
 20
537.0360511397611
 30
0.0
 10
187.1847990694909
 20
537.4606077088596
 30
0.0
 10
187.1848118567884
 20
537.8912404452979
 30
0.0
 10
187.184809745582
 20
538.3277537742891
 30
0.0
 10
187.1847891758401
 20
538.7699485907083
 30
0.0
 10
187.1847478342405
 20
539.2176210472886
 30
0.0
 10
187.1846811371658
 20
539.6705629756726
 30
0.0
 10
187.1846046924752
 20
540.1285399041973
 30
0.0
 10
187.1845373928994
 20
540.5913098273
 30
0.0
 10
187.1844911188082
 20
541.0586370637963
 30
0.0
 10
187.1844725973407
 20
541.5302929841812
 30
0.0
 10
187.1844828266216
 20
542.0060568108374
 30
0.0
 10
187.1845178231041
 20
542.4857148152771
 30
0.0
 10
187.1845696109597
 20
542.9690589904968
 30
0.0
 10
187.1846276363052
 20
543.4558850900587
 30
0.0
 10
187.1846804119024
 20
543.9459902981152
 30
0.0
 10
187.1847172679597
 20
544.4391707447026
 30
0.0
 10
187.1847300404808
 20
544.9352191342954
 30
0.0
 10
187.1847145227468
 20
545.4339227691721
 30
0.0
 10
187.1846714969697
 20
545.9350622607118
 30
0.0
 10
187.1846071667207
 20
546.4384112168716
 30
0.0
 10
187.1845328111908
 20
546.9437371881853
 30
0.0
 10
187.1844635275892
 20
547.450804098081
 30
0.0
 10
187.1844158418481
 20
547.9593764590643
 30
0.0
 10
187.1844044081071
 20
548.4692252020069
 30
0.0
 10
187.1844365236267
 20
548.9801364745659
 30
0.0
 10
187.1845089541101
 20
549.4919187555513
 30
0.0
 10
187.1845902262575
 20
550.0044257430027
 30
0.0
 10
187.1846515065622
 20
550.5175294808056
 30
0.0
 10
187.1845577075965
 20
550.8599315451793
 30
0.0
 10
187.1845107954887
 20
551.0311786632753
 30
0.0
  0
SPLINE
  5
A5
330
1F
100
AcDbEntity
  8
0
  6
SLD-Durchgehend
 62
     8
370
     0
100
AcDbSpline
210
0.0
220
0.0
230
1.0
 70
     8
 71
     3
 72
    32
 73
    28
 74
     0
 42
0.00000001
 43
0.00000001
 40
0.0
 40
0.0
 40
0.0
 40
0.0
 40
0.1249999999999996
 40
0.1249999999999996
 40
0.1874999999999994
 40
0.1874999999999994
 40
0.2499999999999992
 40
0.2499999999999992
 40
0.3749999999999988
 40
0.3749999999999988
 40
0.4374999999999989
 40
0.4374999999999989
 40
0.4999999999999989
 40
0.4999999999999989
 40
0.6249999999999991
 40
0.6249999999999991
 40
0.6874999999999992
 40
0.6874999999999992
 40
0.7499999999999993
 40
0.7499999999999993
 40
0.8124999999999996
 40
0.8124999999999996
 40
0.8749999999999997
 40
0.8749999999999997
 40
0.9374999999999998
 40
0.9374999999999998
 40
1.0
 40
1.0
 40
1.0
 40
1.0
 10
203.4494940183721
 20
551.0312149331992
 30
0.0
 10
203.4491430220857
 20
551.0331003490112
 30
0.0
 10
203.3467833154683
 20
551.0365924196883
 30
0.0
 10
203.0436132940252
 20
551.0438699961554
 30
0.0
 10
202.9173387044753
 20
551.0465909530409
 30
0.0
 10
202.6123001043903
 20
551.0522049597737
 30
0.0
 10
202.4324810207852
 20
551.0550993348676
 30
0.0
 10
201.8247041862875
 20
551.063060781672
 30
0.0
 10
201.3270940376181
 20
551.0674315638629
 30
0.0
 10
200.4455541002672
 20
551.0721559374341
 30
0.0
 10
200.1285260216671
 20
551.0734448328649
 30
0.0
 10
199.4489680915854
 20
551.0753428802863
 30
0.0
 10
199.091308627798
 20
551.0759349665811
 30
0.0
 10
197.9662119492256
 20
551.0764659678249
 30
0.0
 10
197.1472117246375
 20
551.0750476034564
 30
0.0
 10
195.8137386999191
 20
551.0705839793119
 30
0.0
 10
195.350922265605
 20
551.0687939380208
 30
0.0
 10
194.4101769096275
 20
551.0642858945308
 30
0.0
 10
193.9298284289273
 20
551.0616071490928
 30
0.0
 10
192.9497231592082
 20
551.0558883152714
 30
0.0
 10
192.4499701229675
 20
551.0528561313718
 30
0.0
 10
191.430786740103
 20
551.0469845994571
 30
0.0
 10
190.9096564450012
 20
551.0441413138237
 30
0.0
 10
189.8557522654435
 20
551.0391057719245
 30
0.0
 10
189.3236411791091
 20
551.0369168584947
 30
0.0
 10
188.2572229033406
 20
551.0333955155807
 30
0.0
 10
187.7219502835459
 20
551.0320883657507
 30
0.0
 10
187.1847651751677
 20
551.0311787509818
 30
0.0
  0
SPLINE
  5
A6
330
1F
100
AcDbEntity
  8
0
  6
SLD-Durchgehend
 62
     8
370
     0
100
AcDbSpline
210
0.0
220
0.0
230
1.0
 70
     8
 71
     3
 72
    32
 73
    28
 74
     0
 42
0.00000001
 43
0.00000001
 40
0.0
 40
0.0
 40
0.0
 40
0.0
 40
0.125
 40
0.125
 40
0.1875
 40
0.1875
 40
0.25
 40
0.25
 40
0.3749999999999999
 40
0.3749999999999999
 40
0.4374999999999999
 40
0.4374999999999999
 40
0.4999999999999999
 40
0.4999999999999999
 40
0.6250000000000001
 40
0.6250000000000001
 40
0.6875000000000001
 40
0.6875000000000001
 40
0.7500000000000001
 40
0.7500000000000001
 40
0.8125000000000001
 40
0.8125000000000001
 40
0.8750000000000001
 40
0.8750000000000001
 40
0.9375000000000001
 40
0.9375000000000001
 40
1.0
 40
1.0
 40
1.0
 40
1.0
 10
187.1845107954514
 20
551.0311787509817
 30
0.0
 10
186.1105229393889
 20
551.0329973330687
 30
0.0
 10
185.0530743827423
 20
551.0365510420708
 30
0.0
 10
183.4933482061127
 20
551.0439689812423
 30
0.0
 10
182.9778042257574
 20
551.0467659623023
 30
0.0
 10
181.9555909526144
 20
551.0526397921756
 30
0.0
 10
181.4467946247019
 20
551.0557255311672
 30
0.0
 10
179.9658585138746
 20
551.0643778923582
 30
0.0
 10
179.0299171646668
 20
551.0689648201129
 30
0.0
 10
177.703360311207
 20
551.0734512475946
 30
0.0
 10
177.2740391724315
 20
551.0746047190128
 30
0.0
 10
176.4420519282619
 20
551.0760272429096
 30
0.0
 10
176.0460617795293
 20
551.0762842244994
 30
0.0
 10
174.9185345569013
 20
551.0757909424684
 30
0.0
 10
174.2458652270322
 20
551.0738388048859
 30
0.0
 10
173.3558172810368
 20
551.0691329685333
 30
0.0
 10
173.0787606854262
 20
551.067244370425
 30
0.0
 10
172.5770514010735
 20
551.0629377266928
 30
0.0
 10
172.3507220581207
 20
551.0605055775479
 30
0.0
 10
171.9466186314868
 20
551.055243212585
 30
0.0
 10
171.7688619992803
 20
551.0524033194489
 30
0.0
 10
171.4623442242252
 20
551.0468014475844
 30
0.0
 10
171.3332949753079
 20
551.0440415415346
 30
0.0
 10
171.1265988733857
 20
551.0391025607697
 30
0.0
 10
171.0491329855608
 20
551.0369349979466
 30
0.0
 10
170.9459219377038
 20
551.0334613025412
 30
0.0
 10
170.9199575170783
 20
551.0321579993275
 30
0.0
 10
170.9197819522471
 20
551.0312149331992
 30
0.0
  0
SPLINE
  5
A7
330
1F
100
AcDbEntity
  8
0
  6
SLD-Durchgehend
 62
     8
370
     0
100
AcDbSpline
210
0.0
220
0.0
230
1.0
 70
     8
 71
     3
 72
    46
 73
    42
 74
     0
 42
0.00000001
 43
0.00000001
 40
0.0
 40
0.0
 40
0.0
 40
0.0
 40
0.1250000000000001
 40
0.1250000000000001
 40
0.1875000000000001
 40
0.1875000000000001
 40
0.2500000000000002
 40
0.2500000000000002
 40
0.3125000000000003
 40
0.3125000000000003
 40
0.3437500000000002
 40
0.3437500000000002
 40
0.3750000000000002
 40
0.3750000000000002
 40
0.4374999999999999
 40
0.4374999999999999
 40
0.4531249999999999
 40
0.4531249999999999
 40
0.4687499999999999
 40
0.4687499999999999
 40
0.5
 40
0.5
 40
0.5624999999999999
 40
0.5624999999999999
 40
0.578125
 40
0.578125
 40
0.5937500000000001
 40
0.5937500000000001
 40
0.625
 40
0.625
 40
0.6875000000000001
 40
0.6875000000000001
 40
0.7187500000000001
 40
0.7187500000000001
 40
0.7500000000000001
 40
0.7500000000000001
 40
0.8125000000000001
 40
0.8125000000000001
 40
0.8750000000000001
 40
0.8750000000000001
 40
1.0
 40
1.0
 40
1.0
 40
1.0
 10
242.2307225941365
 20
523.9582287735133
 30
0.0
 10
242.211222360291
 20
523.9431638105411
 30
0.0
 10
242.0649387987073
 20
523.9271702587539
 30
0.0
 10
241.6514238080112
 20
523.8981395418876
 30
0.0
 10
241.4813833193482
 20
523.8873059575421
 30
0.0
 10
241.0612148292472
 20
523.8613949304441
 30
0.0
 10
240.8106064162012
 20
523.8463885393359
 30
0.0
 10
240.1977251118818
 20
523.811348675155
 30
0.0
 10
239.8360728174918
 20
523.7913191269278
 30
0.0
 10
239.167432946697
 20
523.7571968393079
 30
0.0
 10
238.9231769261764
 20
523.7451576893967
 30
0.0
 10
238.3800792303612
 20
523.7201804820306
 30
0.0
 10
238.0802630647533
 20
523.7071960290775
 30
0.0
 10
237.0859086789651
 20
523.6688388909284
 30
0.0
 10
236.2970618682561
 20
523.6436154526367
 30
0.0
 10
235.0721474697733
 20
523.624549091826
 30
0.0
 10
234.8151365813733
 20
523.6213766210808
 30
0.0
 10
234.2746226054935
 20
523.6166526787339
 30
0.0
 10
233.9904522317083
 20
523.6151019401888
 30
0.0
 10
233.0994839464919
 20
523.6133596865269
 30
0.0
 10
232.4525454210009
 20
523.6161898349856
 30
0.0
 10
230.390514692091
 20
523.6370047866455
 30
0.0
 10
228.8466274865452
 20
523.6672801080315
 30
0.0
 10
226.736672003513
 20
523.7126468673641
 30
0.0
 10
226.3044276161147
 20
523.7220917616443
 30
0.0
 10
225.432303671334
 20
523.7410762834564
 30
0.0
 10
224.9919562385309
 20
523.7506247472749
 30
0.0
 10
223.6594942458175
 20
523.7789407012439
 30
0.0
 10
222.7559967670222
 20
523.7972263440694
 30
0.0
 10
220.0100446631188
 20
523.8479317605
 30
0.0
 10
218.1326835064428
 20
523.8761257585572
 30
0.0
 10
215.2733465655812
 20
523.909122391503
 30
0.0
 10
214.3127540591488
 20
523.918607100602
 30
0.0
 10
212.3920170357467
 20
523.9350663417687
 30
0.0
 10
211.4301130453854
 20
523.942081300616
 30
0.0
 10
208.5406778313813
 20
523.9601165049506
 30
0.0
 10
206.6094677030182
 20
523.9681529137206
 30
0.0
 10
202.7402165055137
 20
523.9791062720842
 30
0.0
 10
200.8022040439746
 20
523.9818887651712
 30
0.0
 10
194.980081670184
 20
523.987312922232
 30
0.0
 10
191.0878053068723
 20
523.9879948780177
 30
0.0
 10
187.1846379853096
 20
523.9874867091559
 30
0.0
  0
SPLINE
  5
A8
330
1F
100
AcDbEntity
  8
0
  6
SLD-Durchgehend
 62
     8
370
     0
100
AcDbSpline
210
0.0
220
0.0
230
1.0
 70
     8
 71
     3
 72
    14
 73
    10
 74
     0
 42
0.00000001
 43
0.00000001
 40
0.0
 40
0.0
 40
0.0
 40
0.0
 40
0.25
 40
0.25
 40
0.5
 40
0.5
 40
0.75
 40
0.75
 40
1.0
 40
1.0
 40
1.0
 40
1.0
 10
187.1846379853096
 20
525.6878418047331
 30
0.0
 10
187.1846379852957
 20
525.6497036789107
 30
0.0
 10
187.1846379853185
 20
525.577738508373
 30
0.0
 10
187.1846379853393
 20
525.3704768894626
 30
0.0
 10
187.1846379852832
 20
525.2379704679197
 30
0.0
 10
187.1846379852767
 20
524.927564725311
 30
0.0
 10
187.1846379854111
 20
524.752468334609
 30
0.0
 10
187.1846379854496
 20
524.3765209600751
 30
0.0
 10
187.184637985173
 20
524.1828120106286
 30
0.0
 10
187.1846379852495
 20
523.9874867091594
 30
0.0
  0
SPLINE
  5
A9
330
1F
100
AcDbEntity
  8
0
  6
SLD-Durchgehend
 62
     8
370
     0
100
AcDbSpline
210
0.0
220
0.0
230
1.0
 70
     8
 71
     3
 72
    24
 73
    20
 74
     0
 42
0.00000001
 43
0.00000001
 40
0.0
 40
0.0
 40
0.0
 40
0.0
 40
0.089533653423797
 40
0.1791801254891914
 40
0.2687082828932308
 40
0.3580803746567995
 40
0.4073246770822457
 40
0.4566100686080153
 40
0.5056834944473068
 40
0.5547227354803825
 40
0.6037034836342531
 40
0.6273194761785471
 40
0.6668997454008818
 40
0.7066518402999702
 40
0.7463463197353771
 40
0.8086925088995761
 40
0.871172086330752
 40
0.9336317236295468
 40
1.0
 40
1.0
 40
1.0
 40
1.0
 10
187.1846379853096
 20
525.6878418129222
 30
0.0
 10
189.5098066156969
 20
525.6884300254724
 30
0.0
 10
194.1630737509528
 20
525.6896071917615
 30
0.0
 10
201.1343701434188
 20
525.6940860881369
 30
0.0
 10
208.0745501880171
 20
525.6978374997958
 30
0.0
 10
213.9209775769828
 20
525.6997357489489
 30
0.0
 10
218.6699095919158
 20
525.6976009288164
 30
0.0
 10
222.3176806983535
 20
525.694082061683
 30
0.0
 10
225.8137363096141
 20
525.690273529772
 30
0.0
 10
229.0275427304143
 20
525.6901474097842
 30
0.0
 10
231.3441707230928
 20
525.6950068763264
 30
0.0
 10
233.1597486326399
 20
525.7022782298707
 30
0.0
 10
234.5850716278105
 20
525.7104704323586
 30
0.0
 10
235.9160738602717
 20
525.7199609280661
 30
0.0
 10
237.1858142250825
 20
525.728579832368
 30
0.0
 10
238.3080479542845
 20
525.7314674292028
 30
0.0
 10
239.209640994007
 20
525.7283842873128
 30
0.0
 10
239.9047567389268
 20
525.7210184762172
 30
0.0
 10
240.1572413928785
 20
525.7158223740074
 30
0.0
 10
240.2873139122223
 20
525.7131454980286
 30
0.0
  0
ARC
  5
AA
330
1F
100
AcDbEntity
  8
0
  6
SLD-Durchgehend
 62
     8
370
     0
100
AcDbCircle
 10
240.6341187058
 20
524.1200907645
 30
0.0
 40
1.604788373740764
100
AcDbArc
 50
354.2111942681
 51
78.8289305569
  0
SPLINE
  5
AB
330
1F
100
AcDbEntity
  8
0
  6
SLD-Durchgehend
 62
     8
370
     0
100
AcDbSpline
210
0.0
220
0.0
230
1.0
 70
     8
 71
     3
 72
    46
 73
    42
 74
     0
 42
0.00000001
 43
0.00000001
 40
0.0
 40
0.0
 40
0.0
 40
0.0
 40
0.125
 40
0.125
 40
0.1875000000000001
 40
0.1875000000000001
 40
0.2500000000000001
 40
0.2500000000000001
 40
0.2812500000000001
 40
0.2812500000000001
 40
0.3125000000000001
 40
0.3125000000000001
 40
0.3750000000000002
 40
0.3750000000000002
 40
0.4062500000000003
 40
0.4062500000000003
 40
0.4218750000000003
 40
0.4218750000000003
 40
0.4375000000000004
 40
0.4375000000000004
 40
0.5000000000000004
 40
0.5000000000000004
 40
0.5312500000000004
 40
0.5312500000000004
 40
0.5468750000000004
 40
0.5468750000000004
 40
0.5625000000000004
 40
0.5625000000000004
 40
0.6250000000000004
 40
0.6250000000000004
 40
0.6562500000000006
 40
0.6562500000000006
 40
0.6875000000000006
 40
0.6875000000000006
 40
0.7500000000000006
 40
0.7500000000000006
 40
0.8125000000000004
 40
0.8125000000000004
 40
0.8750000000000003
 40
0.8750000000000003
 40
1.0
 40
1.0
 40
1.0
 40
1.0
 10
187.1846379853096
 20
523.9874867091559
 30
0.0
 10
183.2814706637469
 20
523.9879948780177
 30
0.0
 10
179.389194300435
 20
523.987312922232
 30
0.0
 10
173.5670719266444
 20
523.9818887651712
 30
0.0
 10
171.6290594651053
 20
523.9791062720842
 30
0.0
 10
167.7598082676008
 20
523.9681529137206
 30
0.0
 10
165.8285981392377
 20
523.9601165049506
 30
0.0
 10
162.9391629252336
 20
523.942081300616
 30
0.0
 10
161.9772589348723
 20
523.9350663417687
 30
0.0
 10
160.0565219114702
 20
523.918607100602
 30
0.0
 10
159.0959294050378
 20
523.909122391503
 30
0.0
 10
156.2365924641763
 20
523.8761257585572
 30
0.0
 10
154.3592313075002
 20
523.8479317605
 30
0.0
 10
151.6132792035968
 20
523.7972263440694
 30
0.0
 10
150.7097817248015
 20
523.7789407012439
 30
0.0
 10
149.3773197320881
 20
523.7506247472747
 30
0.0
 10
148.9369722992851
 20
523.7410762834564
 30
0.0
 10
148.0648483545043
 20
523.7220917616443
 30
0.0
 10
147.632603967106
 20
523.7126468673641
 30
0.0
 10
145.5226484840739
 20
523.6672801080315
 30
0.0
 10
143.9787612785281
 20
523.6370047866455
 30
0.0
 10
141.9167305496181
 20
523.6161898349856
 30
0.0
 10
141.2697920241272
 20
523.6133596865269
 30
0.0
 10
140.3788237389108
 20
523.6151019401888
 30
0.0
 10
140.0946533651256
 20
523.6166526787339
 30
0.0
 10
139.5541393892457
 20
523.6213766210808
 30
0.0
 10
139.2971285008458
 20
523.624549091826
 30
0.0
 10
138.072214102363
 20
523.6436154526367
 30
0.0
 10
137.283367291654
 20
523.6688388909284
 30
0.0
 10
136.2890129058658
 20
523.7071960290775
 30
0.0
 10
135.9891967402579
 20
523.7201804820305
 30
0.0
 10
135.4460990444427
 20
523.7451576893966
 30
0.0
 10
135.2018430239221
 20
523.7571968393079
 30
0.0
 10
134.5332031531273
 20
523.7913191269278
 30
0.0
 10
134.1715508587374
 20
523.811348675155
 30
0.0
 10
133.5586695544179
 20
523.8463885393359
 30
0.0
 10
133.308061141372
 20
523.8613949304441
 30
0.0
 10
132.8878926512709
 20
523.8873059575421
 30
0.0
 10
132.717852162608
 20
523.8981395418876
 30
0.0
 10
132.3043371719119
 20
523.9271702587539
 30
0.0
 10
132.1580536103281
 20
523.9431638105411
 30
0.0
 10
132.1385533764826
 20
523.9582287735133
 30
0.0
  0
ARC
  5
AC
330
1F
100
AcDbEntity
  8
0
  6
SLD-Durchgehend
 62
     8
370
     0
100
AcDbCircle
 10
133.735157468
 20
524.1200907645
 30
0.0
 40
1.604788373740764
100
AcDbArc
 50
101.1710694431
 51
185.7888057319
  0
SPLINE
  5
AD
330
1F
100
AcDbEntity
  8
0
  6
SLD-Durchgehend
 62
     8
370
     0
100
AcDbSpline
210
0.0
220
0.0
230
1.0
 70
     8
 71
     3
 72
    48
 73
    44
 74
     0
 42
0.00000001
 43
0.00000001
 40
0.0
 40
0.0
 40
0.0
 40
0.0
 40
0.0312499999999999
 40
0.0312499999999999
 40
0.0624999999999999
 40
0.0624999999999999
 40
0.1249999999999998
 40
0.1249999999999998
 40
0.1874999999999996
 40
0.1874999999999996
 40
0.2499999999999996
 40
0.2499999999999996
 40
0.3124999999999995
 40
0.3124999999999995
 40
0.3437499999999994
 40
0.3437499999999994
 40
0.3749999999999993
 40
0.3749999999999993
 40
0.4374999999999994
 40
0.4374999999999994
 40
0.4687499999999996
 40
0.4687499999999996
 40
0.4999999999999998
 40
0.4999999999999998
 40
0.5625000000000002
 40
0.5625000000000002
 40
0.5781250000000004
 40
0.5781250000000004
 40
0.5937500000000006
 40
0.5937500000000006
 40
0.6250000000000006
 40
0.6250000000000006
 40
0.6875000000000006
 40
0.6875000000000006
 40
0.7187500000000004
 40
0.7187500000000004
 40
0.7500000000000003
 40
0.7500000000000003
 40
0.8125000000000002
 40
0.8125000000000002
 40
0.8750000000000001
 40
0.8750000000000001
 40
1.0
 40
1.0
 40
1.0
 40
1.0
 10
133.4242464699188
 20
525.6944733933655
 30
0.0
 10
133.4285620633353
 20
525.6954497800773
 30
0.0
 10
133.4406829314653
 20
525.6963963380176
 30
0.0
 10
133.4800958050575
 20
525.6983558597864
 30
0.0
 10
133.5073940673305
 20
525.699369978616
 30
0.0
 10
133.6118370049005
 20
525.7027153700237
 30
0.0
 10
133.711291258494
 20
525.7054694097463
 30
0.0
 10
133.9733726049613
 20
525.7116637759051
 30
0.0
 10
134.1352871648567
 20
525.7150999457368
 30
0.0
 10
134.5359949170004
 20
525.7214737749466
 30
0.0
 10
134.7753527105284
 20
525.7244430761514
 30
0.0
 10
135.3613181690432
 20
525.7288734747455
 30
0.0
 10
135.7072712263906
 20
525.7304125101205
 30
0.0
 10
136.3470533822475
 20
525.730418498921
 30
0.0
 10
136.5807811525196
 20
525.7300160535299
 30
0.0
 10
137.1005491068125
 20
525.7282182294357
 30
0.0
 10
137.3875256000706
 20
525.7268129905049
 30
0.0
 10
138.3418816075221
 20
525.721111116292
 30
0.0
 10
139.0993795196108
 20
525.7150935003416
 30
0.0
 10
140.5192425793422
 20
525.706241705568
 30
0.0
 10
141.0413124959939
 20
525.7033452687434
 30
0.0
 10
142.1979766068145
 20
525.6982208263169
 30
0.0
 10
142.8301890447569
 20
525.6960226265785
 30
0.0
 10
144.8518807860777
 20
525.6907860069896
 30
0.0
 10
146.3725569092148
 20
525.6896178104881
 30
0.0
 10
148.4511116735837
 20
525.6907455756602
 30
0.0
 10
148.8763971626344
 20
525.691080589331
 30
0.0
 10
149.7329110602372
 20
525.6918802432101
 30
0.0
 10
150.1653325349567
 20
525.6923449105102
 30
0.0
 10
151.4736078514464
 20
525.6938010352753
 30
0.0
 10
152.3604107700868
 20
525.6948251654022
 30
0.0
 10
155.0546791572136
 20
525.6974605929528
 30
0.0
 10
156.8954721258717
 20
525.6985698281866
 30
0.0
 10
159.6979968491877
 20
525.6990066159259
 30
0.0
 10
160.6380443775585
 20
525.6989676818723
 30
0.0
 10
162.5179321379862
 20
525.6986638062733
 30
0.0
 10
163.4593412554233
 20
525.6983890899266
 30
0.0
 10
166.2871405072424
 20
525.6972688443223
 30
0.0
 10
168.1770624185852
 20
525.6961285090018
 30
0.0
 10
171.9634869916443
 20
525.6936035383407
 30
0.0
 10
173.8599579370347
 20
525.6921937609944
 30
0.0
 10
179.5571523412526
 20
525.6886922994297
 30
0.0
 10
183.3656760008382
 20
525.6882311500284
 30
0.0
 10
187.1846379853096
 20
525.6878418047331
 30
0.0
  0
SPLINE
  5
AE
330
1F
100
AcDbEntity
  8
0
  6
SLD-Durchgehend
 62
     8
370
     0
100
AcDbSpline
210
0.0
220
0.0
230
1.0
 70
     8
 71
     3
 72
    48
 73
    44
 74
     0
 42
0.00000001
 43
0.00000001
 40
0.0
 40
0.0
 40
0.0
 40
0.0
 40
0.015625
 40
0.015625
 40
0.0312500000000001
 40
0.0312500000000001
 40
0.0625000000000001
 40
0.0625000000000001
 40
0.1250000000000002
 40
0.1250000000000002
 40
0.1875000000000002
 40
0.1875000000000002
 40
0.2500000000000002
 40
0.2500000000000002
 40
0.3125000000000001
 40
0.3125000000000001
 40
0.3749999999999999
 40
0.3749999999999999
 40
0.4062499999999999
 40
0.4062499999999999
 40
0.4374999999999998
 40
0.4374999999999998
 40
0.4999999999999998
 40
0.4999999999999998
 40
0.5156249999999998
 40
0.5156249999999998
 40
0.5312499999999999
 40
0.5312499999999999
 40
0.5625
 40
0.5625
 40
0.625
 40
0.625
 40
0.6562500000000001
 40
0.6562500000000001
 40
0.6875000000000001
 40
0.6875000000000001
 40
0.7500000000000001
 40
0.7500000000000001
 40
0.8125000000000002
 40
0.8125000000000002
 40
0.8750000000000002
 40
0.8750000000000002
 40
1.0
 40
1.0
 40
1.0
 40
1.0
 10
142.5604205843231
 20
500.6778899442336
 30
0.0
 10
142.5499080354111
 20
500.7161416627021
 30
0.0
 10
142.5411386425208
 20
500.7547056840614
 30
0.0
 10
142.527499062317
 20
500.8314519474415
 30
0.0
 10
142.5225829022769
 20
500.8698012795235
 30
0.0
 10
142.5137640822511
 20
500.9847717874455
 30
0.0
 10
142.5157856454533
 20
501.0613156166762
 30
0.0
 10
142.5474811740769
 20
501.2905838959913
 30
0.0
 10
142.6026609068287
 20
501.4429474602262
 30
0.0
 10
142.7938845728893
 20
501.7463692352506
 30
0.0
 10
142.9298408952264
 20
501.8974268433161
 30
0.0
 10
143.3002767707622
 20
502.197827508713
 30
0.0
 10
143.5346013527946
 20
502.3471686084251
 30
0.0
 10
144.1286036494807
 20
502.6437679641732
 30
0.0
 10
144.4853573377891
 20
502.7895443937509
 30
0.0
 10
145.3483380801517
 20
503.0751372939295
 30
0.0
 10
145.8543269379975
 20
503.2149574506622
 30
0.0
 10
146.7589654857007
 20
503.419512886523
 30
0.0
 10
147.0849234808352
 20
503.4868350503685
 30
0.0
 10
147.7934584528183
 20
503.6196195124027
 30
0.0
 10
148.1772068321467
 20
503.6852153491295
 30
0.0
 10
149.4051264554434
 20
503.8757274846722
 30
0.0
 10
150.3308007599608
 20
503.9954160574553
 30
0.0
 10
151.6448115581184
 20
504.134935573604
 30
0.0
 10
151.9154649251554
 20
504.1623332409636
 30
0.0
 10
152.4730688345477
 20
504.2160849362072
 30
0.0
 10
152.7608443061268
 20
504.2425095193211
 30
0.0
 10
153.6429640898393
 20
504.3196025642793
 30
0.0
 10
154.2543233167888
 20
504.367968910803
 30
0.0
 10
156.1555602626688
 20
504.504279008717
 30
0.0
 10
157.5127119676477
 20
504.583415775411
 30
0.0
 10
159.6683804805305
 20
504.6856410520083
 30
0.0
 10
160.4064556472167
 20
504.7169131915024
 30
0.0
 10
161.8934277583315
 20
504.7733628796691
 30
0.0
 10
162.6455936943958
 20
504.7987025106661
 30
0.0
 10
164.9244116238845
 20
504.8670955483379
 30
0.0
 10
166.4732631298134
 20
504.9025406994704
 30
0.0
 10
169.6141339538287
 20
504.9580442431036
 30
0.0
 10
171.2056683340865
 20
504.9780532521615
 30
0.0
 10
174.3915736337013
 20
505.0070872161544
 30
0.0
 10
175.9873722285956
 20
505.0161682922685
 30
0.0
 10
180.7801665281891
 20
505.03370494824
 30
0.0
 10
183.9829644286722
 20
505.0328303281695
 30
0.0
 10
187.1846379853095
 20
505.0328303281696
 30
0.0
  0
SPLINE
  5
AF
330
1F
100
AcDbEntity
  8
0
  6
SLD-Durchgehend
 62
     8
370
     0
100
AcDbSpline
210
0.0
220
0.0
230
1.0
 70
     8
 71
     3
 72
     9
 73
     5
 74
     0
 42
0.00000001
 43
0.00000001
 40
0.0535990738565804
 40
0.0535990738565804
 40
0.0535990738565804
 40
0.0535990738565804
 40
0.5
 40
0.9303978674805705
 40
0.9303978674805705
 40
0.9303978674805705
 40
0.9303978674805705
 10
132.1385160448103
 20
523.9582577661337
 30
0.0
 10
132.5418205423624
 20
519.9788660153271
 30
0.0
 10
134.5422953553166
 20
512.6192563314061
 30
0.0
 10
139.3872782779651
 20
504.8723005206037
 30
0.0
 10
142.5604242246978
 20
500.6778851322127
 30
0.0
  0
SPLINE
  5
B0
330
1F
100
AcDbEntity
  8
0
  6
SLD-Durchgehend
 62
     8
370
     0
100
AcDbSpline
210
0.0
220
0.0
230
1.0
 70
    24
 71
     3
 72
     9
 73
     5
 74
     0
 42
0.00000001
 43
0.00000001
 40
0.0570411366458444
 40
0.0570411366458444
 40
0.0570411366458444
 40
0.0570411366458444
 40
0.5
 40
0.940147078781018
 40
0.940147078781018
 40
0.940147078781018
 40
0.940147078781018
 10
187.1846379853096
 20
523.987486709175
 30
0.0
 10
187.1846379853096
 20
520.3611074848188
 30
0.0
 10
187.1846379853096
 20
513.681212542741
 30
0.0
 10
187.1846379853096
 20
507.8196170518378
 30
0.0
 10
187.1846379853096
 20
505.0328303281695
 30
0.0
  0
SPLINE
  5
B1
330
1F
100
AcDbEntity
  8
0
  6
SLD-Durchgehend
 62
     8
370
     0
100
AcDbSpline
210
0.0
220
0.0
230
1.0
 70
     8
 71
     3
 72
     9
 73
     5
 74
     0
 42
0.00000001
 43
0.00000001
 40
0.0535990738565804
 40
0.0535990738565804
 40
0.0535990738565804
 40
0.0535990738565804
 40
0.5
 40
0.9303978674805705
 40
0.9303978674805705
 40
0.9303978674805705
 40
0.9303978674805705
 10
242.2307599258088
 20
523.9582577661337
 30
0.0
 10
241.8274554282567
 20
519.9788660153271
 30
0.0
 10
239.8269806153025
 20
512.6192563314061
 30
0.0
 10
234.981997692654
 20
504.8723005206037
 30
0.0
 10
231.8088517459214
 20
500.6778851322127
 30
0.0
  0
SPLINE
  5
B2
330
1F
100
AcDbEntity
  8
0
  6
SLD-Durchgehend
 62
     8
370
     0
100
AcDbSpline
210
0.0
220
0.0
230
1.0
 70
     8
 71
     3
 72
    50
 73
    46
 74
     0
 42
0.00000001
 43
0.00000001
 40
0.0
 40
0.0
 40
0.0
 40
0.0
 40
0.1249999999999994
 40
0.1249999999999994
 40
0.1874999999999991
 40
0.1874999999999991
 40
0.2187499999999989
 40
0.2187499999999989
 40
0.2499999999999987
 40
0.2499999999999987
 40
0.3124999999999984
 40
0.3124999999999984
 40
0.3437499999999982
 40
0.3437499999999982
 40
0.359374999999998
 40
0.359374999999998
 40
0.3749999999999978
 40
0.3749999999999978
 40
0.4374999999999973
 40
0.4374999999999973
 40
0.468749999999997
 40
0.468749999999997
 40
0.484374999999997
 40
0.484374999999997
 40
0.4999999999999971
 40
0.4999999999999971
 40
0.5624999999999973
 40
0.5624999999999973
 40
0.5937499999999977
 40
0.5937499999999977
 40
0.6249999999999979
 40
0.6249999999999979
 40
0.6874999999999983
 40
0.6874999999999983
 40
0.7499999999999987
 40
0.7499999999999987
 40
0.812499999999999
 40
0.812499999999999
 40
0.8749999999999992
 40
0.8749999999999992
 40
0.9374999999999997
 40
0.9374999999999997
 40
0.9687499999999998
 40
0.9687499999999998
 40
1.0
 40
1.0
 40
1.0
 40
1.0
 10
187.1846379853096
 20
505.0328303281695
 30
0.0
 10
190.3770716576611
 20
505.0328303281695
 30
0.0
 10
193.5681442941398
 20
505.0336933096069
 30
0.0
 10
198.3438869883504
 20
505.0163508988421
 30
0.0
 10
199.9339521026528
 20
505.0073708061189
 30
0.0
 10
202.3146685095698
 20
504.9858447520054
 30
0.0
 10
203.1075067088916
 20
504.97732076548
 30
0.0
 10
204.6913861380802
 20
504.9569463678187
 30
0.0
 10
205.4833196139463
 20
504.9450753492295
 30
0.0
 10
207.8397063077838
 20
504.9037271066793
 30
0.0
 10
209.3891325274678
 20
504.8684964036468
 30
0.0
 10
211.6689791218071
 20
504.8004729307141
 30
0.0
 10
212.4215159863024
 20
504.7752645875523
 30
0.0
 10
213.5373501180638
 20
504.733137250049
 30
0.0
 10
213.9071303669387
 20
504.7183755801707
 30
0.0
 10
214.6420195033555
 20
504.6873206347523
 30
0.0
 10
215.0075115839493
 20
504.6710051331719
 30
0.0
 10
216.8062733013851
 20
504.5861510167319
 30
0.0
 10
218.1654570096284
 20
504.5072913491438
 30
0.0
 10
220.0699030785221
 20
504.3714105685618
 30
0.0
 10
220.6823575372055
 20
504.3231894542276
 30
0.0
 10
221.566150438707
 20
504.2463185446592
 30
0.0
 10
221.8547656781352
 20
504.2199435163927
 30
0.0
 10
222.4139409347651
 20
504.1662944101564
 30
0.0
 10
222.6853658718481
 20
504.1389472562657
 30
0.0
 10
224.0031641557971
 20
503.9996768472177
 30
0.0
 10
224.9316435939932
 20
503.8801766492512
 30
0.0
 10
226.1634492790474
 20
503.6899368369325
 30
0.0
 10
226.5485155389595
 20
503.6244201167352
 30
0.0
 10
227.2598044371371
 20
503.4917292554153
 30
0.0
 10
227.5870345844069
 20
503.4244521965829
 30
0.0
 10
228.4952391370798
 20
503.2200275840561
 30
0.0
 10
229.0032743512221
 20
503.0802887277319
 30
0.0
 10
229.8699158158376
 20
502.7948476052947
 30
0.0
 10
230.2282748813629
 20
502.6491456668963
 30
0.0
 10
230.8252286184182
 20
502.3526685897659
 30
0.0
 10
231.0621118957412
 20
502.2026476014332
 30
0.0
 10
231.4361392563792
 20
501.9008440430153
 30
0.0
 10
231.5732046261419
 20
501.7491788652645
 30
0.0
 10
231.7659190352742
 20
501.4447022556572
 30
0.0
 10
231.8214741429938
 20
501.2918915703821
 30
0.0
 10
231.8534570725136
 20
501.0620574344943
 30
0.0
 10
231.8555269435696
 20
500.9853424953776
 30
0.0
 10
231.8438020687923
 20
500.8317390540404
 30
0.0
 10
231.8299586746941
 20
500.7546778909771
 30
0.0
 10
231.808855386296
 20
500.6778899442336
 30
0.0
  0
LWPOLYLINE
  5
B3
330
1F
100
AcDbEntity
  8
0
  6
SLD-Durchgehend
 62
     8
370
     0
100
AcDbPolyline
 90
        3
 70
   128
 43
0.0
 10
242.230760608
 20
523.9582577176
 10
242.230760608
 20
523.9582574848
 10
242.2307233551
 20
523.9582287302
  0
SPLINE
  5
B4
330
1F
100
AcDbEntity
  8
0
  6
SLD-Durchgehend
 62
     8
370
     0
100
AcDbSpline
210
0.0
220
0.0
230
1.0
 70
    24
 71
     3
 72
     8
 73
     4
 74
     0
 42
0.00000001
 43
0.00000001
 40
0.1697971195247364
 40
0.1697971195247364
 40
0.1697971195247364
 40
0.1697971195247364
 40
0.8078398438209533
 40
0.8078398438209533
 40
0.8078398438209533
 40
0.8078398438209533
 10
187.1846379853096
 20
526.3643740268628
 30
0.0
 10
187.1846379853096
 20
526.2649365144746
 30
0.0
 10
187.1846379853096
 20
525.9960048593912
 30
0.0
 10
187.1846379853096
 20
525.6878418047331
 30
0.0
  0
LINE
  5
B5
330
1F
100
AcDbEntity
  8
0
  6
SLD-Durchgehend
 62
     8
370
     0
100
AcDbLine
 10
187.1846379853
 20
505.0328303749
 30
0.0
 11
187.1846379853
 21
504.8653916145
 31
0.0
  0
SPLINE
  5
B6
330
1F
100
AcDbEntity
  8
0
  6
SLD-Durchgehend
 62
     8
370
     0
100
AcDbSpline
210
0.0
220
0.0
230
1.0
 70
     8
 71
     3
 72
    46
 73
    42
 74
     0
 42
0.00000001
 43
0.00000001
 40
0.0
 40
0.0
 40
0.0
 40
0.0
 40
0.1250000000000013
 40
0.1250000000000013
 40
0.1875000000000019
 40
0.1875000000000019
 40
0.2187500000000022
 40
0.2187500000000022
 40
0.2500000000000026
 40
0.2500000000000026
 40
0.312500000000003
 40
0.312500000000003
 40
0.3437500000000032
 40
0.3437500000000032
 40
0.3593750000000033
 40
0.3593750000000033
 40
0.3750000000000033
 40
0.3750000000000033
 40
0.4375000000000029
 40
0.4375000000000029
 40
0.4687500000000026
 40
0.4687500000000026
 40
0.4843750000000027
 40
0.4843750000000027
 40
0.5000000000000027
 40
0.5000000000000027
 40
0.5625000000000024
 40
0.5625000000000024
 40
0.5937500000000022
 40
0.5937500000000022
 40
0.6250000000000019
 40
0.6250000000000019
 40
0.6875000000000016
 40
0.6875000000000016
 40
0.7500000000000012
 40
0.7500000000000012
 40
0.8125000000000009
 40
0.8125000000000009
 40
0.8750000000000006
 40
0.8750000000000006
 40
1.0
 40
1.0
 40
1.0
 40
1.0
 10
187.1846379853096
 20
504.8653909809224
 30
0.0
 10
184.0176939175575
 20
504.8653909809224
 30
0.0
 10
180.8523334265854
 20
504.862671517925
 30
0.0
 10
176.1151360121052
 20
504.8399711783981
 30
0.0
 10
174.537913705294
 20
504.8292385750213
 30
0.0
 10
172.1764266026885
 20
504.8056757068273
 30
0.0
 10
171.3899924824898
 20
504.7965708044439
 30
0.0
 10
169.8189078999416
 20
504.7752979391533
 30
0.0
 10
169.033233259819
 20
504.7631086193107
 30
0.0
 10
166.69487380942
 20
504.7212409155634
 30
0.0
 10
165.1570200025277
 20
504.6862721251027
 30
0.0
 10
162.8939940677272
 20
504.619151939224
 30
0.0
 10
162.1469769226549
 20
504.5943231929776
 30
0.0
 10
161.0393387176023
 20
504.5527600617519
 30
0.0
 10
160.6722769412823
 20
504.5381846636856
 30
0.0
 10
159.9428082672557
 20
504.5074735097485
 30
0.0
 10
159.5798629356498
 20
504.4913086968561
 30
0.0
 10
157.7935068156627
 20
504.4070448674973
 30
0.0
 10
156.4444453414687
 20
504.3281793617043
 30
0.0
 10
154.5564921776458
 20
504.1904659167002
 30
0.0
 10
153.9497528861019
 20
504.1413295897187
 30
0.0
 10
153.0749113102653
 20
504.0625769777303
 30
0.0
 10
152.7893990355363
 20
504.0354956303265
 30
0.0
 10
152.2366105776083
 20
503.9803023383959
 30
0.0
 10
151.9684621891951
 20
503.952114156649
 30
0.0
 10
150.6673823043551
 20
503.80832799207
 30
0.0
 10
149.7533547988801
 20
503.684200137142
 30
0.0
 10
148.5431845097095
 20
503.4864678776064
 30
0.0
 10
148.1654424567693
 20
503.4183725944192
 30
0.0
 10
147.4687022583668
 20
503.280687699356
 30
0.0
 10
147.1484869604466
 20
503.2109482878099
 30
0.0
 10
146.2603626646747
 20
502.9994196385808
 30
0.0
 10
145.7644085897884
 20
502.8553380396086
 30
0.0
 10
144.9190629751006
 20
502.5625056089266
 30
0.0
 10
144.5698679509967
 20
502.4137102251984
 30
0.0
 10
143.9889171457104
 20
502.1125326553627
 30
0.0
 10
143.7598254648724
 20
501.9615522185626
 30
0.0
 10
143.3977920249625
 20
501.6589778712801
 30
0.0
 10
143.2650086521489
 20
501.5073829502322
 30
0.0
 10
142.9853074198728
 20
501.051841161313
 30
0.0
 10
142.9558278821557
 20
500.7471449915353
 30
0.0
 10
143.0400251038108
 20
500.4417235200739
 30
0.0
  0
SPLINE
  5
B7
330
1F
100
AcDbEntity
  8
0
  6
SLD-Durchgehend
 62
     8
370
     0
100
AcDbSpline
210
0.0
220
0.0
230
1.0
 70
     8
 71
     3
 72
    10
 73
     6
 74
     0
 42
0.00000001
 43
0.00000001
 40
0.0
 40
0.0
 40
0.0
 40
0.0
 40
0.5
 40
0.5
 40
1.0
 40
1.0
 40
1.0
 40
1.0
 10
142.5604278502255
 20
500.6778803744257
 30
0.0
 10
142.6168758160713
 20
500.6038036274917
 30
0.0
 10
142.6885014621275
 20
500.5448865470402
 30
0.0
 10
142.8559603431171
 20
500.4624286884967
 30
0.0
 10
142.9451435604261
 20
500.4414808521461
 30
0.0
 10
143.0400251038246
 20
500.441723520074
 30
0.0
  0
SPLINE
  5
B8
330
1F
100
AcDbEntity
  8
0
  6
SLD-Durchgehend
 62
     8
370
     0
100
AcDbSpline
210
0.0
220
0.0
230
1.0
 70
     8
 71
     3
 72
    10
 73
     6
 74
     0
 42
0.00000001
 43
0.00000001
 40
0.0
 40
0.0
 40
0.0
 40
0.0
 40
0.5
 40
0.5
 40
1.0
 40
1.0
 40
1.0
 40
1.0
 10
231.8088481203936
 20
500.6778803744257
 30
0.0
 10
231.7524001545478
 20
500.6038036274918
 30
0.0
 10
231.6807745084926
 20
500.5448865470457
 30
0.0
 10
231.5133156275015
 20
500.4624286884982
 30
0.0
 10
231.4241324101916
 20
500.4414808521456
 30
0.0
 10
231.3292508667921
 20
500.4417235200714
 30
0.0
  0
SPLINE
  5
B9
330
1F
100
AcDbEntity
  8
0
  6
SLD-Durchgehend
 62
     8
370
     0
100
AcDbSpline
210
0.0
220
0.0
230
1.0
 70
     8
 71
     3
 72
    46
 73
    42
 74
     0
 42
0.00000001
 43
0.00000001
 40
0.0
 40
0.0
 40
0.0
 40
0.0
 40
0.1250000000000015
 40
0.1250000000000015
 40
0.1875000000000022
 40
0.1875000000000022
 40
0.250000000000003
 40
0.250000000000003
 40
0.3125000000000036
 40
0.3125000000000036
 40
0.3750000000000042
 40
0.3750000000000042
 40
0.4062500000000045
 40
0.4062500000000045
 40
0.4375000000000048
 40
0.4375000000000048
 40
0.5000000000000054
 40
0.5000000000000054
 40
0.5156250000000054
 40
0.5156250000000054
 40
0.5312500000000053
 40
0.5312500000000053
 40
0.5625000000000052
 40
0.5625000000000052
 40
0.6250000000000047
 40
0.6250000000000047
 40
0.6406250000000044
 40
0.6406250000000044
 40
0.6562500000000043
 40
0.6562500000000043
 40
0.6875000000000041
 40
0.6875000000000041
 40
0.7500000000000033
 40
0.7500000000000033
 40
0.781250000000003
 40
0.781250000000003
 40
0.8125000000000026
 40
0.8125000000000026
 40
0.8750000000000018
 40
0.8750000000000018
 40
1.0
 40
1.0
 40
1.0
 40
1.0
 10
231.3292508668076
 20
500.4417235200714
 30
0.0
 10
231.4134480884628
 20
500.7471449915329
 30
0.0
 10
231.3839685507469
 20
501.0518411613107
 30
0.0
 10
231.1042673184719
 20
501.5073829502301
 30
0.0
 10
230.9714839456587
 20
501.6589778712781
 30
0.0
 10
230.6094505057495
 20
501.9615522185607
 30
0.0
 10
230.3803588249119
 20
502.1125326553608
 30
0.0
 10
229.7994080196264
 20
502.4137102251967
 30
0.0
 10
229.4502129955228
 20
502.5625056089248
 30
0.0
 10
228.6048673808358
 20
502.8553380396069
 30
0.0
 10
228.1089133059501
 20
502.9994196385794
 30
0.0
 10
227.2207890101788
 20
503.2109482878084
 30
0.0
 10
226.9005737122588
 20
503.2806876993546
 30
0.0
 10
226.2038335138568
 20
503.4183725944179
 30
0.0
 10
225.8260914609169
 20
503.4864678776051
 30
0.0
 10
224.6159211717469
 20
503.6842001371409
 30
0.0
 10
223.7018936662722
 20
503.808327992069
 30
0.0
 10
222.4008137814326
 20
503.952114156648
 30
0.0
 10
222.1326653930196
 20
503.9803023383949
 30
0.0
 10
221.5798769350917
 20
504.0354956303256
 30
0.0
 10
221.2943646603628
 20
504.0625769777295
 30
0.0
 10
220.4195230845262
 20
504.1413295897179
 30
0.0
 10
219.8127837929823
 20
504.1904659166996
 30
0.0
 10
217.9248306291595
 20
504.3281793617037
 30
0.0
 10
216.5757691549654
 20
504.4070448674969
 30
0.0
 10
214.7894130349781
 20
504.4913086968556
 30
0.0
 10
214.4264677033721
 20
504.5074735097483
 30
0.0
 10
213.6969990293454
 20
504.5381846636853
 30
0.0
 10
213.3299372530253
 20
504.5527600617517
 30
0.0
 10
212.2222990479724
 20
504.5943231929772
 30
0.0
 10
211.4752819028998
 20
504.6191519392238
 30
0.0
 10
209.2122559680988
 20
504.6862721251025
 30
0.0
 10
207.674402161206
 20
504.7212409155633
 30
0.0
 10
205.3360427108063
 20
504.7631086193106
 30
0.0
 10
204.5503680706834
 20
504.7752979391533
 30
0.0
 10
202.9792834881348
 20
504.7965708044439
 30
0.0
 10
202.1928493679357
 20
504.8056757068272
 30
0.0
 10
199.8313622653294
 20
504.8292385750213
 30
0.0
 10
198.2541399585176
 20
504.8399711783981
 30
0.0
 10
193.5169425440359
 20
504.862671517925
 30
0.0
 10
190.3515820530628
 20
504.8653909809224
 30
0.0
 10
187.1846379853095
 20
504.8653909809224
 30
0.0
  0
SPLINE
  5
BA
330
1F
100
AcDbEntity
  8
0
  6
SLD-Durchgehend
 62
     8
370
     0
100
AcDbSpline
210
0.0
220
0.0
230
1.0
 70
     8
 71
     3
 72
    10
 73
     6
 74
     0
 42
0.00000001
 43
0.00000001
 40
0.0
 40
0.0
 40
0.0
 40
0.0
 40
0.5000000000000001
 40
0.5000000000000001
 40
1.0
 40
1.0
 40
1.0
 40
1.0
 10
143.0400251038109
 20
500.4417235200739
 30
0.0
 10
143.2999871586385
 20
499.4891732874989
 30
0.0
 10
143.4985121645542
 20
498.5364760375137
 30
0.0
 10
143.8062277095061
 20
496.6309521198476
 30
0.0
 10
143.9183786305266
 20
495.6781308789687
 30
0.0
 10
144.0193870172591
 20
494.7253016811032
 30
0.0
  0
SPLINE
  5
BB
330
1F
100
AcDbEntity
  8
0
  6
SLD-Durchgehend
 62
     8
370
     0
100
AcDbSpline
210
0.0
220
0.0
230
1.0
 70
     8
 71
     3
 72
    10
 73
     6
 74
     0
 42
0.00000001
 43
0.00000001
 40
0.0
 40
0.0
 40
0.0
 40
0.0
 40
0.5
 40
0.5
 40
1.0
 40
1.0
 40
1.0
 40
1.0
 10
230.3498889533601
 20
494.7253016811032
 30
0.0
 10
230.4508973966873
 20
495.678131412837
 30
0.0
 10
230.5630485243468
 20
496.6309541159767
 30
0.0
 10
230.8707641937374
 20
498.5364780721108
 30
0.0
 10
231.0692886963211
 20
499.4891728637002
 30
0.0
 10
231.3292508668076
 20
500.4417235200714
 30
0.0
  0
SPLINE
  5
BC
330
1F
100
AcDbEntity
  8
0
  6
SLD-Durchgehend
 62
     8
370
     0
100
AcDbSpline
210
0.0
220
0.0
230
1.0
 70
     8
 71
     3
 72
    11
 73
     7
 74
     0
 42
0.00000001
 43
0.00000001
 40
0.0
 40
0.0
 40
0.0
 40
0.0
 40
0.2483338475180351
 40
0.4977945674000697
 40
0.7483585687958826
 40
1.0
 40
1.0
 40
1.0
 40
1.0
 10
187.1848968328769
 20
503.8942607145658
 30
0.0
 10
187.1848418017416
 20
503.5159799107302
 30
0.0
 10
187.1847314897545
 20
502.7577017662761
 30
0.0
 10
187.1846611418115
 20
501.6177014229199
 30
0.0
 10
187.1846327623918
 20
500.4726601125755
 30
0.0
 10
187.1846362418486
 20
499.7076306684177
 30
0.0
 10
187.1846379853094
 20
499.3242953005693
 30
0.0
  0
SPLINE
  5
BD
330
1F
100
AcDbEntity
  8
0
  6
SLD-Durchgehend
 62
     8
370
     0
100
AcDbSpline
210
0.0
220
0.0
230
1.0
 70
    24
 71
     3
 72
    31
 73
    27
 74
     0
 42
0.00000001
 43
0.00000001
 40
0.0
 40
0.0
 40
0.0
 40
0.0
 40
0.0009765625
 40
0.0009765625
 40
0.001953125
 40
0.00390625
 40
0.0078125
 40
0.015625
 40
0.03125
 40
0.0625
 40
0.0625
 40
0.125
 40
0.125
 40
0.2499999999999999
 40
0.2499999999999999
 40
0.375
 40
0.375
 40
0.5
 40
0.5
 40
0.6250000000000001
 40
0.6250000000000001
 40
0.7500000000000001
 40
0.7500000000000001
 40
0.8750000000000001
 40
0.8750000000000001
 40
1.0
 40
1.0
 40
1.0
 40
1.0
 10
187.1846379853097
 20
499.3242953005693
 30
0.0
 10
187.168226436187
 20
499.3242953005693
 30
0.0
 10
187.1482144979866
 20
499.3242953005693
 30
0.0
 10
187.1117914480748
 20
499.3242953005693
 30
0.0
 10
187.0571573299073
 20
499.3242953005693
 30
0.0
 10
186.9296813227791
 20
499.3242953005693
 30
0.0
 10
186.6747469555364
 20
499.3242953005693
 30
0.0
 10
186.1649747108996
 20
499.3242953005693
 30
0.0
 10
185.1460232438279
 20
499.3242953005693
 30
0.0
 10
184.2743615741751
 20
499.3242953005693
 30
0.0
 10
182.5352262180532
 20
499.3242953005693
 30
0.0
 10
181.3813825501662
 20
499.3242953005693
 30
0.0
 10
177.9517584413803
 20
499.3242953005693
 30
0.0
 10
175.7122938129473
 20
499.3242953005693
 30
0.0
 10
171.4048896277278
 20
499.3242953005693
 30
0.0
 10
169.3409987746051
 20
499.3242953005693
 30
0.0
 10
165.4643920959464
 20
499.3242953005693
 30
0.0
 10
163.6553774344933
 20
499.3242953005693
 30
0.0
 10
160.3586119710301
 20
499.3242953005693
 30
0.0
 10
158.8739817205761
 20
499.3242953005693
 30
0.0
 10
156.2837218865906
 20
499.3242953005693
 30
0.0
 10
155.1805658544709
 20
499.3242953005693
 30
0.0
 10
153.3963684798328
 20
499.3242953005693
 30
0.0
 10
152.7170032020167
 20
499.3242953005693
 30
0.0
 10
151.8074464082718
 20
499.3242953005693
 30
0.0
 10
151.5781379853096
 20
499.3242953005693
 30
0.0
 10
151.5781379853096
 20
499.3242953005693
 30
0.0
  0
SPLINE
  5
BE
330
1F
100
AcDbEntity
  8
0
  6
SLD-Durchgehend
 62
     8
370
     0
100
AcDbSpline
210
0.0
220
0.0
230
1.0
 70
    24
 71
     3
 72
    22
 73
    18
 74
     0
 42
0.00000001
 43
0.00000001
 40
0.0
 40
0.0
 40
0.0
 40
0.0
 40
0.1249999999999999
 40
0.1249999999999999
 40
0.2499999999999999
 40
0.2499999999999999
 40
0.3749999999999999
 40
0.3749999999999999
 40
0.5
 40
0.5
 40
0.6249999999999999
 40
0.6249999999999999
 40
0.7499999999999999
 40
0.7499999999999999
 40
0.8749999999999999
 40
0.8749999999999999
 40
1.0
 40
1.0
 40
1.0
 40
1.0
 10
222.7911379853096
 20
499.3242953005693
 30
0.0
 10
222.7911379853095
 20
499.3242953005693
 30
0.0
 10
222.5616153572307
 20
499.3242953005693
 30
0.0
 10
221.6523227867437
 20
499.3242953005693
 30
0.0
 10
220.9725753283863
 20
499.3242953005693
 30
0.0
 10
219.1889337909591
 20
499.3242953005693
 30
0.0
 10
218.0850838159411
 20
499.3242953005693
 30
0.0
 10
215.4956376555792
 20
499.3242953005693
 30
0.0
 10
214.0101054993943
 20
499.3242953005693
 30
0.0
 10
210.7143656798623
 20
499.3242953005693
 30
0.0
 10
208.9042395101768
 20
499.3242953005693
 30
0.0
 10
205.0288594644671
 20
499.3242953005693
 30
0.0
 10
202.9637014148515
 20
499.3242953005693
 30
0.0
 10
198.6576098247826
 20
499.3242953005693
 30
0.0
 10
196.4167827609296
 20
499.3242953005693
 30
0.0
 10
191.8454603114239
 20
499.3242953005693
 30
0.0
 10
189.5150779607271
 20
499.3242953005693
 30
0.0
 10
187.1846379853094
 20
499.3242953005693
 30
0.0
  0
LINE
  5
BF
330
1F
100
AcDbEntity
  8
0
  6
SLD-Durchgehend
 62
     8
370
     0
100
AcDbLine
 10
222.7911378482
 20
461.2102978552
 30
0.0
 11
151.5781383255
 21
461.2102978552
 31
0.0
  0
SPLINE
  5
C0
330
1F
100
AcDbEntity
  8
0
  6
SLD-Durchgehend
 62
     8
370
     0
100
AcDbSpline
210
0.0
220
0.0
230
1.0
 70
     8
 71
     3
 72
    10
 73
     6
 74
     0
 42
0.00000001
 43
0.00000001
 40
0.0
 40
0.0
 40
0.0
 40
0.0
 40
0.5
 40
0.5
 40
1.0
 40
1.0
 40
1.0
 40
1.0
 10
187.1846379822395
 20
551.3150399565144
 30
0.0
 10
187.1848045641583
 20
551.3150399565144
 30
0.0
 10
187.1849708752771
 20
551.2880714077032
 30
0.0
 10
187.1852529824272
 20
551.1883007743266
 30
0.0
 10
187.1853683198576
 20
551.1156608795303
 30
0.0
 10
187.1854406127361
 20
551.0311798948843
 30
0.0
  0
LINE
  5
C1
330
1F
100
AcDbEntity
  8
0
  6
SLD-Durchgehend
 62
     8
370
     0
100
AcDbLine
 10
201.9788881058
 20
605.5630766475
 30
0.0
 11
172.390388068
 21
605.5630766475
 31
0.0
  0
LINE
  5
C2
330
1F
100
AcDbEntity
  8
0
  6
SLD-Durchgehend
 62
     8
370
     0
100
AcDbLine
 10
172.7933173293
 20
606.0547926152
 30
0.0
 11
201.5759588444
 21
606.0547926152
 31
0.0
  0
LINE
  5
C3
330
1F
100
AcDbEntity
  8
0
  6
SLD-Durchgehend
 62
     8
370
     0
100
AcDbLine
 10
172.390388068
 20
574.8855382824
 30
0.0
 11
201.9788881058
 21
574.8855382824
 31
0.0
  0
LINE
  5
C4
330
1F
100
AcDbEntity
  8
0
  6
SLD-Durchgehend
 62
     8
370
     0
100
AcDbLine
 10
201.9788881058
 20
565.3570391858
 30
0.0
 11
172.390388068
 21
565.3570391858
 31
0.0
  0
LINE
  5
C5
330
1F
100
AcDbEntity
  8
0
  6
SLD-Durchgehend
 62
     8
370
     0
100
AcDbLine
 10
187.1846379853
 20
551.8165402734
 30
0.0
 11
201.9788881058
 21
551.8165402734
 31
0.0
  0
LINE
  5
C6
330
1F
100
AcDbEntity
  8
0
  6
SLD-Durchgehend
 62
     8
370
     0
100
AcDbLine
 10
172.390388068
 20
551.8165402734
 30
0.0
 11
187.1846379853
 21
551.8165402734
 31
0.0
  0
SPLINE
  5
C7
330
1F
100
AcDbEntity
  8
0
  6
SLD-Durchgehend
 62
     8
370
     0
100
AcDbSpline
210
0.0
220
0.0
230
1.0
 70
     8
 71
     3
 72
    10
 73
     6
 74
     0
 42
0.00000001
 43
0.00000001
 40
0.0
 40
0.0
 40
0.0
 40
0.0
 40
0.5
 40
0.5
 40
1.0
 40
1.0
 40
1.0
 40
1.0
 10
143.5176698375004
 20
494.9955922994735
 30
0.0
 10
143.4241187319838
 20
495.9366773341762
 30
0.0
 10
143.3180541691045
 20
496.8805675978694
 30
0.0
 10
143.0181635858644
 20
498.7744621405134
 30
0.0
 10
142.8214835124155
 20
499.7242995520339
 30
0.0
 10
142.5604278650728
 20
500.677880320192
 30
0.0
  0
SPLINE
  5
C8
330
1F
100
AcDbEntity
  8
0
  6
SLD-Durchgehend
 62
     8
370
     0
100
AcDbSpline
210
0.0
220
0.0
230
1.0
 70
     8
 71
     3
 72
    10
 73
     6
 74
     0
 42
0.00000001
 43
0.00000001
 40
0.0
 40
0.0
 40
0.0
 40
0.0
 40
0.5
 40
0.5
 40
1.0
 40
1.0
 40
1.0
 40
1.0
 10
231.8088481055464
 20
500.677880320192
 30
0.0
 10
231.5477918719214
 20
499.7242974140387
 30
0.0
 10
231.351112624339
 20
498.7744633790153
 30
0.0
 10
231.051222010908
 20
496.8805691947892
 30
0.0
 10
230.9451572689136
 20
495.9366776387632
 30
0.0
 10
230.8516061331188
 20
494.9955922994737
 30
0.0
  0
ARC
  5
C9
330
1F
100
AcDbEntity
  8
0
  6
SLD-Durchgehend
 62
     8
370
     0
100
AcDbCircle
 10
133.735143023
 20
524.1200653388
 30
0.0
 40
1.604806618531183
100
AcDbArc
 50
101.1710929789
 51
147.4303475397
  0
SPLINE
  5
CA
330
1F
100
AcDbEntity
  8
0
  6
SLD-Durchgehend
 62
     8
370
     0
100
AcDbSpline
210
0.0
220
0.0
230
1.0
 70
     8
 71
     3
 72
     8
 73
     4
 74
     0
 42
0.00000001
 43
0.00000001
 40
0.0
 40
0.0
 40
0.0
 40
0.0
 40
1.0
 40
1.0
 40
1.0
 40
1.0
 10
132.1385158821996
 20
523.9582593706082
 30
0.0
 10
132.1024077140462
 20
524.3145439916212
 30
0.0
 10
132.1899311554274
 20
524.6821796606312
 30
0.0
 10
132.3827099970048
 20
524.9839736337327
 30
0.0
  0
SPLINE
  5
CB
330
1F
100
AcDbEntity
  8
0
  6
SLD-Durchgehend
 62
     8
370
     0
100
AcDbSpline
210
0.0
220
0.0
230
1.0
 70
     8
 71
     3
 72
    10
 73
     6
 74
     0
 42
0.00000001
 43
0.00000001
 40
0.0
 40
0.0
 40
0.0
 40
0.0
 40
0.388211888365639
 40
0.7862934863891445
 40
1.0
 40
1.0
 40
1.0
 40
1.0
 10
132.1385155657029
 20
523.9582593474356
 30
0.0
 10
132.1279973535843
 20
523.9675753273463
 30
0.0
 10
132.1066935194536
 20
523.9864441320962
 30
0.0
 10
132.0993733925958
 20
523.9935787385476
 30
0.0
 10
132.099456624965
 20
523.9935690530941
 30
0.0
 10
132.0994856992459
 20
523.993565669824
 30
0.0
  0
ARC
  5
CC
330
1F
100
AcDbEntity
  8
0
  6
SLD-Durchgehend
 62
     8
370
     0
100
AcDbCircle
 10
240.6341397668
 20
524.1200744006
 30
0.0
 40
1.604799909475055
100
AcDbArc
 50
354.2128634883
 51
78.8289649196
  0
SPLINE
  5
CD
330
1F
100
AcDbEntity
  8
0
  6
SLD-Durchgehend
 62
     8
370
     0
100
AcDbSpline
210
0.0
220
0.0
230
1.0
 70
     8
 71
     3
 72
    10
 73
     6
 74
     0
 42
0.00000001
 43
0.00000001
 40
0.0
 40
0.0
 40
0.0
 40
0.0
 40
0.2136468243851926
 40
0.611758641636948
 40
1.0
 40
1.0
 40
1.0
 40
1.0
 10
242.2700847724175
 20
523.9938428547052
 30
0.0
 10
242.2699969627335
 20
523.9937361469983
 30
0.0
 10
242.2697455275286
 20
523.9934305989897
 30
0.0
 10
242.2626298279957
 20
523.9864885662826
 30
0.0
 10
242.2412944125805
 20
523.9675900142773
 30
0.0
 10
242.2307606080269
 20
523.9582593474356
 30
0.0
  0
LINE
  5
CE
330
1F
100
AcDbEntity
  8
0
  6
SLD-Durchgehend
 62
     8
370
     0
100
AcDbLine
 10
232.9214389661
 20
526.405295326
 30
0.0
 11
232.7689516583
 21
526.3971037619
 31
0.0
  0
LINE
  5
CF
330
1F
100
AcDbEntity
  8
0
  6
SLD-Durchgehend
 62
     7
370
    15
100
AcDbLine
 10
173.1426379853
 20
439.6457953006
 30
0.0
 11
201.2266379853
 21
439.6457953006
 31
0.0
  0
SPLINE
  5
D0
330
1F
100
AcDbEntity
  8
0
  6
SLD-Durchgehend
 62
     7
370
    15
100
AcDbSpline
210
0.0
220
0.0
230
1.0
 70
     8
 71
     3
 72
    11
 73
     7
 74
     0
 42
0.00000001
 43
0.00000001
 40
0.0
 40
0.0
 40
0.0
 40
0.0
 40
0.2297981260454282
 40
0.4775769645757909
 40
0.7554978000708089
 40
1.0
 40
1.0
 40
1.0
 40
1.0
 10
474.0281165709792
 20
525.6819206968235
 30
0.0
 10
473.6170684334257
 20
525.7646666151335
 30
0.0
 10
472.7628094139743
 20
525.9366329630651
 30
0.0
 10
471.3163728253425
 20
526.1450469996066
 30
0.0
 10
469.7728514560573
 20
526.2975416690831
 30
0.0
 10
468.6851088786345
 20
526.3401292256231
 30
0.0
 10
468.176028238803
 20
526.3600608721194
 30
0.0
  0
SPLINE
  5
D1
330
1F
100
AcDbEntity
  8
0
  6
SLD-Durchgehend
 62
     7
370
    15
100
AcDbSpline
210
0.0
220
0.0
230
1.0
 70
     8
 71
     3
 72
    12
 73
     8
 74
     0
 42
0.00000001
 43
0.00000001
 40
0.0
 40
0.0
 40
0.0
 40
0.0
 40
0.0762642832586284
 40
0.3648714319716672
 40
0.6518887950911763
 40
0.9332640556185449
 40
1.0
 40
1.0
 40
1.0
 40
1.0
 10
386.2032950988112
 20
526.4165618844149
 30
0.0
 10
386.477795474342
 20
526.417688494286
 30
0.0
 10
387.791088418524
 20
526.4230785371658
 30
0.0
 10
390.3009342152544
 20
526.4492356178959
 30
0.0
 10
393.3360175977676
 20
526.4620008523502
 30
0.0
 10
395.475424601917
 20
526.4348984730942
 30
0.0
 10
396.4159580054164
 20
526.4254389695502
 30
0.0
 10
396.5962664356528
 20
526.4236255004821
 30
0.0
  0
SPLINE
  5
D2
330
1F
100
AcDbEntity
  8
0
  6
SLD-Durchgehend
 62
     7
370
    15
100
AcDbSpline
210
0.0
220
0.0
230
1.0
 70
     8
 71
     3
 72
    16
 73
    12
 74
     0
 42
0.00000001
 43
0.00000001
 40
0.0
 40
0.0
 40
0.0
 40
0.0
 40
0.0626957788980752
 40
0.1590152231877942
 40
0.2619693274259998
 40
0.3766488701321219
 40
0.5063571373171908
 40
0.6533891324352389
 40
0.8169266489178708
 40
0.978315177526553
 40
1.0
 40
1.0
 40
1.0
 40
1.0
 10
383.9717195501624
 20
527.740637042169
 30
0.0
 10
383.7630465840865
 20
527.6668566851665
 30
0.0
 10
383.2337896092627
 20
527.4797276608239
 30
0.0
 10
382.3401393442021
 20
527.2505536383306
 30
0.0
 10
381.3420498411295
 20
527.0175242599187
 30
0.0
 10
380.3443051786988
 20
526.8287954833363
 30
0.0
 10
379.3438092044653
 20
526.6743807788166
 30
0.0
 10
378.3401503028451
 20
526.5553435255287
 30
0.0
 10
377.386008674382
 20
526.4752176951016
 30
0.0
 10
376.7523336091225
 20
526.4396238766424
 30
0.0
 10
376.530928183881
 20
526.4322531011468
 30
0.0
 10
376.5047029724417
 20
526.4313800414843
 30
0.0
  0
SPLINE
  5
D3
330
1F
100
AcDbEntity
  8
0
  6
SLD-Durchgehend
 62
     7
370
    15
100
AcDbSpline
210
0.0
220
0.0
230
1.0
 70
     8
 71
     3
 72
    11
 73
     7
 74
     0
 42
0.00000001
 43
0.00000001
 40
0.0
 40
0.0
 40
0.0
 40
0.0
 40
0.3009432275373394
 40
0.6179061667872412
 40
0.8858750589490278
 40
1.0
 40
1.0
 40
1.0
 40
1.0
 10
404.3176476975976
 20
550.7606235021544
 30
0.0
 10
403.8733513497525
 20
549.8379055624271
 30
0.0
 10
402.9611080158152
 20
547.94335186262
 30
0.0
 10
401.5781639263706
 20
545.2108502130949
 30
0.0
 10
400.4333908065138
 20
543.0804113139596
 30
0.0
 10
399.7668536514541
 20
541.9680755202126
 30
0.0
 10
399.567770319253
 20
541.6358397031022
 30
0.0
  0
SPLINE
  5
D4
330
1F
100
AcDbEntity
  8
0
  6
SLD-Durchgehend
 62
     7
370
    15
100
AcDbSpline
210
0.0
220
0.0
230
1.0
 70
     8
 71
     3
 72
    11
 73
     7
 74
     0
 42
0.00000001
 43
0.00000001
 40
0.0
 40
0.0
 40
0.0
 40
0.0
 40
0.1148749883430357
 40
0.3830445867901835
 40
0.6999520019191006
 40
1.0
 40
1.0
 40
1.0
 40
1.0
 10
441.8482058813868
 20
541.6609332585526
 30
0.0
 10
441.6486700898925
 20
541.9943770312394
 30
0.0
 10
440.9833285224614
 20
543.1062276957655
 30
0.0
 10
439.8412402576765
 20
545.2332540669746
 30
0.0
 10
438.4645384243305
 20
547.9544721188215
 30
0.0
 10
437.5565236344422
 20
549.840147497087
 30
0.0
 10
437.1149228086768
 20
550.7572204494668
 30
0.0
  0
SPLINE
  5
D5
330
1F
100
AcDbEntity
  8
0
  6
SLD-Durchgehend
 62
     7
370
    15
100
AcDbSpline
210
0.0
220
0.0
230
1.0
 70
     8
 71
     3
 72
    16
 73
    12
 74
     0
 42
0.00000001
 43
0.00000001
 40
0.0
 40
0.0
 40
0.0
 40
0.0
 40
0.0630329668770259
 40
0.2224901057334514
 40
0.3822083787791794
 40
0.5245862407386737
 40
0.6499565165435417
 40
0.7606273538464146
 40
0.8599164429691734
 40
0.9532150978476885
 40
0.9999999999999999
 40
0.9999999999999999
 40
0.9999999999999999
 40
0.9999999999999999
 10
464.997707413703
 20
526.4293363705096
 30
0.0
 10
464.9180836646722
 20
526.432033823469
 30
0.0
 10
464.6370323796311
 20
526.4415551362661
 30
0.0
 10
463.9206482217003
 20
526.483727796183
 30
0.0
 10
462.94593320962
 20
526.5702828795139
 30
0.0
 10
461.9405394235781
 20
526.6946753092432
 30
0.0
 10
460.9430518490436
 20
526.8539463032644
 30
0.0
 10
459.9532683588097
 20
527.0462410421301
 30
0.0
 10
458.9652391204006
 20
527.2829021607068
 30
0.0
 10
458.1348588979521
 20
527.4980402172304
 30
0.0
 10
457.6619485051249
 20
527.6665914450733
 30
0.0
 10
457.5040065815745
 20
527.7228839384211
 30
0.0
  0
SPLINE
  5
D6
330
1F
100
AcDbEntity
  8
0
  6
SLD-Durchgehend
 62
     7
370
    15
100
AcDbSpline
210
0.0
220
0.0
230
1.0
 70
     8
 71
     3
 72
    13
 73
     9
 74
     0
 42
0.00000001
 43
0.00000001
 40
0.0
 40
0.0
 40
0.0
 40
0.0
 40
0.0722461052120038
 40
0.2785482893119767
 40
0.4910048799592228
 40
0.7144256161499686
 40
0.932070014754584
 40
1.0
 40
1.0
 40
1.0
 40
1.0
 10
445.1930043419896
 20
526.4237887147633
 30
0.0
 10
445.3714583242911
 20
526.4258902682539
 30
0.0
 10
446.059496127092
 20
526.4339929075306
 30
0.0
 10
447.6430497400003
 20
526.4569737190759
 30
0.0
 10
449.810621628781
 20
526.4585792378766
 30
0.0
 10
452.2089256764264
 20
526.4388900733659
 30
0.0
 10
454.115548800421
 20
526.4213992002741
 30
0.0
 10
455.1266314248735
 20
526.4173175422821
 30
0.0
 10
455.3671390881835
 20
526.4163466324849
 30
0.0
  0
LINE
  5
D7
330
1F
100
AcDbEntity
  8
0
  6
SLD-Durchgehend
 62
     7
370
    15
100
AcDbLine
 10
456.3219645193
 20
461.2102978552
 30
0.0
 11
456.3219645193
 21
499.3984070295
 31
0.0
  0
LINE
  5
D8
330
1F
100
AcDbEntity
  8
0
  6
SLD-Durchgehend
 62
     7
370
    15
100
AcDbLine
 10
385.1089649966
 20
496.9838750237
 30
0.0
 11
385.1089649966
 21
461.2102978552
 31
0.0
  0
SPLINE
  5
D9
330
1F
100
AcDbEntity
  8
0
  6
SLD-Durchgehend
 62
     7
370
    15
100
AcDbSpline
210
0.0
220
0.0
230
1.0
 70
     8
 71
     3
 72
    19
 73
    15
 74
     0
 42
0.00000001
 43
0.00000001
 40
0.0
 40
0.0
 40
0.0
 40
0.0
 40
0.1226687558213753
 40
0.2484480845669929
 40
0.3113629307698442
 40
0.3742033779283885
 40
0.4370700791253748
 40
0.4999999770986883
 40
0.5629298416448165
 40
0.6257964983907971
 40
0.6886370412893457
 40
0.7515517647964071
 40
0.8773311963305919
 40
0.9999999999999999
 40
0.9999999999999999
 40
0.9999999999999999
 40
0.9999999999999999
 10
434.7574659755526
 20
439.645791860838
 30
0.0
 10
436.2278428349793
 20
439.6474802687592
 30
0.0
 10
439.2058816344282
 20
439.6508998984048
 30
0.0
 10
442.9337950236543
 20
440.0605063528443
 30
0.0
 10
445.8522781060544
 20
440.8427318280174
 30
0.0
 10
447.9514931020197
 20
441.7015024405627
 30
0.0
 10
449.9029362272194
 20
442.8619911709227
 30
0.0
 10
451.6406500909272
 20
444.3271114425055
 30
0.0
 10
453.1057680226076
 20
446.0648260960994
 30
0.0
 10
454.2662596896155
 20
448.0162679604369
 30
0.0
 10
455.1250252784301
 20
450.1154839460557
 30
0.0
 10
455.9072619488408
 20
453.0339646789989
 30
0.0
 10
456.316864586919
 20
456.7618800268468
 30
0.0
 10
456.3202787907011
 20
459.7399204915162
 30
0.0
 10
456.321964519292
 20
461.2102978551579
 30
0.0
  0
SPLINE
  5
DA
330
1F
100
AcDbEntity
  8
0
  6
SLD-Durchgehend
 62
     7
370
    15
100
AcDbSpline
210
0.0
220
0.0
230
1.0
 70
     8
 71
     3
 72
    19
 73
    15
 74
     0
 42
0.00000001
 43
0.00000001
 40
0.0
 40
0.0
 40
0.0
 40
0.0
 40
0.1226688077534367
 40
0.2484482414547433
 40
0.3113629660457966
 40
0.3742035100270588
 40
0.4370701678562031
 40
0.500000033486584
 40
0.5629298929751486
 40
0.625796639706317
 40
0.6886370879475733
 40
0.7515518852577986
 40
0.8773312161705363
 40
1.0
 40
1.0
 40
1.0
 40
1.0
 10
385.1089649966059
 20
461.2102978551579
 30
0.0
 10
385.1106523021321
 20
459.7399204974775
 30
0.0
 10
385.1140696997447
 20
456.7618800691002
 30
0.0
 10
385.5236711639805
 20
453.0339646807021
 30
0.0
 10
386.3059079817211
 20
450.1154839392215
 30
0.0
 10
387.164673567118
 20
448.0162679881703
 30
0.0
 10
388.3251651373565
 20
446.0648259918948
 30
0.0
 10
389.7902831527616
 20
444.3271121963308
 30
0.0
 10
391.5279955091549
 20
442.8619899586814
 30
0.0
 10
393.4794399060507
 20
441.70150302438
 30
0.0
 10
395.5786545434818
 20
440.8427320795672
 30
0.0
 10
398.4971368856098
 20
440.0605059454435
 30
0.0
 10
402.2250500749084
 20
439.6508999733971
 30
0.0
 10
405.2030891711912
 20
439.6474802936679
 30
0.0
 10
406.673466334313
 20
439.645791860838
 30
0.0
  0
LINE
  5
DB
330
1F
100
AcDbEntity
  8
0
  6
SLD-Durchgehend
 62
     7
370
    15
100
AcDbLine
 10
458.5469910076
 20
527.4012626303
 30
0.0
 11
456.4362564256
 21
528.0924632368
 31
0.0
  0
SPLINE
  5
DC
330
1F
100
AcDbEntity
  8
0
  6
SLD-Durchgehend
 62
     7
370
    15
100
AcDbSpline
210
0.0
220
0.0
230
1.0
 70
     8
 71
     3
 72
     9
 73
     5
 74
     0
 42
0.00000001
 43
0.00000001
 40
0.0
 40
0.0
 40
0.0
 40
0.0
 40
0.4834546891928441
 40
1.0
 40
1.0
 40
1.0
 40
1.0
 10
383.9269266596137
 20
527.7228839384211
 30
0.0
 10
383.7688164753134
 20
527.6656655128389
 30
0.0
 10
383.4417740702344
 20
527.5473122796174
 30
0.0
 10
383.110669540873
 20
527.4611975348879
 30
0.0
 10
382.9396390488444
 20
527.4167153673066
 30
0.0
  0
SPLINE
  5
DD
330
1F
100
AcDbEntity
  8
0
  6
SLD-Durchgehend
 62
     7
370
    15
100
AcDbSpline
210
0.0
220
0.0
230
1.0
 70
     8
 71
     3
 72
     9
 73
     5
 74
     0
 42
0.00000001
 43
0.00000001
 40
0.0
 40
0.0
 40
0.0
 40
0.0
 40
0.9989735022179834
 40
1.0
 40
1.0
 40
1.0
 40
1.0
 10
404.3160104325114
 20
550.7572204494668
 30
0.0
 10
403.8807314884037
 20
549.8401209185794
 30
0.0
 10
403.4450052723017
 20
548.9220790197191
 30
0.0
 10
402.9780469766382
 20
548.0014897270202
 30
0.0
 10
402.9775676449834
 20
548.0005447441531
 30
0.0
  0
ARC
  5
DE
330
1F
100
AcDbEntity
  8
0
  6
SLD-Durchgehend
 62
     7
370
    15
100
AcDbCircle
 10
435.0082162541
 20
574.8855399565
 30
0.0
 40
0.5015000000000214
100
AcDbArc
 50
270.0
 51
0.0
  0
ARC
  5
DF
330
1F
100
AcDbEntity
  8
0
  6
SLD-Durchgehend
 62
     7
370
    15
100
AcDbCircle
 10
406.4227162541
 20
574.8855399565
 30
0.0
 40
0.5015000000000214
100
AcDbArc
 50
180.0
 51
270.0
  0
ARC
  5
E0
330
1F
100
AcDbEntity
  8
0
  6
SLD-Durchgehend
 62
     7
370
    15
100
AcDbCircle
 10
435.0082162541
 20
605.5630729351
 30
0.0
 40
0.5015000000000215
100
AcDbArc
 50
0.0
 51
78.664614729
  0
ARC
  5
E1
330
1F
100
AcDbEntity
  8
0
  6
SLD-Durchgehend
 62
     7
370
    15
100
AcDbCircle
 10
406.4227162541
 20
605.5630729351
 30
0.0
 40
0.5015000000000327
100
AcDbArc
 50
101.335385271
 51
180.0
  0
LINE
  5
E2
330
1F
100
AcDbEntity
  8
0
  6
SLD-Durchgehend
 62
     7
370
    15
100
AcDbLine
 10
435.5097166395
 20
603.4710430229
 30
0.0
 11
435.5097166395
 21
605.5630766475
 31
0.0
  0
LINE
  5
E3
330
1F
100
AcDbEntity
  8
0
  6
SLD-Durchgehend
 62
     7
370
    15
100
AcDbLine
 10
435.5097166395
 20
574.8855382824
 30
0.0
 11
435.5097166395
 21
598.4882362807
 31
0.0
  0
LINE
  5
E4
330
1F
100
AcDbEntity
  8
0
  6
SLD-Durchgehend
 62
     7
370
    15
100
AcDbLine
 10
405.9212166017
 20
605.5630766475
 30
0.0
 11
405.9212166017
 21
574.8855382824
 31
0.0
  0
ARC
  5
E5
330
1F
100
AcDbEntity
  8
0
  6
SLD-Durchgehend
 62
     7
370
    15
100
AcDbCircle
 10
435.0082162541
 20
565.3570399565
 30
0.0
 40
0.5014999999999645
100
AcDbArc
 50
0.0
 51
90.0
  0
ARC
  5
E6
330
1F
100
AcDbEntity
  8
0
  6
SLD-Durchgehend
 62
     7
370
    15
100
AcDbCircle
 10
406.4227162541
 20
565.3570399565
 30
0.0
 40
0.5015000000000782
100
AcDbArc
 50
90.0
 51
180.0
  0
LINE
  5
E7
330
1F
100
AcDbEntity
  8
0
  6
SLD-Durchgehend
 62
     7
370
    15
100
AcDbLine
 10
405.9212166017
 20
565.3570391858
 30
0.0
 11
405.9212166017
 21
551.8165402734
 31
0.0
  0
LINE
  5
E8
330
1F
100
AcDbEntity
  8
0
  6
SLD-Durchgehend
 62
     7
370
    15
100
AcDbLine
 10
435.5097166395
 20
551.8165402734
 30
0.0
 11
435.5097166395
 21
565.3570391858
 31
0.0
  0
ARC
  5
E9
330
1F
100
AcDbEntity
  8
0
  6
SLD-Durchgehend
 62
     7
370
    15
100
AcDbCircle
 10
406.4227162541
 20
551.8165399565
 30
0.0
 40
0.5015000000000782
100
AcDbArc
 50
180.0
 51
270.0
  0
ARC
  5
EA
330
1F
100
AcDbEntity
  8
0
  6
SLD-Durchgehend
 62
     7
370
    15
100
AcDbCircle
 10
435.0082162541
 20
551.8165399565
 30
0.0
 40
0.5015000000000782
100
AcDbArc
 50
270.0
 51
0.0
  0
ARC
  5
EB
330
1F
100
AcDbEntity
  8
0
  6
SLD-Durchgehend
 62
     7
370
    15
100
AcDbCircle
 10
420.7154662541
 20
534.2640399565
 30
0.0
 40
73.21900000000005
100
AcDbArc
 50
78.664614729
 51
101.335385271
  0
LINE
  5
EC
330
1F
100
AcDbEntity
  8
0
  6
SLD-Durchgehend
 62
     7
370
    15
100
AcDbLine
 10
408.1779657995
 20
574.3840397024
 30
0.0
 11
408.1779657995
 21
565.8585414911
 31
0.0
  0
LINE
  5
ED
330
1F
100
AcDbEntity
  8
0
  6
SLD-Durchgehend
 62
     7
370
    15
100
AcDbLine
 10
433.2529665103
 20
565.8585414911
 30
0.0
 11
433.2529665103
 21
574.3840397024
 31
0.0
  0
ARC
  5
EE
330
1F
100
AcDbEntity
  8
0
  6
SLD-Durchgehend
 62
     7
370
    15
100
AcDbCircle
 10
445.5932015347
 20
547.3030399565
 30
0.0
 40
51.15300000000002
100
AcDbArc
 50
61.5747857095
 51
90.0
  0
ARC
  5
EF
330
1F
100
AcDbEntity
  8
0
  6
SLD-Durchgehend
 62
     7
370
    15
100
AcDbCircle
 10
445.5932015347
 20
547.3030399565
 30
0.0
 40
56.16800000000001
100
AcDbArc
 50
57.7003239111
 51
90.0
  0
ARC
  5
F0
330
1F
100
AcDbEntity
  8
0
  6
SLD-Durchgehend
 62
     7
370
    15
100
AcDbCircle
 10
470.074457534
 20
592.5597555466
 30
0.0
 40
0.3008815142048541
100
AcDbArc
 50
243.3448825576
 51
290.0266014466
  0
ARC
  5
F1
330
1F
100
AcDbEntity
  8
0
  6
SLD-Durchgehend
 62
     7
370
    15
100
AcDbCircle
 10
475.456499329
 20
594.5186721008
 30
0.0
 40
0.3009011233930812
100
AcDbArc
 50
289.9732727413
 51
59.8679101742
  0
LINE
  5
F2
330
1F
100
AcDbEntity
  8
0
  6
SLD-Durchgehend
 62
     7
370
    15
100
AcDbLine
 10
435.5043177625
 20
598.4560423219
 30
0.0
 11
445.5932011029
 21
598.4560423219
 31
0.0
  0
LINE
  5
F3
330
1F
100
AcDbEntity
  8
0
  6
SLD-Durchgehend
 62
     7
370
    15
100
AcDbLine
 10
445.5932011029
 20
603.4710430229
 30
0.0
 11
435.5097166395
 21
603.4710430229
 31
0.0
  0
SPLINE
  5
F4
330
1F
100
AcDbEntity
  8
0
  6
SLD-Durchgehend
 62
     7
370
    15
100
AcDbSpline
210
0.0
220
0.0
230
1.0
 70
     8
 71
     3
 72
     9
 73
     5
 74
     0
 42
0.00000001
 43
0.00000001
 40
0.0
 40
0.0
 40
0.0
 40
0.0
 40
0.4948994416285066
 40
1.0
 40
1.0
 40
1.0
 40
1.0
 10
473.9741371145545
 20
525.6926628333335
 30
0.0
 10
474.1300829612991
 20
525.6913599847219
 30
0.0
 10
474.4451890891852
 20
525.6887274325264
 30
0.0
 10
474.4878375916488
 20
525.6881390202775
 30
0.0
 10
474.5093793740569
 20
525.6878418129222
 30
0.0
  0
SPLINE
  5
F5
330
1F
100
AcDbEntity
  8
0
  6
SLD-Durchgehend
 62
     7
370
    15
100
AcDbSpline
210
0.0
220
0.0
230
1.0
 70
     8
 71
     3
 72
    14
 73
    10
 74
     0
 42
0.00000001
 43
0.00000001
 40
0.0
 40
0.0
 40
0.0
 40
0.0
 40
0.25
 40
0.25
 40
0.5
 40
0.5
 40
0.75
 40
0.75
 40
1.0
 40
1.0
 40
1.0
 40
1.0
 10
474.5093787722931
 20
525.6878418047331
 30
0.0
 10
474.7018129189097
 20
525.6497036789107
 30
0.0
 10
474.882980962111
 20
525.577738508373
 30
0.0
 10
475.2142358512487
 20
525.3704768894626
 30
0.0
 10
475.3589553208935
 20
525.2379704679197
 30
0.0
 10
475.5941253236241
 20
524.927564725311
 30
0.0
 10
475.6825441374298
 20
524.752468334609
 30
0.0
 10
475.7925903860869
 20
524.3765209600751
 30
0.0
 10
475.8126317991645
 20
524.1828120106286
 30
0.0
 10
475.797227192373
 20
523.9874867091594
 30
0.0
  0
SPLINE
  5
F6
330
1F
100
AcDbEntity
  8
0
  6
SLD-Durchgehend
 62
     7
370
    15
100
AcDbSpline
210
0.0
220
0.0
230
1.0
 70
    24
 71
     3
 72
    12
 73
     8
 74
     0
 42
0.00000001
 43
0.00000001
 40
0.0
 40
0.0
 40
0.0
 40
0.0
 40
0.2500000000000001
 40
0.2500000000000001
 40
0.5000000000000001
 40
0.5000000000000001
 40
1.0
 40
1.0
 40
1.0
 40
1.0
 10
361.8284544728239
 20
523.9916887707702
 30
0.0
 10
361.8284544728239
 20
524.1869730401156
 30
0.0
 10
361.8284544728239
 20
524.3802924579079
 30
0.0
 10
361.8284544728239
 20
524.7538767958383
 30
0.0
 10
361.8284544728239
 20
524.9281301371329
 30
0.0
 10
361.8284544728239
 20
525.3909380686202
 30
0.0
 10
361.8284544728239
 20
525.6073344721253
 30
0.0
 10
361.8284544728239
 20
525.6817835905636
 30
0.0
  0
SPLINE
  5
F7
330
1F
100
AcDbEntity
  8
0
  6
SLD-Durchgehend
 62
     7
370
    15
100
AcDbSpline
210
0.0
220
0.0
230
1.0
 70
    24
 71
     3
 72
    18
 73
    14
 74
     0
 42
0.00000001
 43
0.00000001
 40
0.0
 40
0.0
 40
0.0
 40
0.0
 40
0.25
 40
0.25
 40
0.375
 40
0.375
 40
0.5
 40
0.5
 40
0.6250000000000001
 40
0.6250000000000001
 40
0.7500000000000002
 40
0.7500000000000002
 40
1.0
 40
1.0
 40
1.0
 40
1.0
 10
361.8284544728239
 20
523.9916887707702
 30
0.0
 10
361.8284544728239
 20
521.3596082546798
 30
0.0
 10
361.8284544728239
 20
518.7599135664542
 30
0.0
 10
361.8284544728239
 20
514.914913991956
 30
0.0
 10
361.8284544728239
 20
513.6449459791601
 30
0.0
 10
361.8284544728239
 20
511.147619992667
 30
0.0
 10
361.8284544728239
 20
509.9173396890887
 30
0.0
 10
361.8284544728239
 20
507.4905269850224
 30
0.0
 10
361.8284544728239
 20
506.2951815929597
 30
0.0
 10
361.8284544728239
 20
503.9520621862652
 30
0.0
 10
361.8284544728239
 20
502.8015030507186
 30
0.0
 10
361.8284544728239
 20
499.3966009952092
 30
0.0
 10
361.8284544728239
 20
497.1891946978618
 30
0.0
 10
361.8284544728239
 20
494.9955922994735
 30
0.0
  0
SPLINE
  5
F8
330
1F
100
AcDbEntity
  8
0
  6
SLD-Durchgehend
 62
     7
370
    15
100
AcDbSpline
210
0.0
220
0.0
230
1.0
 70
     8
 71
     3
 72
     9
 73
     5
 74
     0
 42
0.00000001
 43
0.00000001
 40
0.0570411366458444
 40
0.0570411366458444
 40
0.0570411366458444
 40
0.0570411366458444
 40
0.5
 40
0.940147078781018
 40
0.940147078781018
 40
0.940147078781018
 40
0.940147078781018
 10
475.7972271923742
 20
523.987486709175
 30
0.0
 10
475.51122765412
 20
520.3611074848188
 30
0.0
 10
473.8404894816576
 20
513.681212542741
 30
0.0
 10
469.577178622951
 20
507.8196170518378
 30
0.0
 10
466.7099371252972
 20
505.0328303281695
 30
0.0
  0
SPLINE
  5
F9
330
1F
100
AcDbEntity
  8
0
  6
SLD-Durchgehend
 62
     7
370
    15
100
AcDbSpline
210
0.0
220
0.0
230
1.0
 70
     8
 71
     3
 72
    20
 73
    16
 74
     0
 42
0.00000001
 43
0.00000001
 40
0.0
 40
0.0
 40
0.0
 40
0.0
 40
0.2500000000000002
 40
0.2500000000000002
 40
0.5000000000000003
 40
0.5000000000000003
 40
0.7500000000000004
 40
0.7500000000000004
 40
0.8750000000000006
 40
0.8750000000000006
 40
0.9375000000000003
 40
0.9375000000000003
 40
0.9687500000000002
 40
0.9687500000000002
 40
1.0
 40
1.0
 40
1.0
 40
1.0
 10
420.7154033202946
 20
526.3643740240909
 30
0.0
 10
418.7962048710068
 20
526.3642895046122
 30
0.0
 10
416.8796092118432
 20
526.365575768148
 30
0.0
 10
413.0549745780199
 20
526.3708878547982
 30
0.0
 10
411.1465613614247
 20
526.3749343683061
 30
0.0
 10
407.3396301925986
 20
526.3847209983326
 30
0.0
 10
405.441092186877
 20
526.3905225030528
 30
0.0
 10
402.6037037476277
 20
526.398194374397
 30
0.0
 10
401.6596571039138
 20
526.4005576546328
 30
0.0
 10
400.2467672409833
 20
526.4032184181759
 30
0.0
 10
399.7763355250599
 20
526.4039554328432
 30
0.0
 10
399.0715720874322
 20
526.4047341848285
 30
0.0
 10
398.8367984451869
 20
526.4049390881243
 30
0.0
 10
398.3675624189662
 20
526.4052196448854
 30
0.0
 10
398.1318253172649
 20
526.4052953005694
 30
0.0
 10
397.8988017840954
 20
526.4052953005694
 30
0.0
  0
LINE
  5
FA
330
1F
100
AcDbEntity
  8
0
  6
SLD-Durchgehend
 62
     7
370
    15
100
AcDbLine
 10
361.8284561804
 20
526.405295326
 30
0.0
 11
397.89880115
 21
526.405295326
 31
0.0
  0
LINE
  5
FB
330
1F
100
AcDbEntity
  8
0
  6
SLD-Durchgehend
 62
     7
370
    15
100
AcDbLine
 10
420.7154662541
 20
526.3643740598
 30
0.0
 11
420.7154033207
 21
526.3643740598
 31
0.0
  0
SPLINE
  5
FC
330
1F
100
AcDbEntity
  8
0
  6
SLD-Durchgehend
 62
     7
370
    15
100
AcDbSpline
210
0.0
220
0.0
230
1.0
 70
    24
 71
     3
 72
    12
 73
     8
 74
     0
 42
0.00000001
 43
0.00000001
 40
0.0
 40
0.0
 40
0.0
 40
0.0
 40
0.25
 40
0.25
 40
0.5
 40
0.5
 40
1.0
 40
1.0
 40
1.0
 40
1.0
 10
361.8284544728239
 20
525.6817835905636
 30
0.0
 10
361.8284544728239
 20
525.8101539891251
 30
0.0
 10
361.8284544728239
 20
525.9252817773864
 30
0.0
 10
361.8284544728239
 20
526.1151711044472
 30
0.0
 10
361.828454472824
 20
526.1904895579389
 30
0.0
 10
361.828454472824
 20
526.3621807030075
 30
0.0
 10
361.8284544728239
 20
526.4052953005694
 30
0.0
 10
361.8284544728239
 20
526.4052953005694
 30
0.0
  0
SPLINE
  5
FD
330
1F
100
AcDbEntity
  8
0
  6
SLD-Durchgehend
 62
     7
370
    15
100
AcDbSpline
210
0.0
220
0.0
230
1.0
 70
     8
 71
     3
 72
    47
 73
    43
 74
     0
 42
0.00000001
 43
0.00000001
 40
0.0
 40
0.0
 40
0.0
 40
0.0
 40
0.1250000000000005
 40
0.1250000000000005
 40
0.1875000000000008
 40
0.1875000000000008
 40
0.2187500000000009
 40
0.2187500000000009
 40
0.2500000000000011
 40
0.2500000000000011
 40
0.3125000000000014
 40
0.3125000000000014
 40
0.3750000000000018
 40
0.3750000000000018
 40
0.3906250000000019
 40
0.3906250000000019
 40
0.4062500000000021
 40
0.4062500000000021
 40
0.4375000000000022
 40
0.4375000000000022
 40
0.5000000000000028
 40
0.5000000000000028
 40
0.5156250000000028
 40
0.5156250000000028
 40
0.5312500000000027
 40
0.5312500000000027
 40
0.5625000000000024
 40
0.5937500000000023
 40
0.5937500000000023
 40
0.6250000000000021
 40
0.6250000000000021
 40
0.6875000000000017
 40
0.6875000000000017
 40
0.7500000000000012
 40
0.7500000000000012
 40
0.7812500000000011
 40
0.7812500000000011
 40
0.8125000000000009
 40
0.8125000000000009
 40
0.8750000000000006
 40
0.8750000000000006
 40
1.0
 40
1.0
 40
1.0
 40
1.0
 10
468.6674346188531
 20
526.3643740268628
 30
0.0
 10
468.6672462036472
 20
526.3645219344788
 30
0.0
 10
468.5684933159609
 20
526.3648781831124
 30
0.0
 10
468.2112413422483
 20
526.3668667523259
 30
0.0
 10
468.056990102424
 20
526.3677159218244
 30
0.0
 10
467.7553947159153
 20
526.3691705514813
 30
0.0
 10
467.6430713516776
 20
526.3696849610055
 30
0.0
 10
467.3907198005391
 20
526.3707574587575
 30
0.0
 10
467.2504648409499
 20
526.3713163236873
 30
0.0
 10
466.7826348252137
 20
526.3730333565953
 30
0.0
 10
466.4083777789552
 20
526.3742536467204
 30
0.0
 10
465.488414333653
 20
526.3766007013699
 30
0.0
 10
464.9432765578899
 20
526.377707678776
 30
0.0
 10
464.1120057590059
 20
526.3788733626875
 30
0.0
 10
463.9381800422912
 20
526.3790960407318
 30
0.0
 10
463.5739338302014
 20
526.3795189970174
 30
0.0
 10
463.3830954992123
 20
526.3797194367764
 30
0.0
 10
462.7889453816423
 20
526.3802831381346
 30
0.0
 10
462.362935578401
 20
526.3806116115314
 30
0.0
 10
460.9880370228034
 20
526.3814497661472
 30
0.0
 10
459.9422505593122
 20
526.3818282198447
 30
0.0
 10
458.4501026135278
 20
526.3818347639573
 30
0.0
 10
458.1420204101886
 20
526.3818109714551
 30
0.0
 10
457.5150061050781
 20
526.381722487479
 30
0.0
 10
457.1951970072017
 20
526.3816578660736
 30
0.0
 10
456.2175857127933
 20
526.3814139047048
 30
0.0
 10
454.8656193446774
 20
526.3809569426463
 30
0.0
 10
453.4242428250676
 20
526.3803050014334
 30
0.0
 10
451.9418528662524
 20
526.3795605184491
 30
0.0
 10
451.1770222422853
 20
526.379137474465
 30
0.0
 10
448.8569507669187
 20
526.3777384567616
 30
0.0
 10
447.2738610910965
 20
526.3766298854218
 30
0.0
 10
444.056270480833
 20
526.3742777147403
 30
0.0
 10
442.4215911269687
 20
526.3730537061338
 30
0.0
 10
439.9414192500104
 20
526.3713322135283
 30
0.0
 10
439.1102997933466
 20
526.3707724159301
 30
0.0
 10
437.4482528215726
 20
526.3696979561431
 30
0.0
 10
436.6161912090405
 20
526.3691825422487
 30
0.0
 10
434.1173557076042
 20
526.3677248794878
 30
0.0
 10
432.4479576015723
 20
526.3668736241283
 30
0.0
 10
427.4318606797332
 20
526.3648798042088
 30
0.0
 10
424.0773536365713
 20
526.3645221319906
 30
0.0
 10
420.7154662540521
 20
526.3643740268628
 30
0.0
  0
SPLINE
  5
FE
330
1F
100
AcDbEntity
  8
0
  6
SLD-Durchgehend
 62
     7
370
    15
100
AcDbSpline
210
0.0
220
0.0
230
1.0
 70
     8
 71
     3
 72
     8
 73
     4
 74
     0
 42
0.00000001
 43
0.00000001
 40
0.1697971195247364
 40
0.1697971195247364
 40
0.1697971195247364
 40
0.1697971195247364
 40
0.8078398438209533
 40
0.8078398438209533
 40
0.8078398438209533
 40
0.8078398438209533
 10
468.6674346188531
 20
526.3643740268628
 30
0.0
 10
471.2133119500096
 20
526.2649365144746
 30
0.0
 10
472.954475557653
 20
525.9960048593912
 30
0.0
 10
474.5093787722931
 20
525.6878418047331
 30
0.0
  0
SPLINE
  5
FF
330
1F
100
AcDbEntity
  8
0
  6
SLD-Durchgehend
 62
     7
370
    15
100
AcDbSpline
210
0.0
220
0.0
230
1.0
 70
     8
 71
     3
 72
    22
 73
    18
 74
     0
 42
0.00000001
 43
0.00000001
 40
0.0
 40
0.0
 40
0.0
 40
0.0
 40
0.1495729567262432
 40
0.2587001636538619
 40
0.3137351005245508
 40
0.3690243607513074
 40
0.4343103387260021
 40
0.5010921682913418
 40
0.5428032390667813
 40
0.585321005394687
 40
0.6359398580480945
 40
0.6876598475490161
 40
0.7385175961402705
 40
0.7897910922705623
 40
0.8941225072456124
 40
0.9994383400409971
 40
1.0
 40
1.0
 40
1.0
 40
1.0
 10
420.7154662540677
 20
526.4281248362554
 30
0.0
 10
424.0999877297032
 20
526.4280416275549
 30
0.0
 10
429.9538284158871
 20
526.4278977104664
 30
0.0
 10
437.0203608622336
 20
526.4262911316438
 30
0.0
 10
441.9043766735008
 20
526.422521766002
 30
0.0
 10
445.7535053663042
 20
526.4186055059524
 30
0.0
 10
449.7385403120196
 20
526.4159968559736
 30
0.0
 10
453.1852062761732
 20
526.4151792733745
 30
0.0
 10
455.8435455461065
 20
526.4153325748044
 30
0.0
 10
457.9219341036744
 20
526.4159389361455
 30
0.0
 10
459.7645952253656
 20
526.4169534658635
 30
0.0
 10
461.2781094171578
 20
526.4182796976637
 30
0.0
 10
462.43417839322
 20
526.4194041593527
 30
0.0
 10
463.6090116548084
 20
526.4216848734112
 30
0.0
 10
464.4895260266155
 20
526.4262400945263
 30
0.0
 10
464.9410071256189
 20
526.4275243354471
 30
0.0
 10
464.9973526321544
 20
526.4277357027245
 30
0.0
 10
464.9976515343486
 20
526.4277368239877
 30
0.0
  0
SPLINE
  5
100
330
1F
100
AcDbEntity
  8
0
  6
SLD-Durchgehend
 62
     7
370
    15
100
AcDbSpline
210
0.0
220
0.0
230
1.0
 70
     8
 71
     3
 72
    22
 73
    18
 74
     0
 42
0.00000001
 43
0.00000001
 40
0.0
 40
0.0
 40
0.0
 40
0.0
 40
0.0468181882960184
 40
0.1556977073963788
 40
0.2106058919330987
 40
0.2657664222764916
 40
0.3309503868751422
 40
0.397632755613697
 40
0.4392261893502282
 40
0.4816240322281498
 40
0.5321002860323999
 40
0.583673100903456
 40
0.6343827881416907
 40
0.685506944250536
 40
0.7895389736690522
 40
0.8945784035308726
 40
1.0
 40
1.0
 40
1.0
 40
1.0
 10
376.504818456441
 20
526.4276542855246
 30
0.0
 10
376.5312908940231
 20
526.427604904515
 30
0.0
 10
376.6193271464016
 20
526.4274406839363
 30
0.0
 10
377.2002711212418
 20
526.4245183581854
 30
0.0
 10
378.0920523957851
 20
526.4211557158428
 30
0.0
 10
379.0921432389915
 20
526.41923655695
 30
0.0
 10
380.5665702678276
 20
526.4178626335513
 30
0.0
 10
382.5100203828154
 20
526.4163916517776
 30
0.0
 10
384.6731165628613
 20
526.4155431152519
 30
0.0
 10
386.9201062592243
 20
526.4151789518438
 30
0.0
 10
389.6462714731807
 20
526.4154136288495
 30
0.0
 10
392.7742287507392
 20
526.4166623812064
 30
0.0
 10
396.0618325333594
 20
526.4189892609476
 30
0.0
 10
400.5869338871644
 20
526.4236427142869
 30
0.0
 10
406.4311223216362
 20
526.4270036481653
 30
0.0
 10
413.5484906455163
 20
526.4281942401899
 30
0.0
 10
418.323584092867
 20
526.4281479988894
 30
0.0
 10
420.7154662540677
 20
526.4281248362554
 30
0.0
  0
ARC
  5
101
330
1F
100
AcDbEntity
  8
0
  6
SLD-Durchgehend
 62
     7
370
    15
100
AcDbCircle
 10
466.2904979622
 20
505.4643787362
 30
0.0
 40
0.6017999999999981
100
AcDbArc
 50
275.5412451251
 51
314.1847568284
  0
SPLINE
  5
102
330
1F
100
AcDbEntity
  8
0
  6
SLD-Durchgehend
 62
     7
370
    15
100
AcDbSpline
210
0.0
220
0.0
230
1.0
 70
    24
 71
     3
 72
    46
 73
    42
 74
     0
 42
0.00000001
 43
0.00000001
 40
0.0
 40
0.0
 40
0.0
 40
0.0
 40
0.1250000000000013
 40
0.1250000000000013
 40
0.1875000000000019
 40
0.1875000000000019
 40
0.2187500000000022
 40
0.2187500000000022
 40
0.2500000000000026
 40
0.2500000000000026
 40
0.312500000000003
 40
0.312500000000003
 40
0.3437500000000032
 40
0.3437500000000032
 40
0.3593750000000033
 40
0.3593750000000033
 40
0.3750000000000033
 40
0.3750000000000033
 40
0.4375000000000029
 40
0.4375000000000029
 40
0.4687500000000026
 40
0.4687500000000026
 40
0.4843750000000027
 40
0.4843750000000027
 40
0.5000000000000027
 40
0.5000000000000027
 40
0.5625000000000024
 40
0.5625000000000024
 40
0.5937500000000022
 40
0.5937500000000022
 40
0.6250000000000019
 40
0.6250000000000019
 40
0.6875000000000016
 40
0.6875000000000016
 40
0.7500000000000012
 40
0.7500000000000012
 40
0.8125000000000009
 40
0.8125000000000009
 40
0.8750000000000006
 40
0.8750000000000006
 40
1.0
 40
1.0
 40
1.0
 40
1.0
 10
466.3486091403661
 20
504.8653909809224
 30
0.0
 10
466.3486091403661
 20
504.8653909809224
 30
0.0
 10
466.3205779579274
 20
504.862671517925
 30
0.0
 10
466.0865915571962
 20
504.8399711783981
 30
0.0
 10
465.9759639944837
 20
504.8292385750213
 30
0.0
 10
465.7330869787858
 20
504.8056757068273
 30
0.0
 10
465.639237134154
 20
504.7965708044439
 30
0.0
 10
465.4199645908212
 20
504.7752979391533
 30
0.0
 10
465.2943217530147
 20
504.7631086193107
 30
0.0
 10
464.8627655071212
 20
504.7212409155634
 30
0.0
 10
464.5023206156206
 20
504.6862721251027
 30
0.0
 10
463.8104714610488
 20
504.619151939224
 30
0.0
 10
463.5545462594903
 20
504.5943231929776
 30
0.0
 10
463.1261294304345
 20
504.5527600617519
 30
0.0
 10
462.9758918126797
 20
504.5381846636856
 30
0.0
 10
462.6593330068735
 20
504.5074735097485
 30
0.0
 10
462.4927123101773
 20
504.4913086968561
 30
0.0
 10
461.624153048316
 20
504.4070448674973
 30
0.0
 10
460.8112376370509
 20
504.3281793617043
 30
0.0
 10
459.3917402198169
 20
504.1904659167002
 30
0.0
 10
458.8852617910717
 20
504.1413295897187
 30
0.0
 10
458.0735100458828
 20
504.0625769777303
 30
0.0
 10
457.7943658948238
 20
504.0354956303265
 30
0.0
 10
457.2254545925044
 20
503.9803023383959
 30
0.0
 10
456.9349016171934
 20
503.952114156649
 30
0.0
 10
455.452808933738
 20
503.80832799207
 30
0.0
 10
454.1733465728046
 20
503.684200137142
 30
0.0
 10
452.1351982154924
 20
503.4864678776064
 30
0.0
 10
451.4332981315376
 20
503.4183725944192
 30
0.0
 10
450.0140949961526
 20
503.280687699356
 30
0.0
 10
449.295247867128
 20
503.2109482878099
 30
0.0
 10
447.1148916118407
 20
502.9994196385808
 30
0.0
 10
445.6297537038732
 20
502.8553380396086
 30
0.0
 10
442.6113492262028
 20
502.5625056089266
 30
0.0
 10
441.077623431366
 20
502.4137102251984
 30
0.0
 10
437.9732004572825
 20
502.1125326553627
 30
0.0
 10
436.4169519727249
 20
501.9615522185626
 30
0.0
 10
433.2981315519856
 20
501.6589778712801
 30
0.0
 10
431.7355491992814
 20
501.5073829502322
 30
0.0
 10
427.0399990095787
 20
501.051841161313
 30
0.0
 10
423.8993076556735
 20
500.7471449915353
 30
0.0
 10
420.7511401699583
 20
500.4417235200739
 30
0.0
  0
SPLINE
  5
103
330
1F
100
AcDbEntity
  8
0
  6
SLD-Durchgehend
 62
     7
370
    15
100
AcDbSpline
210
0.0
220
0.0
230
1.0
 70
     8
 71
     3
 72
    17
 73
    13
 74
     0
 42
0.00000001
 43
0.00000001
 40
0.0
 40
0.0
 40
0.0
 40
0.0
 40
0.1594273726794208
 40
0.268181215119479
 40
0.3113628074545035
 40
0.3954975084271759
 40
0.4791145141203877
 40
0.5629556456604101
 40
0.6476492615164632
 40
0.8173743155820973
 40
0.9940262793617344
 40
1.0
 40
1.0
 40
1.0
 40
1.0
 10
376.2644888034163
 20
526.4283704725844
 30
0.0
 10
377.8254139583828
 20
526.5129554430492
 30
0.0
 10
380.4511287132212
 20
526.6552402952605
 30
0.0
 10
383.3313228549
 20
527.657026379512
 30
0.0
 10
385.56713511087
 20
528.2093061149028
 30
0.0
 10
387.4267080019468
 20
529.1171755245965
 30
0.0
 10
389.5600510221933
 20
530.3225447087844
 30
0.0
 10
391.5474059508365
 20
531.776778695686
 30
0.0
 10
394.0155149341388
 20
533.9676704449089
 30
0.0
 10
396.7382088073626
 20
537.1829822918046
 30
0.0
 10
398.6911873677776
 20
540.0210788417171
 30
0.0
 10
399.5440635304361
 20
541.5824786908208
 30
0.0
 10
399.5719612708388
 20
541.6335523748589
 30
0.0
  0
LINE
  5
104
330
1F
100
AcDbEntity
  8
0
  6
SLD-Durchgehend
 62
     7
370
    15
100
AcDbLine
 10
404.3173981031
 20
550.7607464367
 30
0.0
 11
404.4506163469
 21
551.031178298
 31
0.0
  0
SPLINE
  5
105
330
1F
100
AcDbEntity
  8
0
  6
SLD-Durchgehend
 62
     7
370
    15
100
AcDbSpline
210
0.0
220
0.0
230
1.0
 70
     8
 71
     3
 72
    17
 73
    13
 74
     0
 42
0.00000001
 43
0.00000001
 40
0.0
 40
0.0
 40
0.0
 40
0.0
 40
0.1592683518167802
 40
0.266275998494589
 40
0.3110523611210385
 40
0.3951031419205197
 40
0.4786366886823393
 40
0.5623941413407371
 40
0.6470033271508745
 40
0.8165590470503771
 40
0.9930348092957653
 40
1.0
 40
1.0
 40
1.0
 40
1.0
 10
465.1664444377719
 20
526.4283704725844
 30
0.0
 10
463.6054320901561
 20
526.5125482912013
 30
0.0
 10
460.9956221889275
 20
526.6532826709296
 30
0.0
 10
458.1150819035571
 20
527.6531482796341
 30
0.0
 10
455.8785849056733
 20
528.2032194316889
 30
0.0
 10
454.0041097889717
 20
529.1168533461266
 30
0.0
 10
451.8709115545823
 20
530.3226314848845
 30
0.0
 10
449.8835135718671
 20
531.7767539240361
 30
0.0
 10
447.4154505013087
 20
533.9676989758933
 30
0.0
 10
444.6924786671501
 20
537.1828396148474
 30
0.0
 10
442.7347627485981
 20
540.029433424259
 30
0.0
 10
441.8775053384219
 20
541.5995291187462
 30
0.0
 10
441.8449555656014
 20
541.6591451192094
 30
0.0
  0
LINE
  5
106
330
1F
100
AcDbEntity
  8
0
  6
SLD-Durchgehend
 62
     7
370
    15
100
AcDbLine
 10
439.1405158809
 20
546.6460310543
 30
0.0
 11
436.9803150317
 21
551.031178298
 31
0.0
  0
SPLINE
  5
107
330
1F
100
AcDbEntity
  8
0
  6
SLD-Durchgehend
 62
     7
370
    15
100
AcDbSpline
210
0.0
220
0.0
230
1.0
 70
    24
 71
     3
 72
    10
 73
     6
 74
     0
 42
0.00000001
 43
0.00000001
 40
0.0
 40
0.0
 40
0.0
 40
0.0
 40
0.5000000000000001
 40
0.5000000000000001
 40
1.0
 40
1.0
 40
1.0
 40
1.0
 10
420.7511401699583
 20
500.4417235200739
 30
0.0
 10
410.9326174041756
 20
499.4891732874989
 30
0.0
 10
401.1125792392691
 20
498.5364760375137
 30
0.0
 10
381.4711689214415
 20
496.6309521198476
 30
0.0
 10
371.6498527059165
 20
495.6781308789687
 30
0.0
 10
361.8284544728238
 20
494.7253016811032
 30
0.0
  0
SPLINE
  5
108
330
1F
100
AcDbEntity
  8
0
  6
SLD-Durchgehend
 62
     7
370
    15
100
AcDbSpline
210
0.0
220
0.0
230
1.0
 70
    24
 71
     3
 72
     8
 73
     4
 74
     0
 42
0.00000001
 43
0.00000001
 40
0.0
 40
0.0
 40
0.0
 40
0.0
 40
1.0
 40
1.0
 40
1.0
 40
1.0
 10
361.8284544728239
 20
494.7253016811032
 30
0.0
 10
361.8284544728239
 20
494.7253016811032
 30
0.0
 10
361.8284544728239
 20
494.8290511704213
 30
0.0
 10
361.8284544728239
 20
494.9955922994735
 30
0.0
  0
SPLINE
  5
109
330
1F
100
AcDbEntity
  8
0
  6
SLD-Durchgehend
 62
     7
370
    15
100
AcDbSpline
210
0.0
220
0.0
230
1.0
 70
     8
 71
     3
 72
    11
 73
     7
 74
     0
 42
0.00000001
 43
0.00000001
 40
0.0
 40
0.0
 40
0.0
 40
0.0
 40
0.2483338475180351
 40
0.4977945674000697
 40
0.7483585687958826
 40
1.0
 40
1.0
 40
1.0
 40
1.0
 10
456.3385705745202
 20
503.8942607145658
 30
0.0
 10
456.3350274131514
 20
503.5159799107302
 30
0.0
 10
456.3279250124983
 20
502.7577017662761
 30
0.0
 10
456.3236045411768
 20
501.6177014229199
 30
0.0
 10
456.3219468820202
 20
500.4726601125755
 30
0.0
 10
456.321959787479
 20
499.7076306684177
 30
0.0
 10
456.3219662540521
 20
499.3242953005693
 30
0.0
  0
LINE
  5
10A
330
1F
100
AcDbEntity
  8
0
  6
SLD-Durchgehend
 62
     7
370
    15
100
AcDbLine
 10
465.1664444378
 20
526.4283704726
 30
0.0
 11
464.9350554815
 21
526.4276809446
 31
0.0
  0
SPLINE
  5
10B
330
1F
100
AcDbEntity
  8
0
  6
SLD-Durchgehend
 62
     7
370
    15
100
AcDbSpline
210
0.0
220
0.0
230
1.0
 70
    24
 71
     3
 72
    30
 73
    26
 74
     0
 42
0.00000001
 43
0.00000001
 40
0.0
 40
0.0
 40
0.0
 40
0.0
 40
0.1250000000000001
 40
0.1250000000000001
 40
0.1875000000000001
 40
0.1875000000000001
 40
0.2500000000000001
 40
0.2500000000000001
 40
0.3125000000000001
 40
0.3125000000000001
 40
0.375
 40
0.375
 40
0.5
 40
0.5
 40
0.5624999999999999
 40
0.5624999999999999
 40
0.6249999999999999
 40
0.6249999999999999
 40
0.7499999999999999
 40
0.7499999999999999
 40
0.8124999999999999
 40
0.8124999999999999
 40
0.875
 40
0.875
 40
1.0
 40
1.0
 40
1.0
 40
1.0
 10
420.7150909382185
 20
551.3150399565144
 30
0.0
 10
421.7609485828617
 20
551.3150399565144
 30
0.0
 10
422.7904602485373
 20
551.3150399565144
 30
0.0
 10
424.3107152326192
 20
551.3150399565144
 30
0.0
 10
424.8134163941856
 20
551.3150399565144
 30
0.0
 10
425.8103489507816
 20
551.3150399565144
 30
0.0
 10
426.3058682299111
 20
551.3150399565144
 30
0.0
 10
427.2705835307738
 20
551.3150399565144
 30
0.0
 10
427.7418405577519
 20
551.3150399565144
 30
0.0
 10
428.6622896704787
 20
551.3150399565144
 30
0.0
 10
429.1133339559094
 20
551.3150399565144
 30
0.0
 10
430.4124587867794
 20
551.3150399565144
 30
0.0
 10
431.2110805094251
 20
551.3150399565144
 30
0.0
 10
432.3078666475027
 20
551.3150399565144
 30
0.0
 10
432.6566706862313
 20
551.3150399565144
 30
0.0
 10
433.3184369537494
 20
551.3150399565144
 30
0.0
 10
433.6260242272647
 20
551.3150399565144
 30
0.0
 10
434.4815425675719
 20
551.3150399565144
 30
0.0
 10
434.9618984142876
 20
551.3150399565144
 30
0.0
 10
435.548598876868
 20
551.3150399565144
 30
0.0
 10
435.7222186469605
 20
551.3150399565143
 30
0.0
 10
436.0170084123688
 20
551.3150399565144
 30
0.0
 10
436.1391972991306
 20
551.3150399565144
 30
0.0
 10
436.4316099113122
 20
551.3150399565144
 30
0.0
 10
436.5266837427253
 20
551.3150399565144
 30
0.0
 10
436.5285022042368
 20
551.3150399565144
 30
0.0
  0
SPLINE
  5
10C
330
1F
100
AcDbEntity
  8
0
  6
SLD-Durchgehend
 62
     7
370
    15
100
AcDbSpline
210
0.0
220
0.0
230
1.0
 70
     8
 71
     3
 72
    10
 73
     6
 74
     0
 42
0.00000001
 43
0.00000001
 40
0.0
 40
0.0
 40
0.0
 40
0.0
 40
0.5
 40
0.5
 40
1.0
 40
1.0
 40
1.0
 40
1.0
 10
436.5285010462887
 20
551.3150399565144
 30
0.0
 10
436.6222724394729
 20
551.3150399565144
 30
0.0
 10
436.7158913954109
 20
551.2880714077032
 30
0.0
 10
436.8746936272848
 20
551.1883007743266
 30
0.0
 10
436.9396187501306
 20
551.1156608795303
 30
0.0
 10
436.9803134664486
 20
551.0311798948843
 30
0.0
  0
SPLINE
  5
10D
330
1F
100
AcDbEntity
  8
0
  6
SLD-Durchgehend
 62
     7
370
    15
100
AcDbSpline
210
0.0
220
0.0
230
1.0
 70
     8
 71
     3
 72
    10
 73
     6
 74
     0
 42
0.00000001
 43
0.00000001
 40
0.0
 40
0.0
 40
0.0
 40
0.0
 40
0.5
 40
0.5
 40
1.0
 40
1.0
 40
1.0
 40
1.0
 10
404.450617303256
 20
551.0311787509818
 30
0.0
 10
404.4913119001722
 20
551.1156600293092
 30
0.0
 10
404.5562370467238
 20
551.1883002235024
 30
0.0
 10
404.7150395210153
 20
551.2880712830623
 30
0.0
 10
404.8086586929584
 20
551.3150399565144
 30
0.0
 10
404.9024303038673
 20
551.3150399565144
 30
0.0
  0
SPLINE
  5
10E
330
1F
100
AcDbEntity
  8
0
  6
SLD-Durchgehend
 62
     7
370
    15
100
AcDbSpline
210
0.0
220
0.0
230
1.0
 70
    24
 71
     3
 72
    30
 73
    26
 74
     0
 42
0.00000001
 43
0.00000001
 40
0.0
 40
0.0
 40
0.0
 40
0.0
 40
0.1250000000000001
 40
0.1250000000000001
 40
0.1875000000000001
 40
0.1875000000000001
 40
0.2500000000000001
 40
0.2500000000000001
 40
0.3125000000000001
 40
0.3125000000000001
 40
0.3750000000000001
 40
0.3750000000000001
 40
0.5
 40
0.5
 40
0.5625
 40
0.5625
 40
0.6250000000000001
 40
0.6250000000000001
 40
0.75
 40
0.75
 40
0.8125000000000001
 40
0.8125000000000001
 40
0.8750000000000001
 40
0.8750000000000001
 40
1.0
 40
1.0
 40
1.0
 40
1.0
 10
404.9024326441764
 20
551.3150399565144
 30
0.0
 10
404.9043286649027
 20
551.3150399565144
 30
0.0
 10
404.9994378373283
 20
551.3150399565144
 30
0.0
 10
405.2969716069738
 20
551.3150399565144
 30
0.0
 10
405.4218165963225
 20
551.3150399565144
 30
0.0
 10
405.7177543321901
 20
551.3150399565144
 30
0.0
 10
405.8892043700044
 20
551.3150399565144
 30
0.0
 10
406.2786740568235
 20
551.3150399565144
 30
0.0
 10
406.4967066039113
 20
551.3150399565144
 30
0.0
 10
406.9809839279592
 20
551.3150399565144
 30
0.0
 10
407.2490950025461
 20
551.3150399565144
 30
0.0
 10
408.1132180702975
 20
551.3150399565144
 30
0.0
 10
408.767447242952
 20
551.3150399565144
 30
0.0
 10
409.8644415561578
 20
551.3150399565144
 30
0.0
 10
410.2495239322148
 20
551.3150399565144
 30
0.0
 10
411.0596005959823
 20
551.3150399565144
 30
0.0
 10
411.4788474918936
 20
551.3150399565144
 30
0.0
 10
412.771907992294
 20
551.3150399565144
 30
0.0
 10
413.6830605325087
 20
551.3150399565144
 30
0.0
 10
415.1251813482328
 20
551.3150399565144
 30
0.0
 10
415.6210056864576
 20
551.3150399565142
 30
0.0
 10
416.6175853420897
 20
551.3150399565142
 30
0.0
 10
417.1201314901535
 20
551.3150399565144
 30
0.0
 10
418.6399866362814
 20
551.3150399565144
 30
0.0
 10
419.6693175967525
 20
551.3150399565144
 30
0.0
 10
420.7150909379889
 20
551.3150399565144
 30
0.0
  0
LINE
  5
10F
330
1F
100
AcDbEntity
  8
0
  6
SLD-Durchgehend
 62
     7
370
    15
100
AcDbLine
 10
420.7154662541
 20
574.3840397024
 30
0.0
 11
406.422716113
 21
574.3840397024
 31
0.0
  0
LINE
  5
110
330
1F
100
AcDbEntity
  8
0
  6
SLD-Durchgehend
 62
     7
370
    15
100
AcDbLine
 10
435.0082161969
 20
574.3840397024
 30
0.0
 11
420.7154662541
 21
574.3840397024
 31
0.0
  0
ARC
  5
111
330
1F
100
AcDbEntity
  8
0
  6
SLD-Durchgehend
 62
     7
370
    15
100
AcDbCircle
 10
450.1907319972
 20
600.9636941446
 30
0.0
 40
14.89358957171286
100
AcDbArc
 50
170.3080505652
 51
189.5675109609
  0
LINE
  5
112
330
1F
100
AcDbEntity
  8
0
  6
SLD-Durchgehend
 62
     7
370
    15
100
AcDbLine
 10
406.422716113
 20
565.8585414911
 30
0.0
 11
435.0082161969
 21
565.8585414911
 31
0.0
  0
SPLINE
  5
113
330
1F
100
AcDbEntity
  8
0
  6
SLD-Durchgehend
 62
     7
370
    15
100
AcDbSpline
210
0.0
220
0.0
230
1.0
 70
    24
 71
     3
 72
    28
 73
    24
 74
     0
 42
0.00000001
 43
0.00000001
 40
0.0
 40
0.0
 40
0.0
 40
0.0
 40
0.1250000000000007
 40
0.1250000000000007
 40
0.2500000000000014
 40
0.2500000000000014
 40
0.3750000000000021
 40
0.3750000000000021
 40
0.5000000000000028
 40
0.5000000000000028
 40
0.6250000000000034
 40
0.6250000000000034
 40
0.6875000000000029
 40
0.6875000000000029
 40
0.7500000000000023
 40
0.7500000000000023
 40
0.8125000000000019
 40
0.8125000000000019
 40
0.8750000000000013
 40
0.8750000000000013
 40
0.9375000000000007
 40
0.9375000000000007
 40
1.0
 40
1.0
 40
1.0
 40
1.0
 10
474.9295929828929
 20
594.0066848530109
 30
0.0
 10
474.7407066597457
 20
593.9379358537253
 30
0.0
 10
474.5239555354578
 20
593.8590448962409
 30
0.0
 10
474.0691165138427
 20
593.6934970309902
 30
0.0
 10
473.825640716211
 20
593.6048790878881
 30
0.0
 10
473.3264373772636
 20
593.4231839316648
 30
0.0
 10
473.0741412866628
 20
593.3313556644645
 30
0.0
 10
472.5644522662194
 20
593.1458440322907
 30
0.0
 10
472.3113449073327
 20
593.0537204875822
 30
0.0
 10
471.8191476399109
 20
592.8745753328535
 30
0.0
 10
471.5775354297507
 20
592.78663568012
 30
0.0
 10
471.2424090546684
 20
592.6646596548725
 30
0.0
 10
471.134563268178
 20
592.625406998699
 30
0.0
 10
470.9277360452784
 20
592.5501280459275
 30
0.0
 10
470.8291881397553
 20
592.5142595416678
 30
0.0
 10
470.649185697734
 20
592.4487440106768
 30
0.0
 10
470.5668531689763
 20
592.4187774208972
 30
0.0
 10
470.4203840312467
 20
592.3654670145249
 30
0.0
 10
470.3573747685839
 20
592.3425335184327
 30
0.0
 10
470.2578994383673
 20
592.30632745919
 30
0.0
 10
470.2207644036641
 20
592.2928114119096
 30
0.0
 10
470.1782070367951
 20
592.2773217971205
 30
0.0
 10
470.1720703941025
 20
592.2750882418421
 30
0.0
 10
470.1819558514401
 20
592.2786862540651
 30
0.0
  0
SPLINE
  5
114
330
1F
100
AcDbEntity
  8
0
  6
SLD-Durchgehend
 62
     7
370
    15
100
AcDbSpline
210
0.0
220
0.0
230
1.0
 70
     8
 71
     3
 72
    10
 73
     6
 74
     0
 42
0.00000001
 43
0.00000001
 40
0.0
 40
0.0
 40
0.0
 40
0.0
 40
0.3236261557307181
 40
0.7233871308047155
 40
0.9999999999999999
 40
0.9999999999999999
 40
0.9999999999999999
 40
0.9999999999999999
 10
475.541549282342
 20
594.2294173562718
 30
0.0
 10
475.5341123627686
 20
594.2267097929428
 30
0.0
 10
475.5174889477046
 20
594.2206576972351
 30
0.0
 10
475.2664619134786
 20
594.1292963994035
 30
0.0
 10
475.0273715733918
 20
594.0422720968843
 30
0.0
 10
474.9295921197234
 20
594.0066822493268
 30
0.0
  0
SPLINE
  5
115
330
1F
100
AcDbEntity
  8
0
  6
SLD-Durchgehend
 62
     7
370
    15
100
AcDbSpline
210
0.0
220
0.0
230
1.0
 70
     8
 71
     3
 72
    10
 73
     6
 74
     0
 42
0.00000001
 43
0.00000001
 40
0.0
 40
0.0
 40
0.0
 40
0.0
 40
0.4995697892211116
 40
0.9991323794532438
 40
1.0
 40
1.0
 40
1.0
 40
1.0
 10
474.5093793740569
 20
525.6878418129222
 30
0.0
 10
474.4771346702318
 20
525.688155679162
 30
0.0
 10
474.4126457272399
 20
525.6887834071189
 30
0.0
 10
474.2088329071934
 20
525.6911641683247
 30
0.0
 10
473.9759825061287
 20
525.6926415581469
 30
0.0
 10
473.9755788019
 20
525.6926441195706
 30
0.0
  0
SPLINE
  5
116
330
1F
100
AcDbEntity
  8
0
  6
SLD-Durchgehend
 62
     8
370
     0
100
AcDbSpline
210
0.0
220
0.0
230
1.0
 70
     8
 71
     3
 72
    46
 73
    42
 74
     0
 42
0.00000001
 43
0.00000001
 40
0.0
 40
0.0
 40
0.0
 40
0.0
 40
0.125
 40
0.125
 40
0.1875000000000001
 40
0.1875000000000001
 40
0.2500000000000001
 40
0.2500000000000001
 40
0.2812500000000001
 40
0.2812500000000001
 40
0.3125000000000001
 40
0.3125000000000001
 40
0.3750000000000002
 40
0.3750000000000002
 40
0.4062500000000003
 40
0.4062500000000003
 40
0.4218750000000003
 40
0.4218750000000003
 40
0.4375000000000004
 40
0.4375000000000004
 40
0.5000000000000004
 40
0.5000000000000004
 40
0.5312500000000004
 40
0.5312500000000004
 40
0.5468750000000004
 40
0.5468750000000004
 40
0.5625000000000004
 40
0.5625000000000004
 40
0.6250000000000004
 40
0.6250000000000004
 40
0.6562500000000006
 40
0.6562500000000006
 40
0.6875000000000006
 40
0.6875000000000006
 40
0.7500000000000006
 40
0.7500000000000006
 40
0.8125000000000004
 40
0.8125000000000004
 40
0.8750000000000003
 40
0.8750000000000003
 40
1.0
 40
1.0
 40
1.0
 40
1.0
 10
475.7972271923727
 20
523.9874867091559
 30
0.0
 10
475.7972672698304
 20
523.9879948780177
 30
0.0
 10
475.6715576247512
 20
523.987312922232
 30
0.0
 10
475.2949640197118
 20
523.9818887651712
 30
0.0
 10
475.1383375969953
 20
523.9791062720842
 30
0.0
 10
474.7470231997704
 20
523.9681529137206
 30
0.0
 10
474.5120004874355
 20
523.9601165049506
 30
0.0
 10
474.0744218443801
 20
523.942081300616
 30
0.0
 10
473.9142603848198
 20
523.9350663417687
 30
0.0
 10
473.5585468009465
 20
523.918607100602
 30
0.0
 10
473.3626550027035
 20
523.909122391503
 30
0.0
 10
472.7107528695466
 20
523.8761257585572
 30
0.0
 10
472.1924550408146
 20
523.8479317605
 30
0.0
 10
471.2114408226433
 20
523.7972263440694
 30
0.0
 10
470.8501048109968
 20
523.7789407012439
 30
0.0
 10
470.2418356960274
 20
523.7506247472747
 30
0.0
 10
470.0280065109008
 20
523.7410762834564
 30
0.0
 10
469.5753987335179
 20
523.7220917616443
 30
0.0
 10
469.3362262802847
 20
523.7126468673641
 30
0.0
 10
468.0874188506754
 20
523.6672801080315
 30
0.0
 10
466.9071416395246
 20
523.6370047866455
 30
0.0
 10
464.8171863389557
 20
523.6161898349856
 30
0.0
 10
464.0647440013093
 20
523.6133596865269
 30
0.0
 10
462.881058808181
 20
523.6151019401888
 30
0.0
 10
462.4771118226884
 20
523.6166526787339
 30
0.0
 10
461.6579882264195
 20
523.6213766210808
 30
0.0
 10
461.2419490865537
 20
523.624549091826
 30
0.0
 10
459.1323396453655
 20
523.6436154526367
 30
0.0
 10
457.3511926338309
 20
523.6688388909284
 30
0.0
 10
454.5869701649423
 20
523.7071960290775
 30
0.0
 10
453.6488812433199
 20
523.7201804820305
 30
0.0
 10
451.766732071509
 20
523.7451576893966
 30
0.0
 10
450.8201201110948
 20
523.7571968393079
 30
0.0
 10
447.9672635197864
 20
523.7913191269278
 30
0.0
 10
446.0482806802923
 20
523.811348675155
 30
0.0
 10
442.1878777525951
 20
523.8463885393359
 30
0.0
 10
440.2443990804634
 20
523.8613949304441
 30
0.0
 10
436.3511837083438
 20
523.8873059575421
 30
0.0
 10
434.4021937002552
 20
523.8981395418876
 30
0.0
 10
428.5494844211535
 20
523.9271702587539
 30
0.0
 10
424.6399975365583
 20
523.9431638105411
 30
0.0
 10
420.7229965520119
 20
523.9582287735133
 30
0.0
  0
ARC
  5
117
330
1F
100
AcDbEntity
  8
0
  6
SLD-Durchgehend
 62
     8
370
     0
100
AcDbCircle
 10
274.3503923002
 20
524.1915320637
 30
0.0
 40
146.3727901835827
100
AcDbArc
 50
359.9086763189
 51
0.5883177298
  0
SPLINE
  5
118
330
1F
100
AcDbEntity
  8
0
  6
SLD-Durchgehend
 62
     8
370
     0
100
AcDbSpline
210
0.0
220
0.0
230
1.0
 70
     8
 71
     3
 72
    25
 73
    21
 74
     0
 42
0.00000001
 43
0.00000001
 40
0.0
 40
0.0
 40
0.0
 40
0.0
 40
0.0000007733607558
 40
0.1217224354556148
 40
0.2438043122846194
 40
0.3371563759609279
 40
0.384232884998984
 40
0.4312907793278389
 40
0.4901876296977073
 40
0.5203258768475493
 40
0.5504512457745293
 40
0.5740942948994491
 40
0.6223565099396479
 40
0.6722438464190396
 40
0.7087443140695767
 40
0.7452671947714036
 40
0.8200050586699263
 40
0.9090649593056391
 40
0.9981813840638148
 40
1.0
 40
1.0
 40
1.0
 40
1.0
 10
420.7154662540677
 20
525.6944733826263
 30
0.0
 10
420.7154863138829
 20
525.6944734020288
 30
0.0
 10
423.8727832616278
 20
525.6975272494258
 30
0.0
 10
430.1967112998607
 20
525.7040774854918
 30
0.0
 10
438.9170145374205
 20
525.7207147361219
 30
0.0
 10
445.660148685062
 20
525.7298022306952
 30
0.0
 10
450.4157422320757
 20
525.7308526714078
 30
0.0
 10
454.2375744862068
 20
525.7271578017185
 30
0.0
 10
457.5411528337712
 20
525.7179574145702
 30
0.0
 10
460.2788308017056
 20
525.7081647561965
 30
0.0
 10
462.1054498247572
 20
525.7016486135144
 30
0.0
 10
464.1776443404602
 20
525.6951058748971
 30
0.0
 10
466.3687051577364
 20
525.689763390598
 30
0.0
 10
468.2782413647007
 20
525.6901858629396
 30
0.0
 10
469.6510888629618
 20
525.693378565067
 30
0.0
 10
470.9871438880024
 20
525.6975004897355
 30
0.0
 10
472.2851710172024
 20
525.6997465026019
 30
0.0
 10
473.3161616631185
 20
525.6977585062302
 30
0.0
 10
473.8345147954633
 20
525.6938507563951
 30
0.0
 10
473.9713995472847
 20
525.6926861248768
 30
0.0
 10
473.9741371145545
 20
525.6926628333335
 30
0.0
  0
SPLINE
  5
119
330
1F
100
AcDbEntity
  8
0
  6
SLD-Durchgehend
 62
     8
370
     0
100
AcDbSpline
210
0.0
220
0.0
230
1.0
 70
     8
 71
     3
 72
     8
 73
     4
 74
     0
 42
0.00000001
 43
0.00000001
 40
0.0
 40
0.0
 40
0.0
 40
0.0
 40
1.0
 40
1.0
 40
1.0
 40
1.0
 10
361.8284544728238
 20
525.6817835905634
 30
0.0
 10
381.4561117282061
 20
525.6830159206312
 30
0.0
 10
401.0837978578952
 20
525.6829320044419
 30
0.0
 10
420.7114023870901
 20
525.69446851833
 30
0.0
  0
ARC
  5
11A
330
1F
100
AcDbEntity
  8
0
  6
SLD-Durchgehend
 62
     8
370
     0
100
AcDbCircle
 10
366.3835339744
 20
525.0284620455
 30
0.0
 40
54.33195049419066
100
AcDbArc
 50
359.9530830497
 51
0.7023520326
  0
SPLINE
  5
11B
330
1F
100
AcDbEntity
  8
0
  6
SLD-Durchgehend
 62
     8
370
     0
100
AcDbSpline
210
0.0
220
0.0
230
1.0
 70
     8
 71
     3
 72
     8
 73
     4
 74
     0
 42
0.00000001
 43
0.00000001
 40
0.0
 40
0.0
 40
0.0
 40
0.0
 40
1.0
 40
1.0
 40
1.0
 40
1.0
 10
420.7154662540476
 20
523.9582593706082
 30
0.0
 10
420.7157347097236
 20
524.3145439916212
 30
0.0
 10
420.7157049078065
 20
524.6821796606312
 30
0.0
 10
420.7154662540521
 20
524.9839736337327
 30
0.0
  0
SPLINE
  5
11C
330
1F
100
AcDbEntity
  8
0
  6
SLD-Durchgehend
 62
     8
370
     0
100
AcDbSpline
210
0.0
220
0.0
230
1.0
 70
     8
 71
     3
 72
     8
 73
     4
 74
     0
 42
0.00000001
 43
0.00000001
 40
0.0
 40
0.0
 40
0.0
 40
0.0
 40
1.0
 40
1.0
 40
1.0
 40
1.0
 10
420.7154662540521
 20
523.9582593706081
 30
0.0
 10
401.0865593144335
 20
524.0034526305217
 30
0.0
 10
381.4574782824769
 20
523.9952317869952
 30
0.0
 10
361.8284544728237
 20
523.9916887707702
 30
0.0
  0
SPLINE
  5
11D
330
1F
100
AcDbEntity
  8
0
  6
SLD-Durchgehend
 62
     8
370
     0
100
AcDbSpline
210
0.0
220
0.0
230
1.0
 70
     8
 71
     3
 72
    10
 73
     6
 74
     0
 42
0.00000001
 43
0.00000001
 40
0.0
 40
0.0
 40
0.0
 40
0.0
 40
0.5
 40
0.5
 40
1.0
 40
1.0
 40
1.0
 40
1.0
 10
361.8284544728238
 20
494.9955922994735
 30
0.0
 10
371.6445177279292
 20
495.9366773341762
 30
0.0
 10
381.4602275537328
 20
496.8805675978694
 30
0.0
 10
401.0897946862235
 20
498.7744621405134
 30
0.0
 10
410.90363543424
 20
499.7242995520339
 30
0.0
 10
420.7154662540521
 20
500.677880320192
 30
0.0
  0
SPLINE
  5
11E
330
1F
100
AcDbEntity
  8
0
  6
SLD-Durchgehend
 62
     8
370
     0
100
AcDbSpline
210
0.0
220
0.0
230
1.0
 70
    24
 71
     3
 72
     9
 73
     5
 74
     0
 42
0.00000001
 43
0.00000001
 40
0.0535990738565804
 40
0.0535990738565804
 40
0.0535990738565804
 40
0.0535990738565804
 40
0.5
 40
0.9303978674805705
 40
0.9303978674805705
 40
0.9303978674805705
 40
0.9303978674805705
 10
420.7154662540521
 20
523.9582577661337
 30
0.0
 10
420.7154662540521
 20
519.9788660153271
 30
0.0
 10
420.7154662540521
 20
512.6192563314061
 30
0.0
 10
420.7154662540521
 20
504.8723005206037
 30
0.0
 10
420.7154662540521
 20
500.6778851322127
 30
0.0
  0
LINE
  5
11F
330
1F
100
AcDbEntity
  8
0
  6
SLD-Durchgehend
 62
     8
370
     0
100
AcDbLine
 10
420.7114023698
 20
525.6944692499
 30
0.0
 11
420.7154662541
 21
525.6944733826
 31
0.0
  0
LINE
  5
120
330
1F
100
AcDbEntity
  8
0
  6
SLD-Durchgehend
 62
     8
370
     0
100
AcDbLine
 10
420.7229965528
 20
523.9582287302
 30
0.0
 11
420.7154662541
 21
523.9582577176
 31
0.0
  0
SPLINE
  5
121
330
1F
100
AcDbEntity
  8
0
  6
SLD-Durchgehend
 62
     8
370
     0
100
AcDbSpline
210
0.0
220
0.0
230
1.0
 70
     8
 71
     3
 72
    48
 73
    44
 74
     0
 42
0.00000001
 43
0.00000001
 40
0.0
 40
0.0
 40
0.0
 40
0.0
 40
0.015625
 40
0.015625
 40
0.0312500000000001
 40
0.0312500000000001
 40
0.0625000000000001
 40
0.0625000000000001
 40
0.1250000000000002
 40
0.1250000000000002
 40
0.1875000000000002
 40
0.1875000000000002
 40
0.2500000000000002
 40
0.2500000000000002
 40
0.3125000000000001
 40
0.3125000000000001
 40
0.3749999999999999
 40
0.3749999999999999
 40
0.4062499999999999
 40
0.4062499999999999
 40
0.4374999999999998
 40
0.4374999999999998
 40
0.4999999999999998
 40
0.4999999999999998
 40
0.5156249999999998
 40
0.5156249999999998
 40
0.5312499999999999
 40
0.5312499999999999
 40
0.5625
 40
0.5625
 40
0.625
 40
0.625
 40
0.6562500000000001
 40
0.6562500000000001
 40
0.6875000000000001
 40
0.6875000000000001
 40
0.7500000000000001
 40
0.7500000000000001
 40
0.8125000000000002
 40
0.8125000000000002
 40
0.8750000000000002
 40
0.8750000000000002
 40
1.0
 40
1.0
 40
1.0
 40
1.0
 10
420.7154662540521
 20
500.6778899442336
 30
0.0
 10
421.1104472883749
 20
500.7161416627021
 30
0.0
 10
421.5087571055726
 20
500.7547056840614
 30
0.0
 10
422.3016756582023
 20
500.8314519474415
 30
0.0
 10
422.6980092732812
 20
500.8698012795235
 30
0.0
 10
423.8866190156667
 20
500.9847717874455
 30
0.0
 10
424.6785043919375
 20
501.0613156166762
 30
0.0
 10
427.05247270113
 20
501.2905838959913
 30
0.0
 10
428.6328759977046
 20
501.4429474602262
 30
0.0
 10
431.7883729055665
 20
501.7463692352506
 30
0.0
 10
433.3634724632576
 20
501.8974268433161
 30
0.0
 10
436.5072142925572
 20
502.197827508713
 30
0.0
 10
438.0758671681149
 20
502.3471686084251
 30
0.0
 10
441.2049477103296
 20
502.6437679641732
 30
0.0
 10
442.7498228004885
 20
502.7895443937509
 30
0.0
 10
445.7900192922247
 20
503.0751372939295
 30
0.0
 10
447.2854667809713
 20
503.2149574506622
 30
0.0
 10
449.4803818497796
 20
503.419512886523
 30
0.0
 10
450.2039320715505
 20
503.4868350503685
 30
0.0
 10
451.6322602059993
 20
503.6196195124027
 30
0.0
 10
452.3384749632192
 20
503.6852153491295
 30
0.0
 10
454.3890766059143
 20
503.8757274846722
 30
0.0
 10
455.6764077432308
 20
503.9954160574553
 30
0.0
 10
457.1686435989191
 20
504.134935573604
 30
0.0
 10
457.4612405332364
 20
504.1623332409636
 30
0.0
 10
458.0342900797907
 20
504.2160849362072
 30
0.0
 10
458.3154910759532
 20
504.2425095193211
 30
0.0
 10
459.1342404133264
 20
504.3196025642793
 30
0.0
 10
459.6456278713832
 20
504.367968910803
 30
0.0
 10
461.0804225272149
 20
504.504279008717
 30
0.0
 10
461.9042925563022
 20
504.583415775411
 30
0.0
 10
462.9627097025921
 20
504.6856410520083
 30
0.0
 10
463.2854131890662
 20
504.7169131915024
 30
0.0
 10
463.8674261230866
 20
504.7733628796691
 30
0.0
 10
464.1284332560173
 20
504.7987025106661
 30
0.0
 10
464.8343319310393
 20
504.8670955483379
 30
0.0
 10
465.2025197631663
 20
504.9025406994704
 30
0.0
 10
465.7897991423015
 20
504.9580442431036
 30
0.0
 10
466.0083789473193
 20
504.9780532521615
 30
0.0
 10
466.3384083705188
 20
505.0070872161544
 30
0.0
 10
466.4502874521597
 20
505.0161682922685
 30
0.0
 10
466.6850835131786
 20
505.03370494824
 30
0.0
 10
466.7099371252972
 20
505.0328303281695
 30
0.0
 10
466.7099371252972
 20
505.0328303281696
 30
0.0
  0
SPLINE
  5
122
330
1F
100
AcDbEntity
  8
0
  6
SLD-Durchgehend
 62
     8
370
     0
100
AcDbSpline
210
0.0
220
0.0
230
1.0
 70
    24
 71
     3
 72
     8
 73
     4
 74
     0
 42
0.00000001
 43
0.00000001
 40
0.1697971195247344
 40
0.1697971195247344
 40
0.1697971195247344
 40
0.1697971195247344
 40
0.8032587855161584
 40
0.8032587855161584
 40
0.8032587855161584
 40
0.8032587855161584
 10
420.7154662540521
 20
526.3643740268628
 30
0.0
 10
420.7154662540521
 20
526.2656504620279
 30
0.0
 10
420.7154662540521
 20
525.9998579058986
 30
0.0
 10
420.7154662540521
 20
525.6944733933655
 30
0.0
  0
SPLINE
  5
123
330
1F
100
AcDbEntity
  8
0
  6
SLD-Durchgehend
 62
     8
370
     0
100
AcDbSpline
210
0.0
220
0.0
230
1.0
 70
     8
 71
     3
 72
    10
 73
     6
 74
     0
 42
0.00000001
 43
0.00000001
 40
0.0
 40
0.0
 40
0.0
 40
0.0
 40
0.5
 40
0.5
 40
1.0
 40
1.0
 40
1.0
 40
1.0
 10
420.7154668120864
 20
500.6778803744257
 30
0.0
 10
420.7241555384487
 20
500.6038036274917
 30
0.0
 10
420.7317774298265
 20
500.5448865470402
 30
0.0
 10
420.7442333405608
 20
500.4624286884967
 30
0.0
 10
420.7486388419752
 20
500.4414808521461
 30
0.0
 10
420.751140169959
 20
500.441723520074
 30
0.0
  0
LINE
  5
124
330
1F
100
AcDbEntity
  8
0
  6
SLD-Durchgehend
 62
     8
370
     0
100
AcDbLine
 10
399.5719612708
 20
541.6335523749
 30
0.0
 11
399.6392102113
 21
541.756343531
 31
0.0
  0
LINE
  5
125
330
1F
100
AcDbEntity
  8
0
  6
SLD-Durchgehend
 62
     8
370
     0
100
AcDbLine
 10
402.2904173603
 20
546.6460310543
 30
0.0
 11
404.3173981031
 21
550.7607464367
 31
0.0
  0
SPLINE
  5
126
330
1F
100
AcDbEntity
  8
0
  6
SLD-Durchgehend
 62
     8
370
     0
100
AcDbSpline
210
0.0
220
0.0
230
1.0
 70
     8
 71
     3
 72
    32
 73
    28
 74
     0
 42
0.00000001
 43
0.00000001
 40
0.0
 40
0.0
 40
0.0
 40
0.0
 40
0.1249999999999999
 40
0.1249999999999999
 40
0.1874999999999999
 40
0.1874999999999999
 40
0.2499999999999999
 40
0.2499999999999999
 40
0.3749999999999998
 40
0.3749999999999998
 40
0.4374999999999999
 40
0.4374999999999999
 40
0.5
 40
0.5
 40
0.625
 40
0.625
 40
0.6875000000000001
 40
0.6875000000000001
 40
0.7500000000000001
 40
0.7500000000000001
 40
0.8125000000000001
 40
0.8125000000000001
 40
0.875
 40
0.875
 40
0.9375
 40
0.9375
 40
1.0
 40
1.0
 40
1.0
 40
1.0
 10
420.7153253316712
 20
551.0312149331992
 30
0.0
 10
419.6409403284979
 20
551.0331003490112
 30
0.0
 10
418.5837994895534
 20
551.0365924196882
 30
0.0
 10
417.0233813677207
 20
551.0438699961554
 30
0.0
 10
416.5075045650576
 20
551.0465909530409
 30
0.0
 10
415.4846214158766
 20
551.0522049597737
 30
0.0
 10
414.9757656195874
 20
551.0550993348676
 30
0.0
 10
413.4957484925221
 20
551.063060781672
 30
0.0
 10
412.5606888119352
 20
551.0674315638629
 30
0.0
 10
411.2335625645351
 20
551.0721559374342
 30
0.0
 10
410.8032961290126
 20
551.0734448328649
 30
0.0
 10
409.9716395997412
 20
551.0753428802864
 30
0.0
 10
409.5761381793588
 20
551.0759349665811
 30
0.0
 10
408.4488830672926
 20
551.0764659678249
 30
0.0
 10
407.7757474116377
 20
551.0750476034564
 30
0.0
 10
406.8853788660832
 20
551.0705839793119
 30
0.0
 10
406.6088855401389
 20
551.0687939380209
 30
0.0
 10
406.1086621508743
 20
551.0642858945307
 30
0.0
 10
405.8830686657877
 20
551.0616071490928
 30
0.0
 10
405.4795766934347
 20
551.0558883152714
 30
0.0
 10
405.3016688807242
 20
551.0528561313718
 30
0.0
 10
404.9942019493116
 20
551.0469845994571
 30
0.0
 10
404.8643823634445
 20
551.0441413138238
 30
0.0
 10
404.6571359640756
 20
551.0391057719246
 30
0.0
 10
404.5798336210498
 20
551.0369168584947
 30
0.0
 10
404.4773504409935
 20
551.0333955155807
 30
0.0
 10
404.4519898518276
 20
551.0320883657506
 30
0.0
 10
404.450617303256
 20
551.0311787509818
 30
0.0
  0
SPLINE
  5
127
330
1F
100
AcDbEntity
  8
0
  6
SLD-Durchgehend
 62
     8
370
     0
100
AcDbSpline
210
0.0
220
0.0
230
1.0
 70
     8
 71
     3
 72
    21
 73
    17
 74
     0
 42
0.00000001
 43
0.00000001
 40
0.0
 40
0.0
 40
0.0
 40
0.0
 40
0.0879486432638338
 40
0.1752439333040774
 40
0.2612918885695353
 40
0.3455728740694634
 40
0.4277614552194756
 40
0.5078544237640066
 40
0.5862406415673248
 40
0.6636368488592876
 40
0.7409941569166748
 40
0.8194217741594443
 40
0.8999782697137144
 40
0.9834872385347003
 40
0.9917271768128924
 40
0.9999999999999999
 40
0.9999999999999999
 40
0.9999999999999999
 40
0.9999999999999999
 10
420.7156071764015
 20
551.031214848459
 30
0.0
 10
420.7155305320777
 20
549.979958420676
 30
0.0
 10
420.7153778128057
 20
547.8852551429551
 30
0.0
 10
420.7155751363946
 20
544.7911930233937
 30
0.0
 10
420.7155966020168
 20
541.7959296250048
 30
0.0
 10
420.715324851058
 20
538.9487793262156
 30
0.0
 10
420.715328186736
 20
536.2989748396735
 30
0.0
 10
420.7155690968552
 20
533.8931075691742
 30
0.0
 10
420.7154489008685
 20
531.7733467139051
 30
0.0
 10
420.7153816215604
 20
529.9775065310978
 30
0.0
 10
420.7155469817261
 20
528.5340835714253
 30
0.0
 10
420.7155026426877
 20
527.4574303176759
 30
0.0
 10
420.7155651872808
 20
526.7488670380643
 30
0.0
 10
420.7155343369512
 20
526.5085448451429
 30
0.0
 10
420.7154640599808
 20
526.440904806552
 30
0.0
 10
420.7154521345813
 20
526.4323904738163
 30
0.0
 10
420.715446160007
 20
526.4281248293676
 30
0.0
  0
SPLINE
  5
128
330
1F
100
AcDbEntity
  8
0
  6
SLD-Durchgehend
 62
     8
370
     0
100
AcDbSpline
210
0.0
220
0.0
230
1.0
 70
     8
 71
     3
 72
    32
 73
    28
 74
     0
 42
0.00000001
 43
0.00000001
 40
0.0
 40
0.0
 40
0.0
 40
0.0
 40
0.125
 40
0.125
 40
0.1875
 40
0.1875
 40
0.25
 40
0.25
 40
0.3749999999999999
 40
0.3749999999999999
 40
0.4374999999999999
 40
0.4374999999999999
 40
0.4999999999999999
 40
0.4999999999999999
 40
0.6250000000000001
 40
0.6250000000000001
 40
0.6875000000000001
 40
0.6875000000000001
 40
0.7500000000000001
 40
0.7500000000000001
 40
0.8125000000000001
 40
0.8125000000000001
 40
0.8750000000000001
 40
0.8750000000000001
 40
0.9375000000000001
 40
0.9375000000000001
 40
1.0
 40
1.0
 40
1.0
 40
1.0
 10
436.9803152048482
 20
551.0311787509817
 30
0.0
 10
436.9775710846654
 20
551.0329973330687
 30
0.0
 10
436.8780648478385
 20
551.0365510420708
 30
0.0
 10
436.5740641194399
 20
551.0439689812423
 30
0.0
 10
436.4471915977098
 20
551.0467659623023
 30
0.0
 10
436.1415097592098
 20
551.0526397921756
 30
0.0
 10
435.9616447729747
 20
551.0557255311672
 30
0.0
 10
435.3546826497509
 20
551.0643778923582
 30
0.0
 10
434.8589514148138
 20
551.0689648201129
 30
0.0
 10
433.9781277797103
 20
551.0734512475946
 30
0.0
 10
433.6616989627215
 20
551.0746047190128
 30
0.0
 10
432.9815552850036
 20
551.0760272429096
 30
0.0
 10
432.623196846847
 20
551.0762842244994
 30
0.0
 10
431.4969245587534
 20
551.0757909424684
 30
0.0
 10
430.6774050143883
 20
551.0738388048859
 30
0.0
 10
429.3447414054106
 20
551.0691329685333
 30
0.0
 10
428.8818940488314
 20
551.067244370425
 30
0.0
 10
427.9411559858981
 20
551.0629377266928
 30
0.0
 10
427.4609690084861
 20
551.0605055775479
 30
0.0
 10
426.4811566698816
 20
551.055243212585
 30
0.0
 10
425.9815243709005
 20
551.0524033194489
 30
0.0
 10
424.9626427022089
 20
551.0468014475844
 30
0.0
 10
424.4419313801054
 20
551.0440415415346
 30
0.0
 10
423.387623625467
 20
551.0391025607697
 30
0.0
 10
422.8552901845002
 20
551.0369349979466
 30
0.0
 10
421.7884152741761
 20
551.0334613025412
 30
0.0
 10
421.2530038073609
 20
551.0321579993275
 30
0.0
 10
420.7156071764329
 20
551.0312149331992
 30
0.0
  0
SPLINE
  5
129
330
1F
100
AcDbEntity
  8
0
  6
SLD-Durchgehend
 62
     8
370
     0
100
AcDbSpline
210
0.0
220
0.0
230
1.0
 70
    24
 71
     3
 72
    31
 73
    27
 74
     0
 42
0.00000001
 43
0.00000001
 40
0.0
 40
0.0
 40
0.0
 40
0.0
 40
0.0009765625
 40
0.0009765625
 40
0.001953125
 40
0.00390625
 40
0.0078125
 40
0.015625
 40
0.03125
 40
0.0625
 40
0.0625
 40
0.125
 40
0.125
 40
0.2499999999999999
 40
0.2499999999999999
 40
0.375
 40
0.375
 40
0.5
 40
0.5
 40
0.6250000000000001
 40
0.6250000000000001
 40
0.7500000000000001
 40
0.7500000000000001
 40
0.8750000000000001
 40
0.8750000000000001
 40
1.0
 40
1.0
 40
1.0
 40
1.0
 10
456.3219662540521
 20
499.3242953005693
 30
0.0
 10
456.3219662540521
 20
499.3242953005693
 30
0.0
 10
456.3219522449323
 20
499.3242953005693
 30
0.0
 10
456.3218962133469
 20
499.3242953005693
 30
0.0
 10
456.3217701459448
 20
499.3242953005693
 30
0.0
 10
456.321181899688
 20
499.3242953005693
 30
0.0
 10
456.3188294580487
 20
499.3242953005693
 30
0.0
 10
456.3094239923835
 20
499.3242953005693
 30
0.0
 10
456.2718357957234
 20
499.3242953005693
 30
0.0
 10
456.2075114040713
 20
499.3242953005693
 30
0.0
 10
456.0362500018235
 20
499.3242953005693
 30
0.0
 10
455.8652686326537
 20
499.3242953005693
 30
0.0
 10
455.1831010373451
 20
499.3242953005693
 30
0.0
 10
454.503735759529
 20
499.3242953005693
 30
0.0
 10
452.7195383848908
 20
499.3242953005693
 30
0.0
 10
451.6163823527712
 20
499.3242953005693
 30
0.0
 10
449.0261225187857
 20
499.3242953005693
 30
0.0
 10
447.5414922683317
 20
499.3242953005693
 30
0.0
 10
444.2447268048685
 20
499.3242953005693
 30
0.0
 10
442.4357121434154
 20
499.3242953005693
 30
0.0
 10
438.5591054647565
 20
499.3242953005693
 30
0.0
 10
436.495214611634
 20
499.3242953005693
 30
0.0
 10
432.1878104264144
 20
499.3242953005693
 30
0.0
 10
429.9483457979815
 20
499.3242953005693
 30
0.0
 10
425.3755136529336
 20
499.3242953005693
 30
0.0
 10
423.0465779511051
 20
499.3242953005693
 30
0.0
 10
420.7154662540521
 20
499.3242953005693
 30
0.0
  0
SPLINE
  5
12A
330
1F
100
AcDbEntity
  8
0
  6
SLD-Durchgehend
 62
     8
370
     0
100
AcDbSpline
210
0.0
220
0.0
230
1.0
 70
     8
 71
     3
 72
     8
 73
     4
 74
     0
 42
0.00000001
 43
0.00000001
 40
0.0
 40
0.0
 40
0.0
 40
0.0
 40
1.0
 40
1.0
 40
1.0
 40
1.0
 10
420.7149363184925
 20
500.4382621284925
 30
0.0
 10
420.715107638907
 20
500.0677031539132
 30
0.0
 10
420.7152672777493
 20
499.6963746592421
 30
0.0
 10
420.7154662540521
 20
499.3242953005693
 30
0.0
  0
SPLINE
  5
12B
330
1F
100
AcDbEntity
  8
0
  6
SLD-Durchgehend
 62
     8
370
     0
100
AcDbSpline
210
0.0
220
0.0
230
1.0
 70
    24
 71
     3
 72
    10
 73
     6
 74
     0
 42
0.00000001
 43
0.00000001
 40
0.0
 40
0.0
 40
0.0
 40
0.0
 40
0.5
 40
0.5
 40
1.0
 40
1.0
 40
1.0
 40
1.0
 10
420.7154662540521
 20
499.3242953005693
 30
0.0
 10
418.7669155194415
 20
499.3242953005693
 30
0.0
 10
416.8183883471352
 20
499.3242953005693
 30
0.0
 10
412.973688340648
 20
499.3242953005693
 30
0.0
 10
411.0775619974257
 20
499.3242953005693
 30
0.0
 10
409.2331095842798
 20
499.3242953005693
 30
0.0
  0
LINE
  5
12C
330
1F
100
AcDbEntity
  8
0
  6
SLD-Durchgehend
 62
     8
370
     0
100
AcDbLine
 10
456.3219645193
 20
461.2102978552
 30
0.0
 11
385.1089649966
 21
461.2102978552
 31
0.0
  0
SPLINE
  5
12D
330
1F
100
AcDbEntity
  8
0
  6
SLD-Durchgehend
 62
     8
370
     0
100
AcDbSpline
210
0.0
220
0.0
230
1.0
 70
     8
 71
     3
 72
    10
 73
     6
 74
     0
 42
0.00000001
 43
0.00000001
 40
0.0
 40
0.0
 40
0.0
 40
0.0
 40
0.5
 40
0.5
 40
1.0
 40
1.0
 40
1.0
 40
1.0
 10
420.7153253316712
 20
551.0312149331992
 30
0.0
 10
420.7153042171189
 20
551.1156869220234
 30
0.0
 10
420.7152705339651
 20
551.1883176461704
 30
0.0
 10
420.7151881502976
 20
551.2880752254403
 30
0.0
 10
420.7151395836722
 20
551.3150399565144
 30
0.0
 10
420.7150909379889
 20
551.3150399565144
 30
0.0
  0
LINE
  5
12E
330
1F
100
AcDbEntity
  8
0
  6
SLD-Durchgehend
 62
     8
370
     0
100
AcDbLine
 10
420.7154662541
 20
574.8855382824
 30
0.0
 11
435.5097166395
 21
574.8855382824
 31
0.0
  0
LINE
  5
12F
330
1F
100
AcDbEntity
  8
0
  6
SLD-Durchgehend
 62
     8
370
     0
100
AcDbLine
 10
405.9212166017
 20
574.8855382824
 30
0.0
 11
420.7154662541
 21
574.8855382824
 31
0.0
  0
LINE
  5
130
330
1F
100
AcDbEntity
  8
0
  6
SLD-Durchgehend
 62
     8
370
     0
100
AcDbLine
 10
420.7154662541
 20
605.5630766475
 30
0.0
 11
405.9212166017
 21
605.5630766475
 31
0.0
  0
LINE
  5
131
330
1F
100
AcDbEntity
  8
0
  6
SLD-Durchgehend
 62
     8
370
     0
100
AcDbLine
 10
435.5097166395
 20
605.5630766475
 30
0.0
 11
420.7154662541
 21
605.5630766475
 31
0.0
  0
LINE
  5
132
330
1F
100
AcDbEntity
  8
0
  6
SLD-Durchgehend
 62
     8
370
     0
100
AcDbLine
 10
420.7154662541
 20
606.0547926152
 30
0.0
 11
435.1067873782
 21
606.0547926152
 31
0.0
  0
LINE
  5
133
330
1F
100
AcDbEntity
  8
0
  6
SLD-Durchgehend
 62
     8
370
     0
100
AcDbLine
 10
406.324145863
 20
606.0547926152
 30
0.0
 11
420.7154662541
 21
606.0547926152
 31
0.0
  0
LINE
  5
134
330
1F
100
AcDbEntity
  8
0
  6
SLD-Durchgehend
 62
     8
370
     0
100
AcDbLine
 10
435.5097166395
 20
565.3570391858
 30
0.0
 11
405.9212166017
 21
565.3570391858
 31
0.0
  0
LINE
  5
135
330
1F
100
AcDbEntity
  8
0
  6
SLD-Durchgehend
 62
     8
370
     0
100
AcDbLine
 10
405.9212166017
 20
551.8165402734
 30
0.0
 11
435.5097166395
 21
551.8165402734
 31
0.0
  0
LINE
  5
136
330
1F
100
AcDbEntity
  8
0
  6
SLD-Durchgehend
 62
     8
370
     0
100
AcDbLine
 10
445.5932011029
 20
600.9635426724
 30
0.0
 11
445.5932011029
 21
603.4710430229
 31
0.0
  0
LINE
  5
137
330
1F
100
AcDbEntity
  8
0
  6
SLD-Durchgehend
 62
     8
370
     0
100
AcDbLine
 10
445.5932011029
 20
598.4560423219
 30
0.0
 11
445.5932011029
 21
600.9635426724
 31
0.0
  0
SPLINE
  5
138
330
1F
100
AcDbEntity
  8
0
  6
SLD-Durchgehend
 62
     8
370
     0
100
AcDbSpline
210
0.0
220
0.0
230
1.0
 70
     8
 71
     3
 72
    10
 73
     6
 74
     0
 42
0.00000001
 43
0.00000001
 40
0.0
 40
0.0
 40
0.0
 40
0.0
 40
0.2759676466882302
 40
0.6789725416058254
 40
1.0
 40
1.0
 40
1.0
 40
1.0
 10
474.9475368430911
 20
594.4836907708836
 30
0.0
 10
475.0516015083983
 20
594.5286730744554
 30
0.0
 10
475.3076353266481
 20
594.6393445584135
 30
0.0
 10
475.5715739543921
 20
594.7532377958289
 30
0.0
 10
475.5891431831316
 20
594.7608103123805
 30
0.0
 10
475.5969331732093
 20
594.7641678774548
 30
0.0
  0
SPLINE
  5
139
330
1F
100
AcDbEntity
  8
0
  6
SLD-Durchgehend
 62
     8
370
     0
100
AcDbSpline
210
0.0
220
0.0
230
1.0
 70
     8
 71
     3
 72
    15
 73
    11
 74
     0
 42
0.00000001
 43
0.00000001
 40
0.0
 40
0.0
 40
0.0
 40
0.0
 40
0.0753781743384438
 40
0.1659342127882675
 40
0.2881954937649457
 40
0.4454581150424644
 40
0.6046251525450468
 40
0.7937274884302452
 40
0.9477574592419349
 40
1.0
 40
1.0
 40
1.0
 40
1.0
 10
469.9486144950686
 20
592.3027344668103
 30
0.0
 10
469.9541340200391
 20
592.305165346474
 30
0.0
 10
469.966284460654
 20
592.3105165785374
 30
0.0
 10
470.2357761335451
 20
592.4291228888881
 30
0.0
 10
470.7658884227142
 20
592.6621271395514
 30
0.0
 10
471.6019455687352
 20
593.0286593118462
 30
0.0
 10
472.6710610961539
 20
593.4956907572829
 30
0.0
 10
473.7543037038689
 20
593.9669368950988
 30
0.0
 10
474.5341387024185
 20
594.3048882979296
 30
0.0
 10
474.8639944380399
 20
594.4475571090452
 30
0.0
 10
474.9475368430911
 20
594.4836907708836
 30
0.0
  0
LINE
  5
13A
330
1F
100
AcDbEntity
  8
0
  6
SLD-Durchgehend
 62
     7
370
    15
100
AcDbLine
 10
406.6734662541
 20
439.6457953006
 30
0.0
 11
434.7574662541
 21
439.6457953006
 31
0.0
  0
LINE
  5
13B
330
1F
100
AcDbEntity
  8
0
  6
SLD-Durchgehend
 62
     7
370
    15
100
AcDbLine
 10
184.6771379692
 20
263.7509739766
 30
0.0
 11
184.6771379692
 21
253.454217575
 31
0.0
  0
LINE
  5
13C
330
1F
100
AcDbEntity
  8
0
  6
SLD-Durchgehend
 62
     7
370
    15
100
AcDbLine
 10
189.6921379717
 20
253.454217575
 30
0.0
 11
189.6921379717
 21
263.7464784826
 31
0.0
  0
LINE
  5
13D
330
1F
100
AcDbEntity
  8
0
  6
SLD-Durchgehend
 62
     7
370
    15
100
AcDbLine
 10
184.6771379692
 20
253.454217575
 30
0.0
 11
184.6771379692
 21
226.3202405343
 31
0.0
  0
LINE
  5
13E
330
1F
100
AcDbEntity
  8
0
  6
SLD-Durchgehend
 62
     7
370
    15
100
AcDbLine
 10
189.6921379717
 20
226.3035326073
 30
0.0
 11
189.6921379717
 21
253.454217575
 31
0.0
  0
SPLINE
  5
13F
330
1F
100
AcDbEntity
  8
0
  6
SLD-Durchgehend
 62
     7
370
    15
100
AcDbSpline
210
0.0
220
0.0
230
1.0
 70
     8
 71
     3
 72
    13
 73
     9
 74
     0
 42
0.00000001
 43
0.00000001
 40
0.0
 40
0.0
 40
0.0
 40
0.0
 40
0.0468024160485704
 40
0.252871045615092
 40
0.4478772553322908
 40
0.6552886729274342
 40
0.8568119460311314
 40
1.0
 40
1.0
 40
1.0
 40
1.0
 10
185.4881687082073
 20
224.072281158947
 30
0.0
 10
185.5209450038693
 20
224.033933377807
 30
0.0
 10
185.6980336427728
 20
223.8267422895554
 30
0.0
 10
186.107868470707
 20
223.5419615467804
 30
0.0
 10
186.741652883022
 20
223.2987342834707
 30
0.0
 10
187.4220445490419
 20
223.2702047317701
 30
0.0
 10
188.0305618941895
 20
223.4208198254001
 30
0.0
 10
188.3413833841751
 20
223.6365470474026
 30
0.0
 10
188.4704940944632
 20
223.7261569867363
 30
0.0
  0
LINE
  5
140
330
1F
100
AcDbEntity
  8
0
  6
SLD-Durchgehend
 62
     7
370
    15
100
AcDbLine
 10
185.3043472852
 20
224.280439205
 30
0.0
 11
185.4881687082
 21
224.0722811589
 31
0.0
  0
SPLINE
  5
141
330
1F
100
AcDbEntity
  8
0
  6
SLD-Durchgehend
 62
     7
370
    15
100
AcDbSpline
210
0.0
220
0.0
230
1.0
 70
     8
 71
     3
 72
    26
 73
    22
 74
     0
 42
0.00000001
 43
0.00000001
 40
0.0
 40
0.0
 40
0.0
 40
0.0
 40
0.0454372333312188
 40
0.0999939446892881
 40
0.1502537446420156
 40
0.1968732058775303
 40
0.2406033069272148
 40
0.2821091564249333
 40
0.3220017365249587
 40
0.3648255626997535
 40
0.4057950197828457
 40
0.4489730894327495
 40
0.4941022479284207
 40
0.5420145689092107
 40
0.5936697491749254
 40
0.6503392169693739
 40
0.7141146829392132
 40
0.7901182324366517
 40
0.8744749956758174
 40
0.9674673093938728
 40
1.0
 40
1.0
 40
1.0
 40
1.0
 10
216.8166010865664
 20
226.037014163517
 30
0.0
 10
217.5723242681248
 20
226.2184578795786
 30
0.0
 10
219.2354480209797
 20
226.6177619651911
 30
0.0
 10
221.6854843570213
 20
227.401039672348
 30
0.0
 10
224.0987855561457
 20
228.3456431595639
 30
0.0
 10
226.265489266548
 20
229.3945519840598
 30
0.0
 10
228.2099295643286
 20
230.5416180811241
 30
0.0
 10
229.9521039181114
 20
231.7890950704726
 30
0.0
 10
231.5600951462532
 20
233.1822373129272
 30
0.0
 10
233.0094813916982
 20
234.7284866290418
 30
0.0
 10
234.3290108317001
 20
236.4566940787447
 30
0.0
 10
235.5111010423166
 20
238.3282095455237
 30
0.0
 10
236.58361166465
 20
240.3990606292563
 30
0.0
 10
237.5476871111105
 20
242.680419551612
 30
0.0
 10
238.4135092940644
 20
245.2100898510218
 30
0.0
 10
239.1948266846603
 20
248.0491103646499
 30
0.0
 10
239.9271371218434
 20
251.3288389121464
 30
0.0
 10
240.6027523324433
 20
255.1032026218929
 30
0.0
 10
241.1742567855643
 20
259.3987138022705
 30
0.0
 10
241.5445059097727
 20
262.9700392567113
 30
0.0
 10
241.6844886269122
 20
265.1121413806446
 30
0.0
 10
241.7207683661675
 20
265.6673163915506
 30
0.0
  0
SPLINE
  5
142
330
1F
100
AcDbEntity
  8
0
  6
SLD-Durchgehend
 62
     7
370
    15
100
AcDbSpline
210
0.0
220
0.0
230
1.0
 70
     8
 71
     3
 72
    26
 73
    22
 74
     0
 42
0.00000001
 43
0.00000001
 40
0.0
 40
0.0
 40
0.0
 40
0.0
 40
0.0504109648326045
 40
0.1454535234638122
 40
0.2301895407798136
 40
0.3079327734176558
 40
0.3729915086845949
 40
0.4294547463272906
 40
0.4805195936832526
 40
0.5276158375265313
 40
0.5718245433584787
 40
0.6140088374275263
 40
0.6536246483537219
 40
0.6953636731516913
 40
0.7365189282408118
 40
0.7793100180585075
 40
0.8242882399505381
 40
0.8720615645613697
 40
0.9232658137723216
 40
0.9785517935024414
 40
0.9999999999999999
 40
0.9999999999999999
 40
0.9999999999999999
 40
0.9999999999999999
 10
132.6653088668084
 20
265.5172952259412
 30
0.0
 10
132.7242214399514
 20
264.6605611457422
 30
0.0
 10
132.8942051204549
 20
262.1885792852428
 30
0.0
 10
133.3248084739742
 20
258.2896833117489
 30
0.0
 10
133.9522117089153
 20
253.94708113805
 30
0.0
 10
134.6874326716922
 20
250.1399485067123
 30
0.0
 10
135.4835029390231
 20
246.8388409726938
 30
0.0
 10
136.3369631805125
 20
244.0235460584375
 30
0.0
 10
137.2698386934485
 20
241.5579841450089
 30
0.0
 10
138.2974405948377
 20
239.3585496280552
 30
0.0
 10
139.4269491082632
 20
237.3818371843264
 30
0.0
 10
140.653082483928
 20
235.6166439436736
 30
0.0
 10
142.0054374722915
 20
234.0002254293077
 30
0.0
 10
143.5059446633612
 20
232.5442448916104
 30
0.0
 10
145.1839963332455
 20
231.2097051653629
 30
0.0
 10
147.0231754183823
 20
230.0041550270408
 30
0.0
 10
149.0578106350577
 20
228.907445556777
 30
0.0
 10
151.3032702407
 20
227.9155722147211
 30
0.0
 10
153.7809167770855
 20
227.0358748370065
 30
0.0
 10
155.8733847735703
 20
226.418500307815
 30
0.0
 10
157.1483645613414
 20
226.1299500175803
 30
0.0
 10
157.5047380516028
 20
226.049296445631
 30
0.0
  0
LINE
  5
143
330
1F
100
AcDbEntity
  8
0
  6
SLD-Durchgehend
 62
     7
370
    15
100
AcDbLine
 10
132.1127626339
 20
289.877945445
 30
0.0
 11
132.1329574326
 21
278.3318684201
 31
0.0
  0
SPLINE
  5
144
330
1F
100
AcDbEntity
  8
0
  6
SLD-Durchgehend
 62
     7
370
    15
100
AcDbSpline
210
0.0
220
0.0
230
1.0
 70
     8
 71
     3
 72
    10
 73
     6
 74
     0
 42
0.00000001
 43
0.00000001
 40
0.0
 40
0.0
 40
0.0
 40
0.0
 40
0.0193471945417166
 40
0.2762083727263923
 40
1.0
 40
1.0
 40
1.0
 40
1.0
 10
242.2386097946858
 20
278.3320168887761
 30
0.0
 10
242.2396097983208
 20
278.7117806922953
 30
0.0
 10
242.2538862545868
 20
284.1334423168915
 30
0.0
 10
242.2799830818929
 20
303.7624451445702
 30
0.0
 10
242.2742409318241
 20
323.0116661651836
 30
0.0
 10
242.2700028160309
 20
337.2189624974957
 30
0.0
  0
LINE
  5
145
330
1F
100
AcDbEntity
  8
0
  6
SLD-Durchgehend
 62
     7
370
    15
100
AcDbLine
 10
132.1590419152
 20
278.3320422764
 30
0.0
 11
132.1591573992
 21
278.3247276462
 31
0.0
  0
LINE
  5
146
330
1F
100
AcDbEntity
  8
0
  6
SLD-Durchgehend
 62
     7
370
    15
100
AcDbLine
 10
242.2537680009
 20
278.3244056396
 30
0.0
 11
242.2538164297
 21
278.3318363959
 31
0.0
  0
CIRCLE
  5
147
330
1F
100
AcDbEntity
  8
0
  6
SLD-Durchgehend
 62
     7
370
    15
100
AcDbCircle
 10
187.1846379853
 20
278.3319524238
 30
0.0
 40
14.79425000000001
  0
SPLINE
  5
148
330
1F
100
AcDbEntity
  8
0
  6
SLD-Durchgehend
 62
     7
370
    15
100
AcDbSpline
210
0.0
220
0.0
230
1.0
 70
     8
 71
     3
 72
    12
 73
     8
 74
     0
 42
0.00000001
 43
0.00000001
 40
0.0
 40
0.0
 40
0.0
 40
0.0
 40
0.0413772164147227
 40
0.2851426339137267
 40
0.6388677721573508
 40
0.9943797819345906
 40
1.0
 40
1.0
 40
1.0
 40
1.0
 10
188.461593211787
 20
223.8362095127335
 30
0.0
 10
188.499050151237
 20
223.8558561301112
 30
0.0
 10
188.7571769973268
 20
223.9912467801355
 30
0.0
 10
189.1911345313016
 20
224.4854304951375
 30
0.0
 10
189.5880849565479
 20
225.3081188298754
 30
0.0
 10
189.7640138723401
 20
226.0115921671162
 30
0.0
 10
189.6884368236372
 20
226.3491738175686
 30
0.0
 10
189.6872606353557
 20
226.3544275233974
 30
0.0
  0
SPLINE
  5
149
330
1F
100
AcDbEntity
  8
0
  6
SLD-Durchgehend
 62
     7
370
    15
100
AcDbSpline
210
0.0
220
0.0
230
1.0
 70
     8
 71
     3
 72
     9
 73
     5
 74
     0
 42
0.00000001
 43
0.00000001
 40
0.0
 40
0.0
 40
0.0
 40
0.0
 40
0.5391448585329678
 40
1.0
 40
1.0
 40
1.0
 40
1.0
 10
184.690354135046
 20
226.3801171252956
 30
0.0
 10
184.7037734236866
 20
225.988858462896
 30
0.0
 10
184.7286633738146
 20
225.2631561656243
 30
0.0
 10
185.1342719531148
 20
224.6418021280165
 30
0.0
 10
185.3211987523084
 20
224.3554479251137
 30
0.0
  0
SPLINE
  5
14A
330
1F
100
AcDbEntity
  8
0
  6
SLD-Durchgehend
 62
     7
370
    15
100
AcDbSpline
210
0.0
220
0.0
230
1.0
 70
     8
 71
     3
 72
    14
 73
    10
 74
     0
 42
0.00000001
 43
0.00000001
 40
0.0
 40
0.0
 40
0.0
 40
0.0
 40
0.25
 40
0.25
 40
0.5
 40
0.5
 40
0.75
 40
0.75
 40
1.0
 40
1.0
 40
1.0
 40
1.0
 10
233.5733879853096
 20
278.3319524238073
 30
0.0
 10
233.5733879853096
 20
280.2207912534188
 30
0.0
 10
233.5412212067513
 20
282.1065993174469
 30
0.0
 10
233.4014166727099
 20
285.871105309616
 30
0.0
 10
233.2939577971419
 20
287.7498200428435
 30
0.0
 10
232.9832299547203
 20
291.4982261670099
 30
0.0
 10
232.7802181353171
 20
293.3679416527105
 30
0.0
 10
232.2380861606624
 20
297.0945604471131
 30
0.0
 10
231.8997853309782
 20
298.951540648825
 30
0.0
 10
231.4581711426461
 20
300.7988020896722
 30
0.0
  0
SPLINE
  5
14B
330
1F
100
AcDbEntity
  8
0
  6
SLD-Durchgehend
 62
     7
370
    15
100
AcDbSpline
210
0.0
220
0.0
230
1.0
 70
     8
 71
     3
 72
    14
 73
    10
 74
     0
 42
0.00000001
 43
0.00000001
 40
0.0
 40
0.0
 40
0.0
 40
0.0
 40
0.2500000000000002
 40
0.2500000000000002
 40
0.5000000000000001
 40
0.5000000000000001
 40
0.75
 40
0.75
 40
1.0
 40
1.0
 40
1.0
 40
1.0
 10
142.911104827973
 20
300.7988020896722
 30
0.0
 10
142.469490639641
 20
298.951540648825
 30
0.0
 10
142.1311898099567
 20
297.0945604471129
 30
0.0
 10
141.5890578353021
 20
293.3679416527104
 30
0.0
 10
141.3860460158988
 20
291.4982261670099
 30
0.0
 10
141.0753181734773
 20
287.7498200428434
 30
0.0
 10
140.9678592979092
 20
285.871105309616
 30
0.0
 10
140.8280547638678
 20
282.1065993174469
 30
0.0
 10
140.7958879853096
 20
280.2207912534188
 30
0.0
 10
140.7958879853096
 20
278.3319524238073
 30
0.0
  0
SPLINE
  5
14C
330
1F
100
AcDbEntity
  8
0
  6
SLD-Durchgehend
 62
     7
370
    15
100
AcDbSpline
210
0.0
220
0.0
230
1.0
 70
     8
 71
     3
 72
    34
 73
    30
 74
     0
 42
0.00000001
 43
0.00000001
 40
0.0
 40
0.0
 40
0.0
 40
0.0
 40
0.1249999999999999
 40
0.1249999999999999
 40
0.2499999999999997
 40
0.2499999999999997
 40
0.3749999999999995
 40
0.3749999999999995
 40
0.4374999999999993
 40
0.4374999999999993
 40
0.4687499999999992
 40
0.4687499999999992
 40
0.4999999999999991
 40
0.4999999999999991
 40
0.624999999999999
 40
0.624999999999999
 40
0.656249999999999
 40
0.656249999999999
 40
0.6874999999999991
 40
0.6874999999999991
 40
0.7499999999999991
 40
0.7499999999999991
 40
0.8124999999999993
 40
0.8124999999999993
 40
0.8749999999999994
 40
0.8749999999999994
 40
0.9374999999999998
 40
0.9374999999999998
 40
1.0
 40
1.0
 40
1.0
 40
1.0
 10
187.1846379853096
 20
324.7207024238073
 30
0.0
 10
184.8816721127708
 20
324.7207024238073
 30
0.0
 10
182.5846837317162
 20
324.673107305244
 30
0.0
 10
178.0053270217921
 20
324.461506510447
 30
0.0
 10
175.722857743623
 20
324.2983046319087
 30
0.0
 10
171.1781922109127
 20
323.8104791537382
 30
0.0
 10
168.9159225405413
 20
323.4864401195798
 30
0.0
 10
165.5466588941891
 20
322.8081626318351
 30
0.0
 10
164.4276605998245
 20
322.5495072431941
 30
0.0
 10
162.7571757877197
 20
322.0977244794964
 30
0.0
 10
162.201688296331
 20
321.9364544171045
 30
0.0
 10
161.09380381096
 20
321.5893065466032
 30
0.0
 10
160.5398309579519
 20
321.4028444538815
 30
0.0
 10
157.7999496021991
 20
320.4068576116175
 30
0.0
 10
155.715562393719
 20
319.4128961183594
 30
0.0
 10
153.3064574856241
 20
317.8103137728876
 30
0.0
 10
152.8344761095695
 20
317.4717529099709
 30
0.0
 10
151.911938264922
 20
316.75534104539
 30
0.0
 10
151.4605438875791
 20
316.3764182915875
 30
0.0
 10
150.165684846826
 20
315.1995734144928
 30
0.0
 10
149.3734670355196
 20
314.3550807796012
 30
0.0
 10
147.9234507690303
 20
312.5526698068649
 30
0.0
 10
147.2654455406998
 20
311.594925948279
 30
0.0
 10
146.0727428105176
 20
309.5753887403292
 30
0.0
 10
145.5454598221243
 20
308.525432180841
 30
0.0
 10
144.6129728651472
 20
306.3782680513508
 30
0.0
 10
144.2080451299232
 20
305.2840747139091
 30
0.0
 10
143.4931768241775
 20
303.0637581259214
 30
0.0
 10
143.1833499108524
 20
301.9375966695354
 30
0.0
 10
142.911104827973
 20
300.7988020896723
 30
0.0
  0
SPLINE
  5
14D
330
1F
100
AcDbEntity
  8
0
  6
SLD-Durchgehend
 62
     7
370
    15
100
AcDbSpline
210
0.0
220
0.0
230
1.0
 70
     8
 71
     3
 72
     9
 73
     5
 74
     0
 42
0.00000001
 43
0.00000001
 40
0.0
 40
0.0
 40
0.0
 40
0.0
 40
0.7534651351181716
 40
1.0
 40
1.0
 40
1.0
 40
1.0
 10
242.230723355124
 20
278.3244221250746
 30
0.0
 10
242.1965753881572
 20
275.1407157798044
 30
0.0
 10
242.1512541577842
 20
270.9152961858758
 30
0.0
 10
241.7568008812225
 20
266.7105880805167
 30
0.0
 10
241.6595543959832
 20
265.6739809358945
 30
0.0
  0
SPLINE
  5
14E
330
1F
100
AcDbEntity
  8
0
  6
SLD-Durchgehend
 62
     7
370
    15
100
AcDbSpline
210
0.0
220
0.0
230
1.0
 70
     8
 71
     3
 72
    12
 73
     8
 74
     0
 42
0.00000001
 43
0.00000001
 40
0.0
 40
0.0
 40
0.0
 40
0.0
 40
0.0556528673100801
 40
0.2903314786363801
 40
0.5251541483725739
 40
0.7625754424432184
 40
1.0
 40
1.0
 40
1.0
 40
1.0
 10
216.796238649795
 20
226.1014467845192
 30
0.0
 10
216.2628223276977
 20
225.9548157915496
 30
0.0
 10
213.4800807187086
 20
225.1898670106431
 30
0.0
 10
208.2911329988963
 20
224.4775732889684
 30
0.0
 10
201.3083173764406
 20
223.7504643011013
 30
0.0
 10
194.263155867347
 20
223.3307755036066
 30
0.0
 10
189.5441547567916
 20
223.2770529885843
 30
0.0
 10
187.1846379853096
 20
223.250191546463
 30
0.0
  0
LINE
  5
14F
330
1F
100
AcDbEntity
  8
0
  6
SLD-Durchgehend
 62
     7
370
    15
100
AcDbLine
 10
242.2307233551
 20
278.3244221251
 30
0.0
 11
242.2389040926
 21
278.3245467277
 31
0.0
  0
SPLINE
  5
150
330
1F
100
AcDbEntity
  8
0
  6
SLD-Durchgehend
 62
     7
370
    15
100
AcDbSpline
210
0.0
220
0.0
230
1.0
 70
     8
 71
     3
 72
    12
 73
     8
 74
     0
 42
0.00000001
 43
0.00000001
 40
0.0
 40
0.0
 40
0.0
 40
0.0
 40
0.2346885488398922
 40
0.4693741525365166
 40
0.7061507772987053
 40
0.9427792974365882
 40
1.0
 40
1.0
 40
1.0
 40
1.0
 10
187.1846379853096
 20
223.250191546463
 30
0.0
 10
184.8484269473973
 20
223.2765040923179
 30
0.0
 10
180.1760341890502
 20
223.3291288538274
 30
0.0
 10
173.1541075602957
 20
223.7438798799782
 30
0.0
 10
166.1471444271368
 20
224.4661853556597
 30
0.0
 10
160.8962081903033
 20
225.1897980782523
 30
0.0
 10
158.074109671211
 20
225.9617598371639
 30
0.0
 10
157.5245677718615
 20
226.1120824883213
 30
0.0
  0
SPLINE
  5
151
330
1F
100
AcDbEntity
  8
0
  6
SLD-Durchgehend
 62
     7
370
    15
100
AcDbSpline
210
0.0
220
0.0
230
1.0
 70
     8
 71
     3
 72
     9
 73
     5
 74
     0
 42
0.00000001
 43
0.00000001
 40
0.0
 40
0.0
 40
0.0
 40
0.0
 40
0.2530583930281493
 40
1.0
 40
1.0
 40
1.0
 40
1.0
 10
132.7222275772786
 20
265.5235984171262
 30
0.0
 10
132.6209258984176
 20
266.6002903850333
 30
0.0
 10
132.2206163981132
 20
270.8550078635694
 30
0.0
 10
132.1736408271039
 20
275.1307170410803
 30
0.0
 10
132.1385528186059
 20
278.3244221250746
 30
0.0
  0
LINE
  5
152
330
1F
100
AcDbEntity
  8
0
  6
SLD-Durchgehend
 62
     7
370
    15
100
AcDbLine
 10
132.1385528186
 20
278.3244221251
 30
0.0
 11
132.1303758064
 21
278.3245533779
 31
0.0
  0
SPLINE
  5
153
330
1F
100
AcDbEntity
  8
0
  6
SLD-Durchgehend
 62
     7
370
    15
100
AcDbSpline
210
0.0
220
0.0
230
1.0
 70
     8
 71
     3
 72
    40
 73
    36
 74
     0
 42
0.00000001
 43
0.00000001
 40
0.0
 40
0.0
 40
0.0
 40
0.0
 40
0.125
 40
0.125
 40
0.1875
 40
0.1875
 40
0.2500000000000001
 40
0.2500000000000001
 40
0.3125000000000001
 40
0.3125000000000001
 40
0.3750000000000001
 40
0.3750000000000001
 40
0.4375000000000001
 40
0.4375000000000001
 40
0.46875
 40
0.46875
 40
0.4999999999999999
 40
0.4999999999999999
 40
0.5312499999999998
 40
0.5312499999999998
 40
0.5624999999999997
 40
0.5624999999999997
 40
0.6249999999999996
 40
0.6249999999999996
 40
0.6562499999999996
 40
0.6562499999999996
 40
0.6874999999999996
 40
0.6874999999999996
 40
0.7499999999999997
 40
0.7499999999999997
 40
0.8124999999999998
 40
0.8124999999999998
 40
0.8749999999999999
 40
0.8749999999999999
 40
1.0
 40
1.0
 40
1.0
 40
1.0
 10
142.2502379853096
 20
278.3319524238073
 30
0.0
 10
142.2502379853096
 20
281.493348116306
 30
0.0
 10
142.3391150952689
 20
284.6501327401292
 30
0.0
 10
142.6585376645163
 20
289.3756550728444
 30
0.0
 10
142.7963851765577
 20
290.9492016112525
 30
0.0
 10
143.1553116398478
 20
294.0919768009113
 30
0.0
 10
143.3756335456102
 20
295.6548242005674
 30
0.0
 10
143.9271681147151
 20
298.7534375230681
 30
0.0
 10
144.2583101285771
 20
300.289734960869
 30
0.0
 10
145.0784794910456
 20
303.3252389684509
 30
0.0
 10
145.5665497350553
 20
304.8246704187201
 30
0.0
 10
146.7747645482868
 20
307.7690139278332
 30
0.0
 10
147.4850959750136
 20
309.18393344549
 30
0.0
 10
148.7560348130705
 20
311.1836809802394
 30
0.0
 10
149.2140932552371
 20
311.8302708208026
 30
0.0
 10
150.2077433752133
 20
313.0784054742979
 30
0.0
 10
150.7366754250006
 20
313.6712667353575
 30
0.0
 10
151.8554852661282
 20
314.7893296813174
 30
0.0
 10
152.445953383085
 20
315.3153268047024
 30
0.0
 10
153.6872767073765
 20
316.3031020301151
 30
0.0
 10
154.3410436444012
 20
316.7663422698301
 30
0.0
 10
156.346437229746
 20
318.0395388333989
 30
0.0
 10
157.7521151842718
 20
318.7432378718464
 30
0.0
 10
159.9357373444254
 20
319.6402724467472
 30
0.0
 10
160.6761417832728
 20
319.9128378636977
 30
0.0
 10
162.1782710951253
 20
320.4129706452662
 30
0.0
 10
162.9402505462196
 20
320.6404521490523
 30
0.0
 10
165.2301612563422
 20
321.2594191607798
 30
0.0
 10
166.7704368173849
 20
321.5909224387451
 30
0.0
 10
169.8698129739132
 20
322.1421765496856
 30
0.0
 10
171.4289469072394
 20
322.3617295263487
 30
0.0
 10
174.5609233093337
 20
322.7194580882135
 30
0.0
 10
176.1347679178539
 20
322.8575508349587
 30
0.0
 10
180.8654306765435
 20
323.1775157569739
 30
0.0
 10
184.0235014777365
 20
323.2663524238073
 30
0.0
 10
187.1846379853096
 20
323.2663524238073
 30
0.0
  0
SPLINE
  5
154
330
1F
100
AcDbEntity
  8
0
  6
SLD-Durchgehend
 62
     7
370
    15
100
AcDbSpline
210
0.0
220
0.0
230
1.0
 70
     8
 71
     3
 72
    30
 73
    26
 74
     0
 42
0.00000001
 43
0.00000001
 40
0.0
 40
0.0
 40
0.0
 40
0.0
 40
0.0489747082042843
 40
0.0979774574918029
 40
0.1470878290717349
 40
0.1962489430445419
 40
0.2440709691515749
 40
0.3162231823244702
 40
0.3648747116203918
 40
0.3893280622265003
 40
0.4373271578960378
 40
0.4860154170170201
 40
0.5256590611667807
 40
0.5658867063513462
 40
0.5965025848813731
 40
0.6276016426699702
 40
0.6589108906478497
 40
0.6905975203702853
 40
0.7159399234870246
 40
0.7413249819994016
 40
0.7923182398381688
 40
0.8438511447993994
 40
0.8954828952303047
 40
0.9648041430145984
 40
1.0
 40
1.0
 40
1.0
 40
1.0
 10
232.1190375128483
 20
278.3319524237917
 30
0.0
 10
232.1114749133762
 20
277.1356847881806
 30
0.0
 10
232.0963453843707
 20
274.7424645789246
 30
0.0
 10
231.9657730671952
 20
271.1515579134488
 30
0.0
 10
231.7415789756018
 20
267.5608630899734
 30
0.0
 10
231.4016861788194
 20
264.0077332693824
 30
0.0
 10
230.8440621862667
 20
259.9134474469444
 30
0.0
 10
230.0340773177934
 20
255.8686929566297
 30
0.0
 10
229.0149313611453
 20
252.4649620241731
 30
0.0
 10
227.9585887360317
 20
249.7009890390708
 30
0.0
 10
226.6690229515267
 20
247.028732258931
 30
0.0
 10
224.7999806214725
 20
244.2554308393073
 30
0.0
 10
222.6637361671747
 20
241.9401567807258
 30
0.0
 10
220.5644451395478
 20
240.2297824982452
 30
0.0
 10
218.4612641008839
 20
238.8902870540781
 30
0.0
 10
216.4389413736395
 20
237.8481049481371
 30
0.0
 10
214.316348849623
 20
236.9613606899742
 30
0.0
 10
212.2722808255782
 20
236.2658738227112
 30
0.0
 10
210.3351408607593
 20
235.7163085460746
 30
0.0
 10
207.9191651430087
 20
235.1340431011496
 30
0.0
 10
204.8456066282117
 20
234.5614206440175
 30
0.0
 10
201.1114709760389
 20
234.0664950144452
 30
0.0
 10
196.9144477626264
 20
233.6924384515926
 30
0.0
 10
193.1046928535143
 20
233.4765895346548
 30
0.0
 10
190.5518133523101
 20
233.4480194700204
 30
0.0
 10
189.6921379716789
 20
233.4383985767593
 30
0.0
  0
SPLINE
  5
155
330
1F
100
AcDbEntity
  8
0
  6
SLD-Durchgehend
 62
     7
370
    15
100
AcDbSpline
210
0.0
220
0.0
230
1.0
 70
     8
 71
     3
 72
    40
 73
    36
 74
     0
 42
0.00000001
 43
0.00000001
 40
0.0
 40
0.0
 40
0.0
 40
0.0
 40
0.125
 40
0.125
 40
0.1875
 40
0.1875
 40
0.2499999999999999
 40
0.2499999999999999
 40
0.3124999999999999
 40
0.3124999999999999
 40
0.3749999999999999
 40
0.3749999999999999
 40
0.4374999999999999
 40
0.4374999999999999
 40
0.4687499999999999
 40
0.4687499999999999
 40
0.4999999999999998
 40
0.4999999999999998
 40
0.5312499999999998
 40
0.5312499999999998
 40
0.5624999999999998
 40
0.5624999999999998
 40
0.6249999999999999
 40
0.6249999999999999
 40
0.6562499999999999
 40
0.6562499999999999
 40
0.6874999999999999
 40
0.6874999999999999
 40
0.7499999999999999
 40
0.7499999999999999
 40
0.8124999999999999
 40
0.8124999999999999
 40
0.875
 40
0.875
 40
1.0
 40
1.0
 40
1.0
 40
1.0
 10
187.1846379853096
 20
323.2663524238073
 30
0.0
 10
190.3460074130054
 20
323.2663524238072
 30
0.0
 10
193.5027666313475
 20
323.1774658852502
 30
0.0
 10
198.228252775432
 20
322.8580352012141
 30
0.0
 10
199.8017876138086
 20
322.720186782922
 30
0.0
 10
202.9445408057238
 20
322.3612696059737
 30
0.0
 10
204.5073643016756
 20
322.140959606777
 30
0.0
 10
207.6059571617324
 20
321.5894671358466
 30
0.0
 10
209.14225079879
 20
321.2583583337243
 30
0.0
 10
212.1777620219491
 20
320.4382796274044
 30
0.0
 10
213.6772045256214
 20
319.9502673286894
 30
0.0
 10
216.6215733121755
 20
318.7421275043172
 30
0.0
 10
218.0364603106483
 20
318.0318135067751
 30
0.0
 10
220.036163748539
 20
316.7608401903208
 30
0.0
 10
220.6827372938803
 20
316.30276415855
 30
0.0
 10
221.9308485051429
 20
315.3090870347651
 30
0.0
 10
222.5236845344387
 20
314.7801630187246
 30
0.0
 10
223.64175669936
 20
313.6613837548
 30
0.0
 10
224.1677430908633
 20
313.0709132403213
 30
0.0
 10
225.155490733855
 20
311.8295730343799
 30
0.0
 10
225.6187087124212
 20
311.1757991814876
 30
0.0
 10
226.8918647783044
 20
309.1703838066355
 30
0.0
 10
227.595590804084
 20
307.7646751263743
 30
0.0
 10
228.4927175046438
 20
305.5809858551454
 30
0.0
 10
228.7653190392506
 20
304.8405540190008
 30
0.0
 10
229.2655235172213
 20
303.3383567320762
 30
0.0
 10
229.4930214109031
 20
302.5763988439676
 30
0.0
 10
230.1120357647495
 20
300.2865538879836
 30
0.0
 10
230.4435668709492
 20
298.7462999695607
 30
0.0
 10
230.9948574193725
 20
295.6469335726164
 30
0.0
 10
231.2144214176287
 20
294.087788187517
 30
0.0
 10
231.5721624004873
 20
290.9557656563823
 30
0.0
 10
231.7102576733842
 20
289.3818628158215
 30
0.0
 10
232.0302108992151
 20
284.651194266827
 30
0.0
 10
232.1190379853095
 20
281.4931097065711
 30
0.0
 10
232.1190379853095
 20
278.3319524238073
 30
0.0
  0
SPLINE
  5
156
330
1F
100
AcDbEntity
  8
0
  6
SLD-Durchgehend
 62
     7
370
    15
100
AcDbSpline
210
0.0
220
0.0
230
1.0
 70
     8
 71
     3
 72
    23
 73
    19
 74
     0
 42
0.00000001
 43
0.00000001
 40
0.0
 40
0.0
 40
0.0
 40
0.0
 40
0.0637340321286274
 40
0.1619909155442562
 40
0.2577449384982539
 40
0.3064387165287058
 40
0.355099302787402
 40
0.4029930458610557
 40
0.4518016796029257
 40
0.4913556443461924
 40
0.5316878294672149
 40
0.5930550025778147
 40
0.6561643629844214
 40
0.7069888597996238
 40
0.7578367612429346
 40
0.8609416019255104
 40
0.9304211064010633
 40
1.0
 40
1.0
 40
1.0
 40
1.0
 10
184.6771379692202
 20
233.4564848611584
 30
0.0
 10
183.1205923505832
 20
233.4794054508708
 30
0.0
 10
179.164366117469
 20
233.5376620398285
 30
0.0
 10
172.885415410417
 20
234.0512851664413
 30
0.0
 10
167.0167638989824
 20
234.9525885203934
 30
0.0
 10
162.4437110327378
 20
236.1232772264095
 30
0.0
 10
159.0911518212201
 20
237.2993326687831
 30
0.0
 10
155.885182314795
 20
238.8450960088608
 30
0.0
 10
153.1133785549747
 20
240.7123586336423
 30
0.0
 10
150.7956339043475
 20
242.8500288711071
 30
0.0
 10
148.6087673418152
 20
245.5320465628044
 30
0.0
 10
146.6110475111369
 20
249.0538177133256
 30
0.0
 10
145.1153924136441
 20
253.0786114920425
 30
0.0
 10
144.1017830661346
 20
256.9768521628682
 30
0.0
 10
143.1856866549519
 20
261.8963039467679
 30
0.0
 10
142.6103499101352
 20
267.3295397088964
 30
0.0
 10
142.2958043824442
 20
273.2363702624015
 30
0.0
 10
142.2654344701586
 20
276.6326159044748
 30
0.0
 10
142.2502386608815
 20
278.3319524237917
 30
0.0
  0
SPLINE
  5
157
330
1F
100
AcDbEntity
  8
0
  6
SLD-Durchgehend
 62
     7
370
    15
100
AcDbSpline
210
0.0
220
0.0
230
1.0
 70
     8
 71
     3
 72
    28
 73
    24
 74
     0
 42
0.00000001
 43
0.00000001
 40
0.0
 40
0.0
 40
0.0
 40
0.0
 40
0.0630290824163784
 40
0.1261248680634672
 40
0.1895115415658754
 40
0.2530627460490474
 40
0.2902536263677811
 40
0.3651982511528283
 40
0.4031158018355629
 40
0.4295985642467496
 40
0.4833294555228757
 40
0.5106940907006525
 40
0.5505110710617922
 40
0.5910368210285378
 40
0.6184905403809711
 40
0.6591192534826805
 40
0.7003555745249678
 40
0.7418263365089698
 40
0.7837132771577502
 40
0.8457435456052952
 40
0.9079572516132267
 40
0.9705367820251358
 40
1.0
 40
1.0
 40
1.0
 40
1.0
 10
140.7958890536522
 20
278.3318900588305
 30
0.0
 10
140.80904676499
 20
276.7443555336604
 30
0.0
 10
140.8353761123781
 20
273.5676064067964
 30
0.0
 10
141.0687049497874
 20
268.7987719571705
 30
0.0
 10
141.4826471597716
 20
264.0293130217523
 30
0.0
 10
142.0566472610234
 20
259.9321751873013
 30
0.0
 10
142.918578021754
 20
255.591631264454
 30
0.0
 10
143.9415361988905
 20
251.9407363227782
 30
0.0
 10
145.2753476805502
 20
248.6893423170621
 30
0.0
 10
146.624888505644
 20
246.0360601077842
 30
0.0
 10
148.1280069659356
 20
243.7638152846682
 30
0.0
 10
150.1349849459174
 20
241.4687797492909
 30
0.0
 10
152.150241230359
 20
239.6395583737261
 30
0.0
 10
154.3910832438426
 20
238.0932550474928
 30
0.0
 10
156.7888352191025
 20
236.7718905758441
 30
0.0
 10
159.3151463504603
 20
235.664830011483
 30
0.0
 10
162.2627070471144
 20
234.674429476396
 30
0.0
 10
165.3035815704064
 20
233.8905640451034
 30
0.0
 10
168.8981341267897
 20
233.1841515285217
 30
0.0
 10
173.0460186045399
 20
232.6127017411915
 30
0.0
 10
177.735490482955
 20
232.2146457730002
 30
0.0
 10
181.6168864273943
 20
232.0129756001936
 30
0.0
 10
183.9350768101297
 20
231.9885347229694
 30
0.0
 10
184.6771379692202
 20
231.9807111094227
 30
0.0
  0
SPLINE
  5
158
330
1F
100
AcDbEntity
  8
0
  6
SLD-Durchgehend
 62
     7
370
    15
100
AcDbSpline
210
0.0
220
0.0
230
1.0
 70
     8
 71
     3
 72
    27
 73
    23
 74
     0
 42
0.00000001
 43
0.00000001
 40
0.0
 40
0.0
 40
0.0
 40
0.0
 40
0.0298417484709859
 40
0.0929410703371471
 40
0.1404897032140272
 40
0.219881179994282
 40
0.2944705732776901
 40
0.3320359594512786
 40
0.3699556300999786
 40
0.3965251927433872
 40
0.4502607668588053
 40
0.4775399787941362
 40
0.5040884577084002
 40
0.5579729059745183
 40
0.58532459911551
 40
0.6363268988676624
 40
0.7086254522445413
 40
0.7505147443958007
 40
0.8281024537639173
 40
0.8747612956744651
 40
0.9373443211112664
 40
1.0
 40
1.0
 40
1.0
 40
1.0
 10
189.6921379716789
 20
231.9809458027115
 30
0.0
 10
190.4436886456501
 20
231.9888930820308
 30
0.0
 10
192.7843666431002
 20
232.0136446024357
 30
0.0
 10
196.3192143929765
 20
232.1990289769558
 30
0.0
 10
201.0899133622913
 20
232.5866990292664
 30
0.0
 10
206.1262083588604
 20
233.2494700580693
 30
0.0
 10
210.8472141295528
 20
234.2882437731744
 30
0.0
 10
214.4479404244886
 20
235.4463668832889
 30
0.0
 10
216.8292626533751
 20
236.4235197617278
 30
0.0
 10
219.4843319045841
 20
237.7743076967387
 30
0.0
 10
221.7561633724696
 20
239.2778602047659
 30
0.0
 10
223.7974978276338
 20
241.0639399865175
 30
0.0
 10
225.6688646060086
 20
243.0322757153484
 30
0.0
 10
227.264035673132
 20
245.2483685618537
 30
0.0
 10
228.8717155625342
 20
248.1673751419448
 30
0.0
 10
230.3505115586188
 20
251.6726956469393
 30
0.0
 10
231.47608161566
 20
255.6894868606175
 30
0.0
 10
232.4081225061386
 20
260.4296818651363
 30
0.0
 10
232.9438694708193
 20
264.5840057966583
 30
0.0
 10
233.3242614995056
 20
269.2740607060418
 30
0.0
 10
233.5344223472434
 20
273.5996344863992
 30
0.0
 10
233.5603938402737
 20
276.7538615914891
 30
0.0
 10
233.5733871200776
 20
278.3318900588305
 30
0.0
  0
SPLINE
  5
159
330
1F
100
AcDbEntity
  8
0
  6
SLD-Durchgehend
 62
     7
370
    15
100
AcDbSpline
210
0.0
220
0.0
230
1.0
 70
     8
 71
     3
 72
    30
 73
    26
 74
     0
 42
0.00000001
 43
0.00000001
 40
0.0
 40
0.0
 40
0.0
 40
0.0
 40
0.1250000000000002
 40
0.1250000000000002
 40
0.1875000000000002
 40
0.1875000000000002
 40
0.2500000000000003
 40
0.2500000000000003
 40
0.3125000000000004
 40
0.3125000000000004
 40
0.3437500000000003
 40
0.3437500000000003
 40
0.3750000000000003
 40
0.3750000000000003
 40
0.4375000000000004
 40
0.4375000000000004
 40
0.5000000000000003
 40
0.5000000000000003
 40
0.6250000000000002
 40
0.6250000000000002
 40
0.7500000000000002
 40
0.7500000000000002
 40
0.8750000000000001
 40
0.8750000000000001
 40
1.0
 40
1.0
 40
1.0
 40
1.0
 10
231.4581711426461
 20
300.7988020896723
 30
0.0
 10
230.918250541965
 20
303.0572768694888
 30
0.0
 10
230.2349267138209
 20
305.2612593150225
 30
0.0
 10
228.8655664357287
 20
308.4363728021447
 30
0.0
 10
228.3499175417388
 20
309.4737453003908
 30
0.0
 10
227.1734345502324
 20
311.4872053132741
 30
0.0
 10
226.5241332327843
 20
312.4434622942597
 30
0.0
 10
225.0922042285183
 20
314.2457665463368
 30
0.0
 10
224.3094113718618
 20
315.0916772853974
 30
0.0
 10
223.0284968999854
 20
316.2723226471
 30
0.0
 10
222.5822354158682
 20
316.652359777558
 30
0.0
 10
221.6694157750838
 20
317.3717182393254
 30
0.0
 10
221.2015583491522
 20
317.7124506119264
 30
0.0
 10
219.7661128171484
 20
318.6818945117368
 30
0.0
 10
218.7666925696092
 20
319.2579208663888
 30
0.0
 10
216.6951443237132
 20
320.2896354450626
 30
0.0
 10
215.6180158484923
 20
320.7467002269055
 30
0.0
 10
212.3597072254288
 20
321.947874162545
 30
0.0
 10
210.1367653549557
 20
322.5358793784036
 30
0.0
 10
205.6303270779187
 20
323.4579358858177
 30
0.0
 10
203.3443121248505
 20
323.790832970467
 30
0.0
 10
198.742610273224
 20
324.2910093959897
 30
0.0
 10
196.4328919861672
 20
324.4574757017607
 30
0.0
 10
191.8116027055056
 20
324.6726869771772
 30
0.0
 10
189.4989352842911
 20
324.7207024238073
 30
0.0
 10
187.1846379853096
 20
324.7207024238073
 30
0.0
  0
SPLINE
  5
15A
330
1F
100
AcDbEntity
  8
0
  6
SLD-Durchgehend
 62
     7
370
    15
100
AcDbSpline
210
0.0
220
0.0
230
1.0
 70
    24
 71
     3
 72
    12
 73
     8
 74
     0
 42
0.00000001
 43
0.00000001
 40
0.0
 40
0.0
 40
0.0
 40
0.0
 40
0.5
 40
0.5
 40
0.75
 40
0.75
 40
1.0
 40
1.0
 40
1.0
 40
1.0
 10
232.9214379853095
 20
337.2189642050355
 30
0.0
 10
234.2717088340898
 20
337.2189642050355
 30
0.0
 10
235.6203784496769
 20
337.2189642050355
 30
0.0
 10
237.6390286079417
 20
337.2189642050355
 30
0.0
 10
238.3093625721728
 20
337.2189642050355
 30
0.0
 10
239.6444949358002
 20
337.2189642050355
 30
0.0
 10
240.3092152015182
 20
337.2189642050355
 30
0.0
 10
240.9720680391301
 20
337.2189642050355
 30
0.0
  0
SPLINE
  5
15B
330
1F
100
AcDbEntity
  8
0
  6
SLD-Durchgehend
 62
     7
370
    15
100
AcDbSpline
210
0.0
220
0.0
230
1.0
 70
    24
 71
     3
 72
    12
 73
     8
 74
     0
 42
0.00000001
 43
0.00000001
 40
0.0
 40
0.0
 40
0.0
 40
0.0
 40
0.25
 40
0.25
 40
0.5
 40
0.5
 40
1.0
 40
1.0
 40
1.0
 40
1.0
 10
133.3972079314892
 20
337.2189642050355
 30
0.0
 10
134.0600604745092
 20
337.2189642050355
 30
0.0
 10
134.7247875199751
 20
337.2189642050355
 30
0.0
 10
136.0599554869194
 20
337.2189642050355
 30
0.0
 10
136.7303532936425
 20
337.2189642050354
 30
0.0
 10
138.7490119453356
 20
337.2189642050354
 30
0.0
 10
140.097580204686
 20
337.2189642050355
 30
0.0
 10
141.4478379853097
 20
337.2189642050355
 30
0.0
  0
LINE
  5
15C
330
1F
100
AcDbEntity
  8
0
  6
SLD-Durchgehend
 62
     7
370
    15
100
AcDbLine
 10
232.9214389661
 20
337.2189624975
 30
0.0
 11
141.4478372076
 21
337.2189624975
 31
0.0
  0
LINE
  5
15D
330
1F
100
AcDbEntity
  8
0
  6
SLD-Durchgehend
 62
     7
370
    15
100
AcDbLine
 10
140.7958890537
 20
278.3319524238
 30
0.0
 11
140.7958890537
 21
278.3318900588
 31
0.0
  0
LINE
  5
15E
330
1F
100
AcDbEntity
  8
0
  6
SLD-Durchgehend
 62
     7
370
    15
100
AcDbLine
 10
233.5733871201
 20
278.3318900588
 30
0.0
 11
233.5733871201
 21
278.3319524238
 31
0.0
  0
SPLINE
  5
15F
330
1F
100
AcDbEntity
  8
0
  6
SLD-Durchgehend
 62
     7
370
    15
100
AcDbSpline
210
0.0
220
0.0
230
1.0
 70
     8
 71
     3
 72
    11
 73
     7
 74
     0
 42
0.00000001
 43
0.00000001
 40
0.0
 40
0.0
 40
0.0
 40
0.0
 40
0.0631698639872944
 40
0.3780432263971417
 40
0.6927700705512725
 40
1.0
 40
1.0
 40
1.0
 40
1.0
 10
132.1164655724263
 20
289.878182932221
 30
0.0
 10
132.1144646829403
 20
290.8750166615715
 30
0.0
 10
132.102490259232
 20
296.8406182227993
 30
0.0
 10
132.0994535433222
 20
307.7727244058033
 30
0.0
 10
132.0983345700294
 20
322.5561492078218
 30
0.0
 10
132.1005363806233
 20
332.3707925035518
 30
0.0
 10
132.1016240158772
 20
337.2189624974957
 30
0.0
  0
SPLINE
  5
160
330
1F
100
AcDbEntity
  8
0
  6
SLD-Durchgehend
 62
     7
370
    15
100
AcDbSpline
210
0.0
220
0.0
230
1.0
 70
    24
 71
     3
 72
    12
 73
     8
 74
     0
 42
0.00000001
 43
0.00000001
 40
0.0
 40
0.0
 40
0.0
 40
0.0
 40
0.2500000000000001
 40
0.2500000000000001
 40
0.5000000000000001
 40
0.5000000000000001
 40
1.0
 40
1.0
 40
1.0
 40
1.0
 10
132.1016248373912
 20
337.2189642050355
 30
0.0
 10
132.0876476181642
 20
337.2189642050355
 30
0.0
 10
132.109121113009
 20
337.2189642050355
 30
0.0
 10
132.2211147142088
 20
337.2189642050355
 30
0.0
 10
132.3103231343589
 20
337.2189642050355
 30
0.0
 10
132.6649875778488
 20
337.2189642050355
 30
0.0
 10
133.0127829547402
 20
337.2189642050355
 30
0.0
 10
133.3972079314892
 20
337.2189642050355
 30
0.0
  0
SPLINE
  5
161
330
1F
100
AcDbEntity
  8
0
  6
SLD-Durchgehend
 62
     7
370
    15
100
AcDbSpline
210
0.0
220
0.0
230
1.0
 70
    24
 71
     3
 72
    12
 73
     8
 74
     0
 42
0.00000001
 43
0.00000001
 40
0.0
 40
0.0
 40
0.0
 40
0.0
 40
0.2499999999999986
 40
0.2499999999999986
 40
0.4999999999999972
 40
0.4999999999999972
 40
1.0
 40
1.0
 40
1.0
 40
1.0
 10
240.9720680391301
 20
337.2189642050355
 30
0.0
 10
241.1642805275424
 20
337.2189642050355
 30
0.0
 10
241.3453878211512
 20
337.2189642050355
 30
0.0
 10
241.6770621487631
 20
337.2189642050355
 30
0.0
 10
241.8221646104238
 20
337.2189642050355
 30
0.0
 10
242.1769703720441
 20
337.2189642050355
 30
0.0
 10
242.2956055716904
 20
337.2189642050354
 30
0.0
 10
242.2676511332278
 20
337.2189642050355
 30
0.0
  0
CIRCLE
  5
162
330
1F
100
AcDbEntity
  8
0
  6
SLD-Durchgehend
 62
     8
370
     0
100
AcDbCircle
 10
187.1846379853
 20
278.3319524238
 30
0.0
 40
14.39132068965517
  0
LINE
  5
163
330
1F
100
AcDbEntity
  8
0
  6
SLD-Durchgehend
 62
     8
370
     0
100
AcDbLine
 10
184.6771379692
 20
253.454217575
 30
0.0
 11
189.6921379717
 21
253.454217575
 31
0.0
  0
SPLINE
  5
164
330
1F
100
AcDbEntity
  8
0
  6
SLD-Durchgehend
 62
     8
370
     0
100
AcDbSpline
210
0.0
220
0.0
230
1.0
 70
     8
 71
     3
 72
    13
 73
     9
 74
     0
 42
0.00000001
 43
0.00000001
 40
0.0
 40
0.0
 40
0.0
 40
0.0
 40
0.1021939784502148
 40
0.2429285740185057
 40
0.4484480672594802
 40
0.6563948848838493
 40
0.8453315192623923
 40
1.0
 40
1.0
 40
1.0
 40
1.0
 10
185.3211987523084
 20
224.3554479251137
 30
0.0
 10
185.3969938962405
 20
224.2682220726538
 30
0.0
 10
185.5771689565735
 20
224.0608747095609
 30
0.0
 10
185.9859083552798
 20
223.7418606356744
 30
0.0
 10
186.5866743754525
 20
223.4680728066414
 30
0.0
 10
187.3114072914535
 20
223.3986718964589
 30
0.0
 10
187.9681455817101
 20
223.5298897500877
 30
0.0
 10
188.3084227530217
 20
223.7411251801448
 30
0.0
 10
188.461593211787
 20
223.8362095127335
 30
0.0
  0
SPLINE
  5
165
330
1F
100
AcDbEntity
  8
0
  6
SLD-Durchgehend
 62
     8
370
     0
100
AcDbSpline
210
0.0
220
0.0
230
1.0
 70
     8
 71
     3
 72
    22
 73
    18
 74
     0
 42
0.00000001
 43
0.00000001
 40
0.0
 40
0.0
 40
0.0
 40
0.0
 40
0.1051225290993163
 40
0.2073420886578948
 40
0.2588916531398866
 40
0.3106781053420534
 40
0.3718748903890464
 40
0.4344784506138833
 40
0.4735276530349427
 40
0.5133320974516851
 40
0.5607208144936077
 40
0.6091390180405231
 40
0.6567468898357705
 40
0.704743878226481
 40
0.802412465608771
 40
0.9010268390619061
 40
0.9999999999999999
 40
0.9999999999999999
 40
0.9999999999999999
 40
0.9999999999999999
 10
189.692137971679
 20
233.9678182075253
 30
0.0
 10
192.2327424371111
 20
234.0158763768776
 30
0.0
 10
197.2437923122392
 20
234.1106655842527
 30
0.0
 10
203.4715627196279
 20
234.8100082484503
 30
0.0
 10
208.3585410186815
 20
235.7098207462332
 30
0.0
 10
212.211161099258
 20
236.7082140700759
 30
0.0
 10
216.2012419613901
 20
238.1831791879229
 30
0.0
 10
219.6517594376436
 20
240.126487817425
 30
0.0
 10
222.3116271568596
 20
242.289612377513
 30
0.0
 10
224.3900329585132
 20
244.5365886145764
 30
0.0
 10
226.2326786163032
 20
247.262757833541
 30
0.0
 10
227.7463372807071
 20
250.3907139427874
 30
0.0
 10
228.9038422885238
 20
253.678318034199
 30
0.0
 10
230.0761656335836
 20
258.203419286055
 30
0.0
 10
230.9840717098962
 20
264.0476079237192
 30
0.0
 10
231.5454719165074
 20
271.1649764799377
 30
0.0
 10
231.605537760347
 20
275.940070172697
 30
0.0
 10
231.6356252172684
 20
278.3319524237917
 30
0.0
  0
SPLINE
  5
166
330
1F
100
AcDbEntity
  8
0
  6
SLD-Durchgehend
 62
     8
370
     0
100
AcDbSpline
210
0.0
220
0.0
230
1.0
 70
     8
 71
     3
 72
    17
 73
    13
 74
     0
 42
0.00000001
 43
0.00000001
 40
0.0
 40
0.0
 40
0.0
 40
0.0
 40
0.1186264838100786
 40
0.2406503314711249
 40
0.3593570424668697
 40
0.4816392425422625
 40
0.5977166521560928
 40
0.7171557135789998
 40
0.8323299997081581
 40
0.9507371222695729
 40
0.9943076958029066
 40
1.0
 40
1.0
 40
1.0
 40
1.0
 10
203.4494939485287
 20
278.3318115012256
 30
0.0
 10
203.4062294297772
 20
277.4200831987224
 30
0.0
 10
203.3184613324343
 20
275.5705154532914
 30
0.0
 10
202.6080875307057
 20
272.8833831003732
 30
0.0
 10
201.4662278829242
 20
270.3295158982048
 30
0.0
 10
199.9228009114211
 20
268.0459886377001
 30
0.0
 10
198.0149444192436
 20
266.0520827425971
 30
0.0
 10
195.8415067348866
 20
264.4430274562669
 30
0.0
 10
193.4163395388222
 20
263.1970450574879
 30
0.0
 10
191.3714130101085
 20
262.5945846778094
 30
0.0
 10
190.1130422383857
 20
262.2978433189508
 30
0.0
 10
189.7357355914104
 20
262.2700903570429
 30
0.0
 10
189.6921379716789
 20
262.266883514308
 30
0.0
  0
SPLINE
  5
167
330
1F
100
AcDbEntity
  8
0
  6
SLD-Durchgehend
 62
     8
370
     0
100
AcDbSpline
210
0.0
220
0.0
230
1.0
 70
     8
 71
     3
 72
    21
 73
    17
 74
     0
 42
0.00000001
 43
0.00000001
 40
0.0
 40
0.0
 40
0.0
 40
0.0
 40
0.0879486432638337
 40
0.175243933304077
 40
0.2612918885695347
 40
0.3455728740694627
 40
0.4277614552194748
 40
0.5078544237640056
 40
0.5862406415673236
 40
0.6636368488592863
 40
0.7409941569166735
 40
0.8194217741594422
 40
0.8999782697137125
 40
0.9834872385346982
 40
0.9917271768128919
 40
1.0
 40
1.0
 40
1.0
 40
1.0
 10
203.4494940591998
 20
278.3320933461568
 30
0.0
 10
203.9573725858461
 20
278.332016701833
 30
0.0
 10
204.9693567091618
 20
278.331863982561
 30
0.0
 10
206.5380286588015
 20
278.3320613061499
 30
0.0
 10
208.190728584237
 20
278.332082771772
 30
0.0
 10
209.9640740127491
 20
278.3318110208132
 30
0.0
 10
211.8915324504501
 20
278.3318143564912
 30
0.0
 10
214.0017132895738
 20
278.3320552666105
 30
0.0
 10
216.3160408301741
 20
278.3319350706237
 30
0.0
 10
218.8473334756681
 20
278.3318677913156
 30
0.0
 10
221.5962506667146
 20
278.3320331514813
 30
0.0
 10
224.5528603398592
 20
278.331988812443
 30
0.0
 10
227.7010144188077
 20
278.3320513570361
 30
0.0
 10
229.9808203238796
 20
278.3320205067064
 30
0.0
 10
231.3068432506232
 20
278.331950229736
 30
0.0
 10
231.5258850280069
 20
278.3319383043366
 30
0.0
 10
231.6356240258538
 20
278.3319323297622
 30
0.0
  0
SPLINE
  5
168
330
1F
100
AcDbEntity
  8
0
  6
SLD-Durchgehend
 62
     8
370
     0
100
AcDbSpline
210
0.0
220
0.0
230
1.0
 70
     8
 71
     3
 72
    42
 73
    38
 74
     0
 42
0.00000001
 43
0.00000001
 40
0.0
 40
0.0
 40
0.0
 40
0.0
 40
0.125
 40
0.125
 40
0.1875
 40
0.1875
 40
0.25
 40
0.25
 40
0.3124999999999999
 40
0.3124999999999999
 40
0.3437499999999999
 40
0.3437499999999999
 40
0.3749999999999998
 40
0.3749999999999998
 40
0.4374999999999997
 40
0.4374999999999997
 40
0.4687499999999996
 40
0.4687499999999996
 40
0.4999999999999996
 40
0.4999999999999996
 40
0.5312499999999996
 40
0.5312499999999996
 40
0.5624999999999996
 40
0.5624999999999996
 40
0.5937499999999997
 40
0.5937499999999997
 40
0.6249999999999998
 40
0.6249999999999998
 40
0.6874999999999998
 40
0.6874999999999998
 40
0.7499999999999998
 40
0.7499999999999998
 40
0.8124999999999999
 40
0.8124999999999999
 40
0.8749999999999999
 40
0.8749999999999999
 40
1.0
 40
1.0
 40
1.0
 40
1.0
 10
187.184510462912
 20
322.7829301606611
 30
0.0
 10
184.0556280474614
 20
322.7824829075379
 30
0.0
 10
180.9297515275721
 20
322.6952482446887
 30
0.0
 10
176.2473257209066
 20
322.3799359222802
 30
0.0
 10
174.6893279777022
 20
322.2438487570025
 30
0.0
 10
171.5889265993282
 20
321.891628793468
 30
0.0
 10
170.0454674752604
 20
321.6755679949773
 30
0.0
 10
166.9770884741583
 20
321.1335799611721
 30
0.0
 10
165.452129435563
 20
320.8078847591021
 30
0.0
 10
163.1848201235782
 20
320.2000520125636
 30
0.0
 10
162.4303345047468
 20
319.9767139365352
 30
0.0
 10
160.9417017461828
 20
319.4852523586759
 30
0.0
 10
160.2078750513867
 20
319.2173829981589
 30
0.0
 10
158.0435114306678
 20
318.3354403630701
 30
0.0
 10
156.6500039278794
 20
317.6432162182289
 30
0.0
 10
154.6624684360777
 20
316.3880763807688
 30
0.0
 10
154.0143691264742
 20
315.9308538947895
 30
0.0
 10
152.7840408705847
 20
314.9546348548359
 30
0.0
 10
152.1991248832979
 20
314.4343598158334
 30
0.0
 10
151.0916144333893
 20
313.3275377508925
 30
0.0
 10
150.5682520311458
 20
312.739964259252
 30
0.0
 10
149.5866288025802
 20
311.5032825254466
 30
0.0
 10
149.1345958938805
 20
310.8624081369509
 30
0.0
 10
148.2991098063146
 20
309.5408090750548
 30
0.0
 10
147.9156475940419
 20
308.8600896508237
 30
0.0
 10
147.2088485031509
 20
307.4637132066149
 30
0.0
 10
146.8850062080099
 20
306.746659830427
 30
0.0
 10
145.9944704240706
 20
304.5594501597144
 30
0.0
 10
145.5149544494404
 20
303.0744563921126
 30
0.0
 10
144.7088726866641
 20
300.0684947360187
 30
0.0
 10
144.3833045746639
 20
298.5472921477476
 30
0.0
 10
143.8409881769539
 20
295.4792914841785
 30
0.0
 10
143.624274510726
 20
293.9317219800615
 30
0.0
 10
143.2712552404695
 20
290.820859985927
 30
0.0
 10
143.1356083279079
 20
289.2633047299204
 30
0.0
 10
142.8211981639685
 20
284.5858287800629
 30
0.0
 10
142.7334649847904
 20
281.4611760177186
 30
0.0
 10
142.7336519413898
 20
278.3319524238029
 30
0.0
  0
SPLINE
  5
169
330
1F
100
AcDbEntity
  8
0
  6
SLD-Durchgehend
 62
     8
370
     0
100
AcDbSpline
210
0.0
220
0.0
230
1.0
 70
     8
 71
     3
 72
    82
 73
    78
 74
     0
 42
0.00000001
 43
0.00000001
 40
0.0
 40
0.0
 40
0.0
 40
0.0
 40
0.0139121314941773
 40
0.0277320369276034
 40
0.0414609600447925
 40
0.0551004810141315
 40
0.068652503614011
 40
0.0821192412464064
 40
0.0955032019133562
 40
0.1088071723221847
 40
0.12203420130454
 40
0.1351875827405991
 40
0.1482708381721674
 40
0.1612876992666589
 40
0.1742420902589439
 40
0.1871381104515852
 40
0.1999800167987252
 40
0.2127722065384918
 40
0.2255191997774634
 40
0.2382256218734369
 40
0.2508961854143559
 40
0.2635356715569332
 40
0.2761489104728319
 40
0.2887407606570412
 40
0.3013160868851988
 40
0.3138797366651815
 40
0.3264365151129758
 40
0.3389911582911088
 40
0.3515483051753406
 40
0.3641124685558169
 40
0.376688006386725
 40
0.3892790972692318
 40
0.4018897137538527
 40
0.4145235962889028
 40
0.4271842291726064
 40
0.4398748185908122
 40
0.4525984519897819
 40
0.465358536826397
 40
0.4781583355592712
 40
0.4910008311815766
 40
0.5038887238862195
 40
0.5168244297288458
 40
0.5298100809883807
 40
0.5428475278957219
 40
0.5559383414000328
 40
0.5690838166680932
 40
0.5822849770624976
 40
0.5955425784141886
 40
0.6088571134872122
 40
0.6222288166203321
 40
0.6356576686118266
 40
0.6491434019800395
 40
0.6626855067724414
 40
0.676283208113942
 40
0.6899352309897071
 40
0.7036399847766168
 40
0.7173957750972975
 40
0.7312008400566318
 40
0.7450533722448713
 40
0.7589515277734199
 40
0.7728934227989571
 40
0.7868771190628956
 40
0.8009006009870782
 40
0.8149617477847608
 40
0.8290583048308685
 40
0.84318785914854
 40
0.8573478242694077
 40
0.8715354398718755
 40
0.885747791457629
 40
0.8999818548647927
 40
0.9142345696277236
 40
0.9285029440964131
 40
0.9427841938750469
 40
0.9570759136208477
 40
0.9713762806919908
 40
0.9856842877111438
 40
1.0
 40
1.0
 40
1.0
 40
1.0
 10
187.1847655077067
 20
322.7829301712821
 30
0.0
 10
187.1847688714913
 20
322.5983290244482
 30
0.0
 10
187.1847755767613
 20
322.2303504855004
 30
0.0
 10
187.1847447213878
 20
321.6807563078024
 30
0.0
 10
187.184701575427
 20
321.1353850344028
 30
0.0
 10
187.1846525240184
 20
320.5943684237179
 30
0.0
 10
187.1846063603561
 20
320.0577967669499
 30
0.0
 10
187.1845680871847
 20
319.5257646360963
 30
0.0
 10
187.1845409336559
 20
318.9983590235526
 30
0.0
 10
187.1845262117022
 20
318.475662785823
 30
0.0
 10
187.1845237596601
 20
317.9577540390992
 30
0.0
 10
187.1845322369213
 20
317.4447066358983
 30
0.0
 10
187.1845494567007
 20
316.9365903533278
 30
0.0
 10
187.1845726978758
 20
316.4334711475494
 30
0.0
 10
187.1845990015217
 20
315.9354113705459
 30
0.0
 10
187.1846254403161
 20
315.4424699667031
 30
0.0
 10
187.1846493538112
 20
314.9547026345551
 30
0.0
 10
187.184668541965
 20
314.4721619481397
 30
0.0
 10
187.1846814106576
 20
313.9948974310382
 30
0.0
 10
187.1846870642448
 20
313.5229555780809
 30
0.0
 10
187.1846853419957
 20
313.0563798212216
 30
0.0
 10
187.1846767973635
 20
312.5952104381528
 30
0.0
 10
187.1846626214265
 20
312.1394844045703
 30
0.0
 10
187.1846445143982
 20
311.689235193546
 30
0.0
 10
187.184624511916
 20
311.2444925283007
 30
0.0
 10
187.1846047751552
 20
310.8052820971123
 30
0.0
 10
187.1845873579171
 20
310.3716252432014
 30
0.0
 10
187.1845739608437
 20
309.9435386399812
 30
0.0
 10
187.1845657053165
 20
309.5210339831891
 30
0.0
 10
187.1845628855714
 20
309.1041176511807
 30
0.0
 10
187.1845649428815
 20
308.6927905179019
 30
0.0
 10
187.1845721428355
 20
308.2870497037101
 30
0.0
 10
187.1845841535407
 20
307.886887008047
 30
0.0
 10
187.1846002042335
 20
307.4922889807701
 30
0.0
 10
187.1846191664719
 20
307.1032369447156
 30
0.0
 10
187.1846397635377
 20
306.7197052907311
 30
0.0
 10
187.184660630601
 20
306.341655493134
 30
0.0
 10
187.1846786160442
 20
305.9690352542988
 30
0.0
 10
187.1846912658553
 20
305.6017807045614
 30
0.0
 10
187.1846967405126
 20
305.2398225764329
 30
0.0
 10
187.1846939037757
 20
304.883087634767
 30
0.0
 10
187.1846823562277
 20
304.531498821323
 30
0.0
 10
187.1846624622947
 20
304.1849753801631
 30
0.0
 10
187.1846353473566
 20
303.8434329557401
 30
0.0
 10
187.1846028636574
 20
303.5067836577765
 30
0.0
 10
187.1845675211844
 20
303.1749360900564
 30
0.0
 10
187.184532383296
 20
302.8477953422203
 30
0.0
 10
187.1845009320573
 20
302.5252629505355
 30
0.0
 10
187.1844769011283
 20
302.2072368220428
 30
0.0
 10
187.1844641138307
 20
301.8936111731953
 30
0.0
 10
187.1844662250371
 20
301.5842763321182
 30
0.0
 10
187.184486794779
 20
301.2791190199407
 30
0.0
 10
187.1845281363787
 20
300.9780210663823
 30
0.0
 10
187.1845948334534
 20
300.6808666233502
 30
0.0
 10
187.184671278144
 20
300.387510305468
 30
0.0
 10
187.1847385777197
 20
300.0978005689247
 30
0.0
 10
187.1847848518109
 20
299.811591959506
 30
0.0
 10
187.1848033732784
 20
299.5287410579195
 30
0.0
 10
187.1847931439976
 20
299.2491074141283
 30
0.0
 10
187.184758147515
 20
298.9725527992581
 30
0.0
 10
187.1847063596594
 20
298.6989403048798
 30
0.0
 10
187.1846483343139
 20
298.4281329840928
 30
0.0
 10
187.1845955587168
 20
298.1599922637463
 30
0.0
 10
187.1845587026595
 20
297.8943762447089
 30
0.0
 10
187.1845459301384
 20
297.6311380628057
 30
0.0
 10
187.1845614478723
 20
297.3701244857077
 30
0.0
 10
187.1846044736494
 20
297.1111749311285
 30
0.0
 10
187.1846688038984
 20
296.8541210855229
 30
0.0
 10
187.1847431594284
 20
296.5987873111189
 30
0.0
 10
187.18481244303
 20
296.3449919499886
 30
0.0
 10
187.184860128771
 20
296.0925498462817
 30
0.0
 10
187.184871562512
 20
295.8412754942689
 30
0.0
 10
187.1848394469924
 20
295.5909894812314
 30
0.0
 10
187.1847670165091
 20
295.3415185172605
 30
0.0
 10
187.1846857443616
 20
295.0927253733503
 30
0.0
 10
187.1846244640569
 20
294.8444328401
 30
0.0
 10
187.1847182630226
 20
294.6793600366813
 30
0.0
 10
187.1847651751304
 20
294.5968014168517
 30
0.0
  0
SPLINE
  5
16A
330
1F
100
AcDbEntity
  8
0
  6
SLD-Durchgehend
 62
     8
370
     0
100
AcDbSpline
210
0.0
220
0.0
230
1.0
 70
     8
 71
     3
 72
    32
 73
    28
 74
     0
 42
0.00000001
 43
0.00000001
 40
0.0
 40
0.0
 40
0.0
 40
0.0
 40
0.1249999999999999
 40
0.1249999999999999
 40
0.1874999999999999
 40
0.1874999999999999
 40
0.2499999999999999
 40
0.2499999999999999
 40
0.3749999999999998
 40
0.3749999999999998
 40
0.4374999999999999
 40
0.4374999999999999
 40
0.5
 40
0.5
 40
0.625
 40
0.625
 40
0.6875000000000001
 40
0.6875000000000001
 40
0.7500000000000001
 40
0.7500000000000001
 40
0.8125000000000001
 40
0.8125000000000001
 40
0.875
 40
0.875
 40
0.9375
 40
0.9375
 40
1.0
 40
1.0
 40
1.0
 40
1.0
 10
170.9197819522471
 20
278.3320933461882
 30
0.0
 10
170.9201329485335
 20
279.4064783493615
 30
0.0
 10
171.0224926551508
 20
280.463619188306
 30
0.0
 10
171.3256626765939
 20
282.0240373101387
 30
0.0
 10
171.4519372661439
 20
282.5399141128018
 30
0.0
 10
171.7569758662289
 20
283.5627972619828
 30
0.0
 10
171.9367949498339
 20
284.071653058272
 30
0.0
 10
172.5445717843317
 20
285.5516701853373
 30
0.0
 10
173.042181933001
 20
286.4867298659242
 30
0.0
 10
173.9237218703519
 20
287.8138561133242
 30
0.0
 10
174.240749948952
 20
288.2441225488468
 30
0.0
 10
174.9203078790337
 20
289.0757790781182
 30
0.0
 10
175.2779673428211
 20
289.4712804985006
 30
0.0
 10
176.4030640213936
 20
290.5985356105668
 30
0.0
 10
177.2220642459817
 20
291.2716712662216
 30
0.0
 10
178.5555372707
 20
292.1620398117763
 30
0.0
 10
179.0183537050142
 20
292.4385331377205
 30
0.0
 10
179.9590990609917
 20
292.9387565269851
 30
0.0
 10
180.4394475416919
 20
293.1643500120717
 30
0.0
 10
181.4195528114109
 20
293.5678419844247
 30
0.0
 10
181.9193058476516
 20
293.7457497971353
 30
0.0
 10
182.9384892305162
 20
294.0532167285478
 30
0.0
 10
183.4596195256179
 20
294.1830363144149
 30
0.0
 10
184.5135237051756
 20
294.3902827137838
 30
0.0
 10
185.04563479151
 20
294.4675850568096
 30
0.0
 10
186.1120530672786
 20
294.5700682368659
 30
0.0
 10
186.6473256870732
 20
294.5954288260318
 30
0.0
 10
187.1845107954514
 20
294.5968013746034
 30
0.0
  0
SPLINE
  5
16B
330
1F
100
AcDbEntity
  8
0
  6
SLD-Durchgehend
 62
     8
370
     0
100
AcDbSpline
210
0.0
220
0.0
230
1.0
 70
     8
 71
     3
 72
    21
 73
    17
 74
     0
 42
0.00000001
 43
0.00000001
 40
0.0
 40
0.0
 40
0.0
 40
0.0
 40
0.0879486432638338
 40
0.1752439333040774
 40
0.2612918885695353
 40
0.3455728740694634
 40
0.4277614552194756
 40
0.5078544237640066
 40
0.5862406415673248
 40
0.6636368488592876
 40
0.7409941569166748
 40
0.8194217741594443
 40
0.8999782697137144
 40
0.9834872385347003
 40
0.9917271768128924
 40
0.9999999999999999
 40
0.9999999999999999
 40
0.9999999999999999
 40
0.9999999999999999
 10
170.9197819114193
 20
278.3318115014579
 30
0.0
 10
170.4119033847731
 20
278.3318881457817
 30
0.0
 10
169.3999192614573
 20
278.3320408650537
 30
0.0
 10
167.8312473118176
 20
278.3318435414648
 30
0.0
 10
166.1785473863821
 20
278.3318220758426
 30
0.0
 10
164.40520195787
 20
278.3320938268014
 30
0.0
 10
162.477743520169
 20
278.3320904911234
 30
0.0
 10
160.3675626810453
 20
278.3318495810042
 30
0.0
 10
158.0532351404451
 20
278.3319697769909
 30
0.0
 10
155.521942494951
 20
278.332037056299
 30
0.0
 10
152.7730253039046
 20
278.3318716961333
 30
0.0
 10
149.81641563076
 20
278.3319160351717
 30
0.0
 10
146.6682615518114
 20
278.3318534905786
 30
0.0
 10
144.3884556467395
 20
278.3318843409082
 30
0.0
 10
143.062432719996
 20
278.3319546178786
 30
0.0
 10
142.8433909426123
 20
278.3319665432781
 30
0.0
 10
142.7336519447655
 20
278.3319725178524
 30
0.0
  0
SPLINE
  5
16C
330
1F
100
AcDbEntity
  8
0
  6
SLD-Durchgehend
 62
     8
370
     0
100
AcDbSpline
210
0.0
220
0.0
230
1.0
 70
     8
 71
     3
 72
    22
 73
    18
 74
     0
 42
0.00000001
 43
0.00000001
 40
0.0
 40
0.0
 40
0.0
 40
0.0
 40
0.1400259184776272
 40
0.2421876843167914
 40
0.2937098160734095
 40
0.3454700380724293
 40
0.406588900931766
 40
0.4691081372106751
 40
0.508156847110193
 40
0.5479607622830323
 40
0.5953486824673596
 40
0.6437674554329482
 40
0.6913790231525637
 40
0.7393798018116613
 40
0.8370518845711821
 40
0.9356455511014269
 40
1.0
 40
1.0
 40
1.0
 40
1.0
 10
142.7336509564614
 20
278.3319524237917
 30
0.0
 10
142.7910823593376
 20
274.9474309470006
 30
0.0
 10
142.8904152444269
 20
269.093590258818
 30
0.0
 10
143.6616659342097
 20
262.0270578226247
 30
0.0
 10
144.5650090327373
 20
257.1430419919913
 30
0.0
 10
145.5640045217286
 20
253.2939133626549
 30
0.0
 10
147.0396438017166
 20
249.3088781337227
 30
0.0
 10
148.9815608475297
 20
245.862213144562
 30
0.0
 10
151.1433603603321
 20
243.2038714761174
 30
0.0
 10
153.3903451183705
 20
241.1254915016328
 30
0.0
 10
156.1165056713513
 20
239.2827917482504
 30
0.0
 10
159.2447881389479
 20
237.7694288950993
 30
0.0
 10
162.532914317192
 20
236.6128010600789
 30
0.0
 10
167.0585672940872
 20
235.4407862564105
 30
0.0
 10
172.9026261571759
 20
234.5382758230268
 30
0.0
 10
179.1843221669527
 20
234.0216265471861
 30
0.0
 10
183.1219987436585
 20
233.9633303418875
 30
0.0
 10
184.6771379692202
 20
233.9403069386711
 30
0.0
  0
SPLINE
  5
16D
330
1F
100
AcDbEntity
  8
0
  6
SLD-Durchgehend
 62
     8
370
     0
100
AcDbSpline
210
0.0
220
0.0
230
1.0
 70
     8
 71
     3
 72
    17
 73
    13
 74
     0
 42
0.00000001
 43
0.00000001
 40
0.0
 40
0.0
 40
0.0
 40
0.0
 40
0.0103787836827222
 40
0.1334618619881983
 40
0.2532070053586432
 40
0.3766262092491114
 40
0.492471678916326
 40
0.6116493162131182
 40
0.7272182480149479
 40
0.8460904045654646
 40
0.8890338311787793
 40
1.0
 40
1.0
 40
1.0
 40
1.0
 10
184.6771379692202
 20
262.2751611093512
 30
0.0
 10
184.597670056467
 20
262.2812802769243
 30
0.0
 10
183.5757838770662
 20
262.3599672910386
 30
0.0
 10
181.6951985698238
 20
262.9512481068595
 30
0.0
 10
179.1169105044676
 20
264.0767085616425
 30
0.0
 10
176.8296157624874
 20
265.6494401887624
 30
0.0
 10
174.8451018460678
 20
267.5713561703967
 30
0.0
 10
173.2468029410299
 20
269.7537037812536
 30
0.0
 10
172.0195224930545
 20
272.1888963910675
 30
0.0
 10
171.3957132045243
 20
274.2359661078446
 30
0.0
 10
171.0051379189074
 20
276.2956126870467
 30
0.0
 10
170.9555408547015
 20
277.4787731645449
 30
0.0
 10
170.9197822252011
 20
278.3318115012256
 30
0.0
  0
SPLINE
  5
16E
330
1F
100
AcDbEntity
  8
0
  6
SLD-Durchgehend
 62
     8
370
     0
100
AcDbSpline
210
0.0
220
0.0
230
1.0
 70
     8
 71
     3
 72
    42
 73
    38
 74
     0
 42
0.00000001
 43
0.00000001
 40
0.0
 40
0.0
 40
0.0
 40
0.0
 40
0.1250000000000004
 40
0.1250000000000004
 40
0.1875000000000006
 40
0.1875000000000006
 40
0.2500000000000008
 40
0.2500000000000008
 40
0.312500000000001
 40
0.312500000000001
 40
0.343750000000001
 40
0.343750000000001
 40
0.3750000000000011
 40
0.3750000000000011
 40
0.4375000000000012
 40
0.4375000000000012
 40
0.4687500000000012
 40
0.4687500000000012
 40
0.5000000000000012
 40
0.5000000000000012
 40
0.5312500000000012
 40
0.5312500000000012
 40
0.5625000000000012
 40
0.5625000000000012
 40
0.5937500000000011
 40
0.5937500000000011
 40
0.6250000000000009
 40
0.6250000000000009
 40
0.6875000000000008
 40
0.6875000000000008
 40
0.7500000000000007
 40
0.7500000000000007
 40
0.8125000000000006
 40
0.8125000000000006
 40
0.8750000000000003
 40
0.8750000000000003
 40
1.0
 40
1.0
 40
1.0
 40
1.0
 10
231.6356240292293
 20
278.3319524238028
 30
0.0
 10
231.6358109668101
 20
281.4608576885893
 30
0.0
 10
231.5481309630826
 20
284.5867167184367
 30
0.0
 10
231.2332183525938
 20
289.2691477486479
 30
0.0
 10
231.0973205890618
 20
290.8272096195425
 30
0.0
 10
230.7454407928453
 20
293.9276704958673
 30
0.0
 10
230.5295281371983
 20
295.4711452155505
 30
0.0
 10
229.987551259582
 20
298.5394780370345
 30
0.0
 10
229.6616705024003
 20
300.064367075053
 30
0.0
 10
229.0534664105393
 20
302.3315244031656
 30
0.0
 10
228.8299967324276
 20
303.0859490785519
 30
0.0
 10
228.3382276884892
 20
304.5745926724463
 30
0.0
 10
228.0702096214627
 20
305.3084185133913
 30
0.0
 10
227.1879097025511
 20
307.4727910949358
 30
0.0
 10
226.4955855292957
 20
308.8663293515918
 30
0.0
 10
225.2405189423813
 20
310.8539319440843
 30
0.0
 10
224.7833530101058
 20
311.5020583073648
 30
0.0
 10
223.8072360823565
 20
312.7324706034659
 30
0.0
 10
223.2870147199528
 20
313.3174312856223
 30
0.0
 10
222.1802647017094
 20
314.4249983546034
 30
0.0
 10
221.5927565794615
 20
314.9483979693562
 30
0.0
 10
220.3561544853991
 20
315.9301309142547
 30
0.0
 10
219.7153195779465
 20
316.3822120276745
 30
0.0
 10
218.3937765088537
 20
317.2177442794645
 30
0.0
 10
217.7130734979015
 20
317.6012042830045
 30
0.0
 10
216.3166925756824
 20
318.3079253889294
 30
0.0
 10
215.599624248924
 20
318.6316875590337
 30
0.0
 10
213.4122752730811
 20
319.5219163483645
 30
0.0
 10
211.9271743771078
 20
320.0011082870894
 30
0.0
 10
208.921047472451
 20
320.8066701194242
 30
0.0
 10
207.3997871722789
 20
321.1320434195097
 30
0.0
 10
204.3317754708764
 20
321.6743539137315
 30
0.0
 10
202.7842498171553
 20
321.8912087227448
 30
0.0
 10
199.6734608233339
 20
322.2445626723616
 30
0.0
 10
198.1159408846399
 20
322.380398865746
 30
0.0
 10
193.438556128736
 20
322.6951966560866
 30
0.0
 10
190.3139203799906
 20
322.7824828685919
 30
0.0
 10
187.1847655077072
 20
322.7829301606611
 30
0.0
  0
SPLINE
  5
16F
330
1F
100
AcDbEntity
  8
0
  6
SLD-Durchgehend
 62
     8
370
     0
100
AcDbSpline
210
0.0
220
0.0
230
1.0
 70
     8
 71
     3
 72
    32
 73
    28
 74
     0
 42
0.00000001
 43
0.00000001
 40
0.0
 40
0.0
 40
0.0
 40
0.0
 40
0.1249999999999999
 40
0.1249999999999999
 40
0.1874999999999998
 40
0.1874999999999998
 40
0.2499999999999997
 40
0.2499999999999997
 40
0.3749999999999996
 40
0.3749999999999996
 40
0.4374999999999996
 40
0.4374999999999996
 40
0.4999999999999996
 40
0.4999999999999996
 40
0.6249999999999997
 40
0.6249999999999997
 40
0.6874999999999997
 40
0.6874999999999997
 40
0.7499999999999998
 40
0.7499999999999998
 40
0.8124999999999998
 40
0.8124999999999998
 40
0.8749999999999999
 40
0.8749999999999999
 40
0.9374999999999999
 40
0.9374999999999999
 40
1.0
 40
1.0
 40
1.0
 40
1.0
 10
187.1847651751677
 20
294.5968013746034
 30
0.0
 10
188.2587530312302
 20
294.5940572544206
 30
0.0
 10
189.3162015878768
 20
294.4945510175938
 30
0.0
 10
190.8759277645064
 20
294.1905502891952
 30
0.0
 10
191.3914717448618
 20
294.063677767465
 30
0.0
 10
192.4136850180047
 20
293.757995928965
 30
0.0
 10
192.9224813459172
 20
293.57813094273
 30
0.0
 10
194.4034174567446
 20
292.9711688195061
 30
0.0
 10
195.3393588059523
 20
292.475437584569
 30
0.0
 10
196.6659156594121
 20
291.5946139494656
 30
0.0
 10
197.0952367981876
 20
291.2781851324767
 30
0.0
 10
197.9272240423573
 20
290.5980414547588
 30
0.0
 10
198.3232141910899
 20
290.2396830166023
 30
0.0
 10
199.4507414137178
 20
289.1134107285086
 30
0.0
 10
200.123410743587
 20
288.2938911841435
 30
0.0
 10
201.0134586895824
 20
286.9612275751658
 30
0.0
 10
201.2905152851929
 20
286.4983802185866
 30
0.0
 10
201.7922245695457
 20
285.5576421556534
 30
0.0
 10
202.0185539124985
 20
285.0774551782413
 30
0.0
 10
202.4226573391323
 20
284.0976428396368
 30
0.0
 10
202.6004139713388
 20
283.5980105406557
 30
0.0
 10
202.9069317463939
 20
282.5791288719641
 30
0.0
 10
203.0359809953113
 20
282.0584175498607
 30
0.0
 10
203.2426770972334
 20
281.0041097952222
 30
0.0
 10
203.3201429850583
 20
280.4717763542554
 30
0.0
 10
203.4233540329154
 20
279.4049014439314
 30
0.0
 10
203.4493184535408
 20
278.8694899771161
 30
0.0
 10
203.4494940183721
 20
278.3320933461882
 30
0.0
  0
SPLINE
  5
170
330
1F
100
AcDbEntity
  8
0
  6
SLD-Durchgehend
 62
     8
370
     0
100
AcDbSpline
210
0.0
220
0.0
230
1.0
 70
     8
 71
     3
 72
    30
 73
    26
 74
     0
 42
0.00000001
 43
0.00000001
 40
0.0
 40
0.0
 40
0.0
 40
0.0
 40
0.1249999999999999
 40
0.1249999999999999
 40
0.1874999999999999
 40
0.1874999999999999
 40
0.2499999999999998
 40
0.2499999999999998
 40
0.3124999999999998
 40
0.3124999999999998
 40
0.3749999999999998
 40
0.3749999999999998
 40
0.4999999999999998
 40
0.4999999999999998
 40
0.5624999999999997
 40
0.5624999999999997
 40
0.6249999999999997
 40
0.6249999999999997
 40
0.7499999999999998
 40
0.7499999999999998
 40
0.8124999999999998
 40
0.8124999999999998
 40
0.8749999999999999
 40
0.8749999999999999
 40
1.0
 40
1.0
 40
1.0
 40
1.0
 10
202.9976978258418
 20
278.3323277398705
 30
0.0
 10
202.9982405408494
 20
279.3784164041417
 30
0.0
 10
202.9001923929438
 20
280.414128041611
 30
0.0
 10
202.6031683734662
 20
281.9519125563034
 30
0.0
 10
202.4790306892822
 20
282.4597546580317
 30
0.0
 10
202.1838441583873
 20
283.4525352086739
 30
0.0
 10
202.0124162066514
 20
283.9394541693865
 30
0.0
 10
201.6220265016293
 20
284.8944033341663
 30
0.0
 10
201.4030863591269
 20
285.3624421258243
 30
0.0
 10
200.9171302499973
 20
286.2794155661346
 30
0.0
 10
200.6484661549179
 20
286.7306266330203
 30
0.0
 10
199.784676228412
 20
288.029615415461
 30
0.0
 10
199.1310877782225
 20
288.82815549069
 30
0.0
 10
198.0341614528074
 20
289.9248295415248
 30
0.0
 10
197.6487296710696
 20
290.2736025360329
 30
0.0
 10
196.8383596129463
 20
290.9352916699235
 30
0.0
 10
196.4201095012722
 20
291.2428436788499
 30
0.0
 10
195.1276460649121
 20
292.0982644169554
 30
0.0
 10
194.2155335238966
 20
292.5785660498198
 30
0.0
 10
192.7723045835251
 20
293.1652005617963
 30
0.0
 10
192.2764918565503
 20
293.3388000535231
 30
0.0
 10
191.2805039128099
 20
293.6335547899424
 30
0.0
 10
190.778260051814
 20
293.7557292452964
 30
0.0
 10
189.2590255784187
 20
294.0481073223746
 30
0.0
 10
188.2293641845826
 20
294.1431700190267
 30
0.0
 10
187.1839792862435
 20
294.1449883739921
 30
0.0
  0
SPLINE
  5
171
330
1F
100
AcDbEntity
  8
0
  6
SLD-Durchgehend
 62
     8
370
     0
100
AcDbSpline
210
0.0
220
0.0
230
1.0
 70
    24
 71
     3
 72
    10
 73
     6
 74
     0
 42
0.00000001
 43
0.00000001
 40
0.0
 40
0.0
 40
0.0
 40
0.0
 40
0.5
 40
0.5
 40
1.0
 40
1.0
 40
1.0
 40
1.0
 10
187.1847651751677
 20
294.5968013746034
 30
0.0
 10
187.1846943905003
 20
294.5561067776872
 30
0.0
 10
187.1845814589257
 20
294.4911816311356
 30
0.0
 10
187.1843052360071
 20
294.3323791568441
 30
0.0
 10
187.1841423937024
 20
294.238759984901
 30
0.0
 10
187.1839792862435
 20
294.1449883739921
 30
0.0
  0
SPLINE
  5
172
330
1F
100
AcDbEntity
  8
0
  6
SLD-Durchgehend
 62
     8
370
     0
100
AcDbSpline
210
0.0
220
0.0
230
1.0
 70
    24
 71
     3
 72
    10
 73
     6
 74
     0
 42
0.00000001
 43
0.00000001
 40
0.0
 40
0.0
 40
0.0
 40
0.0
 40
0.5
 40
0.5
 40
1.0
 40
1.0
 40
1.0
 40
1.0
 10
202.9976978258418
 20
278.3323277398705
 30
0.0
 10
203.0914628723239
 20
278.3322790941872
 30
0.0
 10
203.1850755337035
 20
278.3322305275618
 30
0.0
 10
203.3438708857261
 20
278.3321481438944
 30
0.0
 10
203.4087955052976
 20
278.3321144607405
 30
0.0
 10
203.4494940183721
 20
278.3320933461882
 30
0.0
  0
SPLINE
  5
173
330
1F
100
AcDbEntity
  8
0
  6
SLD-Durchgehend
 62
     8
370
     0
100
AcDbSpline
210
0.0
220
0.0
230
1.0
 70
     8
 71
     3
 72
    16
 73
    12
 74
     0
 42
0.00000001
 43
0.00000001
 40
0.0
 40
0.0
 40
0.0
 40
0.0
 40
0.1200634367569188
 40
0.240095326548526
 40
0.3894266076564538
 40
0.5073397973422422
 40
0.6252428591601171
 40
0.7472006142625216
 40
0.8691725149526351
 40
0.9908992864219747
 40
1.0
 40
1.0
 40
1.0
 40
1.0
 10
171.371577982018
 20
278.3323277395133
 30
0.0
 10
171.4138431358782
 20
277.4373195426603
 30
0.0
 10
171.4983623383248
 20
275.6475383145743
 30
0.0
 10
172.2322802323535
 20
272.8221057844841
 30
0.0
 10
173.4616135108806
 20
270.1908590203092
 30
0.0
 10
175.1634677020562
 20
267.8651824286408
 30
0.0
 10
177.0787630915769
 20
265.9973836464455
 30
0.0
 10
179.3187341217378
 20
264.4666895617843
 30
0.0
 10
181.8149787555244
 20
263.3747136011986
 30
0.0
 10
183.6381819386914
 20
262.8113600728033
 30
0.0
 10
184.6095658761976
 20
262.7348382725949
 30
0.0
 10
184.6771379692202
 20
262.7295152092805
 30
0.0
  0
SPLINE
  5
174
330
1F
100
AcDbEntity
  8
0
  6
SLD-Durchgehend
 62
     8
370
     0
100
AcDbSpline
210
0.0
220
0.0
230
1.0
 70
    24
 71
     3
 72
    10
 73
     6
 74
     0
 42
0.00000001
 43
0.00000001
 40
0.0
 40
0.0
 40
0.0
 40
0.0
 40
0.5
 40
0.5
 40
1.0
 40
1.0
 40
1.0
 40
1.0
 10
170.9197819522471
 20
278.3320933461882
 30
0.0
 10
170.9604804653216
 20
278.3321144607405
 30
0.0
 10
171.0254050848931
 20
278.3321481438944
 30
0.0
 10
171.1842004369157
 20
278.3322305275618
 30
0.0
 10
171.2778130982952
 20
278.3322790941872
 30
0.0
 10
171.3715781447774
 20
278.3323277398705
 30
0.0
  0
SPLINE
  5
175
330
1F
100
AcDbEntity
  8
0
  6
SLD-Durchgehend
 62
     8
370
     0
100
AcDbSpline
210
0.0
220
0.0
230
1.0
 70
     8
 71
     3
 72
    30
 73
    26
 74
     0
 42
0.00000001
 43
0.00000001
 40
0.0
 40
0.0
 40
0.0
 40
0.0
 40
0.1250000000000001
 40
0.1250000000000001
 40
0.1875000000000001
 40
0.1875000000000001
 40
0.2500000000000001
 40
0.2500000000000001
 40
0.3125000000000001
 40
0.3125000000000001
 40
0.3750000000000001
 40
0.3750000000000001
 40
0.5
 40
0.5
 40
0.5625
 40
0.5625
 40
0.6250000000000001
 40
0.6250000000000001
 40
0.75
 40
0.75
 40
0.8125000000000001
 40
0.8125000000000001
 40
0.8750000000000001
 40
0.8750000000000001
 40
1.0
 40
1.0
 40
1.0
 40
1.0
 10
187.1839792904877
 20
294.144986033683
 30
0.0
 10
186.1384911639532
 20
294.1430900129567
 30
0.0
 10
185.1031246486891
 20
294.0479808405311
 30
0.0
 10
183.5668915376083
 20
293.7504470708856
 30
0.0
 10
183.0585557268299
 20
293.625602081537
 30
0.0
 10
182.0654574836383
 20
293.3296643456693
 30
0.0
 10
181.5783893227968
 20
293.158214307855
 30
0.0
 10
180.6230563511291
 20
292.7687446210359
 30
0.0
 10
180.1547967481449
 20
292.5507120739481
 30
0.0
 10
179.2377441301541
 20
292.0664347499002
 30
0.0
 10
178.786566027859
 20
291.7983236753133
 30
0.0
 10
177.4867748561233
 20
290.9342006075619
 30
0.0
 10
176.6889309663623
 20
290.2799714349074
 30
0.0
 10
175.5938104744417
 20
289.1829771217016
 30
0.0
 10
175.2458364553483
 20
288.7978947456446
 30
0.0
 10
174.584967020683
 20
287.9878180818772
 30
0.0
 10
174.2768206768543
 20
287.5685711859658
 30
0.0
 10
173.4206790606517
 20
286.2755106855654
 30
0.0
 10
172.9382916134596
 20
285.3643581453507
 30
0.0
 10
172.3503725452418
 20
283.9222373296266
 30
0.0
 10
172.1766865078804
 20
283.4264129914018
 30
0.0
 10
171.8823836125403
 20
282.4298333357697
 30
0.0
 10
171.7607426878085
 20
281.9272871877059
 30
0.0
 10
171.4690414845526
 20
280.407432041578
 30
0.0
 10
171.3710355933606
 20
279.3781010811069
 30
0.0
 10
171.3715781447774
 20
278.3323277398705
 30
0.0
  0
SPLINE
  5
176
330
1F
100
AcDbEntity
  8
0
  6
SLD-Durchgehend
 62
     8
370
     0
100
AcDbSpline
210
0.0
220
0.0
230
1.0
 70
     8
 71
     3
 72
    16
 73
    12
 74
     0
 42
0.00000001
 43
0.00000001
 40
0.0
 40
0.0
 40
0.0
 40
0.0
 40
0.0459233850049226
 40
0.1631187956730839
 40
0.2802959142599771
 40
0.3984769783903476
 40
0.5166575351852882
 40
0.6375720198463399
 40
0.7584824408584463
 40
0.8792250431335439
 40
1.0
 40
1.0
 40
1.0
 40
1.0
 10
189.6921379716789
 20
262.7911259228816
 30
0.0
 10
190.0334633697333
 20
262.8197184351648
 30
0.0
 10
191.2458432467241
 20
262.921278373928
 30
0.0
 10
193.2343092542392
 20
263.6364039486256
 30
0.0
 10
195.5957188608104
 20
264.7873589044573
 30
0.0
 10
197.7194418100915
 20
266.3703739115174
 30
0.0
 10
199.5726140447093
 20
268.2934625850639
 30
0.0
 10
201.0764008465938
 20
270.529682331808
 30
0.0
 10
202.1826784717039
 20
273.0031593384766
 30
0.0
 10
202.8694287115874
 20
275.6325228126371
 30
0.0
 10
202.9549378799616
 20
277.4323123950503
 30
0.0
 10
202.9976981917119
 20
278.3323277395133
 30
0.0
  0
LWPOLYLINE
  5
177
330
1F
100
AcDbEntity
  8
0
  6
SLD-Durchgehend
 62
     8
370
     0
100
AcDbPolyline
 90
        9
 70
   128
 43
0.0
 10
232.9214389661
 20
301.1486175279
 10
232.6359699705
 20
301.0803720722
 10
232.3614682296
 20
301.014749221
 10
232.108491216
 20
300.9542709956
 10
231.8867507616
 20
300.9012601147
 10
231.7047777811
 20
300.8577561746
 10
231.5695571938
 20
300.825429968
 10
231.4862857798
 20
300.8055238793
 10
231.4581710139
 20
300.798801593
  0
SPLINE
  5
178
330
1F
100
AcDbEntity
  8
0
  6
SLD-Durchgehend
 62
     8
370
     0
100
AcDbSpline
210
0.0
220
0.0
230
1.0
 70
     8
 71
     3
 72
    21
 73
    17
 74
     0
 42
0.00000001
 43
0.00000001
 40
0.0
 40
0.0
 40
0.0
 40
0.0
 40
0.0156250000000001
 40
0.0156250000000001
 40
0.0312500000000003
 40
0.0625000000000006
 40
0.0625000000000006
 40
0.1250000000000006
 40
0.1250000000000006
 40
0.2500000000000005
 40
0.2500000000000005
 40
0.5000000000000003
 40
0.5000000000000003
 40
0.7500000000000001
 40
0.7500000000000001
 40
1.0
 40
1.0
 40
1.0
 40
1.0
 10
232.9214379853103
 20
301.1486168937572
 30
0.0
 10
232.9498188568466
 20
301.0326436720294
 30
0.0
 10
232.9783703163751
 20
300.9142309290347
 30
0.0
 10
233.0340743758506
 20
300.6797251947058
 30
0.0
 10
233.1164128531711
 20
300.3278484751764
 30
0.0
 10
233.1951919493299
 20
299.9756264524665
 30
0.0
 10
233.3482527192851
 20
299.2707460671037
 30
0.0
 10
233.4443026937918
 20
298.8002446069073
 30
0.0
 10
233.7162493935882
 20
297.3871679358419
 30
0.0
 10
233.8760063621201
 20
296.4430265779228
 30
0.0
 10
234.3019766182525
 20
293.6054288304256
 30
0.0
 10
234.5154227197953
 20
291.7068503987675
 30
0.0
 10
234.8423147692534
 20
287.8999817178758
 30
0.0
 10
234.9555547503423
 20
285.9916715824463
 30
0.0
 10
235.1028420050385
 20
282.1673578658243
 30
0.0
 10
235.1367133168611
 20
280.2513372384886
 30
0.0
 10
235.1366063536301
 20
278.3320153575648
 30
0.0
  0
LWPOLYLINE
  5
179
330
1F
100
AcDbEntity
  8
0
  6
SLD-Durchgehend
 62
     8
370
     0
100
AcDbPolyline
 90
        9
 70
   128
 43
0.0
 10
235.136604611
 20
278.3320153572
 10
234.8349417785
 20
278.3320145787
 10
234.5430801848
 20
278.3320112917
 10
234.2727991977
 20
278.3320056292
 10
234.035013918
 20
278.3319978194
 10
233.8393132427
 20
278.3319881778
 10
233.6935947874
 20
278.3319770929
 10
233.603748236
 20
278.3319650121
 10
233.5733871201
 20
278.3319524238
  0
LWPOLYLINE
  5
17A
330
1F
100
AcDbEntity
  8
0
  6
SLD-Durchgehend
 62
     8
370
     0
100
AcDbPolyline
 90
        9
 70
   128
 43
0.0
 10
139.2326678375
 20
278.3320153572
 10
139.5343343952
 20
278.3320145787
 10
139.826195989
 20
278.3320112917
 10
140.096476976
 20
278.3320056292
 10
140.3342622557
 20
278.3319978194
 10
140.529962931
 20
278.3319881778
 10
140.6756813863
 20
278.3319770929
 10
140.7655279377
 20
278.3319650121
 10
140.7958890537
 20
278.3319524238
  0
SPLINE
  5
17B
330
1F
100
AcDbEntity
  8
0
  6
SLD-Durchgehend
 62
     8
370
     0
100
AcDbSpline
210
0.0
220
0.0
230
1.0
 70
     8
 71
     3
 72
    20
 73
    16
 74
     0
 42
0.00000001
 43
0.00000001
 40
0.0
 40
0.0
 40
0.0
 40
0.0
 40
0.2500000000000002
 40
0.2500000000000002
 40
0.5000000000000003
 40
0.5000000000000003
 40
0.7500000000000004
 40
0.7500000000000004
 40
0.8750000000000006
 40
0.8750000000000006
 40
0.9375000000000003
 40
0.9375000000000003
 40
0.9687500000000002
 40
0.9687500000000002
 40
1.0
 40
1.0
 40
1.0
 40
1.0
 10
139.2326696169891
 20
278.3320153575648
 30
0.0
 10
139.2325626606368
 20
280.2512138068526
 30
0.0
 10
139.2664427713196
 20
282.1678094660162
 30
0.0
 10
139.4137595621948
 20
285.9924440998395
 30
0.0
 10
139.5270201309252
 20
287.9008573164347
 30
0.0
 10
139.8539500683534
 20
291.7077884852608
 30
0.0
 10
140.0674147534747
 20
293.6063264909824
 30
0.0
 10
140.4933826236388
 20
296.4437149302317
 30
0.0
 10
140.653133509234
 20
297.3877615739456
 30
0.0
 10
140.9250552307592
 20
298.8006514368761
 30
0.0
 10
141.0210941970071
 20
299.2710831527995
 30
0.0
 10
141.1741329492127
 20
299.9758465904272
 30
0.0
 10
141.2266440858653
 20
300.2106202326725
 30
0.0
 10
141.3348281180609
 20
300.6798562588932
 30
0.0
 10
141.39081266107
 20
300.9155933605945
 30
0.0
 10
141.4478379853096
 20
301.148616893764
 30
0.0
  0
LWPOLYLINE
  5
17C
330
1F
100
AcDbEntity
  8
0
  6
SLD-Durchgehend
 62
     8
370
     0
100
AcDbPolyline
 90
        9
 70
   128
 43
0.0
 10
141.4478372076
 20
301.1486175279
 10
141.7333062032
 20
301.0803720722
 10
142.0078042188
 20
301.014749221
 10
142.2607849577
 20
300.9542709956
 10
142.4825254122
 20
300.9012601147
 10
142.6644983927
 20
300.8577561746
 10
142.7997189799
 20
300.825429968
 10
142.8829903939
 20
300.8055238793
 10
142.9111051598
 20
300.798801593
  0
SPLINE
  5
17D
330
1F
100
AcDbEntity
  8
0
  6
SLD-Durchgehend
 62
     8
370
     0
100
AcDbSpline
210
0.0
220
0.0
230
1.0
 70
     8
 71
     3
 72
    32
 73
    28
 74
     0
 42
0.00000001
 43
0.00000001
 40
0.0
 40
0.0
 40
0.0
 40
0.0
 40
0.1250000000000007
 40
0.1250000000000007
 40
0.187500000000001
 40
0.187500000000001
 40
0.2500000000000013
 40
0.2500000000000013
 40
0.3125000000000016
 40
0.3125000000000016
 40
0.3437500000000016
 40
0.3437500000000016
 40
0.3750000000000016
 40
0.3750000000000016
 40
0.5000000000000011
 40
0.5000000000000011
 40
0.531250000000001
 40
0.531250000000001
 40
0.5625000000000008
 40
0.5625000000000008
 40
0.6250000000000008
 40
0.6250000000000008
 40
0.7500000000000004
 40
0.7500000000000004
 40
0.8750000000000002
 40
0.8750000000000002
 40
1.0
 40
1.0
 40
1.0
 40
1.0
 10
141.4478379853096
 20
301.148616893764
 30
0.0
 10
142.0108526567125
 20
303.5036936113893
 30
0.0
 10
142.7257431399944
 20
305.8004509585868
 30
0.0
 10
144.156301047297
 20
309.1080318816276
 30
0.0
 10
144.693882885621
 20
310.1872392185955
 30
0.0
 10
145.9207655293196
 20
312.2873947495452
 30
0.0
 10
146.5979238438524
 20
313.2868217008626
 30
0.0
 10
148.085713162784
 20
315.1699028003094
 30
0.0
 10
148.8970512380349
 20
316.0545039265776
 30
0.0
 10
150.2210677215091
 20
317.2910624476335
 30
0.0
 10
150.6821504198044
 20
317.6898413338681
 30
0.0
 10
151.6299645240019
 20
318.4493674343761
 30
0.0
 10
152.1148843621063
 20
318.8089716586606
 30
0.0
 10
154.5903472413139
 20
320.5138871619537
 30
0.0
 10
156.7331935222031
 20
321.5804084505027
 30
0.0
 10
159.5552631380239
 20
322.6508628029403
 30
0.0
 10
160.1283047615756
 20
322.8522281983226
 30
0.0
 10
161.2757806609794
 20
323.2274252452392
 30
0.0
 10
161.8512011015909
 20
323.4017120939506
 30
0.0
 10
163.5818492547852
 20
323.8898645344429
 30
0.0
 10
164.7414388606976
 20
324.1692193274121
 30
0.0
 10
168.2336321645761
 20
324.9010707145333
 30
0.0
 10
170.5793641109736
 20
325.2496981156221
 30
0.0
 10
175.2927408495445
 20
325.7735809999566
 30
0.0
 10
177.6604695219851
 20
325.9481728321664
 30
0.0
 10
182.4114620618625
 20
326.1744438188775
 30
0.0
 10
184.7948422795192
 20
326.2252024238073
 30
0.0
 10
187.1846379853096
 20
326.2252024238073
 30
0.0
  0
LINE
  5
17E
330
1F
100
AcDbEntity
  8
0
  6
SLD-Durchgehend
 62
     8
370
     0
100
AcDbLine
 10
187.1846379853
 20
326.2252024184
 30
0.0
 11
187.1846379853
 21
324.7207029531
 31
0.0
  0
LWPOLYLINE
  5
17F
330
1F
100
AcDbEntity
  8
0
  6
SLD-Durchgehend
 62
     8
370
     0
100
AcDbPolyline
 90
       20
 70
   128
 43
0.0
 10
189.1751403214
 20
224.5761639247
 10
194.1206638926
 20
224.6708906064
 10
201.056723226
 20
225.0706291566
 10
208.0103370586
 20
225.7789782057
 10
214.9289797285
 20
226.9370070467
 10
220.4344446996
 20
228.3988854656
 10
223.142749373
 20
229.4075040887
 10
225.7686543503
 20
230.6661045919
 10
228.91668484
 20
232.7229044209
 10
231.7327211836
 20
235.3878094623
 10
232.8807178179
 20
236.8254958461
 10
235.2133679429
 20
240.7550438116
 10
236.9500237742
 20
245.1201378176
 10
237.9473547676
 20
248.5998793314
 10
238.7301611939
 20
252.1499561886
 10
239.8398730198
 20
259.3995871762
 10
240.6514945665
 20
268.8350387658
 10
240.9450288156
 20
278.3318922443
 10
240.9450288156
 20
278.3319524238
 10
240.9450288156
 20
278.3319524238
  0
ARC
  5
180
330
1F
100
AcDbEntity
  8
0
  6
SLD-Durchgehend
 62
     8
370
     0
100
AcDbCircle
 10
240.0461303942
 20
8.249782035
 30
0.0
 40
270.0836662597633
100
AcDbArc
 50
89.5348180052
 51
89.8093065695
  0
ARC
  5
181
330
1F
100
AcDbEntity
  8
0
  6
SLD-Durchgehend
 62
     8
370
     0
100
AcDbCircle
 10
134.3346962225
 20
5.9883176198
 30
0.0
 40
272.3451566218315
100
AcDbArc
 50
90.1915399385
 51
90.4637484181
  0
SPLINE
  5
182
330
1F
100
AcDbEntity
  8
0
  6
SLD-Durchgehend
 62
     8
370
     0
100
AcDbSpline
210
0.0
220
0.0
230
1.0
 70
     8
 71
     3
 72
    26
 73
    22
 74
     0
 42
0.00000001
 43
0.00000001
 40
0.0
 40
0.0
 40
0.0
 40
0.0
 40
0.00000067079006
 40
0.1055784110610334
 40
0.2114685908517183
 40
0.2924393873636478
 40
0.333191303645421
 40
0.3740881439800448
 40
0.4251735158367192
 40
0.4512017035256209
 40
0.4774447184459887
 40
0.4979519942814053
 40
0.5398132005508781
 40
0.5830839886997226
 40
0.6146173710569155
 40
0.6464223233998665
 40
0.7112477180525975
 40
0.7883320993745956
 40
0.8657888429203299
 40
0.9438925180357091
 40
1.0
 40
1.0
 40
1.0
 40
1.0
 10
133.4242473581528
 20
278.3319524237917
 30
0.0
 10
133.4242473581514
 20
278.3319323639765
 30
0.0
 10
133.4242471267708
 20
275.1746354162615
 30
0.0
 10
133.6427267335427
 20
268.8506790871148
 30
0.0
 10
134.353691996163
 20
260.1304934514783
 30
0.0
 10
135.3437577820492
 20
253.3894682393235
 30
0.0
 10
136.3745705340008
 20
248.6343926399766
 30
0.0
 10
137.4531504649161
 20
244.8119128252898
 30
0.0
 10
138.7293760119036
 20
241.5095996505872
 30
0.0
 10
140.1702103662375
 20
238.7712286831282
 30
0.0
 10
141.3610405495532
 20
236.9446813820703
 30
0.0
 10
143.0134513925593
 20
234.8697406271404
 30
0.0
 10
145.3171545600258
 20
232.6787290695481
 30
0.0
 10
148.2591694571228
 20
230.7712235262193
 30
0.0
 10
151.1412306366013
 20
229.3977995620465
 30
0.0
 10
154.7375690309409
 20
228.0609097309415
 30
0.0
 10
159.7809219245423
 20
226.7663459742832
 30
0.0
 10
166.2628630601572
 20
225.7190477079355
 30
0.0
 10
173.1887463604108
 20
225.0377600526919
 30
0.0
 10
179.50926878599
 20
224.6478041832953
 30
0.0
 10
183.5229086700945
 20
224.5975047270698
 30
0.0
 10
185.2008260080313
 20
224.576476849102
 30
0.0
  0
SPLINE
  5
183
330
1F
100
AcDbEntity
  8
0
  6
SLD-Durchgehend
 62
     8
370
     0
100
AcDbSpline
210
0.0
220
0.0
230
1.0
 70
     8
 71
     3
 72
    10
 73
     6
 74
     0
 42
0.00000001
 43
0.00000001
 40
0.0
 40
0.0
 40
0.0
 40
0.0
 40
0.5
 40
0.5
 40
1.0
 40
1.0
 40
1.0
 40
1.0
 10
142.7336519490892
 20
278.3320804458562
 30
0.0
 10
142.60545799541
 20
278.3320781830761
 30
0.0
 10
142.4798413886643
 20
278.3320517090615
 30
0.0
 10
142.3017309911491
 20
278.3319646630155
 30
0.0
 10
142.2502379853054
 20
278.3319045800872
 30
0.0
 10
142.2502379853454
 20
278.3318441919669
 30
0.0
  0
SPLINE
  5
184
330
1F
100
AcDbEntity
  8
0
  6
SLD-Durchgehend
 62
     8
370
     0
100
AcDbSpline
210
0.0
220
0.0
230
1.0
 70
     8
 71
     3
 72
    10
 73
     6
 74
     0
 42
0.00000001
 43
0.00000001
 40
0.0
 40
0.0
 40
0.0
 40
0.0
 40
0.4999999999999998
 40
0.4999999999999998
 40
1.0
 40
1.0
 40
1.0
 40
1.0
 10
187.1846751283695
 20
323.2663524238031
 30
0.0
 10
187.1846888101664
 20
323.2663524238
 30
0.0
 10
187.1847024033717
 20
323.2148582612918
 30
0.0
 10
187.1847220574969
 20
323.0367444152085
 30
0.0
 10
187.1847280079777
 20
322.9111255784967
 30
0.0
 10
187.1847284720137
 20
322.7829301659509
 30
0.0
  0
SPLINE
  5
185
330
1F
100
AcDbEntity
  8
0
  6
SLD-Durchgehend
 62
     8
370
     0
100
AcDbSpline
210
0.0
220
0.0
230
1.0
 70
     8
 71
     3
 72
    10
 73
     6
 74
     0
 42
0.00000001
 43
0.00000001
 40
0.0
 40
0.0
 40
0.0
 40
0.0
 40
0.5
 40
0.5
 40
1.0
 40
1.0
 40
1.0
 40
1.0
 10
232.1190379852737
 20
278.3318441919512
 30
0.0
 10
232.1190379853137
 20
278.3319045800715
 30
0.0
 10
232.0675449794701
 20
278.3319646629998
 30
0.0
 10
231.8894345819548
 20
278.3320517090459
 30
0.0
 10
231.7638179752092
 20
278.3320781830604
 30
0.0
 10
231.6356240215299
 20
278.3320804458406
 30
0.0
  0
SPLINE
  5
186
330
1F
100
AcDbEntity
  8
0
  6
SLD-Durchgehend
 62
     8
370
     0
100
AcDbSpline
210
0.0
220
0.0
230
1.0
 70
     8
 71
     3
 72
    23
 73
    19
 74
     0
 42
0.00000001
 43
0.00000001
 40
0.0
 40
0.0
 40
0.0
 40
0.0
 40
0.0900043851460792
 40
0.1514094020244391
 40
0.2129668093876427
 40
0.2951270038663503
 40
0.336864453792227
 40
0.3789178256930047
 40
0.4336880212115651
 40
0.4899943445942813
 40
0.5445513783419184
 40
0.6006804915169911
 40
0.637869562690598
 40
0.6752952528675772
 40
0.7513028092233557
 40
0.8131236915568844
 40
0.875138243260424
 40
1.0
 40
1.0
 40
1.0
 40
1.0
 10
184.6771379692202
 20
230.4591982434025
 30
0.0
 10
182.3372949353762
 20
230.4989170049827
 30
0.0
 10
178.4011063373387
 20
230.565733682084
 30
0.0
 10
172.8851210226638
 20
231.0674436563161
 30
0.0
 10
167.6020934018446
 20
231.7920622398943
 30
0.0
 10
162.8833052846477
 20
232.8365302889052
 30
0.0
 10
158.7897569694682
 20
234.209389272814
 30
0.0
 10
155.4863007936745
 20
235.6571320806508
 30
0.0
 10
152.0565755666268
 20
237.7090060474928
 30
0.0
 10
148.7778634433214
 20
240.5369456344844
 30
0.0
 10
146.0521849631646
 20
243.9432830155752
 30
0.0
 10
144.1761602215226
 20
247.3161041798412
 30
0.0
 10
142.8770765164044
 20
250.4597496585264
 30
0.0
 10
141.6629599247049
 20
254.1848614681622
 30
0.0
 10
140.6705338599953
 20
258.6409316615967
 30
0.0
 10
139.944655318153
 20
263.7858595421756
 30
0.0
 10
139.3598193151172
 20
270.2268558841521
 30
0.0
 10
139.2835963529149
 20
275.0855840603704
 30
0.0
 10
139.2326678374505
 20
278.3319524237917
 30
0.0
  0
LWPOLYLINE
  5
187
330
1F
100
AcDbEntity
  8
0
  6
SLD-Durchgehend
 62
     8
370
     0
100
AcDbPolyline
 90
        9
 70
   128
 43
0.0
 10
139.2326678375
 20
278.3319524238
 10
139.5343343952
 20
278.331951759
 10
139.826195989
 20
278.3319485812
 10
140.096476976
 20
278.3319430187
 10
140.3342622557
 20
278.3319352962
 10
140.529962931
 20
278.3319257247
 10
140.6756813863
 20
278.3319146916
 10
140.7655279377
 20
278.3319026408
 10
140.7958890537
 20
278.3318900588
  0
LWPOLYLINE
  5
188
330
1F
100
AcDbEntity
  8
0
  6
SLD-Durchgehend
 62
     8
370
     0
100
AcDbPolyline
 90
        9
 70
   128
 43
0.0
 10
235.136604611
 20
278.3319524238
 10
234.8349417785
 20
278.331951759
 10
234.5430801848
 20
278.3319485812
 10
234.2727991977
 20
278.3319430187
 10
234.035013918
 20
278.3319352962
 10
233.8393132427
 20
278.3319257247
 10
233.6935947874
 20
278.3319146916
 10
233.603748236
 20
278.3319026408
 10
233.5733871201
 20
278.3318900588
  0
SPLINE
  5
189
330
1F
100
AcDbEntity
  8
0
  6
SLD-Durchgehend
 62
     8
370
     0
100
AcDbSpline
210
0.0
220
0.0
230
1.0
 70
     8
 71
     3
 72
    23
 73
    19
 74
     0
 42
0.00000001
 43
0.00000001
 40
0.0
 40
0.0
 40
0.0
 40
0.0
 40
0.1221790440372171
 40
0.1836685120668391
 40
0.2451421273413524
 40
0.3273022467880254
 40
0.3692092612119737
 40
0.4110931165754308
 40
0.4658632459085399
 40
0.5221695178700292
 40
0.5767265017939619
 40
0.6328555663294905
 40
0.6701560755548315
 40
0.7074702984463361
 40
0.7834777960967461
 40
0.8453873985046847
 40
0.9073139059919738
 40
1.0
 40
1.0
 40
1.0
 40
1.0
 10
235.1366046109891
 20
278.3319524237917
 30
0.0
 10
235.0872959287258
 20
275.1554512181601
 30
0.0
 10
235.0131714962208
 20
270.3803013173379
 30
0.0
 10
234.453144601217
 20
264.029921552819
 30
0.0
 10
233.7224750729598
 20
258.7474113801981
 30
0.0
 10
232.6792944123555
 20
254.0263103246604
 30
0.0
 10
231.3056621756427
 20
249.9328915130906
 30
0.0
 10
229.8571854054811
 20
246.6298293678902
 30
0.0
 10
227.8075820768881
 20
243.2038872046353
 30
0.0
 10
224.9796415421903
 20
239.9251840096506
 30
0.0
 10
221.5733094008191
 20
237.1994859950796
 30
0.0
 10
218.1979275653003
 20
235.3221099725894
 30
0.0
 10
215.0541428473565
 20
234.0232790864333
 30
0.0
 10
211.3288817267864
 20
232.8097354865742
 30
0.0
 10
206.8733591552073
 20
231.8171973248968
 30
0.0
 10
201.7285503561403
 20
231.0920917769081
 30
0.0
 10
196.1212333702292
 20
230.5729057487509
 30
0.0
 10
192.1017250472749
 20
230.5030309227881
 30
0.0
 10
189.6921379716789
 20
230.4611428449383
 30
0.0
  0
SPLINE
  5
18A
330
1F
100
AcDbEntity
  8
0
  6
SLD-Durchgehend
 62
     8
370
     0
100
AcDbSpline
210
0.0
220
0.0
230
1.0
 70
     8
 71
     3
 72
    32
 73
    28
 74
     0
 42
0.00000001
 43
0.00000001
 40
0.0
 40
0.0
 40
0.0
 40
0.0
 40
0.1250000000000007
 40
0.1250000000000007
 40
0.2500000000000013
 40
0.2500000000000013
 40
0.3750000000000019
 40
0.3750000000000019
 40
0.5000000000000024
 40
0.5000000000000024
 40
0.5312500000000027
 40
0.5312500000000027
 40
0.562500000000003
 40
0.562500000000003
 40
0.6250000000000032
 40
0.6250000000000032
 40
0.656250000000003
 40
0.656250000000003
 40
0.6875000000000029
 40
0.6875000000000029
 40
0.7500000000000023
 40
0.7500000000000023
 40
0.8125000000000018
 40
0.8125000000000018
 40
0.8750000000000012
 40
0.8750000000000012
 40
1.0
 40
1.0
 40
1.0
 40
1.0
 10
187.1846379853096
 20
326.2252024238073
 30
0.0
 10
189.5825697620674
 20
326.2252024238073
 30
0.0
 10
191.9778319567936
 20
326.1741409508296
 30
0.0
 10
196.7617152330246
 20
325.9449924932813
 30
0.0
 10
199.1503907969528
 20
325.7679476017251
 30
0.0
 10
203.9182729826273
 20
325.2327440226616
 30
0.0
 10
206.2847426324007
 20
324.8760547607907
 30
0.0
 10
210.9478347901921
 20
323.8859394783601
 30
0.0
 10
213.2465605093699
 20
323.2536502404516
 30
0.0
 10
216.0519689487403
 20
322.1789660478545
 30
0.0
 10
216.6111417218758
 20
321.9487845756533
 30
0.0
 10
217.7120287573529
 20
321.4594397602253
 30
0.0
 10
218.253754862761
 20
321.2003552177755
 30
0.0
 10
219.8504997563691
 20
320.3760937970338
 30
0.0
 10
220.8771982352644
 20
319.7640961308765
 30
0.0
 10
222.3518595625372
 20
318.7379990345519
 30
0.0
 10
222.832506989647
 20
318.3779356571275
 30
0.0
 10
223.7704271912975
 20
317.6191645627138
 30
0.0
 10
224.227567062212
 20
317.2202194105273
 30
0.0
 10
225.5396616706709
 20
315.9840501131143
 30
0.0
 10
226.343062295617
 20
315.1009425669776
 30
0.0
 10
227.8157554715519
 20
313.2238097494984
 30
0.0
 10
228.4851312323657
 20
312.2298532991019
 30
0.0
 10
229.7000891691728
 20
310.1395535515055
 30
0.0
 10
230.2332461310637
 20
309.0648124860252
 30
0.0
 10
231.6518832245438
 20
305.7736533162889
 30
0.0
 10
232.3617612350781
 20
303.4897311680718
 30
0.0
 10
232.9214379853095
 20
301.148616893764
 30
0.0
  0
SPLINE
  5
18B
330
1F
100
AcDbEntity
  8
0
  6
SLD-Durchgehend
 62
     8
370
     0
100
AcDbSpline
210
0.0
220
0.0
230
1.0
 70
     8
 71
     3
 72
    17
 73
    13
 74
     0
 42
0.00000001
 43
0.00000001
 40
0.0
 40
0.0
 40
0.0
 40
0.0
 40
0.0145347194582027
 40
0.0145347194582027
 40
0.0145347194582027
 40
0.0294396908778632
 40
0.0294396908778632
 40
0.0294396908778632
 40
0.0443384761878457
 40
0.0443384761878457
 40
0.0443384761878457
 40
0.0588829675258662
 40
0.0588829675258662
 40
0.0588829675258662
 40
0.0588829675258662
 10
240.9450515164654
 20
278.3360162907694
 30
0.0
 10
240.9562877721521
 20
283.1809089104264
 30
0.0
 10
240.9640354915122
 20
288.0258108143591
 30
0.0
 10
240.9690495802673
 20
292.8707144416862
 30
0.0
 10
240.9741913964309
 20
297.8390357057747
 30
0.0
 10
240.9765284529102
 20
302.8073602439702
 30
0.0
 10
240.9773403094109
 20
307.7756843126048
 30
0.0
 10
240.9781518290035
 20
312.7419466020147
 30
0.0
 10
240.977463574102
 20
317.7082091713329
 30
0.0
 10
240.9762930595141
 20
322.6744714350738
 30
0.0
 10
240.975150379816
 20
327.5226357577852
 30
0.0
 10
240.9735425989265
 20
332.3707999671188
 30
0.0
 10
240.97206803913
 20
337.2189642050357
 30
0.0
  0
LWPOLYLINE
  5
18C
330
1F
100
AcDbEntity
  8
0
  6
SLD-Durchgehend
 62
     8
370
     0
100
AcDbPolyline
 90
        3
 70
   128
 43
0.0
 10
240.9450288156
 20
278.3319524238
 10
240.9450288156
 20
278.3320126032
 10
240.9450511673
 20
278.3360162908
  0
SPLINE
  5
18D
330
1F
100
AcDbEntity
  8
0
  6
SLD-Durchgehend
 62
     8
370
     0
100
AcDbSpline
210
0.0
220
0.0
230
1.0
 70
    24
 71
     3
 72
     8
 73
     4
 74
     0
 42
0.00000001
 43
0.00000001
 40
0.1697971195247366
 40
0.1697971195247366
 40
0.1697971195247366
 40
0.1697971195247366
 40
0.8032587855161596
 40
0.8032587855161596
 40
0.8032587855161596
 40
0.8032587855161596
 10
235.1366063501106
 20
278.3319524238073
 30
0.0
 10
237.6642046349795
 20
278.3319524238073
 30
0.0
 10
239.3986031789587
 20
278.3319524238073
 30
0.0
 10
240.9450295007003
 20
278.3319524238073
 30
0.0
  0
LINE
  5
18E
330
1F
100
AcDbEntity
  8
0
  6
SLD-Durchgehend
 62
     8
370
     0
100
AcDbLine
 10
235.136604611
 20
278.3320153572
 30
0.0
 11
235.136604611
 21
278.3319524238
 31
0.0
  0
LINE
  5
18F
330
1F
100
AcDbEntity
  8
0
  6
SLD-Durchgehend
 62
     8
370
     0
100
AcDbLine
 10
232.9214389661
 20
337.2189624975
 30
0.0
 11
232.9214389661
 21
301.1486175279
 31
0.0
  0
LWPOLYLINE
  5
190
330
1F
100
AcDbEntity
  8
0
  6
SLD-Durchgehend
 62
     8
370
     0
100
AcDbPolyline
 90
        3
 70
   128
 43
0.0
 10
133.4242287317
 20
278.3360163081
 10
133.4242473582
 20
278.3320126032
 10
133.4242473582
 20
278.3319524238
  0
SPLINE
  5
191
330
1F
100
AcDbEntity
  8
0
  6
SLD-Durchgehend
 62
     8
370
     0
100
AcDbSpline
210
0.0
220
0.0
230
1.0
 70
     8
 71
     3
 72
     8
 73
     4
 74
     0
 42
0.00000001
 43
0.00000001
 40
0.0
 40
0.0
 40
0.0
 40
0.0
 40
1.0
 40
1.0
 40
1.0
 40
1.0
 10
133.3972079314892
 20
337.2189642050357
 30
0.0
 10
133.3912382174144
 20
317.5913069496534
 30
0.0
 10
133.3787041918237
 20
297.9636208199642
 30
0.0
 10
133.4242244541537
 20
278.3360162907694
 30
0.0
  0
LINE
  5
192
330
1F
100
AcDbEntity
  8
0
  6
SLD-Durchgehend
 62
     8
370
     0
100
AcDbLine
 10
141.4478372076
 20
337.2189624975
 30
0.0
 11
141.4478372076
 21
301.1486175279
 31
0.0
  0
LINE
  5
193
330
1F
100
AcDbEntity
  8
0
  6
SLD-Durchgehend
 62
     8
370
     0
100
AcDbLine
 10
139.2326678375
 20
278.3319524238
 30
0.0
 11
139.2326678375
 21
278.3320153572
 31
0.0
  0
SPLINE
  5
194
330
1F
100
AcDbEntity
  8
0
  6
SLD-Durchgehend
 62
     8
370
     0
100
AcDbSpline
210
0.0
220
0.0
230
1.0
 70
    24
 71
     3
 72
     8
 73
     4
 74
     0
 42
0.00000001
 43
0.00000001
 40
0.1697971195247344
 40
0.1697971195247344
 40
0.1697971195247344
 40
0.1697971195247344
 40
0.8032587855161584
 40
0.8032587855161584
 40
0.8032587855161584
 40
0.8032587855161584
 10
139.2326696205086
 20
278.3319524238073
 30
0.0
 10
136.7050713356397
 20
278.3319524238073
 30
0.0
 10
134.9706727916605
 20
278.3319524238073
 30
0.0
 10
133.4242464699188
 20
278.3319524238073
 30
0.0
  0
LWPOLYLINE
  5
195
330
1F
100
AcDbEntity
  8
0
  6
SLD-Durchgehend
 62
     8
370
     0
100
AcDbPolyline
 90
        9
 70
   128
 43
0.0
 10
132.3827120701
 20
278.3319524247
 10
132.4766340891
 20
278.3322437077
 10
132.5833636561
 20
278.3326058921
 10
132.7018129864
 20
278.3330352927
 10
132.8307788113
 20
278.3335275395
 10
132.9689461032
 20
278.3340776219
 10
133.1149104276
 20
278.3346799438
 10
133.2671891192
 20
278.3353283744
 10
133.4242287317
 20
278.3360163153
  0
SPLINE
  5
196
330
1F
100
AcDbEntity
  8
0
  6
SLD-Durchgehend
 62
     8
370
     0
100
AcDbSpline
210
0.0
220
0.0
230
1.0
 70
     8
 71
     3
 72
     8
 73
     4
 74
     0
 42
0.00000001
 43
0.00000001
 40
0.0
 40
0.0
 40
0.0
 40
0.0
 40
1.0
 40
1.0
 40
1.0
 40
1.0
 10
132.1385158821996
 20
278.3319524238118
 30
0.0
 10
132.1024077140462
 20
278.3316839681358
 30
0.0
 10
132.1899311554274
 20
278.3317137700529
 30
0.0
 10
132.3827099970048
 20
278.3319524238073
 30
0.0
  0
ARC
  5
197
330
1F
100
AcDbEntity
  8
0
  6
SLD-Durchgehend
 62
     8
370
     0
100
AcDbCircle
 10
240.1719370643
 20
-182.3040629217
 30
0.0
 40
460.640727989016
100
AcDbArc
 50
89.7429003019
 51
89.9038378648
  0
LINE
  5
198
330
1F
100
AcDbEntity
  8
0
  6
SLD-Durchgehend
 62
     8
370
     0
100
AcDbLine
 10
140.7958890537
 20
278.3319524238
 30
0.0
 11
141.2973876336
 21
278.3319524238
 31
0.0
  0
SPLINE
  5
199
330
1F
100
AcDbEntity
  8
0
  6
SLD-Durchgehend
 62
     8
370
     0
100
AcDbSpline
210
0.0
220
0.0
230
1.0
 70
     8
 71
     3
 72
    24
 73
    20
 74
     0
 42
0.00000001
 43
0.00000001
 40
0.0
 40
0.0
 40
0.0
 40
0.0
 40
0.0872808547498065
 40
0.1745427648128747
 40
0.2338888683409759
 40
0.2932652589816993
 40
0.352496027682521
 40
0.4099600816947556
 40
0.4686380798051502
 40
0.5262603423156837
 40
0.5862084621195905
 40
0.6202033369698031
 40
0.6542119497101797
 40
0.7239852622252203
 40
0.7387875523645535
 40
0.7980351727494058
 40
0.8567244371897594
 40
0.9154247647952818
 40
1.0
 40
1.0
 40
1.0
 40
1.0
 10
141.2973876336312
 20
278.3319524237917
 30
0.0
 10
141.3205234852366
 20
276.156760165925
 30
0.0
 10
141.3667901667109
 20
271.806847785072
 30
0.0
 10
141.7805333046204
 20
265.9890972942863
 30
0.0
 10
142.3964236640857
 20
260.8914953637438
 30
0.0
 10
143.2024295565575
 20
256.5268297127997
 30
0.0
 10
144.3605678994325
 20
252.288133281252
 30
0.0
 10
145.968819153563
 20
248.212223784223
 30
0.0
 10
148.1614608175655
 20
244.4526908610661
 30
0.0
 10
151.0666859383113
 20
241.1204672867525
 30
0.0
 10
154.0998221810348
 20
238.8249983103296
 30
0.0
 10
156.8940388674025
 20
237.2812833352403
 30
0.0
 10
160.0388304331764
 20
235.8942926731551
 30
0.0
 10
162.8718976149798
 20
235.0177163362657
 30
0.0
 10
166.3559349807444
 20
234.1786994290187
 30
0.0
 10
169.6111632684421
 20
233.570835194388
 30
0.0
 10
173.9802449909557
 20
233.0274553715362
 30
0.0
 10
178.9982294040601
 20
232.6094390545355
 30
0.0
 10
182.5692014081511
 20
232.5520103463616
 30
0.0
 10
184.6771379692202
 20
232.5181103120079
 30
0.0
  0
SPLINE
  5
19A
330
1F
100
AcDbEntity
  8
0
  6
SLD-Durchgehend
 62
     8
370
     0
100
AcDbSpline
210
0.0
220
0.0
230
1.0
 70
     8
 71
     3
 72
    42
 73
    38
 74
     0
 42
0.00000001
 43
0.00000001
 40
0.0
 40
0.0
 40
0.0
 40
0.0
 40
0.1250000000000004
 40
0.1250000000000004
 40
0.1875000000000005
 40
0.1875000000000005
 40
0.2500000000000007
 40
0.2500000000000007
 40
0.3125000000000008
 40
0.3125000000000008
 40
0.3750000000000009
 40
0.3750000000000009
 40
0.4062500000000011
 40
0.4062500000000011
 40
0.4218750000000011
 40
0.4218750000000011
 40
0.4375000000000011
 40
0.4375000000000011
 40
0.5000000000000013
 40
0.5000000000000013
 40
0.5156250000000011
 40
0.5156250000000011
 40
0.531250000000001
 40
0.531250000000001
 40
0.562500000000001
 40
0.562500000000001
 40
0.6250000000000008
 40
0.6250000000000008
 40
0.6875000000000007
 40
0.6875000000000007
 40
0.7500000000000006
 40
0.7500000000000006
 40
0.8125000000000004
 40
0.8125000000000004
 40
0.8750000000000002
 40
0.8750000000000002
 40
1.0
 40
1.0
 40
1.0
 40
1.0
 10
233.0718879853096
 20
278.3319524238073
 30
0.0
 10
233.0718879853096
 20
281.550644594117
 30
0.0
 10
232.9802109050966
 20
284.7599042774772
 30
0.0
 10
232.6523905954061
 20
289.5542137014195
 30
0.0
 10
232.5110867221505
 20
291.1490212897405
 30
0.0
 10
232.1439019793037
 20
294.329934494065
 30
0.0
 10
231.9181667058689
 20
295.9160550901905
 30
0.0
 10
231.3492998704347
 20
299.0762175932288
 30
0.0
 10
231.0059369815443
 20
300.6523538427718
 30
0.0
 10
230.1496234170069
 20
303.7783880716419
 30
0.0
 10
229.6421754175175
 20
305.3089235124195
 30
0.0
 10
228.7157844266306
 20
307.5370446583896
 30
0.0
 10
228.3792223549394
 20
308.268377734896
 30
0.0
 10
227.8249012758308
 20
309.345108682051
 30
0.0
 10
227.6318902923138
 20
309.7006445889684
 30
0.0
 10
227.2280522692666
 20
310.4044180494981
 30
0.0
 10
227.0167599189663
 20
310.7533058350125
 30
0.0
 10
225.9234973871297
 20
312.4609432397381
 30
0.0
 10
224.9249016569104
 20
313.720497357173
 30
0.0
 10
223.504951003392
 20
315.1473724248251
 30
0.0
 10
223.2123906966796
 20
315.4253820568628
 30
0.0
 10
222.6100627140603
 20
315.9666129620439
 30
0.0
 10
222.2994707023268
 20
316.2304859899031
 30
0.0
 10
221.3479057803438
 20
316.9951176257852
 30
0.0
 10
220.6908309800083
 20
317.4663159889132
 30
0.0
 10
218.6587401551877
 20
318.7765208968108
 30
0.0
 10
217.2228200979725
 20
319.5120733760615
 30
0.0
 10
214.2242285604709
 20
320.7678732153574
 30
0.0
 10
212.6943546196508
 20
321.2765523973982
 30
0.0
 10
209.5989214706413
 20
322.1304343658405
 30
0.0
 10
208.0319860594833
 20
322.4753387913672
 30
0.0
 10
204.8710487343578
 20
323.0496129310097
 30
0.0
 10
203.2770042874426
 20
323.2788010911261
 30
0.0
 10
200.0689797535344
 20
323.6520811416486
 30
0.0
 10
198.4617104487959
 20
323.7953355722026
 30
0.0
 10
193.6363818312441
 20
324.1271163775431
 30
0.0
 10
190.4128722522463
 20
324.2192024238073
 30
0.0
 10
187.1846379853096
 20
324.2192024238073
 30
0.0
  0
LINE
  5
19B
330
1F
100
AcDbEntity
  8
0
  6
SLD-Durchgehend
 62
     8
370
     0
100
AcDbLine
 10
187.1846379853
 20
324.2192006479
 30
0.0
 11
187.1846379853
 21
324.7207029531
 31
0.0
  0
LINE
  5
19C
330
1F
100
AcDbEntity
  8
0
  6
SLD-Durchgehend
 62
     8
370
     0
100
AcDbLine
 10
233.0718885401
 20
278.3319524238
 30
0.0
 11
233.5733871201
 21
278.3319524238
 31
0.0
  0
SPLINE
  5
19D
330
1F
100
AcDbEntity
  8
0
  6
SLD-Durchgehend
 62
     8
370
     0
100
AcDbSpline
210
0.0
220
0.0
230
1.0
 70
     8
 71
     3
 72
    42
 73
    38
 74
     0
 42
0.00000001
 43
0.00000001
 40
0.0
 40
0.0
 40
0.0
 40
0.0
 40
0.125
 40
0.125
 40
0.1875000000000001
 40
0.1875000000000001
 40
0.2500000000000002
 40
0.2500000000000002
 40
0.3125000000000002
 40
0.3125000000000002
 40
0.3750000000000003
 40
0.3750000000000003
 40
0.4062500000000003
 40
0.4062500000000003
 40
0.4218750000000004
 40
0.4218750000000004
 40
0.4375000000000004
 40
0.4375000000000004
 40
0.5000000000000003
 40
0.5000000000000003
 40
0.5156250000000002
 40
0.5156250000000002
 40
0.5312500000000001
 40
0.5312500000000001
 40
0.5625000000000002
 40
0.5625000000000002
 40
0.6250000000000002
 40
0.6250000000000002
 40
0.6875000000000002
 40
0.6875000000000002
 40
0.7500000000000003
 40
0.7500000000000003
 40
0.8125000000000003
 40
0.8125000000000003
 40
0.8750000000000002
 40
0.8750000000000002
 40
1.0
 40
1.0
 40
1.0
 40
1.0
 10
187.1846379853096
 20
324.2192024238073
 30
0.0
 10
183.9659458149998
 20
324.2192024238073
 30
0.0
 10
180.7566861316397
 20
324.1275253435944
 30
0.0
 10
175.9623767076975
 20
323.799705033904
 30
0.0
 10
174.3675691193764
 20
323.6584011606483
 30
0.0
 10
171.1866559150519
 20
323.2912164178015
 30
0.0
 10
169.6005353189265
 20
323.0654811443666
 30
0.0
 10
166.4403728158882
 20
322.4966143089324
 30
0.0
 10
164.8642365663451
 20
322.1532514200419
 30
0.0
 10
161.738202337475
 20
321.2969378555046
 30
0.0
 10
160.2076668966974
 20
320.7894898560152
 30
0.0
 10
157.9795457507274
 20
319.8630988651285
 30
0.0
 10
157.2482126742209
 20
319.5265367934372
 30
0.0
 10
156.171481727066
 20
318.9722157143286
 30
0.0
 10
155.8159458201485
 20
318.7792047308116
 30
0.0
 10
155.1121723596188
 20
318.3753667077644
 30
0.0
 10
154.7632845741045
 20
318.1640743574641
 30
0.0
 10
153.0556471693789
 20
317.0708118256275
 30
0.0
 10
151.7960930519439
 20
316.0722160954082
 30
0.0
 10
150.3692179842919
 20
314.6522654418897
 30
0.0
 10
150.0912083522541
 20
314.3597051351774
 30
0.0
 10
149.5499774470731
 20
313.7573771525581
 30
0.0
 10
149.2861044192139
 20
313.4467851408247
 30
0.0
 10
148.5214727833319
 20
312.4952202188415
 30
0.0
 10
148.0502744202037
 20
311.8381454185061
 30
0.0
 10
146.7400695123061
 20
309.8060545936854
 30
0.0
 10
146.0045170330555
 20
308.3701345364702
 30
0.0
 10
144.7487171937595
 20
305.3715429989687
 30
0.0
 10
144.2400380117186
 20
303.8416690581486
 30
0.0
 10
143.3861560432763
 20
300.7462359091391
 30
0.0
 10
143.0412516177496
 20
299.1793004979812
 30
0.0
 10
142.4669774781071
 20
296.0183631728556
 30
0.0
 10
142.2377893179908
 20
294.4243187259405
 30
0.0
 10
141.8645092674684
 20
291.2162941920321
 30
0.0
 10
141.7212548369143
 20
289.6090248872937
 30
0.0
 10
141.3894740315739
 20
284.7836962697418
 30
0.0
 10
141.2973879853096
 20
281.560186690744
 30
0.0
 10
141.2973879853096
 20
278.3319524238073
 30
0.0
  0
SPLINE
  5
19E
330
1F
100
AcDbEntity
  8
0
  6
SLD-Durchgehend
 62
     8
370
     0
100
AcDbSpline
210
0.0
220
0.0
230
1.0
 70
     8
 71
     3
 72
    23
 73
    19
 74
     0
 42
0.00000001
 43
0.00000001
 40
0.0
 40
0.0
 40
0.0
 40
0.0
 40
0.0456812649412906
 40
0.1248979274059739
 40
0.2052219561473718
 40
0.2854634646581254
 40
0.3470210889896972
 40
0.4096824235466059
 40
0.4599235634353089
 40
0.51161232513
 40
0.5618634851234333
 40
0.6132929612303637
 40
0.6614301458796039
 40
0.7095986978316771
 40
0.7588149385494787
 40
0.8080427393783985
 40
0.9038529978677244
 40
1.0
 40
1.0
 40
1.0
 40
1.0
 10
189.692137971679
 20
232.4917389819851
 30
0.0
 10
190.8305304989504
 20
232.5055236698486
 30
0.0
 10
193.9430289688019
 20
232.543212620588
 30
0.0
 10
199.0488270204449
 20
232.8839455692445
 30
0.0
 10
204.9891321992136
 20
233.5594469894007
 30
0.0
 10
210.423953777786
 20
234.6659991071929
 30
0.0
 10
215.2847756057601
 20
236.2270115212299
 30
0.0
 10
219.2171254121878
 20
238.1295539205615
 30
0.0
 10
222.5710379131818
 20
240.5216099606671
 30
0.0
 10
225.242868572891
 20
243.2423881335263
 30
0.0
 10
227.4195911689206
 20
246.4039301369056
 30
0.0
 10
229.0604627932706
 20
249.7701408065286
 30
0.0
 10
230.2854232961698
 20
253.2478844361912
 30
0.0
 10
231.1916247951216
 20
256.7626565422693
 30
0.0
 10
231.8701206808086
 20
260.3548649091239
 30
0.0
 10
232.5142940875959
 20
265.1539059732108
 30
0.0
 10
232.982544511216
 20
271.1518852132807
 30
0.0
 10
233.0420723879412
 20
275.9357992714566
 30
0.0
 10
233.0718885400986
 20
278.3319524237917
 30
0.0
  0
ENDSEC
  0
SECTION
  2
OBJECTS
  0
DICTIONARY
  5
C
330
0
100
AcDbDictionary
281
     1
  3
ACAD_GROUP
350
D
  3
ACAD_LAYOUT
350
1A
  3
ACAD_MLINESTYLE
350
17
  3
ACAD_PLOTSETTINGS
350
19
  3
ACAD_PLOTSTYLENAME
350
E
  0
DICTIONARY
  5
D
102
{ACAD_REACTORS
330
C
102
}
330
C
100
AcDbDictionary
281
     1
  0
DICTIONARY
  5
1A
102
{ACAD_REACTORS
330
C
102
}
330
C
100
AcDbDictionary
281
     1
  3
Layout1
350
1E
  3
Layout2
350
26
  3
Model
350
22
  0
DICTIONARY
  5
17
102
{ACAD_REACTORS
330
C
102
}
330
C
100
AcDbDictionary
281
     1
  3
Standard
350
18
  0
DICTIONARY
  5
19
102
{ACAD_REACTORS
330
C
102
}
330
C
100
AcDbDictionary
281
     1
  0
ACDBDICTIONARYWDFLT
  5
E
102
{ACAD_REACTORS
330
C
102
}
330
C
100
AcDbDictionary
281
     1
  3
Normal
350
F
100
AcDbDictionaryWithDefault
340
F
  0
LAYOUT
  5
1E
102
{ACAD_REACTORS
330
1A
102
}
330
1A
100
AcDbPlotSettings
  1

  2
none_device
  4

  6

 40
0.0
 41
0.0
 42
0.0
 43
0.0
 44
0.0
 45
0.0
 46
0.0
 47
0.0
 48
0.0
 49
0.0
140
0.0
141
0.0
142
1.0
143
1.0
 70
   688
 72
     0
 73
     0
 74
     5
  7

 75
    16
147
1.0
148
0.0
149
0.0
100
AcDbLayout
  1
Layout1
 70
     1
 71
     1
 10
0.0
 20
0.0
 11
420.0
 21
297.0
 12
0.0
 22
0.0
 32
0.0
 14
1.0000000000E+20
 24
1.0000000000E+20
 34
1.0000000000E+20
 15
-1.0000000000E+20
 25
-1.0000000000E+20
 35
-1.0000000000E+20
146
0.0
 13
0.0
 23
0.0
 33
0.0
 16
1.0
 26
0.0
 36
0.0
 17
0.0
 27
1.0
 37
0.0
 76
     0
330
1B
  0
LAYOUT
  5
26
102
{ACAD_REACTORS
330
1A
102
}
330
1A
100
AcDbPlotSettings
  1

  2
none_device
  4

  6

 40
0.0
 41
0.0
 42
0.0
 43
0.0
 44
0.0
 45
0.0
 46
0.0
 47
0.0
 48
0.0
 49
0.0
140
0.0
141
0.0
142
1.0
143
1.0
 70
   688
 72
     0
 73
     0
 74
     5
  7

 75
    16
147
1.0
148
0.0
149
0.0
100
AcDbLayout
  1
Layout2
 70
     1
 71
     2
 10
0.0
 20
0.0
 11
0.0
 21
0.0
 12
0.0
 22
0.0
 32
0.0
 14
0.0
 24
0.0
 34
0.0
 15
0.0
 25
0.0
 35
0.0
146
0.0
 13
0.0
 23
0.0
 33
0.0
 16
1.0
 26
0.0
 36
0.0
 17
0.0
 27
1.0
 37
0.0
 76
     0
330
23
  0
LAYOUT
  5
22
102
{ACAD_REACTORS
330
1A
102
}
330
1A
100
AcDbPlotSettings
  1

  2
none_device
  4

  6

 40
0.0
 41
0.0
 42
0.0
 43
0.0
 44
0.0
 45
0.0
 46
0.0
 47
0.0
 48
0.0
 49
0.0
140
0.0
141
0.0
142
1.0
143
1.0
 70
  1712
 72
     0
 73
     0
 74
     0
  7

 75
     0
147
1.0
148
0.0
149
0.0
100
AcDbLayout
  1
Model
 70
     1
 71
     0
 10
0.0
 20
0.0
 11
594.0
 21
841.0
 12
0.0
 22
0.0
 32
0.0
 14
0.0
 24
0.0
 34
0.0
 15
594.0
 25
841.0
 35
0.0
146
0.0
 13
0.0
 23
0.0
 33
0.0
 16
1.0
 26
0.0
 36
0.0
 17
0.0
 27
1.0
 37
0.0
 76
     0
330
1F
331
29
  0
MLINESTYLE
  5
18
102
{ACAD_REACTORS
330
17
102
}
330
17
100
AcDbMlineStyle
  2
Standard
 70
     0
  3

 62
   256
 51
90.0
 52
90.0
 71
     2
 49
0.5
 62
   256
  6
BYLAYER
 49
-0.5
 62
   256
  6
BYLAYER
  0
ACDBPLACEHOLDER
  5
F
102
{ACAD_REACTORS
330
E
102
}
330
E
  0
ENDSEC
  0
EOF
