  0
SECTION
  2
HEADER
  9
$ACADVER
  1
AC1024
  9
$ACADMAINTVER
 70
     6
  9
$DWGCODEPAGE
  3
ANSI_1252
  9
$INSBASE
 10
0.0
 20
0.0
 30
0.0
  9
$EXTMIN
 10
0.0
 20
0.0
 30
0.0
  9
$EXTMAX
 10
594.0
 20
841.0
 30
0.0
  9
$LIMMIN
 10
0.0
 20
0.0
  9
$LIMMAX
 10
594.0
 20
841.0
  9
$ORTHOMODE
 70
     0
  9
$REGENMODE
 70
     1
  9
$FILLMODE
 70
     1
  9
$QTEXTMODE
 70
     0
  9
$MIRRTEXT
 70
     1
  9
$LTSCALE
 40
1.0
  9
$ATTMODE
 70
     1
  9
$TEXTSIZE
 40
10.0
  9
$TRACEWID
 40
1.0
  9
$TEXTSTYLE
  7
Standard
  9
$CLAYER
  8
0
  9
$CELTYPE
  6
ByLayer
  9
$CECOLOR
 62
   256
  9
$CELTSCALE
 40
1.0
  9
$DISPSILH
 70
     0
  9
$DIMSCALE
 40
1.0
  9
$DIMASZ
 40
2.5
  9
$DIMEXO
 40
0.0
  9
$DIMDLI
 40
3.75
  9
$DIMRND
 40
0.0
  9
$DIMDLE
 40
0.0
  9
$DIMEXE
 40
1.0
  9
$DIMTP
 40
0.0
  9
$DIMTM
 40
0.0
  9
$DIMTXT
 40
3.5
  9
$DIMCEN
 40
2.5
  9
$DIMTSZ
 40
0.0
  9
$DIMTOL
 70
     0
  9
$DIMLIM
 70
     0
  9
$DIMTIH
 70
     1
  9
$DIMTOH
 70
     1
  9
$DIMSE1
 70
     0
  9
$DIMSE2
 70
     0
  9
$DIMTAD
 70
     1
  9
$DIMZIN
 70
     0
  9
$DIMBLK
  1

  9
$DIMASO
 70
     1
  9
$DIMSHO
 70
     1
  9
$DIMPOST
  1

  9
$DIMAPOST
  1

  9
$DIMALT
 70
     0
  9
$DIMALTD
 70
     3
  9
$DIMALTF
 40
0.0393700787
  9
$DIMLFAC
 40
1.0
  9
$DIMTOFL
 70
     1
  9
$DIMTVP
 40
0.0
  9
$DIMTIX
 70
     0
  9
$DIMSOXD
 70
     0
  9
$DIMSAH
 70
     0
  9
$DIMBLK1
  1

  9
$DIMBLK2
  1

  9
$DIMSTYLE
  2
ISO-25
  9
$DIMCLRD
 70
     0
  9
$DIMCLRE
 70
     0
  9
$DIMCLRT
 70
     0
  9
$DIMTFAC
 40
1.0
  9
$DIMGAP
 40
1.5
  9
$DIMJUST
 70
     0
  9
$DIMSD1
 70
     0
  9
$DIMSD2
 70
     0
  9
$DIMTOLJ
 70
     0
  9
$DIMTZIN
 70
     0
  9
$DIMALTZ
 70
     0
  9
$DIMALTTZ
 70
     0
  9
$DIMUPT
 70
     0
  9
$DIMDEC
 70
     2
  9
$DIMTDEC
 70
     2
  9
$DIMALTU
 70
     2
  9
$DIMALTTD
 70
     3
  9
$DIMTXSTY
  7
Standard
  9
$DIMAUNIT
 70
     0
  9
$DIMADEC
 70
     2
  9
$DIMALTRND
 40
0.0
  9
$DIMAZIN
 70
     0
  9
$DIMDSEP
 70
    44
  9
$DIMATFIT
 70
     3
  9
$DIMFRAC
 70
     0
  9
$DIMLDRBLK
  1

  9
$DIMLUNIT
 70
     2
  9
$DIMLWD
 70
    -2
  9
$DIMLWE
 70
    -2
  9
$DIMTMOVE
 70
     0
  9
$DIMFXL
 40
1.0
  9
$DIMFXLON
 70
     0
  9
$DIMJOGANG
 40
0.7853981634
  9
$DIMTFILL
 70
     0
  9
$DIMTFILLCLR
 70
     0
  9
$DIMARCSYM
 70
     0
  9
$DIMLTYPE
  6

  9
$DIMLTEX1
  6

  9
$DIMLTEX2
  6

  9
$DIMTXTDIRECTION
 70
     0
  9
$LUNITS
 70
     2
  9
$LUPREC
 70
     2
  9
$SKETCHINC
 40
1.0
  9
$FILLETRAD
 40
10.0
  9
$AUNITS
 70
     0
  9
$AUPREC
 70
     2
  9
$MENU
  1
.
  9
$ELEVATION
 40
0.0
  9
$PELEVATION
 40
0.0
  9
$THICKNESS
 40
0.0
  9
$LIMCHECK
 70
     0
  9
$CHAMFERA
 40
10.0
  9
$CHAMFERB
 40
10.0
  9
$CHAMFERC
 40
20.0
  9
$CHAMFERD
 40
0.0
  9
$SKPOLY
 70
     0
  9
$TDCREATE
 40
2456237.403965775
  9
$TDUCREATE
 40
2456237.362299109
  9
$TDUPDATE
 40
2456237.403967037
  9
$TDUUPDATE
 40
2456237.36230037
  9
$TDINDWG
 40
0.0000000116
  9
$TDUSRTIMER
 40
0.0000000116
  9
$USRTIMER
 70
     1
  9
$ANGBASE
 50
0.0
  9
$ANGDIR
 70
     0
  9
$PDMODE
 70
     0
  9
$PDSIZE
 40
-1.0
  9
$PLINEWID
 40
0.0
  9
$SPLFRAME
 70
     0
  9
$SPLINETYPE
 70
     6
  9
$SPLINESEGS
 70
     8
  9
$HANDSEED
  5
165
  9
$SURFTAB1
 70
     6
  9
$SURFTAB2
 70
     6
  9
$SURFTYPE
 70
     6
  9
$SURFU
 70
     6
  9
$SURFV
 70
     6
  9
$UCSBASE
  2

  9
$UCSNAME
  2

  9
$UCSORG
 10
0.0
 20
0.0
 30
0.0
  9
$UCSXDIR
 10
1.0
 20
0.0
 30
0.0
  9
$UCSYDIR
 10
0.0
 20
1.0
 30
0.0
  9
$UCSORTHOREF
  2

  9
$UCSORTHOVIEW
 70
     0
  9
$UCSORGTOP
 10
0.0
 20
0.0
 30
0.0
  9
$UCSORGBOTTOM
 10
0.0
 20
0.0
 30
0.0
  9
$UCSORGLEFT
 10
0.0
 20
0.0
 30
0.0
  9
$UCSORGRIGHT
 10
0.0
 20
0.0
 30
0.0
  9
$UCSORGFRONT
 10
0.0
 20
0.0
 30
0.0
  9
$UCSORGBACK
 10
0.0
 20
0.0
 30
0.0
  9
$PUCSBASE
  2

  9
$PUCSNAME
  2

  9
$PUCSORG
 10
0.0
 20
0.0
 30
0.0
  9
$PUCSXDIR
 10
1.0
 20
0.0
 30
0.0
  9
$PUCSYDIR
 10
0.0
 20
1.0
 30
0.0
  9
$PUCSORTHOREF
  2

  9
$PUCSORTHOVIEW
 70
     0
  9
$PUCSORGTOP
 10
0.0
 20
0.0
 30
0.0
  9
$PUCSORGBOTTOM
 10
0.0
 20
0.0
 30
0.0
  9
$PUCSORGLEFT
 10
0.0
 20
0.0
 30
0.0
  9
$PUCSORGRIGHT
 10
0.0
 20
0.0
 30
0.0
  9
$PUCSORGFRONT
 10
0.0
 20
0.0
 30
0.0
  9
$PUCSORGBACK
 10
0.0
 20
0.0
 30
0.0
  9
$USERI1
 70
     0
  9
$USERI2
 70
     0
  9
$USERI3
 70
     0
  9
$USERI4
 70
     0
  9
$USERI5
 70
     0
  9
$USERR1
 40
0.0
  9
$USERR2
 40
0.0
  9
$USERR3
 40
0.0
  9
$USERR4
 40
0.0
  9
$USERR5
 40
0.0
  9
$WORLDVIEW
 70
     1
  9
$SHADEDGE
 70
     3
  9
$SHADEDIF
 70
    70
  9
$TILEMODE
 70
     1
  9
$MAXACTVP
 70
    64
  9
$PINSBASE
 10
0.0
 20
0.0
 30
0.0
  9
$PLIMCHECK
 70
     0
  9
$PEXTMIN
 10
1.0000000000E+20
 20
1.0000000000E+20
 30
1.0000000000E+20
  9
$PEXTMAX
 10
-1.0000000000E+20
 20
-1.0000000000E+20
 30
-1.0000000000E+20
  9
$PLIMMIN
 10
0.0
 20
0.0
  9
$PLIMMAX
 10
420.0
 20
297.0
  9
$UNITMODE
 70
     0
  9
$VISRETAIN
 70
     1
  9
$PLINEGEN
 70
     0
  9
$PSLTSCALE
 70
     1
  9
$TREEDEPTH
 70
  3020
  9
$CMLSTYLE
  2
Standard
  9
$CMLJUST
 70
     0
  9
$CMLSCALE
 40
20.0
  9
$PROXYGRAPHICS
 70
     1
  9
$MEASUREMENT
 70
     1
  9
$CELWEIGHT
370
    -1
  9
$ENDCAPS
280
     0
  9
$JOINSTYLE
280
     0
  9
$LWDISPLAY
290
     1
  9
$INSUNITS
 70
     4
  9
$HYPERLINKBASE
  1

  9
$STYLESHEET
  1

  9
$XEDIT
290
     1
  9
$CEPSNTYPE
380
     0
  9
$PSTYLEMODE
290
     1
  9
$FINGERPRINTGUID
  2
{4A303974-E543-450B-9163-718EECB721C7}
  9
$VERSIONGUID
  2
{FAEB1C32-E019-11D5-929B-00C0DF256EC4}
  9
$EXTNAMES
290
     1
  9
$PSVPSCALE
 40
0.0
  9
$OLESTARTUP
290
     0
  9
$SORTENTS
280
   127
  9
$INDEXCTL
280
     0
  9
$HIDETEXT
280
     1
  9
$XCLIPFRAME
280
     2
  9
$HALOGAP
280
     0
  9
$OBSCOLOR
 70
   257
  9
$OBSLTYPE
280
     0
  9
$INTERSECTIONDISPLAY
280
     0
  9
$INTERSECTIONCOLOR
 70
   257
  9
$DIMASSOC
280
     2
  9
$PROJECTNAME
  1

  9
$CAMERADISPLAY
290
     0
  9
$LENSLENGTH
 40
50.0
  9
$CAMERAHEIGHT
 40
0.0
  9
$STEPSPERSEC
 40
2.0
  9
$STEPSIZE
 40
6.0
  9
$3DDWFPREC
 40
2.0
  9
$PSOLWIDTH
 40
5.0
  9
$PSOLHEIGHT
 40
80.0
  9
$LOFTANG1
 40
1.5707963268
  9
$LOFTANG2
 40
1.5707963268
  9
$LOFTMAG1
 40
0.0
  9
$LOFTMAG2
 40
0.0
  9
$LOFTPARAM
 70
     7
  9
$LOFTNORMALS
280
     1
  9
$LATITUDE
 40
37.795
  9
$LONGITUDE
 40
-122.394
  9
$NORTHDIRECTION
 40
0.0
  9
$TIMEZONE
 70
 -8000
  9
$LIGHTGLYPHDISPLAY
280
     1
  9
$TILEMODELIGHTSYNCH
280
     1
  9
$SOLIDHIST
280
     1
  9
$SHOWHIST
280
     1
  9
$DWFFRAME
280
     2
  9
$DGNFRAME
280
     2
  9
$REALWORLDSCALE
290
     1
  9
$INTERFERECOLOR
 62
   256
  9
$CSHADOW
280
     0
  9
$SHADOWPLANELOCATION
 40
0.0
  0
ENDSEC
  0
SECTION
  2
CLASSES
  0
CLASS
  1
ACDBDICTIONARYWDFLT
  2
AcDbDictionaryWithDefault
  3
ObjectDBX Classes
 90
        0
 91
        4
280
     0
281
     0
  0
CLASS
  1
VISUALSTYLE
  2
AcDbVisualStyle
  3
ObjectDBX Classes
 90
     4095
 91
        4
280
     0
281
     0
  0
CLASS
  1
MATERIAL
  2
AcDbMaterial
  3
ObjectDBX Classes
 90
     1153
 91
        4
280
     0
281
     0
  0
ENDSEC
  0
SECTION
  2
TABLES
  0
TABLE
  2
VPORT
  5
8
330
0
100
AcDbSymbolTable
 70
     1
  0
VPORT
  5
29
330
8
100
AcDbSymbolTableRecord
100
AcDbViewportTableRecord
  2
*Active
 70
     0
 10
0.0
 20
0.0
 11
1.0
 21
1.0
 12
297.0
 22
420.5
 13
0.0
 23
0.0
 14
10.0
 24
10.0
 15
10.0
 25
10.0
 16
0.0
 26
0.0
 36
1.0
 17
0.0
 27
0.0
 37
0.0
 40
841.0
 41
0.7063020214
 42
50.0
 43
0.0
 44
0.0
 50
0.0
 51
0.0
 71
     0
 72
  2000
 73
     1
 74
     3
 75
     0
 76
     0
 77
     0
 78
     0
281
     0
 65
     1
110
0.0
120
0.0
130
0.0
111
1.0
121
0.0
131
0.0
112
0.0
122
1.0
132
0.0
 79
     0
146
0.0
 60
     3
 61
     5
292
     1
282
     1
141
0.0
142
0.0
 63
   250
  0
ENDTAB
  0
TABLE
  2
LTYPE
  5
5
330
0
100
AcDbSymbolTable
 70
     6
  0
LTYPE
  5
14
330
5
100
AcDbSymbolTableRecord
100
AcDbLinetypeTableRecord
  2
ByBlock
 70
     0
  3

 72
    65
 73
     0
 40
0.0
  0
LTYPE
  5
15
330
5
100
AcDbSymbolTableRecord
100
AcDbLinetypeTableRecord
  2
ByLayer
 70
     0
  3

 72
    65
 73
     0
 40
0.0
  0
LTYPE
  5
16
330
5
100
AcDbSymbolTableRecord
100
AcDbLinetypeTableRecord
  2
Continuous
 70
     0
  3
Solid line
 72
    65
 73
     0
 40
0.0
  0
LTYPE
  5
3F
330
5
100
AcDbSymbolTableRecord
100
AcDbLinetypeTableRecord
  2
HIDDEN
 70
     0
  3
Hidden __ __ __ __ __ __ __ __ __ __ __ __ __ __
 72
    65
 73
     2
 40
1.905
 49
1.27
 74
     0
 49
-0.635
 74
     0
  0
LTYPE
  5
40
330
5
100
AcDbSymbolTableRecord
100
AcDbLinetypeTableRecord
  2
PHANTOM
 70
     0
  3
Phantom ______  __  __  ______  __  __  ______
 72
    65
 73
     6
 40
12.7
 49
6.35
 74
     0
 49
-1.27
 74
     0
 49
1.27
 74
     0
 49
-1.27
 74
     0
 49
1.27
 74
     0
 49
-1.27
 74
     0
  0
LTYPE
  5
41
330
5
100
AcDbSymbolTableRecord
100
AcDbLinetypeTableRecord
  2
CENTER
 70
     0
  3
Center ____ _ ____ _ ____ _ ____ _ ____ _ ____
 72
    65
 73
     4
 40
10.16
 49
6.35
 74
     0
 49
-1.27
 74
     0
 49
1.27
 74
     0
 49
-1.27
 74
     0
  0
LTYPE
  5
42
330
5
100
AcDbSymbolTableRecord
100
AcDbLinetypeTableRecord
  2
CENTERX2
 70
     0
  3
Center (2x) ________  __  ________  __  _____
 72
    65
 73
     4
 40
20.32
 49
12.7
 74
     0
 49
-2.54
 74
     0
 49
2.54
 74
     0
 49
-2.54
 74
     0
  0
LTYPE
  5
43
330
5
100
AcDbSymbolTableRecord
100
AcDbLinetypeTableRecord
  2
DOT2
 70
     0
  3
Dot (.5x) ........................................
 72
    65
 73
     2
 40
0.635
 49
0.0
 74
     0
 49
-0.635
 74
     0
  0
ENDTAB
  0
TABLE
  2
LAYER
  5
2
330
0
100
AcDbSymbolTable
 70
     1
  0
LAYER
  5
10
330
2
100
AcDbSymbolTableRecord
100
AcDbLayerTableRecord
  2
0
 70
     0
 62
     7
  6
Continuous
370
    -3
390
F
347
3E
  0
ENDTAB
  0
TABLE
  2
STYLE
  5
3
330
0
100
AcDbSymbolTable
 70
     3
  0
STYLE
  5
11
330
3
100
AcDbSymbolTableRecord
100
AcDbTextStyleTableRecord
  2
Standard
 70
     0
 40
0.0
 41
1.0
 50
0.0
 71
     0
 42
10.0
  3
txt
  4

  0
STYLE
  5
47
330
3
100
AcDbSymbolTableRecord
100
AcDbTextStyleTableRecord
  2
SLDTEXTSTYLE0
 70
     0
 40
0.0
 41
0.96
 50
0.0
 71
     0
 42
0.2
  3
ISOCP3
  4

  0
STYLE
  5
5E
330
3
100
AcDbSymbolTableRecord
100
AcDbTextStyleTableRecord
  2
SLDTEXTSTYLE1
 70
     0
 40
0.0
 41
0.605
 50
0.0
 71
     0
 42
0.2
  3
TXT
  4

  0
ENDTAB
  0
TABLE
  2
VIEW
  5
6
330
0
100
AcDbSymbolTable
 70
     0
  0
ENDTAB
  0
TABLE
  2
UCS
  5
7
330
0
100
AcDbSymbolTable
 70
     0
  0
ENDTAB
  0
TABLE
  2
APPID
  5
9
330
0
100
AcDbSymbolTable
 70
     1
  0
APPID
  5
12
330
9
100
AcDbSymbolTableRecord
100
AcDbRegAppTableRecord
  2
ACAD
 70
     0
  0
ENDTAB
  0
TABLE
  2
DIMSTYLE
  5
A
330
0
100
AcDbSymbolTable
 70
     2
100
AcDbDimStyleTable
  0
DIMSTYLE
105
27
330
A
100
AcDbSymbolTableRecord
100
AcDbDimStyleTableRecord
  2
ISO-25
 70
     0
 41
2.5
 42
0.625
 43
3.75
 44
1.25
 73
     0
 74
     0
 77
     1
 78
     8
140
2.5
141
2.5
143
0.0393700787
147
0.625
171
     3
172
     1
178
     0
271
     2
272
     2
274
     3
278
    44
283
     0
284
     8
340
11
  0
DIMSTYLE
105
48
102
{ACAD_REACTORS
330
46
330
53
102
}
330
A
100
AcDbSymbolTableRecord
100
AcDbDimStyleTableRecord
  2
SLDDIMSTYLE0
 70
     0
 41
2.5
 44
0.0
 45
0.000000001
 73
     0
 74
     0
 77
     1
 78
    12
 79
     3
140
6.0
147
1.5
173
     1
178
     0
271
     2
272
     2
276
     2
284
    12
340
47
  0
ENDTAB
  0
TABLE
  2
BLOCK_RECORD
  5
1
330
0
100
AcDbSymbolTable
 70
     3
  0
BLOCK_RECORD
  5
1F
330
1
100
AcDbSymbolTableRecord
100
AcDbBlockTableRecord
  2
*Model_Space
340
22
 70
     0
280
     1
281
     0
  0
BLOCK_RECORD
  5
1B
330
1
100
AcDbSymbolTableRecord
100
AcDbBlockTableRecord
  2
*Paper_Space
340
1E
 70
     0
280
     1
281
     0
  0
BLOCK_RECORD
  5
23
330
1
100
AcDbSymbolTableRecord
100
AcDbBlockTableRecord
  2
*Paper_Space0
340
26
 70
     0
280
     1
281
     0
  0
BLOCK_RECORD
  5
49
330
1
100
AcDbSymbolTableRecord
100
AcDbBlockTableRecord
  2
_D
340
0
 70
     0
280
     1
281
     0
  0
BLOCK_RECORD
  5
54
330
1
100
AcDbSymbolTableRecord
100
AcDbBlockTableRecord
  2
_D_1
340
0
 70
     0
280
     1
281
     0
  0
ENDTAB
  0
ENDSEC
  0
SECTION
  2
BLOCKS
  0
BLOCK
  5
20
330
1F
100
AcDbEntity
  8
0
100
AcDbBlockBegin
  2
*Model_Space
 70
     0
 10
0.0
 20
0.0
 30
0.0
  3
*Model_Space
  1

  0
ENDBLK
  5
21
330
1F
100
AcDbEntity
  8
0
100
AcDbBlockEnd
  0
BLOCK
  5
1C
330
1B
100
AcDbEntity
 67
     1
  8
0
100
AcDbBlockBegin
  2
*Paper_Space
 70
     0
 10
0.0
 20
0.0
 30
0.0
  3
*Paper_Space
  1

  0
ENDBLK
  5
1D
330
1B
100
AcDbEntity
 67
     1
  8
0
100
AcDbBlockEnd
  0
BLOCK
  5
24
330
23
100
AcDbEntity
  8
0
100
AcDbBlockBegin
  2
*Paper_Space0
 70
     0
 10
0.0
 20
0.0
 30
0.0
  3
*Paper_Space0
  1

  0
ENDBLK
  5
25
330
23
100
AcDbEntity
  8
0
100
AcDbBlockEnd
  0
BLOCK
  5
4A
330
49
100
AcDbEntity
  8
0
100
AcDbBlockBegin
  2
_D
 70
     0
 10
0.0
 20
0.0
 30
0.0
  3
_D
  1

  0
SOLID
  5
4C
330
49
100
AcDbEntity
  8
0
  6
Continuous
 62
     7
370
     0
100
AcDbTrace
 10
42.7614395004
 20
152.0299240879
 30
0.0
 11
42.4614395004
 21
149.5299240879
 31
0.0
 12
43.0614395004
 22
149.5299240879
 32
0.0
 13
43.0614395004
 23
149.5299240879
 33
0.0
  0
SOLID
  5
4D
330
49
100
AcDbEntity
  8
0
  6
Continuous
 62
     7
370
     0
100
AcDbTrace
 10
42.7614395004
 20
52.0299240879
 30
0.0
 11
43.0614395004
 21
54.5299240879
 31
0.0
 12
42.4614395004
 22
54.5299240879
 32
0.0
 13
42.4614395004
 23
54.5299240879
 33
0.0
  0
LINE
  5
4E
330
49
100
AcDbEntity
  8
0
  6
Continuous
 62
     7
370
     0
100
AcDbLine
 10
56.6850079902
 20
152.0299240879
 30
0.0
 11
41.7614395004
 21
152.0299240879
 31
0.0
  0
LINE
  5
4F
330
49
100
AcDbEntity
  8
0
  6
Continuous
 62
     7
370
     0
100
AcDbLine
 10
56.6850079902
 20
52.0299240879
 30
0.0
 11
41.7614395004
 21
52.0299240879
 31
0.0
  0
LINE
  5
50
330
49
100
AcDbEntity
  8
0
  6
Continuous
 62
     7
370
     0
100
AcDbLine
 10
42.7614395004
 20
152.0299240879
 30
0.0
 11
42.7614395004
 21
52.0299240879
 31
0.0
  0
MTEXT
  5
51
330
49
100
AcDbEntity
  8
0
  6
Continuous
 62
     7
370
     0
100
AcDbMText
 10
35.0270332946
 20
91.6722208134
 30
0.1
 40
6.0
 41
0.0
 46
0.0
 71
     1
 72
     1
  1
100
  7
SLDTEXTSTYLE0
 11
-7.044195017643634E-15
 21
1.0
 31
0.0
 73
     1
 44
1.0
  0
MTEXT
  5
52
330
49
100
AcDbEntity
  8
0
  6
Continuous
 62
     7
370
     0
100
AcDbMText
 10
35.0270332946
 20
108.4388881795
 30
0.1
 40
6.0
 41
0.0
 46
0.0
 71
     1
 72
     1
  1
mm
  7
SLDTEXTSTYLE0
 11
-7.044195017643634E-15
 21
1.0
 31
0.0
 73
     1
 44
1.0
  0
ENDBLK
  5
4B
330
49
100
AcDbEntity
  8
0
100
AcDbBlockEnd
  0
BLOCK
  5
55
330
54
100
AcDbEntity
  8
0
100
AcDbBlockBegin
  2
_D_1
 70
     0
 10
0.0
 20
0.0
 30
0.0
  3
_D_1
  1

  0
SOLID
  5
57
330
54
100
AcDbEntity
  8
0
  6
Continuous
 62
     7
370
     0
100
AcDbTrace
 10
56.6850079902
 20
38.4602342313
 30
0.0
 11
59.1850079902
 21
38.1602342313
 31
0.0
 12
59.1850079902
 22
38.7602342313
 32
0.0
 13
59.1850079902
 23
38.7602342313
 33
0.0
  0
SOLID
  5
58
330
54
100
AcDbEntity
  8
0
  6
Continuous
 62
     7
370
     0
100
AcDbTrace
 10
156.6850079902
 20
38.4602342313
 30
0.0
 11
154.1850079902
 21
38.7602342313
 31
0.0
 12
154.1850079902
 22
38.1602342313
 32
0.0
 13
154.1850079902
 23
38.1602342313
 33
0.0
  0
LINE
  5
59
330
54
100
AcDbEntity
  8
0
  6
Continuous
 62
     7
370
     0
100
AcDbLine
 10
56.6850079902
 20
52.0299240879
 30
0.0
 11
56.6850079902
 21
37.4602342313
 31
0.0
  0
LINE
  5
5A
330
54
100
AcDbEntity
  8
0
  6
Continuous
 62
     7
370
     0
100
AcDbLine
 10
156.6850079902
 20
52.0299240879
 30
0.0
 11
156.6850079902
 21
37.4602342313
 31
0.0
  0
LINE
  5
5B
330
54
100
AcDbEntity
  8
0
  6
Continuous
 62
     7
370
     0
100
AcDbLine
 10
56.6850079902
 20
38.4602342313
 30
0.0
 11
156.6850079902
 21
38.4602342313
 31
0.0
  0
MTEXT
  5
5C
330
54
100
AcDbEntity
  8
0
  6
Continuous
 62
     7
370
     0
100
AcDbMText
 10
91.2668151533
 20
46.1946404371
 30
0.1
 40
6.0
 41
0.0
 46
0.0
 71
     1
 72
     1
  1
100
  7
SLDTEXTSTYLE0
 73
     1
 44
1.0
  0
MTEXT
  5
5D
330
54
100
AcDbEntity
  8
0
  6
Continuous
 62
     7
370
     0
100
AcDbMText
 10
108.0334825193
 20
46.1946404371
 30
0.1
 40
6.0
 41
0.0
 46
0.0
 71
     1
 72
     1
  1
mm
  7
SLDTEXTSTYLE0
 73
     1
 44
1.0
  0
ENDBLK
  5
56
330
54
100
AcDbEntity
  8
0
100
AcDbBlockEnd
  0
ENDSEC
  0
SECTION
  2
ENTITIES
  0
LINE
  5
44
330
1F
100
AcDbEntity
  8
0
  6
Continuous
 62
     7
370
     0
100
AcDbLine
 10
56.6850079902
 20
152.0299240879
 30
0.0
 11
56.6850079902
 21
52.0299240879
 31
0.0
  0
LINE
  5
45
330
1F
100
AcDbEntity
  8
0
  6
Continuous
 62
     7
370
     0
100
AcDbLine
 10
56.6850079902
 20
52.0299240879
 30
0.0
 11
156.6850079902
 21
52.0299240879
 31
0.0
  0
DIMENSION
  5
46
330
1F
100
AcDbEntity
  8
0
  6
Continuous
 62
     7
370
     0
100
AcDbDimension
280
     0
  2
_D
 10
42.7614395004
 20
52.0299240879
 30
0.0
 11
42.7614395004
 21
105.4472211621
 31
0.0
 70
   160
  1
<>mm
 71
     2
 42
-1.0
 73
     0
 74
     0
 75
     0
  3
SLDDIMSTYLE0
100
AcDbAlignedDimension
 13
56.6850079902
 23
152.0299240879
 33
0.0
 14
56.6850079902
 24
52.0299240879
 34
0.0
 50
90.0
100
AcDbRotatedDimension
  0
DIMENSION
  5
53
330
1F
100
AcDbEntity
  8
0
  6
Continuous
 62
     7
370
     0
100
AcDbDimension
280
     0
  2
_D_1
 10
156.6850079902
 20
38.4602342313
 30
0.0
 11
105.0418155019
 21
38.4602342313
 31
0.0
 70
   160
  1
<>mm
 71
     2
 42
-1.0
 73
     0
 74
     0
 75
     0
  3
SLDDIMSTYLE0
100
AcDbAlignedDimension
 13
56.6850079902
 23
52.0299240879
 33
0.0
 14
156.6850079902
 24
52.0299240879
 34
0.0
100
AcDbRotatedDimension
  0
MTEXT
  5
5F
330
1F
100
AcDbEntity
  8
0
  6
Continuous
 62
     7
370
     0
100
AcDbMText
 10
274.9291723425
 20
47.5088532562
 30
0.0
 40
10.0
 41
0.0
 46
0.0
 71
     1
 72
     1
  1
38 262 05 75
  7
SLDTEXTSTYLE1
 73
     1
 44
1.0
  0
MTEXT
  5
60
330
1F
100
AcDbEntity
  8
0
  6
Continuous
 62
     7
370
     0
100
AcDbMText
 10
412.8252631579
 20
48.4342449499
 30
0.0
 40
10.0
 41
0.0
 46
0.0
 71
     1
 72
     1
  1
KLUDI GmbH & Co KG
  7
SLDTEXTSTYLE1
 73
     1
 44
1.0
  0
LINE
  5
61
330
1F
100
AcDbEntity
  8
0
  6
Continuous
 62
     7
370
    15
100
AcDbLine
 10
201.7053879267
 20
415.3837202888
 30
0.0
 11
201.7053879267
 21
416.5756064307
 31
0.0
  0
LINE
  5
62
330
1F
100
AcDbEntity
  8
0
  6
Continuous
 62
     7
370
    15
100
AcDbLine
 10
177.6333881012
 20
416.5756064307
 30
0.0
 11
177.6333881012
 21
415.3837202888
 31
0.0
  0
LINE
  5
63
330
1F
100
AcDbEntity
  8
0
  6
Continuous
 62
     7
370
    15
100
AcDbLine
 10
178.6363880551
 20
411.2210213046
 30
0.0
 11
178.968260198
 21
411.0369882386
 31
0.0
  0
LINE
  5
64
330
1F
100
AcDbEntity
  8
0
  6
Continuous
 62
     7
370
    15
100
AcDbLine
 10
200.37051583
 20
411.0369882386
 30
0.0
 11
200.7023879728
 21
411.2210213046
 31
0.0
  0
SPLINE
  5
65
330
1F
100
AcDbEntity
  8
0
  6
Continuous
 62
     7
370
    15
100
AcDbSpline
210
0.0
220
0.0
230
1.0
 70
     8
 71
     3
 72
     9
 73
     5
 74
     0
 42
0.00000001
 43
0.00000001
 12
1.0
 22
0.0
 32
0.0
 13
1.0
 23
0.0
 33
0.0
 40
0.0
 40
0.0
 40
0.0
 40
0.0
 40
0.4167507409729867
 40
1.0
 40
1.0
 40
1.0
 40
1.0
 10
177.2097629896267
 20
415.9274040560896
 30
0.0
 10
177.1446134716678
 20
415.9272962191124
 30
0.0
 10
176.9882861720288
 20
415.9270374625785
 30
0.0
 10
176.8454250293372
 20
415.9264643021833
 30
0.0
 10
176.7621013737185
 20
415.9261300068075
 30
0.0
  0
LINE
  5
66
330
1F
100
AcDbEntity
  8
0
  6
Continuous
 62
     7
370
    15
100
AcDbLine
 10
201.8487100891
 20
415.9280913721
 30
0.0
 11
201.7053879267
 21
415.9283893954
 31
0.0
  0
LINE
  5
67
330
1F
100
AcDbEntity
  8
0
  6
Continuous
 62
     7
370
    15
100
AcDbLine
 10
177.6333881012
 20
415.9282292079
 30
0.0
 11
177.2097629896
 21
415.9274040561
 31
0.0
  0
SPLINE
  5
68
330
1F
100
AcDbEntity
  8
0
  6
Continuous
 62
     7
370
    15
100
AcDbSpline
210
0.0
220
0.0
230
1.0
 70
     8
 71
     3
 72
    20
 73
    16
 74
     0
 42
0.00000001
 43
0.00000001
 12
1.0
 22
0.0
 32
0.0
 13
1.0
 23
0.0
 33
0.0
 40
0.0
 40
0.0
 40
0.0
 40
0.0
 40
0.0268796090683724
 40
0.0776827946507115
 40
0.1340271235883208
 40
0.2011791532677781
 40
0.2808943048494198
 40
0.3627277557262016
 40
0.4445424133333553
 40
0.5678476411083423
 40
0.6924800840767865
 40
0.8103746516763362
 40
0.9181859169789383
 40
0.9869700435691385
 40
1.0
 40
1.0
 40
1.0
 40
1.0
 10
175.7993857777579
 20
434.875968551166
 30
0.0
 10
176.0085427627215
 20
434.8859401154018
 30
0.0
 10
176.61301208634
 20
434.914758204791
 30
0.0
 10
177.6421975097302
 20
434.9588325418577
 30
0.0
 10
179.1117718765712
 20
435.0184283729792
 30
0.0
 10
180.9180603950439
 20
435.0886782725453
 30
0.0
 10
182.998181219205
 20
435.1722902521037
 30
0.0
 10
185.2301361124844
 20
435.2575551272125
 30
0.0
 10
187.8765059267402
 20
435.3231060539939
 30
0.0
 10
190.9264854164127
 20
435.324025509679
 30
0.0
 10
194.3054688644712
 20
435.2422964900568
 30
0.0
 10
197.5190275022354
 20
435.1222224936933
 30
0.0
 10
200.1493802880647
 20
435.0220916270928
 30
0.0
 10
201.7286401069127
 20
434.9590160692656
 30
0.0
 10
202.3790419559838
 20
434.9282363491476
 30
0.0
 10
202.4826269066794
 20
434.9233342785348
 30
0.0
  0
LINE
  5
69
330
1F
100
AcDbEntity
  8
0
  6
Continuous
 62
     7
370
    15
100
AcDbLine
 10
166.600388608
 20
485.919452722
 30
0.0
 11
166.600388608
 21
452.5194070141
 31
0.0
  0
LINE
  5
6A
330
1F
100
AcDbEntity
  8
0
  6
Continuous
 62
     7
370
    15
100
AcDbLine
 10
212.7383883512
 20
452.5194312285
 30
0.0
 11
212.7383883512
 21
485.919452722
 31
0.0
  0
ARC
  5
6B
330
1F
100
AcDbEntity
  8
0
  6
Continuous
 62
     7
370
    15
100
AcDbCircle
 10
168.1048879721
 20
485.9194512471
 30
0.0
 40
1.504500000000007
100
AcDbArc
 50
90.0000000001
 51
180.0000000001
  0
ARC
  5
6C
330
1F
100
AcDbEntity
  8
0
  6
Continuous
 62
     7
370
    15
100
AcDbCircle
 10
211.2338879721
 20
485.9194512472
 30
0.0
 40
1.504500000000007
100
AcDbArc
 50
0.0000000001
 51
90.0000000001
  0
LINE
  5
6D
330
1F
100
AcDbEntity
  8
0
  6
Continuous
 62
     7
370
    15
100
AcDbLine
 10
167.101887188
 20
440.8195363197
 30
0.0
 11
167.101887188
 21
336.5075397145
 31
0.0
  0
LINE
  5
6E
330
1F
100
AcDbEntity
  8
0
  6
Continuous
 62
     7
370
    15
100
AcDbLine
 10
212.2368879086
 20
336.5075397145
 30
0.0
 11
212.2368879086
 21
440.8195363197
 31
0.0
  0
LINE
  5
6F
330
1F
100
AcDbEntity
  8
0
  6
Continuous
 62
     7
370
    15
100
AcDbLine
 10
167.6033876306
 20
442.8255366932
 30
0.0
 11
167.6033876306
 21
440.8195363197
 31
0.0
  0
LINE
  5
70
330
1F
100
AcDbEntity
  8
0
  6
Continuous
 62
     7
370
    15
100
AcDbLine
 10
211.735387466
 20
440.8195363197
 30
0.0
 11
211.735387466
 21
442.8255366932
 31
0.0
  0
ARC
  5
71
330
1F
100
AcDbEntity
  8
0
  6
Continuous
 62
     7
370
    15
100
AcDbCircle
 10
189.669511005
 20
442.8992227096
 30
0.0
 40
22.066
100
AcDbArc
 50
154.7297222202
 51
180.1940401622
  0
ARC
  5
72
330
1F
100
AcDbEntity
  8
0
  6
Continuous
 62
     7
370
    15
100
AcDbCircle
 10
189.669511005
 20
442.8992227096
 30
0.0
 40
22.06600000000001
100
AcDbArc
 50
0.0
 51
25.27027778
  0
SPLINE
  5
73
330
1F
100
AcDbEntity
  8
0
  6
Continuous
 62
     7
370
    15
100
AcDbSpline
210
0.0
220
0.0
230
1.0
 70
     8
 71
     3
 72
    10
 73
     6
 74
     0
 42
0.00000001
 43
0.00000001
 12
1.0
 22
0.0
 32
0.0
 13
1.0
 23
0.0
 33
0.0
 40
0.0
 40
0.0
 40
0.0
 40
0.0
 40
0.3393217207929637
 40
0.679907818415318
 40
1.0
 40
1.0
 40
1.0
 40
1.0
 10
173.7564254022105
 20
434.7691857986839
 30
0.0
 10
173.542279878896
 20
434.73546681226
 30
0.0
 10
173.113190885595
 20
434.6679031960992
 30
0.0
 10
172.5362462170179
 20
434.3250468567767
 30
0.0
 10
172.2678224336649
 20
433.9194505201476
 30
0.0
 10
172.1377737290128
 20
433.7229430515046
 30
0.0
  0
SPLINE
  5
74
330
1F
100
AcDbEntity
  8
0
  6
Continuous
 62
     7
370
    15
100
AcDbSpline
210
0.0
220
0.0
230
1.0
 70
     8
 71
     3
 72
    20
 73
    16
 74
     0
 42
0.00000001
 43
0.00000001
 12
1.0
 22
0.0
 32
0.0
 13
1.0
 23
0.0
 33
0.0
 40
0.0
 40
0.0
 40
0.0
 40
0.0
 40
0.0383840025439242
 40
0.0801401775095984
 40
0.1253333102138654
 40
0.1758474426101631
 40
0.2505693349853377
 40
0.3747110417135306
 40
0.4996720838170636
 40
0.6242401599295757
 40
0.7494555701351691
 40
0.813912622298902
 40
0.8749354508892937
 40
0.9382913003314447
 40
0.9999999999999999
 40
0.9999999999999999
 40
0.9999999999999999
 40
0.9999999999999999
 10
205.5824275592379
 20
434.769181542134
 30
0.0
 10
205.6159259748116
 20
434.7668391129708
 30
0.0
 10
205.6858657620262
 20
434.7619484638328
 30
0.0
 10
205.7942254148321
 20
434.7469933137751
 30
0.0
 10
205.9119486569277
 20
434.7241899387411
 30
0.0
 10
206.0556861089538
 20
434.686546837652
 30
0.0
 10
206.2618830744218
 20
434.613743908415
 30
0.0
 10
206.5181307266611
 20
434.4827583411243
 30
0.0
 10
206.7916555341219
 20
434.2777953243445
 30
0.0
 10
207.0358003818162
 20
434.0160687516938
 30
0.0
 10
207.2057528490454
 20
433.7469647248515
 30
0.0
 10
207.3114002488782
 20
433.5040340591524
 30
0.0
 10
207.3729847062502
 20
433.3081866283756
 30
0.0
 10
207.4156752860679
 20
433.1050456497838
 30
0.0
 10
207.42551961368
 20
432.9638591886681
 30
0.0
 10
207.4303769506342
 20
432.8941956989885
 30
0.0
  0
LINE
  5
75
330
1F
100
AcDbEntity
  8
0
  6
Continuous
 62
     7
370
    15
100
AcDbLine
 10
173.7564794189
 20
434.7691877032
 30
0.0
 11
175.7995021931
 21
434.8695422508
 31
0.0
  0
ELLIPSE
  5
76
330
1F
100
AcDbEntity
  8
0
  6
Continuous
 62
     7
370
    15
100
AcDbEllipse
 10
189.6693879722
 20
416.575606226
 30
0.0
 11
12.036
 21
0.0
 31
0.0
210
0.0
220
0.0
230
1.0
 40
0.0070431304
 41
1.570796326794901
 42
3.141592653589776
  0
ELLIPSE
  5
77
330
1F
100
AcDbEntity
  8
0
  6
Continuous
 62
     7
370
    15
100
AcDbEllipse
 10
189.6693879722
 20
416.575606226
 30
0.0
 11
12.036
 21
0.0
 31
0.0
210
0.0
220
0.0
230
1.0
 40
0.0070431304
 41
0.0
 42
1.570796326794918
  0
SPLINE
  5
78
330
1F
100
AcDbEntity
  8
0
  6
Continuous
 62
     7
370
    15
100
AcDbSpline
210
0.0
220
0.0
230
1.0
 70
     8
 71
     3
 72
    20
 73
    16
 74
     0
 42
0.00000001
 43
0.00000001
 12
1.0
 22
0.0
 32
0.0
 13
1.0
 23
0.0
 33
0.0
 40
0.0
 40
0.0
 40
0.0
 40
0.0
 40
0.0591136510622988
 40
0.1195788251760701
 40
0.1816177956770811
 40
0.245445585029465
 40
0.3113041898457777
 40
0.3794985152754897
 40
0.4504294308234293
 40
0.510270379823069
 40
0.520545546337531
 40
0.7075148419000216
 40
0.8122493830735118
 40
0.9030211759650097
 40
1.0
 40
1.0
 40
1.0
 40
1.0
 10
176.5490037236252
 20
415.9256351841825
 30
0.0
 10
176.4826042382067
 20
415.925407238783
 30
0.0
 10
176.3482871673448
 20
415.9249461364389
 30
0.0
 10
176.149299275344
 20
415.9241489332478
 30
0.0
 10
175.9494324844199
 20
415.9232782772095
 30
0.0
 10
175.7490086145103
 20
415.9223284762913
 30
0.0
 10
175.547958584378
 20
415.9212875554795
 30
0.0
 10
175.3463000281327
 20
415.9201362521897
 30
0.0
 10
175.1575240783921
 20
415.9189564849016
 30
0.0
 10
175.0284808724988
 20
415.9180951794669
 30
0.0
 10
174.7981604142342
 20
415.9165027159472
 30
0.0
 10
174.543635087028
 20
415.9145741971753
 30
0.0
 10
174.2560143161766
 20
415.9116225029915
 30
0.0
 10
174.053103069413
 20
415.9096624857838
 30
0.0
 10
173.9377349401161
 20
415.9081178295735
 30
0.0
 10
173.8781438415967
 20
415.9073199683187
 30
0.0
  0
SPLINE
  5
79
330
1F
100
AcDbEntity
  8
0
  6
Continuous
 62
     7
370
    15
100
AcDbSpline
210
0.0
220
0.0
230
1.0
 70
     8
 71
     3
 72
    21
 73
    17
 74
     0
 42
0.00000001
 43
0.00000001
 12
1.0
 22
0.0
 32
0.0
 13
1.0
 23
0.0
 33
0.0
 40
0.0
 40
0.0
 40
0.0
 40
0.0
 40
0.0641482860479676
 40
0.1260519952257312
 40
0.1848882976795329
 40
0.2409161096865353
 40
0.2946468898020417
 40
0.3462341407263078
 40
0.3958143659347791
 40
0.5000448619681802
 40
0.5101869944483628
 40
0.5402293756252785
 40
0.664288686788269
 40
0.7805612727457364
 40
0.8927045288659847
 40
0.9999999999999999
 40
0.9999999999999999
 40
0.9999999999999999
 40
0.9999999999999999
 10
205.4606527154847
 20
415.9072917142932
 30
0.0
 10
205.4216521483742
 20
415.9078586704516
 30
0.0
 10
205.3450156612271
 20
415.9089727447219
 30
0.0
 10
205.2228293479759
 20
415.9101927432828
 30
0.0
 10
205.0995356411162
 20
415.9115298013206
 30
0.0
 10
204.9755457962906
 20
415.9127925177833
 30
0.0
 10
204.8513517339972
 20
415.9138796084783
 30
0.0
 10
204.7270975938774
 20
415.9149799132325
 30
0.0
 10
204.5561524674038
 20
415.9163851140016
 30
0.0
 10
204.4123903552311
 20
415.9174355461862
 30
0.0
 10
204.2814294793653
 20
415.9183190594466
 30
0.0
 10
204.1307081221943
 20
415.9193086609141
 30
0.0
 10
203.8714953310577
 20
415.9208564738195
 30
0.0
 10
203.512819272943
 20
415.9227157938719
 30
0.0
 10
203.1552352867087
 20
415.9243348686027
 30
0.0
 10
202.9097890200545
 20
415.9251907987411
 30
0.0
 10
202.7897770552191
 20
415.925609309314
 30
0.0
  0
LINE
  5
7A
330
1F
100
AcDbEntity
  8
0
  6
Continuous
 62
     7
370
    15
100
AcDbLine
 10
200.7023879728
 20
412.6536636453
 30
0.0
 11
200.7023879728
 21
416.0531735819
 31
0.0
  0
ARC
  5
7B
330
1F
100
AcDbEntity
  8
0
  6
Continuous
 62
     7
370
    15
100
AcDbCircle
 10
189.669388014
 20
357.8291779569
 30
0.0
 40
55.92362040398153
100
AcDbArc
 50
78.6216486571
 51
101.3783513429
  0
LINE
  5
7C
330
1F
100
AcDbEntity
  8
0
  6
Continuous
 62
     7
370
    15
100
AcDbLine
 10
178.6363880551
 20
412.6536636453
 30
0.0
 11
178.6363880551
 21
416.0531735819
 31
0.0
  0
LWPOLYLINE
  5
7D
330
1F
100
AcDbEntity
  8
0
  6
Continuous
 62
     7
370
    15
100
AcDbPolyline
 90
        9
 70
   128
 43
0.0
 10
178.6363880551
 20
414.7142669957
 10
178.20107112
 20
414.8753466855
 10
177.8868056304
 20
415.0417945187
 10
177.6969098887
 20
415.2118502956
 10
177.6333881012
 20
415.3837202888
 10
177.6969098887
 20
415.555590282
 10
177.8868056304
 20
415.7256460588
 10
178.20107112
 20
415.8920920294
 10
178.6363880551
 20
416.0531735819
  0
LWPOLYLINE
  5
7E
330
1F
100
AcDbEntity
  8
0
  6
Continuous
 62
     7
370
    15
100
AcDbPolyline
 90
        9
 70
   128
 43
0.0
 10
200.7023879728
 20
416.0531735819
 10
201.137704908
 20
415.8920920294
 10
201.4519703976
 20
415.7256460588
 10
201.6418661392
 20
415.555590282
 10
201.7053879267
 20
415.3837202888
 10
201.6418661392
 20
415.2118502956
 10
201.4519703976
 20
415.0417945187
 10
201.137704908
 20
414.8753466855
 10
200.7023879728
 20
414.7142669957
  0
SPLINE
  5
7F
330
1F
100
AcDbEntity
  8
0
  6
Continuous
 62
     7
370
    15
100
AcDbSpline
210
0.0
220
0.0
230
1.0
 70
    24
 71
     3
 72
    10
 73
     6
 74
     0
 42
0.00000001
 43
0.00000001
 12
1.0
 22
0.0
 32
0.0
 13
1.0
 23
0.0
 33
0.0
 40
0.0
 40
0.0
 40
0.0
 40
0.0
 40
0.5
 40
0.5
 40
1.0
 40
1.0
 40
1.0
 40
1.0
 10
200.7023879721725
 20
411.4107640866338
 30
0.0
 10
200.7023879721725
 20
411.5234660429081
 30
0.0
 10
200.7023879721725
 20
411.6900942446248
 30
0.0
 10
200.7023879721725
 20
412.1113489019233
 30
0.0
 10
200.7023879721725
 20
412.3657501245874
 30
0.0
 10
200.7023879721725
 20
412.6536639143155
 30
0.0
  0
LWPOLYLINE
  5
80
330
1F
100
AcDbEntity
  8
0
  6
Continuous
 62
     7
370
    15
100
AcDbPolyline
 90
       23
 70
   128
 43
0.0
 10
200.7023879728
 20
411.410763378
 10
200.5900881654
 20
411.6292889069
 10
200.2554742089
 20
411.843362714
 10
199.7053577966
 20
412.0486317973
 10
198.9509380824
 20
412.2409163814
 10
198.0075725756
 20
412.416301186
 10
196.8944665446
 20
412.5712155204
 10
195.6342781364
 20
412.7025059264
 10
194.2526620283
 20
412.8075013708
 10
192.7777432307
 20
412.8840616744
 10
191.2395475834
 20
412.9306315284
 10
189.6693879722
 20
412.9462609838
 10
188.0992283282
 20
412.9306315284
 10
186.5610325645
 20
412.8840616744
 10
185.0861139997
 20
412.8075013708
 10
183.7044978916
 20
412.7025059264
 10
182.4443094834
 20
412.5712155204
 10
181.3312025211
 20
412.416301186
 10
180.3878379456
 20
412.2409163814
 10
179.6334182314
 20
412.0486317973
 10
179.083301819
 20
411.843362714
 10
178.7486878625
 20
411.6292889069
 10
178.6363880551
 20
411.410763378
  0
SPLINE
  5
81
330
1F
100
AcDbEntity
  8
0
  6
Continuous
 62
     7
370
    15
100
AcDbSpline
210
0.0
220
0.0
230
1.0
 70
    24
 71
     3
 72
    10
 73
     6
 74
     0
 42
0.00000001
 43
0.00000001
 12
1.0
 22
0.0
 32
0.0
 13
1.0
 23
0.0
 33
0.0
 40
0.0
 40
0.0
 40
0.0
 40
0.0
 40
0.5
 40
0.5
 40
1.0
 40
1.0
 40
1.0
 40
1.0
 10
178.6363879721725
 20
411.4107640866339
 30
0.0
 10
178.6363879721725
 20
411.5234660429082
 30
0.0
 10
178.6363879721725
 20
411.6900942446248
 30
0.0
 10
178.6363879721725
 20
412.1113489019233
 30
0.0
 10
178.6363879721725
 20
412.3657501245872
 30
0.0
 10
178.6363879721725
 20
412.6536639143154
 30
0.0
  0
LWPOLYLINE
  5
82
330
1F
100
AcDbEntity
  8
0
  6
Continuous
 62
     7
370
    15
100
AcDbPolyline
 90
       23
 70
   128
 43
0.0
 10
178.6363880551
 20
411.410763378
 10
178.7486878625
 20
411.1922397118
 10
179.083301819
 20
410.9781640421
 10
179.6334182314
 20
410.7728949588
 10
180.3878379456
 20
410.5806122374
 10
181.3312025211
 20
410.4052274327
 10
182.4443094834
 20
410.2503130983
 10
183.7044978916
 20
410.1190226923
 10
185.0861139997
 20
410.0140272479
 10
186.5610325645
 20
409.9374650817
 10
188.0992283282
 20
409.8908970903
 10
189.6693879722
 20
409.8752676349
 10
191.2395475834
 20
409.8908970903
 10
192.7777432307
 20
409.9374650817
 10
194.2526620283
 20
410.0140272479
 10
195.6342781364
 20
410.1190226923
 10
196.8944665446
 20
410.2503130983
 10
198.0075725756
 20
410.4052274327
 10
198.9509380824
 20
410.5806122374
 10
199.7053577966
 20
410.7728949588
 10
200.2554742089
 20
410.9781640421
 10
200.5900881654
 20
411.1922397118
 10
200.7023879728
 20
411.410763378
  0
LWPOLYLINE
  5
83
330
1F
100
AcDbEntity
  8
0
  6
Continuous
 62
     7
370
    15
100
AcDbPolyline
 90
       23
 70
   128
 43
0.0
 10
198.8278386584
 20
411.1299714844
 10
198.9319782174
 20
411.20658953
 10
199.0474380023
 20
411.410763378
 10
198.9319782174
 20
411.6149372261
 10
198.588443122
 20
411.8140837948
 10
198.0252919189
 20
412.0033006023
 10
197.256389673
 20
412.1779254477
 10
196.3006706378
 20
412.333659346
 10
195.1816674723
 20
412.4666708361
 10
193.9269333548
 20
412.5736816626
 10
192.5673649116
 20
412.6520561825
 10
191.1364381836
 20
412.6998684209
 10
189.6693879722
 20
412.7159355979
 10
188.202337728
 20
412.6998684209
 10
186.7714111163
 20
412.6520561825
 10
185.4118422075
 20
412.5736816626
 10
184.1571085556
 20
412.4666708361
 10
183.0381053901
 20
412.333659346
 10
182.082386355
 20
412.1779254477
 10
181.3134841091
 20
412.0033006023
 10
180.7503319747
 20
411.8140837948
 10
180.4067968792
 20
411.6149372261
 10
180.2913380257
 20
411.4110427748
  0
LWPOLYLINE
  5
84
330
1F
100
AcDbEntity
  8
0
  6
Continuous
 62
     7
370
    15
100
AcDbPolyline
 90
       20
 70
   128
 43
0.0
 10
180.6629934749
 20
410.966664071
 10
180.9411143354
 20
410.8174233537
 10
181.4922198123
 20
410.6322559368
 10
182.2446749016
 20
410.4613656949
 10
183.1799509405
 20
410.3089603435
 10
184.2750181845
 20
410.1787968378
 10
185.5029129825
 20
410.0740752022
 10
186.8333999469
 20
409.9973752003
 10
188.2337185257
 20
409.9505874168
 10
189.6693879722
 20
409.9348629664
 10
191.1050575022
 20
409.9505874168
 10
192.5053760811
 20
409.9973752003
 10
193.8358630455
 20
410.0740752022
 10
195.0637578434
 20
410.1787968378
 10
196.1588250874
 20
410.3089603435
 10
197.0941011264
 20
410.4613656949
 10
197.8465562156
 20
410.6322559368
 10
198.3976616925
 20
410.8174233537
 10
198.7338486529
 20
411.012310053
 10
198.8438648573
 20
411.1796072524
  0
LWPOLYLINE
  5
85
330
1F
100
AcDbEntity
  8
0
  6
Continuous
 62
     7
370
    15
100
AcDbPolyline
 90
       21
 70
   128
 43
0.0
 10
198.8444050244
 20
411.2415253024
 10
198.7338486529
 20
411.411923806
 10
198.3976616925
 20
411.6068086426
 10
197.8465562156
 20
411.7919779222
 10
197.0941011264
 20
411.9628681641
 10
196.1588250874
 20
412.1152716528
 10
195.0637578434
 20
412.2454370212
 10
193.8358630455
 20
412.3501586567
 10
192.5053760811
 20
412.426856796
 10
191.1050575022
 20
412.4736445795
 10
189.6693879722
 20
412.4893708925
 10
188.2337185257
 20
412.4736445795
 10
186.8333999469
 20
412.426856796
 10
185.5029129825
 20
412.3501586567
 10
184.2750181845
 20
412.2454370212
 10
183.1799509405
 20
412.1152716528
 10
182.2446749016
 20
411.9628681641
 10
181.4922198123
 20
411.7919779222
 10
180.9411143354
 20
411.6068086426
 10
180.6049273751
 20
411.411923806
 10
180.5038285843
 20
411.2771148633
  0
LWPOLYLINE
  5
86
330
1F
100
AcDbEntity
  8
0
  6
Continuous
 62
     7
370
    15
100
AcDbPolyline
 90
       40
 70
   128
 43
0.0
 10
180.7432511291
 20
411.2121159982
 10
180.8588422305
 20
411.4113910895
 10
181.2026222638
 20
411.6055066537
 10
181.7656868539
 20
411.7894316863
 10
182.5334528862
 20
411.9584052663
 10
183.4860356926
 20
412.1080501776
 10
184.5987645379
 20
412.2344902556
 10
185.8428196452
 20
412.3344528328
 10
187.1859809785
 20
412.4053469699
 10
188.5934610787
 20
412.4453360986
 10
190.0288072525
 20
412.4533864509
 10
191.4548445661
 20
412.4292894106
 10
192.8346395894
 20
412.3736671012
 10
194.1324562236
 20
412.2879612099
 10
195.3146817564
 20
412.1743920099
 10
196.3506970956
 20
412.0358987551
 10
197.2136699065
 20
411.8760707628
 10
197.8812498442
 20
411.6990486931
 10
198.3361469052
 20
411.5094127904
 10
198.5665793932
 20
411.3120785754
 10
198.5665793932
 20
411.1121552836
 10
198.3361469052
 20
410.9148192059
 10
197.8812498442
 20
410.7251851659
 10
197.2136699065
 20
410.5481612336
 10
196.3506970956
 20
410.3883332412
 10
195.3146817564
 20
410.2498418491
 10
194.1324562236
 20
410.1362726491
 10
192.8346395894
 20
410.0505667578
 10
191.4548445661
 20
409.9949444484
 10
190.0288072525
 20
409.9708455454
 10
188.5934610787
 20
409.9788958978
 10
187.1859809785
 20
410.0188850265
 10
185.8428196452
 20
410.0897791635
 10
184.5987645379
 20
410.1897417407
 10
183.4860356926
 20
410.3161818187
 10
182.5334528862
 20
410.46582673
 10
181.7656868539
 20
410.63480031
 10
181.2026222638
 20
410.8187272053
 10
180.8588422305
 20
411.0128409069
 10
180.7432511291
 20
411.2121159982
  0
LINE
  5
87
330
1F
100
AcDbEntity
  8
0
  6
Continuous
 62
     7
370
    15
100
AcDbLine
 10
184.6543877787
 20
476.3909499
 30
0.0
 11
180.642387963
 21
476.3909499
 31
0.0
  0
ARC
  5
88
330
1F
100
AcDbEntity
  8
0
  6
Continuous
 62
     7
370
    15
100
AcDbCircle
 10
180.6423879721
 20
477.3939512474
 30
0.0
 40
1.003000000000014
100
AcDbArc
 50
180.0000000001
 51
270.0000000001
  0
LINE
  5
89
330
1F
100
AcDbEntity
  8
0
  6
Continuous
 62
     7
370
    15
100
AcDbLine
 10
194.6843877836
 20
476.3909499
 30
0.0
 11
184.6543877787
 21
476.3909499
 31
0.0
  0
LINE
  5
8A
330
1F
100
AcDbEntity
  8
0
  6
Continuous
 62
     7
370
    15
100
AcDbLine
 10
179.6393880091
 20
477.3939507853
 30
0.0
 11
179.6393880091
 21
481.405950601
 31
0.0
  0
ARC
  5
8B
330
1F
100
AcDbEntity
  8
0
  6
Continuous
 62
     7
370
    15
100
AcDbCircle
 10
198.6963879721
 20
477.3939512474
 30
0.0
 40
1.003000000000043
100
AcDbArc
 50
270.0000000001
 51
0.0000000001
  0
LINE
  5
8C
330
1F
100
AcDbEntity
  8
0
  6
Continuous
 62
     7
370
    15
100
AcDbLine
 10
198.696388065
 20
476.3909499
 30
0.0
 11
194.6843877836
 21
476.3909499
 31
0.0
  0
LINE
  5
8D
330
1F
100
AcDbEntity
  8
0
  6
Continuous
 62
     7
370
    15
100
AcDbLine
 10
199.6993880189
 20
481.405950601
 30
0.0
 11
199.6993880189
 21
477.3939507853
 31
0.0
  0
LINE
  5
8E
330
1F
100
AcDbEntity
  8
0
  6
Continuous
 62
     7
370
    15
100
AcDbLine
 10
180.642387963
 20
482.4089514862
 30
0.0
 11
184.6543877787
 21
482.4089514862
 31
0.0
  0
ARC
  5
8F
330
1F
100
AcDbEntity
  8
0
  6
Continuous
 62
     7
370
    15
100
AcDbCircle
 10
180.6423879721
 20
481.4059512474
 30
0.0
 40
1.002999999999986
100
AcDbArc
 50
90.0000000001
 51
180.0000000001
  0
LINE
  5
90
330
1F
100
AcDbEntity
  8
0
  6
Continuous
 62
     7
370
    15
100
AcDbLine
 10
184.6543877787
 20
482.4089514862
 30
0.0
 11
194.6843877836
 21
482.4089514862
 31
0.0
  0
LINE
  5
91
330
1F
100
AcDbEntity
  8
0
  6
Continuous
 62
     7
370
    15
100
AcDbLine
 10
194.6843877836
 20
482.4089514862
 30
0.0
 11
198.696388065
 21
482.4089514862
 31
0.0
  0
ARC
  5
92
330
1F
100
AcDbEntity
  8
0
  6
Continuous
 62
     7
370
    15
100
AcDbCircle
 10
198.6963879721
 20
481.4059512474
 30
0.0
 40
1.003000000000043
100
AcDbArc
 50
0.0000000001
 51
90.0000000001
  0
ARC
  5
93
330
1F
100
AcDbEntity
  8
0
  6
Continuous
 62
     7
370
    15
100
AcDbCircle
 10
189.6693879722
 20
460.0771364069
 30
0.0
 40
3.009000000000042
100
AcDbArc
 50
277.6622556608
 51
82.3377443392
  0
SPLINE
  5
94
330
1F
100
AcDbEntity
  8
0
  6
Continuous
 62
     7
370
    15
100
AcDbSpline
210
0.0
220
0.0
230
1.0
 70
    24
 71
     3
 72
    12
 73
     8
 74
     0
 42
0.00000001
 43
0.00000001
 12
1.0
 22
0.0
 32
0.0
 13
1.0
 23
0.0
 33
0.0
 40
0.0
 40
0.0
 40
0.0
 40
0.0
 40
0.2500000000000017
 40
0.2500000000000017
 40
0.5000000000000033
 40
0.5000000000000033
 40
1.0
 40
1.0
 40
1.0
 40
1.0
 10
190.0705879721725
 20
457.095003016159
 30
0.0
 10
190.0705879721725
 20
457.095003016159
 30
0.0
 10
190.0705879721725
 20
457.1136705977445
 30
0.0
 10
190.0705879721725
 20
457.1854186429892
 30
0.0
 10
190.0705879721725
 20
457.2385171549394
 30
0.0
 10
190.0705879721725
 20
457.4354487640665
 30
0.0
 10
190.0705879721725
 20
457.6188761510796
 30
0.0
 10
190.0705879721725
 20
457.8053912252982
 30
0.0
  0
SPLINE
  5
95
330
1F
100
AcDbEntity
  8
0
  6
Continuous
 62
     7
370
    15
100
AcDbSpline
210
0.0
220
0.0
230
1.0
 70
    24
 71
     3
 72
    12
 73
     8
 74
     0
 42
0.00000001
 43
0.00000001
 12
1.0
 22
0.0
 32
0.0
 13
1.0
 23
0.0
 33
0.0
 40
0.0
 40
0.0
 40
0.0
 40
0.0
 40
0.2500000000000017
 40
0.2500000000000017
 40
0.5000000000000034
 40
0.5000000000000034
 40
1.0
 40
1.0
 40
1.0
 40
1.0
 10
190.0705879721725
 20
462.3488815884441
 30
0.0
 10
190.0705879721725
 20
462.4421541283318
 30
0.0
 10
190.0705879721725
 20
462.5336626634271
 30
0.0
 10
190.0705879721725
 20
462.7052826449008
 30
0.0
 10
190.0705879721725
 20
462.7839794909757
 30
0.0
 10
190.0705879721725
 20
462.9812569885916
 30
0.0
 10
190.0705879721725
 20
463.0592697975832
 30
0.0
 10
190.0705879721725
 20
463.0592697975832
 30
0.0
  0
SPLINE
  5
96
330
1F
100
AcDbEntity
  8
0
  6
Continuous
 62
     7
370
    15
100
AcDbSpline
210
0.0
220
0.0
230
1.0
 70
    24
 71
     3
 72
    10
 73
     6
 74
     0
 42
0.00000001
 43
0.00000001
 12
1.0
 22
0.0
 32
0.0
 13
1.0
 23
0.0
 33
0.0
 40
0.0
 40
0.0
 40
0.0
 40
0.0
 40
0.5
 40
0.5
 40
1.0
 40
1.0
 40
1.0
 40
1.0
 10
189.2681879721726
 20
457.7036051978915
 30
0.0
 10
189.2681879721726
 20
457.5437535771714
 30
0.0
 10
189.2681879721726
 20
457.3871455439794
 30
0.0
 10
189.2681879721725
 20
457.1618330606776
 30
0.0
 10
189.2681879721726
 20
457.095003016159
 30
0.0
 10
189.2681879721726
 20
457.095003016159
 30
0.0
  0
ARC
  5
97
330
1F
100
AcDbEntity
  8
0
  6
Continuous
 62
     7
370
    15
100
AcDbCircle
 10
189.6693879722
 20
460.0771364069
 30
0.0
 40
3.009000000000042
100
AcDbArc
 50
97.6622556608
 51
262.3377443392
  0
SPLINE
  5
98
330
1F
100
AcDbEntity
  8
0
  6
Continuous
 62
     7
370
    15
100
AcDbSpline
210
0.0
220
0.0
230
1.0
 70
    24
 71
     3
 72
    10
 73
     6
 74
     0
 42
0.00000001
 43
0.00000001
 12
1.0
 22
0.0
 32
0.0
 13
1.0
 23
0.0
 33
0.0
 40
0.0
 40
0.0
 40
0.0
 40
0.0
 40
0.5
 40
0.5
 40
1.0
 40
1.0
 40
1.0
 40
1.0
 10
189.2681879721726
 20
463.0592697975832
 30
0.0
 10
189.2681879721726
 20
463.0592697975832
 30
0.0
 10
189.2681879721726
 20
462.9925663327006
 30
0.0
 10
189.2681879721726
 20
462.7676356873322
 30
0.0
 10
189.2681879721726
 20
462.6104934772267
 30
0.0
 10
189.2681879721726
 20
462.4506676158507
 30
0.0
  0
LINE
  5
99
330
1F
100
AcDbEntity
  8
0
  6
Continuous
 62
     7
370
    15
100
AcDbLine
 10
189.2681879858
 20
457.7036048125
 30
0.0
 11
189.2681879858
 21
462.450667734
 31
0.0
  0
LINE
  5
9A
330
1F
100
AcDbEntity
  8
0
  6
Continuous
 62
     7
370
    15
100
AcDbLine
 10
190.0705879839
 20
462.3488816272
 30
0.0
 11
190.0705879839
 21
457.8053909193
 31
0.0
  0
ARC
  5
9B
330
1F
100
AcDbEntity
  8
0
  6
Continuous
 62
     7
370
    15
100
AcDbCircle
 10
189.6693879722
 20
460.0771364069
 30
0.0
 40
3.008999999999985
100
AcDbArc
 50
82.3377443392
 51
90.0
  0
ARC
  5
9C
330
1F
100
AcDbEntity
  8
0
  6
Continuous
 62
     7
370
    15
100
AcDbCircle
 10
189.6693879722
 20
460.0771364069
 30
0.0
 40
3.009000000000042
100
AcDbArc
 50
270.0
 51
277.6622556608
  0
ARC
  5
9D
330
1F
100
AcDbEntity
  8
0
  6
Continuous
 62
     7
370
    15
100
AcDbCircle
 10
189.6693879722
 20
460.0771364069
 30
0.0
 40
3.008999999999985
100
AcDbArc
 50
90.0
 51
97.6622556608
  0
ARC
  5
9E
330
1F
100
AcDbEntity
  8
0
  6
Continuous
 62
     7
370
    15
100
AcDbCircle
 10
189.6693879722
 20
460.0771364069
 30
0.0
 40
3.009000000000042
100
AcDbArc
 50
262.3377443392
 51
270.0
  0
SPLINE
  5
9F
330
1F
100
AcDbEntity
  8
0
  6
Continuous
 62
     7
370
    15
100
AcDbSpline
210
0.0
220
0.0
230
1.0
 70
     8
 71
     3
 72
    10
 73
     6
 74
     0
 42
0.00000001
 43
0.00000001
 12
1.0
 22
0.0
 32
0.0
 13
1.0
 23
0.0
 33
0.0
 40
0.0
 40
0.0
 40
0.0
 40
0.0
 40
0.215346497894207
 40
0.6274166191756358
 40
1.0
 40
1.0
 40
1.0
 40
1.0
 10
166.6179179615243
 20
452.5194070141489
 30
0.0
 10
166.6150751481576
 20
452.4903294769294
 30
0.0
 10
166.606792550721
 20
452.4056114514469
 30
0.0
 10
166.7355128178857
 20
452.3363242387471
 30
0.0
 10
166.9294041951269
 20
452.3245444828049
 30
0.0
 10
167.0214712089761
 20
452.3189510058338
 30
0.0
  0
SPLINE
  5
A0
330
1F
100
AcDbEntity
  8
0
  6
Continuous
 62
     7
370
    15
100
AcDbSpline
210
0.0
220
0.0
230
1.0
 70
     8
 71
     3
 72
    10
 73
     6
 74
     0
 42
0.00000001
 43
0.00000001
 12
1.0
 22
0.0
 32
0.0
 13
1.0
 23
0.0
 33
0.0
 40
0.0
 40
0.0
 40
0.0
 40
0.0
 40
0.3975143992973881
 40
0.7978409491739136
 40
1.0
 40
1.0
 40
1.0
 40
1.0
 10
212.3173038876517
 20
452.3189510058338
 30
0.0
 10
212.4147047006567
 20
452.3252973267139
 30
0.0
 10
212.6101953727823
 20
452.3380348644828
 30
0.0
 10
212.7339570621666
 20
452.4096143522575
 30
0.0
 10
212.7241065226556
 20
452.4918408189918
 30
0.0
 10
212.720801255749
 20
452.5194312285358
 30
0.0
  0
LINE
  5
A1
330
1F
100
AcDbEntity
  8
0
  6
Continuous
 62
     7
370
    15
100
AcDbLine
 10
167.021471209
 20
452.3189510058
 30
0.0
 11
212.3173038877
 21
452.3189510058
 31
0.0
  0
LINE
  5
A2
330
1F
100
AcDbEntity
  8
0
  6
Continuous
 62
     7
370
    15
100
AcDbLine
 10
168.1048880733
 20
487.4239521872
 30
0.0
 11
211.233888886
 21
487.4239521872
 31
0.0
  0
LINE
  5
A3
330
1F
100
AcDbEntity
  8
0
  6
Continuous
 62
     7
370
    15
100
AcDbLine
 10
167.101887188
 20
336.5075397145
 30
0.0
 11
212.2368879086
 21
336.5075397145
 31
0.0
  0
LINE
  5
A4
330
1F
100
AcDbEntity
  8
0
  6
Continuous
 62
     7
370
    15
100
AcDbLine
 10
189.6693879722
 20
440.8195363197
 30
0.0
 11
212.2368879086
 21
440.8195363197
 31
0.0
  0
LINE
  5
A5
330
1F
100
AcDbEntity
  8
0
  6
Continuous
 62
     7
370
    15
100
AcDbLine
 10
167.101887188
 20
440.8195363197
 30
0.0
 11
189.6693879722
 21
440.8195363197
 31
0.0
  0
SPLINE
  5
A6
330
1F
100
AcDbEntity
  8
0
  6
Continuous
 62
     8
370
    15
100
AcDbSpline
210
0.0
220
0.0
230
1.0
 70
     8
 71
     3
 72
     8
 73
     4
 74
     0
 42
0.00000001
 43
0.00000001
 12
1.0
 22
0.0
 32
0.0
 13
1.0
 23
0.0
 33
0.0
 40
0.0943514823238664
 40
0.0943514823238664
 40
0.0943514823238664
 40
0.0943514823238664
 40
0.8992676120841631
 40
0.8992676120841631
 40
0.8992676120841631
 40
0.8992676120841631
 10
207.4303812743547
 20
432.8940908930206
 30
0.0
 10
207.6218694639404
 20
427.8517844366025
 30
0.0
 10
207.6230313841783
 20
422.8140991172292
 30
0.0
 10
207.4338664777696
 20
417.7718883627398
 30
0.0
  0
SPLINE
  5
A7
330
1F
100
AcDbEntity
  8
0
  6
Continuous
 62
     8
370
    15
100
AcDbSpline
210
0.0
220
0.0
230
1.0
 70
     8
 71
     3
 72
     8
 73
     4
 74
     0
 42
0.00000001
 43
0.00000001
 12
1.0
 22
0.0
 32
0.0
 13
1.0
 23
0.0
 33
0.0
 40
0.0943514823238665
 40
0.0943514823238665
 40
0.0943514823238665
 40
0.0943514823238665
 40
0.8992676120841626
 40
0.8992676120841626
 40
0.8992676120841626
 40
0.8992676120841626
 10
171.9049094665755
 20
417.7718883627398
 30
0.0
 10
171.7157445601668
 20
422.8140991172292
 30
0.0
 10
171.7169064804047
 20
427.8517844366025
 30
0.0
 10
171.9083946699904
 20
432.8940908930206
 30
0.0
  0
LWPOLYLINE
  5
A8
330
1F
100
AcDbEntity
  8
0
  6
Continuous
 62
     8
370
     0
100
AcDbPolyline
 90
        9
 70
   128
 43
0.0
 10
189.6699304439
 20
416.6653952401
 10
189.6699304776
 20
416.6925358426
 10
189.6699305101
 20
416.7692768227
 10
189.6699305402
 20
416.8928521525
 10
189.6699305668
 20
417.0588138353
 10
189.669930589
 20
417.2611790549
 10
189.669930606
 20
417.4926648687
 10
189.6699306172
 20
417.7449284892
 10
189.669930622
 20
418.008885796
  0
SPLINE
  5
A9
330
1F
100
AcDbEntity
  8
0
  6
Continuous
 62
     8
370
     0
100
AcDbSpline
210
0.0
220
0.0
230
1.0
 70
     8
 71
     3
 72
    15
 73
    11
 74
     0
 42
0.00000001
 43
0.00000001
 12
1.0
 22
0.0
 32
0.0
 13
1.0
 23
0.0
 33
0.0
 40
0.0
 40
0.0
 40
0.0
 40
0.0
 40
0.5
 40
0.5
 40
0.75
 40
0.75
 40
0.875
 40
0.9375
 40
0.9375
 40
1.0
 40
1.0
 40
1.0
 40
1.0
 10
189.6699304438803
 20
416.6653953753641
 30
0.0
 10
191.2861687401565
 20
416.6653953767976
 30
0.0
 10
192.9024070411966
 20
416.6653668105919
 30
0.0
 10
195.3267644885138
 20
416.6653494052095
 30
0.0
 10
196.1348836369188
 20
416.6653478049965
 30
0.0
 10
197.3470623570707
 20
416.665360130949
 30
0.0
 10
197.9531517165229
 20
416.6653700357431
 30
0.0
 10
198.5592410747452
 20
416.6653873137717
 30
0.0
 10
198.9633006465922
 20
416.6654006392413
 30
0.0
 10
199.1653302669022
 20
416.6654137170898
 30
0.0
 10
199.3673607061432
 20
416.6653961850498
 30
0.0
  0
SPLINE
  5
AA
330
1F
100
AcDbEntity
  8
0
  6
Continuous
 62
     8
370
     0
100
AcDbSpline
210
0.0
220
0.0
230
1.0
 70
     8
 71
     3
 72
    15
 73
    11
 74
     0
 42
0.00000001
 43
0.00000001
 12
1.0
 22
0.0
 32
0.0
 13
1.0
 23
0.0
 33
0.0
 40
0.0
 40
0.0
 40
0.0
 40
0.0
 40
0.0625000000000002
 40
0.0625000000000002
 40
0.1250000000000003
 40
0.2500000000000001
 40
0.2500000000000001
 40
0.5
 40
0.5
 40
1.0
 40
1.0
 40
1.0
 40
1.0
 10
179.9714100683293
 20
416.6653961846012
 30
0.0
 10
180.1734632192276
 20
416.6654137191705
 30
0.0
 10
180.3755155499402
 20
416.6654006377262
 30
0.0
 10
180.7796205431889
 20
416.6653873111341
 30
0.0
 10
181.3857780335049
 20
416.6653700320063
 30
0.0
 10
181.9919355250258
 20
416.6653601275951
 30
0.0
 10
183.2042505092904
 20
416.6653478035497
 30
0.0
 10
184.0124605004045
 20
416.6653494065606
 30
0.0
 10
186.437090475806
 20
416.6653668195198
 30
0.0
 10
188.0535104621762
 20
416.6653953767968
 30
0.0
 10
189.6699304438803
 20
416.6653953753631
 30
0.0
  0
SPLINE
  5
AB
330
1F
100
AcDbEntity
  8
0
  6
Continuous
 62
     8
370
     0
100
AcDbSpline
210
0.0
220
0.0
230
1.0
 70
     8
 71
     3
 72
    42
 73
    38
 74
     0
 42
0.00000001
 43
0.00000001
 12
1.0
 22
0.0
 32
0.0
 13
1.0
 23
0.0
 33
0.0
 40
0.0
 40
0.0
 40
0.0
 40
0.0
 40
0.0078125000000003
 40
0.0078125000000003
 40
0.0156250000000007
 40
0.0156250000000007
 40
0.0312500000000014
 40
0.0312500000000014
 40
0.0468750000000023
 40
0.0468750000000023
 40
0.0625000000000031
 40
0.0625000000000031
 40
0.0703125000000031
 40
0.0703125000000031
 40
0.0781250000000031
 40
0.0781250000000031
 40
0.085937500000003
 40
0.085937500000003
 40
0.093750000000003
 40
0.093750000000003
 40
0.101562500000003
 40
0.101562500000003
 40
0.105468750000003
 40
0.105468750000003
 40
0.109375000000003
 40
0.109375000000003
 40
0.125000000000003
 40
0.125000000000003
 40
0.1562500000000028
 40
0.1562500000000028
 40
0.1875000000000026
 40
0.1875000000000026
 40
0.2500000000000024
 40
0.2500000000000024
 40
0.5000000000000017
 40
0.5000000000000017
 40
1.0
 40
1.0
 40
1.0
 40
1.0
 10
179.9714100683295
 20
416.6653961846012
 30
0.0
 10
179.7045802185746
 20
416.6653730286557
 30
0.0
 10
179.4717864308908
 20
416.6652914473632
 30
0.0
 10
179.0072112396666
 20
416.6648987520915
 30
0.0
 10
178.7727484687384
 20
416.6645846039095
 30
0.0
 10
178.081142051062
 20
416.6633330870725
 30
0.0
 10
177.6344958350849
 20
416.6620797448463
 30
0.0
 10
176.7929218792283
 20
416.6588353178433
 30
0.0
 10
176.4000930763877
 20
416.6568461978846
 30
0.0
 10
175.7025970928053
 20
416.6522908661188
 30
0.0
 10
175.3990885205737
 20
416.649727500289
 30
0.0
 10
175.0189809369786
 20
416.6455084058708
 30
0.0
 10
174.9046825468699
 20
416.644041266225
 30
0.0
 10
174.701786716813
 20
416.6410019157465
 30
0.0
 10
174.6128669935465
 20
416.6394239890463
 30
0.0
 10
174.4661712030992
 20
416.6362477999271
 30
0.0
 10
174.4089206577995
 20
416.6346633251379
 30
0.0
 10
174.3294880840217
 20
416.6315032025767
 30
0.0
 10
174.3050219299058
 20
416.6298360550953
 30
0.0
 10
174.2753996877339
 20
416.6262450401861
 30
0.0
 10
174.2707254001657
 20
416.6243362791882
 30
0.0
 10
174.2685086221169
 20
416.6213160536782
 30
0.0
 10
174.2684750075785
 20
416.620284632933
 30
0.0
 10
174.2677091096215
 20
416.6181819160054
 30
0.0
 10
174.2668210203541
 20
416.6171139161081
 30
0.0
 10
174.2607861267712
 20
416.6118518816152
 30
0.0
 10
174.2510210906079
 20
416.6077442936291
 30
0.0
 10
174.2331157454296
 20
416.5953477319634
 30
0.0
 10
174.22564864329
 20
416.5870712222469
 30
0.0
 10
174.2104154780777
 20
416.5705070930796
 30
0.0
 10
174.2034295187955
 20
416.5622193854301
 30
0.0
 10
174.182992062935
 20
416.5373532655233
 30
0.0
 10
174.1693382626901
 20
416.5207788851429
 30
0.0
 10
174.1045827774691
 20
416.437905079716
 30
0.0
 10
174.0628096774834
 20
416.37159151527
 30
0.0
 10
173.9575387105048
 20
416.1726372508031
 30
0.0
 10
173.9145351174748
 20
416.0399733291671
 30
0.0
 10
173.8780670574922
 20
415.907321405108
 30
0.0
  0
SPLINE
  5
AC
330
1F
100
AcDbEntity
  8
0
  6
Continuous
 62
     8
370
    15
100
AcDbSpline
210
0.0
220
0.0
230
1.0
 70
     8
 71
     3
 72
    19
 73
    15
 74
     0
 42
0.00000001
 43
0.00000001
 12
1.0
 22
0.0
 32
0.0
 13
1.0
 23
0.0
 33
0.0
 40
0.0
 40
0.0
 40
0.0
 40
0.0
 40
0.0548699156547036
 40
0.1148355272996286
 40
0.1799430646747026
 40
0.2502334852848281
 40
0.3053228964358095
 40
0.3751541999005147
 40
0.500551436619073
 40
0.6379691996893089
 40
0.7501611763088858
 40
0.840234752736307
 40
0.9235368810579608
 40
1.0
 40
1.0
 40
1.0
 40
1.0
 10
173.8780670776393
 20
415.9073214783927
 30
0.0
 10
173.8419340301623
 20
415.9074313140039
 30
0.0
 10
173.7663123072117
 20
415.9076611855133
 30
0.0
 10
173.6479833499385
 20
415.9166711390095
 30
0.0
 10
173.5199124717059
 20
415.9340982189238
 30
0.0
 10
173.3959334501445
 20
415.9599146715937
 30
0.0
 10
173.2703011558284
 20
415.9945546100103
 30
0.0
 10
173.1111049052131
 20
416.0496628377537
 30
0.0
 10
172.9050465982354
 20
416.1450930445772
 30
0.0
 10
172.6839561145461
 20
416.287607729022
 30
0.0
 10
172.4978946408579
 20
416.4468260991985
 30
0.0
 10
172.3534452330882
 20
416.602807133484
 30
0.0
 10
172.2370753297029
 20
416.7544932005517
 30
0.0
 10
172.172544165241
 20
416.863853858769
 30
0.0
 10
172.1416597633562
 20
416.9161935080987
 30
0.0
  0
SPLINE
  5
AD
330
1F
100
AcDbEntity
  8
0
  6
Continuous
 62
     8
370
    15
100
AcDbSpline
210
0.0
220
0.0
230
1.0
 70
     8
 71
     3
 72
    15
 73
    11
 74
     0
 42
0.00000001
 43
0.00000001
 12
1.0
 22
0.0
 32
0.0
 13
1.0
 23
0.0
 33
0.0
 40
0.0
 40
0.0
 40
0.0
 40
0.0
 40
0.0832154929985225
 40
0.1665783322918764
 40
0.2505318485970962
 40
0.3762872916724239
 40
0.5007395814976253
 40
0.6707649381837564
 40
0.8359937618843528
 40
1.0
 40
1.0
 40
1.0
 40
1.0
 10
172.1416597633562
 20
416.9161935080987
 30
0.0
 10
172.133393571538
 20
416.9314040741144
 30
0.0
 10
172.1168465512912
 20
416.9618521388776
 30
0.0
 10
172.0905632613812
 20
417.0147465047617
 30
0.0
 10
172.0595806051768
 20
417.0823251677294
 30
0.0
 10
172.0247835410223
 20
417.1678101836696
 30
0.0
 10
171.9839655398852
 20
417.286797245234
 30
0.0
 10
171.9461482552232
 20
417.430071483686
 30
0.0
 10
171.9159681920929
 20
417.598288289161
 30
0.0
 10
171.9085949690218
 20
417.713978905144
 30
0.0
 10
171.9049220473955
 20
417.7716094096473
 30
0.0
  0
SPLINE
  5
AE
330
1F
100
AcDbEntity
  8
0
  6
Continuous
 62
     8
370
    15
100
AcDbSpline
210
0.0
220
0.0
230
1.0
 70
     8
 71
     3
 72
    18
 73
    14
 74
     0
 42
0.00000001
 43
0.00000001
 12
1.0
 22
0.0
 32
0.0
 13
1.0
 23
0.0
 33
0.0
 40
0.0
 40
0.0
 40
0.0
 40
0.0
 40
0.0567083921986882
 40
0.1172711835274071
 40
0.1816653971178249
 40
0.2498570858799375
 40
0.3620506010068476
 40
0.4994702323205402
 40
0.624869263554689
 40
0.6947015704622393
 40
0.7497917622857752
 40
0.8851735481232372
 40
1.0
 40
1.0
 40
1.0
 40
1.0
 10
207.1971161803696
 20
416.9161935080986
 30
0.0
 10
207.1744374435597
 20
416.8771205575365
 30
0.0
 10
207.1275385243083
 20
416.7963189163918
 30
0.0
 10
207.0463731342986
 20
416.681550184193
 30
0.0
 10
206.9539662162964
 20
416.5680429638417
 30
0.0
 10
206.8288260251327
 20
416.4366514814978
 30
0.0
 10
206.654847697168
 20
416.2875759701128
 30
0.0
 10
206.4337220170615
 20
416.1450958020145
 30
0.0
 10
206.2276722240498
 20
416.0496786467533
 30
0.0
 10
206.0684746425957
 20
415.9945244750731
 30
0.0
 10
205.9009533303881
 20
415.9485058991063
 30
0.0
 10
205.7010940192128
 20
415.9122814986436
 30
0.0
 10
205.5363251688588
 20
415.9088817178518
 30
0.0
 10
205.4607088636612
 20
415.9073214783926
 30
0.0
  0
SPLINE
  5
AF
330
1F
100
AcDbEntity
  8
0
  6
Continuous
 62
     8
370
     0
100
AcDbSpline
210
0.0
220
0.0
230
1.0
 70
     8
 71
     3
 72
    42
 73
    38
 74
     0
 42
0.00000001
 43
0.00000001
 12
1.0
 22
0.0
 32
0.0
 13
1.0
 23
0.0
 33
0.0
 40
0.0
 40
0.0
 40
0.0
 40
0.0
 40
0.4999999999999967
 40
0.4999999999999967
 40
0.7499999999999952
 40
0.7499999999999952
 40
0.8124999999999948
 40
0.8124999999999948
 40
0.8437499999999948
 40
0.8437499999999948
 40
0.8749999999999948
 40
0.8749999999999948
 40
0.8906249999999947
 40
0.8906249999999947
 40
0.8945312499999946
 40
0.8945312499999946
 40
0.8984374999999946
 40
0.8984374999999946
 40
0.9062499999999952
 40
0.9062499999999952
 40
0.9140624999999958
 40
0.9140624999999958
 40
0.9218749999999964
 40
0.9218749999999964
 40
0.929687499999997
 40
0.929687499999997
 40
0.9374999999999977
 40
0.9374999999999977
 40
0.9531249999999982
 40
0.9531249999999982
 40
0.9687499999999988
 40
0.9687499999999988
 40
0.9843749999999993
 40
0.9843749999999993
 40
0.9921874999999996
 40
0.9921874999999996
 40
1.0
 40
1.0
 40
1.0
 40
1.0
 10
205.460708883809
 20
415.9073214051079
 30
0.0
 10
205.4242408157933
 20
416.0399733359496
 30
0.0
 10
205.38123721452
 20
416.1726372643668
 30
0.0
 10
205.2759662368661
 20
416.3715915390051
 30
0.0
 10
205.2341931335379
 20
416.4379051068378
 30
0.0
 10
205.1694376440506
 20
416.5207789164991
 30
0.0
 10
205.1557838429556
 20
416.5373532977287
 30
0.0
 10
205.1353463897401
 20
416.5622194189068
 30
0.0
 10
205.1283604309599
 20
416.5705071269766
 30
0.0
 10
205.1131272605207
 20
416.5870712569599
 30
0.0
 10
205.1056601527533
 20
416.5953477670683
 30
0.0
 10
205.0877547880592
 20
416.6077443293195
 30
0.0
 10
205.0779897312273
 20
416.6118519177753
 30
0.0
 10
205.0719548785831
 20
416.617113953165
 30
0.0
 10
205.0710668060977
 20
416.6181819534314
 30
0.0
 10
205.0703009219058
 20
416.6202846701377
 30
0.0
 10
205.070267302849
 20
416.6213160902875
 30
0.0
 10
205.0680504760587
 20
416.6243363136534
 30
0.0
 10
205.0633761053115
 20
416.6262450733589
 30
0.0
 10
205.0337536270614
 20
416.6298360857891
 30
0.0
 10
205.0092873246819
 20
416.6315032317067
 30
0.0
 10
204.9298543679731
 20
416.6346633532691
 30
0.0
 10
204.8726035994091
 20
416.6362478287069
 30
0.0
 10
204.7259074281735
 20
416.6394240177005
 30
0.0
 10
204.6369875347798
 20
416.6410019440105
 30
0.0
 10
204.4340913756081
 20
416.6440412934394
 30
0.0
 10
204.3197928291741
 20
416.6455084324236
 30
0.0
 10
203.9396847797223
 20
416.649727524704
 30
0.0
 10
203.6361758723482
 20
416.652290889135
 30
0.0
 10
202.9386793087476
 20
416.6568462175161
 30
0.0
 10
202.5458502567072
 20
416.658835335502
 30
0.0
 10
201.7042759067565
 20
416.6620797580472
 30
0.0
 10
201.2576295538214
 20
416.6633330977717
 30
0.0
 10
200.5660229901697
 20
416.6645846105945
 30
0.0
 10
200.3315602321467
 20
416.6648987573637
 30
0.0
 10
199.8669848861249
 20
416.6652914498231
 30
0.0
 10
199.6341908198733
 20
416.6653730298187
 30
0.0
 10
199.367360706143
 20
416.6653961850498
 30
0.0
  0
SPLINE
  5
B0
330
1F
100
AcDbEntity
  8
0
  6
Continuous
 62
     8
370
    15
100
AcDbSpline
210
0.0
220
0.0
230
1.0
 70
     8
 71
     3
 72
    17
 73
    13
 74
     0
 42
0.00000001
 43
0.00000001
 12
1.0
 22
0.0
 32
0.0
 13
1.0
 23
0.0
 33
0.0
 40
0.0
 40
0.0
 40
0.0
 40
0.0
 40
0.0822156645170322
 40
0.1642895324078522
 40
0.2466673515894915
 40
0.3297983901915939
 40
0.4141297969719719
 40
0.5001010756116168
 40
0.6245603398993517
 40
0.7503195907345379
 40
0.8755754730952342
 40
1.0
 40
1.0
 40
1.0
 40
1.0
 10
207.4338538970095
 20
417.7716094112575
 30
0.0
 10
207.432394406512
 20
417.7427262667501
 30
0.0
 10
207.4294779426873
 20
417.6850097922381
 30
0.0
 10
207.420244840092
 20
417.5993337276447
 30
0.0
 10
207.4076381002991
 20
417.5150574529671
 30
0.0
 10
207.3914819375201
 20
417.4324976302032
 30
0.0
 10
207.3720788206804
 20
417.3519268338966
 30
0.0
 10
207.3464779349312
 20
417.2625666758098
 30
0.0
 10
207.3138046030116
 20
417.1672670044271
 30
0.0
 10
207.2747426485884
 20
417.0714875461974
 30
0.0
 10
207.2346517131654
 20
416.9858679026127
 30
0.0
 10
207.2096002201635
 20
416.939366694915
 30
0.0
 10
207.1971161803696
 20
416.9161935080987
 30
0.0
  0
SPLINE
  5
B1
330
1F
100
AcDbEntity
  8
0
  6
Continuous
 62
     8
370
    15
100
AcDbSpline
210
0.0
220
0.0
230
1.0
 70
     8
 71
     3
 72
    10
 73
     6
 74
     0
 42
0.00000001
 43
0.00000001
 12
1.0
 22
0.0
 32
0.0
 13
1.0
 23
0.0
 33
0.0
 40
0.0
 40
0.0
 40
0.0
 40
0.0
 40
0.0558899745617673
 40
0.5271472494527306
 40
0.9999999999999999
 40
0.9999999999999999
 40
0.9999999999999999
 40
0.9999999999999999
 10
172.1377737290128
 20
433.7229430515046
 30
0.0
 10
172.1288167266545
 20
433.7115373273977
 30
0.0
 10
172.0443354007363
 20
433.6039599642277
 30
0.0
 10
171.9580254188406
 20
433.3122498816953
 30
0.0
 10
171.9249580530527
 20
433.0336646394696
 30
0.0
 10
171.9083964294656
 20
432.8941366241971
 30
0.0
  0
SPLINE
  5
B2
330
1F
100
AcDbEntity
  8
0
  6
Continuous
 62
     8
370
    15
100
AcDbSpline
210
0.0
220
0.0
230
1.0
 70
     8
 71
     3
 72
    15
 73
    11
 74
     0
 42
0.00000001
 43
0.00000001
 12
1.0
 22
0.0
 32
0.0
 13
1.0
 23
0.0
 33
0.0
 40
0.0
 40
0.0
 40
0.0
 40
0.0
 40
0.056780519410183
 40
0.1917705221265435
 40
0.326089613983241
 40
0.4611132514441797
 40
0.5954026933869188
 40
0.7304642907270824
 40
0.8647313053799764
 40
1.0
 40
1.0
 40
1.0
 40
1.0
 10
175.7995021930797
 20
434.8695422507782
 30
0.0
 10
176.2908248957994
 20
434.8945178730287
 30
0.0
 10
177.9502181562329
 20
434.9788705378014
 30
0.0
 10
181.1819316189751
 20
435.093479915473
 30
0.0
 10
185.3479183848554
 20
435.1901035140439
 30
0.0
 10
189.6593589628107
 20
435.223104644127
 30
0.0
 10
193.9743997824063
 20
435.1901446885513
 30
0.0
 10
198.146772068487
 20
435.0947630872186
 30
0.0
 10
202.1106195102572
 20
434.9494733069548
 30
0.0
 10
204.4222588482552
 20
434.8294287818923
 30
0.0
 10
205.5823739088042
 20
434.7691834576445
 30
0.0
  0
LINE
  5
B3
330
1F
100
AcDbEntity
  8
0
  6
Continuous
 62
     8
370
     0
100
AcDbLine
 10
202.7897808171
 20
415.9255768012
 30
0.0
 11
201.7053879267
 21
415.9288662325
 31
0.0
  0
LINE
  5
B4
330
1F
100
AcDbEntity
  8
0
  6
Continuous
 62
     8
370
     0
100
AcDbLine
 10
177.6333881012
 20
415.9288662325
 30
0.0
 11
176.5489952109
 21
415.9255768012
 31
0.0
  0
LWPOLYLINE
  5
B5
330
1F
100
AcDbEntity
  8
0
  6
Continuous
 62
     8
370
     0
100
AcDbPolyline
 90
        3
 70
   128
 43
0.0
 10
180.491938389
 20
411.2121159982
 10
180.6049273751
 20
411.012310053
 10
180.6629934749
 20
410.966664071
  0
LWPOLYLINE
  5
B6
330
1F
100
AcDbEntity
  8
0
  6
Continuous
 62
     8
370
     0
100
AcDbPolyline
 90
        3
 70
   128
 43
0.0
 10
198.8438648573
 20
411.1796072524
 10
198.846837639
 20
411.2121159982
 10
198.8444050244
 20
411.2415253024
  0
LINE
  5
B7
330
1F
100
AcDbEntity
  8
0
  6
Continuous
 62
     8
370
     0
100
AcDbLine
 10
180.5038285843
 20
411.2771148633
 30
0.0
 11
180.491938389
 21
411.2121159982
 31
0.0
  0
SPLINE
  5
B8
330
1F
100
AcDbEntity
  8
0
  6
Continuous
 62
     8
370
     0
100
AcDbSpline
210
0.0
220
0.0
230
1.0
 70
     8
 71
     3
 72
     9
 73
     5
 74
     0
 42
0.00000001
 43
0.00000001
 12
1.0
 22
0.0
 32
0.0
 13
1.0
 23
0.0
 33
0.0
 40
0.0
 40
0.0
 40
0.0
 40
0.0
 40
0.502632498474643
 40
1.0
 40
1.0
 40
1.0
 40
1.0
 10
209.6100566146294
 20
417.0662759181054
 30
0.0
 10
209.6053090815812
 20
416.9583239296479
 30
0.0
 10
209.5958637451524
 20
416.7435507329584
 30
0.0
 10
209.581263866345
 20
416.5300961982038
 30
0.0
 10
209.5740023611
 20
416.4239308495637
 30
0.0
  0
SPLINE
  5
B9
330
1F
100
AcDbEntity
  8
0
  6
Continuous
 62
     8
370
     0
100
AcDbSpline
210
0.0
220
0.0
230
1.0
 70
     8
 71
     3
 72
     9
 73
     5
 74
     0
 42
0.00000001
 43
0.00000001
 12
1.0
 22
0.0
 32
0.0
 13
1.0
 23
0.0
 33
0.0
 40
0.0
 40
0.0
 40
0.0
 40
0.0
 40
0.4937563368102565
 40
1.0
 40
1.0
 40
1.0
 40
1.0
 10
209.573932860024
 20
416.4239536168904
 30
0.0
 10
209.5266848633331
 20
415.7480511588951
 30
0.0
 10
209.4309939462379
 20
414.379152356782
 30
0.0
 10
209.3351685018493
 20
413.0092486147376
 30
0.0
 10
209.2866574778552
 20
412.3157435261476
 30
0.0
  0
SPLINE
  5
BA
330
1F
100
AcDbEntity
  8
0
  6
Continuous
 62
     8
370
     0
100
AcDbSpline
210
0.0
220
0.0
230
1.0
 70
     8
 71
     3
 72
    46
 73
    42
 74
     0
 42
0.00000001
 43
0.00000001
 12
1.0
 22
0.0
 32
0.0
 13
1.0
 23
0.0
 33
0.0
 40
0.0
 40
0.0
 40
0.0
 40
0.0
 40
0.0126889404387971
 40
0.0261978269821293
 40
0.0406082174401728
 40
0.0652756182885485
 40
0.0705264644882976
 40
0.1123397921983018
 40
0.124678667604535
 40
0.1288523647989283
 40
0.1803386720534997
 40
0.1890286894911297
 40
0.1976824573760237
 40
0.2331128012344844
 40
0.2465876097903735
 40
0.2510392398061409
 40
0.3000478480375652
 40
0.3140792351902687
 40
0.3413652922158496
 40
0.3741942412490926
 40
0.3932537000711349
 40
0.4214707561460847
 40
0.4420388903794691
 40
0.4752769216205612
 40
0.5010323378010249
 40
0.5032417301656935
 40
0.5098397229441394
 40
0.5185679554660625
 40
0.5631831193564762
 40
0.5724962218429059
 40
0.5817274360906616
 40
0.6742301102364269
 40
0.7117230691315688
 40
0.7366079220621926
 40
0.7549479834982402
 40
0.8084230712406228
 40
0.8574741558656084
 40
0.8754182884012955
 40
0.9048286089909834
 40
0.953197604570165
 40
1.0
 40
1.0
 40
1.0
 40
1.0
 10
209.2866574778552
 20
412.3157435261475
 30
0.0
 10
209.2829750747326
 20
412.2678501866168
 30
0.0
 10
209.2753723154359
 20
412.1689686898775
 30
0.0
 10
209.258959787554
 20
412.0173598980382
 30
0.0
 10
209.2331791517822
 20
411.8232835913001
 30
0.0
 10
209.2058245448089
 20
411.6628362992668
 30
0.0
 10
209.1553566438671
 20
411.4080195774879
 30
0.0
 10
209.1054584907704
 20
411.2029522170054
 30
0.0
 10
209.0488257819019
 20
411.0096537638085
 30
0.0
 10
208.9801857220995
 20
410.787006212961
 30
0.0
 10
208.9069335513083
 20
410.5848244841463
 30
0.0
 10
208.8208536881234
 20
410.3786481779088
 30
0.0
 10
208.7531598708568
 20
410.2226652385173
 30
0.0
 10
208.6747459910532
 20
410.0582966907165
 30
0.0
 10
208.5978574507191
 20
409.9116174558898
 30
0.0
 10
208.4995282205813
 20
409.7301305099141
 30
0.0
 10
208.3947592564209
 20
409.5545745059191
 30
0.0
 10
208.246698064294
 20
409.3307209034089
 30
0.0
 10
208.1209862416825
 20
409.1526946392864
 30
0.0
 10
207.9805347122586
 20
408.9712334394916
 30
0.0
 10
207.8332601955338
 20
408.7948458056017
 30
0.0
 10
207.7045873332156
 20
408.6509137862621
 30
0.0
 10
207.5442644198845
 20
408.4835463985367
 30
0.0
 10
207.3837310181038
 20
408.3281655228943
 30
0.0
 10
207.2561105894912
 20
408.2144446759863
 30
0.0
 10
207.1829576580703
 20
408.1517550519406
 30
0.0
 10
207.145669442109
 20
408.1201937950167
 30
0.0
 10
207.017183061665
 20
408.0137668451476
 30
0.0
 10
206.8791232664887
 20
407.9077959046358
 30
0.0
 10
206.736286756559
 20
407.8063671507168
 30
0.0
 10
206.4829307948418
 20
407.6313030401894
 30
0.0
 10
206.1497385473355
 20
407.4340607546711
 30
0.0
 10
205.7587452148078
 20
407.2480267213486
 30
0.0
 10
205.5499097928436
 20
407.1596213754372
 30
0.0
 10
205.2956273101679
 20
407.0609664658123
 30
0.0
 10
204.9693189827097
 20
406.9528441606859
 30
0.0
 10
204.6326869759696
 20
406.8681589726193
 30
0.0
 10
204.357807819638
 20
406.8129720182334
 30
0.0
 10
204.0810149241923
 20
406.7674804464345
 30
0.0
 10
203.7135996267138
 20
406.7263685757626
 30
0.0
 10
203.4252311363329
 20
406.7204475786754
 30
0.0
 10
203.2834202835836
 20
406.7175358123969
 30
0.0
  0
SPLINE
  5
BB
330
1F
100
AcDbEntity
  8
0
  6
Continuous
 62
     8
370
     0
100
AcDbSpline
210
0.0
220
0.0
230
1.0
 70
     8
 71
     3
 72
    33
 73
    29
 74
     0
 42
0.00000001
 43
0.00000001
 12
1.0
 22
0.0
 32
0.0
 13
1.0
 23
0.0
 33
0.0
 40
0.0
 40
0.0
 40
0.0
 40
0.0
 40
0.0326490432006012
 40
0.0652167200136204
 40
0.0976864219012573
 40
0.1300861352432504
 40
0.1624463724147857
 40
0.194757220142058
 40
0.2269477819435297
 40
0.2589734386876121
 40
0.2908158860672844
 40
0.3224646909467537
 40
0.3539162702109244
 40
0.3851726236660497
 40
0.4162399023224325
 40
0.44712690977161
 40
0.4778436226556124
 40
0.5083997940492999
 40
0.5388036785468586
 40
0.5690608946713458
 40
0.5991734211314615
 40
0.6575751146424761
 40
0.7154899446986906
 40
0.7729789447386161
 40
0.8301014533684231
 40
0.8869230495488076
 40
0.9435228598043656
 40
1.0
 40
1.0
 40
1.0
 40
1.0
 10
203.2834202835832
 20
406.7175358124018
 30
0.0
 10
203.1560165255821
 20
406.7175384726751
 30
0.0
 10
202.9015265191464
 20
406.7175437865919
 30
0.0
 10
202.5127321294825
 20
406.7175652310838
 30
0.0
 10
202.1196579022351
 20
406.7175722815995
 30
0.0
 10
201.7218129725511
 20
406.7175552282352
 30
0.0
 10
201.3193479055931
 20
406.7175288902575
 30
0.0
 10
200.9126414665887
 20
406.7175252711606
 30
0.0
 10
200.5024549381679
 20
406.717530796122
 30
0.0
 10
200.0895968151005
 20
406.7175345464914
 30
0.0
 10
199.6746345131253
 20
406.7175365397566
 30
0.0
 10
199.257959874702
 20
406.7175354456829
 30
0.0
 10
198.8398739028885
 20
406.71753187288
 30
0.0
 10
198.4205994702587
 20
406.7175269553665
 30
0.0
 10
198.0002977895324
 20
406.7175219934334
 30
0.0
 10
197.5790866791345
 20
406.7175179056718
 30
0.0
 10
197.1570596343451
 20
406.7175149975416
 30
0.0
 10
196.7343043722388
 20
406.717513038039
 30
0.0
 10
196.3109217181586
 20
406.7175115622424
 30
0.0
 10
195.8870391425029
 20
406.7175108309942
 30
0.0
 10
195.3293053911765
 20
406.7175120114949
 30
0.0
 10
194.6363871846376
 20
406.7175330667627
 30
0.0
 10
193.8069135358463
 20
406.7175655617897
 30
0.0
 10
192.9777863236143
 20
406.7175623974459
 30
0.0
 10
192.1493888592073
 20
406.7175555506747
 30
0.0
 10
191.3219291611821
 20
406.7175472567363
 30
0.0
 10
190.4953753548563
 20
406.7175436298601
 30
0.0
 10
189.9445173701459
 20
406.7175449723062
 30
0.0
 10
189.6693871733529
 20
406.717545642801
 30
0.0
  0
SPLINE
  5
BC
330
1F
100
AcDbEntity
  8
0
  6
Continuous
 62
     8
370
     0
100
AcDbSpline
210
0.0
220
0.0
230
1.0
 70
     8
 71
     3
 72
    34
 73
    30
 74
     0
 42
0.00000001
 43
0.00000001
 12
1.0
 22
0.0
 32
0.0
 13
1.0
 23
0.0
 33
0.0
 40
0.0
 40
0.0
 40
0.0
 40
0.0
 40
0.0334089084045165
 40
0.0668468594730889
 40
0.1003393131794545
 40
0.1339081691667674
 40
0.167572164840689
 40
0.2013472678630149
 40
0.2352470702818853
 40
0.2692831997672954
 40
0.303465788776519
 40
0.337804122866036
 40
0.3723075482031522
 40
0.4069861067875006
 40
0.4418509930875358
 40
0.4769150871784757
 40
0.512193355403112
 40
0.5476961158716509
 40
0.5834271875085262
 40
0.619393692561828
 40
0.6556039282748114
 40
0.6920639673474256
 40
0.7287741931671423
 40
0.7657260198151671
 40
0.8028990621990603
 40
0.8519683102540234
 40
0.901137682214942
 40
0.950463988841538
 40
0.9999999999999999
 40
0.9999999999999999
 40
0.9999999999999999
 40
0.9999999999999999
 10
189.6693871733529
 20
406.7175456428011
 30
0.0
 10
189.5066355021156
 20
406.7175455233114
 30
0.0
 10
189.1809906781517
 20
406.7175452842282
 30
0.0
 10
188.692416962258
 20
406.7175474916786
 30
0.0
 10
188.2035250063334
 20
406.7175539032061
 30
0.0
 10
187.714226359617
 20
406.7175627873693
 30
0.0
 10
187.224482265263
 20
406.7175718104504
 30
0.0
 10
186.7342990494491
 20
406.7175786896258
 30
0.0
 10
186.243723623614
 20
406.717581741432
 30
0.0
 10
185.7528388601843
 20
406.717579327639
 30
0.0
 10
185.2617574051432
 20
406.717570333565
 30
0.0
 10
184.7706141840252
 20
406.7175486154596
 30
0.0
 10
184.2795510855975
 20
406.7175246942172
 30
0.0
 10
183.7887059885753
 20
406.717511271133
 30
0.0
 10
183.2982092218977
 20
406.7175107181902
 30
0.0
 10
182.8081786519401
 20
406.7175194369943
 30
0.0
 10
182.3187489378067
 20
406.7175314231712
 30
0.0
 10
181.8301098371308
 20
406.7175451071957
 30
0.0
 10
181.3424990286315
 20
406.7175574495884
 30
0.0
 10
180.8561739520039
 20
406.7175649692053
 30
0.0
 10
180.3713923684601
 20
406.7175650816278
 30
0.0
 10
179.8884520091407
 20
406.7175575279897
 30
0.0
 10
179.4077365818649
 20
406.7175447320886
 30
0.0
 10
178.9297459602105
 20
406.7175330351599
 30
0.0
 10
178.4053121906809
 20
406.7175227078642
 30
0.0
 10
177.8379243403001
 20
406.7175352225443
 30
0.0
 10
177.2318881050037
 20
406.7175787601345
 30
0.0
 10
176.6355958442763
 20
406.7175533313946
 30
0.0
 10
176.248862651822
 20
406.7175419843122
 30
0.0
 10
176.0550858907064
 20
406.7175362987364
 30
0.0
  0
SPLINE
  5
BD
330
1F
100
AcDbEntity
  8
0
  6
Continuous
 62
     8
370
     0
100
AcDbSpline
210
0.0
220
0.0
230
1.0
 70
     8
 71
     3
 72
    49
 73
    45
 74
     0
 42
0.00000001
 43
0.00000001
 12
1.0
 22
0.0
 32
0.0
 13
1.0
 23
0.0
 33
0.0
 40
0.0
 40
0.0
 40
0.0
 40
0.0
 40
0.0234075449274014
 40
0.0472011064425618
 40
0.0713958635114993
 40
0.096004711741601
 40
0.1210474879266009
 40
0.1388458643439735
 40
0.1629427313752172
 40
0.2358798714531715
 40
0.2537178858950576
 40
0.2597190185291444
 40
0.3203597316780083
 40
0.3557041818540839
 40
0.404618919417449
 40
0.4334278102419494
 40
0.4511043156096922
 40
0.4751617432754935
 40
0.5020450098775492
 40
0.5087554025401987
 40
0.5177770891712328
 40
0.5559625645929309
 40
0.5639812553421509
 40
0.5666716790123247
 40
0.6224001119642646
 40
0.6311085704703016
 40
0.6399140836346705
 40
0.6834671835978381
 40
0.6966331259663797
 40
0.7100269454657753
 40
0.7445129081908024
 40
0.7658986622380852
 40
0.8013934074635822
 40
0.8148804970612958
 40
0.8374042157085896
 40
0.8718747120427917
 40
0.8802397656465302
 40
0.9043936182443788
 40
0.9265958816781594
 40
0.9421135506538463
 40
0.9636103895896481
 40
0.9831867321111764
 40
0.9917593818197555
 40
1.0
 40
1.0
 40
1.0
 40
1.0
 10
176.0550858907063
 20
406.7175362987368
 30
0.0
 10
175.9839791706502
 20
406.7182661339151
 30
0.0
 10
175.8405931012201
 20
406.7197378400696
 30
0.0
 10
175.6263878993699
 20
406.7316075937341
 30
0.0
 10
175.4108493269332
 20
406.7507511082501
 30
0.0
 10
175.1943180369892
 20
406.7780652537572
 30
0.0
 10
174.9991695975773
 20
406.8099055013987
 30
0.0
 10
174.8078818359162
 20
406.8472430691589
 30
0.0
 10
174.4838465904792
 20
406.9207252556902
 30
0.0
 10
174.1694229514199
 20
407.015718319343
 30
0.0
 10
173.9131655261511
 20
407.1112728060974
 30
0.0
 10
173.6914236863055
 20
407.1981946487471
 30
0.0
 10
173.4303160305497
 20
407.314991723588
 30
0.0
 10
173.0737042461755
 20
407.5039253908213
 30
0.0
 10
172.8053153402148
 20
407.6668451159713
 30
0.0
 10
172.5868313422579
 20
407.8160974559449
 30
0.0
 10
172.4288296951342
 20
407.9316372163521
 30
0.0
 10
172.2782755247293
 20
408.0485523414623
 30
0.0
 10
172.1550395677979
 20
408.1514366851738
 30
0.0
 10
172.0655598892139
 20
408.2297530106311
 30
0.0
 10
171.953309966106
 20
408.3301906650627
 30
0.0
 10
171.8412891378706
 20
408.4372582360276
 30
0.0
 10
171.7447683899086
 20
408.5357137478595
 30
0.0
 10
171.6144531288934
 20
408.6706567273734
 30
0.0
 10
171.4873561065012
 20
408.8135046001284
 30
0.0
 10
171.3546099973804
 20
408.9774401190264
 30
0.0
 10
171.2452749362199
 20
409.1159915884363
 30
0.0
 10
171.1322918103587
 20
409.2707728075072
 30
0.0
 10
171.0168053440904
 20
409.4437857684782
 30
0.0
 10
170.9184994890758
 20
409.5975283340552
 30
0.0
 10
170.8116509545534
 20
409.7785177111177
 30
0.0
 10
170.6785346766471
 20
410.0277639494057
 30
0.0
 10
170.5824478672255
 20
410.2284269479844
 30
0.0
 10
170.4911031180795
 20
410.440271046379
 30
0.0
 10
170.4058058550336
 20
410.654990977846
 30
0.0
 10
170.3342140679862
 20
410.8631700866656
 30
0.0
 10
170.2674564429908
 20
411.083438279465
 30
0.0
 10
170.2171346550911
 20
411.2677704399624
 30
0.0
 10
170.1677294629065
 20
411.483040542604
 30
0.0
 10
170.1267928193252
 20
411.6940479727978
 30
0.0
 10
170.0939403077342
 20
411.9001171343392
 30
0.0
 10
170.0717813980179
 20
412.0845591370201
 30
0.0
 10
170.0588803464315
 20
412.2211101830677
 30
0.0
 10
170.054154153396
 20
412.2846158576079
 30
0.0
 10
170.051837723746
 20
412.3157416339665
 30
0.0
  0
SPLINE
  5
BE
330
1F
100
AcDbEntity
  8
0
  6
Continuous
 62
     8
370
     0
100
AcDbSpline
210
0.0
220
0.0
230
1.0
 70
     8
 71
     3
 72
     9
 73
     5
 74
     0
 42
0.00000001
 43
0.00000001
 12
1.0
 22
0.0
 32
0.0
 13
1.0
 23
0.0
 33
0.0
 40
0.0
 40
0.0
 40
0.0
 40
0.0
 40
0.5059315730489922
 40
1.0
 40
1.0
 40
1.0
 40
1.0
 10
170.051837723746
 20
412.3157416339665
 30
0.0
 10
170.0027668212716
 20
413.0172397022547
 30
0.0
 10
169.905775636913
 20
414.4037870253651
 30
0.0
 10
169.8089308970526
 20
415.78927341146
 30
0.0
 10
169.7610829687713
 20
416.4737984907999
 30
0.0
  0
SPLINE
  5
BF
330
1F
100
AcDbEntity
  8
0
  6
Continuous
 62
     8
370
     0
100
AcDbSpline
210
0.0
220
0.0
230
1.0
 70
     8
 71
     3
 72
     9
 73
     5
 74
     0
 42
0.00000001
 43
0.00000001
 12
1.0
 22
0.0
 32
0.0
 13
1.0
 23
0.0
 33
0.0
 40
0.0
 40
0.0
 40
0.0
 40
0.0
 40
0.4975453002822926
 40
1.0
 40
1.0
 40
1.0
 40
1.0
 10
169.7612056261989
 20
416.4738372078652
 30
0.0
 10
169.7547315221515
 20
416.5718200212243
 30
0.0
 10
169.7417194325111
 20
416.7687524679854
 30
0.0
 10
169.7330679347302
 20
416.9667772096822
 30
0.0
 10
169.7287209490106
 20
417.0662756718082
 30
0.0
  0
SPLINE
  5
C0
330
1F
100
AcDbEntity
  8
0
  6
Continuous
 62
     8
370
     0
100
AcDbSpline
210
0.0
220
0.0
230
1.0
 70
     8
 71
     3
 72
    35
 73
    31
 74
     0
 42
0.00000001
 43
0.00000001
 12
1.0
 22
0.0
 32
0.0
 13
1.0
 23
0.0
 33
0.0
 40
0.0
 40
0.0
 40
0.0
 40
0.0
 40
0.0334738834135567
 40
0.0665822652413456
 40
0.0995060516759312
 40
0.132435899764092
 40
0.1655811834779254
 40
0.1991805413052133
 40
0.2335036511564907
 40
0.2558619322100983
 40
0.2865313031290344
 40
0.4014583855833661
 40
0.4145342942382441
 40
0.4277965612601755
 40
0.5256617585504977
 40
0.5661802079667133
 40
0.5706098703972315
 40
0.5967186570130829
 40
0.6521208309243598
 40
0.6692717011560123
 40
0.6726806497457448
 40
0.6827620711187111
 40
0.6958751372667741
 40
0.7463848433130454
 40
0.7560992139849295
 40
0.7592731673648074
 40
0.827886321319362
 40
0.889456959349613
 40
0.946313427426494
 40
1.0
 40
1.0
 40
1.0
 40
1.0
 10
169.7327280418371
 20
433.6069303969558
 30
0.0
 10
169.7368868066003
 20
433.7031438929727
 30
0.0
 10
169.7451589265427
 20
433.894520329117
 30
0.0
 10
169.7629255535819
 20
434.1793292053449
 30
0.0
 10
169.7845317404292
 20
434.4613093171437
 30
0.0
 10
169.8106549872691
 20
434.7417086413863
 30
0.0
 10
169.8416484696346
 20
435.0219473700516
 30
0.0
 10
169.8781681949254
 20
435.3035402784353
 30
0.0
 10
169.9156146846111
 20
435.5523292697387
 30
0.0
 10
169.9558843655885
 20
435.790454345251
 30
0.0
 10
170.0408661690996
 20
436.2429417164295
 30
0.0
 10
170.1421485678015
 20
436.655859432544
 30
0.0
 10
170.2513975316066
 20
437.0022370605099
 30
0.0
 10
170.3509636659618
 20
437.3029311936833
 30
0.0
 10
170.4916382123154
 20
437.650063159943
 30
0.0
 10
170.6479108938365
 20
437.9420559009952
 30
0.0
 10
170.729515942686
 20
438.0812609255316
 30
0.0
 10
170.8313836910592
 20
438.2445758652471
 30
0.0
 10
170.9580560224626
 20
438.4158748714961
 30
0.0
 10
171.0617754433218
 20
438.5356092312214
 30
0.0
 10
171.1043149953741
 20
438.582522813696
 30
0.0
 10
171.1416470735583
 20
438.6224639439513
 30
0.0
 10
171.2469291400273
 20
438.7293213443841
 30
0.0
 10
171.3567761535651
 20
438.8252849408472
 30
0.0
 10
171.4553636525394
 20
438.8996202373968
 30
0.0
 10
171.583100866039
 20
438.9928495776325
 30
0.0
 10
171.8013420054106
 20
439.1241661042932
 30
0.0
 10
172.1268096234764
 20
439.2552279164558
 30
0.0
 10
172.4392074121123
 20
439.3377643354854
 30
0.0
 10
172.6482637081306
 20
439.3635438601377
 30
0.0
 10
172.7497944416992
 20
439.3760639999223
 30
0.0
  0
SPLINE
  5
C1
330
1F
100
AcDbEntity
  8
0
  6
Continuous
 62
     8
370
     0
100
AcDbSpline
210
0.0
220
0.0
230
1.0
 70
     8
 71
     3
 72
    38
 73
    34
 74
     0
 42
0.00000001
 43
0.00000001
 12
1.0
 22
0.0
 32
0.0
 13
1.0
 23
0.0
 33
0.0
 40
0.0
 40
0.0
 40
0.0
 40
0.0
 40
0.0202441099826074
 40
0.0404133547856222
 40
0.0608821555381693
 40
0.073080103453869
 40
0.0974456172924866
 40
0.1285082873306246
 40
0.1471225968000923
 40
0.1965751226354207
 40
0.2539819706110326
 40
0.2731259341744801
 40
0.2986649192104995
 40
0.3637664009634756
 40
0.3767671644558069
 40
0.4027076216329325
 40
0.5001870833793972
 40
0.5010593726890997
 40
0.5019313373843262
 40
0.5071563163151919
 40
0.5904559320911497
 40
0.615829840139906
 40
0.6252783010012352
 40
0.6409501783939359
 40
0.7149504483409399
 40
0.7457481662379043
 40
0.7641064277599041
 40
0.8126909354515
 40
0.8690817229884412
 40
0.8877941359976739
 40
0.912696546179965
 40
0.9563753821422145
 40
0.9999999999999999
 40
0.9999999999999999
 40
0.9999999999999999
 40
0.9999999999999999
 10
172.7497934154887
 20
439.3760876620345
 30
0.0
 10
172.8356003640608
 20
439.3842510239308
 30
0.0
 10
173.0068969366785
 20
439.4005475586188
 30
0.0
 10
173.2711920273976
 20
439.4252791299113
 30
0.0
 10
173.5044584382122
 20
439.4467376990774
 30
0.0
 10
173.7599337446659
 20
439.4699268824261
 30
0.0
 10
174.0675763515024
 20
439.4974111126246
 30
0.0
 10
174.4120963761324
 20
439.5275004429759
 30
0.0
 10
174.8822551871113
 20
439.5675804412065
 30
0.0
 10
175.4926708672136
 20
439.6179478667563
 30
0.0
 10
176.1286189007943
 20
439.6675503927298
 30
0.0
 10
176.6563126616662
 20
439.7067967521496
 30
0.0
 10
177.2314952186115
 20
439.7484482887368
 30
0.0
 10
177.7889312338756
 20
439.7866137723996
 30
0.0
 10
178.3596730671022
 20
439.8236276973471
 30
0.0
 10
179.1152644788303
 20
439.8712785596224
 30
0.0
 10
179.8244649720276
 20
439.9119596555083
 30
0.0
 10
180.4011703552435
 20
439.9421388085628
 30
0.0
 10
180.4416905086256
 20
439.9442557121566
 30
0.0
 10
180.962055912968
 20
439.9712827493623
 30
0.0
 10
181.6365507458302
 20
440.0033810371714
 30
0.0
 10
182.3476034259992
 20
440.0332754852849
 30
0.0
 10
182.6531132512691
 20
440.0455725487571
 30
0.0
 10
183.2549405813121
 20
440.0690180681233
 30
0.0
 10
183.9955509847365
 20
440.0944726734341
 30
0.0
 10
184.760902980522
 20
440.1165564649365
 30
0.0
 10
185.3711467616191
 20
440.1325729063465
 30
0.0
 10
186.145754064455
 20
440.1501620440015
 30
0.0
 10
186.9282829534132
 20
440.1635698072579
 30
0.0
 10
187.5631697812628
 20
440.1718927794032
 30
0.0
 10
188.1183582083803
 20
440.1778326211216
 30
0.0
 10
188.8335919778489
 20
440.1830923405586
 30
0.0
 10
189.3908615033301
 20
440.1838470823404
 30
0.0
 10
189.6693232253947
 20
440.1842242188725
 30
0.0
  0
SPLINE
  5
C2
330
1F
100
AcDbEntity
  8
0
  6
Continuous
 62
     8
370
     0
100
AcDbSpline
210
0.0
220
0.0
230
1.0
 70
     8
 71
     3
 72
    40
 73
    36
 74
     0
 42
0.00000001
 43
0.00000001
 12
1.0
 22
0.0
 32
0.0
 13
1.0
 23
0.0
 33
0.0
 40
0.0
 40
0.0
 40
0.0
 40
0.0
 40
0.0233561060231357
 40
0.0467255402476401
 40
0.0701131870735152
 40
0.0935247907221529
 40
0.1169719340683667
 40
0.1294414405183749
 40
0.1544322829404091
 40
0.2290252913141774
 40
0.2473723313837664
 40
0.2535063763375099
 40
0.3504955004231223
 40
0.3806520872828526
 40
0.3867254420308502
 40
0.4487451880873939
 40
0.4868085234004249
 40
0.4996325587725154
 40
0.5005040105346175
 40
0.5031202769368873
 40
0.5066130978800202
 40
0.5933139301351286
 40
0.6242962986907455
 40
0.6277473217913405
 40
0.648475963799845
 40
0.7447802452603164
 40
0.7514123503562373
 40
0.7845517326938467
 40
0.8647646545623879
 40
0.8715467618264938
 40
0.8918846500884748
 40
0.9327288576335513
 40
0.9395474810994003
 40
0.969899657533358
 40
1.0
 40
1.0
 40
1.0
 40
1.0
 10
189.6693232253952
 20
440.1842242188729
 30
0.0
 10
189.8183993512012
 20
440.1841161034791
 30
0.0
 10
190.1166366733564
 20
440.1838998109952
 30
0.0
 10
190.5639705486923
 20
440.1821459559655
 30
0.0
 10
191.01130039986
 20
440.1793412109156
 30
0.0
 10
191.4585888522668
 20
440.1753859041721
 30
0.0
 10
191.8357553977204
 20
440.1711064854135
 30
0.0
 10
192.2223618874745
 20
440.1659726826709
 30
0.0
 10
192.9323350513238
 20
440.1551167813152
 30
0.0
 10
193.6756232098944
 20
440.1398047399756
 30
0.0
 10
194.2949163151513
 20
440.1240021644288
 30
0.0
 10
195.0524987580318
 20
440.1036802322122
 30
0.0
 10
195.8762130872861
 20
440.077008997902
 30
0.0
 10
196.6854687519248
 20
440.0456251702038
 30
0.0
 10
197.2792312584774
 20
440.0214885051149
 30
0.0
 10
197.9145450323003
 20
439.9934174360167
 30
0.0
 10
198.5785722569991
 20
439.9607426979329
 30
0.0
 10
198.8800830675621
 20
439.9451464769861
 30
0.0
 10
198.974853024214
 20
439.9401799043762
 30
0.0
 10
199.0153821787949
 20
439.9380488491034
 30
0.0
 10
199.5535927833514
 20
439.9095854958151
 30
0.0
 10
200.2443056290192
 20
439.8699232282485
 30
0.0
 10
200.9157454484619
 20
439.8276596255423
 30
0.0
 10
201.2189084167217
 20
439.8080915047614
 30
0.0
 10
201.8770212177064
 20
439.7648524993731
 30
0.0
 10
202.5325039660288
 20
439.7183491920895
 30
0.0
 10
203.2307569954966
 20
439.6656752379251
 30
0.0
 10
203.8387763678252
 20
439.6186428618317
 30
0.0
 10
204.4250847181528
 20
439.5703914389122
 30
0.0
 10
204.9318208259455
 20
439.5269497526019
 30
0.0
 10
205.2493467029943
 20
439.499354515643
 30
0.0
 10
205.5593969021784
 20
439.4717021794293
 30
0.0
 10
205.9078477798794
 20
439.4399919399083
 30
0.0
 10
206.2040819889155
 20
439.4125901103267
 30
0.0
 10
206.4609967733647
 20
439.3882048360177
 30
0.0
 10
206.5889190359487
 20
439.3760629911253
 30
0.0
  0
SPLINE
  5
C3
330
1F
100
AcDbEntity
  8
0
  6
Continuous
 62
     8
370
     0
100
AcDbSpline
210
0.0
220
0.0
230
1.0
 70
     8
 71
     3
 72
    32
 73
    28
 74
     0
 42
0.00000001
 43
0.00000001
 12
1.0
 22
0.0
 32
0.0
 13
1.0
 23
0.0
 33
0.0
 40
0.0
 40
0.0
 40
0.0
 40
0.0
 40
0.0301271789740099
 40
0.061252027823851
 40
0.0935195390160362
 40
0.1271216448732767
 40
0.1623612171188213
 40
0.1996541380386781
 40
0.2400114482996027
 40
0.2442311357378244
 40
0.2661013614181256
 40
0.3142863147552357
 40
0.3315205809166009
 40
0.3350682529743465
 40
0.3458821026534299
 40
0.3607081482861266
 40
0.4567379779278832
 40
0.5560724089193996
 40
0.5897371781860878
 40
0.5963162463873392
 40
0.6581910002992197
 40
0.7551365247867856
 40
0.7702885372328332
 40
0.7852717127341267
 40
0.8574548421723397
 40
0.9283435641303205
 40
1.0
 40
1.0
 40
1.0
 40
1.0
 10
206.5889184304236
 20
439.376049562212
 30
0.0
 10
206.6460826113256
 20
439.3696966038877
 30
0.0
 10
206.7623039808124
 20
439.356780307265
 30
0.0
 10
206.9359989500777
 20
439.3247027401257
 30
0.0
 10
207.1128126041915
 20
439.2809330273434
 30
0.0
 10
207.2928566611001
 20
439.2222828312306
 30
0.0
 10
207.4767667092855
 20
439.1459508910324
 30
0.0
 10
207.6660473485665
 20
439.0474239609161
 30
0.0
 10
207.7979100358023
 20
438.9620146379173
 30
0.0
 10
207.9020949706706
 20
438.8860934929054
 30
0.0
 10
208.0167070998595
 20
438.7969098969841
 30
0.0
 10
208.1453562617745
 20
438.678282170878
 30
0.0
 10
208.2420344325882
 20
438.5745716410585
 30
0.0
 10
208.2855979175255
 20
438.5256173837222
 30
0.0
 10
208.3253737220537
 20
438.4794689444548
 30
0.0
 10
208.4876345336095
 20
438.2803469657483
 30
0.0
 10
208.7414969005452
 20
437.8850082036539
 30
0.0
 10
208.9629247848163
 20
437.3728009627753
 30
0.0
 10
209.076554848224
 20
437.0367210819932
 30
0.0
 10
209.1553089119915
 20
436.7860949887157
 30
0.0
 10
209.270789322849
 20
436.3671534709954
 30
0.0
 10
209.3652737707669
 20
435.9017639560096
 30
0.0
 10
209.4223027825031
 20
435.554390742714
 30
0.0
 10
209.465741304748
 20
435.2731051135877
 30
0.0
 10
209.5215439871037
 20
434.8317428209638
 30
0.0
 10
209.5764241506751
 20
434.2222517670152
 30
0.0
 10
209.5961382817545
 20
433.8128152827016
 30
0.0
 10
209.6060484350768
 20
433.6069944773651
 30
0.0
  0
LINE
  5
C4
330
1F
100
AcDbEntity
  8
0
  6
Continuous
 62
     8
370
     0
100
AcDbLine
 10
197.9742284334
 20
474.3849518548
 30
0.0
 11
181.3645475945
 21
474.3849518548
 31
0.0
  0
LINE
  5
C5
330
1F
100
AcDbEntity
  8
0
  6
Continuous
 62
     8
370
     0
100
AcDbLine
 10
181.3645475945
 20
484.4149495315
 30
0.0
 11
197.9742284334
 21
484.4149495315
 31
0.0
  0
ARC
  5
C6
330
1F
100
AcDbEntity
  8
0
  6
Continuous
 62
     8
370
     0
100
AcDbCircle
 10
189.6693879722
 20
460.0771364069
 30
0.0
 40
2.306899999999983
100
AcDbArc
 50
280.0154101683
 51
79.9845898317
  0
ARC
  5
C7
330
1F
100
AcDbEntity
  8
0
  6
Continuous
 62
     8
370
     0
100
AcDbCircle
 10
189.6693879722
 20
460.0771364069
 30
0.0
 40
2.407200000000045
100
AcDbArc
 50
99.5940682269
 51
260.4059317731
  0
LINE
  5
C8
330
1F
100
AcDbEntity
  8
0
  6
Continuous
 62
     8
370
     0
100
AcDbLine
 10
189.6693879722
 20
457.0681354802
 30
0.0
 11
189.6693879722
 21
457.6699356388
 31
0.0
  0
LINE
  5
C9
330
1F
100
AcDbEntity
  8
0
  6
Continuous
 62
     8
370
     0
100
AcDbLine
 10
189.6693879722
 20
457.6699356388
 30
0.0
 11
189.2681879858
 21
457.7799564998
 31
0.0
  0
LINE
  5
CA
330
1F
100
AcDbEntity
  8
0
  6
Continuous
 62
     8
370
     0
100
AcDbLine
 10
189.2681879858
 20
462.3743160467
 30
0.0
 11
189.6693879722
 21
462.4843369078
 31
0.0
  0
LINE
  5
CB
330
1F
100
AcDbEntity
  8
0
  6
Continuous
 62
     8
370
     0
100
AcDbLine
 10
189.6693879722
 20
462.4843369078
 30
0.0
 11
189.6693879722
 21
463.0861370664
 31
0.0
  0
SPLINE
  5
CC
330
1F
100
AcDbEntity
  8
0
  6
Continuous
 62
     8
370
     0
100
AcDbSpline
210
0.0
220
0.0
230
1.0
 70
     8
 71
     3
 72
    22
 73
    18
 74
     0
 42
0.00000001
 43
0.00000001
 12
1.0
 22
0.0
 32
0.0
 13
1.0
 23
0.0
 33
0.0
 40
0.0
 40
0.0
 40
0.0
 40
0.0
 40
0.125
 40
0.125
 40
0.25
 40
0.25
 40
0.375
 40
0.375
 40
0.5
 40
0.5
 40
0.625
 40
0.625
 40
0.75
 40
0.75
 40
0.875
 40
0.875
 40
1.0
 40
1.0
 40
1.0
 40
1.0
 10
181.3645479721415
 20
474.3849512472052
 30
0.0
 10
181.1778954310367
 20
474.3849512472046
 30
0.0
 10
180.995728850368
 20
474.4052478865196
 30
0.0
 10
180.6396111262845
 20
474.4832543351021
 30
0.0
 10
180.4641829202968
 20
474.5416878656808
 30
0.0
 10
180.12854013103
 20
474.6942808071961
 30
0.0
 10
179.9706067134113
 20
474.7869855645554
 30
0.0
 10
179.6732498592834
 20
475.0038957645421
 30
0.0
 10
179.5324149032527
 20
475.1297930305715
 30
0.0
 10
179.2783412570627
 20
475.4064404416357
 30
0.0
 10
179.1650466006008
 20
475.5564819595983
 30
0.0
 10
178.9654171049911
 20
475.8801239557783
 30
0.0
 10
178.8783997020857
 20
476.0560094359826
 30
0.0
 10
178.7394159167162
 20
476.4188684620033
 30
0.0
 10
178.6866210532436
 20
476.6063060661158
 30
0.0
 10
178.6148811237553
 20
476.9935163883423
 30
0.0
 10
178.596267972136
 20
477.1938644670622
 30
0.0
 10
178.5962679721356
 20
477.3939512471956
 30
0.0
  0
SPLINE
  5
CD
330
1F
100
AcDbEntity
  8
0
  6
Continuous
 62
     8
370
     0
100
AcDbSpline
210
0.0
220
0.0
230
1.0
 70
     8
 71
     3
 72
    22
 73
    18
 74
     0
 42
0.00000001
 43
0.00000001
 12
1.0
 22
0.0
 32
0.0
 13
1.0
 23
0.0
 33
0.0
 40
0.0
 40
0.0
 40
0.0
 40
0.0
 40
0.125
 40
0.125
 40
0.25
 40
0.25
 40
0.375
 40
0.375
 40
0.5
 40
0.5
 40
0.625
 40
0.625
 40
0.75
 40
0.75
 40
0.875
 40
0.875
 40
1.0
 40
1.0
 40
1.0
 40
1.0
 10
197.9742279721219
 20
484.4149512472376
 30
0.0
 10
198.1608805132266
 20
484.4149512472378
 30
0.0
 10
198.3430470938953
 20
484.3946546079222
 30
0.0
 10
198.6991648179788
 20
484.3166481593387
 30
0.0
 10
198.8745930239665
 20
484.2582146287596
 30
0.0
 10
199.2102358132333
 20
484.1056216872433
 30
0.0
 10
199.3681692308519
 20
484.0129169298836
 30
0.0
 10
199.6655260849799
 20
483.796006729896
 30
0.0
 10
199.8063610410106
 20
483.6701094638662
 30
0.0
 10
200.0604346872006
 20
483.3934620528011
 30
0.0
 10
200.1737293436625
 20
483.2434205348381
 30
0.0
 10
200.3733588392722
 20
482.9197785386575
 30
0.0
 10
200.4603762421776
 20
482.7438930584529
 30
0.0
 10
200.599360027547
 20
482.3810340324317
 30
0.0
 10
200.6521548910197
 20
482.193596428319
 30
0.0
 10
200.723894820508
 20
481.8063861060922
 30
0.0
 10
200.7425079721273
 20
481.6060380273724
 30
0.0
 10
200.7425079721277
 20
481.4059512472388
 30
0.0
  0
SPLINE
  5
CE
330
1F
100
AcDbEntity
  8
0
  6
Continuous
 62
     8
370
     0
100
AcDbSpline
210
0.0
220
0.0
230
1.0
 70
     8
 71
     3
 72
    20
 73
    16
 74
     0
 42
0.00000001
 43
0.00000001
 12
1.0
 22
0.0
 32
0.0
 13
1.0
 23
0.0
 33
0.0
 40
0.0
 40
0.0
 40
0.0
 40
0.0
 40
0.1250000000000016
 40
0.1250000000000016
 40
0.2500000000000031
 40
0.2500000000000031
 40
0.5000000000000026
 40
0.5000000000000026
 40
0.625000000000002
 40
0.625000000000002
 40
0.7500000000000013
 40
0.7500000000000013
 40
0.8750000000000007
 40
0.8750000000000007
 40
1.0
 40
1.0
 40
1.0
 40
1.0
 10
200.7425079721355
 20
477.3939512472389
 30
0.0
 10
200.7425079721359
 20
477.1942658443285
 30
0.0
 10
200.7244028014107
 20
476.9979359694263
 30
0.0
 10
200.6534547916663
 20
476.6116864185337
 30
0.0
 10
200.5997315434286
 20
476.4200627964044
 30
0.0
 10
200.391537051549
 20
475.8758374853031
 30
0.0
 10
200.186546213456
 20
475.5437887210135
 30
0.0
 10
199.8069944316418
 20
475.1304666667043
 30
0.0
 10
199.6664899139116
 20
475.0046257215622
 30
0.0
 10
199.3677296469454
 20
474.7866380709638
 30
0.0
 10
199.2098213562933
 20
474.694148140495
 30
0.0
 10
198.8763420113916
 20
474.5424274713561
 30
0.0
 10
198.6998718656982
 20
474.483425952424
 30
0.0
 10
198.3427896680057
 20
474.405174778548
 30
0.0
 10
198.160518572349
 20
474.3849512472377
 30
0.0
 10
197.9742279721414
 20
474.3849512472376
 30
0.0
  0
SPLINE
  5
CF
330
1F
100
AcDbEntity
  8
0
  6
Continuous
 62
     8
370
     0
100
AcDbSpline
210
0.0
220
0.0
230
1.0
 70
     8
 71
     3
 72
    20
 73
    16
 74
     0
 42
0.00000001
 43
0.00000001
 12
1.0
 22
0.0
 32
0.0
 13
1.0
 23
0.0
 33
0.0
 40
0.0
 40
0.0
 40
0.0
 40
0.0
 40
0.1250000000000005
 40
0.1250000000000005
 40
0.2500000000000009
 40
0.2500000000000009
 40
0.5000000000000027
 40
0.5000000000000027
 40
0.625000000000002
 40
0.625000000000002
 40
0.7500000000000013
 40
0.7500000000000013
 40
0.8750000000000008
 40
0.8750000000000008
 40
1.0
 40
1.0
 40
1.0
 40
1.0
 10
178.5962679721277
 20
481.4059512471957
 30
0.0
 10
178.5962679721273
 20
481.605636650106
 30
0.0
 10
178.6143731428526
 20
481.8019665250083
 30
0.0
 10
178.685321152597
 20
482.188216075901
 30
0.0
 10
178.7390444008346
 20
482.3798396980307
 30
0.0
 10
178.9472388927143
 20
482.9240650091327
 30
0.0
 10
179.1522297308073
 20
483.2561137734228
 30
0.0
 10
179.5317815126214
 20
483.6694358277333
 30
0.0
 10
179.6722860303517
 20
483.7952767728759
 30
0.0
 10
179.9710462973179
 20
484.0132644234752
 30
0.0
 10
180.12895458797
 20
484.1057543539445
 30
0.0
 10
180.4624339328716
 20
484.2574750230843
 30
0.0
 10
180.638904078565
 20
484.3164765420169
 30
0.0
 10
180.9959862762576
 20
484.3947277158938
 30
0.0
 10
181.1782573719143
 20
484.4149512472046
 30
0.0
 10
181.3645479721219
 20
484.4149512472052
 30
0.0
  0
LINE
  5
D0
330
1F
100
AcDbEntity
  8
0
  6
Continuous
 62
     8
370
     0
100
AcDbLine
 10
200.742508418
 20
481.405950601
 30
0.0
 11
200.742508418
 21
477.3939507853
 31
0.0
  0
LINE
  5
D1
330
1F
100
AcDbEntity
  8
0
  6
Continuous
 62
     8
370
     0
100
AcDbLine
 10
178.5962676099
 20
477.3939507853
 30
0.0
 11
178.5962676099
 21
481.405950601
 31
0.0
  0
SPLINE
  5
D2
330
1F
100
AcDbEntity
  8
0
  6
Continuous
 62
     8
370
     0
100
AcDbSpline
210
0.0
220
0.0
230
1.0
 70
     8
 71
     3
 72
    10
 73
     6
 74
     0
 42
0.00000001
 43
0.00000001
 12
1.0
 22
0.0
 32
0.0
 13
1.0
 23
0.0
 33
0.0
 40
0.0
 40
0.0
 40
0.0
 40
0.0
 40
0.5
 40
0.5
 40
1.0
 40
1.0
 40
1.0
 40
1.0
 10
209.6059655069437
 20
433.6069133599544
 30
0.0
 10
209.7147935366377
 20
430.883368285476
 30
0.0
 10
209.7685100058242
 20
428.1113379929196
 30
0.0
 10
209.7698334067176
 20
422.5640013228884
 30
0.0
 10
209.717439968065
 20
419.7912394750007
 30
0.0
 10
209.6099818175002
 20
417.066537219604
 30
0.0
  0
SPLINE
  5
D3
330
1F
100
AcDbEntity
  8
0
  6
Continuous
 62
     8
370
     0
100
AcDbSpline
210
0.0
220
0.0
230
1.0
 70
     8
 71
     3
 72
    10
 73
     6
 74
     0
 42
0.00000001
 43
0.00000001
 12
1.0
 22
0.0
 32
0.0
 13
1.0
 23
0.0
 33
0.0
 40
0.0
 40
0.0
 40
0.0
 40
0.0
 40
0.5
 40
0.5
 40
1.0
 40
1.0
 40
1.0
 40
1.0
 10
169.7287941268449
 20
417.066537219604
 30
0.0
 10
169.6213359773444
 20
419.7912394447803
 30
0.0
 10
169.5689428734089
 20
422.5639746569549
 30
0.0
 10
169.5702655900214
 20
428.1113113340044
 30
0.0
 10
169.6239824063787
 20
430.8833682520638
 30
0.0
 10
169.7328104374014
 20
433.6069133599544
 30
0.0
  0
LINE
  5
D4
330
1F
100
AcDbEntity
  8
0
  6
Continuous
 62
     7
370
    15
100
AcDbLine
 10
314.2456132226
 20
485.919452722
 30
0.0
 11
314.2456132226
 21
456.3866383236
 31
0.0
  0
LINE
  5
D5
330
1F
100
AcDbEntity
  8
0
  6
Continuous
 62
     7
370
    15
100
AcDbLine
 10
360.3836129658
 20
484.4149495315
 30
0.0
 11
360.3836129658
 21
485.919452722
 31
0.0
  0
LINE
  5
D6
330
1F
100
AcDbEntity
  8
0
  6
Continuous
 62
     7
370
    15
100
AcDbLine
 10
360.3836129658
 20
461.9849598806
 30
0.0
 11
360.3836129658
 21
474.3849518548
 31
0.0
  0
LINE
  5
D7
330
1F
100
AcDbEntity
  8
0
  6
Continuous
 62
     7
370
    15
100
AcDbLine
 10
360.3836129658
 20
452.3189510058
 30
0.0
 11
360.3836129658
 21
458.169312666
 31
0.0
  0
ARC
  5
D8
330
1F
100
AcDbEntity
  8
0
  6
Continuous
 62
     7
370
    15
100
AcDbCircle
 10
315.7501137233
 20
485.9194512471
 30
0.0
 40
1.504500000000007
100
AcDbArc
 50
90.0000000002
 51
180.0000000002
  0
ARC
  5
D9
330
1F
100
AcDbEntity
  8
0
  6
Continuous
 62
     7
370
    15
100
AcDbCircle
 10
358.8791137233
 20
485.9194512472
 30
0.0
 40
1.504500000000064
100
AcDbArc
 50
0.0000000002
 51
90.0000000002
  0
LINE
  5
DA
330
1F
100
AcDbEntity
  8
0
  6
Continuous
 62
     7
370
    15
100
AcDbLine
 10
314.7471136652
 20
440.8195363197
 30
0.0
 11
314.7471136652
 21
336.5075397145
 31
0.0
  0
LINE
  5
DB
330
1F
100
AcDbEntity
  8
0
  6
Continuous
 62
     7
370
    15
100
AcDbLine
 10
359.8821143858
 20
440.1842225183
 30
0.0
 11
359.8821143858
 21
440.8195363197
 31
0.0
  0
LINE
  5
DC
330
1F
100
AcDbEntity
  8
0
  6
Continuous
 62
     7
370
    15
100
AcDbLine
 10
359.8821143858
 20
336.5075397145
 30
0.0
 11
359.8821143858
 21
406.7175364893
 31
0.0
  0
LINE
  5
DD
330
1F
100
AcDbEntity
  8
0
  6
Continuous
 62
     7
370
    15
100
AcDbLine
 10
315.2486141078
 20
442.8255366932
 30
0.0
 11
315.2486141078
 21
440.8195363197
 31
0.0
  0
LINE
  5
DE
330
1F
100
AcDbEntity
  8
0
  6
Continuous
 62
     7
370
    15
100
AcDbLine
 10
359.3806139432
 20
440.8195363197
 30
0.0
 11
359.3806139432
 21
442.8255366932
 31
0.0
  0
ARC
  5
DF
330
1F
100
AcDbEntity
  8
0
  6
Continuous
 62
     7
370
    15
100
AcDbCircle
 10
337.3146137234
 20
442.8992227096
 30
0.0
 40
22.06599999999998
100
AcDbArc
 50
145.1399407916
 51
180.1940302379
  0
ARC
  5
E0
330
1F
100
AcDbEntity
  8
0
  6
Continuous
 62
     7
370
    15
100
AcDbCircle
 10
337.3146137234
 20
442.8992227096
 30
0.0
 40
22.06600000000003
100
AcDbArc
 50
0.0
 51
25.2702777801
  0
SPLINE
  5
E1
330
1F
100
AcDbEntity
  8
0
  6
Continuous
 62
     7
370
    15
100
AcDbSpline
210
0.0
220
0.0
230
1.0
 70
     8
 71
     3
 72
    16
 73
    12
 74
     0
 42
0.00000001
 43
0.00000001
 12
1.0
 22
0.0
 32
0.0
 13
1.0
 23
0.0
 33
0.0
 40
0.0
 40
0.0
 40
0.0
 40
0.0
 40
0.0974352578653493
 40
0.2039313488276197
 40
0.2909720117260395
 40
0.4114816768595824
 40
0.5753881438055843
 40
0.666820433173697
 40
0.7633545788523408
 40
0.8708542278099984
 40
1.0
 40
1.0
 40
1.0
 40
1.0
 10
359.8962295107609
 20
406.7170969050104
 30
0.0
 10
359.9012534209132
 20
407.1101639910721
 30
0.0
 10
359.9117684315594
 20
407.9328507966131
 30
0.0
 10
360.0675531888829
 20
409.0973594499549
 30
0.0
 10
360.2878888183304
 20
410.3447997211821
 30
0.0
 10
360.6465426701166
 20
411.7957674230733
 30
0.0
 10
361.1691661114724
 20
413.1878647196691
 30
0.0
 10
361.9173938118996
 20
414.3275073074815
 30
0.0
 10
362.7506320433511
 20
415.1007543634261
 30
0.0
 10
363.9071039704227
 20
415.6855057764201
 30
0.0
 10
364.8268685701842
 20
415.8233098663249
 30
0.0
 10
365.3288166277176
 20
415.898514429825
 30
0.0
  0
SPLINE
  5
E2
330
1F
100
AcDbEntity
  8
0
  6
Continuous
 62
     7
370
    15
100
AcDbSpline
210
0.0
220
0.0
230
1.0
 70
     8
 71
     3
 72
    12
 73
     8
 74
     0
 42
0.00000001
 43
0.00000001
 12
1.0
 22
0.0
 32
0.0
 13
1.0
 23
0.0
 33
0.0
 40
0.0
 40
0.0
 40
0.0
 40
0.0
 40
0.1768484343520145
 40
0.3401756045765302
 40
0.6388302889152757
 40
0.87547890749418
 40
1.0
 40
1.0
 40
1.0
 40
1.0
 10
362.3173124395376
 20
435.4780129345792
 30
0.0
 10
362.0180253795186
 20
435.6249399244188
 30
0.0
 10
361.4423337882592
 20
435.9075603376583
 30
0.0
 10
360.6628617398962
 20
436.8437628193682
 30
0.0
 10
360.1600555184983
 20
438.0620317572139
 30
0.0
 10
359.9036831107741
 20
439.2765258158411
 30
0.0
 10
359.8983897781385
 20
439.9519036204523
 30
0.0
 10
359.8965647868877
 20
440.1847547691042
 30
0.0
  0
SPLINE
  5
E3
330
1F
100
AcDbEntity
  8
0
  6
Continuous
 62
     7
370
    15
100
AcDbSpline
210
0.0
220
0.0
230
1.0
 70
     8
 71
     3
 72
    18
 73
    14
 74
     0
 42
0.00000001
 43
0.00000001
 12
1.0
 22
0.0
 32
0.0
 13
1.0
 23
0.0
 33
0.0
 40
0.0
 40
0.0
 40
0.0
 40
0.0
 40
0.0875665963493857
 40
0.1701696854181263
 40
0.2486967947314291
 40
0.2897075044550353
 40
0.335276192468433
 40
0.3883965190561626
 40
0.4517058429256663
 40
0.5261754777624158
 40
0.6093290113734839
 40
0.7967846480302595
 40
1.0
 40
1.0
 40
1.0
 40
1.0
 10
470.6024135701423
 20
417.9208311091835
 30
0.0
 10
470.6198717928758
 20
418.3171749114411
 30
0.0
 10
470.6537986599046
 20
419.0873966964525
 30
0.0
 10
470.6972294425432
 20
420.2872779168445
 30
0.0
 10
470.7274972277331
 20
421.3381839216801
 30
0.0
 10
470.7461049616968
 20
422.1432660552473
 30
0.0
 10
470.7568671063701
 20
422.7486735742557
 30
0.0
 10
470.7654279977237
 20
423.3433085467943
 30
0.0
 10
470.7721618158197
 20
423.9244775186078
 30
0.0
 10
470.7780093035324
 20
424.4900449724562
 30
0.0
 10
470.785592548701
 20
425.2890104927949
 30
0.0
 10
470.7945918456529
 20
426.2394853697135
 30
0.0
 10
470.7949068351248
 20
426.9680216255251
 30
0.0
 10
470.7950706832176
 20
427.3469843741233
 30
0.0
  0
LWPOLYLINE
  5
E4
330
1F
100
AcDbEntity
  8
0
  6
Continuous
 62
     7
370
    15
100
AcDbPolyline
 90
        4
 70
   128
 43
0.0
 10
448.0982627027
 20
434.5757780378
 10
438.4457449667
 20
434.648381923
 10
413.7219171278
 20
434.8348800544
 10
363.8938646071
 20
435.2121731339
  0
SPLINE
  5
E5
330
1F
100
AcDbEntity
  8
0
  6
Continuous
 62
     7
370
    15
100
AcDbSpline
210
0.0
220
0.0
230
1.0
 70
     8
 71
     3
 72
     9
 73
     5
 74
     0
 42
0.00000001
 43
0.00000001
 12
1.0
 22
0.0
 32
0.0
 13
1.0
 23
0.0
 33
0.0
 40
0.0
 40
0.0
 40
0.0
 40
0.0
 40
0.6016296016765931
 40
1.0
 40
1.0
 40
1.0
 40
1.0
 10
470.1310451380974
 20
433.7564738074044
 30
0.0
 10
470.1434017597938
 20
433.7738003530807
 30
0.0
 10
470.1639403464292
 20
433.8025997100738
 30
0.0
 10
469.6542855490667
 20
433.9597689673095
 30
0.0
 10
469.451254164434
 20
434.0223805469187
 30
0.0
  0
SPLINE
  5
E6
330
1F
100
AcDbEntity
  8
0
  6
Continuous
 62
     7
370
    15
100
AcDbSpline
210
0.0
220
0.0
230
1.0
 70
     8
 71
     3
 72
    16
 73
    12
 74
     0
 42
0.00000001
 43
0.00000001
 12
1.0
 22
0.0
 32
0.0
 13
1.0
 23
0.0
 33
0.0
 40
0.0
 40
0.0
 40
0.0
 40
0.0
 40
0.1291448627007789
 40
0.2383737740368973
 40
0.327844942249456
 40
0.3975764182282094
 40
0.4525130517086046
 40
0.5428933456424697
 40
0.664268051373602
 40
0.8166382028090098
 40
1.0
 40
1.0
 40
1.0
 40
1.0
 10
469.5861692778831
 20
434.0042251118185
 30
0.0
 10
468.6591719406361
 20
434.0950491266702
 30
0.0
 10
466.9481332730455
 20
434.2626908178735
 30
0.0
 10
464.5858117887858
 20
434.3710500776066
 30
0.0
 10
462.651024574866
 20
434.4278889917774
 30
0.0
 10
461.1071085597424
 20
434.4575592915941
 30
0.0
 10
459.5565605658621
 20
434.480883727916
 30
0.0
 10
457.6335604812108
 20
434.5035942892692
 30
0.0
 10
455.0079388334415
 20
434.5273190816518
 30
0.0
 10
451.711797347372
 20
434.550522893781
 30
0.0
 10
449.2908746292196
 20
434.5674745414644
 30
0.0
 10
447.9686747543579
 20
434.5767327744007
 30
0.0
  0
LINE
  5
E7
330
1F
100
AcDbEntity
  8
0
  6
Continuous
 62
     7
370
    15
100
AcDbLine
 10
468.9188058727
 20
413.6592983108
 30
0.0
 11
468.4970285051
 21
416.6603772741
 31
0.0
  0
LINE
  5
E8
330
1F
100
AcDbEntity
  8
0
  6
Continuous
 62
     7
370
    15
100
AcDbLine
 10
444.2122931831
 20
416.4908355873
 30
0.0
 11
445.0810755841
 21
410.3091242563
 31
0.0
  0
LINE
  5
E9
330
1F
100
AcDbEntity
  8
0
  6
Continuous
 62
     7
370
    15
100
AcDbLine
 10
445.0810755841
 20
410.3091242563
 30
0.0
 11
446.1549054138
 21
409.8752676349
 31
0.0
  0
LINE
  5
EA
330
1F
100
AcDbEntity
  8
0
  6
Continuous
 62
     7
370
    15
100
AcDbLine
 10
468.006154453
 20
412.9462609838
 30
0.0
 11
468.9188058727
 21
413.6592983108
 31
0.0
  0
ARC
  5
EB
330
1F
100
AcDbEntity
  8
0
  6
Continuous
 62
     7
370
    15
100
AcDbCircle
 10
447.9923980543
 20
410.1335099112
 30
0.0
 40
0.2006000000000219
100
AcDbArc
 50
187.9999999999
 51
278.0
  0
ARC
  5
EC
330
1F
100
AcDbEntity
  8
0
  6
Continuous
 62
     7
370
    15
100
AcDbCircle
 10
466.1686694292
 20
412.688018262
 30
0.0
 40
0.2006000000000122
100
AcDbArc
 50
278.0
 51
8.0000000001
  0
ARC
  5
ED
330
1F
100
AcDbEntity
  8
0
  6
Continuous
 62
     7
370
    15
100
AcDbCircle
 10
362.3896137233
 20
484.4149512472
 30
0.0
 40
2.005999999999972
100
AcDbArc
 50
180.0000000002
 51
270.0000000002
  0
ARC
  5
EE
330
1F
100
AcDbEntity
  8
0
  6
Continuous
 62
     7
370
    15
100
AcDbCircle
 10
362.3896137233
 20
474.3849512472
 30
0.0
 40
2.006000000000029
100
AcDbArc
 50
90.0000000002
 51
180.0000000002
  0
LINE
  5
EF
330
1F
100
AcDbEntity
  8
0
  6
Continuous
 62
     7
370
    15
100
AcDbLine
 10
360.2962269686
 20
459.5756358307
 30
0.0
 11
360.4839145444
 21
459.5756358307
 31
0.0
  0
LINE
  5
F0
330
1F
100
AcDbEntity
  8
0
  6
Continuous
 62
     7
370
    15
100
AcDbLine
 10
360.4839145444
 20
460.5786367159
 30
0.0
 11
360.2960611932
 21
460.5786367159
 31
0.0
  0
SPLINE
  5
F1
330
1F
100
AcDbEntity
  8
0
  6
Continuous
 62
     7
370
    15
100
AcDbSpline
210
0.0
220
0.0
230
1.0
 70
     8
 71
     3
 72
    11
 73
     7
 74
     0
 42
0.00000001
 43
0.00000001
 12
1.0
 22
0.0
 32
0.0
 13
1.0
 23
0.0
 33
0.0
 40
0.0
 40
0.0
 40
0.0
 40
0.0
 40
0.249994521204647
 40
0.499991045015818
 40
0.749996065779412
 40
1.0
 40
1.0
 40
1.0
 40
1.0
 10
469.2168290965324
 20
416.6654026906664
 30
0.0
 10
469.3948221117118
 20
416.686399278996
 30
0.0
 10
469.7508095679017
 20
416.7283926238507
 30
0.0
 10
470.2031916616783
 20
417.0367394173472
 30
0.0
 10
470.5277827325434
 20
417.4775961383649
 30
0.0
 10
470.5826725975936
 20
417.8317907417577
 30
0.0
 10
470.6101174704796
 20
418.0088876586134
 30
0.0
  0
SPLINE
  5
F2
330
1F
100
AcDbEntity
  8
0
  6
Continuous
 62
     7
370
    15
100
AcDbSpline
210
0.0
220
0.0
230
1.0
 70
     8
 71
     3
 72
    20
 73
    16
 74
     0
 42
0.00000001
 43
0.00000001
 12
1.0
 22
0.0
 32
0.0
 13
1.0
 23
0.0
 33
0.0
 40
0.0
 40
0.0
 40
0.0
 40
0.0
 40
0.0000335932920378
 40
0.0000335932920378
 40
0.0000335932920378
 40
0.0000671832469149
 40
0.0000671832469149
 40
0.0000671832469149
 40
0.000100826055065
 40
0.000100826055065
 40
0.000100826055065
 40
0.000134578510679
 40
0.000134578510679
 40
0.000134578510679
 40
0.000156937701906
 40
0.000156937701906
 40
0.000156937701906
 40
0.000156937701906
 10
360.3045891504379
 20
461.8846599999872
 30
0.0
 10
360.3045891504379
 20
461.8958577639997
 30
0.0
 10
360.3047494318661
 20
461.9072099197986
 30
0.0
 10
360.3050552141051
 20
461.9177757980471
 30
0.0
 10
360.3053609794125
 20
461.9283410912497
 30
0.0
 10
360.3058204835886
 20
461.9384111708284
 30
0.0
 10
360.3063920475875
 20
461.9471574646923
 30
0.0
 10
360.3069645207411
 20
461.9559176707928
 30
0.0
 10
360.3076649096225
 20
461.9635908473709
 30
0.0
 10
360.3084313162902
 20
461.9695500663912
 30
0.0
 10
360.3092001906112
 20
461.9755284727273
 30
0.0
 10
360.310056451592
 20
461.9799463873584
 30
0.0
 10
360.310926638188
 20
461.9824434008356
 30
0.0
 10
360.3115076793797
 20
461.9841107072421
 30
0.0
 10
360.3121036957395
 20
461.9849599999877
 30
0.0
 10
360.3126923270262
 20
461.9849599999877
 30
0.0
  0
LINE
  5
F3
330
1F
100
AcDbEntity
  8
0
  6
Continuous
 62
     7
370
    15
100
AcDbLine
 10
360.3045883827
 20
461.275731663
 30
0.0
 11
360.3045883827
 21
461.8846601646
 31
0.0
  0
ARC
  5
F4
330
1F
100
AcDbEntity
  8
0
  6
Continuous
 62
     7
370
    15
100
AcDbCircle
 10
337.3146137234
 20
459.3679083053
 30
0.0
 40
23.06899999999616
100
AcDbArc
 50
3.0084310463
 51
4.7438219256
  0
ARC
  5
F5
330
1F
100
AcDbEntity
  8
0
  6
Continuous
 62
     7
370
    15
100
AcDbCircle
 10
337.3146137234
 20
460.7863645084
 30
0.0
 40
23.06900000000583
100
AcDbArc
 50
355.2561780744
 51
356.9915689537
  0
LINE
  5
F6
330
1F
100
AcDbEntity
  8
0
  6
Continuous
 62
     7
370
    15
100
AcDbLine
 10
360.3045883827
 20
458.269612382
 30
0.0
 11
360.3045883827
 21
458.8785408836
 31
0.0
  0
SPLINE
  5
F7
330
1F
100
AcDbEntity
  8
0
  6
Continuous
 62
     7
370
    15
100
AcDbSpline
210
0.0
220
0.0
230
1.0
 70
     8
 71
     3
 72
    20
 73
    16
 74
     0
 42
0.00000001
 43
0.00000001
 12
1.0
 22
0.0
 32
0.0
 13
1.0
 23
0.0
 33
0.0
 40
0.0
 40
0.0
 40
0.0
 40
0.0
 40
0.0000338666266729
 40
0.0000338666266729
 40
0.0000338666266729
 40
0.0000677358374564
 40
0.0000677358374564
 40
0.0000677358374564
 40
0.0001015626008786
 40
0.0001015626008786
 40
0.0001015626008786
 40
0.0001352847931236
 40
0.0001352847931236
 40
0.0001352847931236
 40
0.000156938000513
 40
0.000156938000513
 40
0.000156938000513
 40
0.000156938000513
 10
360.312692327038
 20
458.1693128137551
 30
0.0
 10
360.3118078106345
 20
458.1693128137551
 30
0.0
 10
360.3109023814103
 20
458.1712603810897
 30
0.0
 10
360.3100523185167
 20
458.1749956590054
 30
0.0
 10
360.30920222026
 20
458.1787310923115
 30
0.0
 10
360.3083841300159
 20
458.1843579819583
 30
0.0
 10
360.3076695968325
 20
458.1914132815854
 30
0.0
 10
360.3069559760419
 20
458.1984595722469
 30
0.0
 10
360.3063261023781
 20
458.2071262526717
 30
0.0
 10
360.3058368537328
 20
458.216695254531
 30
0.0
 10
360.305349103175
 20
458.2262349559485
 30
0.0
 10
360.3049878122607
 20
458.2369358894816
 30
0.0
 10
360.3047862459061
 20
458.2479081942728
 30
0.0
 10
360.3046557272381
 20
458.255013004046
 30
0.0
 10
360.304589150449
 20
458.2623344027129
 30
0.0
 10
360.304589150449
 20
458.269612813755
 30
0.0
  0
SPLINE
  5
F8
330
1F
100
AcDbEntity
  8
0
  6
Continuous
 62
     7
370
    15
100
AcDbSpline
210
0.0
220
0.0
230
1.0
 70
     8
 71
     3
 72
    12
 73
     8
 74
     0
 42
0.00000001
 43
0.00000001
 12
1.0
 22
0.0
 32
0.0
 13
1.0
 23
0.0
 33
0.0
 40
0.0
 40
0.0
 40
0.0
 40
0.0
 40
0.5
 40
0.5
 40
0.75
 40
0.75
 40
1.0
 40
1.0
 40
1.0
 40
1.0
 10
332.9937140892187
 20
453.0808424335316
 30
0.0
 10
334.4249279885603
 20
452.8284808079169
 30
0.0
 10
335.8672823594369
 20
452.6381815070138
 30
0.0
 10
338.0475925629821
 20
452.4469678843031
 30
0.0
 10
338.7771688787008
 20
452.3989564514546
 30
0.0
 10
340.2420704438735
 20
452.3348498762275
 30
0.0
 10
340.9760365826642
 20
452.3189512471193
 30
0.0
 10
341.7021701992176
 20
452.318951247122
 30
0.0
  0
LWPOLYLINE
  5
F9
330
1F
100
AcDbEntity
  8
0
  6
Continuous
 62
     7
370
    15
100
AcDbPolyline
 90
       15
 70
   128
 43
0.0
 10
314.2456132226
 20
456.3866383236
 10
314.3579828791
 20
456.3668253671
 10
314.6939928882
 20
456.3075764876
 10
315.2503724448
 20
456.2094728302
 10
316.0217012517
 20
456.0734662067
 10
317.0004653983
 20
455.9008828204
 10
318.1771281414
 20
455.6934065025
 10
319.5402286254
 20
455.4530544977
 10
321.0764843278
 20
455.1821718763
 10
322.7709316887
 20
454.8833942812
 10
324.6070639469
 20
454.5596348893
 10
326.566991327
 20
454.2140471589
 10
328.6316226475
 20
453.8499968897
 10
330.7808422722
 20
453.4710305582
 10
332.9937140696
 20
453.0808417897
  0
LINE
  5
FA
330
1F
100
AcDbEntity
  8
0
  6
Continuous
 62
     7
370
    15
100
AcDbLine
 10
341.7021701351
 20
452.3189510058
 30
0.0
 11
360.3836129658
 21
452.3189510058
 31
0.0
  0
SPLINE
  5
FB
330
1F
100
AcDbEntity
  8
0
  6
Continuous
 62
     7
370
    15
100
AcDbSpline
210
0.0
220
0.0
230
1.0
 70
     8
 71
     3
 72
    17
 73
    13
 74
     0
 42
0.00000001
 43
0.00000001
 12
1.0
 22
0.0
 32
0.0
 13
1.0
 23
0.0
 33
0.0
 40
0.0
 40
0.0
 40
0.0
 40
0.0
 40
0.0360656651388666
 40
0.1439495243618354
 40
0.2519444583187249
 40
0.3596988421051147
 40
0.4669180636161163
 40
0.5736129696961293
 40
0.6801453855837063
 40
0.7869836560064974
 40
0.8943858534238461
 40
0.9999999999999999
 40
0.9999999999999999
 40
0.9999999999999999
 40
0.9999999999999999
 10
360.2960611932045
 20
460.5722906838829
 30
0.0
 10
360.294455815932
 20
460.5740332910927
 30
0.0
 10
360.288048245355
 20
460.5809885899352
 30
0.0
 10
360.275776203748
 20
460.5345450972307
 30
0.0
 10
360.261751077768
 20
460.4374694794697
 30
0.0
 10
360.2512457320807
 20
460.2956380257809
 30
0.0
 10
360.2461901616899
 20
460.1304932945698
 30
0.0
 10
360.2473926920634
 20
459.9597527369116
 30
0.0
 10
360.2546056639786
 20
459.8022722331484
 30
0.0
 10
360.2665408809106
 20
459.6764885101409
 30
0.0
 10
360.2812918688303
 20
459.5916052463441
 30
0.0
 10
360.291276539002
 20
459.5813176147524
 30
0.0
 10
360.2962269686228
 20
459.5762169759447
 30
0.0
  0
LINE
  5
FC
330
1F
100
AcDbEntity
  8
0
  6
Continuous
 62
     7
370
    15
100
AcDbLine
 10
337.3146137236
 20
487.4239521872
 30
0.0
 11
358.8791135006
 21
487.4239521872
 31
0.0
  0
LINE
  5
FD
330
1F
100
AcDbEntity
  8
0
  6
Continuous
 62
     7
370
    15
100
AcDbLine
 10
315.7501145504
 20
487.4239521872
 30
0.0
 11
337.3146137236
 21
487.4239521872
 31
0.0
  0
LINE
  5
FE
330
1F
100
AcDbEntity
  8
0
  6
Continuous
 62
     7
370
    15
100
AcDbLine
 10
314.7471136652
 20
440.8195363197
 30
0.0
 11
359.8821143858
 21
440.8195363197
 31
0.0
  0
LINE
  5
FF
330
1F
100
AcDbEntity
  8
0
  6
Continuous
 62
     7
370
    15
100
AcDbLine
 10
314.7471136652
 20
336.5075397145
 30
0.0
 11
359.8821143858
 21
336.5075397145
 31
0.0
  0
SPLINE
  5
100
330
1F
100
AcDbEntity
  8
0
  6
Continuous
 62
     7
370
    15
100
AcDbSpline
210
0.0
220
0.0
230
1.0
 70
     8
 71
     3
 72
    10
 73
     6
 74
     0
 42
0.00000001
 43
0.00000001
 12
1.0
 22
0.0
 32
0.0
 13
1.0
 23
0.0
 33
0.0
 40
0.0
 40
0.0
 40
0.0
 40
0.0
 40
0.0884641231521578
 40
0.5430398656761407
 40
1.0
 40
1.0
 40
1.0
 40
1.0
 10
362.077744608379
 20
435.0583898907254
 30
0.0
 10
362.1968263625791
 20
435.0678282340348
 30
0.0
 10
362.9278135413491
 20
435.1257658080512
 30
0.0
 10
363.6451719705502
 20
435.1907539397872
 30
0.0
 10
363.8109888768044
 20
435.2049802721584
 30
0.0
 10
363.8941142015224
 20
435.2121120449348
 30
0.0
  0
LINE
  5
101
330
1F
100
AcDbEntity
  8
0
  6
Continuous
 62
     7
370
    15
100
AcDbLine
 10
362.2178062104
 20
435.0695382585
 30
0.0
 11
362.1447216027
 21
435.0637187439
 31
0.0
  0
LINE
  5
102
330
1F
100
AcDbEntity
  8
0
  6
Continuous
 62
     7
370
    15
100
AcDbLine
 10
470.7680399768
 20
427.3023786794
 30
0.0
 11
470.7064832799
 21
432.664962935
 31
0.0
  0
ARC
  5
103
330
1F
100
AcDbEntity
  8
0
  6
Continuous
 62
     7
370
    15
100
AcDbCircle
 10
469.2060587382
 20
418.069509178
 30
0.0
 40
1.404146704180664
100
AcDbArc
 50
270.402394227
 51
357.5249796279
  0
SPLINE
  5
104
330
1F
100
AcDbEntity
  8
0
  6
Continuous
 62
     7
370
    15
100
AcDbSpline
210
0.0
220
0.0
230
1.0
 70
    24
 71
     3
 72
    42
 73
    38
 74
     0
 42
0.00000001
 43
0.00000001
 12
1.0
 22
0.0
 32
0.0
 13
1.0
 23
0.0
 33
0.0
 40
0.0
 40
0.0
 40
0.0
 40
0.0
 40
0.0078125000000003
 40
0.0078125000000003
 40
0.0156250000000007
 40
0.0156250000000007
 40
0.0312500000000014
 40
0.0312500000000014
 40
0.0468750000000023
 40
0.0468750000000023
 40
0.0625000000000031
 40
0.0625000000000031
 40
0.0703125000000031
 40
0.0703125000000031
 40
0.0781250000000031
 40
0.0781250000000031
 40
0.085937500000003
 40
0.085937500000003
 40
0.093750000000003
 40
0.093750000000003
 40
0.101562500000003
 40
0.101562500000003
 40
0.105468750000003
 40
0.105468750000003
 40
0.109375000000003
 40
0.109375000000003
 40
0.125000000000003
 40
0.125000000000003
 40
0.1562500000000028
 40
0.1562500000000028
 40
0.1875000000000026
 40
0.1875000000000026
 40
0.2500000000000024
 40
0.2500000000000024
 40
0.5000000000000017
 40
0.5000000000000017
 40
1.0
 40
1.0
 40
1.0
 40
1.0
 10
469.2159177466043
 20
416.6653961846012
 30
0.0
 10
469.212600955616
 20
416.6653730286557
 30
0.0
 10
469.2009154861074
 20
416.6652914473632
 30
0.0
 10
469.1446669456835
 20
416.6648987520915
 30
0.0
 10
469.0996692643318
 20
416.6645846039095
 30
0.0
 10
468.9204055948624
 20
416.6633330870725
 30
0.0
 10
468.7408804619161
 20
416.6620797448463
 30
0.0
 10
468.2761580765539
 20
416.6588353178433
 30
0.0
 10
467.9912422590003
 20
416.6568461978846
 30
0.0
 10
467.3387496486179
 20
416.6522908661188
 30
0.0
 10
466.971580505383
 20
416.649727500289
 30
0.0
 10
466.3672495648722
 20
416.6455084058708
 30
0.0
 10
466.157100704904
 20
416.644041266225
 30
0.0
 10
465.7217528906321
 20
416.6410019157465
 30
0.0
 10
465.4957352118928
 20
416.6394239890463
 30
0.0
 10
465.0407870245685
 20
416.6362477999271
 30
0.0
 10
464.8138314164145
 20
416.6346633251379
 30
0.0
 10
464.3611845566126
 20
416.6315032025767
 30
0.0
 10
464.122387149991
 20
416.6298360550953
 30
0.0
 10
463.6080205105253
 20
416.6262450401861
 30
0.0
 10
463.3346150792277
 20
416.6243362791882
 30
0.0
 10
462.9020066703814
 20
416.6213160536782
 30
0.0
 10
462.7542689316081
 20
416.620284632933
 30
0.0
 10
462.4530818112206
 20
416.6181819160054
 30
0.0
 10
462.3001045799801
 20
416.6171139161081
 30
0.0
 10
461.5463859050859
 20
416.6118518816152
 30
0.0
 10
460.9580268249549
 20
416.6077442936291
 30
0.0
 10
459.1823790133719
 20
416.5953477319634
 30
0.0
 10
457.9968755841189
 20
416.5870712222469
 30
0.0
 10
455.6242773992234
 20
416.5705070930796
 30
0.0
 10
454.4371700102695
 20
416.5622193854301
 30
0.0
 10
450.8754185677337
 20
416.5373532655233
 30
0.0
 10
448.5013520285954
 20
416.5207788851429
 30
0.0
 10
436.6307466774498
 20
416.437905079716
 30
0.0
 10
427.1321825785582
 20
416.37159151527
 30
0.0
 10
398.634546392456
 20
416.1726372508031
 30
0.0
 10
379.6321481079452
 20
416.0399733291671
 30
0.0
 10
360.6314683217955
 20
415.907321405108
 30
0.0
  0
SPLINE
  5
105
330
1F
100
AcDbEntity
  8
0
  6
Continuous
 62
     7
370
    15
100
AcDbSpline
210
0.0
220
0.0
230
1.0
 70
     8
 71
     3
 72
    10
 73
     6
 74
     0
 42
0.00000001
 43
0.00000001
 12
1.0
 22
0.0
 32
0.0
 13
1.0
 23
0.0
 33
0.0
 40
0.0
 40
0.0
 40
0.0
 40
0.0
 40
0.3820439737081008
 40
0.7898931174361662
 40
1.0
 40
1.0
 40
1.0
 40
1.0
 10
470.7064832799202
 20
432.6649613052333
 30
0.0
 10
470.6843010841376
 20
432.824863223928
 30
0.0
 10
470.6384383955884
 20
433.1554676405239
 30
0.0
 10
470.4137591455315
 20
433.5392496796763
 30
0.0
 10
470.1959956607512
 20
433.6846174350325
 30
0.0
 10
470.1219554297691
 20
433.7340429031948
 30
0.0
  0
LWPOLYLINE
  5
106
330
1F
100
AcDbEntity
  8
0
  6
Continuous
 62
     7
370
    15
100
AcDbPolyline
 90
       10
 70
   128
 43
0.0
 10
468.9188058727
 20
413.6592983108
 10
468.8910897128
 20
413.6554016571
 10
468.6700905912
 20
413.6243439119
 10
468.2322199695
 20
413.5628058415
 10
467.5856138818
 20
413.4719292473
 10
466.7422528617
 20
413.3534054111
 10
465.7178576343
 20
413.209434117
 10
464.5314420812
 20
413.0426938485
 10
463.205059921
 20
412.8562821846
 10
461.7633502238
 20
412.6536636453
  0
LINE
  5
107
330
1F
100
AcDbEntity
  8
0
  6
Continuous
 62
     7
370
    15
100
AcDbLine
 10
461.7633502238
 20
412.6536636453
 30
0.0
 11
461.2855742924
 21
416.0531735819
 31
0.0
  0
LWPOLYLINE
  5
108
330
1F
100
AcDbEntity
  8
0
  6
Continuous
 62
     7
370
    15
100
AcDbPolyline
 90
        9
 70
   128
 43
0.0
 10
451.7587627523
 20
414.7142669957
 10
452.9049153678
 20
414.8753466855
 10
454.0892447583
 20
415.0417945187
 10
455.2992563002
 20
415.2118502956
 10
456.5221722476
 20
415.3837202888
 10
457.7450881951
 20
415.555590282
 10
458.9550997369
 20
415.7256460588
 10
460.1394291274
 20
415.8920920294
 10
461.2855742924
 20
416.0531735819
  0
LINE
  5
109
330
1F
100
AcDbEntity
  8
0
  6
Continuous
 62
     7
370
    15
100
AcDbLine
 10
451.7587627523
 20
414.7142669957
 30
0.0
 11
452.236531233
 21
411.3147570591
 31
0.0
  0
LWPOLYLINE
  5
10A
330
1F
100
AcDbEntity
  8
0
  6
Continuous
 62
     7
370
    15
100
AcDbPolyline
 90
       10
 70
   128
 43
0.0
 10
452.236531233
 20
411.3147570591
 10
450.7948289864
 20
411.1121385198
 10
449.4684393756
 20
410.9257268559
 10
448.2820238225
 20
410.7589865874
 10
447.2576211445
 20
410.6150171559
 10
446.4142750256
 20
410.4964933198
 10
445.7676540367
 20
410.4056167256
 10
445.3297834151
 20
410.3440767925
 10
445.108791744
 20
410.3130190473
 10
445.0810755841
 20
410.3091242563
  0
LWPOLYLINE
  5
10B
330
1F
100
AcDbEntity
  8
0
  6
Continuous
 62
     7
370
    15
100
AcDbPolyline
 90
       12
 70
   128
 43
0.0
 10
457.0805336587
 20
411.410763378
 10
455.5256570928
 20
411.1922397118
 10
454.0024305932
 20
410.9781640421
 10
452.5418634765
 20
410.7728949588
 10
451.1736910097
 20
410.5806122374
 10
449.9257709138
 20
410.4052274327
 10
448.8234947674
 20
410.2503130983
 10
447.8893111698
 20
410.1190226923
 10
447.1422340028
 20
410.0140272479
 10
446.5974699013
 20
409.9374650817
 10
446.2661127798
 20
409.8908970903
 10
446.1549054138
 20
409.8752676349
  0
SPLINE
  5
10C
330
1F
100
AcDbEntity
  8
0
  6
Continuous
 62
     7
370
    15
100
AcDbSpline
210
0.0
220
0.0
230
1.0
 70
     8
 71
     3
 72
     8
 73
     4
 74
     0
 42
0.00000001
 43
0.00000001
 12
1.0
 22
0.0
 32
0.0
 13
1.0
 23
0.0
 33
0.0
 40
0.0
 40
0.0
 40
0.0
 40
0.0
 40
1.0
 40
1.0
 40
1.0
 40
1.0
 10
452.2365347625077
 20
411.3147577202843
 30
0.0
 10
453.8575489712204
 20
411.1731368466578
 30
0.0
 10
455.4729576735232
 20
411.184834004157
 30
0.0
 10
457.0805337417556
 20
411.4107640866339
 30
0.0
  0
SPLINE
  5
10D
330
1F
100
AcDbEntity
  8
0
  6
Continuous
 62
     7
370
    15
100
AcDbSpline
210
0.0
220
0.0
230
1.0
 70
     8
 71
     3
 72
    10
 73
     6
 74
     0
 42
0.00000001
 43
0.00000001
 12
1.0
 22
0.0
 32
0.0
 13
1.0
 23
0.0
 33
0.0
 40
0.0
 40
0.0
 40
0.0
 40
0.0
 40
0.5
 40
0.5
 40
1.0
 40
1.0
 40
1.0
 40
1.0
 10
457.0805337417556
 20
411.4107640866339
 30
0.0
 10
457.8824498290832
 20
411.5234660429082
 30
0.0
 10
458.686370006703
 20
411.6900942446248
 30
0.0
 10
460.2492263001893
 20
412.1113489019233
 30
0.0
 10
461.0130324013054
 20
412.3657501245872
 30
0.0
 10
461.7633473566327
 20
412.6536639143154
 30
0.0
  0
LWPOLYLINE
  5
10E
330
1F
100
AcDbEntity
  8
0
  6
Continuous
 62
     7
370
    15
100
AcDbPolyline
 90
       12
 70
   128
 43
0.0
 10
468.006154453
 20
412.9462609838
 10
467.894947087
 20
412.9306315284
 10
467.5635899656
 20
412.8840616744
 10
467.0188333146
 20
412.8075013708
 10
466.2717635982
 20
412.7025059264
 10
465.3375650995
 20
412.5712155204
 10
464.2352964036
 20
412.416301186
 10
462.9873688571
 20
412.2409163814
 10
461.6192038409
 20
412.0486317973
 10
460.1586367242
 20
411.843362714
 10
458.6354102247
 20
411.6292889069
 10
457.0805336587
 20
411.410763378
  0
LINE
  5
10F
330
1F
100
AcDbEntity
  8
0
  6
Continuous
 62
     7
370
    15
100
AcDbLine
 10
360.7083930872
 20
482.4089514862
 30
0.0
 11
409.5306153648
 21
482.4089514862
 31
0.0
  0
LINE
  5
110
330
1F
100
AcDbEntity
  8
0
  6
Continuous
 62
     7
370
    15
100
AcDbLine
 10
414.5456160657
 20
481.405950601
 30
0.0
 11
414.5456160657
 21
477.3939507853
 31
0.0
  0
LINE
  5
111
330
1F
100
AcDbEntity
  8
0
  6
Continuous
 62
     7
370
    15
100
AcDbLine
 10
409.5306153648
 20
482.4089514862
 30
0.0
 11
413.5426114552
 21
482.4089514862
 31
0.0
  0
ARC
  5
112
330
1F
100
AcDbEntity
  8
0
  6
Continuous
 62
     7
370
    15
100
AcDbCircle
 10
413.5426137233
 20
481.4059512474
 30
0.0
 40
1.002999999999986
100
AcDbArc
 50
0.0000000002
 51
90.0000000002
  0
LINE
  5
113
330
1F
100
AcDbEntity
  8
0
  6
Continuous
 62
     7
370
    15
100
AcDbLine
 10
409.5306153648
 20
476.3909499
 30
0.0
 11
360.7083930872
 21
476.3909499
 31
0.0
  0
ARC
  5
114
330
1F
100
AcDbEntity
  8
0
  6
Continuous
 62
     7
370
    15
100
AcDbCircle
 10
413.5426137233
 20
477.3939512474
 30
0.0
 40
1.002999999999986
100
AcDbArc
 50
270.0000000002
 51
0.0000000002
  0
LINE
  5
115
330
1F
100
AcDbEntity
  8
0
  6
Continuous
 62
     7
370
    15
100
AcDbLine
 10
413.5426114552
 20
476.3909499
 30
0.0
 11
409.5306153648
 21
476.3909499
 31
0.0
  0
LWPOLYLINE
  5
116
330
1F
100
AcDbEntity
  8
0
  6
Continuous
 62
     7
370
    15
100
AcDbPolyline
 90
       11
 70
   128
 43
0.0
 10
457.1084509842
 20
411.2121159982
 10
455.6867535465
 20
411.012310053
 10
454.3000663869
 20
410.8174233537
 10
452.9825280659
 20
410.6322559368
 10
451.7665784113
 20
410.4613656949
 10
450.6821687572
 20
410.3089603435
 10
449.7559945338
 20
410.1787968378
 10
449.0108619683
 20
410.0740752022
 10
448.4651218407
 20
409.9973752003
 10
448.1322075479
 20
409.9505874168
 10
448.0203147285
 20
409.9348629664
  0
LWPOLYLINE
  5
117
330
1F
100
AcDbEntity
  8
0
  6
Continuous
 62
     7
370
    15
100
AcDbPolyline
 90
       11
 70
   128
 43
0.0
 10
466.19658724
 20
412.4893708925
 10
466.0846944206
 20
412.4736445795
 10
465.7517875783
 20
412.426856796
 10
465.2060474508
 20
412.3501586567
 10
464.4609148853
 20
412.2454370212
 10
463.5347332113
 20
412.1152716528
 10
462.4503310077
 20
411.9628681641
 10
461.2343813531
 20
411.7919779222
 10
459.9168430321
 20
411.6068086426
 10
458.530148422
 20
411.411923806
 10
457.1084509842
 20
411.2121159982
  0
LINE
  5
118
330
1F
100
AcDbEntity
  8
0
  6
Continuous
 62
     7
370
    15
100
AcDbLine
 10
360.9854131244
 20
457.0950022738
 30
0.0
 11
360.9854131244
 21
457.0681354802
 31
0.0
  0
LINE
  5
119
330
1F
100
AcDbEntity
  8
0
  6
Continuous
 62
     7
370
    15
100
AcDbLine
 10
360.4839145444
 20
457.0681354802
 30
0.0
 11
360.9854131244
 21
457.0681354802
 31
0.0
  0
LINE
  5
11A
330
1F
100
AcDbEntity
  8
0
  6
Continuous
 62
     7
370
    15
100
AcDbLine
 10
360.4839145444
 20
457.0681354802
 30
0.0
 11
360.4839145444
 21
463.0861370664
 31
0.0
  0
LINE
  5
11B
330
1F
100
AcDbEntity
  8
0
  6
Continuous
 62
     7
370
    15
100
AcDbLine
 10
360.9854131244
 20
463.0861370664
 30
0.0
 11
360.4839145444
 21
463.0861370664
 31
0.0
  0
LINE
  5
11C
330
1F
100
AcDbEntity
  8
0
  6
Continuous
 62
     7
370
    15
100
AcDbLine
 10
360.9854131244
 20
463.0861370664
 30
0.0
 11
360.9854131244
 21
463.0592702727
 31
0.0
  0
LINE
  5
11D
330
1F
100
AcDbEntity
  8
0
  6
Continuous
 62
     7
370
    15
100
AcDbLine
 10
361.0857128404
 20
463.0592702727
 30
0.0
 11
360.9854131244
 21
463.0592702727
 31
0.0
  0
LINE
  5
11E
330
1F
100
AcDbEntity
  8
0
  6
Continuous
 62
     7
370
    15
100
AcDbLine
 10
361.0857128404
 20
457.0950022738
 30
0.0
 11
360.9854131244
 21
457.0950022738
 31
0.0
  0
LINE
  5
11F
330
1F
100
AcDbEntity
  8
0
  6
Continuous
 62
     7
370
    15
100
AcDbLine
 10
361.687512999
 20
462.450667734
 30
0.0
 11
361.687512999
 21
457.7036048125
 31
0.0
  0
SPLINE
  5
120
330
1F
100
AcDbEntity
  8
0
  6
Continuous
 62
     7
370
    15
100
AcDbSpline
210
0.0
220
0.0
230
1.0
 70
     8
 71
     3
 72
    10
 73
     6
 74
     0
 42
0.00000001
 43
0.00000001
 12
1.0
 22
0.0
 32
0.0
 13
1.0
 23
0.0
 33
0.0
 40
0.0
 40
0.0
 40
0.0
 40
0.0
 40
0.5
 40
0.5
 40
1.0
 40
1.0
 40
1.0
 40
1.0
 10
361.6875137233756
 20
457.7036051978915
 30
0.0
 10
361.6875137233756
 20
457.5437535771714
 30
0.0
 10
361.623491855662
 20
457.3871455439794
 30
0.0
 10
361.4020373287742
 20
457.1618330606776
 30
0.0
 10
361.2456224208678
 20
457.095003016159
 30
0.0
 10
361.0857137233755
 20
457.095003016159
 30
0.0
  0
SPLINE
  5
121
330
1F
100
AcDbEntity
  8
0
  6
Continuous
 62
     7
370
    15
100
AcDbSpline
210
0.0
220
0.0
230
1.0
 70
     8
 71
     3
 72
    10
 73
     6
 74
     0
 42
0.00000001
 43
0.00000001
 12
1.0
 22
0.0
 32
0.0
 13
1.0
 23
0.0
 33
0.0
 40
0.0
 40
0.0
 40
0.0
 40
0.0
 40
0.5
 40
0.5
 40
1.0
 40
1.0
 40
1.0
 40
1.0
 10
361.0857137233755
 20
463.0592697975832
 30
0.0
 10
361.245590777561
 20
463.0592697975832
 30
0.0
 10
361.4017495449467
 20
462.9925663327006
 30
0.0
 10
361.6231550547537
 20
462.7676356873322
 30
0.0
 10
361.6875137233756
 20
462.6104934772267
 30
0.0
 10
361.6875137233756
 20
462.4506676158507
 30
0.0
  0
LINE
  5
122
330
1F
100
AcDbEntity
  8
0
  6
Continuous
 62
     7
370
    15
100
AcDbLine
 10
360.3126927517
 20
461.9849598806
 30
0.0
 11
360.4839145444
 21
461.9849598806
 31
0.0
  0
LINE
  5
123
330
1F
100
AcDbEntity
  8
0
  6
Continuous
 62
     7
370
    15
100
AcDbLine
 10
360.3045883827
 20
461.275731663
 30
0.0
 11
360.4839145444
 21
461.275731663
 31
0.0
  0
LINE
  5
124
330
1F
100
AcDbEntity
  8
0
  6
Continuous
 62
     7
370
    15
100
AcDbLine
 10
360.4839145444
 20
458.8785408836
 30
0.0
 11
360.3045883827
 21
458.8785408836
 31
0.0
  0
LINE
  5
125
330
1F
100
AcDbEntity
  8
0
  6
Continuous
 62
     7
370
    15
100
AcDbLine
 10
360.4839145444
 20
458.169312666
 30
0.0
 11
360.3126927517
 21
458.169312666
 31
0.0
  0
SPLINE
  5
126
330
1F
100
AcDbEntity
  8
0
  6
Continuous
 62
     8
370
     0
100
AcDbSpline
210
0.0
220
0.0
230
1.0
 70
     8
 71
     3
 72
    22
 73
    18
 74
     0
 42
0.00000001
 43
0.00000001
 12
1.0
 22
0.0
 32
0.0
 13
1.0
 23
0.0
 33
0.0
 40
0.0
 40
0.0
 40
0.0
 40
0.0
 40
0.125
 40
0.125
 40
0.25
 40
0.25
 40
0.375
 40
0.375
 40
0.5
 40
0.5
 40
0.625
 40
0.625
 40
0.75
 40
0.75
 40
0.875
 40
0.875
 40
1.0
 40
1.0
 40
1.0
 40
1.0
 10
358.8368904052712
 20
474.3849512472052
 30
0.0
 10
358.7648664501676
 20
474.3849512472046
 30
0.0
 10
358.6917879343854
 20
474.4052478865196
 30
0.0
 10
358.5438169567196
 20
474.4832543351021
 30
0.0
 10
358.4682586496516
 20
474.5416878656808
 30
0.0
 10
358.3190112673716
 20
474.6942808071961
 30
0.0
 10
358.2463941983985
 20
474.7869855645554
 30
0.0
 10
358.1060305723522
 20
475.0038957645421
 30
0.0
 10
358.0375637938013
 20
475.1297930305715
 30
0.0
 10
357.9113375110505
 20
475.4064404416357
 30
0.0
 10
357.8536060421196
 20
475.5564819595983
 30
0.0
 10
357.7502786451359
 20
475.8801239557783
 30
0.0
 10
357.7043056619619
 20
476.0560094359826
 30
0.0
 10
357.63014167769
 20
476.4188684620033
 30
0.0
 10
357.6015370670505
 20
476.6063060661158
 30
0.0
 10
357.5625347595198
 20
476.9935163883423
 30
0.0
 10
357.5523204724872
 20
477.1938644670622
 30
0.0
 10
357.5523204724867
 20
477.3939512471956
 30
0.0
  0
LINE
  5
127
330
1F
100
AcDbEntity
  8
0
  6
Continuous
 62
     8
370
     0
100
AcDbLine
 10
360.3836129658
 20
474.3849518548
 30
0.0
 11
358.8368910603
 21
474.3849518548
 31
0.0
  0
LINE
  5
128
330
1F
100
AcDbEntity
  8
0
  6
Continuous
 62
     8
370
     0
100
AcDbLine
 10
358.8368910603
 20
484.4149495315
 30
0.0
 11
360.3836129658
 21
484.4149495315
 31
0.0
  0
SPLINE
  5
129
330
1F
100
AcDbEntity
  8
0
  6
Continuous
 62
     8
370
     0
100
AcDbSpline
210
0.0
220
0.0
230
1.0
 70
     8
 71
     3
 72
    20
 73
    16
 74
     0
 42
0.00000001
 43
0.00000001
 12
1.0
 22
0.0
 32
0.0
 13
1.0
 23
0.0
 33
0.0
 40
0.0
 40
0.0
 40
0.0
 40
0.0
 40
0.1250000000000005
 40
0.1250000000000005
 40
0.2500000000000009
 40
0.2500000000000009
 40
0.5000000000000027
 40
0.5000000000000027
 40
0.625000000000002
 40
0.625000000000002
 40
0.7500000000000013
 40
0.7500000000000013
 40
0.8750000000000008
 40
0.8750000000000008
 40
1.0
 40
1.0
 40
1.0
 40
1.0
 10
357.5523204724737
 20
481.4059512471957
 30
0.0
 10
357.552320472473
 20
481.605636650106
 30
0.0
 10
357.5622565133604
 20
481.8019665250083
 30
0.0
 10
357.6008323835982
 20
482.188216075901
 30
0.0
 10
357.6299413858508
 20
482.3798396980307
 30
0.0
 10
357.7410434312152
 20
482.9240650091327
 30
0.0
 10
357.8486823275909
 20
483.2561137734228
 30
0.0
 10
358.037249987821
 20
483.6694358277333
 30
0.0
 10
358.1055733116144
 20
483.7952767728759
 30
0.0
 10
358.246603991686
 20
484.0132644234752
 30
0.0
 10
358.3191892257148
 20
484.1057543539445
 30
0.0
 10
358.4674872518114
 20
484.2574750230843
 30
0.0
 10
358.5435209594706
 20
484.3164765420169
 30
0.0
 10
358.6918971058042
 20
484.3947277158938
 30
0.0
 10
358.7650061129267
 20
484.4149512472046
 30
0.0
 10
358.8368904052389
 20
484.4149512472052
 30
0.0
  0
LINE
  5
12A
330
1F
100
AcDbEntity
  8
0
  6
Continuous
 62
     8
370
     0
100
AcDbLine
 10
357.5523196958
 20
477.3939507853
 30
0.0
 11
357.5523196958
 21
481.405950601
 31
0.0
  0
SPLINE
  5
12B
330
1F
100
AcDbEntity
  8
0
  6
Continuous
 62
     8
370
     0
100
AcDbSpline
210
0.0
220
0.0
230
1.0
 70
     8
 71
     3
 72
    38
 73
    34
 74
     0
 42
0.00000001
 43
0.00000001
 12
1.0
 22
0.0
 32
0.0
 13
1.0
 23
0.0
 33
0.0
 40
0.0
 40
0.0
 40
0.0
 40
0.0
 40
0.0202441099826074
 40
0.0404133547856222
 40
0.0608821555381693
 40
0.073080103453869
 40
0.0974456172924866
 40
0.1285082873306246
 40
0.1471225968000923
 40
0.1965751226354207
 40
0.2539819706110326
 40
0.2731259341744801
 40
0.2986649192104995
 40
0.3637664009634756
 40
0.3767671644558069
 40
0.4027076216329325
 40
0.5001870833793972
 40
0.5010593726890997
 40
0.5019313373843262
 40
0.5071563163151919
 40
0.5904559320911497
 40
0.615829840139906
 40
0.6252783010012352
 40
0.6409501783939359
 40
0.7149504483409399
 40
0.7457481662379043
 40
0.7641064277599041
 40
0.8126909354515
 40
0.8690817229884412
 40
0.8877941359976739
 40
0.912696546179965
 40
0.9563753821422145
 40
0.9999999999999999
 40
0.9999999999999999
 40
0.9999999999999999
 40
0.9999999999999999
 10
352.2485924083947
 20
439.3760876620345
 30
0.0
 10
352.3448605341392
 20
439.3842510239308
 30
0.0
 10
352.5370407743966
 20
439.4005475586188
 30
0.0
 10
352.8208831836506
 20
439.4252791299113
 30
0.0
 10
353.0635090467073
 20
439.4467376990774
 30
0.0
 10
353.3217974478815
 20
439.4699268824261
 30
0.0
 10
353.6233638262769
 20
439.4974111126246
 30
0.0
 10
353.9455541620608
 20
439.5275004429759
 30
0.0
 10
354.3671028652115
 20
439.5675804412065
 30
0.0
 10
354.8834746507089
 20
439.6179478667563
 30
0.0
 10
355.3738828262239
 20
439.6675503927298
 30
0.0
 10
355.7541878011498
 20
439.7067967521496
 30
0.0
 10
356.1523123921878
 20
439.7484482887368
 30
0.0
 10
356.507255858261
 20
439.7866137723996
 30
0.0
 10
356.8447412010696
 20
439.8236276973471
 30
0.0
 10
357.2748963007476
 20
439.8712785596224
 30
0.0
 10
357.6309199699184
 20
439.9119596555083
 30
0.0
 10
357.8909132570665
 20
439.9421388085628
 30
0.0
 10
357.9091447838453
 20
439.9442557121566
 30
0.0
 10
358.1416634901314
 20
439.9712827493623
 30
0.0
 10
358.4132242497097
 20
440.0033810371714
 30
0.0
 10
358.662169918153
 20
440.0332754852849
 30
0.0
 10
358.7641000986292
 20
440.0455725487571
 30
0.0
 10
358.9578018728872
 20
440.0690180681233
 30
0.0
 10
359.1654520069731
 20
440.0944726734341
 30
0.0
 10
359.3436791083386
 20
440.1165564649365
 30
0.0
 10
359.4724066296474
 20
440.1325729063465
 30
0.0
 10
359.6129225366683
 20
440.1501620440015
 30
0.0
 10
359.7190901005365
 20
440.1635698072579
 30
0.0
 10
359.784841529344
 20
440.1718927794032
 30
0.0
 10
359.8317294637037
 20
440.1778326211216
 30
0.0
 10
359.8732276320759
 20
440.1830923405586
 30
0.0
 10
359.8792116816026
 20
440.1838470823404
 30
0.0
 10
359.8822018482275
 20
440.1842242188725
 30
0.0
  0
SPLINE
  5
12C
330
1F
100
AcDbEntity
  8
0
  6
Continuous
 62
     8
370
     0
100
AcDbSpline
210
0.0
220
0.0
230
1.0
 70
     8
 71
     3
 72
    35
 73
    31
 74
     0
 42
0.00000001
 43
0.00000001
 12
1.0
 22
0.0
 32
0.0
 13
1.0
 23
0.0
 33
0.0
 40
0.0
 40
0.0
 40
0.0
 40
0.0
 40
0.0334738834135567
 40
0.0665822652413456
 40
0.0995060516759312
 40
0.132435899764092
 40
0.1655811834779254
 40
0.1991805413052133
 40
0.2335036511564907
 40
0.2558619322100983
 40
0.2865313031290344
 40
0.4014583855833661
 40
0.4145342942382441
 40
0.4277965612601755
 40
0.5256617585504977
 40
0.5661802079667133
 40
0.5706098703972315
 40
0.5967186570130829
 40
0.6521208309243598
 40
0.6692717011560123
 40
0.6726806497457448
 40
0.6827620711187111
 40
0.6958751372667741
 40
0.7463848433130454
 40
0.7560992139849295
 40
0.7592731673648074
 40
0.827886321319362
 40
0.889456959349613
 40
0.946313427426494
 40
1.0
 40
1.0
 40
1.0
 40
1.0
 10
347.8893894110246
 20
433.6069303969558
 30
0.0
 10
347.8972057596267
 20
433.7031438929727
 30
0.0
 10
347.9127531100615
 20
433.894520329117
 30
0.0
 10
347.945760803647
 20
434.1793292053449
 30
0.0
 10
347.9860694560695
 20
434.4613093171437
 30
0.0
 10
348.0347432443621
 20
434.7417086413863
 30
0.0
 10
348.0921821665172
 20
435.0219473700516
 30
0.0
 10
348.1592684263347
 20
435.3035402784353
 30
0.0
 10
348.2273240239859
 20
435.5523292697387
 30
0.0
 10
348.2998171066317
 20
435.790454345251
 30
0.0
 10
348.4514522687351
 20
436.2429417164295
 30
0.0
 10
348.6286354906189
 20
436.655859432544
 30
0.0
 10
348.8139079624892
 20
437.0022370605099
 30
0.0
 10
348.981715560478
 20
437.3029311936833
 30
0.0
 10
349.2130196152505
 20
437.650063159943
 30
0.0
 10
349.4588932676613
 20
437.9420559009952
 30
0.0
 10
349.5854756191669
 20
438.0812609255316
 30
0.0
 10
349.7420394828519
 20
438.2445758652471
 30
0.0
 10
349.9319036758109
 20
438.4158748714961
 30
0.0
 10
350.0834980856571
 20
438.5356092312214
 30
0.0
 10
350.1452286937666
 20
438.582522813696
 30
0.0
 10
350.19915017375
 20
438.6224639439513
 30
0.0
 10
350.3499859664987
 20
438.7293213443841
 30
0.0
 10
350.5038909979902
 20
438.8252849408472
 30
0.0
 10
350.6389309068617
 20
438.8996202373968
 30
0.0
 10
350.813068073562
 20
438.9928495776325
 30
0.0
 10
351.1030280822759
 20
439.1241661042932
 30
0.0
 10
351.5140925892595
 20
439.2552279164558
 30
0.0
 10
351.8923450745369
 20
439.3377643354854
 30
0.0
 10
352.132136123785
 20
439.3635438601377
 30
0.0
 10
352.2485935641828
 20
439.3760639999223
 30
0.0
  0
SPLINE
  5
12D
330
1F
100
AcDbEntity
  8
0
  6
Continuous
 62
     8
370
     0
100
AcDbSpline
210
0.0
220
0.0
230
1.0
 70
     8
 71
     3
 72
    10
 73
     6
 74
     0
 42
0.00000001
 43
0.00000001
 12
1.0
 22
0.0
 32
0.0
 13
1.0
 23
0.0
 33
0.0
 40
0.0
 40
0.0
 40
0.0
 40
0.0
 40
0.5
 40
0.5
 40
1.0
 40
1.0
 40
1.0
 40
1.0
 10
347.8817691280094
 20
417.066537219604
 30
0.0
 10
347.6789918211079
 20
419.7912394447803
 30
0.0
 10
347.5744463339628
 20
422.5639746569549
 30
0.0
 10
347.5770373081334
 20
428.1113113340044
 30
0.0
 10
347.6841706961273
 20
430.8833682520638
 30
0.0
 10
347.8893445686529
 20
433.6069133599544
 30
0.0
  0
SPLINE
  5
12E
330
1F
100
AcDbEntity
  8
0
  6
Continuous
 62
     8
370
     0
100
AcDbSpline
210
0.0
220
0.0
230
1.0
 70
     8
 71
     3
 72
     9
 73
     5
 74
     0
 42
0.00000001
 43
0.00000001
 12
1.0
 22
0.0
 32
0.0
 13
1.0
 23
0.0
 33
0.0
 40
0.0
 40
0.0
 40
0.0
 40
0.0
 40
0.4975453002822926
 40
1.0
 40
1.0
 40
1.0
 40
1.0
 10
347.9425127787842
 20
416.4738372078652
 30
0.0
 10
347.930375072295
 20
416.5718200212243
 30
0.0
 10
347.9059798936401
 20
416.7687524679854
 30
0.0
 10
347.8899073241978
 20
416.9667772096822
 30
0.0
 10
347.8818315861449
 20
417.0662756718082
 30
0.0
  0
SPLINE
  5
12F
330
1F
100
AcDbEntity
  8
0
  6
Continuous
 62
     8
370
     0
100
AcDbSpline
210
0.0
220
0.0
230
1.0
 70
     8
 71
     3
 72
     9
 73
     5
 74
     0
 42
0.00000001
 43
0.00000001
 12
1.0
 22
0.0
 32
0.0
 13
1.0
 23
0.0
 33
0.0
 40
0.0
 40
0.0
 40
0.0
 40
0.0
 40
0.5059315730489922
 40
1.0
 40
1.0
 40
1.0
 40
1.0
 10
348.4698803069288
 20
412.3157416339665
 30
0.0
 10
348.3830310208064
 20
413.0172397022547
 30
0.0
 10
348.2113689013642
 20
414.4037870253651
 30
0.0
 10
348.0312663295452
 20
415.78927341146
 30
0.0
 10
347.9422833351967
 20
416.4737984907999
 30
0.0
  0
SPLINE
  5
130
330
1F
100
AcDbEntity
  8
0
  6
Continuous
 62
     8
370
     0
100
AcDbSpline
210
0.0
220
0.0
230
1.0
 70
     8
 71
     3
 72
    49
 73
    45
 74
     0
 42
0.00000001
 43
0.00000001
 12
1.0
 22
0.0
 32
0.0
 13
1.0
 23
0.0
 33
0.0
 40
0.0
 40
0.0
 40
0.0
 40
0.0
 40
0.0234075449274014
 40
0.0472011064425618
 40
0.0713958635114993
 40
0.096004711741601
 40
0.1210474879266009
 40
0.1388458643439735
 40
0.1629427313752172
 40
0.2358798714531715
 40
0.2537178858950576
 40
0.2597190185291444
 40
0.3203597316780083
 40
0.3557041818540839
 40
0.404618919417449
 40
0.4334278102419494
 40
0.4511043156096922
 40
0.4751617432754935
 40
0.5020450098775492
 40
0.5087554025401987
 40
0.5177770891712328
 40
0.5559625645929309
 40
0.5639812553421509
 40
0.5666716790123247
 40
0.6224001119642646
 40
0.6311085704703016
 40
0.6399140836346705
 40
0.6834671835978381
 40
0.6966331259663797
 40
0.7100269454657753
 40
0.7445129081908024
 40
0.7658986622380852
 40
0.8013934074635822
 40
0.8148804970612958
 40
0.8374042157085896
 40
0.8718747120427917
 40
0.8802397656465302
 40
0.9043936182443788
 40
0.9265958816781594
 40
0.9421135506538463
 40
0.9636103895896481
 40
0.9831867321111764
 40
0.9917593818197555
 40
1.0
 40
1.0
 40
1.0
 40
1.0
 10
355.3130280350945
 20
406.7175362987368
 30
0.0
 10
355.2588289594247
 20
406.7182661339151
 30
0.0
 10
355.1495370047274
 20
406.7197378400696
 30
0.0
 10
354.9811005837377
 20
406.7316075937341
 30
0.0
 10
354.8076681094406
 20
406.7507511082501
 30
0.0
 10
354.6289310067823
 20
406.7780652537572
 30
0.0
 10
354.4637301188027
 20
406.8099055013987
 30
0.0
 10
354.2982316524227
 20
406.8472430691589
 30
0.0
 10
354.0118853091442
 20
406.9207252556902
 30
0.0
 10
353.720073985875
 20
407.015718319343
 30
0.0
 10
353.4714158535253
 20
407.1112728060974
 30
0.0
 10
353.2537277901872
 20
407.1981946487471
 30
0.0
 10
352.988825792921
 20
407.314991723588
 30
0.0
 10
352.6099971111596
 20
407.5039253908213
 30
0.0
 10
352.3131782486295
 20
407.6668451159713
 30
0.0
 10
352.0625990522825
 20
407.8160974559449
 30
0.0
 10
351.8774288887794
 20
407.9316372163521
 30
0.0
 10
351.6975313190704
 20
408.0485523414623
 30
0.0
 10
351.5467755174507
 20
408.1514366851738
 30
0.0
 10
351.4356302822205
 20
408.2297530106311
 30
0.0
 10
351.2951968609237
 20
408.3301906650627
 30
0.0
 10
351.1519768939207
 20
408.4372582360276
 30
0.0
 10
351.0260164409594
 20
408.5357137478595
 30
0.0
 10
350.8551400498785
 20
408.6706567273734
 30
0.0
 10
350.6839776071025
 20
408.8135046001284
 30
0.0
 10
350.5002369572832
 20
408.9774401190264
 30
0.0
 10
350.3477535379953
 20
409.1159915884363
 30
0.0
 10
350.1865304480266
 20
409.2707728075072
 30
0.0
 10
350.0178699329483
 20
409.4437857684782
 30
0.0
 10
349.8727262403207
 20
409.5975283340552
 30
0.0
 10
349.7118226864999
 20
409.7785177111177
 30
0.0
 10
349.5069692659536
 20
410.0277639494057
 30
0.0
 10
349.3558021982757
 20
410.2284269479844
 30
0.0
 10
349.2095816472576
 20
410.440271046379
 30
0.0
 10
349.0712711959559
 20
410.654990977846
 30
0.0
 10
348.9528792780064
 20
410.8631700866656
 30
0.0
 10
348.8411083904683
 20
411.083438279465
 30
0.0
 10
348.7560174418482
 20
411.2677704399624
 30
0.0
 10
348.6714644549432
 20
411.483040542604
 30
0.0
 10
348.600824607457
 20
411.6940479727978
 30
0.0
 10
348.5437090168023
 20
411.9001171343392
 30
0.0
 10
348.5049328831911
 20
412.0845591370201
 30
0.0
 10
348.4822794804037
 20
412.2211101830677
 30
0.0
 10
348.4739585905961
 20
412.2846158576079
 30
0.0
 10
348.4698803069287
 20
412.3157416339665
 30
0.0
  0
SPLINE
  5
131
330
1F
100
AcDbEntity
  8
0
  6
Continuous
 62
     8
370
     0
100
AcDbSpline
210
0.0
220
0.0
230
1.0
 70
     8
 71
     3
 72
    34
 73
    30
 74
     0
 42
0.00000001
 43
0.00000001
 12
1.0
 22
0.0
 32
0.0
 13
1.0
 23
0.0
 33
0.0
 40
0.0
 40
0.0
 40
0.0
 40
0.0
 40
0.0334089084045165
 40
0.0668468594730889
 40
0.1003393131794545
 40
0.1339081691667674
 40
0.167572164840689
 40
0.2013472678630149
 40
0.2352470702818853
 40
0.2692831997672954
 40
0.303465788776519
 40
0.337804122866036
 40
0.3723075482031522
 40
0.4069861067875006
 40
0.4418509930875358
 40
0.4769150871784757
 40
0.512193355403112
 40
0.5476961158716509
 40
0.5834271875085262
 40
0.619393692561828
 40
0.6556039282748114
 40
0.6920639673474256
 40
0.7287741931671423
 40
0.7657260198151671
 40
0.8028990621990603
 40
0.8519683102540234
 40
0.901137682214942
 40
0.950463988841538
 40
0.9999999999999999
 40
0.9999999999999999
 40
0.9999999999999999
 40
0.9999999999999999
 10
359.8821922201087
 20
406.7175456428011
 30
0.0
 10
359.8811742954142
 20
406.7175455233114
 30
0.0
 10
359.8791375611341
 20
406.7175452842282
 30
0.0
 10
359.8626415466223
 20
406.7175474916786
 30
0.0
 10
359.8362681944926
 20
406.7175539032061
 30
0.0
 10
359.7989969367585
 20
406.7175627873693
 30
0.0
 10
359.7510163177088
 20
406.7175718104504
 30
0.0
 10
359.6921698369794
 20
406.7175786896258
 30
0.0
 10
359.6223740418885
 20
406.717581741432
 30
0.0
 10
359.541505602868
 20
406.717579327639
 30
0.0
 10
359.4494330678846
 20
406.717570333565
 30
0.0
 10
359.3460050445245
 20
406.7175486154596
 30
0.0
 10
359.2310797637203
 20
406.7175246942172
 30
0.0
 10
359.1045241364347
 20
406.717511271133
 30
0.0
 10
358.9661940878291
 20
406.7175107181902
 30
0.0
 10
358.8159300485424
 20
406.7175194369943
 30
0.0
 10
358.6535612462247
 20
406.7175314231712
 30
0.0
 10
358.4789209420703
 20
406.7175451071957
 30
0.0
 10
358.2918521144155
 20
406.7175574495884
 30
0.0
 10
358.0922032710453
 20
406.7175649692053
 30
0.0
 10
357.8798220414522
 20
406.7175650816278
 30
0.0
 10
357.6545735904799
 20
406.7175575279897
 30
0.0
 10
357.4163623067869
 20
406.7175447320886
 30
0.0
 10
357.1651671026589
 20
406.7175330351599
 30
0.0
 10
356.8733002164025
 20
406.7175227078642
 30
0.0
 10
356.5365960070941
 20
406.7175352225443
 30
0.0
 10
356.14981932205
 20
406.7175787601345
 30
0.0
 10
355.7439539263505
 20
406.7175533313946
 30
0.0
 10
355.4568729820673
 20
406.7175419843122
 30
0.0
 10
355.3130280350945
 20
406.7175362987364
 30
0.0
  0
SPLINE
  5
132
330
1F
100
AcDbEntity
  8
0
  6
Continuous
 62
     8
370
    15
100
AcDbSpline
210
0.0
220
0.0
230
1.0
 70
     8
 71
     3
 72
    15
 73
    11
 74
     0
 42
0.00000001
 43
0.00000001
 12
1.0
 22
0.0
 32
0.0
 13
1.0
 23
0.0
 33
0.0
 40
0.0
 40
0.0
 40
0.0
 40
0.0
 40
0.0832154929985225
 40
0.1665783322918764
 40
0.2505318485970962
 40
0.3762872916724239
 40
0.5007395814976253
 40
0.6707649381837564
 40
0.8359937618843528
 40
1.0
 40
1.0
 40
1.0
 40
1.0
 10
356.9992213927615
 20
416.9161935080987
 30
0.0
 10
356.975631094874
 20
416.9314040741144
 30
0.0
 10
356.9284087287161
 20
416.9618521388776
 30
0.0
 10
356.8629127555645
 20
417.0147465047617
 30
0.0
 10
356.7915227289863
 20
417.0823251677294
 30
0.0
 10
356.718402472597
 20
417.1678101836696
 30
0.0
 10
356.6402897719042
 20
417.286797245234
 30
0.0
 10
356.574251526395
 20
417.430071483686
 30
0.0
 10
356.5279791700502
 20
417.598288289161
 30
0.0
 10
356.5223032216801
 20
417.713978905144
 30
0.0
 10
356.5194757860639
 20
417.7716094096473
 30
0.0
  0
SPLINE
  5
133
330
1F
100
AcDbEntity
  8
0
  6
Continuous
 62
     8
370
    15
100
AcDbSpline
210
0.0
220
0.0
230
1.0
 70
     8
 71
     3
 72
    19
 73
    15
 74
     0
 42
0.00000001
 43
0.00000001
 12
1.0
 22
0.0
 32
0.0
 13
1.0
 23
0.0
 33
0.0
 40
0.0
 40
0.0
 40
0.0
 40
0.0
 40
0.0548699156547036
 40
0.1148355272996286
 40
0.1799430646747026
 40
0.2502334852848281
 40
0.3053228964358095
 40
0.3751541999005147
 40
0.500551436619073
 40
0.6379691996893089
 40
0.7501611763088858
 40
0.840234752736307
 40
0.9235368810579608
 40
1.0
 40
1.0
 40
1.0
 40
1.0
 10
360.6314788188899
 20
415.9073214783927
 30
0.0
 10
360.5636413824843
 20
415.9074313140039
 30
0.0
 10
360.4216665373009
 20
415.9076611855133
 30
0.0
 10
360.1992489599077
 20
415.9166711390095
 30
0.0
 10
359.9580116239763
 20
415.9340982189238
 30
0.0
 10
359.7230994134358
 20
415.9599146715937
 30
0.0
 10
359.4826861994856
 20
415.9945546100103
 30
0.0
 10
359.1751182540117
 20
416.0496628377537
 30
0.0
 10
358.7678721673199
 20
416.1450930445772
 30
0.0
 10
358.3126328173719
 20
416.287607729022
 30
0.0
 10
357.9042580058427
 20
416.4468260991985
 30
0.0
 10
357.5652422273322
 20
416.602807133484
 30
0.0
 10
357.271782993462
 20
416.7544932005517
 30
0.0
 10
357.0874449639953
 20
416.863853858769
 30
0.0
 10
356.9992213927615
 20
416.9161935080987
 30
0.0
  0
SPLINE
  5
134
330
1F
100
AcDbEntity
  8
0
  6
Continuous
 62
     8
370
    15
100
AcDbSpline
210
0.0
220
0.0
230
1.0
 70
     8
 71
     3
 72
     9
 73
     5
 74
     0
 42
0.00000001
 43
0.00000001
 12
1.0
 22
0.0
 32
0.0
 13
1.0
 23
0.0
 33
0.0
 40
0.0
 40
0.0
 40
0.0
 40
0.0
 40
0.5524607235509035
 40
1.0
 40
1.0
 40
1.0
 40
1.0
 10
358.1978398613697
 20
434.7691877031658
 30
0.0
 10
359.0667851221211
 20
434.8300044499196
 30
0.0
 10
360.6396485379426
 20
434.9400878353281
 30
0.0
 10
361.6331249111462
 20
435.0218141534475
 30
0.0
 10
362.077744608379
 20
435.0583898907254
 30
0.0
  0
SPLINE
  5
135
330
1F
100
AcDbEntity
  8
0
  6
Continuous
 62
     8
370
    15
100
AcDbSpline
210
0.0
220
0.0
230
1.0
 70
     8
 71
     3
 72
    21
 73
    17
 74
     0
 42
0.00000001
 43
0.00000001
 12
1.0
 22
0.0
 32
0.0
 13
1.0
 23
0.0
 33
0.0
 40
0.0
 40
0.0
 40
0.0
 40
0.0
 40
0.0309084594669679
 40
0.0622001077138363
 40
0.0939125571282404
 40
0.1260791534221009
 40
0.1870924770904241
 40
0.2515496353217417
 40
0.3763605012194865
 40
0.5015773560069882
 40
0.6260963434843021
 40
0.7512462969875653
 40
0.8248939542869312
 40
0.8753059907103132
 40
0.9414385177895334
 40
1.0
 40
1.0
 40
1.0
 40
1.0
 10
356.5194757387205
 20
432.8941366021207
 30
0.0
 10
356.5213742391235
 20
432.9290535059552
 30
0.0
 10
356.5251947766592
 20
432.9993201972429
 30
0.0
 10
356.5381683454962
 20
433.1042403514325
 30
0.0
 10
356.556445081924
 20
433.2089494749318
 30
0.0
 10
356.5876374971016
 20
433.3434324181063
 30
0.0
 10
356.6393457834967
 20
433.506825744534
 30
0.0
 10
356.743482245455
 20
433.7490983679304
 30
0.0
 10
356.9092351605616
 20
434.0181439144864
 30
0.0
 10
357.1408710115178
 20
434.2793599931969
 30
0.0
 10
357.3938555671331
 20
434.4845857003672
 30
0.0
 10
357.6226930943262
 20
434.6148731371963
 30
0.0
 10
357.801696910931
 20
434.6873633304637
 30
0.0
 10
357.9392597501257
 20
434.7290262984379
 30
0.0
 10
358.065879852721
 20
434.7567468474536
 30
0.0
 10
358.155639457003
 20
434.7652107829859
 30
0.0
 10
358.1977942926628
 20
434.7691857984092
 30
0.0
  0
SPLINE
  5
136
330
1F
100
AcDbEntity
  8
0
  6
Continuous
 62
     8
370
    15
100
AcDbSpline
210
0.0
220
0.0
230
1.0
 70
     8
 71
     3
 72
     8
 73
     4
 74
     0
 42
0.00000001
 43
0.00000001
 12
1.0
 22
0.0
 32
0.0
 13
1.0
 23
0.0
 33
0.0
 40
0.0943514823238665
 40
0.0943514823238665
 40
0.0943514823238665
 40
0.0943514823238665
 40
0.8992676120841626
 40
0.8992676120841626
 40
0.8992676120841626
 40
0.8992676120841626
 10
356.5194551899608
 20
417.7718883627398
 30
0.0
 10
356.5194688847208
 20
422.8140991172292
 30
0.0
 10
356.5194825896428
 20
427.8517844366025
 30
0.0
 10
356.5194963047262
 20
432.8940908930206
 30
0.0
  0
SPLINE
  5
137
330
1F
100
AcDbEntity
  8
0
  6
Continuous
 62
     8
370
     0
100
AcDbSpline
210
0.0
220
0.0
230
1.0
 70
     8
 71
     3
 72
    20
 73
    16
 74
     0
 42
0.00000001
 43
0.00000001
 12
1.0
 22
0.0
 32
0.0
 13
1.0
 23
0.0
 33
0.0
 40
0.0
 40
0.0
 40
0.0
 40
0.0
 40
0.5000000000000012
 40
0.5000000000000012
 40
0.6250000000000014
 40
0.6250000000000014
 40
0.6875000000000014
 40
0.6875000000000014
 40
0.7500000000000014
 40
0.7500000000000014
 40
0.8125000000000016
 40
0.8125000000000016
 40
0.8750000000000016
 40
0.8750000000000016
 40
1.0
 40
1.0
 40
1.0
 40
1.0
 10
470.7064769364926
 20
432.6649614517126
 30
0.0
 10
470.7064738091696
 20
432.6650047214081
 30
0.0
 10
470.6990689509112
 20
432.6683690777064
 30
0.0
 10
470.6998587310106
 20
432.6688827026672
 30
0.0
 10
470.7005097294927
 20
432.668667050859
 30
0.0
 10
470.7026331086679
 20
432.6674374538827
 30
0.0
 10
470.7035325693869
 20
432.6668725864093
 30
0.0
 10
470.7057846203842
 20
432.6650153695346
 30
0.0
 10
470.7083726881178
 20
432.6635487987917
 30
0.0
 10
470.7073541323009
 20
432.6600253596466
 30
0.0
 10
470.7021359550269
 20
432.6581090837361
 30
0.0
 10
470.658222659377
 20
432.6552681275362
 30
0.0
 10
470.62072677245
 20
432.6541194651405
 30
0.0
 10
470.4627012141021
 20
432.6505722030165
 30
0.0
 10
470.2975300820811
 20
432.6475709726452
 30
0.0
 10
470.0786987886316
 20
432.642110395171
 30
0.0
  0
SPLINE
  5
138
330
1F
100
AcDbEntity
  8
0
  6
Continuous
 62
     8
370
     0
100
AcDbSpline
210
0.0
220
0.0
230
1.0
 70
     8
 71
     3
 72
    40
 73
    36
 74
     0
 42
0.00000001
 43
0.00000001
 12
1.0
 22
0.0
 32
0.0
 13
1.0
 23
0.0
 33
0.0
 40
0.0
 40
0.0
 40
0.0
 40
0.0
 40
0.499999999999997
 40
0.499999999999997
 40
0.7499999999999958
 40
0.7499999999999958
 40
0.8749999999999951
 40
0.8749999999999951
 40
0.906249999999995
 40
0.906249999999995
 40
0.9140624999999947
 40
0.9140624999999947
 40
0.9179687499999947
 40
0.9179687499999947
 40
0.9218749999999951
 40
0.9218749999999951
 40
0.9374999999999951
 40
0.9374999999999951
 40
0.9414062499999958
 40
0.9414062499999958
 40
0.9453124999999964
 40
0.9453124999999964
 40
0.953124999999997
 40
0.953124999999997
 40
0.9609374999999976
 40
0.9609374999999976
 40
0.968749999999998
 40
0.968749999999998
 40
0.9765624999999984
 40
0.9765624999999984
 40
0.984374999999999
 40
0.984374999999999
 40
0.9921874999999996
 40
0.9921874999999996
 40
1.0
 40
1.0
 40
1.0
 40
1.0
 10
358.1978167014022
 20
434.7691856314802
 30
0.0
 10
377.1194816975747
 20
434.6282329093662
 30
0.0
 10
396.041318242798
 20
434.4876493079501
 30
0.0
 10
424.4239049973258
 20
434.2798933388323
 30
0.0
 10
433.8847431805961
 20
434.2111447403213
 30
0.0
 10
448.0759191402777
 20
434.1091586474207
 30
0.0
 10
452.8083148849922
 20
434.0753421651846
 30
0.0
 10
458.718325998668
 20
434.0332947740586
 30
0.0
 10
459.8997452833228
 20
434.0249011724744
 30
0.0
 10
461.3730068785451
 20
434.0144383438437
 30
0.0
 10
461.6682193435834
 20
434.0123407035825
 30
0.0
 10
462.1179739276087
 20
434.0091547231694
 30
0.0
 10
462.2688994075139
 20
434.0080877804448
 30
0.0
 10
462.5721686840541
 20
434.0059567838274
 30
0.0
 10
462.7237446240342
 20
434.0048981499539
 30
0.0
 10
463.4583190238181
 20
433.9997602754956
 30
0.0
 10
463.9943645894855
 20
433.9958408916511
 30
0.0
 10
464.5873402103393
 20
433.992167705928
 30
0.0
 10
464.7013768664603
 20
433.9915107962481
 30
0.0
 10
464.9319701019847
 20
433.990254984022
 30
0.0
 10
465.047182735953
 20
433.9896631884701
 30
0.0
 10
465.3921728300537
 20
433.9879516074582
 30
0.0
 10
465.621497001506
 20
433.9868641472854
 30
0.0
 10
466.0696453207106
 20
433.9849862911226
 30
0.0
 10
466.289143878542
 20
433.9842073775839
 30
0.0
 10
466.7084651046012
 20
433.9831102207729
 30
0.0
 10
466.9080079323838
 20
433.9827878442715
 30
0.0
 10
467.2873293238518
 20
433.9827199527819
 30
0.0
 10
467.4682448869829
 20
433.9829775082018
 30
0.0
 10
467.8150521231979
 20
433.9841036436831
 30
0.0
 10
467.9795234648714
 20
433.9849611681898
 30
0.0
 10
468.283303250191
 20
433.9873380675969
 30
0.0
 10
468.4230616690556
 20
433.9888734069671
 30
0.0
 10
468.6778672722659
 20
433.9927681728562
 30
0.0
 10
468.793618329659
 20
433.995131104968
 30
0.0
 10
468.8990332014758
 20
433.9982521957484
 30
0.0
  0
SPLINE
  5
139
330
1F
100
AcDbEntity
  8
0
  6
Continuous
 62
     8
370
     0
100
AcDbSpline
210
0.0
220
0.0
230
1.0
 70
     8
 71
     3
 72
    14
 73
    10
 74
     0
 42
0.00000001
 43
0.00000001
 12
1.0
 22
0.0
 32
0.0
 13
1.0
 23
0.0
 33
0.0
 40
0.0
 40
0.0
 40
0.0
 40
0.0
 40
0.25
 40
0.25
 40
0.5
 40
0.5
 40
0.75
 40
0.75
 40
1.0
 40
1.0
 40
1.0
 40
1.0
 10
468.8988787981887
 20
433.9982800686655
 30
0.0
 10
469.0403757937578
 20
433.9853628580303
 30
0.0
 10
469.1895736963605
 20
433.9450764781421
 30
0.0
 10
469.4748920415713
 20
433.8000538865733
 30
0.0
 10
469.6103118440026
 20
433.6951207835372
 30
0.0
 10
469.8355505397095
 20
433.4362249850767
 30
0.0
 10
469.9248148743769
 20
433.2828994271296
 30
0.0
 10
470.0436663203159
 20
432.963345962013
 30
0.0
 10
470.0734940923626
 20
432.7978662901932
 30
0.0
 10
470.078706948233
 20
432.6421115006439
 30
0.0
  0
SPLINE
  5
13A
330
1F
100
AcDbEntity
  8
0
  6
Continuous
 62
     8
370
     0
100
AcDbSpline
210
0.0
220
0.0
230
1.0
 70
     8
 71
     3
 72
    22
 73
    18
 74
     0
 42
0.00000001
 43
0.00000001
 12
1.0
 22
0.0
 32
0.0
 13
1.0
 23
0.0
 33
0.0
 40
0.0
 40
0.0
 40
0.0
 40
0.0
 40
0.0003427180220617
 40
0.031689832382791
 40
0.048580014765917
 40
0.0666498965403076
 40
0.0868966906551271
 40
0.1089276450917962
 40
0.1329028357109296
 40
0.2271524678857746
 40
0.3258596680538213
 40
0.4253870489445497
 40
0.5260311875578281
 40
0.6430389648813202
 40
0.7636421922761629
 40
0.8822304967707247
 40
1.0
 40
1.0
 40
1.0
 40
1.0
 10
448.0982627026802
 20
434.5757403483341
 30
0.0
 10
448.0978259714814
 20
434.575747725859
 30
0.0
 10
448.0574430981118
 20
434.5764298975361
 30
0.0
 10
448.1763162031287
 20
434.5744355852298
 30
0.0
 10
448.3665245474994
 20
434.5711907450051
 30
0.0
 10
448.5876823841459
 20
434.567385504241
 30
0.0
 10
448.8714159234476
 20
434.5624552284608
 30
0.0
 10
449.2240494962551
 20
434.5562637312223
 30
0.0
 10
450.0372643975857
 20
434.541831108294
 30
0.0
 10
451.4774165008152
 20
434.5156294070379
 30
0.0
 10
453.5531240475574
 20
434.4763862293018
 30
0.0
 10
455.7511955249182
 20
434.433173478935
 30
0.0
 10
458.1287496603497
 20
434.3850375846495
 30
0.0
 10
460.6973780408367
 20
434.3292822363109
 30
0.0
 10
463.4246969557378
 20
434.2720437537252
 30
0.0
 10
466.1718500448708
 20
434.1967009931822
 30
0.0
 10
467.9919837586363
 20
434.0642571178217
 30
0.0
 10
468.8988979213005
 20
433.9982645891333
 30
0.0
  0
SPLINE
  5
13B
330
1F
100
AcDbEntity
  8
0
  6
Continuous
 62
     8
370
     0
100
AcDbSpline
210
0.0
220
0.0
230
1.0
 70
     8
 71
     3
 72
    11
 73
     7
 74
     0
 42
0.00000001
 43
0.00000001
 12
1.0
 22
0.0
 32
0.0
 13
1.0
 23
0.0
 33
0.0
 40
0.0
 40
0.0
 40
0.0
 40
0.0
 40
0.2518064705236598
 40
0.5333310791775215
 40
0.7696071428081377
 40
1.0
 40
1.0
 40
1.0
 40
1.0
 10
469.451254164434
 20
434.0222784506815
 30
0.0
 10
469.4498743032498
 20
434.0223837591818
 30
0.0
 10
469.4469517300016
 20
434.022606804666
 30
0.0
 10
469.4626828257574
 20
434.0178088542404
 30
0.0
 10
469.3905669896012
 20
434.0098053011328
 30
0.0
 10
469.0613145963072
 20
434.0020819089316
 30
0.0
 10
468.8987638108497
 20
433.9982688965002
 30
0.0
  0
SPLINE
  5
13C
330
1F
100
AcDbEntity
  8
0
  6
Continuous
 62
     8
370
    15
100
AcDbSpline
210
0.0
220
0.0
230
1.0
 70
     8
 71
     3
 72
    16
 73
    12
 74
     0
 42
0.00000001
 43
0.00000001
 12
1.0
 22
0.0
 32
0.0
 13
1.0
 23
0.0
 33
0.0
 40
0.0
 40
0.0
 40
0.0
 40
0.0
 40
0.1250000000000026
 40
0.1250000000000026
 40
0.2500000000000051
 40
0.2500000000000051
 40
0.5000000000000034
 40
0.5000000000000034
 40
0.7500000000000018
 40
0.7500000000000018
 40
1.0
 40
1.0
 40
1.0
 40
1.0
 10
359.3121210593714
 20
477.3939512472033
 30
0.0
 10
359.3121210593717
 20
477.3024807580621
 30
0.0
 10
359.3335276410129
 20
477.2129814988226
 30
0.0
 10
359.403434638399
 20
477.0531132164932
 30
0.0
 10
359.4522639637956
 20
476.9803319601043
 30
0.0
 10
359.6154372392846
 20
476.7892335880322
 30
0.0
 10
359.7441620410078
 20
476.6949107037987
 30
0.0
 10
360.013478725061
 20
476.5427964009353
 30
0.0
 10
360.1525035235875
 20
476.4874385443483
 30
0.0
 10
360.4328311293825
 20
476.4111214075937
 30
0.0
 10
360.5716190898164
 20
476.3909512472091
 30
0.0
 10
360.7083927254342
 20
476.3909512472098
 30
0.0
  0
SPLINE
  5
13D
330
1F
100
AcDbEntity
  8
0
  6
Continuous
 62
     8
370
    15
100
AcDbSpline
210
0.0
220
0.0
230
1.0
 70
     8
 71
     3
 72
    18
 73
    14
 74
     0
 42
0.00000001
 43
0.00000001
 12
1.0
 22
0.0
 32
0.0
 13
1.0
 23
0.0
 33
0.0
 40
0.0
 40
0.0
 40
0.0
 40
0.0
 40
0.2500000000000007
 40
0.2500000000000007
 40
0.5000000000000013
 40
0.5000000000000013
 40
0.625000000000001
 40
0.625000000000001
 40
0.7500000000000007
 40
0.7500000000000007
 40
0.8750000000000003
 40
0.8750000000000003
 40
1.0
 40
1.0
 40
1.0
 40
1.0
 10
360.7083927254149
 20
482.4089512472098
 30
0.0
 10
360.5716888545306
 20
482.4089512472091
 30
0.0
 10
360.4323155776779
 20
482.3886783487154
 30
0.0
 10
360.1521526732214
 20
482.3123307000589
 30
0.0
 10
360.0127914299949
 20
482.2567951392005
 30
0.0
 10
359.8108662558087
 20
482.1426284823402
 30
0.0
 10
359.7454002571881
 20
482.0996933799053
 30
0.0
 10
359.6198300855441
 20
482.0011752578529
 30
0.0
 10
359.5593070622057
 20
481.945114208762
 30
0.0
 10
359.4520426132373
 20
481.8191264911376
 30
0.0
 10
359.4038886445902
 20
481.7477000020471
 30
0.0
 10
359.3334175879065
 20
481.5867962264472
 30
0.0
 10
359.3121210593582
 20
481.4973981204097
 30
0.0
 10
359.3121210593585
 20
481.4059512472033
 30
0.0
  0
LINE
  5
13E
330
1F
100
AcDbEntity
  8
0
  6
Continuous
 62
     8
370
    15
100
AcDbLine
 10
359.3121207558
 20
481.405950601
 30
0.0
 11
359.3121207558
 21
477.3939507853
 31
0.0
  0
LINE
  5
13F
330
1F
100
AcDbEntity
  8
0
  6
Continuous
 62
     8
370
     0
100
AcDbLine
 10
360.4839145444
 20
461.8846601646
 30
0.0
 11
360.3045883827
 21
461.8846601646
 31
0.0
  0
LINE
  5
140
330
1F
100
AcDbEntity
  8
0
  6
Continuous
 62
     8
370
     0
100
AcDbLine
 10
360.3045883827
 20
458.269612382
 30
0.0
 11
360.4839145444
 21
458.269612382
 31
0.0
  0
SPLINE
  5
141
330
1F
100
AcDbEntity
  8
0
  6
Continuous
 62
     7
370
    15
100
AcDbSpline
210
0.0
220
0.0
230
1.0
 70
     8
 71
     3
 72
    17
 73
    13
 74
     0
 42
0.00000001
 43
0.00000001
 12
1.0
 22
0.0
 32
0.0
 13
1.0
 23
0.0
 33
0.0
 40
0.0
 40
0.0
 40
0.0
 40
0.0
 40
0.3674518791044624
 40
0.6380710190235382
 40
0.7925215035489952
 40
0.8342441361754377
 40
0.8482423511091949
 40
0.8586262097089166
 40
0.8716631327386568
 40
0.894763516600036
 40
0.9516218605809668
 40
1.0
 40
1.0
 40
1.0
 40
1.0
 10
200.3135533473356
 20
245.1512777385148
 30
0.0
 10
200.3690106717375
 20
245.2018391870403
 30
0.0
 10
200.4653109317325
 20
245.2896378807429
 30
0.0
 10
200.5990425819332
 20
245.3824214615748
 30
0.0
 10
200.6793876254711
 20
245.4317265477111
 30
0.0
 10
200.7174825459259
 20
245.4534453670252
 30
0.0
 10
200.7273844945114
 20
245.4589871593581
 30
0.0
 10
200.7310679937512
 20
245.4610408226471
 30
0.0
 10
200.7338263545588
 20
245.4625660440523
 30
0.0
 10
200.7363752274877
 20
245.4639759065985
 30
0.0
 10
200.7375815328604
 20
245.464639738851
 30
0.0
 10
200.7368466637806
 20
245.4642365834305
 30
0.0
 10
200.7365088379844
 20
245.4640512493285
 30
0.0
  0
SPLINE
  5
142
330
1F
100
AcDbEntity
  8
0
  6
Continuous
 62
     7
370
    15
100
AcDbSpline
210
0.0
220
0.0
230
1.0
 70
     8
 71
     3
 72
    16
 73
    12
 74
     0
 42
0.00000001
 43
0.00000001
 12
1.0
 22
0.0
 32
0.0
 13
1.0
 23
0.0
 33
0.0
 40
0.0
 40
0.0
 40
0.0
 40
0.0
 40
0.0162931375516873
 40
0.0579995710701906
 40
0.0839678079608554
 40
0.0962246353536001
 40
0.1058323770006682
 40
0.1272741123559392
 40
0.6234472286469673
 40
0.9867625354501844
 40
1.0
 40
1.0
 40
1.0
 40
1.0
 10
178.6020203894837
 20
245.4641872224244
 30
0.0
 10
178.6018007034029
 20
245.4643076094535
 30
0.0
 10
178.6010186748699
 20
245.4647361577318
 30
0.0
 10
178.6023068153565
 20
245.4640274334299
 30
0.0
 10
178.6044778273226
 20
245.4628320432849
 30
0.0
 10
178.6093336233954
 20
245.4601351759089
 30
0.0
 10
178.6178548494019
 20
245.4553761949279
 30
0.0
 10
178.7515085213445
 20
245.379671049085
 30
0.0
 10
178.9534131904309
 20
245.2253949537624
 30
0.0
 10
179.1404357653807
 20
245.05007112045
 30
0.0
 10
179.2002761430357
 20
244.9590038531041
 30
0.0
 10
179.2023797920807
 20
244.9558024433288
 30
0.0
  0
SPLINE
  5
143
330
1F
100
AcDbEntity
  8
0
  6
Continuous
 62
     7
370
    15
100
AcDbSpline
210
0.0
220
0.0
230
1.0
 70
     8
 71
     3
 72
    10
 73
     6
 74
     0
 42
0.00000001
 43
0.00000001
 12
1.0
 22
0.0
 32
0.0
 13
1.0
 23
0.0
 33
0.0
 40
0.0
 40
0.0
 40
0.0
 40
0.0
 40
0.4305924799489572
 40
0.8685463477125693
 40
1.0
 40
1.0
 40
1.0
 40
1.0
 10
207.5748733646138
 20
246.5001923170718
 30
0.0
 10
207.619513833416
 20
247.3992177762904
 30
0.0
 10
207.7095579422747
 20
249.2126383896683
 30
0.0
 10
208.0725300721692
 20
251.2342670238137
 30
0.0
 10
208.4454124666397
 20
252.2457072396068
 30
0.0
 10
208.5314962482913
 20
252.4792087402973
 30
0.0
  0
SPLINE
  5
144
330
1F
100
AcDbEntity
  8
0
  6
Continuous
 62
     7
370
    15
100
AcDbSpline
210
0.0
220
0.0
230
1.0
 70
     8
 71
     3
 72
    10
 73
     6
 74
     0
 42
0.00000001
 43
0.00000001
 12
1.0
 22
0.0
 32
0.0
 13
1.0
 23
0.0
 33
0.0
 40
0.0
 40
0.0
 40
0.0
 40
0.0
 40
0.1369794822388937
 40
0.5721704947998335
 40
1.0
 40
1.0
 40
1.0
 40
1.0
 10
170.7924968964322
 20
252.5172225338254
 30
0.0
 10
170.8830566178332
 20
252.2720508941146
 30
0.0
 10
171.2613293325203
 20
251.247956072676
 30
0.0
 10
171.6287583839448
 20
249.213340258311
 30
0.0
 10
171.7191120947934
 20
247.3994174172677
 30
0.0
 10
171.7639035946591
 20
246.5001923170718
 30
0.0
  0
SPLINE
  5
145
330
1F
100
AcDbEntity
  8
0
  6
Continuous
 62
     7
370
    15
100
AcDbSpline
210
0.0
220
0.0
230
1.0
 70
     8
 71
     3
 72
    35
 73
    31
 74
     0
 42
0.00000001
 43
0.00000001
 12
1.0
 22
0.0
 32
0.0
 13
1.0
 23
0.0
 33
0.0
 40
0.0
 40
0.0
 40
0.0
 40
0.0
 40
0.0290276041613277
 40
0.0538708969138272
 40
0.0744420967942646
 40
0.090929377158719
 40
0.1032525716638259
 40
0.1134741886148301
 40
0.1240966275759588
 40
0.1351180949860717
 40
0.1455845828284589
 40
0.1543333056655218
 40
0.1707265483628411
 40
0.1898654782204963
 40
0.212394333190132
 40
0.2425232385697101
 40
0.2729555384155835
 40
0.3800602022090735
 40
0.4079579309001323
 40
0.4382098313517617
 40
0.4726128265604626
 40
0.5111594731411314
 40
0.5538426179342426
 40
0.6006654649788287
 40
0.6516326714589502
 40
0.7124817096444397
 40
0.7783421948901159
 40
0.8492140058992128
 40
0.9250963482561718
 40
1.0
 40
1.0
 40
1.0
 40
1.0
 10
189.6715555986007
 20
132.2245375391874
 30
0.0
 10
190.9109279662223
 20
132.2239061452563
 30
0.0
 10
193.2110179317225
 20
132.2227343724437
 30
0.0
 10
196.3920478659022
 20
132.2511936044609
 30
0.0
 10
199.0290066252293
 20
132.1749177270071
 30
0.0
 10
201.1542940420781
 20
132.34590028726
 30
0.0
 10
202.7111338184054
 20
132.9914584134751
 30
0.0
 10
203.9025259153199
 20
133.7644775936065
 30
0.0
 10
204.8957969893422
 20
134.7044118595131
 30
0.0
 10
205.6902885247926
 20
135.8293791738248
 30
0.0
 10
206.2230810991713
 20
137.0086818823356
 30
0.0
 10
206.6147525787704
 20
138.4844644183952
 30
0.0
 10
206.6110475177451
 20
140.3886386165023
 30
0.0
 10
206.6485964330234
 20
142.8620553345728
 30
0.0
 10
206.6735351741532
 20
145.9297521139561
 30
0.0
 10
206.7020681498321
 20
149.4771588773534
 30
0.0
 10
206.7638669309604
 20
156.6370611532071
 30
0.0
 10
206.8250631553497
 20
163.7011838026631
 30
0.0
 10
206.8866280857957
 20
170.7577987733666
 30
0.0
 10
206.9214525094007
 20
174.7099242340412
 30
0.0
 10
206.960571638808
 20
179.1167745775502
 30
0.0
 10
207.0046813794107
 20
184.054452764032
 30
0.0
 10
207.0537587730864
 20
189.5224739515311
 30
0.0
 10
207.1079056830694
 20
195.520866982035
 30
0.0
 10
207.1694108269112
 20
202.2949647198391
 30
0.0
 10
207.238651965103
 20
209.8819913896938
 30
0.0
 10
207.3159646584301
 20
218.3189675969854
 30
0.0
 10
207.3993758902429
 20
227.3978831722315
 30
0.0
 10
207.4864411529311
 20
236.8629524825732
 30
0.0
 10
207.5455163211091
 20
243.3017070017392
 30
0.0
 10
207.5748621887429
 20
246.5001885917816
 30
0.0
  0
SPLINE
  5
146
330
1F
100
AcDbEntity
  8
0
  6
Continuous
 62
     7
370
    15
100
AcDbSpline
210
0.0
220
0.0
230
1.0
 70
     8
 71
     3
 72
    41
 73
    37
 74
     0
 42
0.00000001
 43
0.00000001
 12
1.0
 22
0.0
 32
0.0
 13
1.0
 23
0.0
 33
0.0
 40
0.0
 40
0.0
 40
0.0
 40
0.0
 40
0.0734998491904571
 40
0.1468681099241047
 40
0.214115820465886
 40
0.27524228979283
 40
0.330247456875458
 40
0.3791309148572322
 40
0.4132437396719324
 40
0.4435767288243159
 40
0.4722334124595639
 40
0.5016473669188497
 40
0.5318221383236554
 40
0.5627521974798059
 40
0.5988065553520137
 40
0.6358215422479004
 40
0.6738300291979707
 40
0.712445340917083
 40
0.7475133465954791
 40
0.7778533004286857
 40
0.7937856178430792
 40
0.8081127417669719
 40
0.8209147541115712
 40
0.8344925105757452
 40
0.8503478663613367
 40
0.860687082742799
 40
0.8700122461777305
 40
0.875673859502426
 40
0.8824610532885226
 40
0.8918293828918905
 40
0.9005450297612931
 40
0.9107039502614095
 40
0.9222232350124783
 40
0.9348663390751132
 40
0.9646937251955187
 40
1.0
 40
1.0
 40
1.0
 40
1.0
 10
171.76391477053
 20
246.5001885917816
 30
0.0
 10
171.7927106860272
 20
243.3615382698119
 30
0.0
 10
171.8502509630371
 20
237.0898568231483
 30
0.0
 10
171.9343537924459
 20
227.9465109404802
 30
0.0
 10
172.013513579015
 20
219.3315423047124
 30
0.0
 10
172.0853048962316
 20
211.5007278226992
 30
0.0
 10
172.1496814664187
 20
204.4541165704884
 30
0.0
 10
172.203289043208
 20
198.5610622423474
 30
0.0
 10
172.2471168086801
 20
193.7215782945919
 30
0.0
 10
172.282979160121
 20
189.7458341541881
 30
0.0
 10
172.3169024338154
 20
185.9707441227116
 30
0.0
 10
172.3506489662263
 20
182.2024094161482
 30
0.0
 10
172.3851334155536
 20
178.336993815638
 30
0.0
 10
172.4219442847492
 20
174.188011894562
 30
0.0
 10
172.4610266676327
 20
169.7469297890114
 30
0.0
 10
172.5023005115761
 20
165.0035743344291
 30
0.0
 10
172.5442867810371
 20
160.1508543943192
 30
0.0
 10
172.5856015404075
 20
155.3812844883061
 30
0.0
 10
172.6243652275667
 20
150.9391605265286
 30
0.0
 10
172.6527927966867
 20
147.4657291976787
 30
0.0
 10
172.6743287010167
 20
144.8778540753053
 30
0.0
 10
172.6874900137993
 20
143.0392792119937
 30
0.0
 10
172.7223194711877
 20
141.3002256886271
 30
0.0
 10
172.7006363346645
 20
139.5003750836491
 30
0.0
 10
172.8395295716649
 20
137.7919673165693
 30
0.0
 10
173.3807484834949
 20
136.3666107923939
 30
0.0
 10
173.9216238481876
 20
135.4278578567899
 30
0.0
 10
174.4926933069106
 20
134.6942393857759
 30
0.0
 10
175.145346507915
 20
134.0276129024963
 30
0.0
 10
175.9919433395063
 20
133.3785354191056
 30
0.0
 10
177.054534468403
 20
132.8008139471675
 30
0.0
 10
178.2864563092616
 20
132.3666317165142
 30
0.0
 10
179.7515258467265
 20
132.18971823772
 30
0.0
 10
182.0570123014917
 20
132.2550865164318
 30
0.0
 10
185.3781234622784
 20
132.2215122246626
 30
0.0
 10
188.15953287386
 20
132.2234740918124
 30
0.0
 10
189.6672203527247
 20
132.2245375391874
 30
0.0
  0
SPLINE
  5
147
330
1F
100
AcDbEntity
  8
0
  6
Continuous
 62
     7
370
    15
100
AcDbSpline
210
0.0
220
0.0
230
1.0
 70
     8
 71
     3
 72
     9
 73
     5
 74
     0
 42
0.00000001
 43
0.00000001
 12
1.0
 22
0.0
 32
0.0
 13
1.0
 23
0.0
 33
0.0
 40
0.0
 40
0.0
 40
0.0
 40
0.0
 40
0.2409925338234744
 40
1.0
 40
1.0
 40
1.0
 40
1.0
 10
170.9306995785697
 20
252.3489139181409
 30
0.0
 10
170.9499528758867
 20
252.2924884668102
 30
0.0
 10
171.0298445514152
 20
252.0583507097791
 30
0.0
 10
171.0998707617894
 20
251.8127970232267
 30
0.0
 10
171.1530211782916
 20
251.6264199417863
 30
0.0
  0
SPLINE
  5
148
330
1F
100
AcDbEntity
  8
0
  6
Continuous
 62
     7
370
    15
100
AcDbSpline
210
0.0
220
0.0
230
1.0
 70
     8
 71
     3
 72
     9
 73
     5
 74
     0
 42
0.00000001
 43
0.00000001
 12
1.0
 22
0.0
 32
0.0
 13
1.0
 23
0.0
 33
0.0
 40
0.0
 40
0.0
 40
0.0
 40
0.0
 40
0.7764651216140492
 40
1.0
 40
1.0
 40
1.0
 40
1.0
 10
208.1836025631888
 20
251.6200552833113
 30
0.0
 10
208.2388372669696
 20
251.8134874688951
 30
0.0
 10
208.3099733711464
 20
252.0626064314851
 30
0.0
 10
208.3911604461986
 20
252.3002808826679
 30
0.0
 10
208.4093085891469
 20
252.3534094122085
 30
0.0
  0
CIRCLE
  5
149
330
1F
100
AcDbEntity
  8
0
  6
Continuous
 62
     7
370
    15
100
AcDbCircle
 10
189.6693879721
 20
265.7050541038
 30
0.0
 40
23.06900000000002
  0
ARC
  5
14A
330
1F
100
AcDbEntity
  8
0
  6
Continuous
 62
     7
370
    15
100
AcDbCircle
 10
201.7053879721
 20
243.7075467677
 30
0.0
 40
2.006
100
AcDbArc
 50
118.6854020141
 51
180.0000000001
  0
ARC
  5
14B
330
1F
100
AcDbEntity
  8
0
  6
Continuous
 62
     7
370
    15
100
AcDbCircle
 10
177.6333879721
 20
243.7075467677
 30
0.0
 40
2.006000000000029
100
AcDbArc
 50
0.0000000001
 51
61.3145979859
  0
ARC
  5
14C
330
1F
100
AcDbEntity
  8
0
  6
Continuous
 62
     7
370
    15
100
AcDbCircle
 10
194.6843879721
 20
193.4890541038
 30
0.0
 40
5.015000000000015
100
AcDbArc
 50
270.0
 51
0.0000000001
  0
LINE
  5
14D
330
1F
100
AcDbEntity
  8
0
  6
Continuous
 62
     7
370
    15
100
AcDbLine
 10
194.6843877836
 20
188.4740517613
 30
0.0
 11
184.6543877787
 21
188.4740517613
 31
0.0
  0
LINE
  5
14E
330
1F
100
AcDbEntity
  8
0
  6
Continuous
 62
     7
370
    15
100
AcDbLine
 10
199.6993880189
 20
243.7075470713
 30
0.0
 11
199.6993880189
 21
193.4890524623
 31
0.0
  0
ARC
  5
14F
330
1F
100
AcDbEntity
  8
0
  6
Continuous
 62
     7
370
    15
100
AcDbCircle
 10
184.6543879721
 20
193.4890541038
 30
0.0
 40
5.015000000000015
100
AcDbArc
 50
180.0000000001
 51
270.0
  0
LINE
  5
150
330
1F
100
AcDbEntity
  8
0
  6
Continuous
 62
     7
370
    15
100
AcDbLine
 10
179.6393880091
 20
193.4890524623
 30
0.0
 11
179.6393880091
 21
243.7075470713
 31
0.0
  0
SPLINE
  5
151
330
1F
100
AcDbEntity
  8
0
  6
Continuous
 62
     7
370
    15
100
AcDbSpline
210
0.0
220
0.0
230
1.0
 70
     8
 71
     3
 72
     9
 73
     5
 74
     0
 42
0.00000001
 43
0.00000001
 12
1.0
 22
0.0
 32
0.0
 13
1.0
 23
0.0
 33
0.0
 40
0.0
 40
0.0
 40
0.0
 40
0.0
 40
0.908405348988687
 40
1.0
 40
1.0
 40
1.0
 40
1.0
 10
189.6688456789308
 20
132.4107871529492
 30
0.0
 10
189.6679636103932
 20
132.3097209021154
 30
0.0
 10
189.6669926027495
 20
132.1984641256705
 30
0.0
 10
189.6672986376317
 20
132.2335161143716
 30
0.0
 10
189.66732666879
 20
132.2367266890439
 30
0.0
  0
CIRCLE
  5
152
330
1F
100
AcDbEntity
  8
0
  6
Continuous
 62
     8
370
     0
100
AcDbCircle
 10
189.6693879721
 20
265.7050541038
 30
0.0
 40
21.56449999999998
  0
LWPOLYLINE
  5
153
330
1F
100
AcDbEntity
  8
0
  6
Continuous
 62
     8
370
     0
100
AcDbPolyline
 90
        9
 70
   128
 43
0.0
 10
198.696388065
 20
242.3112747398
 10
198.5555013112
 20
242.6763867167
 10
198.4200292668
 20
243.0274673876
 10
198.2951770938
 20
243.3510256138
 10
198.1857438973
 20
243.6346263763
 10
198.0959336675
 20
243.867373201
 10
198.0291988171
 20
244.0403179404
 10
197.9881042085
 20
244.1468165395
 10
197.9742284334
 20
244.1827767667
  0
LWPOLYLINE
  5
154
330
1F
100
AcDbEntity
  8
0
  6
Continuous
 62
     8
370
     0
100
AcDbPolyline
 90
        9
 70
   128
 43
0.0
 10
180.642387963
 20
242.3112747398
 10
180.7832747168
 20
242.6763867167
 10
180.9187467611
 20
243.0274673876
 10
181.0435989342
 20
243.3510256138
 10
181.1530321306
 20
243.6346263763
 10
181.2428423605
 20
243.867373201
 10
181.3095772109
 20
244.0403179404
 10
181.3506718195
 20
244.1468165395
 10
181.3645475945
 20
244.1827767667
  0
ARC
  5
155
330
1F
100
AcDbEntity
  8
0
  6
Continuous
 62
     8
370
     0
100
AcDbCircle
 10
194.6843879721
 20
193.4890541038
 30
0.0
 40
4.012000000000029
100
AcDbArc
 50
270.0
 51
0.0000000001
  0
LINE
  5
156
330
1F
100
AcDbEntity
  8
0
  6
Continuous
 62
     8
370
     0
100
AcDbLine
 10
184.6543877787
 20
189.4770563719
 30
0.0
 11
194.6843877836
 21
189.4770563719
 31
0.0
  0
ARC
  5
157
330
1F
100
AcDbEntity
  8
0
  6
Continuous
 62
     8
370
     0
100
AcDbCircle
 10
184.6543879721
 20
193.4890541038
 30
0.0
 40
4.012000000000029
100
AcDbArc
 50
180.0000000001
 51
270.0
  0
LINE
  5
158
330
1F
100
AcDbEntity
  8
0
  6
Continuous
 62
     8
370
     0
100
AcDbLine
 10
180.642387963
 20
242.3112747398
 30
0.0
 11
180.642387963
 21
193.4890524623
 31
0.0
  0
LINE
  5
159
330
1F
100
AcDbEntity
  8
0
  6
Continuous
 62
     8
370
     0
100
AcDbLine
 10
198.696388065
 20
193.4890524623
 30
0.0
 11
198.696388065
 21
242.3112747398
 31
0.0
  0
SPLINE
  5
15A
330
1F
100
AcDbEntity
  8
0
  6
Continuous
 62
     8
370
     0
100
AcDbSpline
210
0.0
220
0.0
230
1.0
 70
     8
 71
     3
 72
    10
 73
     6
 74
     0
 42
0.00000001
 43
0.00000001
 12
1.0
 22
0.0
 32
0.0
 13
1.0
 23
0.0
 33
0.0
 40
0.0
 40
0.0
 40
0.0
 40
0.0
 40
0.3697195146229153
 40
0.7421162687872265
 40
0.9999999999999999
 40
0.9999999999999999
 40
0.9999999999999999
 40
0.9999999999999999
 10
207.4303768045171
 20
246.5001904544267
 30
0.0
 10
207.4627966886758
 20
247.245859891525
 30
0.0
 10
207.5278712181904
 20
248.7425983608819
 30
0.0
 10
207.8922678002902
 20
250.7377012608796
 30
0.0
 10
208.3012680108411
 20
251.942005308056
 30
0.0
 10
208.4686133480533
 20
252.4347548511657
 30
0.0
  0
SPLINE
  5
15B
330
1F
100
AcDbEntity
  8
0
  6
Continuous
 62
     8
370
     0
100
AcDbSpline
210
0.0
220
0.0
230
1.0
 70
     8
 71
     3
 72
    10
 73
     6
 74
     0
 42
0.00000001
 43
0.00000001
 12
1.0
 22
0.0
 32
0.0
 13
1.0
 23
0.0
 33
0.0
 40
0.0
 40
0.0
 40
0.0
 40
0.0
 40
0.3802730968414118
 40
0.7632996903349255
 40
1.0
 40
1.0
 40
1.0
 40
1.0
 10
171.9083945668204
 20
246.5001923170718
 30
0.0
 10
171.8757170146111
 20
247.2457859729168
 30
0.0
 10
171.8101252972651
 20
248.7423720089769
 30
0.0
 10
171.4592443932351
 20
250.6831161080835
 30
0.0
 10
171.0697274587051
 20
251.8348301408397
 30
0.0
 10
170.9209542191489
 20
252.2747191739115
 30
0.0
  0
SPLINE
  5
15C
330
1F
100
AcDbEntity
  8
0
  6
Continuous
 62
     8
370
     0
100
AcDbSpline
210
0.0
220
0.0
230
1.0
 70
     8
 71
     3
 72
    34
 73
    30
 74
     0
 42
0.00000001
 43
0.00000001
 12
1.0
 22
0.0
 32
0.0
 13
1.0
 23
0.0
 33
0.0
 40
0.0
 40
0.0
 40
0.0
 40
0.0
 40
0.0078125000000002
 40
0.0078125000000002
 40
0.0156250000000004
 40
0.0156250000000004
 40
0.0234375000000005
 40
0.0234375000000005
 40
0.0312500000000007
 40
0.0312500000000007
 40
0.0390625000000009
 40
0.0390625000000009
 40
0.0468750000000011
 40
0.0468750000000011
 40
0.0546875000000012
 40
0.0546875000000012
 40
0.0625000000000014
 40
0.0625000000000014
 40
0.078125000000001
 40
0.078125000000001
 40
0.093750000000001
 40
0.093750000000001
 40
0.125000000000001
 40
0.125000000000001
 40
0.2500000000000009
 40
0.2500000000000009
 40
0.5000000000000008
 40
0.5000000000000008
 40
1.0
 40
1.0
 40
1.0
 40
1.0
 10
177.048744676505
 20
132.9410874636109
 30
0.0
 10
176.7653539317026
 20
133.0697308646292
 30
0.0
 10
176.5015271339545
 20
133.2107985226063
 30
0.0
 10
175.9934774156209
 20
133.5227259174117
 30
0.0
 10
175.7479434245004
 20
133.694514689622
 30
0.0
 10
175.2774021837896
 20
134.0697022147361
 30
0.0
 10
175.0519531206099
 20
134.273729398123
 30
0.0
 10
174.6311321333196
 20
134.7067596119436
 30
0.0
 10
174.4368282816863
 20
134.9347435860391
 30
0.0
 10
174.0797352331024
 20
135.414255395431
 30
0.0
 10
173.9167656640659
 20
135.6660913790691
 30
0.0
 10
173.6221064743068
 20
136.1925452250912
 30
0.0
 10
173.4909346576185
 20
136.4667587018008
 30
0.0
 10
173.2656829998301
 20
137.0239986653516
 30
0.0
 10
173.1704679267894
 20
137.3081987536582
 30
0.0
 10
173.0170150082552
 20
137.8889674067197
 30
0.0
 10
172.9600726388791
 20
138.1865882962182
 30
0.0
 10
172.8521804214993
 20
139.0881027323659
 30
0.0
 10
172.8563760872067
 20
139.6911248757041
 30
0.0
 10
172.8573670497863
 20
140.8913976556491
 30
0.0
 10
172.8472859892441
 20
141.4912627698628
 30
0.0
 10
172.8244841256902
 20
143.2916955794013
 30
0.0
 10
172.8142339469584
 20
144.4919062682032
 30
0.0
 10
172.7652159396128
 20
150.4923732262228
 30
0.0
 10
172.7250739141815
 20
155.2924424661292
 30
0.0
 10
172.6022829553029
 20
169.6935744220818
 30
0.0
 10
172.5184304556541
 20
179.2942819678969
 30
0.0
 10
172.2615169900914
 20
208.0966155753134
 30
0.0
 10
172.0841125021042
 20
227.2983927717685
 30
0.0
 10
171.9083967406692
 20
246.5001920855927
 30
0.0
  0
SPLINE
  5
15D
330
1F
100
AcDbEntity
  8
0
  6
Continuous
 62
     8
370
     0
100
AcDbSpline
210
0.0
220
0.0
230
1.0
 70
     8
 71
     3
 72
    32
 73
    28
 74
     0
 42
0.00000001
 43
0.00000001
 12
1.0
 22
0.0
 32
0.0
 13
1.0
 23
0.0
 33
0.0
 40
0.0
 40
0.0
 40
0.0
 40
0.0
 40
0.5000000000000009
 40
0.5000000000000009
 40
0.7500000000000016
 40
0.7500000000000016
 40
0.8750000000000019
 40
0.8750000000000019
 40
0.9062500000000021
 40
0.9062500000000021
 40
0.921875000000002
 40
0.921875000000002
 40
0.9375000000000022
 40
0.9375000000000022
 40
0.945312500000002
 40
0.945312500000002
 40
0.9531250000000018
 40
0.9531250000000018
 40
0.9609375000000016
 40
0.9609375000000016
 40
0.9687500000000013
 40
0.9687500000000013
 40
0.9765625000000012
 40
0.9765625000000012
 40
0.984375000000001
 40
0.984375000000001
 40
1.0
 40
1.0
 40
1.0
 40
1.0
 10
207.4303769506477
 20
246.5001898290459
 30
0.0
 10
207.2549501174312
 20
227.3308350764152
 30
0.0
 10
207.0778426791418
 20
208.1615027681528
 30
0.0
 10
206.8213267924691
 20
179.4078354077301
 30
0.0
 10
206.737595643994
 20
169.8233523975306
 30
0.0
 10
206.6149905709188
 20
155.4465519258918
 30
0.0
 10
206.5746768082026
 20
150.6545495254547
 30
0.0
 10
206.5260136831205
 20
144.6642767780191
 30
0.0
 10
206.5158964803681
 20
143.4660983458318
 30
0.0
 10
206.4939372406314
 20
141.6686842381912
 30
0.0
 10
206.4827314644038
 20
141.0699122733208
 30
0.0
 10
206.4810076889247
 20
139.8709310940852
 30
0.0
 10
206.4912107243518
 20
139.2695097451585
 30
0.0
 10
206.4061583158062
 20
138.3735563201646
 30
0.0
 10
206.3594925226419
 20
138.0752565745296
 30
0.0
 10
206.2205441236923
 20
137.4829378211851
 30
0.0
 10
206.1296971628933
 20
137.1876170192544
 30
0.0
 10
205.9094739105408
 20
136.6058133753083
 30
0.0
 10
205.7811805840699
 20
136.3228938548841
 30
0.0
 10
205.4909079175447
 20
135.7794915387251
 30
0.0
 10
205.3286148226713
 20
135.517998683309
 30
0.0
 10
204.967270749749
 20
135.0154791276134
 30
0.0
 10
204.7672917775935
 20
134.7740678041543
 30
0.0
 10
204.3403536177669
 20
134.3241033822842
 30
0.0
 10
204.1134389859097
 20
134.1150544276784
 30
0.0
 10
203.3958319585059
 20
133.5321493381848
 30
0.0
 10
202.8687874903897
 20
133.2038101509079
 30
0.0
 10
202.2900315747832
 20
132.9410876029457
 30
0.0
  0
SPLINE
  5
15E
330
1F
100
AcDbEntity
  8
0
  6
Continuous
 62
     8
370
     0
100
AcDbSpline
210
0.0
220
0.0
230
1.0
 70
     8
 71
     3
 72
    20
 73
    16
 74
     0
 42
0.00000001
 43
0.00000001
 12
1.0
 22
0.0
 32
0.0
 13
1.0
 23
0.0
 33
0.0
 40
0.0
 40
0.0
 40
0.0
 40
0.0
 40
0.1250000000000003
 40
0.1250000000000003
 40
0.1875000000000001
 40
0.1875000000000001
 40
0.2499999999999999
 40
0.2499999999999999
 40
0.3124999999999996
 40
0.3124999999999996
 40
0.3749999999999993
 40
0.3749999999999993
 40
0.4999999999999994
 40
0.4999999999999994
 40
1.0
 40
1.0
 40
1.0
 40
1.0
 10
202.2897886940384
 20
132.9409770112359
 30
0.0
 10
201.8076748110137
 20
132.7221483730791
 30
0.0
 10
201.3036990774429
 20
132.5569113298514
 30
0.0
 10
200.5307502577941
 20
132.3989303197982
 30
0.0
 10
200.2703517869565
 20
132.3614251404567
 30
0.0
 10
199.7378313940972
 20
132.3175591730124
 30
0.0
 10
199.4705232323627
 20
132.312300156001
 30
0.0
 10
198.9394089876733
 20
132.3112948664314
 30
0.0
 10
198.6758973894859
 20
132.3138803345456
 30
0.0
 10
198.1462163215648
 20
132.316136154092
 30
0.0
 10
197.8810228823465
 20
132.3170371377202
 30
0.0
 10
197.0860239277256
 20
132.319161347233
 30
0.0
 10
196.5573732837892
 20
132.319810223126
 30
0.0
 10
193.9079899025872
 20
132.3206073491307
 30
0.0
 10
191.7899675783997
 20
132.3131915602394
 30
0.0
 10
189.670781938964
 20
132.3131908889398
 30
0.0
  0
SPLINE
  5
15F
330
1F
100
AcDbEntity
  8
0
  6
Continuous
 62
     8
370
     0
100
AcDbSpline
210
0.0
220
0.0
230
1.0
 70
     8
 71
     3
 72
    20
 73
    16
 74
     0
 42
0.00000001
 43
0.00000001
 12
1.0
 22
0.0
 32
0.0
 13
1.0
 23
0.0
 33
0.0
 40
0.0
 40
0.0
 40
0.0
 40
0.0
 40
0.5000000000000012
 40
0.5000000000000012
 40
0.6250000000000014
 40
0.6250000000000014
 40
0.6875000000000014
 40
0.6875000000000014
 40
0.7500000000000014
 40
0.7500000000000014
 40
0.8125000000000016
 40
0.8125000000000016
 40
0.8750000000000016
 40
0.8750000000000016
 40
1.0
 40
1.0
 40
1.0
 40
1.0
 10
189.6679940053951
 20
132.3131908905571
 30
0.0
 10
187.5495085765579
 20
132.3131940178801
 30
0.0
 10
185.4297286569655
 20
132.3205988761386
 30
0.0
 10
182.7819150756802
 20
132.3198090960391
 30
0.0
 10
182.252363722963
 20
132.3191580975571
 30
0.0
 10
181.457607914039
 20
132.3170347183818
 30
0.0
 10
181.1926579614002
 20
132.3161352576628
 30
0.0
 10
180.6631085654587
 20
132.3138832066654
 30
0.0
 10
180.3988420497822
 20
132.3112951389319
 30
0.0
 10
179.8679276956997
 20
132.3123136947488
 30
0.0
 10
179.6014359385581
 20
132.3175318720228
 30
0.0
 10
179.0681951723741
 20
132.3614451676728
 30
0.0
 10
178.8079815731298
 20
132.3989410545997
 30
0.0
 10
178.0348549802243
 20
132.5569666129475
 30
0.0
 10
177.5311284769038
 20
132.7221377449686
 30
0.0
 10
177.0490049842392
 20
132.9409690384181
 30
0.0
  0
SPLINE
  5
160
330
1F
100
AcDbEntity
  8
0
  6
Continuous
 62
     8
370
     0
100
AcDbSpline
210
0.0
220
0.0
230
1.0
 70
     8
 71
     3
 72
     9
 73
     5
 74
     0
 42
0.00000001
 43
0.00000001
 12
1.0
 22
0.0
 32
0.0
 13
1.0
 23
0.0
 33
0.0
 40
0.0
 40
0.0
 40
0.0
 40
0.0
 40
0.0015206993037108
 40
1.0
 40
1.0
 40
1.0
 40
1.0
 10
207.5746535724862
 20
246.5001923170718
 30
0.0
 10
207.5747257053013
 20
246.5001923170798
 30
0.0
 10
207.622159681896
 20
246.5001923222806
 30
0.0
 10
207.5261971407669
 20
246.5001820673305
 30
0.0
 10
207.4303805298074
 20
246.5001718279752
 30
0.0
  0
SPLINE
  5
161
330
1F
100
AcDbEntity
  8
0
  6
Continuous
 62
     8
370
     0
100
AcDbSpline
210
0.0
220
0.0
230
1.0
 70
     8
 71
     3
 72
     8
 73
     4
 74
     0
 42
0.00000001
 43
0.00000001
 12
1.0
 22
0.0
 32
0.0
 13
1.0
 23
0.0
 33
0.0
 40
0.0943514823238665
 40
0.0943514823238665
 40
0.0943514823238665
 40
0.0943514823238665
 40
0.4968095508191801
 40
0.4968095508191801
 40
0.4968095508191801
 40
0.4968095508191801
 10
171.7639071572694
 20
246.5001920873277
 30
0.0
 10
171.7644880468764
 20
246.5001852348667
 30
0.0
 10
171.8126505743375
 20
246.5001783798653
 30
0.0
 10
171.9083946699904
 20
246.5001715223235
 30
0.0
  0
LINE
  5
162
330
1F
100
AcDbEntity
  8
0
  6
Continuous
 62
     8
370
     0
100
AcDbLine
 10
189.6673266688
 20
132.236726689
 30
0.0
 11
189.6679940058
 21
132.3131845471
 31
0.0
  0
ENDSEC
  0
SECTION
  2
OBJECTS
  0
DICTIONARY
  5
C
330
0
100
AcDbDictionary
281
     1
  3
ACAD_GROUP
350
D
  3
ACAD_LAYOUT
350
1A
  3
ACAD_MATERIAL
350
3B
  3
ACAD_MLEADERSTYLE
350
164
  3
ACAD_MLINESTYLE
350
17
  3
ACAD_PLOTSETTINGS
350
19
  3
ACAD_PLOTSTYLENAME
350
E
  3
ACAD_TABLESTYLE
350
163
  3
ACAD_VISUALSTYLE
350
2A
  0
DICTIONARY
  5
D
102
{ACAD_REACTORS
330
C
102
}
330
C
100
AcDbDictionary
281
     1
  0
DICTIONARY
  5
1A
102
{ACAD_REACTORS
330
C
102
}
330
C
100
AcDbDictionary
281
     1
  3
Layout1
350
1E
  3
Layout2
350
26
  3
Model
350
22
  0
DICTIONARY
  5
3B
102
{ACAD_REACTORS
330
C
102
}
330
C
100
AcDbDictionary
281
     1
  3
ByBlock
350
3D
  3
ByLayer
350
3C
  3
Global
350
3E
  0
DICTIONARY
  5
164
102
{ACAD_REACTORS
330
C
102
}
330
C
100
AcDbDictionary
281
     1
  0
DICTIONARY
  5
17
102
{ACAD_REACTORS
330
C
102
}
330
C
100
AcDbDictionary
281
     1
  3
Standard
350
18
  0
DICTIONARY
  5
19
102
{ACAD_REACTORS
330
C
102
}
330
C
100
AcDbDictionary
281
     1
  0
ACDBDICTIONARYWDFLT
  5
E
102
{ACAD_REACTORS
330
C
102
}
330
C
100
AcDbDictionary
281
     1
  3
Normal
350
F
100
AcDbDictionaryWithDefault
340
F
  0
DICTIONARY
  5
163
102
{ACAD_REACTORS
330
C
102
}
330
C
100
AcDbDictionary
281
     1
  0
DICTIONARY
  5
2A
102
{ACAD_REACTORS
330
C
102
}
330
C
100
AcDbDictionary
281
     1
  3
2dWireframe
350
2F
  3
3D Hidden
350
31
  3
3dWireframe
350
30
  3
Basic
350
32
  3
Brighten
350
36
  3
ColorChange
350
3A
  3
Conceptual
350
34
  3
Dim
350
35
  3
Facepattern
350
39
  3
Flat
350
2B
  3
FlatWithEdges
350
2C
  3
Gouraud
350
2D
  3
GouraudWithEdges
350
2E
  3
Linepattern
350
38
  3
Realistic
350
33
  3
Thicken
350
37
  0
LAYOUT
  5
1E
102
{ACAD_REACTORS
330
1A
102
}
330
1A
100
AcDbPlotSettings
  1

  2
none_device
  4

  6

 40
0.0
 41
0.0
 42
0.0
 43
0.0
 44
0.0
 45
0.0
 46
0.0
 47
0.0
 48
0.0
 49
0.0
140
0.0
141
0.0
142
1.0
143
1.0
 70
   688
 72
     0
 73
     0
 74
     5
  7

 75
    16
 76
     0
 77
     2
 78
   300
147
1.0
148
0.0
149
0.0
100
AcDbLayout
  1
Layout1
 70
     1
 71
     1
 10
0.0
 20
0.0
 11
420.0
 21
297.0
 12
0.0
 22
0.0
 32
0.0
 14
1.0000000000E+20
 24
1.0000000000E+20
 34
1.0000000000E+20
 15
-1.0000000000E+20
 25
-1.0000000000E+20
 35
-1.0000000000E+20
146
0.0
 13
0.0
 23
0.0
 33
0.0
 16
1.0
 26
0.0
 36
0.0
 17
0.0
 27
1.0
 37
0.0
 76
     0
330
1B
  0
LAYOUT
  5
26
102
{ACAD_REACTORS
330
1A
102
}
330
1A
100
AcDbPlotSettings
  1

  2
none_device
  4

  6

 40
0.0
 41
0.0
 42
0.0
 43
0.0
 44
0.0
 45
0.0
 46
0.0
 47
0.0
 48
0.0
 49
0.0
140
0.0
141
0.0
142
1.0
143
1.0
 70
   688
 72
     0
 73
     0
 74
     5
  7

 75
    16
 76
     0
 77
     2
 78
   300
147
1.0
148
0.0
149
0.0
100
AcDbLayout
  1
Layout2
 70
     1
 71
     2
 10
0.0
 20
0.0
 11
0.0
 21
0.0
 12
0.0
 22
0.0
 32
0.0
 14
0.0
 24
0.0
 34
0.0
 15
0.0
 25
0.0
 35
0.0
146
0.0
 13
0.0
 23
0.0
 33
0.0
 16
1.0
 26
0.0
 36
0.0
 17
0.0
 27
1.0
 37
0.0
 76
     0
330
23
  0
LAYOUT
  5
22
102
{ACAD_REACTORS
330
1A
102
}
330
1A
100
AcDbPlotSettings
  1

  2
none_device
  4

  6

 40
0.0
 41
0.0
 42
0.0
 43
0.0
 44
0.0
 45
0.0
 46
0.0
 47
0.0
 48
0.0
 49
0.0
140
0.0
141
0.0
142
1.0
143
1.0
 70
  1712
 72
     0
 73
     0
 74
     0
  7

 75
     0
 76
     0
 77
     2
 78
   300
147
1.0
148
0.0
149
0.0
100
AcDbLayout
  1
Model
 70
     1
 71
     0
 10
0.0
 20
0.0
 11
594.0
 21
841.0
 12
0.0
 22
0.0
 32
0.0
 14
0.0
 24
0.0
 34
0.0
 15
594.0
 25
841.0
 35
0.0
146
0.0
 13
0.0
 23
0.0
 33
0.0
 16
1.0
 26
0.0
 36
0.0
 17
0.0
 27
1.0
 37
0.0
 76
     0
330
1F
331
29
  0
MATERIAL
  5
3D
102
{ACAD_REACTORS
330
3B
102
}
330
3B
100
AcDbMaterial
  1
ByBlock
 72
     1
 94
      127
  0
MATERIAL
  5
3C
102
{ACAD_REACTORS
330
3B
102
}
330
3B
100
AcDbMaterial
  1
ByLayer
 72
     1
 94
      127
  0
MATERIAL
  5
3E
102
{ACAD_REACTORS
330
3B
102
}
330
3B
100
AcDbMaterial
  1
Global
 72
     1
 94
      127
  0
MLINESTYLE
  5
18
102
{ACAD_REACTORS
330
17
102
}
330
17
100
AcDbMlineStyle
  2
Standard
 70
     0
  3

 62
   256
 51
90.0
 52
90.0
 71
     2
 49
0.5
 62
   256
  6
BYLAYER
 49
-0.5
 62
   256
  6
BYLAYER
  0
ACDBPLACEHOLDER
  5
F
102
{ACAD_REACTORS
330
E
102
}
330
E
  0
VISUALSTYLE
  5
2F
102
{ACAD_REACTORS
330
2A
102
}
330
2A
100
AcDbVisualStyle
  2
2dWireframe
 70
     4
177
     2
291
     0
 71
     0
176
     1
 72
     2
176
     1
 73
     0
176
     1
 90
        0
176
     1
 40
-0.6
176
     1
 41
-30.0
176
     1
 62
     5
 63
     7
421
 16777215
176
     1
 74
     1
176
     1
 91
        4
176
     1
 64
     7
176
     1
 65
   257
176
     1
 75
     1
176
     1
175
     1
176
     1
 42
1.0
176
     1
 92
        0
176
     1
 66
   257
176
     1
 43
1.0
176
     1
 76
     1
176
     1
 77
     6
176
     1
 78
     2
176
     1
 67
     7
176
     1
 79
     5
176
     1
170
     0
176
     1
171
     0
176
     1
290
     0
176
     1
 93
        1
176
     1
 44
0.0
176
     1
173
     0
176
     1
  0
VISUALSTYLE
  5
31
102
{ACAD_REACTORS
330
2A
102
}
330
2A
100
AcDbVisualStyle
  2
3D Hidden
 70
     6
177
     2
291
     0
 71
     1
176
     1
 72
     2
176
     1
 73
     2
176
     1
 90
        0
176
     1
 40
-0.6
176
     1
 41
-30.0
176
     1
 62
     5
 63
     7
421
 16777215
176
     1
 74
     2
176
     1
 91
        2
176
     1
 64
     7
176
     1
 65
   257
176
     1
 75
     2
176
     1
175
     1
176
     1
 42
40.0
176
     1
 92
        0
176
     1
 66
   257
176
     1
 43
1.0
176
     1
 76
     1
176
     1
 77
     6
176
     1
 78
     2
176
     1
 67
     7
176
     1
 79
     3
176
     1
170
     0
176
     1
171
     0
176
     1
290
     0
176
     1
 93
        1
176
     1
 44
0.0
176
     1
173
     0
176
     1
  0
VISUALSTYLE
  5
30
102
{ACAD_REACTORS
330
2A
102
}
330
2A
100
AcDbVisualStyle
  2
3dWireframe
 70
     5
177
     2
291
     0
 71
     0
176
     1
 72
     2
176
     1
 73
     0
176
     1
 90
        0
176
     1
 40
-0.6
176
     1
 41
-30.0
176
     1
 62
     5
 63
     7
421
 16777215
176
     1
 74
     1
176
     1
 91
        4
176
     1
 64
     7
176
     1
 65
   257
176
     1
 75
     1
176
     1
175
     1
176
     1
 42
1.0
176
     1
 92
        0
176
     1
 66
   257
176
     1
 43
1.0
176
     1
 76
     1
176
     1
 77
     6
176
     1
 78
     2
176
     1
 67
     7
176
     1
 79
     5
176
     1
170
     0
176
     1
171
     0
176
     1
290
     0
176
     1
 93
        1
176
     1
 44
0.0
176
     1
173
     0
176
     1
  0
VISUALSTYLE
  5
32
102
{ACAD_REACTORS
330
2A
102
}
330
2A
100
AcDbVisualStyle
  2
Basic
 70
     7
177
     2
291
     1
 71
     1
176
     1
 72
     0
176
     1
 73
     1
176
     1
 90
        0
176
     1
 40
-0.6
176
     1
 41
-30.0
176
     1
 62
     5
 63
     7
421
 16777215
176
     1
 74
     0
176
     1
 91
        4
176
     1
 64
     7
176
     1
 65
   257
176
     1
 75
     1
176
     1
175
     1
176
     1
 42
1.0
176
     1
 92
        8
176
     1
 66
     7
176
     1
 43
1.0
176
     1
 76
     1
176
     1
 77
     6
176
     1
 78
     2
176
     1
 67
     7
176
     1
 79
     5
176
     1
170
     0
176
     1
171
     0
176
     1
290
     0
176
     1
 93
        1
176
     1
 44
0.0
176
     1
173
     0
176
     1
  0
VISUALSTYLE
  5
36
102
{ACAD_REACTORS
330
2A
102
}
330
2A
100
AcDbVisualStyle
  2
Brighten
 70
    12
177
     2
291
     1
 71
     2
176
     1
 72
     2
176
     1
 73
     0
176
     1
 90
        0
176
     1
 40
-0.6
176
     1
 41
-30.0
176
     1
 62
     5
 63
     7
421
 16777215
176
     1
 74
     1
176
     1
 91
        4
176
     1
 64
     7
176
     1
 65
   257
176
     1
 75
     1
176
     1
175
     1
176
     1
 42
1.0
176
     1
 92
        8
176
     1
 66
     7
176
     1
 43
1.0
176
     1
 76
     1
176
     1
 77
     6
176
     1
 78
     2
176
     1
 67
     7
176
     1
 79
     5
176
     1
170
     0
176
     1
171
     0
176
     1
290
     0
176
     1
 93
        1
176
     1
 44
50.0
176
     1
173
     0
176
     1
  0
VISUALSTYLE
  5
3A
102
{ACAD_REACTORS
330
2A
102
}
330
2A
100
AcDbVisualStyle
  2
ColorChange
 70
    16
177
     2
291
     1
 71
     2
176
     1
 72
     2
176
     1
 73
     3
176
     1
 90
        0
176
     1
 40
-0.6
176
     1
 41
-30.0
176
     1
 62
     5
 63
     8
421
  8421504
176
     1
 74
     1
176
     1
 91
        4
176
     1
 64
     7
176
     1
 65
   257
176
     1
 75
     1
176
     1
175
     1
176
     1
 42
1.0
176
     1
 92
        8
176
     1
 66
     8
424
  8421504
176
     1
 43
1.0
176
     1
 76
     1
176
     1
 77
     6
176
     1
 78
     2
176
     1
 67
     7
176
     1
 79
     5
176
     1
170
     0
176
     1
171
     0
176
     1
290
     0
176
     1
 93
        1
176
     1
 44
0.0
176
     1
173
     0
176
     1
  0
VISUALSTYLE
  5
34
102
{ACAD_REACTORS
330
2A
102
}
330
2A
100
AcDbVisualStyle
  2
Conceptual
 70
     9
177
     2
291
     0
 71
     3
176
     1
 72
     2
176
     1
 73
     0
176
     1
 90
        0
176
     1
 40
-0.6
176
     1
 41
-30.0
176
     1
 62
     5
 63
     7
421
 16777215
176
     1
 74
     2
176
     1
 91
        2
176
     1
 64
     7
176
     1
 65
   257
176
     1
 75
     1
176
     1
175
     1
176
     1
 42
40.0
176
     1
 92
        8
176
     1
 66
     7
176
     1
 43
1.0
176
     1
 76
     1
176
     1
 77
     6
176
     1
 78
     2
176
     1
 67
     7
176
     1
 79
     3
176
     1
170
     0
176
     1
171
     0
176
     1
290
     0
176
     1
 93
        1
176
     1
 44
0.0
176
     1
173
     0
176
     1
  0
VISUALSTYLE
  5
35
102
{ACAD_REACTORS
330
2A
102
}
330
2A
100
AcDbVisualStyle
  2
Dim
 70
    11
177
     2
291
     1
 71
     2
176
     1
 72
     2
176
     1
 73
     0
176
     1
 90
        0
176
     1
 40
-0.6
176
     1
 41
-30.0
176
     1
 62
     5
 63
     7
421
 16777215
176
     1
 74
     1
176
     1
 91
        4
176
     1
 64
     7
176
     1
 65
   257
176
     1
 75
     1
176
     1
175
     1
176
     1
 42
1.0
176
     1
 92
        8
176
     1
 66
     7
176
     1
 43
1.0
176
     1
 76
     1
176
     1
 77
     6
176
     1
 78
     2
176
     1
 67
     7
176
     1
 79
     5
176
     1
170
     0
176
     1
171
     0
176
     1
290
     0
176
     1
 93
        1
176
     1
 44
-50.0
176
     1
173
     0
176
     1
  0
VISUALSTYLE
  5
39
102
{ACAD_REACTORS
330
2A
102
}
330
2A
100
AcDbVisualStyle
  2
Facepattern
 70
    15
177
     2
291
     1
 71
     2
176
     1
 72
     2
176
     1
 73
     0
176
     1
 90
        0
176
     1
 40
-0.6
176
     1
 41
-30.0
176
     1
 62
     5
 63
     7
421
 16777215
176
     1
 74
     1
176
     1
 91
        4
176
     1
 64
     7
176
     1
 65
   257
176
     1
 75
     1
176
     1
175
     1
176
     1
 42
1.0
176
     1
 92
        8
176
     1
 66
     7
176
     1
 43
1.0
176
     1
 76
     1
176
     1
 77
     6
176
     1
 78
     2
176
     1
 67
     7
176
     1
 79
     5
176
     1
170
     0
176
     1
171
     0
176
     1
290
     0
176
     1
 93
        1
176
     1
 44
0.0
176
     1
173
     0
176
     1
  0
VISUALSTYLE
  5
2B
102
{ACAD_REACTORS
330
2A
102
}
330
2A
100
AcDbVisualStyle
  2
Flat
 70
     0
177
     2
291
     1
 71
     2
176
     1
 72
     1
176
     1
 73
     1
176
     1
 90
        2
176
     1
 40
-0.6
176
     1
 41
30.0
176
     1
 62
     5
 63
     7
421
 16777215
176
     1
 74
     0
176
     1
 91
        4
176
     1
 64
     7
176
     1
 65
   257
176
     1
 75
     1
176
     1
175
     1
176
     1
 42
1.0
176
     1
 92
        8
176
     1
 66
     7
176
     1
 43
1.0
176
     1
 76
     1
176
     1
 77
     6
176
     1
 78
     2
176
     1
 67
     7
176
     1
 79
     5
176
     1
170
     0
176
     1
171
     0
176
     1
290
     0
176
     1
 93
       13
176
     1
 44
0.0
176
     1
173
     0
176
     1
  0
VISUALSTYLE
  5
2C
102
{ACAD_REACTORS
330
2A
102
}
330
2A
100
AcDbVisualStyle
  2
FlatWithEdges
 70
     1
177
     2
291
     1
 71
     2
176
     1
 72
     1
176
     1
 73
     1
176
     1
 90
        2
176
     1
 40
-0.6
176
     1
 41
30.0
176
     1
 62
     5
 63
     7
421
 16777215
176
     1
 74
     1
176
     1
 91
        4
176
     1
 64
     7
176
     1
 65
   257
176
     1
 75
     1
176
     1
175
     1
176
     1
 42
1.0
176
     1
 92
        0
176
     1
 66
   257
176
     1
 43
1.0
176
     1
 76
     1
176
     1
 77
     6
176
     1
 78
     2
176
     1
 67
     7
176
     1
 79
     5
176
     1
170
     0
176
     1
171
     0
176
     1
290
     0
176
     1
 93
       13
176
     1
 44
0.0
176
     1
173
     0
176
     1
  0
VISUALSTYLE
  5
2D
102
{ACAD_REACTORS
330
2A
102
}
330
2A
100
AcDbVisualStyle
  2
Gouraud
 70
     2
177
     2
291
     1
 71
     2
176
     1
 72
     2
176
     1
 73
     1
176
     1
 90
        2
176
     1
 40
-0.6
176
     1
 41
30.0
176
     1
 62
     5
 63
     7
421
 16777215
176
     1
 74
     0
176
     1
 91
        4
176
     1
 64
     7
176
     1
 65
   257
176
     1
 75
     1
176
     1
175
     1
176
     1
 42
1.0
176
     1
 92
        0
176
     1
 66
     7
176
     1
 43
1.0
176
     1
 76
     1
176
     1
 77
     6
176
     1
 78
     2
176
     1
 67
     7
176
     1
 79
     5
176
     1
170
     0
176
     1
171
     0
176
     1
290
     0
176
     1
 93
       13
176
     1
 44
0.0
176
     1
173
     0
176
     1
  0
VISUALSTYLE
  5
2E
102
{ACAD_REACTORS
330
2A
102
}
330
2A
100
AcDbVisualStyle
  2
GouraudWithEdges
 70
     3
177
     2
291
     1
 71
     2
176
     1
 72
     2
176
     1
 73
     1
176
     1
 90
        2
176
     1
 40
-0.6
176
     1
 41
30.0
176
     1
 62
     5
 63
     7
421
 16777215
176
     1
 74
     1
176
     1
 91
        4
176
     1
 64
     7
176
     1
 65
   257
176
     1
 75
     1
176
     1
175
     1
176
     1
 42
1.0
176
     1
 92
        0
176
     1
 66
   257
176
     1
 43
1.0
176
     1
 76
     1
176
     1
 77
     6
176
     1
 78
     2
176
     1
 67
     7
176
     1
 79
     5
176
     1
170
     0
176
     1
171
     0
176
     1
290
     0
176
     1
 93
       13
176
     1
 44
0.0
176
     1
173
     0
176
     1
  0
VISUALSTYLE
  5
38
102
{ACAD_REACTORS
330
2A
102
}
330
2A
100
AcDbVisualStyle
  2
Linepattern
 70
    14
177
     2
291
     1
 71
     2
176
     1
 72
     2
176
     1
 73
     0
176
     1
 90
        0
176
     1
 40
-0.6
176
     1
 41
-30.0
176
     1
 62
     5
 63
     7
421
 16777215
176
     1
 74
     1
176
     1
 91
        4
176
     1
 64
     7
176
     1
 65
   257
176
     1
 75
     7
176
     1
175
     7
176
     1
 42
1.0
176
     1
 92
        8
176
     1
 66
     7
176
     1
 43
1.0
176
     1
 76
     1
176
     1
 77
     6
176
     1
 78
     2
176
     1
 67
     7
176
     1
 79
     5
176
     1
170
     0
176
     1
171
     0
176
     1
290
     0
176
     1
 93
        1
176
     1
 44
0.0
176
     1
173
     0
176
     1
  0
VISUALSTYLE
  5
33
102
{ACAD_REACTORS
330
2A
102
}
330
2A
100
AcDbVisualStyle
  2
Realistic
 70
     8
177
     2
291
     0
 71
     2
176
     1
 72
     2
176
     1
 73
     0
176
     1
 90
        0
176
     1
 40
-0.6
176
     1
 41
-30.0
176
     1
 62
     5
 63
     7
421
 16777215
176
     1
 74
     1
176
     1
 91
        0
176
     1
 64
     7
176
     1
 65
   257
176
     1
 75
     1
176
     1
175
     1
176
     1
 42
1.0
176
     1
 92
        8
176
     1
 66
     8
424
  7895160
176
     1
 43
1.0
176
     1
 76
     1
176
     1
 77
     6
176
     1
 78
     2
176
     1
 67
     7
176
     1
 79
     5
176
     1
170
     0
176
     1
171
     0
176
     1
290
     0
176
     1
 93
       13
176
     1
 44
0.0
176
     1
173
     0
176
     1
  0
VISUALSTYLE
  5
37
102
{ACAD_REACTORS
330
2A
102
}
330
2A
100
AcDbVisualStyle
  2
Thicken
 70
    13
177
     2
291
     1
 71
     2
176
     1
 72
     2
176
     1
 73
     0
176
     1
 90
        0
176
     1
 40
-0.6
176
     1
 41
-30.0
176
     1
 62
     5
 63
     7
421
 16777215
176
     1
 74
     1
176
     1
 91
        4
176
     1
 64
     7
176
     1
 65
   257
176
     1
 75
     1
176
     1
175
     1
176
     1
 42
1.0
176
     1
 92
       12
176
     1
 66
     7
176
     1
 43
1.0
176
     1
 76
     1
176
     1
 77
     6
176
     1
 78
     2
176
     1
 67
     7
176
     1
 79
     5
176
     1
170
     0
176
     1
171
     0
176
     1
290
     0
176
     1
 93
        1
176
     1
 44
0.0
176
     1
173
     0
176
     1
  0
ENDSEC
  0
EOF
