  0
SECTION
  2
HEADER
  9
$ACADVER
  1
AC1024
  9
$ACADMAINTVER
 70
     6
  9
$DWGCODEPAGE
  3
ANSI_1252
  9
$INSBASE
 10
0.0
 20
0.0
 30
0.0
  9
$EXTMIN
 10
0.0
 20
0.0
 30
0.0
  9
$EXTMAX
 10
594.0
 20
841.0
 30
0.0
  9
$LIMMIN
 10
0.0
 20
0.0
  9
$LIMMAX
 10
594.0
 20
841.0
  9
$ORTHOMODE
 70
     0
  9
$REGENMODE
 70
     1
  9
$FILLMODE
 70
     1
  9
$QTEXTMODE
 70
     0
  9
$MIRRTEXT
 70
     1
  9
$LTSCALE
 40
1.0
  9
$ATTMODE
 70
     1
  9
$TEXTSIZE
 40
10.0
  9
$TRACEWID
 40
1.0
  9
$TEXTSTYLE
  7
Standard
  9
$CLAYER
  8
0
  9
$CELTYPE
  6
ByLayer
  9
$CECOLOR
 62
   256
  9
$CELTSCALE
 40
1.0
  9
$DISPSILH
 70
     0
  9
$DIMSCALE
 40
1.0
  9
$DIMASZ
 40
2.5
  9
$DIMEXO
 40
0.0
  9
$DIMDLI
 40
3.75
  9
$DIMRND
 40
0.0
  9
$DIMDLE
 40
0.0
  9
$DIMEXE
 40
1.0
  9
$DIMTP
 40
0.0
  9
$DIMTM
 40
0.0
  9
$DIMTXT
 40
3.5
  9
$DIMCEN
 40
2.5
  9
$DIMTSZ
 40
0.0
  9
$DIMTOL
 70
     0
  9
$DIMLIM
 70
     0
  9
$DIMTIH
 70
     1
  9
$DIMTOH
 70
     1
  9
$DIMSE1
 70
     0
  9
$DIMSE2
 70
     0
  9
$DIMTAD
 70
     1
  9
$DIMZIN
 70
     0
  9
$DIMBLK
  1

  9
$DIMASO
 70
     1
  9
$DIMSHO
 70
     1
  9
$DIMPOST
  1

  9
$DIMAPOST
  1

  9
$DIMALT
 70
     0
  9
$DIMALTD
 70
     3
  9
$DIMALTF
 40
0.0393700787
  9
$DIMLFAC
 40
1.0
  9
$DIMTOFL
 70
     1
  9
$DIMTVP
 40
0.0
  9
$DIMTIX
 70
     0
  9
$DIMSOXD
 70
     0
  9
$DIMSAH
 70
     0
  9
$DIMBLK1
  1

  9
$DIMBLK2
  1

  9
$DIMSTYLE
  2
ISO-25
  9
$DIMCLRD
 70
     0
  9
$DIMCLRE
 70
     0
  9
$DIMCLRT
 70
     0
  9
$DIMTFAC
 40
1.0
  9
$DIMGAP
 40
1.5
  9
$DIMJUST
 70
     0
  9
$DIMSD1
 70
     0
  9
$DIMSD2
 70
     0
  9
$DIMTOLJ
 70
     0
  9
$DIMTZIN
 70
     0
  9
$DIMALTZ
 70
     0
  9
$DIMALTTZ
 70
     0
  9
$DIMUPT
 70
     0
  9
$DIMDEC
 70
     2
  9
$DIMTDEC
 70
     2
  9
$DIMALTU
 70
     2
  9
$DIMALTTD
 70
     3
  9
$DIMTXSTY
  7
Standard
  9
$DIMAUNIT
 70
     0
  9
$DIMADEC
 70
     2
  9
$DIMALTRND
 40
0.0
  9
$DIMAZIN
 70
     0
  9
$DIMDSEP
 70
    44
  9
$DIMATFIT
 70
     3
  9
$DIMFRAC
 70
     0
  9
$DIMLDRBLK
  1

  9
$DIMLUNIT
 70
     2
  9
$DIMLWD
 70
    -2
  9
$DIMLWE
 70
    -2
  9
$DIMTMOVE
 70
     0
  9
$DIMFXL
 40
1.0
  9
$DIMFXLON
 70
     0
  9
$DIMJOGANG
 40
0.7853981634
  9
$DIMTFILL
 70
     0
  9
$DIMTFILLCLR
 70
     0
  9
$DIMARCSYM
 70
     0
  9
$DIMLTYPE
  6

  9
$DIMLTEX1
  6

  9
$DIMLTEX2
  6

  9
$DIMTXTDIRECTION
 70
     0
  9
$LUNITS
 70
     2
  9
$LUPREC
 70
     2
  9
$SKETCHINC
 40
1.0
  9
$FILLETRAD
 40
10.0
  9
$AUNITS
 70
     0
  9
$AUPREC
 70
     2
  9
$MENU
  1
.
  9
$ELEVATION
 40
0.0
  9
$PELEVATION
 40
0.0
  9
$THICKNESS
 40
0.0
  9
$LIMCHECK
 70
     0
  9
$CHAMFERA
 40
10.0
  9
$CHAMFERB
 40
10.0
  9
$CHAMFERC
 40
20.0
  9
$CHAMFERD
 40
0.0
  9
$SKPOLY
 70
     0
  9
$TDCREATE
 40
2456350.558085174
  9
$TDUCREATE
 40
2456350.516418507
  9
$TDUPDATE
 40
2456350.558085637
  9
$TDUUPDATE
 40
2456350.51641897
  9
$TDINDWG
 40
0.0000000116
  9
$TDUSRTIMER
 40
0.0000000116
  9
$USRTIMER
 70
     1
  9
$ANGBASE
 50
0.0
  9
$ANGDIR
 70
     0
  9
$PDMODE
 70
     0
  9
$PDSIZE
 40
-1.0
  9
$PLINEWID
 40
0.0
  9
$SPLFRAME
 70
     0
  9
$SPLINETYPE
 70
     6
  9
$SPLINESEGS
 70
     8
  9
$HANDSEED
  5
34F
  9
$SURFTAB1
 70
     6
  9
$SURFTAB2
 70
     6
  9
$SURFTYPE
 70
     6
  9
$SURFU
 70
     6
  9
$SURFV
 70
     6
  9
$UCSBASE
  2

  9
$UCSNAME
  2

  9
$UCSORG
 10
0.0
 20
0.0
 30
0.0
  9
$UCSXDIR
 10
1.0
 20
0.0
 30
0.0
  9
$UCSYDIR
 10
0.0
 20
1.0
 30
0.0
  9
$UCSORTHOREF
  2

  9
$UCSORTHOVIEW
 70
     0
  9
$UCSORGTOP
 10
0.0
 20
0.0
 30
0.0
  9
$UCSORGBOTTOM
 10
0.0
 20
0.0
 30
0.0
  9
$UCSORGLEFT
 10
0.0
 20
0.0
 30
0.0
  9
$UCSORGRIGHT
 10
0.0
 20
0.0
 30
0.0
  9
$UCSORGFRONT
 10
0.0
 20
0.0
 30
0.0
  9
$UCSORGBACK
 10
0.0
 20
0.0
 30
0.0
  9
$PUCSBASE
  2

  9
$PUCSNAME
  2

  9
$PUCSORG
 10
0.0
 20
0.0
 30
0.0
  9
$PUCSXDIR
 10
1.0
 20
0.0
 30
0.0
  9
$PUCSYDIR
 10
0.0
 20
1.0
 30
0.0
  9
$PUCSORTHOREF
  2

  9
$PUCSORTHOVIEW
 70
     0
  9
$PUCSORGTOP
 10
0.0
 20
0.0
 30
0.0
  9
$PUCSORGBOTTOM
 10
0.0
 20
0.0
 30
0.0
  9
$PUCSORGLEFT
 10
0.0
 20
0.0
 30
0.0
  9
$PUCSORGRIGHT
 10
0.0
 20
0.0
 30
0.0
  9
$PUCSORGFRONT
 10
0.0
 20
0.0
 30
0.0
  9
$PUCSORGBACK
 10
0.0
 20
0.0
 30
0.0
  9
$USERI1
 70
     0
  9
$USERI2
 70
     0
  9
$USERI3
 70
     0
  9
$USERI4
 70
     0
  9
$USERI5
 70
     0
  9
$USERR1
 40
0.0
  9
$USERR2
 40
0.0
  9
$USERR3
 40
0.0
  9
$USERR4
 40
0.0
  9
$USERR5
 40
0.0
  9
$WORLDVIEW
 70
     1
  9
$SHADEDGE
 70
     3
  9
$SHADEDIF
 70
    70
  9
$TILEMODE
 70
     1
  9
$MAXACTVP
 70
    64
  9
$PINSBASE
 10
0.0
 20
0.0
 30
0.0
  9
$PLIMCHECK
 70
     0
  9
$PEXTMIN
 10
1.0000000000E+20
 20
1.0000000000E+20
 30
1.0000000000E+20
  9
$PEXTMAX
 10
-1.0000000000E+20
 20
-1.0000000000E+20
 30
-1.0000000000E+20
  9
$PLIMMIN
 10
0.0
 20
0.0
  9
$PLIMMAX
 10
420.0
 20
297.0
  9
$UNITMODE
 70
     0
  9
$VISRETAIN
 70
     1
  9
$PLINEGEN
 70
     0
  9
$PSLTSCALE
 70
     1
  9
$TREEDEPTH
 70
  3020
  9
$CMLSTYLE
  2
Standard
  9
$CMLJUST
 70
     0
  9
$CMLSCALE
 40
20.0
  9
$PROXYGRAPHICS
 70
     1
  9
$MEASUREMENT
 70
     1
  9
$CELWEIGHT
370
    -1
  9
$ENDCAPS
280
     0
  9
$JOINSTYLE
280
     0
  9
$LWDISPLAY
290
     1
  9
$INSUNITS
 70
     4
  9
$HYPERLINKBASE
  1

  9
$STYLESHEET
  1

  9
$XEDIT
290
     1
  9
$CEPSNTYPE
380
     0
  9
$PSTYLEMODE
290
     1
  9
$FINGERPRINTGUID
  2
{44373CB3-8C6D-412E-80B6-D73813CEAB1F}
  9
$VERSIONGUID
  2
{FAEB1C32-E019-11D5-929B-00C0DF256EC4}
  9
$EXTNAMES
290
     1
  9
$PSVPSCALE
 40
0.0
  9
$OLESTARTUP
290
     0
  9
$SORTENTS
280
   127
  9
$INDEXCTL
280
     0
  9
$HIDETEXT
280
     1
  9
$XCLIPFRAME
280
     2
  9
$HALOGAP
280
     0
  9
$OBSCOLOR
 70
   257
  9
$OBSLTYPE
280
     0
  9
$INTERSECTIONDISPLAY
280
     0
  9
$INTERSECTIONCOLOR
 70
   257
  9
$DIMASSOC
280
     2
  9
$PROJECTNAME
  1

  9
$CAMERADISPLAY
290
     0
  9
$LENSLENGTH
 40
50.0
  9
$CAMERAHEIGHT
 40
0.0
  9
$STEPSPERSEC
 40
2.0
  9
$STEPSIZE
 40
6.0
  9
$3DDWFPREC
 40
2.0
  9
$PSOLWIDTH
 40
5.0
  9
$PSOLHEIGHT
 40
80.0
  9
$LOFTANG1
 40
1.5707963268
  9
$LOFTANG2
 40
1.5707963268
  9
$LOFTMAG1
 40
0.0
  9
$LOFTMAG2
 40
0.0
  9
$LOFTPARAM
 70
     7
  9
$LOFTNORMALS
280
     1
  9
$LATITUDE
 40
37.795
  9
$LONGITUDE
 40
-122.394
  9
$NORTHDIRECTION
 40
0.0
  9
$TIMEZONE
 70
 -8000
  9
$LIGHTGLYPHDISPLAY
280
     1
  9
$TILEMODELIGHTSYNCH
280
     1
  9
$SOLIDHIST
280
     1
  9
$SHOWHIST
280
     1
  9
$DWFFRAME
280
     2
  9
$DGNFRAME
280
     2
  9
$REALWORLDSCALE
290
     1
  9
$INTERFERECOLOR
 62
   256
  9
$CSHADOW
280
     0
  9
$SHADOWPLANELOCATION
 40
0.0
  0
ENDSEC
  0
SECTION
  2
CLASSES
  0
CLASS
  1
ACDBDICTIONARYWDFLT
  2
AcDbDictionaryWithDefault
  3
ObjectDBX Classes
 90
        0
 91
        4
280
     0
281
     0
  0
CLASS
  1
VISUALSTYLE
  2
AcDbVisualStyle
  3
ObjectDBX Classes
 90
     4095
 91
        4
280
     0
281
     0
  0
CLASS
  1
MATERIAL
  2
AcDbMaterial
  3
ObjectDBX Classes
 90
     1153
 91
        4
280
     0
281
     0
  0
ENDSEC
  0
SECTION
  2
TABLES
  0
TABLE
  2
VPORT
  5
8
330
0
100
AcDbSymbolTable
 70
     1
  0
VPORT
  5
29
330
8
100
AcDbSymbolTableRecord
100
AcDbViewportTableRecord
  2
*Active
 70
     0
 10
0.0
 20
0.0
 11
1.0
 21
1.0
 12
297.0
 22
420.5
 13
0.0
 23
0.0
 14
10.0
 24
10.0
 15
10.0
 25
10.0
 16
0.0
 26
0.0
 36
1.0
 17
0.0
 27
0.0
 37
0.0
 40
841.0
 41
0.7063020214
 42
50.0
 43
0.0
 44
0.0
 50
0.0
 51
0.0
 71
     0
 72
  2000
 73
     1
 74
     3
 75
     0
 76
     0
 77
     0
 78
     0
281
     0
 65
     1
110
0.0
120
0.0
130
0.0
111
1.0
121
0.0
131
0.0
112
0.0
122
1.0
132
0.0
 79
     0
146
0.0
 60
     3
 61
     5
292
     1
282
     1
141
0.0
142
0.0
 63
   250
  0
ENDTAB
  0
TABLE
  2
LTYPE
  5
5
330
0
100
AcDbSymbolTable
 70
     6
  0
LTYPE
  5
14
330
5
100
AcDbSymbolTableRecord
100
AcDbLinetypeTableRecord
  2
ByBlock
 70
     0
  3

 72
    65
 73
     0
 40
0.0
  0
LTYPE
  5
15
330
5
100
AcDbSymbolTableRecord
100
AcDbLinetypeTableRecord
  2
ByLayer
 70
     0
  3

 72
    65
 73
     0
 40
0.0
  0
LTYPE
  5
16
330
5
100
AcDbSymbolTableRecord
100
AcDbLinetypeTableRecord
  2
Continuous
 70
     0
  3
Solid line
 72
    65
 73
     0
 40
0.0
  0
LTYPE
  5
3F
330
5
100
AcDbSymbolTableRecord
100
AcDbLinetypeTableRecord
  2
HIDDEN
 70
     0
  3
Hidden __ __ __ __ __ __ __ __ __ __ __ __ __ __
 72
    65
 73
     2
 40
1.905
 49
1.27
 74
     0
 49
-0.635
 74
     0
  0
LTYPE
  5
40
330
5
100
AcDbSymbolTableRecord
100
AcDbLinetypeTableRecord
  2
PHANTOM
 70
     0
  3
Phantom ______  __  __  ______  __  __  ______
 72
    65
 73
     6
 40
12.7
 49
6.35
 74
     0
 49
-1.27
 74
     0
 49
1.27
 74
     0
 49
-1.27
 74
     0
 49
1.27
 74
     0
 49
-1.27
 74
     0
  0
LTYPE
  5
41
330
5
100
AcDbSymbolTableRecord
100
AcDbLinetypeTableRecord
  2
CENTER
 70
     0
  3
Center ____ _ ____ _ ____ _ ____ _ ____ _ ____
 72
    65
 73
     4
 40
10.16
 49
6.35
 74
     0
 49
-1.27
 74
     0
 49
1.27
 74
     0
 49
-1.27
 74
     0
  0
LTYPE
  5
42
330
5
100
AcDbSymbolTableRecord
100
AcDbLinetypeTableRecord
  2
CENTERX2
 70
     0
  3
Center (2x) ________  __  ________  __  _____
 72
    65
 73
     4
 40
20.32
 49
12.7
 74
     0
 49
-2.54
 74
     0
 49
2.54
 74
     0
 49
-2.54
 74
     0
  0
LTYPE
  5
43
330
5
100
AcDbSymbolTableRecord
100
AcDbLinetypeTableRecord
  2
DOT2
 70
     0
  3
Dot (.5x) ........................................
 72
    65
 73
     2
 40
0.635
 49
0.0
 74
     0
 49
-0.635
 74
     0
  0
ENDTAB
  0
TABLE
  2
LAYER
  5
2
330
0
100
AcDbSymbolTable
 70
     1
  0
LAYER
  5
10
330
2
100
AcDbSymbolTableRecord
100
AcDbLayerTableRecord
  2
0
 70
     0
 62
     7
  6
Continuous
370
    -3
390
F
347
3E
  0
ENDTAB
  0
TABLE
  2
STYLE
  5
3
330
0
100
AcDbSymbolTable
 70
     4
  0
STYLE
  5
11
330
3
100
AcDbSymbolTableRecord
100
AcDbTextStyleTableRecord
  2
Standard
 70
     0
 40
0.0
 41
1.0
 50
0.0
 71
     0
 42
10.0
  3
txt
  4

  0
STYLE
  5
47
330
3
100
AcDbSymbolTableRecord
100
AcDbTextStyleTableRecord
  2
SLDTEXTSTYLE0
 70
     0
 40
0.0
 41
0.96
 50
0.0
 71
     0
 42
0.2
  3
ISOCP3
  4

  0
STYLE
  5
5E
330
3
100
AcDbSymbolTableRecord
100
AcDbTextStyleTableRecord
  2
SLDTEXTSTYLE1
 70
     0
 40
0.0
 41
0.575
 50
0.0
 71
     0
 42
0.2
  3
TXT
  4

  0
STYLE
  5
60
330
3
100
AcDbSymbolTableRecord
100
AcDbTextStyleTableRecord
  2
SLDTEXTSTYLE2
 70
     0
 40
0.0
 41
0.605
 50
0.0
 71
     0
 42
0.2
  3
TXT
  4

  0
ENDTAB
  0
TABLE
  2
VIEW
  5
6
330
0
100
AcDbSymbolTable
 70
     0
  0
ENDTAB
  0
TABLE
  2
UCS
  5
7
330
0
100
AcDbSymbolTable
 70
     0
  0
ENDTAB
  0
TABLE
  2
APPID
  5
9
330
0
100
AcDbSymbolTable
 70
     1
  0
APPID
  5
12
330
9
100
AcDbSymbolTableRecord
100
AcDbRegAppTableRecord
  2
ACAD
 70
     0
  0
ENDTAB
  0
TABLE
  2
DIMSTYLE
  5
A
330
0
100
AcDbSymbolTable
 70
     2
100
AcDbDimStyleTable
  0
DIMSTYLE
105
27
330
A
100
AcDbSymbolTableRecord
100
AcDbDimStyleTableRecord
  2
ISO-25
 70
     0
 41
2.5
 42
0.625
 43
3.75
 44
1.25
 73
     0
 74
     0
 77
     1
 78
     8
140
2.5
141
2.5
143
0.0393700787
147
0.625
171
     3
172
     1
178
     0
271
     2
272
     2
274
     3
278
    44
283
     0
284
     8
340
11
  0
DIMSTYLE
105
48
102
{ACAD_REACTORS
330
46
330
53
102
}
330
A
100
AcDbSymbolTableRecord
100
AcDbDimStyleTableRecord
  2
SLDDIMSTYLE0
 70
     0
 41
2.5
 44
0.0
 45
0.000000001
 73
     0
 74
     0
 77
     1
 78
    12
 79
     3
140
6.0
147
1.5
173
     1
178
     0
271
     2
272
     2
276
     2
284
    12
340
47
  0
ENDTAB
  0
TABLE
  2
BLOCK_RECORD
  5
1
330
0
100
AcDbSymbolTable
 70
     3
  0
BLOCK_RECORD
  5
1F
330
1
100
AcDbSymbolTableRecord
100
AcDbBlockTableRecord
  2
*Model_Space
340
22
 70
     0
280
     1
281
     0
  0
BLOCK_RECORD
  5
1B
330
1
100
AcDbSymbolTableRecord
100
AcDbBlockTableRecord
  2
*Paper_Space
340
1E
 70
     0
280
     1
281
     0
  0
BLOCK_RECORD
  5
23
330
1
100
AcDbSymbolTableRecord
100
AcDbBlockTableRecord
  2
*Paper_Space0
340
26
 70
     0
280
     1
281
     0
  0
BLOCK_RECORD
  5
49
330
1
100
AcDbSymbolTableRecord
100
AcDbBlockTableRecord
  2
_D
340
0
 70
     0
280
     1
281
     0
  0
BLOCK_RECORD
  5
54
330
1
100
AcDbSymbolTableRecord
100
AcDbBlockTableRecord
  2
_D_1
340
0
 70
     0
280
     1
281
     0
  0
ENDTAB
  0
ENDSEC
  0
SECTION
  2
BLOCKS
  0
BLOCK
  5
20
330
1F
100
AcDbEntity
  8
0
100
AcDbBlockBegin
  2
*Model_Space
 70
     0
 10
0.0
 20
0.0
 30
0.0
  3
*Model_Space
  1

  0
ENDBLK
  5
21
330
1F
100
AcDbEntity
  8
0
100
AcDbBlockEnd
  0
BLOCK
  5
1C
330
1B
100
AcDbEntity
 67
     1
  8
0
100
AcDbBlockBegin
  2
*Paper_Space
 70
     0
 10
0.0
 20
0.0
 30
0.0
  3
*Paper_Space
  1

  0
ENDBLK
  5
1D
330
1B
100
AcDbEntity
 67
     1
  8
0
100
AcDbBlockEnd
  0
BLOCK
  5
24
330
23
100
AcDbEntity
  8
0
100
AcDbBlockBegin
  2
*Paper_Space0
 70
     0
 10
0.0
 20
0.0
 30
0.0
  3
*Paper_Space0
  1

  0
ENDBLK
  5
25
330
23
100
AcDbEntity
  8
0
100
AcDbBlockEnd
  0
BLOCK
  5
4A
330
49
100
AcDbEntity
  8
0
100
AcDbBlockBegin
  2
_D
 70
     0
 10
0.0
 20
0.0
 30
0.0
  3
_D
  1

  0
SOLID
  5
4C
330
49
100
AcDbEntity
  8
0
  6
Continuous
 62
     7
370
     0
100
AcDbTrace
 10
42.7614395004
 20
152.0299240879
 30
0.0
 11
42.4614395004
 21
149.5299240879
 31
0.0
 12
43.0614395004
 22
149.5299240879
 32
0.0
 13
43.0614395004
 23
149.5299240879
 33
0.0
  0
SOLID
  5
4D
330
49
100
AcDbEntity
  8
0
  6
Continuous
 62
     7
370
     0
100
AcDbTrace
 10
42.7614395004
 20
52.0299240879
 30
0.0
 11
43.0614395004
 21
54.5299240879
 31
0.0
 12
42.4614395004
 22
54.5299240879
 32
0.0
 13
42.4614395004
 23
54.5299240879
 33
0.0
  0
LINE
  5
4E
330
49
100
AcDbEntity
  8
0
  6
Continuous
 62
     7
370
     0
100
AcDbLine
 10
56.6850079902
 20
152.0299240879
 30
0.0
 11
41.7614395004
 21
152.0299240879
 31
0.0
  0
LINE
  5
4F
330
49
100
AcDbEntity
  8
0
  6
Continuous
 62
     7
370
     0
100
AcDbLine
 10
56.6850079902
 20
52.0299240879
 30
0.0
 11
41.7614395004
 21
52.0299240879
 31
0.0
  0
LINE
  5
50
330
49
100
AcDbEntity
  8
0
  6
Continuous
 62
     7
370
     0
100
AcDbLine
 10
42.7614395004
 20
152.0299240879
 30
0.0
 11
42.7614395004
 21
52.0299240879
 31
0.0
  0
MTEXT
  5
51
330
49
100
AcDbEntity
  8
0
  6
Continuous
 62
     7
370
     0
100
AcDbMText
 10
35.0270329453
 20
91.6722208134
 30
0.1
 40
6.0
 41
0.0
 46
0.0
 71
     1
 72
     1
  1
100
  7
SLDTEXTSTYLE0
 11
-7.044195017643634E-15
 21
1.0
 31
0.0
 73
     1
 44
1.0
  0
MTEXT
  5
52
330
49
100
AcDbEntity
  8
0
  6
Continuous
 62
     7
370
     0
100
AcDbMText
 10
35.0270329453
 20
108.4388881795
 30
0.1
 40
6.0
 41
0.0
 46
0.0
 71
     1
 72
     1
  1
mm
  7
SLDTEXTSTYLE0
 11
-7.044195017643634E-15
 21
1.0
 31
0.0
 73
     1
 44
1.0
  0
ENDBLK
  5
4B
330
49
100
AcDbEntity
  8
0
100
AcDbBlockEnd
  0
BLOCK
  5
55
330
54
100
AcDbEntity
  8
0
100
AcDbBlockBegin
  2
_D_1
 70
     0
 10
0.0
 20
0.0
 30
0.0
  3
_D_1
  1

  0
SOLID
  5
57
330
54
100
AcDbEntity
  8
0
  6
Continuous
 62
     7
370
     0
100
AcDbTrace
 10
56.6850079902
 20
38.4602342313
 30
0.0
 11
59.1850079902
 21
38.1602342313
 31
0.0
 12
59.1850079902
 22
38.7602342313
 32
0.0
 13
59.1850079902
 23
38.7602342313
 33
0.0
  0
SOLID
  5
58
330
54
100
AcDbEntity
  8
0
  6
Continuous
 62
     7
370
     0
100
AcDbTrace
 10
156.6850079902
 20
38.4602342313
 30
0.0
 11
154.1850079902
 21
38.7602342313
 31
0.0
 12
154.1850079902
 22
38.1602342313
 32
0.0
 13
154.1850079902
 23
38.1602342313
 33
0.0
  0
LINE
  5
59
330
54
100
AcDbEntity
  8
0
  6
Continuous
 62
     7
370
     0
100
AcDbLine
 10
56.6850079902
 20
52.0299240879
 30
0.0
 11
56.6850079902
 21
37.4602342313
 31
0.0
  0
LINE
  5
5A
330
54
100
AcDbEntity
  8
0
  6
Continuous
 62
     7
370
     0
100
AcDbLine
 10
156.6850079902
 20
52.0299240879
 30
0.0
 11
156.6850079902
 21
37.4602342313
 31
0.0
  0
LINE
  5
5B
330
54
100
AcDbEntity
  8
0
  6
Continuous
 62
     7
370
     0
100
AcDbLine
 10
56.6850079902
 20
38.4602342313
 30
0.0
 11
156.6850079902
 21
38.4602342313
 31
0.0
  0
MTEXT
  5
5C
330
54
100
AcDbEntity
  8
0
  6
Continuous
 62
     7
370
     0
100
AcDbMText
 10
91.2668151533
 20
46.1946407863
 30
0.1
 40
6.0
 41
0.0
 46
0.0
 71
     1
 72
     1
  1
100
  7
SLDTEXTSTYLE0
 73
     1
 44
1.0
  0
MTEXT
  5
5D
330
54
100
AcDbEntity
  8
0
  6
Continuous
 62
     7
370
     0
100
AcDbMText
 10
108.0334825193
 20
46.1946407863
 30
0.1
 40
6.0
 41
0.0
 46
0.0
 71
     1
 72
     1
  1
mm
  7
SLDTEXTSTYLE0
 73
     1
 44
1.0
  0
ENDBLK
  5
56
330
54
100
AcDbEntity
  8
0
100
AcDbBlockEnd
  0
ENDSEC
  0
SECTION
  2
ENTITIES
  0
LINE
  5
44
330
1F
100
AcDbEntity
  8
0
  6
Continuous
 62
     7
370
     0
100
AcDbLine
 10
56.6850079902
 20
152.0299240879
 30
0.0
 11
56.6850079902
 21
52.0299240879
 31
0.0
  0
LINE
  5
45
330
1F
100
AcDbEntity
  8
0
  6
Continuous
 62
     7
370
     0
100
AcDbLine
 10
56.6850079902
 20
52.0299240879
 30
0.0
 11
156.6850079902
 21
52.0299240879
 31
0.0
  0
DIMENSION
  5
46
330
1F
100
AcDbEntity
  8
0
  6
Continuous
 62
     7
370
     0
100
AcDbDimension
280
     0
  2
_D
 10
42.7614395004
 20
52.0299240879
 30
0.0
 11
42.7614395004
 21
105.4472211621
 31
0.0
 70
   160
  1
<>mm
 71
     2
 42
-1.0
 73
     0
 74
     0
 75
     0
  3
SLDDIMSTYLE0
100
AcDbAlignedDimension
 13
56.6850079902
 23
152.0299240879
 33
0.0
 14
56.6850079902
 24
52.0299240879
 34
0.0
 50
90.0
100
AcDbRotatedDimension
  0
DIMENSION
  5
53
330
1F
100
AcDbEntity
  8
0
  6
Continuous
 62
     7
370
     0
100
AcDbDimension
280
     0
  2
_D_1
 10
156.6850079902
 20
38.4602342313
 30
0.0
 11
105.0418155019
 21
38.4602342313
 31
0.0
 70
   160
  1
<>mm
 71
     2
 42
-1.0
 73
     0
 74
     0
 75
     0
  3
SLDDIMSTYLE0
100
AcDbAlignedDimension
 13
56.6850079902
 23
52.0299240879
 33
0.0
 14
156.6850079902
 24
52.0299240879
 34
0.0
100
AcDbRotatedDimension
  0
MTEXT
  5
5F
330
1F
100
AcDbEntity
  8
0
  6
Continuous
 62
     7
370
     0
100
AcDbMText
 10
236.2243752982
 20
48.4950511752
 30
0.0
 40
10.0
 41
0.0
 46
0.0
 71
     1
 72
     1
  1
39 934 05 - 62
  7
SLDTEXTSTYLE1
 73
     1
 44
1.0
  0
MTEXT
  5
61
330
1F
100
AcDbEntity
  8
0
  6
Continuous
 62
     7
370
     0
100
AcDbMText
 10
412.8252631579
 20
48.4342449499
 30
0.0
 40
10.0
 41
0.0
 46
0.0
 71
     1
 72
     1
  1
KLUDI GmbH & Co KG
  7
SLDTEXTSTYLE2
 73
     1
 44
1.0
  0
LINE
  5
62
330
1F
100
AcDbEntity
  8
0
  6
Continuous
 62
     7
370
    15
100
AcDbLine
 10
89.6629212991
 20
465.4500757262
 30
0.0
 11
89.6629212991
 21
370.7500735565
 31
0.0
  0
LINE
  5
63
330
1F
100
AcDbEntity
  8
0
  6
Continuous
 62
     7
370
    15
100
AcDbLine
 10
147.6629196301
 20
464.8500730202
 30
0.0
 11
147.6629196301
 21
465.4500757262
 31
0.0
  0
LINE
  5
64
330
1F
100
AcDbEntity
  8
0
  6
Continuous
 62
     7
370
    15
100
AcDbLine
 10
147.6629196301
 20
370.7500735565
 30
0.0
 11
147.6629196301
 21
386.450073953
 31
0.0
  0
LINE
  5
65
330
1F
100
AcDbEntity
  8
0
  6
Continuous
 62
     7
370
    15
100
AcDbLine
 10
89.6629212991
 20
370.2500735328
 30
0.0
 11
89.6629212991
 21
316.2500721321
 31
0.0
  0
LINE
  5
66
330
1F
100
AcDbEntity
  8
0
  6
Continuous
 62
     7
370
    15
100
AcDbLine
 10
147.6629196301
 20
316.2500721321
 30
0.0
 11
147.6629196301
 21
370.2500735328
 31
0.0
  0
ARC
  5
67
330
1F
100
AcDbEntity
  8
0
  6
Continuous
 62
     7
370
    15
100
AcDbCircle
 10
118.6629204646
 20
462.6500735328
 30
0.0
 40
27.67417568781408
100
AcDbArc
 50
145.4154603196
 51
173.5683545736
  0
ARC
  5
68
330
1F
100
AcDbEntity
  8
0
  6
Continuous
 62
     7
370
    15
100
AcDbCircle
 10
118.6629204646
 20
462.6500735328
 30
0.0
 40
27.67417568781408
100
AcDbArc
 50
6.4316454264
 51
19.3072098751
  0
LINE
  5
69
330
1F
100
AcDbEntity
  8
0
  6
Continuous
 62
     7
370
    15
100
AcDbLine
 10
145.9629206553
 20
370.2500735328
 30
0.0
 11
145.9629206553
 21
370.7500735565
 31
0.0
  0
LINE
  5
6A
330
1F
100
AcDbEntity
  8
0
  6
Continuous
 62
     7
370
    15
100
AcDbLine
 10
91.3629202739
 20
370.7500735565
 30
0.0
 11
91.3629202739
 21
370.2500735328
 31
0.0
  0
LINE
  5
6B
330
1F
100
AcDbEntity
  8
0
  6
Continuous
 62
     7
370
    15
100
AcDbLine
 10
147.9894674018
 20
488.0016420886
 30
0.0
 11
148.0899515197
 21
493.758400242
 31
0.0
  0
LINE
  5
6C
330
1F
100
AcDbEntity
  8
0
  6
Continuous
 62
     7
370
    15
100
AcDbLine
 10
147.7062782839
 20
471.7777495191
 30
0.0
 11
147.8426555738
 21
479.5907859609
 31
0.0
  0
LINE
  5
6D
330
1F
100
AcDbEntity
  8
0
  6
Continuous
 62
     7
370
    15
100
AcDbLine
 10
92.8629195884
 20
465.750073354
 30
0.0
 11
92.8629195884
 21
465.4500757262
 31
0.0
  0
LINE
  5
6E
330
1F
100
AcDbEntity
  8
0
  6
Continuous
 62
     7
370
    15
100
AcDbLine
 10
144.4629213408
 20
465.4500757262
 30
0.0
 11
144.4629213408
 21
465.750073354
 31
0.0
  0
ARC
  5
6F
330
1F
100
AcDbEntity
  8
0
  6
Continuous
 62
     7
370
    15
100
AcDbCircle
 10
281.3917569746
 20
528.0002507528
 30
0.0
 40
73.24735574000006
100
AcDbArc
 50
331.5198106367
 51
345.3462733129
  0
ARC
  5
70
330
1F
100
AcDbEntity
  8
0
  6
Continuous
 62
     7
370
    15
100
AcDbCircle
 10
227.4095909856
 20
536.0198324843
 30
0.0
 40
1.40082365302961
100
AcDbArc
 50
350.7017244265
 51
108.6452757679
  0
ARC
  5
71
330
1F
100
AcDbEntity
  8
0
  6
Continuous
 62
     7
370
    15
100
AcDbCircle
 10
165.6301891733
 20
545.5751391715
 30
0.0
 40
63.99999003295368
100
AcDbArc
 50
347.4694517171
 51
351.2613891716
  0
LINE
  5
72
330
1F
100
AcDbEntity
  8
0
  6
Continuous
 62
     7
370
    15
100
AcDbLine
 10
340.2432321206
 20
486.359765093
 30
0.0
 11
339.0488444463
 21
490.9781117842
 31
0.0
  0
LINE
  5
73
330
1F
100
AcDbEntity
  8
0
  6
Continuous
 62
     7
370
    15
100
AcDbLine
 10
315.8046274081
 20
485.0025002763
 30
0.0
 11
317.0076875582
 21
480.3506483242
 31
0.0
  0
ARC
  5
74
330
1F
100
AcDbEntity
  8
0
  6
Continuous
 62
     7
370
    15
100
AcDbCircle
 10
134.1371291792
 20
559.47143984
 30
0.0
 40
50.87097646260762
100
AcDbArc
 50
267.700730153
 51
288.849607463
  0
LINE
  5
75
330
1F
100
AcDbEntity
  8
0
  6
Continuous
 62
     7
370
    15
100
AcDbLine
 10
158.3199581698
 20
513.9379774138
 30
0.0
 11
150.4512584403
 21
511.290160279
 31
0.0
  0
LWPOLYLINE
  5
76
330
1F
100
AcDbEntity
  8
0
  6
Continuous
 62
     7
370
    15
100
AcDbPolyline
 90
        3
 70
   128
 43
0.0
 10
214.1311659113
 20
532.6747571036
 10
202.001434435
 20
528.6336962983
 10
184.0201808706
 20
522.6056699559
  0
LINE
  5
77
330
1F
100
AcDbEntity
  8
0
  6
Continuous
 62
     7
370
    15
100
AcDbLine
 10
339.4196300402
 20
485.550423424
 30
0.0
 11
340.2432321206
 21
486.359765093
 31
0.0
  0
LINE
  5
78
330
1F
100
AcDbEntity
  8
0
  6
Continuous
 62
     7
370
    15
100
AcDbLine
 10
317.0076875582
 20
480.3506483242
 30
0.0
 11
318.1203870669
 21
480.0420676276
 31
0.0
  0
LWPOLYLINE
  5
79
330
1F
100
AcDbEntity
  8
0
  6
Continuous
 62
     7
370
    15
100
AcDbPolyline
 90
        3
 70
   128
 43
0.0
 10
168.5888773397
 20
506.8833802745
 10
176.5973015323
 20
510.5663512752
 10
186.3905681864
 20
514.8330305621
  0
LWPOLYLINE
  5
7A
330
1F
100
AcDbEntity
  8
0
  6
Continuous
 62
     7
370
    15
100
AcDbPolyline
 90
        3
 70
   128
 43
0.0
 10
186.4592476383
 20
514.8716990754
 10
199.0224389926
 20
520.116758804
 10
214.120280613
 20
526.1379604146
  0
ARC
  5
7B
330
1F
100
AcDbEntity
  8
0
  6
Continuous
 62
     7
370
    15
100
AcDbCircle
 10
224.7530826135
 20
500.1441943923
 30
0.0
 40
28.03190682130274
100
AcDbArc
 50
105.256668231
 51
112.2031307837
  0
LINE
  5
7C
330
1F
100
AcDbEntity
  8
0
  6
Continuous
 62
     7
370
    15
100
AcDbLine
 10
320.1535015002
 20
480.5678625509
 30
0.0
 11
320.2035694018
 21
480.3742368624
 31
0.0
  0
LINE
  5
7D
330
1F
100
AcDbEntity
  8
0
  6
Continuous
 62
     7
370
    15
100
AcDbLine
 10
337.4365984097
 20
484.8309953615
 30
0.0
 11
337.3865305081
 21
485.0246285006
 31
0.0
  0
LINE
  5
7E
330
1F
100
AcDbEntity
  8
0
  6
Continuous
 62
     7
370
    15
100
AcDbLine
 10
148.0888097182
 20
494.0201763913
 30
0.0
 11
148.0828250393
 21
494.2487304017
 31
0.0
  0
LWPOLYLINE
  5
7F
330
1F
100
AcDbEntity
  8
0
  6
Continuous
 62
     7
370
    15
100
AcDbPolyline
 90
        3
 70
   128
 43
0.0
 10
148.0898583874
 20
493.7531624839
 10
148.0907152042
 20
493.9056311652
 10
148.0886700198
 20
494.0254066989
  0
LINE
  5
80
330
1F
100
AcDbEntity
  8
0
  6
Continuous
 62
     7
370
    15
100
AcDbLine
 10
147.8458220705
 20
479.4692073867
 30
0.0
 11
147.852475439
 21
479.8504014418
 31
0.0
  0
LINE
  5
81
330
1F
100
AcDbEntity
  8
0
  6
Continuous
 62
     7
370
    15
100
AcDbLine
 10
147.8231033877
 20
479.8000727698
 30
0.0
 11
148.0939468935
 21
479.8000727698
 31
0.0
  0
LINE
  5
82
330
1F
100
AcDbEntity
  8
0
  6
Continuous
 62
     7
370
    15
100
AcDbLine
 10
148.0939468935
 20
479.8000727698
 30
0.0
 11
148.694493492
 21
480.0186579034
 31
0.0
  0
LINE
  5
83
330
1F
100
AcDbEntity
  8
0
  6
Continuous
 62
     7
370
    15
100
AcDbLine
 10
148.694493492
 20
487.5814889476
 30
0.0
 11
148.0939468935
 21
487.8000740811
 31
0.0
  0
ARC
  5
84
330
1F
100
AcDbEntity
  8
0
  6
Continuous
 62
     7
370
    15
100
AcDbCircle
 10
148.6260903512
 20
487.3935536418
 30
0.0
 40
0.2000000000000171
100
AcDbArc
 50
0.0
 51
70.0
  0
ARC
  5
85
330
1F
100
AcDbEntity
  8
0
  6
Continuous
 62
     7
370
    15
100
AcDbCircle
 10
148.6260903512
 20
480.2065934239
 30
0.0
 40
0.2000000000000171
100
AcDbArc
 50
290.0
 51
0.0
  0
LINE
  5
86
330
1F
100
AcDbEntity
  8
0
  6
Continuous
 62
     7
370
    15
100
AcDbLine
 10
148.8260912344
 20
480.2065913484
 30
0.0
 11
148.8260912344
 21
487.3935555026
 31
0.0
  0
ARC
  5
87
330
1F
100
AcDbEntity
  8
0
  6
Continuous
 62
     7
370
    15
100
AcDbCircle
 10
134.8408119934
 20
555.9378064525
 30
0.0
 40
47.3018949930123
100
AcDbArc
 50
269.6796308465
 51
289.4258471974
  0
ARC
  5
88
330
1F
100
AcDbEntity
  8
0
  6
Continuous
 62
     7
370
    15
100
AcDbCircle
 10
155.694300697
 20
489.5364423077
 30
0.0
 40
9.004989687230061
100
AcDbArc
 50
121.2391146392
 51
183.4613095438
  0
LWPOLYLINE
  5
89
330
1F
100
AcDbEntity
  8
0
  6
Continuous
 62
     7
370
    15
100
AcDbPolyline
 90
        3
 70
   128
 43
0.0
 10
122.253752929
 20
439.3656750128
 10
122.2538334884
 20
437.1673812077
 10
122.2543906521
 20
434.9684243009
  0
ARC
  5
8A
330
1F
100
AcDbEntity
  8
0
  6
Continuous
 62
     7
370
    15
100
AcDbCircle
 10
187.2874260193
 20
764.2354519494
 30
0.0
 40
300.1459098709096
100
AcDbArc
 50
251.027668518
 51
256.8404057878
  0
LINE
  5
8B
330
1F
100
AcDbEntity
  8
0
  6
Continuous
 62
     7
370
    15
100
AcDbLine
 10
89.7065332726
 20
480.3947632119
 30
0.0
 11
90.1496695921
 21
505.7819907472
 31
0.0
  0
LINE
  5
8C
330
1F
100
AcDbEntity
  8
0
  6
Continuous
 62
     7
370
    15
100
AcDbLine
 10
119.9206892967
 20
471.8000714585
 30
0.0
 11
131.6773729965
 21
471.8000714585
 31
0.0
  0
LINE
  5
8D
330
1F
100
AcDbEntity
  8
0
  6
Continuous
 62
     7
370
    15
100
AcDbLine
 10
119.9206892967
 20
471.8000714585
 30
0.0
 11
119.4688060538
 21
471.851793389
 31
0.0
  0
LINE
  5
8E
330
1F
100
AcDbEntity
  8
0
  6
Continuous
 62
     7
370
    15
100
AcDbLine
 10
119.4688060538
 20
471.851793389
 30
0.0
 11
118.9549372981
 21
471.9714646146
 31
0.0
  0
LWPOLYLINE
  5
8F
330
1F
100
AcDbEntity
  8
0
  6
Continuous
 62
     7
370
    15
100
AcDbPolyline
 90
        9
 70
   128
 43
0.0
 10
147.6629196301
 20
464.8500730202
 10
147.9521995977
 20
463.2520352408
 10
148.7050137118
 20
461.7307980463
 10
149.7678408966
 20
460.3659261867
 10
151.7414382294
 20
458.6803738877
 10
153.9817197815
 20
457.534757714
 10
157.1571795836
 20
456.9355373189
 10
160.4287667766
 20
457.1911741898
 10
163.6629222527
 20
458.0978427932
  0
LWPOLYLINE
  5
90
330
1F
100
AcDbEntity
  8
0
  6
Continuous
 62
     7
370
    15
100
AcDbPolyline
 90
        3
 70
   128
 43
0.0
 10
163.6629222527
 20
458.0978427932
 10
163.6625571743
 20
458.0972914502
 10
163.6615662471
 20
458.0957864329
  0
LINE
  5
91
330
1F
100
AcDbEntity
  8
0
  6
Continuous
 62
     7
370
    15
100
AcDbLine
 10
147.6629196301
 20
370.7500735565
 30
0.0
 11
89.6629212991
 21
370.7500735565
 31
0.0
  0
LINE
  5
92
330
1F
100
AcDbEntity
  8
0
  6
Continuous
 62
     7
370
    15
100
AcDbLine
 10
89.6629212991
 20
465.4500757262
 30
0.0
 11
147.6629196301
 21
465.4500757262
 31
0.0
  0
LINE
  5
93
330
1F
100
AcDbEntity
  8
0
  6
Continuous
 62
     7
370
    15
100
AcDbLine
 10
89.6629212991
 20
316.2500721321
 30
0.0
 11
147.6629196301
 21
316.2500721321
 31
0.0
  0
LINE
  5
94
330
1F
100
AcDbEntity
  8
0
  6
Continuous
 62
     7
370
    15
100
AcDbLine
 10
89.6629212991
 20
370.2500735328
 30
0.0
 11
147.6629196301
 21
370.2500735328
 31
0.0
  0
LWPOLYLINE
  5
95
330
1F
100
AcDbEntity
  8
0
  6
Continuous
 62
     7
370
    15
100
AcDbPolyline
 90
        9
 70
   128
 43
0.0
 10
147.6629196301
 20
386.450073953
 10
148.1343718812
 20
392.6079639152
 10
149.4469388023
 20
397.9809072718
 10
151.4479449585
 20
402.6402321562
 10
153.984703739
 20
406.6572648391
 10
156.9045415714
 20
410.1033334538
 10
161.0527230993
 20
413.8716247782
 10
165.2531369224
 20
416.9432830915
 10
169.1629222229
 20
419.4784847006
  0
ARC
  5
96
330
1F
100
AcDbEntity
  8
0
  6
Continuous
 62
     7
370
    15
100
AcDbCircle
 10
91.647498866
 20
505.7677639315
 30
0.0
 40
1.499999952148818
100
AcDbArc
 50
134.3327859271
 51
179.4554290899
  0
LWPOLYLINE
  5
97
330
1F
100
AcDbEntity
  8
0
  6
Continuous
 62
     7
370
    15
100
AcDbPolyline
 90
        3
 70
   128
 43
0.0
 10
90.5992618397
 20
506.8407033488
 10
90.9827115581
 20
507.1123962209
 10
91.4035427019
 20
507.2477881715
  0
LWPOLYLINE
  5
98
330
1F
100
AcDbEntity
  8
0
  6
Continuous
 62
     7
370
    15
100
AcDbPolyline
 90
        3
 70
   128
 43
0.0
 10
134.5763249889
 20
508.6366509005
 10
132.6661944956
 20
508.87417541
 10
118.7092861225
 20
509.4500754878
  0
LINE
  5
99
330
1F
100
AcDbEntity
  8
0
  6
Continuous
 62
     7
370
    15
100
AcDbLine
 10
111.3088286117
 20
465.750073354
 30
0.0
 11
91.1629206136
 21
465.750073354
 31
0.0
  0
LINE
  5
9A
330
1F
100
AcDbEntity
  8
0
  6
Continuous
 62
     7
370
    15
100
AcDbLine
 10
146.1629203156
 20
465.750073354
 30
0.0
 11
111.3088286117
 21
465.750073354
 31
0.0
  0
ARC
  5
9B
330
1F
100
AcDbEntity
  8
0
  6
Continuous
 62
     7
370
    15
100
AcDbCircle
 10
118.7093846436
 20
340.0362612959
 30
0.0
 40
169.4138122370066
100
AcDbArc
 50
90.0000331581
 51
99.2745981521
  0
LWPOLYLINE
  5
9C
330
1F
100
AcDbEntity
  8
0
  6
Continuous
 62
     7
370
    15
100
AcDbPolyline
 90
        3
 70
   128
 43
0.0
 10
344.7158305541
 20
492.2720913693
 10
341.5402589932
 20
491.5547643706
 10
339.0488444463
 20
490.9781117842
  0
ARC
  5
9D
330
1F
100
AcDbEntity
  8
0
  6
Continuous
 62
     7
370
    15
100
AcDbCircle
 10
334.7503568737
 20
459.5025379481
 30
0.0
 40
31.7677311704829
100
AcDbArc
 50
82.2234614593
 51
126.6112739247
  0
LWPOLYLINE
  5
9E
330
1F
100
AcDbEntity
  8
0
  6
Continuous
 62
     7
370
    15
100
AcDbPolyline
 90
        8
 70
   128
 43
0.0
 10
315.8046274081
 20
485.0025002763
 10
294.179451336
 20
478.4536932513
 10
272.8660522595
 20
471.0299496457
 10
251.8905966178
 20
462.743197839
 10
231.2792284981
 20
453.6053364083
 10
210.1053787962
 20
443.1324650452
 10
189.3899186149
 20
431.7522806034
 10
169.1629222229
 20
419.4784847006
  0
LWPOLYLINE
  5
9F
330
1F
100
AcDbEntity
  8
0
  6
Continuous
 62
     7
370
    15
100
AcDbPolyline
 90
        7
 70
   128
 43
0.0
 10
350.8636473313
 20
510.9528724954
 10
315.2771710053
 20
503.3755277202
 10
279.9590198889
 20
494.7393883869
 10
244.9328868285
 20
485.0517262623
 10
217.6326556698
 20
476.7070610926
 10
190.5388353959
 20
467.7212585613
 10
163.6629222527
 20
458.0978427932
  0
LINE
  5
A0
330
1F
100
AcDbEntity
  8
0
  6
Continuous
 62
     7
370
    15
100
AcDbLine
 10
350.8184521094
 20
510.930282335
 30
0.0
 11
350.8636473313
 21
510.9528575942
 31
0.0
  0
LWPOLYLINE
  5
A1
330
1F
100
AcDbEntity
  8
0
  6
Continuous
 62
     7
370
    15
100
AcDbPolyline
 90
        9
 70
   128
 43
0.0
 10
147.8139559373
 20
486.8062560365
 10
147.724996005
 20
485.9613899991
 10
147.634359692
 20
484.6644450828
 10
147.6016032145
 20
483.2359229133
 10
147.6376547113
 20
481.8504129455
 10
147.7144068673
 20
480.7249207899
 10
147.7947539285
 20
479.927939634
 10
147.8396026984
 20
479.5622800395
 10
147.8359537765
 20
479.5909051701
  0
LWPOLYLINE
  5
A2
330
1F
100
AcDbEntity
  8
0
  6
Continuous
 62
     7
370
    15
100
AcDbPolyline
 90
        4
 70
   128
 43
0.0
 10
147.9815958634
 20
488.0017836496
 10
147.9850883231
 20
488.0233456299
 10
147.9230193988
 20
487.6250971958
 10
147.8139559373
 20
486.8062560365
  0
LINE
  5
A3
330
1F
100
AcDbEntity
  8
0
  6
Continuous
 62
     7
370
    15
100
AcDbLine
 10
131.6773739278
 20
471.8000714585
 30
0.0
 11
147.7066675767
 21
471.8000714585
 31
0.0
  0
LWPOLYLINE
  5
A4
330
1F
100
AcDbEntity
  8
0
  6
Continuous
 62
     7
370
    15
100
AcDbPolyline
 90
        3
 70
   128
 43
0.0
 10
227.0449145332
 20
530.4662709042
 10
223.1348945394
 20
528.981712918
 10
220.064428319
 20
527.7997379109
  0
ARC
  5
A5
330
1F
100
AcDbEntity
  8
0
  6
Continuous
 62
     7
370
    15
100
AcDbCircle
 10
243.1059196789
 20
419.7604217224
 30
0.0
 40
110.4690190350277
100
AcDbArc
 50
102.0390771336
 51
103.3504504798
  0
ARC
  5
A6
330
1F
100
AcDbEntity
  8
0
  6
Continuous
 62
     7
370
    15
100
AcDbCircle
 10
225.1139908947
 20
498.851980142
 30
0.0
 40
29.37014047735975
100
AcDbArc
 50
104.8274723068
 51
111.8504657802
  0
LWPOLYLINE
  5
A7
330
1F
100
AcDbEntity
  8
0
  6
Continuous
 62
     7
370
    15
100
AcDbPolyline
 90
        4
 70
   128
 43
0.0
 10
214.1828505889
 20
526.1121218011
 10
204.1955261126
 20
522.1627180383
 10
199.1076959863
 20
520.1029305264
 10
186.6404308573
 20
514.9030362174
  0
LINE
  5
A8
330
1F
100
AcDbEntity
  8
0
  6
Continuous
 62
     7
370
    15
100
AcDbLine
 10
186.2979425684
 20
514.756200175
 30
0.0
 11
186.6404383078
 21
514.9029021069
 31
0.0
  0
LWPOLYLINE
  5
A9
330
1F
100
AcDbEntity
  8
0
  6
Continuous
 62
     7
370
    15
100
AcDbPolyline
 90
        3
 70
   128
 43
0.0
 10
186.2979202166
 20
514.7561554715
 10
177.2006122962
 20
510.7946370646
 10
168.6979612902
 20
506.8942581222
  0
ARC
  5
AA
330
1F
100
AcDbEntity
  8
0
  6
Continuous
 62
     7
370
    15
100
AcDbCircle
 10
251.3763643249
 20
334.6040059244
 30
0.0
 40
191.1011661330379
100
AcDbArc
 50
115.635351893
 51
121.6767123504
  0
ARC
  5
AB
330
1F
100
AcDbEntity
  8
0
  6
Continuous
 62
     7
370
    15
100
AcDbCircle
 10
122.0521876946
 20
755.1974923862
 30
0.0
 40
240.997466930586
100
AcDbArc
 50
293.418122644
 51
294.0809111926
  0
LWPOLYLINE
  5
AC
330
1F
100
AcDbEntity
  8
0
  6
Continuous
 62
     7
370
    15
100
AcDbPolyline
 90
        5
 70
   128
 43
0.0
 10
220.4667373195
 20
535.2101747796
 10
220.5744876161
 20
535.2587078616
 10
220.5764322177
 20
535.2596317336
 10
220.5765216246
 20
535.2596913382
 10
220.5765216246
 20
535.2596764371
  0
LWPOLYLINE
  5
AD
330
1F
100
AcDbEntity
  8
0
  6
Continuous
 62
     7
370
    15
100
AcDbPolyline
 90
        3
 70
   128
 43
0.0
 10
227.0660071269
 20
537.3959516093
 10
223.4319938913
 20
536.1996714875
 10
220.5765216246
 20
535.2596764371
  0
ARC
  5
AE
330
1F
100
AcDbEntity
  8
0
  6
Continuous
 62
     7
370
    15
100
AcDbCircle
 10
209.198217104
 20
563.5988933571
 30
0.0
 40
31.36513631317444
100
AcDbArc
 50
288.5378440341
 51
292.3385294419
  0
LWPOLYLINE
  5
AF
330
1F
100
AcDbEntity
  8
0
  6
Continuous
 62
     7
370
    15
100
AcDbPolyline
 90
        3
 70
   128
 43
0.0
 10
150.4552556768
 20
511.2839762971
 10
167.2361871794
 20
516.9468347833
 10
184.0223862425
 20
522.6119731471
  0
LWPOLYLINE
  5
B0
330
1F
100
AcDbEntity
  8
0
  6
Continuous
 62
     7
370
    15
100
AcDbPolyline
 90
        3
 70
   128
 43
0.0
 10
184.0223862425
 20
522.6119731471
 10
198.4080790177
 20
527.4375800893
 10
214.1337959662
 20
532.6797042891
  0
ARC
  5
B1
330
1F
100
AcDbEntity
  8
0
  6
Continuous
 62
     7
370
    15
100
AcDbCircle
 10
197.0132111424
 20
584.5423493203
 30
0.0
 40
54.61545911494325
100
AcDbArc
 50
288.2687796344
 51
292.4093410419
  0
ARC
  5
B2
330
1F
100
AcDbEntity
  8
0
  6
Continuous
 62
     7
370
    15
100
AcDbCircle
 10
351.0959456069
 20
509.7755116303
 30
0.0
 40
1.200044168990891
100
AcDbArc
 50
345.3510331769
 51
101.1614777195
  0
ARC
  5
B3
330
1F
100
AcDbEntity
  8
0
  6
Continuous
 62
     7
370
    15
100
AcDbCircle
 10
227.5037518041
 20
536.0661369165
 30
0.0
 40
1.400009828440411
100
AcDbArc
 50
351.2634583339
 51
108.2203662703
  0
LWPOLYLINE
  5
B4
330
1F
100
AcDbEntity
  8
0
  6
Continuous
 62
     7
370
    15
100
AcDbPolyline
 90
        3
 70
   128
 43
0.0
 10
228.7934391394
 20
535.8088289306
 10
228.8631169692
 20
535.8418946073
 10
228.8875176206
 20
535.8534877107
  0
ARC
  5
B5
330
1F
100
AcDbEntity
  8
0
  6
Continuous
 62
     7
370
    15
100
AcDbCircle
 10
226.4459619506
 20
532.0572331453
 30
0.0
 40
1.699972072939778
100
AcDbArc
 50
290.6299459278
 51
347.4688519022
  0
ARC
  5
B6
330
1F
100
AcDbEntity
  8
0
  6
Continuous
 62
     7
370
    15
100
AcDbCircle
 10
344.3679008233
 20
493.8338536819
 30
0.0
 40
1.600048942518139
100
AcDbArc
 50
282.5592697839
 51
331.5179126587
  0
LINE
  5
B7
330
1F
100
AcDbEntity
  8
0
  6
Continuous
 62
     7
370
    15
100
AcDbLine
 10
324.1361497536
 20
482.1941976354
 30
0.0
 11
323.2791988745
 21
485.5078284547
 31
0.0
  0
LWPOLYLINE
  5
B8
330
1F
100
AcDbEntity
  8
0
  6
Continuous
 62
     7
370
    15
100
AcDbPolyline
 90
        8
 70
   128
 43
0.0
 10
324.1361497536
 20
482.1941976354
 10
322.305825223
 20
481.7208398983
 10
320.6761150256
 20
481.2993680045
 10
319.298755993
 20
480.9431557462
 10
318.2174681321
 20
480.6635205552
 10
317.4665986195
 20
480.4693286225
 10
317.069974412
 20
480.3667564794
 10
317.0076875582
 20
480.3506483242
  0
LWPOLYLINE
  5
B9
330
1F
100
AcDbEntity
  8
0
  6
Continuous
 62
     7
370
    15
100
AcDbPolyline
 90
        8
 70
   128
 43
0.0
 10
340.2432321206
 20
486.359765093
 10
340.210732688
 20
486.3513608381
 10
339.8727445498
 20
486.2639580771
 10
339.1777096883
 20
486.0842053697
 10
338.1476967231
 20
485.8178247616
 10
336.8153839007
 20
485.4732652113
 10
335.223090519
 20
485.0614716217
 10
333.4213315144
 20
484.5955048606
  0
LINE
  5
BA
330
1F
100
AcDbEntity
  8
0
  6
Continuous
 62
     7
370
    15
100
AcDbLine
 10
332.5643806353
 20
487.9091356799
 30
0.0
 11
333.4213315144
 21
484.5955048606
 31
0.0
  0
LWPOLYLINE
  5
BB
330
1F
100
AcDbEntity
  8
0
  6
Continuous
 62
     7
370
    15
100
AcDbPolyline
 90
        9
 70
   128
 43
0.0
 10
323.2791988745
 20
485.5078284547
 10
324.4023142949
 20
485.7982818887
 10
325.5609689847
 20
486.0979367897
 10
326.7429290906
 20
486.4036117598
 10
327.9357223407
 20
486.7120881483
 10
329.1267423526
 20
487.0201026008
 10
330.3034274474
 20
487.3244141147
 10
331.4533500567
 20
487.6218040392
 10
332.5643806353
 20
487.9091356799
  0
LINE
  5
BC
330
1F
100
AcDbEntity
  8
0
  6
Continuous
 62
     7
370
    15
100
AcDbLine
 10
214.1337959662
 20
532.6797042891
 30
0.0
 11
214.1390486255
 21
532.6512132689
 31
0.0
  0
LINE
  5
BD
330
1F
100
AcDbEntity
  8
0
  6
Continuous
 62
     7
370
    15
100
AcDbLine
 10
333.4213315144
 20
484.5955048606
 30
0.0
 11
328.9232967988
 21
482.8358937904
 31
0.0
  0
LWPOLYLINE
  5
BE
330
1F
100
AcDbEntity
  8
0
  6
Continuous
 62
     7
370
    15
100
AcDbPolyline
 90
        3
 70
   128
 43
0.0
 10
328.9232967988
 20
482.8358937904
 10
327.7415900126
 20
482.5699006125
 10
324.1361497536
 20
482.1941976354
  0
LWPOLYLINE
  5
BF
330
1F
100
AcDbEntity
  8
0
  6
Continuous
 62
     7
370
    15
100
AcDbPolyline
 90
       10
 70
   128
 43
0.0
 10
339.4196300402
 20
485.550423424
 10
339.387249817
 20
485.5420489714
 10
339.0539853469
 20
485.455860655
 10
338.3704988852
 20
485.2791030809
 10
337.3600958482
 20
485.0177963182
 10
336.0571532145
 20
484.6808289096
 10
334.5060615435
 20
484.2796896502
 10
332.7596454516
 20
483.8280354545
 10
330.8773605719
 20
483.3412443206
 10
328.9232967988
 20
482.8358937904
  0
LWPOLYLINE
  5
C0
330
1F
100
AcDbEntity
  8
0
  6
Continuous
 62
     7
370
    15
100
AcDbPolyline
 90
       10
 70
   128
 43
0.0
 10
328.9232967988
 20
482.8358937904
 10
326.9640325204
 20
482.3291872546
 10
325.0662653342
 20
481.838395159
 10
323.2946215764
 20
481.3802142546
 10
321.7094360486
 20
480.9702535078
 10
320.3646807566
 20
480.6224827573
 10
319.3061767712
 20
480.348733525
 10
318.569940199
 20
480.1583264872
 10
318.1810645953
 20
480.0577585504
 10
318.1203870669
 20
480.0420676276
  0
LWPOLYLINE
  5
C1
330
1F
100
AcDbEntity
  8
0
  6
Continuous
 62
     7
370
    15
100
AcDbPolyline
 90
        4
 70
   128
 43
0.0
 10
168.6979612902
 20
506.8942581222
 10
168.709725757
 20
506.8814580247
 10
168.7013699308
 20
506.9114242598
 10
168.6901977852
 20
506.9389318034
  0
LWPOLYLINE
  5
C2
330
1F
100
AcDbEntity
  8
0
  6
Continuous
 62
     7
370
    15
100
AcDbPolyline
 90
        4
 70
   128
 43
0.0
 10
186.2979425684
 20
514.756200175
 10
186.3011314169
 20
514.7482727572
 10
186.2856267586
 20
514.7839610383
 10
186.2836151019
 20
514.7886400029
  0
LWPOLYLINE
  5
C3
330
1F
100
AcDbEntity
  8
0
  6
Continuous
 62
     7
370
    15
100
AcDbPolyline
 90
        4
 70
   128
 43
0.0
 10
186.6217448011
 20
514.9454449222
 10
186.6280479923
 20
514.9308417842
 10
186.6435675517
 20
514.8951087996
 10
186.6404383078
 20
514.9029021069
  0
ARC
  5
C4
330
1F
100
AcDbEntity
  8
0
  6
Continuous
 62
     7
370
    15
100
AcDbCircle
 10
214.267585642
 20
526.1880025115
 30
0.0
 40
0.1137449402769269
100
AcDbArc
 50
196.8784518504
 51
221.8446217814
  0
LWPOLYLINE
  5
C5
330
1F
100
AcDbEntity
  8
0
  6
Continuous
 62
     7
370
    15
100
AcDbPolyline
 90
       10
 70
   128
 43
0.0
 10
217.5978987113
 20
527.2441183135
 10
217.4265949622
 20
527.1936033771
 10
217.3635854021
 20
527.1939908072
 10
217.2263233557
 20
527.1948401734
 10
217.0137433902
 20
527.2639666602
 10
216.8144031063
 20
527.4047975347
 10
216.6546105042
 20
527.603400211
 10
216.5509282246
 20
527.8320734307
 10
216.505159308
 20
528.0607913539
 10
216.5074391857
 20
528.2674555585
  0
LINE
  5
C6
330
1F
100
AcDbEntity
  8
0
  6
Continuous
 62
     7
370
    15
100
AcDbLine
 10
146.7057379529
 20
488.9927704737
 30
0.0
 11
146.8659720019
 21
490.6348635361
 31
0.0
  0
LWPOLYLINE
  5
C7
330
1F
100
AcDbEntity
  8
0
  6
Continuous
 62
     7
370
    15
100
AcDbPolyline
 90
       17
 70
   128
 43
0.0
 10
320.2035694018
 20
480.3742368624
 10
320.3655897275
 20
480.4161389276
 10
320.8734362021
 20
480.5474703118
 10
321.706604828
 20
480.7629485533
 10
322.8310166493
 20
481.0537372634
 10
324.200612177
 20
481.407937865
 10
325.7593183413
 20
481.8110515282
 10
327.4433581725
 20
482.2465677664
 10
329.1837392941
 20
482.6966647908
 10
330.9092490569
 20
483.1429098651
 10
332.5492112532
 20
483.5670341656
 10
334.0365110532
 20
483.9516778395
 10
335.310262312
 20
484.2810903594
 10
336.3182811633
 20
484.5417861745
 10
337.019336094
 20
484.7230886027
 10
337.3847125664
 20
484.8175768659
 10
337.4365984097
 20
484.8309953615
  0
LWPOLYLINE
  5
C8
330
1F
100
AcDbEntity
  8
0
  6
Continuous
 62
     7
370
    15
100
AcDbPolyline
 90
        3
 70
   128
 43
0.0
 10
220.064428319
 20
527.7997379109
 10
219.8600737944
 20
527.7471219108
 10
219.6308939353
 20
527.7463768527
  0
LINE
  5
C9
330
1F
100
AcDbEntity
  8
0
  6
Continuous
 62
     7
370
    15
100
AcDbLine
 10
148.0939468935
 20
479.8112560913
 30
0.0
 11
148.0939468935
 21
487.7888907597
 31
0.0
  0
LINE
  5
CA
330
1F
100
AcDbEntity
  8
0
  6
Continuous
 62
     7
370
    15
100
AcDbLine
 10
220.5765216246
 20
535.2596764371
 30
0.0
 11
220.5655320183
 21
535.2546696469
 31
0.0
  0
LINE
  5
CB
330
1F
100
AcDbEntity
  8
0
  6
Continuous
 62
     7
370
    15
100
AcDbLine
 10
219.7509451404
 20
527.7319227263
 30
0.0
 11
219.8206155196
 21
527.7469878003
 31
0.0
  0
LWPOLYLINE
  5
CC
330
1F
100
AcDbEntity
  8
0
  6
Continuous
 62
     7
370
    15
100
AcDbPolyline
 90
        3
 70
   128
 43
0.0
 10
217.5978987113
 20
527.2441183135
 10
217.4277721539
 20
527.193782191
 10
217.3730699912
 20
527.1939759061
  0
ARC
  5
CD
330
1F
100
AcDbEntity
  8
0
  6
Continuous
 62
     7
370
     0
100
AcDbCircle
 10
145.4425550784
 20
466.7735301313
 30
0.0
 40
30.969419716216
100
AcDbArc
 50
79.6167641694
 51
95.0953939571
  0
LWPOLYLINE
  5
CE
330
1F
100
AcDbEntity
  8
0
  6
Continuous
 62
     7
370
     0
100
AcDbPolyline
 90
        9
 70
   128
 43
0.0
 10
135.1457784519
 20
488.1479193375
 10
136.6673471972
 20
489.82312278
 10
138.2575637296
 20
490.7924954698
 10
139.9104992494
 20
490.9656991169
 10
140.7540074185
 20
490.8359547064
 10
141.5894372955
 20
490.6284783885
 10
143.7185505971
 20
489.9504755542
 10
145.3604536697
 20
489.3989239737
 10
146.7057398155
 20
488.9927704737
  0
LINE
  5
CF
330
1F
100
AcDbEntity
  8
0
  6
Continuous
 62
     7
370
     0
100
AcDbLine
 10
135.1455828741
 20
488.147926788
 30
0.0
 11
134.6083922878
 21
488.9935974881
 31
0.0
  0
ARC
  5
D0
330
1F
100
AcDbEntity
  8
0
  6
Continuous
 62
     7
370
     0
100
AcDbCircle
 10
150.0811324362
 20
482.5964780808
 30
0.0
 40
16.74283679011518
100
AcDbArc
 50
116.1887469226
 51
157.5374951996
  0
LINE
  5
D1
330
1F
100
AcDbEntity
  8
0
  6
Continuous
 62
     7
370
     0
100
AcDbLine
 10
115.8337529384
 20
400.4022826359
 30
0.0
 11
115.8337529384
 21
439.3656750128
 31
0.0
  0
LINE
  5
D2
330
1F
100
AcDbEntity
  8
0
  6
Continuous
 62
     7
370
     0
100
AcDbLine
 10
115.8337529384
 20
439.3656750128
 30
0.0
 11
121.3706060413
 21
439.3656750128
 31
0.0
  0
LINE
  5
D3
330
1F
100
AcDbEntity
  8
0
  6
Continuous
 62
     7
370
     0
100
AcDbLine
 10
121.3706875321
 20
439.3656750128
 30
0.0
 11
122.253752929
 21
439.3656750128
 31
0.0
  0
LWPOLYLINE
  5
D4
330
1F
100
AcDbEntity
  8
0
  6
Continuous
 62
     7
370
     0
100
AcDbPolyline
 90
        3
 70
   128
 43
0.0
 10
122.253752929
 20
434.9684168503
 10
122.2541347712
 20
434.8890160129
 10
122.253752929
 20
434.8116864368
  0
LINE
  5
D5
330
1F
100
AcDbEntity
  8
0
  6
Continuous
 62
     7
370
     0
100
AcDbLine
 10
122.2544104427
 20
434.811701338
 30
0.0
 11
122.2551303551
 21
405.5537444457
 31
0.0
  0
LWPOLYLINE
  5
D6
330
1F
100
AcDbEntity
  8
0
  6
Continuous
 62
     7
370
     0
100
AcDbPolyline
 90
        3
 70
   128
 43
0.0
 10
122.253752929
 20
405.5537444457
 10
122.2547853001
 20
405.4364462301
 10
122.253752929
 20
405.3221915767
  0
LWPOLYLINE
  5
D7
330
1F
100
AcDbEntity
  8
0
  6
Continuous
 62
     7
370
     0
100
AcDbPolyline
 90
        3
 70
   128
 43
0.0
 10
122.2550542195
 20
405.3221878514
 10
122.2540802889
 20
403.0685809359
 10
122.2537603796
 20
400.8423847064
  0
LINE
  5
D8
330
1F
100
AcDbEntity
  8
0
  6
Continuous
 62
     7
370
     0
100
AcDbLine
 10
122.253752929
 20
400.8606293157
 30
0.0
 11
122.253752929
 21
400.4022826359
 31
0.0
  0
LINE
  5
D9
330
1F
100
AcDbEntity
  8
0
  6
Continuous
 62
     7
370
     0
100
AcDbLine
 10
122.253752929
 20
400.4022826359
 30
0.0
 11
115.8337529384
 21
400.4022826359
 31
0.0
  0
LWPOLYLINE
  5
DA
330
1F
100
AcDbEntity
  8
0
  6
Continuous
 62
     7
370
     0
100
AcDbPolyline
 90
       14
 70
   128
 43
0.0
 10
90.1475648031
 20
505.7820205495
 10
90.3418778077
 20
505.7816182181
 10
90.8231201217
 20
505.7817374274
 10
91.4588763014
 20
505.7823781774
 10
92.32031243
 20
505.7836745784
 10
94.9522467896
 20
505.7863567874
 10
98.4831346765
 20
505.7890240952
 10
100.1309535101
 20
505.7906036183
 10
102.3004321948
 20
505.7928983972
 10
104.4197479829
 20
505.7949398562
 10
105.9633508891
 20
505.7962213561
 10
107.7722848028
 20
505.7974581525
 10
113.1717061259
 20
505.8013324544
 10
118.716126745
 20
505.8058028027
  0
LINE
  5
DB
330
1F
100
AcDbEntity
  8
0
  6
Continuous
 62
     7
370
     0
100
AcDbLine
 10
119.4127686073
 20
505.8065180585
 30
0.0
 11
118.7161372297
 21
505.8058624074
 31
0.0
  0
LINE
  5
DC
330
1F
100
AcDbEntity
  8
0
  6
Continuous
 62
     7
370
     0
100
AcDbLine
 10
119.4127709938
 20
505.8065180585
 30
0.0
 11
118.9549275193
 21
471.9714199111
 31
0.0
  0
LWPOLYLINE
  5
DD
330
1F
100
AcDbEntity
  8
0
  6
Continuous
 62
     7
370
     0
100
AcDbPolyline
 90
        9
 70
   128
 43
0.0
 10
119.4127709938
 20
505.8065180585
 10
121.0434156571
 20
505.8069799945
 10
122.6680606239
 20
505.8049832389
 10
124.2847891159
 20
505.8003191754
 10
125.8914942488
 20
505.7930176064
 10
127.3689667329
 20
505.7841514155
 10
129.061090444
 20
505.7717238471
 10
131.0382491544
 20
505.7543788955
 10
132.1522096738
 20
505.7434563443
  0
LINE
  5
DE
330
1F
100
AcDbEntity
  8
0
  6
Continuous
 62
     7
370
     0
100
AcDbLine
 10
132.1522096738
 20
505.7434563443
 30
0.0
 11
134.5331749514
 21
505.785209398
 31
0.0
  0
LINE
  5
DF
330
1F
100
AcDbEntity
  8
0
  6
Continuous
 62
     7
370
     0
100
AcDbLine
 10
134.5331861273
 20
505.785209398
 30
0.0
 11
132.2348366127
 21
483.0675099894
 31
0.0
  0
ARC
  5
E0
330
1F
100
AcDbEntity
  8
0
  6
Continuous
 62
     7
370
     0
100
AcDbCircle
 10
184.5847515562
 20
456.4484007144
 30
0.0
 40
58.72896519831922
100
AcDbArc
 50
147.3327208872
 51
153.0473821932
  0
LINE
  5
E1
330
1F
100
AcDbEntity
  8
0
  6
Continuous
 62
     7
370
     0
100
AcDbLine
 10
131.6773729965
 20
471.8000714585
 30
0.0
 11
135.1457784519
 21
488.1479193375
 31
0.0
  0
ARC
  5
E2
330
1F
100
AcDbEntity
  8
0
  6
Continuous
 62
     7
370
     0
100
AcDbCircle
 10
172.8169986252
 20
412.5934350148
 30
0.0
 40
57.99555074073793
100
AcDbArc
 50
115.7041461359
 51
152.5081512746
  0
ARC
  5
E3
330
1F
100
AcDbEntity
  8
0
  6
Continuous
 62
     7
370
     0
100
AcDbCircle
 10
122.7716346807
 20
485.0900274045
 30
0.0
 40
48.99668916505529
100
AcDbArc
 50
313.3864469096
 51
326.5684681117
  0
ARC
  5
E4
330
1F
100
AcDbEntity
  8
0
  6
Continuous
 62
     7
370
     0
100
AcDbCircle
 10
253.442532389
 20
173.5532548572
 30
0.0
 40
292.4865514447607
100
AcDbArc
 50
109.3714187624
 51
116.6493625405
  0
ARC
  5
E5
330
1F
100
AcDbEntity
  8
0
  6
Continuous
 62
     7
370
     0
100
AcDbCircle
 10
147.6627753235
 20
416.0562372006
 30
0.0
 40
29.60616324801775
100
AcDbArc
 50
210.8961097918
 51
270.0002792716
  0
LWPOLYLINE
  5
E6
330
1F
100
AcDbEntity
  8
0
  6
Continuous
 62
     7
370
     0
100
AcDbPolyline
 90
        7
 70
   128
 43
0.0
 10
158.6571304694
 20
426.240318726
 10
149.5923815861
 20
421.0614536807
 10
140.6371655509
 20
415.687219511
 10
136.1723268971
 20
412.9703988239
 10
131.6816077203
 20
410.2699656889
 10
127.0151768446
 20
407.7491846785
 10
122.253752929
 20
405.3221915767
  0
ARC
  5
E7
330
1F
100
AcDbEntity
  8
0
  6
Continuous
 62
     7
370
     0
100
AcDbCircle
 10
156.5741261796
 20
411.4617152618
 30
0.0
 40
14.92469021643962
100
AcDbArc
 50
32.4897099026
 51
81.969674008
  0
LWPOLYLINE
  5
E8
330
1F
100
AcDbEntity
  8
0
  6
Continuous
 62
     7
370
     0
100
AcDbPolyline
 90
        3
 70
   128
 43
0.0
 10
157.2177565292
 20
447.5507189438
 10
139.7985561386
 20
441.0975550219
 10
122.253752929
 20
434.8116864368
  0
LWPOLYLINE
  5
E9
330
1F
100
AcDbEntity
  8
0
  6
Continuous
 62
     7
370
     0
100
AcDbPolyline
 90
        6
 70
   128
 43
0.0
 10
341.4243875638
 20
502.9440496966
 10
303.8875578538
 20
494.2542065784
 10
266.7057781115
 20
484.3411792919
 10
229.8728569046
 20
473.2349489734
 10
193.380941321
 20
460.9637011692
 10
157.2195409432
 20
447.5514267489
  0
ARC
  5
EA
330
1F
100
AcDbEntity
  8
0
  6
Continuous
 62
     7
370
     0
100
AcDbCircle
 10
298.4363109171
 20
513.939915844
 30
0.0
 40
44.37210617169531
100
AcDbArc
 50
337.766469077
 51
345.6520236271
  0
LWPOLYLINE
  5
EB
330
1F
100
AcDbEntity
  8
0
  6
Continuous
 62
     7
370
     0
100
AcDbPolyline
 90
        8
 70
   128
 43
0.0
 10
157.9327477709
 20
427.5631618604
 10
182.6200975672
 20
440.705185096
 10
207.7342464224
 20
452.7772639796
 10
233.2717670694
 20
463.777405481
 10
259.2246799365
 20
473.710020344
 10
285.5856685534
 20
482.579005222
 10
312.3479901448
 20
490.3916691348
 10
339.5093201295
 20
497.1502845094
  0
ARC
  5
EC
330
1F
100
AcDbEntity
  8
0
  6
Continuous
 62
     7
370
     0
100
AcDbCircle
 10
323.711439436
 20
118.8668757867
 30
0.0
 40
350.3920092044461
100
AcDbArc
 50
118.2370689017
 51
125.0960909321
  0
ARC
  5
ED
330
1F
100
AcDbEntity
  8
0
  6
Continuous
 62
     7
370
     0
100
AcDbCircle
 10
115.917437547
 20
431.7753539926
 30
0.0
 40
44.21253460920025
100
AcDbArc
 50
20.9052459022
 51
23.6102005307
  0
LWPOLYLINE
  5
EE
330
1F
100
AcDbEntity
  8
0
  6
Continuous
 62
     7
370
     0
100
AcDbPolyline
 90
        3
 70
   128
 43
0.0
 10
157.9327477709
 20
427.5631618604
 10
158.3152531281
 20
426.8725973472
 10
158.6594066218
 20
426.2362730607
  0
ARC
  5
EF
330
1F
100
AcDbEntity
  8
0
  6
Continuous
 62
     7
370
     0
100
AcDbCircle
 10
1.3964552743
 20
506.0056614723
 30
0.0
 40
117.3198512358936
100
AcDbArc
 50
359.9024163229
 51
0.6126213245
  0
LINE
  5
F0
330
1F
100
AcDbEntity
  8
0
  6
Continuous
 62
     7
370
     0
100
AcDbLine
 10
118.7096135115
 20
507.2599326178
 30
0.0
 11
119.3739075431
 21
507.2602008388
 31
0.0
  0
ARC
  5
F1
330
1F
100
AcDbEntity
  8
0
  6
Continuous
 62
     7
370
     0
100
AcDbCircle
 10
102.2536578976
 20
506.0755246389
 30
0.0
 40
17.16122159958827
100
AcDbArc
 50
359.1018370751
 51
3.9598956833
  0
LWPOLYLINE
  5
F2
330
1F
100
AcDbEntity
  8
0
  6
Continuous
 62
     7
370
     0
100
AcDbPolyline
 90
        9
 70
   128
 43
0.0
 10
91.4056474909
 20
507.2481308982
 10
91.9336887643
 20
507.2481457993
 10
93.4912307754
 20
507.2481457993
 10
96.0180858716
 20
507.2481457993
 10
99.4166086063
 20
507.2481457993
 10
103.5554675952
 20
507.2481457993
 10
108.2747277439
 20
507.2481308982
 10
113.3920207255
 20
507.2481308982
 10
118.7096002365
 20
507.2481010959
  0
LWPOLYLINE
  5
F3
330
1F
100
AcDbEntity
  8
0
  6
Continuous
 62
     7
370
     0
100
AcDbPolyline
 90
        4
 70
   128
 43
0.0
 10
119.3739075431
 20
507.2602008388
 10
123.5017940968
 20
507.2474305436
 10
127.681743969
 20
507.2037701413
 10
131.7174776092
 20
507.1383540437
  0
ARC
  5
F4
330
1F
100
AcDbEntity
  8
0
  6
Continuous
 62
     7
370
     0
100
AcDbCircle
 10
130.4851707581
 20
505.9895014842
 30
0.0
 40
1.68509850083164
100
AcDbArc
 50
351.6040952705
 51
43.0030303754
  0
LWPOLYLINE
  5
F5
330
1F
100
AcDbEntity
  8
0
  6
Continuous
 62
     7
370
     0
100
AcDbPolyline
 90
        6
 70
   128
 43
0.0
 10
156.4290045396
 20
449.4830121204
 10
192.6369635955
 20
462.929939191
 10
229.2005835667
 20
475.1697678968
 10
266.1112962857
 20
486.2240676686
 10
303.3639012471
 20
496.107039313
 10
340.9560589686
 20
504.8283909366
  0
ARC
  5
F6
330
1F
100
AcDbEntity
  8
0
  6
Continuous
 62
     7
370
     0
100
AcDbCircle
 10
327.2077521625
 20
500.4110583289
 30
0.0
 40
14.44052517744608
100
AcDbArc
 50
10.1024331967
 51
17.8122180452
  0
ARC
  5
F7
330
1F
100
AcDbEntity
  8
0
  6
Continuous
 62
     7
370
     0
100
AcDbCircle
 10
84.929173574
 20
442.3761160592
 30
0.0
 40
79.89551215964252
100
AcDbArc
 50
54.1532913459
 51
56.0461379706
  0
LWPOLYLINE
  5
F8
330
1F
100
AcDbEntity
  8
0
  6
Continuous
 62
     7
370
     0
100
AcDbPolyline
 90
        3
 70
   128
 43
0.0
 10
118.7092861225
 20
509.4500754878
 10
118.7094461754
 20
508.901727657
 10
118.7096135115
 20
507.2599326178
  0
ARC
  5
F9
330
1F
100
AcDbEntity
  8
0
  6
Continuous
 62
     7
370
     0
100
AcDbCircle
 10
327.6969923349
 20
494.6487272715
 30
0.0
 40
12.0743064621056
100
AcDbArc
 50
7.3306621266
 51
11.9571557893
  0
LWPOLYLINE
  5
FA
330
1F
100
AcDbEntity
  8
0
  6
Continuous
 62
     7
370
     0
100
AcDbPolyline
 90
        8
 70
   128
 43
0.0
 10
339.6726070538
 20
496.1893533275
 10
312.5894187585
 20
489.2985646531
 10
285.9272329703
 20
481.3344825909
 10
259.682875742
 20
472.3173131153
 10
233.8458194032
 20
462.2802858159
 10
208.40215372
 20
451.2521971867
 10
183.3408741847
 20
439.2420773313
 10
158.6594066218
 20
426.2362730607
  0
ARC
  5
FB
330
1F
100
AcDbEntity
  8
0
  6
Continuous
 62
     7
370
     0
100
AcDbCircle
 10
340.3931822067
 20
493.4037773012
 30
0.0
 40
2.877266471671579
100
AcDbArc
 50
50.4551378041
 51
104.5033971487
  0
ARC
  5
FC
330
1F
100
AcDbEntity
  8
0
  6
Continuous
 62
     7
370
     0
100
AcDbCircle
 10
364.7075548602
 20
509.7352159811
 30
0.0
 40
26.54486319302032
100
AcDbArc
 50
212.1173285052
 51
221.1377874451
  0
ARC
  5
FD
330
1F
100
AcDbEntity
  8
0
  6
Continuous
 62
     7
370
     0
100
AcDbCircle
 10
258.3393545201
 20
631.8804605116
 30
0.0
 40
152.2541595224823
100
AcDbArc
 50
304.3110132265
 51
307.4017051602
  0
ARC
  5
FE
330
1F
100
AcDbEntity
  8
0
  6
Continuous
 62
     7
370
     0
100
AcDbCircle
 10
339.188289991
 20
513.8432393499
 30
0.0
 40
9.186539014987366
100
AcDbArc
 50
281.0946511166
 51
302.7851670006
  0
LINE
  5
FF
330
1F
100
AcDbEntity
  8
0
  6
Continuous
 62
     7
370
     0
100
AcDbLine
 10
132.2348291621
 20
483.0675099894
 30
0.0
 11
134.6083922878
 21
488.9935974881
 31
0.0
  0
LINE
  5
100
330
1F
100
AcDbEntity
  8
0
  6
Continuous
 62
     7
370
     0
100
AcDbLine
 10
146.7057398155
 20
488.9927704737
 30
0.0
 11
146.9770024166
 21
491.6824896738
 31
0.0
  0
LINE
  5
101
330
1F
100
AcDbEntity
  8
0
  6
Continuous
 62
     7
370
     0
100
AcDbLine
 10
147.6987643734
 20
493.758400242
 30
0.0
 11
148.0899515197
 21
493.758400242
 31
0.0
  0
LINE
  5
102
330
1F
100
AcDbEntity
  8
0
  6
Continuous
 62
     7
370
     0
100
AcDbLine
 10
134.6083922878
 20
488.9935974881
 30
0.0
 11
134.2580054522
 21
489.1713012859
 31
0.0
  0
LINE
  5
103
330
1F
100
AcDbEntity
  8
0
  6
Continuous
 62
     7
370
     0
100
AcDbLine
 10
134.2580054522
 20
489.1713012859
 30
0.0
 11
132.2348291621
 21
483.0675099894
 31
0.0
  0
ARC
  5
104
330
1F
100
AcDbEntity
  8
0
  6
Continuous
 62
     7
370
     0
100
AcDbCircle
 10
129.5438947062
 20
577.8150826839
 30
0.0
 40
72.20246307760401
100
AcDbArc
 50
273.9623763592
 51
286.6511832456
  0
LINE
  5
105
330
1F
100
AcDbEntity
  8
0
  6
Continuous
 62
     7
370
     0
100
AcDbLine
 10
150.2331017152
 20
508.6402867839
 30
0.0
 11
149.6709907994
 21
502.7807627723
 31
0.0
  0
ARC
  5
106
330
1F
100
AcDbEntity
  8
0
  6
Continuous
 62
     7
370
     0
100
AcDbCircle
 10
334.3976043735
 20
141.4446338717
 30
0.0
 40
405.8173611122233
100
AcDbArc
 50
117.0775735225
 51
118.2693611412
  0
ARC
  5
107
330
1F
100
AcDbEntity
  8
0
  6
Continuous
 62
     7
370
     0
100
AcDbCircle
 10
151.0665006754
 20
483.4973969917
 30
0.0
 40
17.74031377728786
100
AcDbArc
 50
120.0032193095
 51
161.3472883952
  0
LINE
  5
108
330
1F
100
AcDbEntity
  8
0
  6
Continuous
 62
     7
370
     0
100
AcDbLine
 10
131.7175120682
 20
507.1388010785
 30
0.0
 11
133.9200853005
 21
507.1705405518
 31
0.0
  0
ARC
  5
109
330
1F
100
AcDbEntity
  8
0
  6
Continuous
 62
     7
370
     0
100
AcDbCircle
 10
132.9886052389
 20
505.9299669635
 30
0.0
 40
1.551349371796274
100
AcDbArc
 50
354.6458992808
 51
53.0989725077
  0
ARC
  5
10A
330
1F
100
AcDbEntity
  8
0
  6
Continuous
 62
     7
370
     0
100
AcDbCircle
 10
137.724181579
 20
496.3504264776
 30
0.0
 40
5.127647716889417
100
AcDbArc
 50
14.341686252
 51
29.3083761024
  0
ARC
  5
10B
330
1F
100
AcDbEntity
  8
0
  6
Continuous
 62
     7
370
     0
100
AcDbCircle
 10
133.1432277652
 20
564.3770287006
 30
0.0
 40
55.8442344734905
100
AcDbArc
 50
266.3137226025
 51
288.0595706677
  0
LINE
  5
10C
330
1F
100
AcDbEntity
  8
0
  6
Continuous
 62
     7
370
     0
100
AcDbLine
 10
150.4552556768
 20
511.2839762971
 30
0.0
 11
153.194316347
 21
510.8151559636
 31
0.0
  0
LINE
  5
10D
330
1F
100
AcDbEntity
  8
0
  6
Continuous
 62
     7
370
     0
100
AcDbLine
 10
153.194316347
 20
510.8151559636
 30
0.0
 11
149.9012509927
 21
509.7815369174
 31
0.0
  0
ARC
  5
10E
330
1F
100
AcDbEntity
  8
0
  6
Continuous
 62
     7
370
     0
100
AcDbCircle
 10
130.3378337336
 20
579.3100646731
 30
0.0
 40
72.22841176938189
100
AcDbArc
 50
272.8428166735
 51
285.7151430679
  0
ARC
  5
10F
330
1F
100
AcDbEntity
  8
0
  6
Continuous
 62
     7
370
     0
100
AcDbCircle
 10
101.7419411999
 20
495.1589842962
 30
0.0
 40
50.33029072917917
100
AcDbArc
 50
15.5367640725
 51
16.8897999559
  0
ARC
  5
110
330
1F
100
AcDbEntity
  8
0
  6
Continuous
 62
     7
370
     0
100
AcDbCircle
 10
107.4273881757
 20
481.8714927234
 30
0.0
 40
47.13512660164434
100
AcDbArc
 50
24.4053446332
 51
26.3339955778
  0
LWPOLYLINE
  5
111
330
1F
100
AcDbEntity
  8
0
  6
Continuous
 62
     7
370
     0
100
AcDbPolyline
 90
        3
 70
   128
 43
0.0
 10
142.6920300916
 20
497.6205651566
 10
146.0987167999
 20
499.3418876931
 10
150.3507612839
 20
501.3472263619
  0
ARC
  5
112
330
1F
100
AcDbEntity
  8
0
  6
Continuous
 62
     7
370
     0
100
AcDbCircle
 10
239.7206683543
 20
426.811718857
 30
0.0
 40
104.4267250039312
100
AcDbArc
 50
96.9719950611
 51
99.9442418805
  0
ARC
  5
113
330
1F
100
AcDbEntity
  8
0
  6
Continuous
 62
     7
370
     0
100
AcDbCircle
 10
315.735498099
 20
151.6873480031
 30
0.0
 40
386.7998729385786
100
AcDbArc
 50
113.3411678842
 51
115.3135619818
  0
LINE
  5
114
330
1F
100
AcDbEntity
  8
0
  6
Continuous
 62
     7
370
     0
100
AcDbLine
 10
162.4833314315
 20
506.8322692916
 30
0.0
 11
173.2521175042
 21
511.2917547032
 31
0.0
  0
LINE
  5
115
330
1F
100
AcDbEntity
  8
0
  6
Continuous
 62
     7
370
     0
100
AcDbLine
 10
174.2939284638
 20
511.7054705426
 30
0.0
 11
173.2521249548
 21
511.2917249009
 31
0.0
  0
LWPOLYLINE
  5
116
330
1F
100
AcDbEntity
  8
0
  6
Continuous
 62
     7
370
     0
100
AcDbPolyline
 90
       26
 70
   128
 43
0.0
 10
174.2939210132
 20
511.7054854438
 10
185.5689777628
 20
516.1244545981
 10
195.4893960253
 20
519.9625168845
 10
196.873788406
 20
520.4931919381
 10
196.8738033071
 20
520.4931919381
 10
196.8738107577
 20
520.4931919381
 10
196.87384056
 20
520.4932068393
 10
196.8738927141
 20
520.4932217404
 10
196.8739895716
 20
520.4932664439
 10
196.8741907373
 20
520.4933409497
 10
196.8745930687
 20
520.4934899613
 10
196.875405182
 20
520.4938028857
 10
196.8770219579
 20
520.4944287345
 10
196.8802480593
 20
520.4956655309
 10
196.8867151633
 20
520.4981391236
 10
196.8996344701
 20
520.5030863091
 10
196.9254730836
 20
520.5129806802
 10
196.9771279588
 20
520.5327545211
 10
197.0803483024
 20
520.5722724006
 10
197.2864537135
 20
520.6511591479
 10
197.6972787276
 20
520.808321695
 10
198.5134153262
 20
521.1202775046
 10
200.1236348048
 20
521.7346076772
 10
203.2556204692
 20
522.9254786775
 10
209.1648696557
 20
525.1577024266
 10
219.5600389138
 20
529.0364895865
  0
ARC
  5
117
330
1F
100
AcDbEntity
  8
0
  6
Continuous
 62
     7
370
     0
100
AcDbCircle
 10
224.6393701016
 20
515.8597206892
 30
0.0
 40
14.12185695615224
100
AcDbArc
 50
102.06647477
 51
111.0804653646
  0
ARC
  5
118
330
1F
100
AcDbEntity
  8
0
  6
Continuous
 62
     7
370
     0
100
AcDbCircle
 10
140.7681853309
 20
498.8344419417
 30
0.0
 40
23.14114112010909
100
AcDbArc
 50
20.2190439091
 51
24.3441037174
  0
LINE
  5
119
330
1F
100
AcDbEntity
  8
0
  6
Continuous
 62
     7
370
     0
100
AcDbLine
 10
161.8517606154
 20
508.3735858008
 30
0.0
 11
149.6709907994
 21
502.7807627723
 31
0.0
  0
LINE
  5
11A
330
1F
100
AcDbEntity
  8
0
  6
Continuous
 62
     7
370
     0
100
AcDbLine
 10
150.2331017152
 20
508.6402867839
 30
0.0
 11
153.6134264067
 21
509.7059880301
 31
0.0
  0
LINE
  5
11B
330
1F
100
AcDbEntity
  8
0
  6
Continuous
 62
     7
370
     0
100
AcDbLine
 10
153.6134264067
 20
509.7059880301
 30
0.0
 11
161.8392734423
 21
512.6513515517
 31
0.0
  0
LINE
  5
11C
330
1F
100
AcDbEntity
  8
0
  6
Continuous
 62
     7
370
     0
100
AcDbLine
 10
161.8392734423
 20
512.6513515517
 30
0.0
 11
161.8517606154
 21
508.3735858008
 31
0.0
  0
ARC
  5
11D
330
1F
100
AcDbEntity
  8
0
  6
Continuous
 62
     7
370
     0
100
AcDbCircle
 10
154.7970014382
 20
505.4089772815
 30
0.0
 40
19.37003623038824
100
AcDbArc
 50
17.680179804
 51
22.7358291418
  0
LINE
  5
11E
330
1F
100
AcDbEntity
  8
0
  6
Continuous
 62
     7
370
     0
100
AcDbLine
 10
161.8517606154
 20
508.3735858008
 30
0.0
 11
172.6619197622
 21
512.89514945
 31
0.0
  0
ARC
  5
11F
330
1F
100
AcDbEntity
  8
0
  6
Continuous
 62
     7
370
     0
100
AcDbCircle
 10
136.8374429037
 20
504.0007833593
 30
0.0
 40
17.71956497287571
100
AcDbArc
 50
18.7822281511
 51
22.6169060779
  0
LINE
  5
120
330
1F
100
AcDbEntity
  8
0
  6
Continuous
 62
     7
370
     0
100
AcDbLine
 10
161.8392734423
 20
512.6513515517
 30
0.0
 11
172.6218654409
 21
516.4660041139
 31
0.0
  0
LINE
  5
121
330
1F
100
AcDbEntity
  8
0
  6
Continuous
 62
     7
370
     0
100
AcDbLine
 10
172.6218691662
 20
516.4660041139
 30
0.0
 11
172.6619197622
 21
512.89514945
 31
0.0
  0
LWPOLYLINE
  5
122
330
1F
100
AcDbEntity
  8
0
  6
Continuous
 62
     7
370
     0
100
AcDbPolyline
 90
        3
 70
   128
 43
0.0
 10
153.194316347
 20
510.8151559636
 10
157.1598878697
 20
512.2343127534
 10
161.4018386796
 20
513.7658242986
  0
ARC
  5
123
330
1F
100
AcDbEntity
  8
0
  6
Continuous
 62
     7
370
     0
100
AcDbCircle
 10
149.6553539525
 20
508.5122009027
 30
0.0
 40
12.86780720360132
100
AcDbArc
 50
18.7637760121
 51
24.0966136457
  0
LINE
  5
124
330
1F
100
AcDbEntity
  8
0
  6
Continuous
 62
     7
370
     0
100
AcDbLine
 10
172.1755980149
 20
517.5957207486
 30
0.0
 11
161.4018386796
 21
513.7658242986
 31
0.0
  0
ARC
  5
125
330
1F
100
AcDbEntity
  8
0
  6
Continuous
 62
     7
370
     0
100
AcDbCircle
 10
162.4588475358
 20
513.1049239238
 30
0.0
 40
10.70436198414288
100
AcDbArc
 50
18.2997828296
 51
24.8077930684
  0
ARC
  5
126
330
1F
100
AcDbEntity
  8
0
  6
Continuous
 62
     7
370
     0
100
AcDbCircle
 10
206.1819651802
 20
525.6028285121
 30
0.0
 40
13.81169378443309
100
AcDbArc
 50
14.3949997847
 51
21.7522091129
  0
ARC
  5
127
330
1F
100
AcDbEntity
  8
0
  6
Continuous
 62
     7
370
     0
100
AcDbCircle
 10
156.205403184
 20
505.9855757529
 30
0.0
 40
18.97134531867798
100
AcDbArc
 50
17.5478271465
 51
22.7170809506
  0
LWPOLYLINE
  5
128
330
1F
100
AcDbEntity
  8
0
  6
Continuous
 62
     7
370
     0
100
AcDbPolyline
 90
        4
 70
   128
 43
0.0
 10
173.705042024
 20
513.3120839402
 10
180.744261165
 20
516.0945181653
 10
187.9740996853
 20
518.929791908
 10
219.0102009669
 20
530.7213489816
  0
LINE
  5
129
330
1F
100
AcDbEntity
  8
0
  6
Continuous
 62
     7
370
     0
100
AcDbLine
 10
172.6619197622
 20
512.89514945
 30
0.0
 11
173.7050047711
 21
513.3119498298
 31
0.0
  0
LINE
  5
12A
330
1F
100
AcDbEntity
  8
0
  6
Continuous
 62
     7
370
     0
100
AcDbLine
 10
173.7024641231
 20
516.849187474
 30
0.0
 11
172.6218691662
 21
516.4660041139
 31
0.0
  0
LINE
  5
12B
330
1F
100
AcDbEntity
  8
0
  6
Continuous
 62
     7
370
     0
100
AcDbLine
 10
173.7050084964
 20
513.3119498298
 30
0.0
 11
173.7024641231
 21
516.849187474
 31
0.0
  0
LWPOLYLINE
  5
12C
330
1F
100
AcDbEntity
  8
0
  6
Continuous
 62
     7
370
     0
100
AcDbPolyline
 90
       14
 70
   128
 43
0.0
 10
173.702501376
 20
516.8493215844
 10
176.4863959149
 20
517.8303246304
 10
178.9422972694
 20
518.6940257356
 10
181.0702277914
 20
519.4404696032
 10
183.2101462975
 20
520.1883290812
 10
186.3419605985
 20
521.278483133
 10
189.6257890955
 20
522.4170659587
 10
193.0616317883
 20
523.6040477559
 10
196.9471468225
 20
524.9416355893
 10
201.5626175895
 20
526.5237216756
 10
206.1397849217
 20
528.0852143571
 10
210.6786562696
 20
529.6260838315
 10
215.1792241827
 20
531.1463748023
 10
219.6414886609
 20
532.6460872695
  0
LINE
  5
12D
330
1F
100
AcDbEntity
  8
0
  6
Continuous
 62
     7
370
     0
100
AcDbLine
 10
219.0102009669
 20
530.7213489816
 30
0.0
 11
219.6414886609
 21
532.6460872695
 31
0.0
  0
LINE
  5
12E
330
1F
100
AcDbEntity
  8
0
  6
Continuous
 62
     7
370
     0
100
AcDbLine
 10
172.1753931239
 20
517.5963167951
 30
0.0
 11
173.2562935546
 21
517.9782484576
 31
0.0
  0
ARC
  5
12F
330
1F
100
AcDbEntity
  8
0
  6
Continuous
 62
     7
370
     0
100
AcDbCircle
 10
163.5843115428
 20
513.5036959698
 30
0.0
 40
10.65692985633396
100
AcDbArc
 50
18.2884189896
 51
24.8283077893
  0
LWPOLYLINE
  5
130
330
1F
100
AcDbEntity
  8
0
  6
Continuous
 62
     7
370
     0
100
AcDbPolyline
 90
       26
 70
   128
 43
0.0
 10
219.1701649323
 20
533.8611726567
 10
202.0477695957
 20
528.0298416421
 10
196.0937647715
 20
525.9777580306
 10
195.4185261026
 20
525.7442419335
 10
195.418518652
 20
525.7442419335
 10
195.4185037509
 20
525.7442270324
 10
195.4184888497
 20
525.7442270324
 10
195.4184441462
 20
525.7442121312
 10
195.4183547393
 20
525.7441823289
 10
195.4181833759
 20
525.7441227242
 10
195.4178406492
 20
525.744003515
 10
195.4171477452
 20
525.7437650964
 10
195.4157693878
 20
525.7432882592
 10
195.413012673
 20
525.7423345849
 10
195.4074992433
 20
525.7404272363
 10
195.396472384
 20
525.736612539
 10
195.3744261161
 20
525.7289831445
 10
195.3303186789
 20
525.7137243554
 10
195.2421038047
 20
525.6832067773
 10
195.0656889573
 20
525.6221567199
 10
194.7128741637
 20
525.5000268027
 10
194.0073116317
 20
525.2556775615
 10
192.5964622393
 20
524.7665320441
 10
189.7758586899
 20
523.7865571782
 10
184.1389207736
 20
521.8189631507
 10
173.2560849384
 20
517.9788594052
  0
ARC
  5
131
330
1F
100
AcDbEntity
  8
0
  6
Continuous
 62
     7
370
     0
100
AcDbCircle
 10
210.4140151302
 20
529.7656727237
 30
0.0
 40
9.666606387931267
100
AcDbArc
 50
17.3361565919
 51
25.0668271004
  0
ARC
  5
132
330
1F
100
AcDbEntity
  8
0
  6
Continuous
 62
     7
370
     0
100
AcDbCircle
 10
133.1796720951
 20
727.8107427688
 30
0.0
 40
212.3027004020683
100
AcDbArc
 50
294.6098025959
 51
296.2461639876
  0
LINE
  5
133
330
1F
100
AcDbEntity
  8
0
  6
Continuous
 62
     7
370
     0
100
AcDbLine
 10
221.5902327195
 20
534.7925846383
 30
0.0
 11
221.119423081
 21
534.5875744626
 31
0.0
  0
ARC
  5
134
330
1F
100
AcDbEntity
  8
0
  6
Continuous
 62
     7
370
     0
100
AcDbCircle
 10
343.5780633119
 20
504.1021900878
 30
0.0
 40
2.100854385579697
100
AcDbArc
 50
1.6247816118
 51
73.8417056309
  0
ARC
  5
135
330
1F
100
AcDbEntity
  8
0
  6
Continuous
 62
     7
370
     0
100
AcDbCircle
 10
340.37244353
 20
514.6570101015
 30
0.0
 40
11.76010321790435
100
AcDbArc
 50
275.1319804942
 51
296.8178124974
  0
ARC
  5
136
330
1F
100
AcDbEntity
  8
0
  6
Continuous
 62
     7
370
     0
100
AcDbCircle
 10
300.2911794543
 20
514.1662445869
 30
0.0
 40
46.47644421959052
100
AcDbArc
 50
337.5140121841
 51
347.5692596321
  0
ARC
  5
137
330
1F
100
AcDbEntity
  8
0
  6
Continuous
 62
     7
370
     0
100
AcDbCircle
 10
340.6489516935
 20
493.2249102728
 30
0.0
 40
4.087459235091584
100
AcDbArc
 50
50.7671133218
 51
106.1892976032
  0
ARC
  5
138
330
1F
100
AcDbEntity
  8
0
  6
Continuous
 62
     7
370
     0
100
AcDbCircle
 10
220.9082232579
 20
530.9524264622
 30
0.0
 40
1.500869755584192
100
AcDbArc
 50
301.2684160511
 51
357.993049019
  0
ARC
  5
139
330
1F
100
AcDbEntity
  8
0
  6
Continuous
 62
     7
370
     0
100
AcDbCircle
 10
222.0078354543
 20
506.0914518443
 30
0.0
 40
24.81164334561586
100
AcDbArc
 50
89.0754384591
 51
96.9391776128
  0
ARC
  5
13A
330
1F
100
AcDbEntity
  8
0
  6
Continuous
 62
     7
370
     0
100
AcDbCircle
 10
212.3586512113
 20
585.4003720373
 30
0.0
 40
53.2546037352684
100
AcDbArc
 50
277.8601278619
 51
281.657720082
  0
LINE
  5
13B
330
1F
100
AcDbEntity
  8
0
  6
Continuous
 62
     7
370
     0
100
AcDbLine
 10
222.4081947103
 20
530.8998648927
 30
0.0
 11
223.1195239917
 21
533.2442943856
 31
0.0
  0
ARC
  5
13C
330
1F
100
AcDbEntity
  8
0
  6
Continuous
 62
     7
370
     0
100
AcDbCircle
 10
221.6279545764
 20
533.3004357726
 30
0.0
 40
1.492625598011357
100
AcDbArc
 50
357.8444537899
 51
91.4481416704
  0
ARC
  5
13D
330
1F
100
AcDbEntity
  8
0
  6
Continuous
 62
     7
370
     0
100
AcDbCircle
 10
330.3738443767
 20
529.8526650123
 30
0.0
 40
29.90388158844219
100
AcDbArc
 50
300.7825124676
 51
317.0360328334
  0
ARC
  5
13E
330
1F
100
AcDbEntity
  8
0
  6
Continuous
 62
     7
370
     0
100
AcDbCircle
 10
309.3033482349
 20
467.8001035758
 30
0.0
 40
44.37046862190886
100
AcDbArc
 50
34.7180851652
 51
40.1182514848
  0
ARC
  5
13F
330
1F
100
AcDbEntity
  8
0
  6
Continuous
 62
     7
370
     0
100
AcDbCircle
 10
341.4446359873
 20
497.6940690765
 30
0.0
 40
2.213695333320365
100
AcDbArc
 50
290.6437037599
 51
323.9388494135
  0
ARC
  5
140
330
1F
100
AcDbEntity
  8
0
  6
Continuous
 62
     7
370
     0
100
AcDbCircle
 10
136.1785775116
 20
733.156059846
 30
0.0
 40
217.9987205107385
100
AcDbArc
 50
293.5040581687
 51
295.1406191596
  0
ARC
  5
141
330
1F
100
AcDbEntity
  8
0
  6
Continuous
 62
     7
370
     0
100
AcDbCircle
 10
241.3750604734
 20
414.8370713346
 30
0.0
 40
117.6023532083158
100
AcDbArc
 50
96.4787478959
 51
99.2811718278
  0
LINE
  5
142
330
1F
100
AcDbEntity
  8
0
  6
Continuous
 62
     7
370
     0
100
AcDbLine
 10
129.5528166562
 20
508.6483334109
 30
0.0
 11
132.6710755572
 21
508.5787896916
 31
0.0
  0
LINE
  5
143
330
1F
100
AcDbEntity
  8
0
  6
Continuous
 62
     7
370
     0
100
AcDbLine
 10
184.0223862425
 20
522.6119731471
 30
0.0
 11
184.0283839598
 21
522.581366162
 31
0.0
  0
LINE
  5
144
330
1F
100
AcDbEntity
  8
0
  6
Continuous
 62
     7
370
     0
100
AcDbLine
 10
147.8286317185
 20
494.0201763913
 30
0.0
 11
148.0888097182
 21
494.0201763913
 31
0.0
  0
LINE
  5
145
330
1F
100
AcDbEntity
  8
0
  6
Continuous
 62
     7
370
     0
100
AcDbLine
 10
148.694493492
 20
480.0186579034
 30
0.0
 11
148.694493492
 21
487.5814889476
 31
0.0
  0
LWPOLYLINE
  5
146
330
1F
100
AcDbEntity
  8
0
  6
Continuous
 62
     7
370
     0
100
AcDbPolyline
 90
        3
 70
   128
 43
0.0
 10
226.9754974738
 20
537.3512332246
 10
226.9876866236
 20
537.3572234914
 10
227.0660071269
 20
537.3959516093
  0
LINE
  5
147
330
1F
100
AcDbEntity
  8
0
  6
Continuous
 62
     7
370
    15
100
AcDbLine
 10
426.6201292486
 20
370.2500735328
 30
0.0
 11
426.6201292486
 21
316.2500721321
 31
0.0
  0
LINE
  5
148
330
1F
100
AcDbEntity
  8
0
  6
Continuous
 62
     7
370
    15
100
AcDbLine
 10
484.6201275797
 20
316.2500721321
 30
0.0
 11
484.6201275797
 21
370.2500735328
 31
0.0
  0
LINE
  5
149
330
1F
100
AcDbEntity
  8
0
  6
Continuous
 62
     7
370
    15
100
AcDbLine
 10
426.6201292486
 20
400.4022826359
 30
0.0
 11
426.6201292486
 21
370.7500735565
 31
0.0
  0
LINE
  5
14A
330
1F
100
AcDbEntity
  8
0
  6
Continuous
 62
     7
370
    15
100
AcDbLine
 10
426.6201292486
 20
465.4500757262
 30
0.0
 11
426.6201292486
 21
439.3656750128
 31
0.0
  0
LINE
  5
14B
330
1F
100
AcDbEntity
  8
0
  6
Continuous
 62
     7
370
    15
100
AcDbLine
 10
484.6201275797
 20
439.3656750128
 30
0.0
 11
484.6201275797
 21
465.4500757262
 31
0.0
  0
LINE
  5
14C
330
1F
100
AcDbEntity
  8
0
  6
Continuous
 62
     7
370
    15
100
AcDbLine
 10
484.6201275797
 20
370.7500735565
 30
0.0
 11
484.6201275797
 21
400.4022826359
 31
0.0
  0
LINE
  5
14D
330
1F
100
AcDbEntity
  8
0
  6
Continuous
 62
     7
370
    15
100
AcDbLine
 10
427.2206069292
 20
505.8057133958
 30
0.0
 11
426.6279113801
 21
471.8499232933
 31
0.0
  0
LINE
  5
14E
330
1F
100
AcDbEntity
  8
0
  6
Continuous
 62
     7
370
    15
100
AcDbLine
 10
484.6400299431
 20
471.8499232933
 30
0.0
 11
484.0473306687
 21
505.8059518144
 31
0.0
  0
ARC
  5
14F
330
1F
100
AcDbEntity
  8
0
  6
Continuous
 62
     7
370
    15
100
AcDbCircle
 10
455.6201284142
 20
462.6500735328
 30
0.0
 40
27.67417568781407
100
AcDbArc
 50
160.1119407342
 51
173.5683545736
  0
ARC
  5
150
330
1F
100
AcDbEntity
  8
0
  6
Continuous
 62
     7
370
    15
100
AcDbCircle
 10
455.6201284142
 20
462.6500735328
 30
0.0
 40
27.67417568781413
100
AcDbArc
 50
6.4316454264
 51
19.8901847708
  0
LINE
  5
151
330
1F
100
AcDbEntity
  8
0
  6
Continuous
 62
     7
370
    15
100
AcDbLine
 10
482.9201286049
 20
370.2500735328
 30
0.0
 11
482.9201286049
 21
370.7500735565
 31
0.0
  0
LINE
  5
152
330
1F
100
AcDbEntity
  8
0
  6
Continuous
 62
     7
370
    15
100
AcDbLine
 10
428.3201282234
 20
370.7500735565
 30
0.0
 11
428.3201282234
 21
370.2500735328
 31
0.0
  0
LINE
  5
153
330
1F
100
AcDbEntity
  8
0
  6
Continuous
 62
     7
370
    15
100
AcDbLine
 10
429.820127538
 20
465.750073354
 30
0.0
 11
429.820127538
 21
465.4500757262
 31
0.0
  0
LINE
  5
154
330
1F
100
AcDbEntity
  8
0
  6
Continuous
 62
     7
370
    15
100
AcDbLine
 10
481.4201292903
 20
465.4500757262
 30
0.0
 11
481.4201292903
 21
465.750073354
 31
0.0
  0
LWPOLYLINE
  5
155
330
1F
100
AcDbEntity
  8
0
  6
Continuous
 62
     7
370
    15
100
AcDbPolyline
 90
        4
 70
   128
 43
0.0
 10
426.6201348366
 20
439.3656750128
 10
426.6198852421
 20
439.3101458356
 10
426.6277158023
 20
419.772305797
 10
426.6202968867
 20
400.4022826359
  0
LWPOLYLINE
  5
156
330
1F
100
AcDbEntity
  8
0
  6
Continuous
 62
     7
370
    15
100
AcDbPolyline
 90
       10
 70
   128
 43
0.0
 10
484.6199599416
 20
400.4022826359
 10
484.612541026
 20
419.772305797
 10
484.6208465607
 20
429.5193825767
 10
484.6242943169
 20
434.3923230574
 10
484.6118406714
 20
436.8713770911
 10
484.6233145655
 20
438.1601263687
 10
484.6227352829
 20
438.9114876196
 10
484.6210048856
 20
439.2101888463
 10
484.6203715862
 20
439.3101458356
 10
484.6201219918
 20
439.3656750128
  0
LINE
  5
157
330
1F
100
AcDbEntity
  8
0
  6
Continuous
 62
     7
370
    15
100
AcDbLine
 10
483.0257573487
 20
507.2013263509
 30
0.0
 11
482.7742760391
 21
507.2623168036
 31
0.0
  0
LINE
  5
158
330
1F
100
AcDbEntity
  8
0
  6
Continuous
 62
     7
370
    15
100
AcDbLine
 10
428.483854732
 20
507.2599624202
 30
0.0
 11
428.2420480014
 21
507.2012816474
 31
0.0
  0
LINE
  5
159
330
1F
100
AcDbEntity
  8
0
  6
Continuous
 62
     7
370
    15
100
AcDbLine
 10
434.9538960816
 20
509.2707847163
 30
0.0
 11
434.90030033
 21
508.5037474439
 31
0.0
  0
LINE
  5
15A
330
1F
100
AcDbEntity
  8
0
  6
Continuous
 62
     7
370
    15
100
AcDbLine
 10
476.3676409931
 20
508.5037474439
 30
0.0
 11
476.3140471042
 21
509.2707847163
 31
0.0
  0
LWPOLYLINE
  5
15B
330
1F
100
AcDbEntity
  8
0
  6
Continuous
 62
     7
370
    15
100
AcDbPolyline
 90
        3
 70
   128
 43
0.0
 10
429.2116553844
 20
465.750073354
 10
429.1864426197
 20
465.5493249103
 10
429.1749854894
 20
465.4500757262
  0
LINE
  5
15C
330
1F
100
AcDbEntity
  8
0
  6
Continuous
 62
     7
370
    15
100
AcDbLine
 10
482.0637886734
 20
465.4500757262
 30
0.0
 11
482.0339062573
 21
465.7041554257
 31
0.0
  0
LWPOLYLINE
  5
15D
330
1F
100
AcDbEntity
  8
0
  6
Continuous
 62
     7
370
    15
100
AcDbPolyline
 90
        3
 70
   128
 43
0.0
 10
445.692412308
 20
509.1016267344
 10
445.5892338739
 20
511.4463244483
 10
445.5380884321
 20
515.3204922482
  0
LWPOLYLINE
  5
15E
330
1F
100
AcDbEntity
  8
0
  6
Continuous
 62
     7
370
    15
100
AcDbPolyline
 90
        3
 70
   128
 43
0.0
 10
465.729947886
 20
515.320283632
 10
465.6787977876
 20
511.446115832
 10
465.5751462416
 20
509.0907637879
  0
LWPOLYLINE
  5
15F
330
1F
100
AcDbEntity
  8
0
  6
Continuous
 62
     7
370
    15
100
AcDbPolyline
 90
        3
 70
   128
 43
0.0
 10
465.2886630358
 20
526.6910021111
 10
465.5309782685
 20
521.1319004104
 10
465.7124176012
 20
515.748110871
  0
LWPOLYLINE
  5
160
330
1F
100
AcDbEntity
  8
0
  6
Continuous
 62
     7
370
    15
100
AcDbPolyline
 90
        3
 70
   128
 43
0.0
 10
445.5555078895
 20
515.7481555745
 10
445.7355725901
 20
521.098313193
 10
445.9762654589
 20
526.6262416646
  0
ARC
  5
161
330
1F
100
AcDbEntity
  8
0
  6
Continuous
 62
     7
370
    15
100
AcDbCircle
 10
447.0727535094
 20
525.6740369228
 30
0.0
 40
1.523500549598819
100
AcDbArc
 50
85.6908940113
 51
133.2995039334
  0
ARC
  5
162
330
1F
100
AcDbEntity
  8
0
  6
Continuous
 62
     7
370
    15
100
AcDbCircle
 10
464.0966771491
 20
525.3832403788
 30
0.0
 40
1.807206737739215
100
AcDbArc
 50
50.7532712731
 51
89.8993995204
  0
LWPOLYLINE
  5
163
330
1F
100
AcDbEntity
  8
0
  6
Continuous
 62
     7
370
    15
100
AcDbPolyline
 90
        3
 70
   128
 43
0.0
 10
455.580510432
 20
527.7397309348
 10
460.0480201044
 20
527.6046966121
 10
464.1480806605
 20
527.1832023665
  0
LWPOLYLINE
  5
164
330
1F
100
AcDbEntity
  8
0
  6
Continuous
 62
     7
370
    15
100
AcDbPolyline
 90
        3
 70
   128
 43
0.0
 10
447.1648528562
 20
527.1898929879
 10
451.2198187732
 20
527.6046668097
 10
455.6336719153
 20
527.7397756383
  0
ARC
  5
165
330
1F
100
AcDbEntity
  8
0
  6
Continuous
 62
     7
370
    15
100
AcDbCircle
 10
470.3364270451
 20
531.8033949256
 30
0.0
 40
3.095665783770909
100
AcDbArc
 50
21.9378079817
 51
73.7253974265
  0
ARC
  5
166
330
1F
100
AcDbEntity
  8
0
  6
Continuous
 62
     7
370
    15
100
AcDbCircle
 10
440.7945680018
 20
531.9574708907
 30
0.0
 40
2.91251872892957
100
AcDbArc
 50
104.2160948099
 51
159.8675409198
  0
ARC
  5
167
330
1F
100
AcDbEntity
  8
0
  6
Continuous
 62
     7
370
    15
100
AcDbCircle
 10
455.9495461437
 20
492.8771072659
 30
0.0
 40
44.58875702377954
100
AcDbArc
 50
70.0220728482
 51
90.5376867263
  0
ARC
  5
168
330
1F
100
AcDbEntity
  8
0
  6
Continuous
 62
     7
370
    15
100
AcDbCircle
 10
455.3183642068
 20
492.8769753003
 30
0.0
 40
44.58887428464044
100
AcDbArc
 50
89.4622870977
 51
109.977845308
  0
ARC
  5
169
330
1F
100
AcDbEntity
  8
0
  6
Continuous
 62
     7
370
    15
100
AcDbCircle
 10
455.5163230375
 20
484.1981853324
 30
0.0
 40
26.77107797020152
100
AcDbArc
 50
89.5241157503
 51
111.5282450313
  0
ARC
  5
16A
330
1F
100
AcDbEntity
  8
0
  6
Continuous
 62
     7
370
    15
100
AcDbCircle
 10
455.7207399938
 20
484.1820530793
 30
0.0
 40
26.78718334697216
100
AcDbArc
 50
68.4152136953
 51
90.4687666003
  0
LINE
  5
16B
330
1F
100
AcDbEntity
  8
0
  6
Continuous
 62
     7
370
    15
100
AcDbLine
 10
426.6201292486
 20
316.2500721321
 30
0.0
 11
484.6201275797
 21
316.2500721321
 31
0.0
  0
LINE
  5
16C
330
1F
100
AcDbEntity
  8
0
  6
Continuous
 62
     7
370
    15
100
AcDbLine
 10
426.6201292486
 20
370.2500735328
 30
0.0
 11
484.6201275797
 21
370.2500735328
 31
0.0
  0
LINE
  5
16D
330
1F
100
AcDbEntity
  8
0
  6
Continuous
 62
     7
370
    15
100
AcDbLine
 10
426.7584623159
 20
400.4022826359
 30
0.0
 11
426.7584623159
 21
439.3656750128
 31
0.0
  0
LINE
  5
16E
330
1F
100
AcDbEntity
  8
0
  6
Continuous
 62
     7
370
    15
100
AcDbLine
 10
484.4817945124
 20
400.4022826359
 30
0.0
 11
484.4817945124
 21
439.3656750128
 31
0.0
  0
LINE
  5
16F
330
1F
100
AcDbEntity
  8
0
  6
Continuous
 62
     7
370
    15
100
AcDbLine
 10
455.6201284142
 20
465.4500757262
 30
0.0
 11
484.6201275797
 21
465.4500757262
 31
0.0
  0
LINE
  5
170
330
1F
100
AcDbEntity
  8
0
  6
Continuous
 62
     7
370
    15
100
AcDbLine
 10
426.6201292486
 20
465.4500757262
 30
0.0
 11
455.6201284142
 21
465.4500757262
 31
0.0
  0
LINE
  5
171
330
1F
100
AcDbEntity
  8
0
  6
Continuous
 62
     7
370
    15
100
AcDbLine
 10
484.6201275797
 20
370.7500735565
 30
0.0
 11
426.6201292486
 21
370.7500735565
 31
0.0
  0
LWPOLYLINE
  5
172
330
1F
100
AcDbEntity
  8
0
  6
Continuous
 62
     7
370
    15
100
AcDbPolyline
 90
       46
 70
   128
 43
0.0
 10
427.2230861099
 20
505.8058028027
 10
427.3152162643
 20
505.8037166402
 10
427.5716428967
 20
505.8019285008
 10
427.9295408489
 20
505.8004383847
 10
428.2313284786
 20
505.7995145127
 10
428.5392926396
 20
505.7987694547
 10
428.8979170234
 20
505.7980691001
 10
429.6268781037
 20
505.7968919084
 10
430.7666418464
 20
505.7952527806
 10
431.5569938482
 20
505.7941351935
 10
431.5570031614
 20
505.7941351935
 10
431.5570460023
 20
505.7941351935
 10
431.5584169091
 20
505.7941351935
 10
431.569387889
 20
505.7941202924
 10
431.6569657387
 20
505.7939861819
 10
432.3420596631
 20
505.792972903
 10
433.5825291784
 20
505.7912890717
 10
434.5688687028
 20
505.7900522754
 10
435.4273637147
 20
505.7890538976
 10
435.5285351486
 20
505.7889495894
 10
435.5285463245
 20
505.7889495894
 10
435.5285575004
 20
505.7889495894
 10
435.5285779895
 20
505.7889495894
 10
435.5286208303
 20
505.7889495894
 10
435.528706512
 20
505.7889495894
 10
435.5288778753
 20
505.7889495894
 10
435.529220602
 20
505.7889495894
 10
435.5299060555
 20
505.7889495894
 10
435.5312750996
 20
505.7889495894
 10
435.5340150507
 20
505.7889495894
 10
435.5395005406
 20
505.7889495894
 10
435.5504864217
 20
505.7889346883
 10
435.5725177885
 20
505.7889197871
 10
435.6168301166
 20
505.7888750836
 10
435.7064475627
 20
505.7888005778
 10
435.8896890045
 20
505.7886366651
 10
436.2725035609
 20
505.7883237407
 10
437.1058174731
 20
505.7876829907
 10
439.0615539016
 20
505.7863716886
 10
441.4348748834
 20
505.785030584
 10
444.2560856552
 20
505.7836596772
 10
446.3939608396
 20
505.7827209041
 10
448.0885860832
 20
505.7821099564
 10
449.7688042322
 20
505.7817672297
 10
452.5513043483
 20
505.7816480205
 10
455.633970467
 20
505.7820205495
  0
LINE
  5
173
330
1F
100
AcDbEntity
  8
0
  6
Continuous
 62
     7
370
    15
100
AcDbLine
 10
455.6339710408
 20
480.3947632119
 30
0.0
 11
455.633971049
 21
505.7819907472
 31
0.0
  0
LWPOLYLINE
  5
174
330
1F
100
AcDbEntity
  8
0
  6
Continuous
 62
     7
370
    15
100
AcDbPolyline
 90
       10
 70
   128
 43
0.0
 10
426.6659410061
 20
472.0600743696
 10
427.1658973159
 20
473.3848844573
 10
428.8301800699
 20
474.8530437157
 10
431.5617827089
 20
476.3044615194
 10
435.2605731548
 20
477.6566897437
 10
439.6835451336
 20
478.7964050576
 10
444.7243555771
 20
479.6708499
 10
450.1581804217
 20
480.216031234
 10
452.8849839554
 20
480.3499703214
 10
455.6339710408
 20
480.3947632119
  0
LINE
  5
175
330
1F
100
AcDbEntity
  8
0
  6
Continuous
 62
     7
370
    15
100
AcDbLine
 10
427.3546447368
 20
471.851793389
 30
0.0
 11
426.641244194
 21
471.851793389
 31
0.0
  0
LINE
  5
176
330
1F
100
AcDbEntity
  8
0
  6
Continuous
 62
     7
370
    15
100
AcDbLine
 10
426.6324692727
 20
471.9711889431
 30
0.0
 11
426.641244194
 21
471.851793389
 31
0.0
  0
LWPOLYLINE
  5
177
330
1F
100
AcDbEntity
  8
0
  6
Continuous
 62
     7
370
    15
100
AcDbPolyline
 90
        9
 70
   128
 43
0.0
 10
455.6339710408
 20
480.3947632119
 10
461.1590427668
 20
480.2127827808
 10
466.5866361321
 20
479.6649788424
 10
471.5908949585
 20
478.7950267002
 10
475.9756938876
 20
477.6664053008
 10
479.6551836045
 20
476.3267015025
 10
482.3953301967
 20
474.8812218115
 10
484.0850417824
 20
473.4069679782
 10
484.6015812219
 20
472.0600967214
  0
LINE
  5
178
330
1F
100
AcDbEntity
  8
0
  6
Continuous
 62
     7
370
    15
100
AcDbLine
 10
484.6266989918
 20
471.851793389
 30
0.0
 11
484.6354832263
 21
471.9714646146
 31
0.0
  0
LINE
  5
179
330
1F
100
AcDbEntity
  8
0
  6
Continuous
 62
     7
370
    15
100
AcDbLine
 10
484.6266971291
 20
471.851793389
 30
0.0
 11
483.913298449
 21
471.851793389
 31
0.0
  0
LWPOLYLINE
  5
17A
330
1F
100
AcDbEntity
  8
0
  6
Continuous
 62
     7
370
    15
100
AcDbPolyline
 90
       19
 70
   128
 43
0.0
 10
429.6461192281
 20
472.046335499
 10
430.1072039963
 20
472.8392188355
 10
431.3796402277
 20
473.8448162481
 10
433.3234296502
 20
474.8334933922
 10
435.8705633642
 20
475.765255551
 10
438.9801842482
 20
476.6062696382
 10
442.5388125093
 20
477.3137618706
 10
446.5155822547
 20
477.8605376288
 10
450.7419529693
 20
478.2115791842
 10
455.1582061542
 20
478.3470530912
 10
459.5873609507
 20
478.2583986327
 10
463.9258652316
 20
477.9439692304
 10
468.0288198726
 20
477.4228160188
 10
471.7600827427
 20
476.7199431464
 10
475.0301518799
 20
475.8701820776
 10
477.7045843513
 20
474.9229376122
 10
479.7508863123
 20
473.9119981334
 10
481.1012090505
 20
472.8728358552
 10
481.5916528316
 20
472.0465739176
  0
LWPOLYLINE
  5
17B
330
1F
100
AcDbEntity
  8
0
  6
Continuous
 62
     7
370
    15
100
AcDbPolyline
 90
       14
 70
   128
 43
0.0
 10
455.6339716347
 20
505.7820205495
 10
458.9363545967
 20
505.7816182181
 10
461.7787494646
 20
505.7817374274
 10
464.1525230692
 20
505.7823781774
 10
466.5181708844
 20
505.7836745784
 10
471.4321696521
 20
505.7863567874
 10
475.7286680253
 20
505.7890240952
 10
477.2498828681
 20
505.7906036183
 10
478.9259002866
 20
505.7928983972
 10
480.270527056
 20
505.7949398562
 10
481.0947233201
 20
505.7962213561
 10
481.9128175588
 20
505.7974581525
 10
483.5270752521
 20
505.8013324544
 10
484.0448570759
 20
505.8058028027
  0
LWPOLYLINE
  5
17C
330
1F
100
AcDbEntity
  8
0
  6
Continuous
 62
     7
370
    15
100
AcDbPolyline
 90
        5
 70
   128
 43
0.0
 10
455.633892034
 20
505.7820205495
 10
455.6339086177
 20
506.0591076419
 10
455.6339565353
 20
506.3393984839
 10
455.6340368501
 20
506.6058014438
 10
455.6341467134
 20
506.8407033488
  0
LWPOLYLINE
  5
17D
330
1F
100
AcDbEntity
  8
0
  6
Continuous
 62
     7
370
    15
100
AcDbPolyline
 90
        3
 70
   128
 43
0.0
 10
455.6337522219
 20
506.8407033488
 10
455.6339722914
 20
507.1123962209
 10
455.6342134157
 20
507.2477881715
  0
LWPOLYLINE
  5
17E
330
1F
100
AcDbEntity
  8
0
  6
Continuous
 62
     7
370
    15
100
AcDbPolyline
 90
        9
 70
   128
 43
0.0
 10
455.6339709754
 20
507.2481308982
 10
460.9487091513
 20
507.2481457993
 10
466.0574595766
 20
507.2481457993
 10
470.7628048347
 20
507.2481457993
 10
474.8829172314
 20
507.2481457993
 10
478.2585815848
 20
507.2481457993
 10
480.7593521984
 20
507.2481308982
 10
482.2885931791
 20
507.2481308982
 10
482.7872083844
 20
507.2481010959
  0
ARC
  5
17F
330
1F
100
AcDbEntity
  8
0
  6
Continuous
 62
     7
370
    15
100
AcDbCircle
 10
482.5472762999
 20
505.7796735754
 30
0.0
 40
1.500008934172901
100
AcDbArc
 50
0.9998152983
 51
80.7203161002
  0
ARC
  5
180
330
1F
100
AcDbEntity
  8
0
  6
Continuous
 62
     7
370
    15
100
AcDbCircle
 10
428.7206650408
 20
505.7796754813
 30
0.0
 40
1.500007056075263
100
AcDbArc
 50
99.2796962994
 51
179.0002562592
  0
LWPOLYLINE
  5
181
330
1F
100
AcDbEntity
  8
0
  6
Continuous
 62
     7
370
    15
100
AcDbPolyline
 90
        9
 70
   128
 43
0.0
 10
428.4807329388
 20
507.2481010959
 10
428.9793500067
 20
507.2481308982
 10
430.5085909875
 20
507.2481308982
 10
433.009361601
 20
507.2481457993
 10
436.3850259544
 20
507.2481457993
 10
440.5051364885
 20
507.2481457993
 10
445.2104817466
 20
507.2481457993
 10
450.3192321719
 20
507.2481457993
 10
455.6339697967
 20
507.2481308982
  0
LINE
  5
182
330
1F
100
AcDbEntity
  8
0
  6
Continuous
 62
     7
370
    15
100
AcDbLine
 10
482.1185690672
 20
465.750073354
 30
0.0
 11
428.1201285632
 21
465.750073354
 31
0.0
  0
LINE
  5
183
330
1F
100
AcDbEntity
  8
0
  6
Continuous
 62
     7
370
    15
100
AcDbLine
 10
483.1201282651
 20
465.750073354
 30
0.0
 11
482.1185690672
 21
465.750073354
 31
0.0
  0
LWPOLYLINE
  5
184
330
1F
100
AcDbEntity
  8
0
  6
Continuous
 62
     7
370
    15
100
AcDbPolyline
 90
        9
 70
   128
 43
0.0
 10
455.6339706934
 20
507.2353755042
 10
455.6339708499
 20
507.7535782859
 10
455.6339709663
 20
508.2031165168
 10
455.6339710418
 20
508.5837964818
 10
455.6339710781
 20
508.8954840705
 10
455.6339710736
 20
509.1380451724
 10
455.6339710281
 20
509.3113605782
 10
455.6339709435
 20
509.4153855845
 10
455.633970818
 20
509.4500754878
  0
LWPOLYLINE
  5
185
330
1F
100
AcDbEntity
  8
0
  6
Continuous
 62
     7
370
    15
100
AcDbPolyline
 90
        3
 70
   128
 43
0.0
 10
455.6339708126
 20
509.4500754878
 10
469.2534354837
 20
508.901727657
 10
482.7868302674
 20
507.2599326178
  0
LWPOLYLINE
  5
186
330
1F
100
AcDbEntity
  8
0
  6
Continuous
 62
     7
370
    15
100
AcDbPolyline
 90
        3
 70
   128
 43
0.0
 10
428.480826071
 20
507.2598879144
 10
442.0143624158
 20
508.901727657
 10
455.6339712982
 20
509.4500754878
  0
LINE
  5
187
330
1F
100
AcDbEntity
  8
0
  6
Continuous
 62
     7
370
    15
100
AcDbLine
 10
482.7868302674
 20
507.2599326178
 30
0.0
 11
482.7770662816
 21
507.2602008388
 31
0.0
  0
LINE
  5
188
330
1F
100
AcDbEntity
  8
0
  6
Continuous
 62
     7
370
    15
100
AcDbLine
 10
427.3551085354
 20
471.8000714585
 30
0.0
 11
426.6575274379
 21
471.8000714585
 31
0.0
  0
LINE
  5
189
330
1F
100
AcDbEntity
  8
0
  6
Continuous
 62
     7
370
    15
100
AcDbLine
 10
427.3551122607
 20
471.8000714585
 30
0.0
 11
429.5023658634
 21
471.8000714585
 31
0.0
  0
LINE
  5
18A
330
1F
100
AcDbEntity
  8
0
  6
Continuous
 62
     7
370
    15
100
AcDbLine
 10
426.641244194
 20
471.851793389
 30
0.0
 11
426.6575274379
 21
471.8000714585
 31
0.0
  0
LINE
  5
18B
330
1F
100
AcDbEntity
  8
0
  6
Continuous
 62
     7
370
    15
100
AcDbLine
 10
484.6104157479
 20
471.8000714585
 30
0.0
 11
483.9128346504
 21
471.8000714585
 31
0.0
  0
LINE
  5
18C
330
1F
100
AcDbEntity
  8
0
  6
Continuous
 62
     7
370
    15
100
AcDbLine
 10
481.7378909649
 20
471.8000714585
 30
0.0
 11
483.9128309251
 21
471.8000714585
 31
0.0
  0
LINE
  5
18D
330
1F
100
AcDbEntity
  8
0
  6
Continuous
 62
     7
370
    15
100
AcDbLine
 10
484.6104138852
 20
471.8000714585
 30
0.0
 11
484.6266989918
 21
471.851793389
 31
0.0
  0
LINE
  5
18E
330
1F
100
AcDbEntity
  8
0
  6
Continuous
 62
     7
370
    15
100
AcDbLine
 10
435.9545984627
 20
509.7815369174
 30
0.0
 11
436.0024889321
 21
510.8151559636
 31
0.0
  0
LINE
  5
18F
330
1F
100
AcDbEntity
  8
0
  6
Continuous
 62
     7
370
    15
100
AcDbLine
 10
436.0024889321
 20
510.8151559636
 30
0.0
 11
443.2715677978
 21
511.2839762971
 31
0.0
  0
LINE
  5
190
330
1F
100
AcDbEntity
  8
0
  6
Continuous
 62
     7
370
    15
100
AcDbLine
 10
467.9963744567
 20
511.2839762971
 30
0.0
 11
475.265452391
 21
510.8151559636
 31
0.0
  0
LINE
  5
191
330
1F
100
AcDbEntity
  8
0
  6
Continuous
 62
     7
370
    15
100
AcDbLine
 10
475.265452391
 20
510.8151559636
 30
0.0
 11
475.3133428605
 21
509.7815369174
 31
0.0
  0
ARC
  5
192
330
1F
100
AcDbEntity
  8
0
  6
Continuous
 62
     7
370
    15
100
AcDbCircle
 10
443.4822911976
 20
509.9117901319
 30
0.0
 40
1.388272027805206
100
AcDbArc
 50
7.8905529489
 51
98.7305732642
  0
LINE
  5
193
330
1F
100
AcDbEntity
  8
0
  6
Continuous
 62
     7
370
    15
100
AcDbLine
 10
444.8574192212
 20
510.1023738191
 30
0.0
 11
444.8299051584
 21
508.7771241471
 31
0.0
  0
LINE
  5
194
330
1F
100
AcDbEntity
  8
0
  6
Continuous
 62
     7
370
    15
100
AcDbLine
 10
466.4380370961
 20
508.7771241471
 30
0.0
 11
466.4105230333
 21
510.1023738191
 31
0.0
  0
ARC
  5
195
330
1F
100
AcDbEntity
  8
0
  6
Continuous
 62
     7
370
    15
100
AcDbCircle
 10
467.7856510569
 20
509.9117901319
 30
0.0
 40
1.388272027805206
100
AcDbArc
 50
81.2694267358
 51
172.1094470511
  0
LWPOLYLINE
  5
196
330
1F
100
AcDbEntity
  8
0
  6
Continuous
 62
     7
370
    15
100
AcDbPolyline
 90
        3
 70
   128
 43
0.0
 10
434.9168387563
 20
508.6402867839
 10
434.8651466281
 20
508.2135026261
 10
434.8044746877
 20
508.0441956326
  0
LWPOLYLINE
  5
197
330
1F
100
AcDbEntity
  8
0
  6
Continuous
 62
     7
370
    15
100
AcDbPolyline
 90
        3
 70
   128
 43
0.0
 10
476.4607322724
 20
508.0518250272
 10
476.4027965577
 20
508.2135026261
 10
476.3511044295
 20
508.6402867839
  0
ARC
  5
198
330
1F
100
AcDbEntity
  8
0
  6
Continuous
 62
     7
370
    15
100
AcDbCircle
 10
475.0859441353
 20
508.5323029036
 30
0.0
 40
1.269762104319628
100
AcDbArc
 50
4.8784749744
 51
79.683376847
  0
ARC
  5
199
330
1F
100
AcDbEntity
  8
0
  6
Continuous
 62
     7
370
    15
100
AcDbCircle
 10
436.181996825
 20
508.5323052984
 30
0.0
 40
1.269759683189302
100
AcDbArc
 50
100.3166263961
 51
175.1216241579
  0
LWPOLYLINE
  5
19A
330
1F
100
AcDbEntity
  8
0
  6
Continuous
 62
     7
370
    15
100
AcDbPolyline
 90
        6
 70
   128
 43
0.0
 10
444.8574164273
 20
510.1023738191
 10
444.9270597981
 20
512.7802614972
 10
444.9980684878
 20
515.0958423421
 10
445.0673123212
 20
517.1389107511
 10
445.1433222131
 20
519.2206625745
 10
445.2260972322
 20
521.3322912261
  0
LINE
  5
19B
330
1F
100
AcDbEntity
  8
0
  6
Continuous
 62
     7
370
    15
100
AcDbLine
 10
445.2260972322
 20
521.3322912261
 30
0.0
 11
445.5048178644
 21
516.8621663854
 31
0.0
  0
LINE
  5
19C
330
1F
100
AcDbEntity
  8
0
  6
Continuous
 62
     7
370
    15
100
AcDbLine
 10
466.0418450223
 20
521.3322912261
 30
0.0
 11
465.7631243901
 21
516.8621812865
 31
0.0
  0
LWPOLYLINE
  5
19D
330
1F
100
AcDbEntity
  8
0
  6
Continuous
 62
     7
370
    15
100
AcDbPolyline
 90
        6
 70
   128
 43
0.0
 10
466.4105239646
 20
510.1023738191
 10
466.3574013249
 20
512.1969108388
 10
466.2798156352
 20
514.7907857701
 10
466.2069107727
 20
516.960216026
 10
466.1281534792
 20
519.1269491717
 10
466.0418450223
 20
521.3322912261
  0
ARC
  5
19E
330
1F
100
AcDbEntity
  8
0
  6
Continuous
 62
     7
370
    15
100
AcDbCircle
 10
342.778075839
 20
514.9717540109
 30
0.0
 40
122.8902031189087
100
AcDbArc
 50
357.2388510739
 51
0.3274936876
  0
LINE
  5
19F
330
1F
100
AcDbEntity
  8
0
  6
Continuous
 62
     7
370
    15
100
AcDbLine
 10
465.6662277268
 20
515.6741713092
 30
0.0
 11
465.7631243901
 21
516.8621663854
 31
0.0
  0
LINE
  5
1A0
330
1F
100
AcDbEntity
  8
0
  6
Continuous
 62
     7
370
    15
100
AcDbLine
 10
445.5048178644
 20
516.8621663854
 30
0.0
 11
445.6017135964
 21
515.6741713092
 31
0.0
  0
ARC
  5
1A1
330
1F
100
AcDbEntity
  8
0
  6
Continuous
 62
     7
370
    15
100
AcDbCircle
 10
571.0493663968
 20
515.0261065026
 30
0.0
 40
125.4493695866603
100
AcDbArc
 50
179.7040117177
 51
182.7296380465
  0
LINE
  5
1A2
330
1F
100
AcDbEntity
  8
0
  6
Continuous
 62
     7
370
    15
100
AcDbLine
 10
435.2769234539
 20
512.6513515517
 30
0.0
 11
434.9871498854
 21
509.7059880301
 31
0.0
  0
LINE
  5
1A3
330
1F
100
AcDbEntity
  8
0
  6
Continuous
 62
     7
370
    15
100
AcDbLine
 10
434.9871498854
 20
509.7059880301
 30
0.0
 11
434.9814203889
 21
509.6192930743
 31
0.0
  0
LINE
  5
1A4
330
1F
100
AcDbEntity
  8
0
  6
Continuous
 62
     7
370
    15
100
AcDbLine
 10
434.9583720179
 20
509.2704717919
 30
0.0
 11
434.9448119612
 21
509.0652679011
 31
0.0
  0
LINE
  5
1A5
330
1F
100
AcDbEntity
  8
0
  6
Continuous
 62
     7
370
    15
100
AcDbLine
 10
476.3231312246
 20
509.0652679011
 30
0.0
 11
476.309571168
 21
509.2704717919
 31
0.0
  0
LINE
  5
1A6
330
1F
100
AcDbEntity
  8
0
  6
Continuous
 62
     7
370
    15
100
AcDbLine
 10
476.2865227969
 20
509.6192930743
 30
0.0
 11
476.2807933004
 21
509.7059880301
 31
0.0
  0
LINE
  5
1A7
330
1F
100
AcDbEntity
  8
0
  6
Continuous
 62
     7
370
    15
100
AcDbLine
 10
476.2807933004
 20
509.7059880301
 30
0.0
 11
475.9910178692
 21
512.6513515517
 31
0.0
  0
ARC
  5
1A8
330
1F
100
AcDbEntity
  8
0
  6
Continuous
 62
     7
370
    15
100
AcDbCircle
 10
455.3336571514
 20
493.4404247438
 30
0.0
 40
43.95655275948888
100
AcDbArc
 50
89.6085485546
 51
109.821980641
  0
LINE
  5
1A9
330
1F
100
AcDbEntity
  8
0
  6
Continuous
 62
     7
370
    15
100
AcDbLine
 10
455.6339711081
 20
537.3959516093
 30
0.0
 11
455.6339711045
 21
535.2596764371
 31
0.0
  0
ARC
  5
1AA
330
1F
100
AcDbEntity
  8
0
  6
Continuous
 62
     7
370
    15
100
AcDbCircle
 10
455.4649763922
 20
499.618747003
 30
0.0
 40
35.64133008409595
100
AcDbArc
 50
89.7283287543
 51
104.9651235367
  0
LWPOLYLINE
  5
1AB
330
1F
100
AcDbEntity
  8
0
  6
Continuous
 62
     7
370
    15
100
AcDbPolyline
 90
       20
 70
   128
 43
0.0
 10
446.2612790377
 20
534.0512369677
 10
445.4678825424
 20
533.7826733396
 10
444.7918764637
 20
533.432361941
 10
444.3316177787
 20
533.0048923299
 10
444.2594374852
 20
532.8741048381
 10
444.2268812419
 20
532.7771429822
 10
444.2268793793
 20
532.7771429822
 10
444.226875654
 20
532.777128081
 10
444.2268691347
 20
532.7771131799
 10
444.2268560962
 20
532.7770535752
 10
444.2268309505
 20
532.7769641683
 10
444.2267787964
 20
532.7767704532
 10
444.226676351
 20
532.7763979241
 10
444.22647146
 20
532.7756230637
 10
444.2260681973
 20
532.7741031453
 10
444.225284955
 20
532.7710484073
 10
444.2238032208
 20
532.7649389312
 10
444.2211554707
 20
532.7527050778
 10
444.216920747
 20
532.7282969758
 10
444.2118347944
 20
532.6797042891
  0
LWPOLYLINE
  5
1AC
330
1F
100
AcDbEntity
  8
0
  6
Continuous
 62
     7
370
    15
100
AcDbPolyline
 90
        3
 70
   128
 43
0.0
 10
444.2118347944
 20
532.6797042891
 10
443.93924599
 20
527.4375651881
 10
443.6905269833
 20
522.6119731471
  0
LWPOLYLINE
  5
1AD
330
1F
100
AcDbEntity
  8
0
  6
Continuous
 62
     7
370
    15
100
AcDbPolyline
 90
        3
 70
   128
 43
0.0
 10
443.6905269833
 20
522.6119731471
 10
443.456912166
 20
516.9468347833
 10
443.2715677978
 20
511.2839762971
  0
ARC
  5
1AE
330
1F
100
AcDbEntity
  8
0
  6
Continuous
 62
     7
370
    15
100
AcDbCircle
 10
549.2403970263
 20
500.1246815329
 30
0.0
 40
113.7414175798946
100
AcDbArc
 50
173.1118690275
 51
174.6068502249
  0
LINE
  5
1AF
330
1F
100
AcDbEntity
  8
0
  6
Continuous
 62
     7
370
    15
100
AcDbLine
 10
436.3199395449
 20
513.7658242986
 30
0.0
 11
436.7868320407
 21
517.5957207486
 31
0.0
  0
LINE
  5
1B0
330
1F
100
AcDbEntity
  8
0
  6
Continuous
 62
     7
370
    15
100
AcDbLine
 10
436.834381646
 20
517.9782484576
 30
0.0
 11
436.7867221446
 21
517.5963167951
 31
0.0
  0
LWPOLYLINE
  5
1B1
330
1F
100
AcDbEntity
  8
0
  6
Continuous
 62
     7
370
    15
100
AcDbPolyline
 90
        3
 70
   128
 43
0.0
 10
436.8342698873
 20
517.9788594052
 10
437.9890893908
 20
526.1291985318
 10
439.2332581194
 20
533.8611726567
  0
ARC
  5
1B2
330
1F
100
AcDbEntity
  8
0
  6
Continuous
 62
     7
370
    15
100
AcDbCircle
 10
440.9234359311
 20
532.925090488
 30
0.0
 40
1.932084589724299
100
AcDbArc
 50
104.8568265716
 51
151.0207154541
  0
ARC
  5
1B3
330
1F
100
AcDbEntity
  8
0
  6
Continuous
 62
     7
370
    15
100
AcDbCircle
 10
455.7536784655
 20
499.2364724892
 30
0.0
 40
36.02340284456409
100
AcDbArc
 50
75.1161509013
 51
90.1903966355
  0
ARC
  5
1B4
330
1F
100
AcDbEntity
  8
0
  6
Continuous
 62
     7
370
    15
100
AcDbCircle
 10
455.9675783668
 20
493.6348864044
 30
0.0
 40
43.76233679401619
100
AcDbArc
 50
70.1326917754
 51
90.436779077
  0
ARC
  5
1B5
330
1F
100
AcDbEntity
  8
0
  6
Continuous
 62
     7
370
    15
100
AcDbCircle
 10
470.4972019431
 20
533.1208139365
 30
0.0
 40
1.706534594037888
100
AcDbArc
 50
25.7113459246
 51
78.4153130897
  0
ARC
  5
1B6
330
1F
100
AcDbEntity
  8
0
  6
Continuous
 62
     7
370
    15
100
AcDbCircle
 10
50.4775684464
 20
462.0659396155
 30
0.0
 40
427.6272131667153
100
AcDbArc
 50
7.5130235063
 51
9.665284151
  0
LINE
  5
1B7
330
1F
100
AcDbEntity
  8
0
  6
Continuous
 62
     7
370
    15
100
AcDbLine
 10
474.4812210412
 20
517.5963167951
 30
0.0
 11
474.4335615398
 21
517.9782484576
 31
0.0
  0
LINE
  5
1B8
330
1F
100
AcDbEntity
  8
0
  6
Continuous
 62
     7
370
    15
100
AcDbLine
 10
474.4811111451
 20
517.5957207486
 30
0.0
 11
474.9480017783
 21
513.7658242986
 31
0.0
  0
LWPOLYLINE
  5
1B9
330
1F
100
AcDbEntity
  8
0
  6
Continuous
 62
     7
370
    15
100
AcDbPolyline
 90
        3
 70
   128
 43
0.0
 10
475.265452391
 20
510.8151559636
 10
475.1215034486
 20
512.2343127534
 10
474.9480017783
 20
513.7658242986
  0
LWPOLYLINE
  5
1BA
330
1F
100
AcDbEntity
  8
0
  6
Continuous
 62
     7
370
    15
100
AcDbPolyline
 90
        3
 70
   128
 43
0.0
 10
467.9963744567
 20
511.2839762971
 10
467.8110300885
 20
516.9468347833
 10
467.5774152712
 20
522.6119731471
  0
LWPOLYLINE
  5
1BB
330
1F
100
AcDbEntity
  8
0
  6
Continuous
 62
     7
370
    15
100
AcDbPolyline
 90
        3
 70
   128
 43
0.0
 10
467.5774152712
 20
522.6119731471
 10
467.3287167535
 20
527.4375800893
 10
467.0561074601
 20
532.6797042891
  0
LWPOLYLINE
  5
1BC
330
1F
100
AcDbEntity
  8
0
  6
Continuous
 62
     7
370
    15
100
AcDbPolyline
 90
       24
 70
   128
 43
0.0
 10
467.0561074601
 20
532.6797042891
 10
467.0084991814
 20
532.8740601346
 10
466.9044890763
 20
533.0497001216
 10
466.8953509392
 20
533.0614869401
 10
466.8920652331
 20
533.0656294629
 10
466.8916768716
 20
533.0661212012
 10
466.8916740776
 20
533.0661212012
 10
466.8916703523
 20
533.0661361024
 10
466.8916629018
 20
533.0661361024
 10
466.8916489319
 20
533.0661510035
 10
466.8916200609
 20
533.066195707
 10
466.8915623189
 20
533.0662702128
 10
466.8914477663
 20
533.0664192244
 10
466.8912149356
 20
533.0667023465
 10
466.8907408924
 20
533.0673132941
 10
466.8897602097
 20
533.0685500905
 10
466.8876628713
 20
533.0712024972
 10
466.8829103322
 20
533.0771629617
 10
466.8710359694
 20
533.091706495
 10
466.8365993859
 20
533.1312392756
 10
466.7134533958
 20
533.251908879
 10
466.4766143398
 20
533.4320043132
 10
465.8288375796
 20
533.770513992
 10
465.0066632168
 20
534.0512369677
  0
ARC
  5
1BD
330
1F
100
AcDbEntity
  8
0
  6
Continuous
 62
     7
370
    15
100
AcDbCircle
 10
475.0487079275
 20
509.5974535274
 30
0.0
 40
1.23684169782363
100
AcDbArc
 50
5.0342558244
 51
79.9073598154
  0
ARC
  5
1BE
330
1F
100
AcDbEntity
  8
0
  6
Continuous
 62
     7
370
    15
100
AcDbCircle
 10
436.2192318911
 20
509.5974569737
 30
0.0
 40
1.236838041253501
100
AcDbArc
 50
100.0925995441
 51
174.9658895176
  0
ARC
  5
1BF
330
1F
100
AcDbEntity
  8
0
  6
Continuous
 62
     7
370
    15
100
AcDbCircle
 10
443.846915172
 20
521.2384788237
 30
0.0
 40
1.38236895296021
100
AcDbArc
 50
3.891283185
 51
96.4958109552
  0
ARC
  5
1C0
330
1F
100
AcDbEntity
  8
0
  6
Continuous
 62
     7
370
    15
100
AcDbCircle
 10
467.421038478
 20
521.2384651495
 30
0.0
 40
1.382381250198996
100
AcDbArc
 50
83.5047224399
 51
176.1081834199
  0
ARC
  5
1C1
330
1F
100
AcDbEntity
  8
0
  6
Continuous
 62
     7
370
    15
100
AcDbCircle
 10
436.5068295036
 20
512.5456020578
 30
0.0
 40
1.234451365430792
100
AcDbArc
 50
98.7077866223
 51
175.0857238095
  0
ARC
  5
1C2
330
1F
100
AcDbEntity
  8
0
  6
Continuous
 62
     7
370
    15
100
AcDbCircle
 10
474.7611104089
 20
512.5455986819
 30
0.0
 40
1.234454915933087
100
AcDbArc
 50
4.9144192853
 51
81.2921723782
  0
ARC
  5
1C3
330
1F
100
AcDbEntity
  8
0
  6
Continuous
 62
     7
370
    15
100
AcDbCircle
 10
436.9436192607
 20
516.3616557273
 30
0.0
 40
1.244569510761093
100
AcDbArc
 50
97.272711456
 51
175.1884411166
  0
LINE
  5
1C4
330
1F
100
AcDbEntity
  8
0
  6
Continuous
 62
     7
370
    15
100
AcDbLine
 10
435.7041527839
 20
516.466019015
 30
0.0
 11
435.276886201
 21
512.6513515517
 31
0.0
  0
ARC
  5
1C5
330
1F
100
AcDbEntity
  8
0
  6
Continuous
 62
     7
370
    15
100
AcDbCircle
 10
474.3243324435
 20
516.3616666785
 30
0.0
 40
1.244557569367725
100
AcDbArc
 50
4.8076570689
 51
82.7276137298
  0
LINE
  5
1C6
330
1F
100
AcDbEntity
  8
0
  6
Continuous
 62
     7
370
    15
100
AcDbLine
 10
475.9910569848
 20
512.6513515517
 30
0.0
 11
475.5637904019
 21
516.4660041139
 31
0.0
  0
ARC
  5
1C7
330
1F
100
AcDbEntity
  8
0
  6
Continuous
 62
     7
370
    15
100
AcDbCircle
 10
444.9494894972
 20
515.5771662499
 30
0.0
 40
0.6592839579506932
100
AcDbArc
 50
332.8038546353
 51
8.4636658953
  0
ARC
  5
1C8
330
1F
100
AcDbEntity
  8
0
  6
Continuous
 62
     7
370
    15
100
AcDbCircle
 10
466.3185335038
 20
515.5771883878
 30
0.0
 40
0.6593602177049559
100
AcDbArc
 50
171.5405741338
 51
207.2152858395
  0
ARC
  5
1C9
330
1F
100
AcDbEntity
  8
0
  6
Continuous
 62
     7
370
    15
100
AcDbCircle
 10
474.2770317813
 20
516.7434511286
 30
0.0
 40
1.244754884278701
100
AcDbArc
 50
4.8109399905
 51
82.8574217633
  0
LINE
  5
1CA
330
1F
100
AcDbEntity
  8
0
  6
Continuous
 62
     7
370
    15
100
AcDbLine
 10
475.5179730566
 20
516.849187474
 30
0.0
 11
475.5638649077
 21
516.4660041139
 31
0.0
  0
ARC
  5
1CB
330
1F
100
AcDbEntity
  8
0
  6
Continuous
 62
     7
370
    15
100
AcDbCircle
 10
436.9909149514
 20
516.7434463473
 30
0.0
 40
1.244760069495402
100
AcDbArc
 50
97.1427128643
 51
175.1881709179
  0
LINE
  5
1CC
330
1F
100
AcDbEntity
  8
0
  6
Continuous
 62
     7
370
    15
100
AcDbLine
 10
435.7506239177
 20
516.8491576716
 30
0.0
 11
435.7034375281
 21
516.4660637185
 31
0.0
  0
ARC
  5
1CD
330
1F
100
AcDbEntity
  8
0
  6
Continuous
 62
     7
370
    15
100
AcDbCircle
 10
471.955787364
 20
532.5472054357
 30
0.0
 40
1.316339174099482
100
AcDbArc
 50
4.3086993711
 51
86.5598925035
  0
ARC
  5
1CE
330
1F
100
AcDbEntity
  8
0
  6
Continuous
 62
     7
370
    15
100
AcDbCircle
 10
79.3142571288
 20
468.4329251055
 30
0.0
 40
399.1528887582467
100
AcDbArc
 50
6.967012439
 51
9.2576067138
  0
ARC
  5
1CF
330
1F
100
AcDbEntity
  8
0
  6
Continuous
 62
     7
370
    15
100
AcDbCircle
 10
439.3154744342
 20
532.5438280586
 30
0.0
 40
1.319907690995044
100
AcDbArc
 50
93.571234117
 51
175.5559356558
  0
ARC
  5
1D0
330
1F
100
AcDbEntity
  8
0
  6
Continuous
 62
     7
370
    15
100
AcDbCircle
 10
833.7663951574
 20
468.1745417996
 30
0.0
 40
400.9835579152784
100
AcDbArc
 50
170.747622915
 51
173.0277560738
  0
ARC
  5
1D1
330
1F
100
AcDbEntity
  8
0
  6
Continuous
 62
     7
370
    15
100
AcDbCircle
 10
444.3359316277
 20
531.298438157
 30
0.0
 40
1.386829532415173
100
AcDbArc
 50
6.5449496836
 51
95.1338305823
  0
LINE
  5
1D2
330
1F
100
AcDbEntity
  8
0
  6
Continuous
 62
     7
370
    15
100
AcDbLine
 10
445.7137228311
 20
531.4565126702
 30
0.0
 11
445.2260972322
 21
521.3322912261
 31
0.0
  0
ARC
  5
1D3
330
1F
100
AcDbEntity
  8
0
  6
Continuous
 62
     7
370
    15
100
AcDbCircle
 10
466.9318049835
 20
531.2986925772
 30
0.0
 40
1.386594552905217
100
AcDbArc
 50
84.8567653509
 51
173.4651379185
  0
LWPOLYLINE
  5
1D4
330
1F
100
AcDbEntity
  8
0
  6
Continuous
 62
     7
370
    15
100
AcDbPolyline
 90
       25
 70
   128
 43
0.0
 10
465.554218492
 20
531.4565126702
 10
465.6776233898
 20
528.9301250979
 10
465.786761357
 20
526.6702596948
 10
465.8000122146
 20
526.3960336253
 10
465.8000122146
 20
526.3960187242
 10
465.8000122146
 20
526.3960187242
 10
465.8000131459
 20
526.396003823
 10
465.8000140773
 20
526.3959889218
 10
465.8000159399
 20
526.3959442183
 10
465.8000196652
 20
526.3958697125
 10
465.8000280471
 20
526.3957057998
 10
465.8000438796
 20
526.3953779742
 10
465.8000755445
 20
526.3947223231
 10
465.8001379432
 20
526.3934110209
 10
465.800264603
 20
526.3908033177
 10
465.8005179228
 20
526.3855730102
 10
465.8010236309
 20
526.3751272962
 10
465.8020341159
 20
526.3542358682
 10
465.8040532233
 20
526.3125126168
 10
465.8080821247
 20
526.2292896316
 10
465.8161082627
 20
526.0636483237
 10
465.8320301534
 20
525.7356737658
 10
465.8633812652
 20
525.0929866836
 10
465.9239079194
 20
523.8609735772
 10
466.0418450223
 20
521.3322912261
  0
LWPOLYLINE
  5
1D5
330
1F
100
AcDbEntity
  8
0
  6
Continuous
 62
     7
370
    15
100
AcDbPolyline
 90
        7
 70
   128
 43
0.0
 10
445.6018775092
 20
515.820396404
 10
445.647199391
 20
517.7406941459
 10
445.7210169495
 20
519.6075116202
 10
445.8004252375
 20
521.5291206643
 10
445.8796044202
 20
523.422223787
 10
445.9610802443
 20
525.3029291436
 10
446.038899696
 20
527.0316873595
  0
LINE
  5
1D6
330
1F
100
AcDbEntity
  8
0
  6
Continuous
 62
     7
370
    15
100
AcDbLine
 10
445.6019054489
 20
515.820396404
 30
0.0
 11
445.5048178644
 21
516.8621663854
 31
0.0
  0
LINE
  5
1D7
330
1F
100
AcDbEntity
  8
0
  6
Continuous
 62
     7
370
    15
100
AcDbLine
 10
446.038899696
 20
527.0316873595
 30
0.0
 11
445.7137228311
 21
531.4565126702
 31
0.0
  0
LINE
  5
1D8
330
1F
100
AcDbEntity
  8
0
  6
Continuous
 62
     7
370
    15
100
AcDbLine
 10
465.7631243901
 20
516.8621663854
 30
0.0
 11
465.666037737
 21
515.820396404
 31
0.0
  0
LWPOLYLINE
  5
1D9
330
1F
100
AcDbEntity
  8
0
  6
Continuous
 62
     7
370
    15
100
AcDbPolyline
 90
        7
 70
   128
 43
0.0
 10
465.2290425585
 20
527.0316873595
 10
465.3068629415
 20
525.3028993413
 10
465.388339697
 20
523.4221790835
 10
465.467517017
 20
521.5291206643
 10
465.5469271676
 20
519.6074818179
 10
465.6207437949
 20
517.7406792447
 10
465.6660647453
 20
515.820396404
  0
LINE
  5
1DA
330
1F
100
AcDbEntity
  8
0
  6
Continuous
 62
     7
370
    15
100
AcDbLine
 10
465.2290425585
 20
527.0316873595
 30
0.0
 11
465.554218492
 21
531.4565126702
 31
0.0
  0
LINE
  5
1DB
330
1F
100
AcDbEntity
  8
0
  6
Continuous
 62
     7
370
    15
100
AcDbLine
 10
465.6659371541
 20
515.8203666017
 30
0.0
 11
465.6663487987
 21
515.674156408
 31
0.0
  0
LINE
  5
1DC
330
1F
100
AcDbEntity
  8
0
  6
Continuous
 62
     7
370
    15
100
AcDbLine
 10
445.6015934558
 20
515.6742011115
 30
0.0
 11
445.6020060317
 21
515.8204113051
 31
0.0
  0
ARC
  5
1DD
330
1F
100
AcDbEntity
  8
0
  6
Continuous
 62
     7
370
    15
100
AcDbCircle
 10
445.3778083464
 20
526.9345923748
 30
0.0
 40
0.668183514190465
100
AcDbArc
 50
332.6212543937
 51
8.355338333
  0
ARC
  5
1DE
330
1F
100
AcDbEntity
  8
0
  6
Continuous
 62
     7
370
    15
100
AcDbCircle
 10
447.4882457261
 20
526.7997092015
 30
0.0
 40
1.46779350757405
100
AcDbArc
 50
90.4592509242
 51
170.9065318124
  0
ARC
  5
1DF
330
1F
100
AcDbEntity
  8
0
  6
Continuous
 62
     7
370
    15
100
AcDbCircle
 10
463.7796971262
 20
526.799709897
 30
0.0
 40
1.467792807327853
100
AcDbArc
 50
9.093445069
 51
89.5407721945
  0
ARC
  5
1E0
330
1F
100
AcDbEntity
  8
0
  6
Continuous
 62
     7
370
    15
100
AcDbCircle
 10
447.4438924355
 20
531.1430230447
 30
0.0
 40
1.758340867125806
100
AcDbArc
 50
102.0599578834
 51
169.7299915478
  0
LINE
  5
1E1
330
1F
100
AcDbEntity
  8
0
  6
Continuous
 62
     7
370
    15
100
AcDbLine
 10
447.4764808403
 20
528.2674555585
 30
0.0
 11
447.0765131847
 21
532.8625564382
 31
0.0
  0
LINE
  5
1E2
330
1F
100
AcDbEntity
  8
0
  6
Continuous
 62
     7
370
    15
100
AcDbLine
 10
463.7914614142
 20
528.2674555585
 30
0.0
 11
464.1914290698
 21
532.8625564382
 31
0.0
  0
ARC
  5
1E3
330
1F
100
AcDbEntity
  8
0
  6
Continuous
 62
     7
370
    15
100
AcDbCircle
 10
463.6149440852
 20
530.9403499249
 30
0.0
 40
2.006791672536713
100
AcDbArc
 50
14.9044552504
 51
73.3055953184
  0
ARC
  5
1E4
330
1F
100
AcDbEntity
  8
0
  6
Continuous
 62
     7
370
    15
100
AcDbCircle
 10
445.3825859123
 20
532.5746996783
 30
0.0
 40
1.718213441038461
100
AcDbArc
 50
9.6443898983
 51
59.2430641098
  0
ARC
  5
1E5
330
1F
100
AcDbEntity
  8
0
  6
Continuous
 62
     7
370
    15
100
AcDbCircle
 10
465.8938470703
 20
532.5688832708
 30
0.0
 40
1.727562148757865
100
AcDbArc
 50
120.9004362747
 51
170.2125982031
  0
LWPOLYLINE
  5
1E6
330
1F
100
AcDbEntity
  8
0
  6
Continuous
 62
     7
370
    15
100
AcDbPolyline
 90
        3
 70
   128
 43
0.0
 10
455.6339711109
 20
528.8351599976
 10
459.8830437609
 20
528.6956553266
 10
463.7914614142
 20
528.2674555585
  0
LWPOLYLINE
  5
1E7
330
1F
100
AcDbEntity
  8
0
  6
Continuous
 62
     7
370
    15
100
AcDbPolyline
 90
        3
 70
   128
 43
0.0
 10
447.4764808403
 20
528.2674555585
 10
451.3848984936
 20
528.6956553266
 10
455.6339711109
 20
528.8351599976
  0
ARC
  5
1E8
330
1F
100
AcDbEntity
  8
0
  6
Continuous
 62
     7
370
    15
100
AcDbCircle
 10
455.5033000539
 20
502.9705783951
 30
0.0
 40
31.05706180993456
100
AcDbArc
 50
89.7589300027
 51
105.7435673248
  0
LINE
  5
1E9
330
1F
100
AcDbEntity
  8
0
  6
Continuous
 62
     7
370
    15
100
AcDbLine
 10
455.6339711109
 20
528.8351599976
 30
0.0
 11
455.6339711109
 21
534.0273653075
 31
0.0
  0
ARC
  5
1EA
330
1F
100
AcDbEntity
  8
0
  6
Continuous
 62
     7
370
    15
100
AcDbCircle
 10
455.6713491072
 20
502.2851991176
 30
0.0
 40
31.74218819709189
100
AcDbArc
 50
74.4300306556
 51
90.0674685144
  0
LWPOLYLINE
  5
1EB
330
1F
100
AcDbEntity
  8
0
  6
Continuous
 62
     7
370
    15
100
AcDbPolyline
 90
        5
 70
   128
 43
0.0
 10
455.6339720231
 20
535.2596764371
 10
455.6339718203
 20
535.0781504914
 10
455.633971592
 20
534.7867880866
 10
455.6339713674
 20
534.4191019341
 10
455.6339711745
 20
534.0273653075
  0
LINE
  5
1EC
330
1F
100
AcDbEntity
  8
0
  6
Continuous
 62
     7
370
    15
100
AcDbLine
 10
455.6201284142
 20
510.9528575942
 30
0.0
 11
455.6201284142
 21
510.9624092385
 31
0.0
  0
LINE
  5
1ED
330
1F
100
AcDbEntity
  8
0
  6
Continuous
 62
     7
370
    15
100
AcDbLine
 10
426.6388264806
 20
400.4022826359
 30
0.0
 11
426.7584623159
 21
400.4022826359
 31
0.0
  0
LINE
  5
1EE
330
1F
100
AcDbEntity
  8
0
  6
Continuous
 62
     7
370
    15
100
AcDbLine
 10
426.7584623159
 20
439.3656750128
 30
0.0
 11
426.7525074394
 21
439.3656750128
 31
0.0
  0
LINE
  5
1EF
330
1F
100
AcDbEntity
  8
0
  6
Continuous
 62
     7
370
    15
100
AcDbLine
 10
484.4817945124
 20
439.3656750128
 30
0.0
 11
484.4877493889
 21
439.3656750128
 31
0.0
  0
LINE
  5
1F0
330
1F
100
AcDbEntity
  8
0
  6
Continuous
 62
     7
370
    15
100
AcDbLine
 10
484.6014303477
 20
400.4022826359
 30
0.0
 11
484.4817945124
 21
400.4022826359
 31
0.0
  0
LINE
  5
1F1
330
1F
100
AcDbEntity
  8
0
  6
Continuous
 62
     7
370
    15
100
AcDbLine
 10
481.7197115482
 20
471.851793389
 30
0.0
 11
483.913298449
 21
471.851793389
 31
0.0
  0
LINE
  5
1F2
330
1F
100
AcDbEntity
  8
0
  6
Continuous
 62
     7
370
    15
100
AcDbLine
 10
427.3546447368
 20
471.851793389
 30
0.0
 11
429.5205452801
 21
471.851793389
 31
0.0
  0
LWPOLYLINE
  5
1F3
330
1F
100
AcDbEntity
  8
0
  6
Continuous
 62
     7
370
    15
100
AcDbPolyline
 90
        4
 70
   128
 43
0.0
 10
443.2715677978
 20
511.2839762971
 10
443.2667491348
 20
509.8821346566
 10
443.2606946067
 20
508.9714501903
 10
443.2603686438
 20
508.9518849656
  0
LWPOLYLINE
  5
1F4
330
1F
100
AcDbEntity
  8
0
  6
Continuous
 62
     7
370
    15
100
AcDbPolyline
 90
        3
 70
   128
 43
0.0
 10
435.9545984627
 20
509.7815369174
 10
435.6796049835
 20
508.7278162047
 10
435.0145475329
 20
508.0525253818
  0
ARC
  5
1F5
330
1F
100
AcDbEntity
  8
0
  6
Continuous
 62
     7
370
    15
100
AcDbCircle
 10
686.7143033991
 20
511.1607323808
 30
0.0
 40
218.7179636653226
100
AcDbArc
 50
179.9677147843
 51
180.5786398608
  0
LWPOLYLINE
  5
1F6
330
1F
100
AcDbEntity
  8
0
  6
Continuous
 62
     7
370
    15
100
AcDbPolyline
 90
        3
 70
   128
 43
0.0
 10
476.2512461604
 20
508.0527936027
 10
475.5858124555
 20
508.7322120473
 10
475.3133428605
 20
509.7815369174
  0
ARC
  5
1F7
330
1F
100
AcDbEntity
  8
0
  6
Continuous
 62
     7
370
    15
100
AcDbCircle
 10
731.8250630175
 20
503.022435661
 30
0.0
 40
286.6545323748273
100
AcDbArc
 50
177.2326739853
 51
178.7988708809
  0
ARC
  5
1F8
330
1F
100
AcDbEntity
  8
0
  6
Continuous
 62
     7
370
    15
100
AcDbCircle
 10
179.4419530927
 20
503.0223843913
 30
0.0
 40
286.6554606338513
100
AcDbArc
 50
1.2011384579
 51
2.7673302879
  0
LINE
  5
1F9
330
1F
100
AcDbEntity
  8
0
  6
Continuous
 62
     7
370
    15
100
AcDbLine
 10
434.9448119612
 20
509.0652679011
 30
0.0
 11
434.9167307229
 21
508.6402867839
 31
0.0
  0
LINE
  5
1FA
330
1F
100
AcDbEntity
  8
0
  6
Continuous
 62
     7
370
    15
100
AcDbLine
 10
476.3512106003
 20
508.6402867839
 30
0.0
 11
476.3231312246
 21
509.0652679011
 31
0.0
  0
ARC
  5
1FB
330
1F
100
AcDbEntity
  8
0
  6
Continuous
 62
     7
370
    15
100
AcDbCircle
 10
455.5396850254
 20
484.1678376348
 30
0.0
 40
26.78514075685331
100
AcDbArc
 50
89.8279242346
 51
111.5676720884
  0
LINE
  5
1FC
330
1F
100
AcDbEntity
  8
0
  6
Continuous
 62
     7
370
    15
100
AcDbLine
 10
455.6201284142
 20
510.9528724954
 30
0.0
 11
455.6201284142
 21
509.4495092437
 31
0.0
  0
ARC
  5
1FD
330
1F
100
AcDbEntity
  8
0
  6
Continuous
 62
     7
370
    15
100
AcDbCircle
 10
455.697156384
 20
484.1489159427
 30
0.0
 40
26.80405233103347
100
AcDbArc
 50
68.3776779218
 51
90.1646535977
  0
LWPOLYLINE
  5
1FE
330
1F
100
AcDbEntity
  8
0
  6
Continuous
 62
     7
370
    15
100
AcDbPolyline
 90
        8
 70
   128
 43
0.0
 10
447.1716971458
 20
527.1944229409
 10
447.1867342801
 20
527.1945123479
 10
447.3084749044
 20
527.2625957534
 10
447.4118572981
 20
527.4023984477
 10
447.4824264036
 20
527.6005540893
 10
447.5136443363
 20
527.8296296403
 10
447.5085574524
 20
528.0594353482
 10
447.4764808403
 20
528.2674555585
  0
LWPOLYLINE
  5
1FF
330
1F
100
AcDbEntity
  8
0
  6
Continuous
 62
     7
370
    15
100
AcDbPolyline
 90
        8
 70
   128
 43
0.0
 10
464.1003941507
 20
527.1946315572
 10
464.0799879418
 20
527.1948401734
 10
463.9580834047
 20
527.2639666602
 10
463.8549859957
 20
527.4047975347
 10
463.7849784778
 20
527.603400211
 10
463.7542737038
 20
527.8320734307
 10
463.7595617534
 20
528.0607913539
 10
463.7914614142
 20
528.2674555585
  0
LWPOLYLINE
  5
200
330
1F
100
AcDbEntity
  8
0
  6
Continuous
 62
     7
370
    15
100
AcDbPolyline
 90
        8
 70
   128
 43
0.0
 10
455.6336720245
 20
527.746585469
 10
455.6336230873
 20
527.7463619515
 10
455.6335062308
 20
527.8146539733
 10
455.6334634564
 20
527.9567514464
 10
455.6335052841
 20
528.1587962911
 10
455.633621311
 20
528.3921037719
 10
455.6337860551
 20
528.6252473399
 10
455.6339711109
 20
528.8351599976
  0
LWPOLYLINE
  5
201
330
1F
100
AcDbEntity
  8
0
  6
Continuous
 62
     7
370
    15
100
AcDbPolyline
 90
        3
 70
   128
 43
0.0
 10
470.83990158
 20
534.7925846383
 10
471.0404330255
 20
534.8121647641
 10
471.2024011971
 20
534.7691302106
  0
LWPOLYLINE
  5
202
330
1F
100
AcDbEntity
  8
0
  6
Continuous
 62
     7
370
    15
100
AcDbPolyline
 90
        3
 70
   128
 43
0.0
 10
440.4280406745
 20
534.7925846383
 10
440.2330217273
 20
534.8125670955
 10
440.0650297613
 20
534.7704713151
  0
LWPOLYLINE
  5
203
330
1F
100
AcDbEntity
  8
0
  6
Continuous
 62
     7
370
    15
100
AcDbPolyline
 90
        3
 70
   128
 43
0.0
 10
455.6339795046
 20
537.4537830159
 10
455.6339768116
 20
537.4601905152
 10
455.6339711081
 20
537.3959516093
  0
ARC
  5
204
330
1F
100
AcDbEntity
  8
0
  6
Continuous
 62
     7
370
    15
100
AcDbCircle
 10
203.9626942649
 20
167.4786562911
 30
0.0
 40
24.92814285554734
100
AcDbArc
 50
319.9840088702
 51
0.1437871354
  0
ARC
  5
205
330
1F
100
AcDbEntity
  8
0
  6
Continuous
 62
     7
370
    15
100
AcDbCircle
 10
203.9627261739
 20
167.3919080528
 30
0.0
 40
24.92811095885952
100
AcDbArc
 50
359.8562015438
 51
40.0159912363
  0
LWPOLYLINE
  5
206
330
1F
100
AcDbEntity
  8
0
  6
Continuous
 62
     7
370
    15
100
AcDbPolyline
 90
        3
 70
   128
 43
0.0
 10
223.0740605489
 20
183.3997781289
 10
221.9266115323
 20
184.3836403352
 10
220.5569042459
 20
184.9424413306
  0
LWPOLYLINE
  5
207
330
1F
100
AcDbEntity
  8
0
  6
Continuous
 62
     7
370
    15
100
AcDbPolyline
 90
        3
 70
   128
 43
0.0
 10
220.5546541706
 20
149.9275679601
 10
221.9153239027
 20
150.4801998747
 10
223.05803435
 20
151.4519008708
  0
LINE
  5
208
330
1F
100
AcDbEntity
  8
0
  6
Continuous
 62
     7
370
    15
100
AcDbLine
 10
220.5603687659
 20
184.9348324252
 30
0.0
 11
219.9421121374
 21
185.0935558689
 31
0.0
  0
LINE
  5
209
330
1F
100
AcDbEntity
  8
0
  6
Continuous
 62
     7
370
    15
100
AcDbLine
 10
219.9426932827
 20
149.7771444631
 30
0.0
 11
220.5603538647
 21
149.9357151699
 31
0.0
  0
LINE
  5
20A
330
1F
100
AcDbEntity
  8
0
  6
Continuous
 62
     7
370
    15
100
AcDbLine
 10
219.1055907503
 20
149.6607086522
 30
0.0
 11
219.9004037872
 21
149.7796161932
 31
0.0
  0
LWPOLYLINE
  5
20B
330
1F
100
AcDbEntity
  8
0
  6
Continuous
 62
     7
370
    15
100
AcDbPolyline
 90
        3
 70
   128
 43
0.0
 10
220.0131757751
 20
185.0696450931
 10
219.9886857167
 20
185.0781592441
 10
219.1066189304
 20
185.2098147285
  0
ARC
  5
20C
330
1F
100
AcDbEntity
  8
0
  6
Continuous
 62
     7
370
    15
100
AcDbCircle
 10
213.8230833571
 20
173.8380922523
 30
0.0
 40
3.192900700354844
100
AcDbArc
 50
32.1808663626
 51
87.8929488647
  0
ARC
  5
20D
330
1F
100
AcDbEntity
  8
0
  6
Continuous
 62
     7
370
    15
100
AcDbCircle
 10
213.8221287841
 20
161.0344696807
 30
0.0
 40
3.195092023561878
100
AcDbArc
 50
272.1081617595
 51
327.446319804
  0
LWPOLYLINE
  5
20E
330
1F
100
AcDbEntity
  8
0
  6
Continuous
 62
     7
370
    15
100
AcDbPolyline
 90
        3
 70
   128
 43
0.0
 10
214.1251905456
 20
157.7878950996
 10
201.464992632
 20
157.5656526623
 10
186.2493051782
 20
157.3436411929
  0
LWPOLYLINE
  5
20F
330
1F
100
AcDbEntity
  8
0
  6
Continuous
 62
     7
370
    15
100
AcDbPolyline
 90
        3
 70
   128
 43
0.0
 10
186.2493051782
 20
177.5269082648
 10
198.7394733921
 20
177.351075494
 10
213.9588563338
 20
177.0856718433
  0
ARC
  5
210
330
1F
100
AcDbEntity
  8
0
  6
Continuous
 62
     7
370
    15
100
AcDbCircle
 10
117.7152783333
 20
173.042351141
 30
0.0
 40
34.66588801114636
100
AcDbArc
 50
283.8323341608
 51
297.1806807925
  0
ARC
  5
211
330
1F
100
AcDbEntity
  8
0
  6
Continuous
 62
     7
370
    15
100
AcDbCircle
 10
117.9864447784
 20
162.4916801825
 30
0.0
 40
33.9569774391787
100
AcDbArc
 50
62.7104463014
 51
76.3443966841
  0
ARC
  5
212
330
1F
100
AcDbEntity
  8
0
  6
Continuous
 62
     7
370
    15
100
AcDbCircle
 10
327.5005068302
 20
167.0925311155
 30
0.0
 40
24.79330065985041
100
AcDbArc
 50
0.5455514974
 51
43.1603359704
  0
ARC
  5
213
330
1F
100
AcDbEntity
  8
0
  6
Continuous
 62
     7
370
    15
100
AcDbCircle
 10
327.566940734
 20
167.7790599366
 30
0.0
 40
24.72662976557879
100
AcDbArc
 50
316.7793964447
 51
359.5147160876
  0
LINE
  5
214
330
1F
100
AcDbEntity
  8
0
  6
Continuous
 62
     7
370
    15
100
AcDbLine
 10
133.739899528
 20
192.5884953601
 30
0.0
 11
133.5124584481
 21
192.6984249515
 31
0.0
  0
LINE
  5
215
330
1F
100
AcDbEntity
  8
0
  6
Continuous
 62
     7
370
    15
100
AcDbLine
 10
133.5124584481
 20
142.1721226436
 30
0.0
 11
133.739899528
 21
142.2820540977
 31
0.0
  0
ARC
  5
216
330
1F
100
AcDbEntity
  8
0
  6
Continuous
 62
     7
370
    15
100
AcDbCircle
 10
340.9427818522
 20
179.5637797405
 30
0.0
 40
6.457815462754764
100
AcDbArc
 50
44.0310264303
 51
86.6143016437
  0
ARC
  5
217
330
1F
100
AcDbEntity
  8
0
  6
Continuous
 62
     7
370
    15
100
AcDbCircle
 10
340.9427818522
 20
155.3344542121
 30
0.0
 40
6.457815462754764
100
AcDbArc
 50
273.3856983563
 51
315.9689735697
  0
LWPOLYLINE
  5
218
330
1F
100
AcDbEntity
  8
0
  6
Continuous
 62
     7
370
    15
100
AcDbPolyline
 90
       24
 70
   128
 43
0.0
 10
341.3241325513
 20
186.0103237343
 10
331.2244533196
 20
186.7533980769
 10
322.2500352755
 20
187.3930825752
 10
314.3984048262
 20
187.9367644799
 10
307.663944234
 20
188.3911474508
 10
302.0400969878
 20
188.7621081335
 10
297.4819956914
 20
189.057072894
 10
293.0456219807
 20
189.3392375571
 10
288.5591058627
 20
189.6196252567
 10
284.0225814477
 20
189.8980404151
 10
267.5247757331
 20
190.8669008774
 10
251.0178207055
 20
191.7668043536
 10
240.5394731656
 20
192.3014580173
 10
230.0915239945
 20
192.8061137808
 10
220.0952141181
 20
193.2624041003
 10
210.8726544872
 20
193.660365687
 10
207.2261093751
 20
193.8116180611
 10
202.7329547897
 20
193.9932222379
 10
197.3431898847
 20
194.2041537625
 10
191.0605772033
 20
194.4405308825
 10
183.889460434
 20
194.6978627605
 10
175.8347867623
 20
194.9710606498
 10
166.9021292225
 20
195.254452796
 10
157.0977872804
 20
195.5418030632
  0
LWPOLYLINE
  5
219
330
1F
100
AcDbEntity
  8
0
  6
Continuous
 62
     7
370
    15
100
AcDbPolyline
 90
       24
 70
   128
 43
0.0
 10
157.0977872804
 20
139.3564308894
 10
166.7661561266
 20
139.6395697159
 10
175.3878785864
 20
139.9124081147
 10
182.9556866184
 20
140.1677208853
 10
189.4632919327
 20
140.3991098416
 10
194.905277957
 20
140.6010317517
 10
199.3347673312
 20
140.7710670394
 10
203.6755426422
 20
140.9426352841
 10
208.0750955835
 20
141.121514411
 10
212.5336720243
 20
141.3079167617
 10
228.8264973655
 20
142.0329457981
 10
245.2508925095
 20
142.8336354804
 10
255.73669063
 20
143.3815157873
 10
266.2388353244
 20
143.9587197167
 10
276.317995657
 20
144.539168374
 10
285.6579689875
 20
145.0999661249
 10
289.395835866
 20
145.3305206162
 10
294.014257063
 20
145.6201842887
 10
299.556743969
 20
145.9747741831
 10
306.0288547173
 20
146.3984123332
 10
313.4366540805
 20
146.8958838743
 10
321.7860578194
 20
147.4725942028
 10
331.0815213814
 20
148.1344888819
 10
341.3241325513
 20
148.8879102183
  0
ARC
  5
21A
330
1F
100
AcDbEntity
  8
0
  6
Continuous
 62
     7
370
    15
100
AcDbCircle
 10
151.5498513814
 20
227.2945999348
 30
0.0
 40
38.94293839421278
100
AcDbArc
 50
246.7718935267
 51
256.48817641
  0
ARC
  5
21B
330
1F
100
AcDbEntity
  8
0
  6
Continuous
 62
     7
370
    15
100
AcDbCircle
 10
152.092680269
 20
105.7865084443
 30
0.0
 40
40.80982903387407
100
AcDbArc
 50
103.6658455866
 51
113.5790446915
  0
LINE
  5
21C
330
1F
100
AcDbEntity
  8
0
  6
Continuous
 62
     7
370
    15
100
AcDbLine
 10
150.7333113447
 20
158.4893244219
 30
0.0
 11
148.7089643821
 21
158.7233816174
 31
0.0
  0
LWPOLYLINE
  5
21D
330
1F
100
AcDbEntity
  8
0
  6
Continuous
 62
     7
370
    15
100
AcDbPolyline
 90
        3
 70
   128
 43
0.0
 10
148.2202174708
 20
176.0866495681
 10
149.2459798798
 20
176.2376374466
 10
150.679726769
 20
176.3769232568
  0
LWPOLYLINE
  5
21E
330
1F
100
AcDbEntity
  8
0
  6
Continuous
 62
     7
370
    15
100
AcDbPolyline
 90
       11
 70
   128
 43
0.0
 10
148.5469142541
 20
158.7543657881
 10
148.1942223951
 20
158.8544941408
 10
147.8820933595
 20
159.0259701845
 10
147.632664685
 20
159.2432374966
 10
147.4525040582
 20
159.4757310015
 10
147.26594152
 20
159.8882691835
 10
147.2302960798
 20
160.0398363446
 10
147.2145921186
 20
160.1471326214
 10
147.2087788031
 20
160.2099116792
 10
147.2033491925
 20
160.2918163774
 10
147.2016746745
 20
160.2822321368
  0
LWPOLYLINE
  5
21F
330
1F
100
AcDbEntity
  8
0
  6
Continuous
 62
     7
370
    15
100
AcDbPolyline
 90
       12
 70
   128
 43
0.0
 10
147.2016746745
 20
174.5883210463
 10
147.2033491925
 20
174.5787344773
 10
147.2061208084
 20
174.6196176757
 10
147.2087788031
 20
174.6606424351
 10
147.2145921186
 20
174.7234219586
 10
147.2302960798
 20
174.8307177697
 10
147.26594152
 20
174.9822849308
 10
147.4525040582
 20
175.3948221815
 10
147.6326665476
 20
175.6273147551
 10
147.8820952222
 20
175.8445811358
 10
148.1942242578
 20
176.016055317
 10
148.5469142541
 20
176.1161827383
  0
ARC
  5
220
330
1F
100
AcDbEntity
  8
0
  6
Continuous
 62
     7
370
    15
100
AcDbCircle
 10
118.7092863637
 20
167.4352743349
 30
0.0
 40
29.38157954392584
100
AcDbArc
 50
346.4927184541
 51
13.5426287507
  0
LINE
  5
221
330
1F
100
AcDbEntity
  8
0
  6
Continuous
 62
     7
370
    15
100
AcDbLine
 10
148.0939468935
 20
163.4491167863
 30
0.0
 11
148.694493492
 21
163.6676984274
 31
0.0
  0
LINE
  5
222
330
1F
100
AcDbEntity
  8
0
  6
Continuous
 62
     7
370
    15
100
AcDbLine
 10
148.694493492
 20
171.2305355252
 30
0.0
 11
148.0939468935
 21
171.4491171663
 31
0.0
  0
LINE
  5
223
330
1F
100
AcDbEntity
  8
0
  6
Continuous
 62
     7
370
    15
100
AcDbLine
 10
147.8192123219
 20
163.4491167863
 30
0.0
 11
148.0939468935
 21
163.4491167863
 31
0.0
  0
LINE
  5
224
330
1F
100
AcDbEntity
  8
0
  6
Continuous
 62
     7
370
    15
100
AcDbLine
 10
148.0939468935
 20
171.4491171663
 30
0.0
 11
147.8154069379
 21
171.4491171663
 31
0.0
  0
ARC
  5
225
330
1F
100
AcDbEntity
  8
0
  6
Continuous
 62
     7
370
    15
100
AcDbCircle
 10
148.6260903512
 20
171.0425970852
 30
0.0
 40
0.2000000000000286
100
AcDbArc
 50
0.0
 51
70.0
  0
ARC
  5
226
330
1F
100
AcDbEntity
  8
0
  6
Continuous
 62
     7
370
    15
100
AcDbCircle
 10
148.6260903512
 20
163.8556368674
 30
0.0
 40
0.2000000000000171
100
AcDbArc
 50
290.0
 51
0.0
  0
LINE
  5
227
330
1F
100
AcDbEntity
  8
0
  6
Continuous
 62
     7
370
    15
100
AcDbLine
 10
148.8260912344
 20
163.8556367618
 30
0.0
 11
148.8260912344
 21
171.0425971908
 31
0.0
  0
LINE
  5
228
330
1F
100
AcDbEntity
  8
0
  6
Continuous
 62
     7
370
    15
100
AcDbLine
 10
122.9706743367
 20
196.3693781656
 30
0.0
 11
122.0318595048
 21
196.3877233577
 31
0.0
  0
LWPOLYLINE
  5
229
330
1F
100
AcDbEntity
  8
0
  6
Continuous
 62
     7
370
    15
100
AcDbPolyline
 90
       12
 70
   128
 43
0.0
 10
157.0977984563
 20
195.5417974753
 10
151.542142649
 20
195.6930572999
 10
146.8583686844
 20
195.8108919573
 10
143.058945109
 20
195.897655831
 10
140.1300436452
 20
195.9569102985
 10
137.7910381749
 20
196.012206645
 10
136.2412708446
 20
196.0563680989
 10
134.9616522536
 20
196.0967949492
 10
133.0411673159
 20
196.1500107211
 10
130.2421583429
 20
196.2185542
 10
126.5685489968
 20
196.2990670365
 10
122.9706743367
 20
196.3693781656
  0
LWPOLYLINE
  5
22A
330
1F
100
AcDbEntity
  8
0
  6
Continuous
 62
     7
370
    15
100
AcDbPolyline
 90
       12
 70
   128
 43
0.0
 10
124.3008721255
 20
138.5548508627
 10
126.5685489968
 20
138.599166916
 10
130.2421583429
 20
138.6796797526
 10
133.0411673159
 20
138.7482232315
 10
134.9616522536
 20
138.8014390034
 10
136.2412708446
 20
138.8418658537
 10
137.7910381749
 20
138.8860273075
 10
140.1300436452
 20
138.9413236541
 10
143.058945109
 20
139.0005781216
 10
146.8583686844
 20
139.0873419953
 10
151.542142649
 20
139.2051766527
 10
157.0977984563
 20
139.3564364773
  0
LINE
  5
22B
330
1F
100
AcDbEntity
  8
0
  6
Continuous
 62
     7
370
    15
100
AcDbLine
 10
122.9584013678
 20
138.5286173684
 30
0.0
 11
124.3008721255
 21
138.5548508627
 31
0.0
  0
LINE
  5
22C
330
1F
100
AcDbEntity
  8
0
  6
Continuous
 62
     7
370
    15
100
AcDbLine
 10
122.2539624766
 20
138.5148505581
 30
0.0
 11
122.9584013678
 21
138.5286173684
 31
0.0
  0
ARC
  5
22D
330
1F
100
AcDbEntity
  8
0
  6
Continuous
 62
     7
370
    15
100
AcDbCircle
 10
121.4721340886
 20
225.6279171506
 30
0.0
 40
29.26006439355053
100
AcDbArc
 50
268.4886305398
 51
271.5315627099
  0
ARC
  5
22E
330
1F
100
AcDbEntity
  8
0
  6
Continuous
 62
     7
370
    15
100
AcDbCircle
 10
121.4741527751
 20
120.725849656
 30
0.0
 40
17.81116730823333
100
AcDbArc
 50
87.4899498306
 51
92.4898569197
  0
LINE
  5
22F
330
1F
100
AcDbEntity
  8
0
  6
Continuous
 62
     7
370
    15
100
AcDbLine
 10
219.0102009669
 20
149.6466438187
 30
0.0
 11
219.9422238961
 21
149.7805158508
 31
0.0
  0
LWPOLYLINE
  5
230
330
1F
100
AcDbEntity
  8
0
  6
Continuous
 62
     7
370
    15
100
AcDbPolyline
 90
        3
 70
   128
 43
0.0
 10
216.5074391857
 20
175.5927645502
 10
218.256246914
 20
171.6843468969
 10
218.861010541
 20
167.4352742796
  0
LWPOLYLINE
  5
231
330
1F
100
AcDbEntity
  8
0
  6
Continuous
 62
     7
370
    15
100
AcDbPolyline
 90
        3
 70
   128
 43
0.0
 10
218.861010541
 20
167.4352742796
 10
218.256246914
 20
163.1862016295
 10
216.5074391857
 20
159.2777839762
  0
LWPOLYLINE
  5
232
330
1F
100
AcDbEntity
  8
0
  6
Continuous
 62
     7
370
    15
100
AcDbPolyline
 90
        4
 70
   128
 43
0.0
 10
173.705042024
 20
147.302186386
 10
180.744261165
 20
147.6343835605
 10
187.9740996853
 20
147.9883606446
 10
219.0102009669
 20
149.6466941101
  0
LWPOLYLINE
  5
233
330
1F
100
AcDbEntity
  8
0
  6
Continuous
 62
     7
370
    15
100
AcDbPolyline
 90
        4
 70
   128
 43
0.0
 10
219.0099998012
 20
185.2238236827
 10
200.5642397896
 20
186.2368120712
 10
188.1997181669
 20
186.8709440244
 10
173.7048967376
 20
187.5683369947
  0
LINE
  5
234
330
1F
100
AcDbEntity
  8
0
  6
Continuous
 62
     7
370
    15
100
AcDbLine
 10
219.1255881086
 20
149.6878120017
 30
0.0
 11
219.0102009669
 21
149.6466438187
 31
0.0
  0
LWPOLYLINE
  5
235
330
1F
100
AcDbEntity
  8
0
  6
Continuous
 62
     7
370
    15
100
AcDbPolyline
 90
        7
 70
   128
 43
0.0
 10
186.2462131873
 20
177.4673678813
 10
190.7857848898
 20
177.4220459995
 10
195.2809213296
 20
177.3482284409
 10
199.9806879655
 20
177.2688201529
 10
204.6743600264
 20
177.1896409703
 10
209.4010977641
 20
177.1081651461
 10
213.8068793908
 20
177.0303456945
  0
LWPOLYLINE
  5
236
330
1F
100
AcDbEntity
  8
0
  6
Continuous
 62
     7
370
    15
100
AcDbPolyline
 90
        7
 70
   128
 43
0.0
 10
213.8068793908
 20
157.840202832
 10
209.40104561
 20
157.7623824489
 10
204.6742482677
 20
157.6809056935
 10
199.9806879655
 20
157.6017283735
 10
195.2808393732
 20
157.5223182229
 10
190.7857327357
 20
157.4485015956
 10
186.2462131873
 20
157.4031806451
  0
LWPOLYLINE
  5
237
330
1F
100
AcDbEntity
  8
0
  6
Continuous
 62
     7
370
    15
100
AcDbPolyline
 90
        3
 70
   128
 43
0.0
 10
216.5209843412
 20
175.5589724419
 10
216.5053083196
 20
175.5606879381
 10
216.5074391857
 20
175.5927645502
  0
LWPOLYLINE
  5
238
330
1F
100
AcDbEntity
  8
0
  6
Continuous
 62
     7
370
    15
100
AcDbPolyline
 90
        3
 70
   128
 43
0.0
 10
216.5224819079
 20
159.3116850493
 10
216.505159308
 20
159.3096836371
 10
216.5074391857
 20
159.2777839762
  0
LWPOLYLINE
  5
239
330
1F
100
AcDbEntity
  8
0
  6
Continuous
 62
     7
370
    15
100
AcDbPolyline
 90
        3
 70
   128
 43
0.0
 10
213.9587445751
 20
177.08988049
 10
213.9433740273
 20
177.0707203907
 10
213.894580175
 20
177.0425618527
  0
LWPOLYLINE
  5
23A
330
1F
100
AcDbEntity
  8
0
  6
Continuous
 62
     7
370
    15
100
AcDbPolyline
 90
        3
 70
   128
 43
0.0
 10
213.9586179152
 20
157.779893176
 10
213.9354466096
 20
157.8066351724
 10
213.8947440878
 20
157.817261563
  0
ARC
  5
23B
330
1F
100
AcDbEntity
  8
0
  6
Continuous
 62
     7
370
    15
100
AcDbCircle
 10
186.2814280931
 20
157.2411203278
 30
0.0
 40
0.1659922208213813
100
AcDbArc
 50
37.5618966625
 51
102.290365562
  0
ARC
  5
23C
330
1F
100
AcDbEntity
  8
0
  6
Continuous
 62
     7
370
    15
100
AcDbCircle
 10
186.2814825831
 20
177.6292700247
 30
0.0
 40
0.1658495239784879
100
AcDbArc
 50
257.682261333
 51
322.4248835531
  0
LWPOLYLINE
  5
23D
330
1F
100
AcDbEntity
  8
0
  6
Continuous
 62
     7
370
    15
100
AcDbPolyline
 90
        3
 70
   128
 43
0.0
 10
145.9845422402
 20
178.2393383694
 10
146.7487892702
 20
178.1763362599
 10
147.1005125538
 20
178.1345059064
  0
LWPOLYLINE
  5
23E
330
1F
100
AcDbEntity
  8
0
  6
Continuous
 62
     7
370
    15
100
AcDbPolyline
 90
        3
 70
   128
 43
0.0
 10
147.1005088285
 20
156.73604262
 10
146.7487501547
 20
156.6942094726
 10
145.9845441029
 20
156.631210157
  0
LINE
  5
23F
330
1F
100
AcDbEntity
  8
0
  6
Continuous
 62
     7
370
    15
100
AcDbLine
 10
173.7024641231
 20
147.5512723339
 30
0.0
 11
172.830705215
 21
147.5142485363
 31
0.0
  0
LINE
  5
240
330
1F
100
AcDbEntity
  8
0
  6
Continuous
 62
     7
370
    15
100
AcDbLine
 10
173.702475299
 20
187.3186214728
 30
0.0
 11
172.8309212819
 21
187.3566790384
 31
0.0
  0
LINE
  5
241
330
1F
100
AcDbEntity
  8
0
  6
Continuous
 62
     7
370
    15
100
AcDbLine
 10
172.6619197622
 20
147.2564472717
 30
0.0
 11
173.7050047711
 21
147.3040266794
 31
0.0
  0
LINE
  5
242
330
1F
100
AcDbEntity
  8
0
  6
Continuous
 62
     7
370
    15
100
AcDbLine
 10
172.6618862346
 20
187.614159928
 30
0.0
 11
173.70486321
 21
187.5665563059
 31
0.0
  0
LINE
  5
243
330
1F
100
AcDbEntity
  8
0
  6
Continuous
 62
     7
370
    15
100
AcDbLine
 10
185.9033747211
 20
177.4676519347
 30
0.0
 11
186.2462057367
 21
177.4672393588
 31
0.0
  0
LINE
  5
244
330
1F
100
AcDbEntity
  8
0
  6
Continuous
 62
     7
370
    15
100
AcDbLine
 10
186.246093978
 20
157.4033082363
 30
0.0
 11
185.9032778636
 21
157.4028965918
 31
0.0
  0
LINE
  5
245
330
1F
100
AcDbEntity
  8
0
  6
Continuous
 62
     7
370
    15
100
AcDbLine
 10
161.8518537477
 20
188.0912224663
 30
0.0
 11
172.6618825093
 21
187.6140314055
 31
0.0
  0
LINE
  5
246
330
1F
100
AcDbEntity
  8
0
  6
Continuous
 62
     7
370
    15
100
AcDbLine
 10
161.8517606154
 20
146.7793381673
 30
0.0
 11
172.6619197622
 21
147.256514327
 31
0.0
  0
ARC
  5
247
330
1F
100
AcDbEntity
  8
0
  6
Continuous
 62
     7
370
    15
100
AcDbCircle
 10
185.9381615605
 20
177.6320982316
 30
0.0
 40
0.1680854210489888
100
AcDbArc
 50
258.0557819004
 51
323.989333392
  0
ARC
  5
248
330
1F
100
AcDbEntity
  8
0
  6
Continuous
 62
     7
370
    15
100
AcDbCircle
 10
185.9381418114
 20
157.2383840713
 30
0.0
 40
0.1681464088514566
100
AcDbArc
 50
35.9846234339
 51
101.9303489795
  0
LWPOLYLINE
  5
249
330
1F
100
AcDbEntity
  8
0
  6
Continuous
 62
     7
370
    15
100
AcDbPolyline
 90
        3
 70
   128
 43
0.0
 10
168.3774298623
 20
177.2676383046
 10
168.3513640061
 20
177.2566235525
 10
168.2655966476
 20
177.2649570269
  0
LWPOLYLINE
  5
24A
330
1F
100
AcDbEntity
  8
0
  6
Continuous
 62
     7
370
    15
100
AcDbPolyline
 90
        3
 70
   128
 43
0.0
 10
168.3777167097
 20
157.6029027713
 10
168.3524704173
 20
157.6138001767
 10
168.2655929223
 20
157.6056231645
  0
LINE
  5
24B
330
1F
100
AcDbEntity
  8
0
  6
Continuous
 62
     7
370
    15
100
AcDbLine
 10
161.8517606154
 20
146.7793381673
 30
0.0
 11
149.6709907994
 21
146.3134403241
 31
0.0
  0
LINE
  5
24C
330
1F
100
AcDbEntity
  8
0
  6
Continuous
 62
     7
370
    15
100
AcDbLine
 10
149.6709907994
 20
188.557107271
 30
0.0
 11
161.8518500224
 21
188.0912224663
 31
0.0
  0
LINE
  5
24D
330
1F
100
AcDbEntity
  8
0
  6
Continuous
 62
     7
370
    15
100
AcDbLine
 10
119.9206892967
 20
138.4588315052
 30
0.0
 11
125.9953213491
 21
139.3797661078
 31
0.0
  0
LINE
  5
24E
330
1F
100
AcDbEntity
  8
0
  6
Continuous
 62
     7
370
    15
100
AcDbLine
 10
119.9206892967
 20
138.4588315052
 30
0.0
 11
119.4688060538
 21
138.4425463987
 31
0.0
  0
LINE
  5
24F
330
1F
100
AcDbEntity
  8
0
  6
Continuous
 62
     7
370
    15
100
AcDbLine
 10
119.4688060538
 20
138.4425463987
 30
0.0
 11
118.9549372981
 21
138.4337621642
 31
0.0
  0
LINE
  5
250
330
1F
100
AcDbEntity
  8
0
  6
Continuous
 62
     7
370
    15
100
AcDbLine
 10
133.5282378465
 20
142.2485153091
 30
0.0
 11
133.4896568775
 21
142.2290488047
 31
0.0
  0
LINE
  5
251
330
1F
100
AcDbEntity
  8
0
  6
Continuous
 62
     7
370
    15
100
AcDbLine
 10
118.9561236867
 20
196.4367761177
 30
0.0
 11
119.4688009897
 21
196.4280011964
 31
0.0
  0
LINE
  5
252
330
1F
100
AcDbEntity
  8
0
  6
Continuous
 62
     7
370
    15
100
AcDbLine
 10
119.4688009897
 20
196.4280011964
 30
0.0
 11
119.9206892967
 21
196.4117179525
 31
0.0
  0
LWPOLYLINE
  5
253
330
1F
100
AcDbEntity
  8
0
  6
Continuous
 62
     7
370
    15
100
AcDbPolyline
 90
        3
 70
   128
 43
0.0
 10
126.0096525408
 20
195.4867060197
 10
122.9768932432
 20
196.1093603534
 10
119.9206892967
 20
196.4117179525
  0
LINE
  5
254
330
1F
100
AcDbEntity
  8
0
  6
Continuous
 62
     7
370
    15
100
AcDbLine
 10
133.4896568775
 20
192.6415006531
 30
0.0
 11
133.5291244656
 21
192.6215852511
 31
0.0
  0
LINE
  5
255
330
1F
100
AcDbEntity
  8
0
  6
Continuous
 62
     7
370
    15
100
AcDbLine
 10
350.8636473313
 20
167.4491169763
 30
0.0
 11
352.291759719
 21
167.4491169763
 31
0.0
  0
LINE
  5
256
330
1F
100
AcDbEntity
  8
0
  6
Continuous
 62
     7
370
    15
100
AcDbLine
 10
133.7384867117
 20
192.5854275835
 30
0.0
 11
134.2580054522
 21
192.347305165
 31
0.0
  0
ARC
  5
257
330
1F
100
AcDbEntity
  8
0
  6
Continuous
 62
     7
370
    15
100
AcDbCircle
 10
152.3517281979
 20
230.6659871406
 30
0.0
 40
42.37575380269507
100
AcDbArc
 50
244.7237586527
 51
256.1328650364
  0
ARC
  5
258
330
1F
100
AcDbEntity
  8
0
  6
Continuous
 62
     7
370
    15
100
AcDbCircle
 10
150.6442055349
 20
225.4198670558
 30
0.0
 40
36.87547419086739
100
AcDbArc
 50
256.7550221926
 51
268.4876756119
  0
ARC
  5
259
330
1F
100
AcDbEntity
  8
0
  6
Continuous
 62
     7
370
    15
100
AcDbCircle
 10
150.6436689658
 20
109.4548239708
 30
0.0
 40
36.87131985691192
100
AcDbArc
 50
91.5116578416
 51
103.2456407175
  0
ARC
  5
25A
330
1F
100
AcDbEntity
  8
0
  6
Continuous
 62
     7
370
    15
100
AcDbCircle
 10
152.6146083783
 20
103.4651511694
 30
0.0
 40
43.15668765223577
100
AcDbArc
 50
103.9706938014
 51
115.1726825094
  0
LINE
  5
25B
330
1F
100
AcDbEntity
  8
0
  6
Continuous
 62
     7
370
    15
100
AcDbLine
 10
134.2580054522
 20
142.5232442928
 30
0.0
 11
133.7384867117
 21
142.2851218742
 31
0.0
  0
LWPOLYLINE
  5
25C
330
1F
100
AcDbEntity
  8
0
  6
Continuous
 62
     7
370
    15
100
AcDbPolyline
 90
        3
 70
   128
 43
0.0
 10
168.2655966476
 20
157.6055924309
 10
159.2613315776
 20
157.9452671942
 10
150.5258946315
 20
158.4913761255
  0
LWPOLYLINE
  5
25D
330
1F
100
AcDbEntity
  8
0
  6
Continuous
 62
     7
370
    15
100
AcDbPolyline
 90
        3
 70
   128
 43
0.0
 10
150.5258834556
 20
176.3791751948
 10
159.2613278523
 20
176.9252822635
 10
168.2655966476
 20
177.2649570269
  0
ARC
  5
25E
330
1F
100
AcDbEntity
  8
0
  6
Continuous
 62
     7
370
    15
100
AcDbCircle
 10
118.5745086827
 20
167.4509837749
 30
0.0
 40
28.42694822070602
100
AcDbArc
 50
180.0316642446
 51
270.2854386891
  0
ARC
  5
25F
330
1F
100
AcDbEntity
  8
0
  6
Continuous
 62
     7
370
    15
100
AcDbCircle
 10
118.5744959003
 20
167.419576686
 30
0.0
 40
28.426935431754
100
AcDbArc
 50
89.7145301758
 51
179.9683594876
  0
LWPOLYLINE
  5
260
330
1F
100
AcDbEntity
  8
0
  6
Continuous
 62
     7
370
    15
100
AcDbPolyline
 90
        3
 70
   128
 43
0.0
 10
147.7826746747
 20
167.4352748171
 10
147.5167150244
 20
171.3589567592
 10
146.7236565992
 20
175.2108519797
  0
LWPOLYLINE
  5
261
330
1F
100
AcDbEntity
  8
0
  6
Continuous
 62
     7
370
    15
100
AcDbPolyline
 90
        3
 70
   128
 43
0.0
 10
146.723621209
 20
159.6596234379
 10
147.5167187497
 20
163.5115512547
 10
147.7827063397
 20
167.4352743187
  0
ARC
  5
262
330
1F
100
AcDbEntity
  8
0
  6
Continuous
 62
     7
370
    15
100
AcDbCircle
 10
118.7098031006
 20
167.4359066367
 30
0.0
 40
29.00326983493345
100
AcDbArc
 50
180.0012490792
 51
270.4842682311
  0
ARC
  5
263
330
1F
100
AcDbEntity
  8
0
  6
Continuous
 62
     7
370
    15
100
AcDbCircle
 10
118.7074964251
 20
167.4369513338
 30
0.0
 40
29.00096320102587
100
AcDbArc
 50
89.5087921557
 51
180.0033131353
  0
LINE
  5
264
330
1F
100
AcDbEntity
  8
0
  6
Continuous
 62
     7
370
    15
100
AcDbLine
 10
162.248321493
 20
195.3908487124
 30
0.0
 11
157.2195409432
 21
195.5564099264
 31
0.0
  0
LINE
  5
265
330
1F
100
AcDbEntity
  8
0
  6
Continuous
 62
     7
370
    15
100
AcDbLine
 10
157.0978953138
 20
195.5186652851
 30
0.0
 11
157.2195670202
 21
195.5564099264
 31
0.0
  0
LINE
  5
266
330
1F
100
AcDbEntity
  8
0
  6
Continuous
 62
     7
370
    15
100
AcDbLine
 10
133.5192291632
 20
142.2179846925
 30
0.0
 11
133.9806715593
 21
142.4414741707
 31
0.0
  0
LINE
  5
267
330
1F
100
AcDbEntity
  8
0
  6
Continuous
 62
     7
370
    15
100
AcDbLine
 10
133.9806715593
 20
192.429075287
 30
0.0
 11
133.5196761981
 21
192.6523468358
 31
0.0
  0
LINE
  5
268
330
1F
100
AcDbEntity
  8
0
  6
Continuous
 62
     7
370
    15
100
AcDbLine
 10
148.0939468935
 20
163.4491167863
 30
0.0
 11
148.0939468935
 21
171.4491171663
 31
0.0
  0
LINE
  5
269
330
1F
100
AcDbEntity
  8
0
  6
Continuous
 62
     7
370
    15
100
AcDbLine
 10
89.6629212991
 20
167.4491169763
 30
0.0
 11
89.8182659045
 21
164.4514608563
 31
0.0
  0
LINE
  5
26A
330
1F
100
AcDbEntity
  8
0
  6
Continuous
 62
     7
370
    15
100
AcDbLine
 10
118.2122840589
 20
138.452617721
 30
0.0
 11
119.2124468841
 21
138.454323904
 31
0.0
  0
LWPOLYLINE
  5
26B
330
1F
100
AcDbEntity
  8
0
  6
Continuous
 62
     7
370
    15
100
AcDbPolyline
 90
        3
 70
   128
 43
0.0
 10
119.6948003823
 20
138.4674816293
 10
121.0577214703
 20
138.5481658292
 10
122.3148136966
 20
138.6799721879
  0
ARC
  5
26C
330
1F
100
AcDbEntity
  8
0
  6
Continuous
 62
     7
370
    15
100
AcDbCircle
 10
118.6629204646
 20
167.4491169763
 30
0.0
 40
29.00000000000001
100
AcDbArc
 50
61.2312232428
 51
83.1335178381
  0
LWPOLYLINE
  5
26D
330
1F
100
AcDbEntity
  8
0
  6
Continuous
 62
     7
370
    15
100
AcDbPolyline
 90
        3
 70
   128
 43
0.0
 10
121.0283678126
 20
196.3524839741
 10
117.8638445314
 20
196.4381060464
 10
117.0108939156
 20
196.4020228845
  0
LINE
  5
26E
330
1F
100
AcDbEntity
  8
0
  6
Continuous
 62
     7
370
    15
100
AcDbLine
 10
89.7619078502
 20
169.8431666375
 30
0.0
 11
89.6629212991
 21
167.4491169763
 31
0.0
  0
LINE
  5
26F
330
1F
100
AcDbEntity
  8
0
  6
Continuous
 62
     7
370
    15
100
AcDbLine
 10
148.8260912344
 20
167.4491169763
 30
0.0
 11
163.6629222527
 21
167.4491169763
 31
0.0
  0
LWPOLYLINE
  5
270
330
1F
100
AcDbEntity
  8
0
  6
Continuous
 62
     7
370
    15
100
AcDbPolyline
 90
        3
 70
   128
 43
0.0
 10
122.253752929
 20
196.2434614909
 10
122.2538334884
 20
196.3098945928
 10
122.2543906521
 20
196.3825470668
  0
LWPOLYLINE
  5
271
330
1F
100
AcDbEntity
  8
0
  6
Continuous
 62
     7
370
    15
100
AcDbPolyline
 90
        3
 70
   128
 43
0.0
 10
122.253752929
 20
138.6547724617
 10
122.2538334884
 20
138.5883393598
 10
122.2543906521
 20
138.5156868857
  0
LWPOLYLINE
  5
272
330
1F
100
AcDbEntity
  8
0
  6
Continuous
 62
     7
370
    15
100
AcDbPolyline
 90
        3
 70
   128
 43
0.0
 10
122.2543906521
 20
196.3825470668
 10
122.2544157978
 20
196.3839086604
 10
122.2544346571
 20
196.3849442911
  0
LWPOLYLINE
  5
273
330
1F
100
AcDbEntity
  8
0
  6
Continuous
 62
     7
370
    15
100
AcDbPolyline
 90
        3
 70
   128
 43
0.0
 10
157.2177565292
 20
139.3417737347
 10
139.7985561386
 20
138.8861334783
 10
122.253752929
 20
138.5145469469
  0
LINE
  5
274
330
1F
100
AcDbEntity
  8
0
  6
Continuous
 62
     7
370
    15
100
AcDbLine
 10
122.2544104427
 20
138.5145599854
 30
0.0
 11
122.2544150993
 21
138.5148598713
 31
0.0
  0
ARC
  5
275
330
1F
100
AcDbEntity
  8
0
  6
Continuous
 62
     7
370
     0
100
AcDbCircle
 10
203.1490637707
 20
167.4590526953
 30
0.0
 40
23.9169551765475
100
AcDbArc
 50
320.4482742701
 51
359.9430361047
  0
LWPOLYLINE
  5
276
330
1F
100
AcDbEntity
  8
0
  6
Continuous
 62
     7
370
     0
100
AcDbPolyline
 90
        8
 70
   128
 43
0.0
 10
228.8834943071
 20
167.4352755392
 10
228.8316531673
 20
167.4352698121
 10
228.6670176879
 20
167.4352640923
 10
228.4084825412
 20
167.4352610592
 10
228.0804334775
 20
167.435261081
 10
227.7224032775
 20
167.4352638568
 10
227.3746548787
 20
167.4352685789
 10
227.0660071269
 20
167.4352742823
  0
LWPOLYLINE
  5
277
330
1F
100
AcDbEntity
  8
0
  6
Continuous
 62
     7
370
     0
100
AcDbPolyline
 90
        8
 70
   128
 43
0.0
 10
221.5902327195
 20
152.2293438104
 10
221.823100616
 20
152.028812365
 10
222.0865009919
 20
151.830288851
 10
222.3605482474
 20
151.6543871624
 10
222.6185395017
 20
151.521917702
 10
222.8344051734
 20
151.4470188779
 10
222.9909567729
 20
151.4324883831
 10
223.0478494063
 20
151.4556410623
  0
ARC
  5
278
330
1F
100
AcDbEntity
  8
0
  6
Continuous
 62
     7
370
     0
100
AcDbCircle
 10
203.1546185074
 20
167.4134961352
 30
0.0
 40
23.91139853704695
100
AcDbArc
 50
0.0521841533
 51
39.5565055637
  0
LWPOLYLINE
  5
279
330
1F
100
AcDbEntity
  8
0
  6
Continuous
 62
     7
370
     0
100
AcDbPolyline
 90
        8
 70
   128
 43
0.0
 10
221.5902327195
 20
182.641204716
 10
221.8166633144
 20
182.8362236631
 10
222.0744236007
 20
183.0312612367
 10
222.3454980746
 20
183.2067186845
 10
222.6041971341
 20
183.341654287
 10
222.8238924041
 20
183.4204683912
 10
222.9854433432
 20
183.4383050812
 10
223.0480282202
 20
183.414627136
  0
LINE
  5
27A
330
1F
100
AcDbEntity
  8
0
  6
Continuous
 62
     7
370
     0
100
AcDbLine
 10
227.0660071269
 20
167.4352742823
 30
0.0
 11
220.5765216246
 21
167.4352742859
 31
0.0
  0
ARC
  5
27B
330
1F
100
AcDbEntity
  8
0
  6
Continuous
 62
     7
370
     0
100
AcDbCircle
 10
203.135482532
 20
167.4191296025
 30
0.0
 40
17.44104656486511
100
AcDbArc
 50
0.0530368331
 51
32.5692400863
  0
ARC
  5
27C
330
1F
100
AcDbEntity
  8
0
  6
Continuous
 62
     7
370
     0
100
AcDbCircle
 10
214.0464361797
 20
174.3350778185
 30
0.0
 40
4.523176481505742
100
AcDbArc
 50
33.1419403919
 51
88.8933311968
  0
LWPOLYLINE
  5
27D
330
1F
100
AcDbEntity
  8
0
  6
Continuous
 62
     7
370
     0
100
AcDbPolyline
 90
        3
 70
   128
 43
0.0
 10
214.1337959662
 20
178.857410596
 10
198.4080194131
 20
179.1299994004
 10
184.0223862425
 20
179.3787184072
  0
LWPOLYLINE
  5
27E
330
1F
100
AcDbEntity
  8
0
  6
Continuous
 62
     7
370
     0
100
AcDbPolyline
 90
        3
 70
   128
 43
0.0
 10
184.0223862425
 20
179.3787184072
 10
167.2361871794
 20
179.6123332245
 10
150.4552556768
 20
179.7976775927
  0
LINE
  5
27F
330
1F
100
AcDbEntity
  8
0
  6
Continuous
 62
     7
370
     0
100
AcDbLine
 10
153.194316347
 20
187.0667564583
 30
0.0
 11
150.4552556768
 21
179.7976775927
 31
0.0
  0
LWPOLYLINE
  5
280
330
1F
100
AcDbEntity
  8
0
  6
Continuous
 62
     7
370
     0
100
AcDbPolyline
 90
        7
 70
   128
 43
0.0
 10
153.194316347
 20
187.0667564583
 10
153.3123521701
 20
187.0629920525
 10
153.53852572
 20
187.0557426375
 10
154.315118362
 20
187.0298053038
 10
157.1644625262
 20
186.9226268393
 10
159.2435060635
 20
186.8381782335
 10
161.4018386796
 20
186.7493039829
  0
LINE
  5
281
330
1F
100
AcDbEntity
  8
0
  6
Continuous
 62
     7
370
     0
100
AcDbLine
 10
161.4018386796
 20
186.7493058455
 30
0.0
 11
172.1755980149
 21
186.2824133498
 31
0.0
  0
LINE
  5
282
330
1F
100
AcDbEntity
  8
0
  6
Continuous
 62
     7
370
     0
100
AcDbLine
 10
173.2562935546
 20
186.2348637444
 30
0.0
 11
172.1753931239
 21
186.2825232458
 31
0.0
  0
LWPOLYLINE
  5
283
330
1F
100
AcDbEntity
  8
0
  6
Continuous
 62
     7
370
     0
100
AcDbPolyline
 90
        3
 70
   128
 43
0.0
 10
173.2560849384
 20
186.2349755031
 10
196.5318961635
 20
185.0801559997
 10
219.1701500312
 20
183.8359872711
  0
ARC
  5
284
330
1F
100
AcDbEntity
  8
0
  6
Continuous
 62
     7
370
     0
100
AcDbCircle
 10
219.0178165465
 20
180.4790480538
 30
0.0
 40
3.360393786322707
100
AcDbArc
 50
40.047584938
 51
87.4017753787
  0
ARC
  5
285
330
1F
100
AcDbEntity
  8
0
  6
Continuous
 62
     7
370
     0
100
AcDbCircle
 10
203.2814839973
 20
167.4086942955
 30
0.0
 40
17.29505805197068
100
AcDbArc
 50
327.2896676541
 51
0.0880550608
  0
ARC
  5
286
330
1F
100
AcDbEntity
  8
0
  6
Continuous
 62
     7
370
     0
100
AcDbCircle
 10
219.0029711094
 20
154.4213123713
 30
0.0
 40
3.390965763763589
100
AcDbArc
 50
272.8261524017
 51
319.7282065914
  0
LWPOLYLINE
  5
287
330
1F
100
AcDbEntity
  8
0
  6
Continuous
 62
     7
370
     0
100
AcDbPolyline
 90
       26
 70
   128
 43
0.0
 10
219.1701649323
 20
151.034470917
 10
202.0477695957
 20
150.0827914936
 10
196.0937647715
 20
149.7674456698
 10
195.4185261026
 20
149.7322379512
 10
195.418518652
 20
149.7322379512
 10
195.4185037509
 20
149.7322360885
 10
195.4184888497
 20
149.7322360885
 10
195.4184441462
 20
149.7322323633
 10
195.4183547393
 20
149.732228638
 10
195.4181833759
 20
149.7322193247
 10
195.4178406492
 20
149.7322025609
 10
195.4171477452
 20
149.732165308
 10
195.4157693878
 20
149.7320945275
 10
195.413012673
 20
149.7319511038
 10
195.4074992433
 20
149.7316623938
 10
195.396472384
 20
149.7310886991
 10
195.3744261161
 20
149.7299394471
 10
195.3303186789
 20
149.727640943
 10
195.2421038047
 20
149.7230457974
 10
195.0656889573
 20
149.7138629568
 10
194.7128741637
 20
149.6955140394
 10
194.0073116317
 20
149.6588962984
 10
192.5964622393
 20
149.5859942299
 10
189.7758586899
 20
149.4416075659
 10
184.1389207736
 20
149.1586736304
 10
173.2560849384
 20
148.635572092
  0
LINE
  5
288
330
1F
100
AcDbEntity
  8
0
  6
Continuous
 62
     7
370
     0
100
AcDbLine
 10
172.1753931239
 20
148.5880243492
 30
0.0
 11
173.2562935546
 21
148.6356838507
 31
0.0
  0
LINE
  5
289
330
1F
100
AcDbEntity
  8
0
  6
Continuous
 62
     7
370
     0
100
AcDbLine
 10
172.1755980149
 20
148.5881342453
 30
0.0
 11
161.4018386796
 21
148.1212436122
 31
0.0
  0
LWPOLYLINE
  5
28A
330
1F
100
AcDbEntity
  8
0
  6
Continuous
 62
     7
370
     0
100
AcDbPolyline
 90
        3
 70
   128
 43
0.0
 10
153.194316347
 20
147.8037929994
 10
157.1598878697
 20
147.9477419418
 10
161.4018386796
 20
148.1212436122
  0
LINE
  5
28B
330
1F
100
AcDbEntity
  8
0
  6
Continuous
 62
     7
370
     0
100
AcDbLine
 10
150.4552556768
 20
155.0728709337
 30
0.0
 11
153.194316347
 21
147.8037929994
 31
0.0
  0
LWPOLYLINE
  5
28C
330
1F
100
AcDbEntity
  8
0
  6
Continuous
 62
     7
370
     0
100
AcDbPolyline
 90
        3
 70
   128
 43
0.0
 10
150.4552556768
 20
155.0728709337
 10
167.2361871794
 20
155.258215302
 10
184.0223862425
 20
155.4918301192
  0
LWPOLYLINE
  5
28D
330
1F
100
AcDbEntity
  8
0
  6
Continuous
 62
     7
370
     0
100
AcDbPolyline
 90
        3
 70
   128
 43
0.0
 10
184.0223862425
 20
155.4918301192
 10
198.4080790177
 20
155.7405286369
 10
214.1337959662
 20
156.0131379304
  0
ARC
  5
28E
330
1F
100
AcDbEntity
  8
0
  6
Continuous
 62
     7
370
     0
100
AcDbCircle
 10
214.0535222018
 20
160.5226779008
 30
0.0
 40
4.510254385534207
100
AcDbArc
 50
271.0198073925
 51
326.9449210189
  0
ARC
  5
28F
330
1F
100
AcDbEntity
  8
0
  6
Continuous
 62
     7
370
     0
100
AcDbCircle
 10
203.891653996
 20
167.4374547051
 30
0.0
 40
15.72602276041486
100
AcDbArc
 50
327.0233225362
 51
359.9920556628
  0
LWPOLYLINE
  5
290
330
1F
100
AcDbEntity
  8
0
  6
Continuous
 62
     7
370
     0
100
AcDbPolyline
 90
        5
 70
   128
 43
0.0
 10
220.5765216246
 20
167.4352733674
 10
220.213350524
 20
167.4352735702
 10
219.9071540132
 20
167.4352737985
 10
219.7025387183
 20
167.4352740231
 10
219.6176766053
 20
167.4352742159
  0
ARC
  5
291
330
1F
100
AcDbEntity
  8
0
  6
Continuous
 62
     7
370
     0
100
AcDbCircle
 10
218.5783736173
 20
159.4996397047
 30
0.0
 40
1.618500093829451
100
AcDbArc
 50
202.5939173901
 51
242.6097236067
  0
ARC
  5
292
330
1F
100
AcDbEntity
  8
0
  6
Continuous
 62
     7
370
     0
100
AcDbCircle
 10
203.8822936914
 20
167.4303244029
 30
0.0
 40
15.73538369241802
100
AcDbArc
 50
0.0180232912
 51
32.9665913755
  0
ARC
  5
293
330
1F
100
AcDbEntity
  8
0
  6
Continuous
 62
     7
370
     0
100
AcDbCircle
 10
218.5976980028
 20
175.35315642
 30
0.0
 40
1.643185511299548
100
AcDbArc
 50
117.703924339
 51
157.0935238904
  0
ARC
  5
294
330
1F
100
AcDbEntity
  8
0
  6
Continuous
 62
     7
370
     0
100
AcDbCircle
 10
220.6090695956
 20
183.9931462956
 30
0.0
 40
1.447476587732303
100
AcDbArc
 50
131.9479604352
 51
186.2331473769
  0
LINE
  5
295
330
1F
100
AcDbEntity
  8
0
  6
Continuous
 62
     7
370
     0
100
AcDbLine
 10
219.6414961115
 20
185.0697102857
 30
0.0
 11
220.6009073749
 21
184.9288812739
 31
0.0
  0
LWPOLYLINE
  5
296
330
1F
100
AcDbEntity
  8
0
  6
Continuous
 62
     7
370
     0
100
AcDbPolyline
 90
        6
 70
   128
 43
0.0
 10
219.1701649323
 20
151.034470917
 10
219.2323698297
 20
150.5796111089
 10
219.3430482045
 20
150.1779614848
 10
219.4196699754
 20
150.0117055041
 10
219.5153279796
 20
149.877077238
 10
219.6414961115
 20
149.800839172
  0
LINE
  5
297
330
1F
100
AcDbEntity
  8
0
  6
Continuous
 62
     7
370
     0
100
AcDbLine
 10
219.6414961115
 20
149.800839172
 30
0.0
 11
220.5995960727
 21
149.9414744687
 31
0.0
  0
LINE
  5
298
330
1F
100
AcDbEntity
  8
0
  6
Continuous
 62
     7
370
     0
100
AcDbLine
 10
219.0099998012
 20
185.2238236827
 30
0.0
 11
219.6414886609
 21
185.0694904936
 31
0.0
  0
LINE
  5
299
330
1F
100
AcDbEntity
  8
0
  6
Continuous
 62
     7
370
     0
100
AcDbLine
 10
219.9402047888
 20
185.0808619422
 30
0.0
 11
219.0099998012
 21
185.2238739741
 31
0.0
  0
LINE
  5
29A
330
1F
100
AcDbEntity
  8
0
  6
Continuous
 62
     7
370
     0
100
AcDbLine
 10
219.0102009669
 20
149.6466941101
 30
0.0
 11
219.6414886609
 21
149.8010589642
 31
0.0
  0
ARC
  5
29B
330
1F
100
AcDbEntity
  8
0
  6
Continuous
 62
     7
370
     0
100
AcDbCircle
 10
215.853963958
 20
178.4946384454
 30
0.0
 40
1.757997702169048
100
AcDbArc
 50
168.0911512204
 51
220.3881287224
  0
ARC
  5
29C
330
1F
100
AcDbEntity
  8
0
  6
Continuous
 62
     7
370
     0
100
AcDbCircle
 10
214.5253253177
 20
174.272005146
 30
0.0
 40
3.083534884254699
100
AcDbArc
 50
33.9201629039
 51
90.1928732217
  0
ARC
  5
29D
330
1F
100
AcDbEntity
  8
0
  6
Continuous
 62
     7
370
     0
100
AcDbCircle
 10
215.8472694475
 20
156.3776070908
 30
0.0
 40
1.75180739235788
100
AcDbArc
 50
139.5124300246
 51
192.0082900327
  0
ARC
  5
29E
330
1F
100
AcDbEntity
  8
0
  6
Continuous
 62
     7
370
     0
100
AcDbCircle
 10
214.5440855546
 20
160.5631763879
 30
0.0
 40
3.048289707556546
100
AcDbArc
 50
269.4522705603
 51
326.4346933141
  0
LINE
  5
29F
330
1F
100
AcDbEntity
  8
0
  6
Continuous
 62
     7
370
     0
100
AcDbLine
 10
218.861010541
 20
167.4352742796
 30
0.0
 11
219.6176766053
 21
167.4352742796
 31
0.0
  0
LINE
  5
2A0
330
1F
100
AcDbEntity
  8
0
  6
Continuous
 62
     7
370
     0
100
AcDbLine
 10
216.5074391857
 20
175.5927645502
 30
0.0
 11
217.0840917721
 21
175.9927322057
 31
0.0
  0
LINE
  5
2A1
330
1F
100
AcDbEntity
  8
0
  6
Continuous
 62
     7
370
     0
100
AcDbLine
 10
216.5074391857
 20
159.2777839762
 30
0.0
 11
217.0840917721
 21
158.8778163207
 31
0.0
  0
ARC
  5
2A2
330
1F
100
AcDbEntity
  8
0
  6
Continuous
 62
     7
370
     0
100
AcDbCircle
 10
174.5307509206
 20
148.5271996951
 30
0.0
 40
1.279287068395494
100
AcDbArc
 50
175.0564078154
 51
229.6781093322
  0
LWPOLYLINE
  5
2A3
330
1F
100
AcDbEntity
  8
0
  6
Continuous
 62
     7
370
     0
100
AcDbPolyline
 90
       14
 70
   128
 43
0.0
 10
173.702501376
 20
147.5493836117
 10
176.4863959149
 20
147.6707759214
 10
178.9422972694
 20
147.779533909
 10
181.0702277914
 20
147.8749926103
 10
183.2101462975
 20
147.9720643622
 10
186.3419605985
 20
148.1161232007
 10
189.6257890955
 20
148.2697932881
 10
193.0616317883
 20
148.4334899944
 10
196.9471468225
 20
148.6222355527
 10
201.5626175895
 20
148.8514265877
 10
206.1397849217
 20
149.0840504778
 10
210.6786562696
 20
149.3199582112
 10
215.1792241827
 20
149.559008227
 10
219.6414886609
 20
149.8010589642
  0
ARC
  5
2A4
330
1F
100
AcDbEntity
  8
0
  6
Continuous
 62
     7
370
     0
100
AcDbCircle
 10
174.530785558
 20
186.3433321137
 30
0.0
 40
1.279323928117539
100
AcDbArc
 50
130.3227431013
 51
184.9427397511
  0
LWPOLYLINE
  5
2A5
330
1F
100
AcDbEntity
  8
0
  6
Continuous
 62
     7
370
     0
100
AcDbPolyline
 90
        9
 70
   128
 43
0.0
 10
173.7025237277
 20
187.3211639834
 10
183.3353905574
 20
186.8928673578
 10
184.7314058438
 20
186.828874321
 10
186.0954506889
 20
186.7658833874
 10
187.4275176421
 20
186.7039373976
 10
189.1360549823
 20
186.6238566947
 10
192.2900869146
 20
186.4740851236
 10
206.1478240982
 20
185.7860798848
 10
219.6414886609
 20
185.0694904936
  0
ARC
  5
2A6
330
1F
100
AcDbEntity
  8
0
  6
Continuous
 62
     7
370
     0
100
AcDbCircle
 10
213.8361490944
 20
173.8299790162
 30
0.0
 40
3.200500521934835
100
AcDbArc
 50
33.4208379017
 51
90.5239973712
  0
LINE
  5
2A7
330
1F
100
AcDbEntity
  8
0
  6
Continuous
 62
     7
370
     0
100
AcDbLine
 10
213.8068793908
 20
177.0303456945
 30
0.0
 11
214.5149453178
 21
177.3555225593
 31
0.0
  0
ARC
  5
2A8
330
1F
100
AcDbEntity
  8
0
  6
Continuous
 62
     7
370
     0
100
AcDbCircle
 10
213.8361502105
 20
161.0405674134
 30
0.0
 40
3.200498435422225
100
AcDbArc
 50
269.4759823041
 51
326.5791824229
  0
LINE
  5
2A9
330
1F
100
AcDbEntity
  8
0
  6
Continuous
 62
     7
370
     0
100
AcDbLine
 10
213.8068793908
 20
157.840202832
 30
0.0
 11
214.5149453178
 21
157.5150268984
 31
0.0
  0
ARC
  5
2AA
330
1F
100
AcDbEntity
  8
0
  6
Continuous
 62
     7
370
     0
100
AcDbCircle
 10
185.6481219606
 20
178.9897750512
 30
0.0
 40
1.671614058123675
100
AcDbArc
 50
166.5453689324
 51
223.309575186
  0
LINE
  5
2AB
330
1F
100
AcDbEntity
  8
0
  6
Continuous
 62
     7
370
     0
100
AcDbLine
 10
214.5149453178
 20
177.3555225593
 30
0.0
 11
184.4317583934
 21
177.8431481582
 31
0.0
  0
ARC
  5
2AC
330
1F
100
AcDbEntity
  8
0
  6
Continuous
 62
     7
370
     0
100
AcDbCircle
 10
185.6484223722
 20
155.8806933876
 30
0.0
 40
1.671887596884194
100
AcDbArc
 50
136.6954895231
 51
193.4495663585
  0
LWPOLYLINE
  5
2AD
330
1F
100
AcDbEntity
  8
0
  6
Continuous
 62
     7
370
     0
100
AcDbPolyline
 90
       25
 70
   128
 43
0.0
 10
214.5149453178
 20
157.5150268984
 10
206.9910137549
 20
157.3916220007
 10
200.2822576657
 20
157.2824840334
 10
199.4691012994
 20
157.2692331758
 10
199.4690863982
 20
157.2692331758
 10
199.469071497
 20
157.2692331758
 10
199.4690416947
 20
157.2692322445
 10
199.4689820901
 20
157.2692313132
 10
199.4688554302
 20
157.2692294506
 10
199.4686170116
 20
157.2692257253
 10
199.4681327239
 20
157.2692173434
 10
199.4671641484
 20
157.2692015109
 10
199.4652269974
 20
157.2691698459
 10
199.461345245
 20
157.2691074473
 10
199.4535966411
 20
157.2689807874
 10
199.4380919829
 20
157.2687274677
 10
199.4071050182
 20
157.2682217595
 10
199.3451534405
 20
157.2672112745
 10
199.221414198
 20
157.2651921672
 10
198.9745466605
 20
157.2611632657
 10
198.4832702771
 20
157.2531371278
 10
197.5105448261
 20
157.2372152371
 10
195.6043882862
 20
157.2058641252
 10
191.9493942157
 20
157.1453374711
 10
184.4317583934
 20
157.0274003682
  0
LINE
  5
2AE
330
1F
100
AcDbEntity
  8
0
  6
Continuous
 62
     7
370
     0
100
AcDbLine
 10
173.7050084964
 20
147.3040266794
 30
0.0
 11
173.7024641231
 21
147.5512723339
 31
0.0
  0
LINE
  5
2AF
330
1F
100
AcDbEntity
  8
0
  6
Continuous
 62
     7
370
     0
100
AcDbLine
 10
173.7048967376
 20
187.5683369947
 30
0.0
 11
173.7025237277
 21
187.3211639834
 31
0.0
  0
LINE
  5
2B0
330
1F
100
AcDbEntity
  8
0
  6
Continuous
 62
     7
370
     0
100
AcDbLine
 10
186.2462131873
 20
177.4673399416
 30
0.0
 11
185.903270413
 21
177.564427526
 31
0.0
  0
LINE
  5
2B1
330
1F
100
AcDbEntity
  8
0
  6
Continuous
 62
     7
370
     0
100
AcDbLine
 10
184.4317583934
 20
177.8431481582
 30
0.0
 11
185.903270413
 21
177.564427526
 31
0.0
  0
LINE
  5
2B2
330
1F
100
AcDbEntity
  8
0
  6
Continuous
 62
     7
370
     0
100
AcDbLine
 10
184.4317583934
 20
157.0274003682
 30
0.0
 11
185.903270413
 21
157.3061210004
 31
0.0
  0
LINE
  5
2B3
330
1F
100
AcDbEntity
  8
0
  6
Continuous
 62
     7
370
     0
100
AcDbLine
 10
185.903270413
 20
157.3061210004
 30
0.0
 11
186.2462131873
 21
157.4032076535
 31
0.0
  0
LWPOLYLINE
  5
2B4
330
1F
100
AcDbEntity
  8
0
  6
Continuous
 62
     7
370
     0
100
AcDbPolyline
 90
        3
 70
   128
 43
0.0
 10
213.894580175
 20
177.0425618527
 10
213.8729287878
 20
177.030064435
 10
213.8068793908
 20
177.0303456945
  0
LINE
  5
2B5
330
1F
100
AcDbEntity
  8
0
  6
Continuous
 62
     7
370
     0
100
AcDbLine
 10
213.8947440878
 20
157.817261563
 30
0.0
 11
213.8068793908
 21
157.840202832
 31
0.0
  0
ARC
  5
2B6
330
1F
100
AcDbEntity
  8
0
  6
Continuous
 62
     7
370
     0
100
AcDbCircle
 10
152.3541065885
 20
179.412888188
 30
0.0
 40
1.937446172378523
100
AcDbArc
 50
168.5445171875
 51
218.3103072922
  0
LWPOLYLINE
  5
2B7
330
1F
100
AcDbEntity
  8
0
  6
Continuous
 62
     7
370
     0
100
AcDbPolyline
 90
        6
 70
   128
 43
0.0
 10
150.8338606551
 20
178.2118289632
 10
158.9106364742
 20
178.1421855924
 10
165.8378808394
 20
178.0711769027
 10
171.9476363257
 20
178.0019330693
 10
178.1445189014
 20
177.9259231773
 10
184.4317583934
 20
177.8431481582
  0
ARC
  5
2B8
330
1F
100
AcDbEntity
  8
0
  6
Continuous
 62
     7
370
     0
100
AcDbCircle
 10
152.3541065885
 20
155.4576603384
 30
0.0
 40
1.937446172378523
100
AcDbArc
 50
141.6896927078
 51
191.4554828125
  0
LWPOLYLINE
  5
2B9
330
1F
100
AcDbEntity
  8
0
  6
Continuous
 62
     7
370
     0
100
AcDbPolyline
 90
        6
 70
   128
 43
0.0
 10
150.8338606551
 20
156.6587214259
 10
157.1737869278
 20
156.7118440655
 10
164.9205020264
 20
156.7894297552
 10
171.414111425
 20
156.8623346177
 10
177.8661316827
 20
156.9410919112
 10
184.4317583934
 20
157.0274003682
  0
LWPOLYLINE
  5
2BA
330
1F
100
AcDbEntity
  8
0
  6
Continuous
 62
     7
370
     0
100
AcDbPolyline
 90
        5
 70
   128
 43
0.0
 10
185.903270413
 20
177.564427526
 10
175.8682100669
 20
177.6876340521
 10
166.4702898458
 20
177.7742694033
 10
157.3916903332
 20
177.8380137769
 10
148.3859165207
 20
177.8915508551
  0
ARC
  5
2BB
330
1F
100
AcDbEntity
  8
0
  6
Continuous
 62
     7
370
     0
100
AcDbCircle
 10
146.5191143549
 20
171.5366730987
 30
0.0
 40
6.623399551917273
100
AcDbArc
 50
73.629377464
 51
84.9641282017
  0
LINE
  5
2BC
330
1F
100
AcDbEntity
  8
0
  6
Continuous
 62
     7
370
     0
100
AcDbLine
 10
150.8338606551
 20
178.2118261692
 30
0.0
 11
145.9845422402
 21
178.239340232
 31
0.0
  0
LINE
  5
2BD
330
1F
100
AcDbEntity
  8
0
  6
Continuous
 62
     7
370
     0
100
AcDbLine
 10
145.9845441029
 20
156.6312082944
 30
0.0
 11
150.8338606551
 21
156.6587223572
 31
0.0
  0
ARC
  5
2BE
330
1F
100
AcDbEntity
  8
0
  6
Continuous
 62
     7
370
     0
100
AcDbCircle
 10
146.5190665122
 20
163.3341374648
 30
0.0
 40
6.623664450172535
100
AcDbArc
 50
275.0360529815
 51
286.3703807471
  0
LWPOLYLINE
  5
2BF
330
1F
100
AcDbEntity
  8
0
  6
Continuous
 62
     7
370
     0
100
AcDbPolyline
 90
        5
 70
   128
 43
0.0
 10
185.903270413
 20
157.3061210004
 10
175.8682100669
 20
157.182913543
 10
166.4702898458
 20
157.0962781918
 10
157.3916903332
 20
157.0325347495
 10
148.3859165207
 20
156.9789976713
  0
ARC
  5
2C0
330
1F
100
AcDbEntity
  8
0
  6
Continuous
 62
     7
370
     0
100
AcDbCircle
 10
173.4469565094
 20
148.4783408233
 30
0.0
 40
1.27620675364298
100
AcDbArc
 50
175.0991789749
 51
229.7197314421
  0
LINE
  5
2C1
330
1F
100
AcDbEntity
  8
0
  6
Continuous
 62
     7
370
     0
100
AcDbLine
 10
172.830705215
 20
147.5142485363
 30
0.0
 11
172.6218691662
 21
147.5053804827
 31
0.0
  0
ARC
  5
2C2
330
1F
100
AcDbEntity
  8
0
  6
Continuous
 62
     7
370
     0
100
AcDbCircle
 10
173.4470590299
 20
186.3921853983
 30
0.0
 40
1.276303362002934
100
AcDbArc
 50
130.2841605049
 51
184.8994861378
  0
LINE
  5
2C3
330
1F
100
AcDbEntity
  8
0
  6
Continuous
 62
     7
370
     0
100
AcDbLine
 10
172.8309212819
 20
187.3566790384
 30
0.0
 11
172.6218579903
 21
187.3658078623
 31
0.0
  0
ARC
  5
2C4
330
1F
100
AcDbEntity
  8
0
  6
Continuous
 62
     7
370
     0
100
AcDbCircle
 10
162.6211857458
 20
148.0193853183
 30
0.0
 40
1.223594042051688
100
AcDbArc
 50
175.2248771581
 51
230.2805336975
  0
LINE
  5
2C5
330
1F
100
AcDbEntity
  8
0
  6
Continuous
 62
     7
370
     0
100
AcDbLine
 10
161.8392734423
 20
147.0781884057
 30
0.0
 11
172.6218654409
 21
147.5054549885
 31
0.0
  0
ARC
  5
2C6
330
1F
100
AcDbEntity
  8
0
  6
Continuous
 62
     7
370
     0
100
AcDbCircle
 10
162.6211786509
 20
186.8511654342
 30
0.0
 40
1.223587079615234
100
AcDbArc
 50
129.7193052418
 51
184.7752109165
  0
LINE
  5
2C7
330
1F
100
AcDbEntity
  8
0
  6
Continuous
 62
     7
370
     0
100
AcDbLine
 10
172.6218430892
 20
187.3650926066
 30
0.0
 11
161.8392734423
 21
187.7923591894
 31
0.0
  0
LINE
  5
2C8
330
1F
100
AcDbEntity
  8
0
  6
Continuous
 62
     7
370
     0
100
AcDbLine
 10
148.3859165207
 20
156.9789976713
 30
0.0
 11
148.6969689474
 21
157.1742615563
 31
0.0
  0
LINE
  5
2C9
330
1F
100
AcDbEntity
  8
0
  6
Continuous
 62
     7
370
     0
100
AcDbLine
 10
148.7792494342
 20
157.4834420246
 30
0.0
 11
148.6969670847
 21
157.1742978779
 31
0.0
  0
LWPOLYLINE
  5
2CA
330
1F
100
AcDbEntity
  8
0
  6
Continuous
 62
     7
370
     0
100
AcDbPolyline
 90
       10
 70
   128
 43
0.0
 10
168.2655929223
 20
157.6056250272
 10
165.6746423438
 20
157.5849105505
 10
163.9036765888
 20
157.5717155722
 10
162.4591840997
 20
157.5616815028
 10
160.7081225708
 20
157.5505801377
 10
158.893604447
 20
157.5399556098
 10
157.1849590734
 20
157.529897326
 10
154.1158972874
 20
157.5113109213
 10
151.3992107108
 20
157.4963324604
 10
148.7792494342
 20
157.4834410933
  0
LWPOLYLINE
  5
2CB
330
1F
100
AcDbEntity
  8
0
  6
Continuous
 62
     7
370
     0
100
AcDbPolyline
 90
        6
 70
   128
 43
0.0
 10
185.9032778636
 20
157.4029738915
 10
182.2394772068
 20
157.4079993081
 10
178.7109381154
 20
157.4274555681
 10
175.0947950974
 20
157.4659573746
 10
171.4983439639
 20
157.5271443364
 10
168.2655929223
 20
157.6056250272
  0
LINE
  5
2CC
330
1F
100
AcDbEntity
  8
0
  6
Continuous
 62
     7
370
     0
100
AcDbLine
 10
185.9032778636
 20
157.4030176637
 30
0.0
 11
185.903270413
 21
157.3061210004
 31
0.0
  0
LINE
  5
2CD
330
1F
100
AcDbEntity
  8
0
  6
Continuous
 62
     7
370
     0
100
AcDbLine
 10
148.6969670847
 20
177.6962506485
 30
0.0
 11
148.7792606101
 21
177.3870506224
 31
0.0
  0
LINE
  5
2CE
330
1F
100
AcDbEntity
  8
0
  6
Continuous
 62
     7
370
     0
100
AcDbLine
 10
148.6969689474
 20
177.6962869701
 30
0.0
 11
148.3859165207
 21
177.8915508551
 31
0.0
  0
LINE
  5
2CF
330
1F
100
AcDbEntity
  8
0
  6
Continuous
 62
     7
370
     0
100
AcDbLine
 10
185.903270413
 20
177.564427526
 30
0.0
 11
185.9032778636
 21
177.467531794
 31
0.0
  0
LWPOLYLINE
  5
2D0
330
1F
100
AcDbEntity
  8
0
  6
Continuous
 62
     7
370
     0
100
AcDbPolyline
 90
        6
 70
   128
 43
0.0
 10
168.2655929223
 20
177.2649234993
 10
171.4983625904
 20
177.34340419
 10
175.0948099986
 20
177.4045911518
 10
178.7110014454
 20
177.4430938897
 10
182.2395219103
 20
177.4625501496
 10
185.9032778636
 20
177.4675746349
  0
LWPOLYLINE
  5
2D1
330
1F
100
AcDbEntity
  8
0
  6
Continuous
 62
     7
370
     0
100
AcDbPolyline
 90
        8
 70
   128
 43
0.0
 10
148.7792606101
 20
177.3870506224
 10
152.2456227437
 20
177.3697187093
 10
155.798197408
 20
177.3491066781
 10
159.4136996761
 20
177.3276508686
 10
161.5746772483
 20
177.3146011767
 10
163.4685589567
 20
177.3019398463
 10
165.2996322706
 20
177.2884971363
 10
168.2655929223
 20
177.2649234993
  0
LINE
  5
2D2
330
1F
100
AcDbEntity
  8
0
  6
Continuous
 62
     7
370
     0
100
AcDbLine
 10
172.6218691662
 20
147.5053804827
 30
0.0
 11
172.6619197622
 21
147.2564472717
 31
0.0
  0
LINE
  5
2D3
330
1F
100
AcDbEntity
  8
0
  6
Continuous
 62
     7
370
     0
100
AcDbLine
 10
172.6618862346
 20
187.6140984607
 30
0.0
 11
172.6218468145
 21
187.365168975
 31
0.0
  0
LINE
  5
2D4
330
1F
100
AcDbEntity
  8
0
  6
Continuous
 62
     7
370
     0
100
AcDbLine
 10
161.8518500224
 20
188.0912224663
 30
0.0
 11
161.8392734423
 21
187.7923591894
 31
0.0
  0
LINE
  5
2D5
330
1F
100
AcDbEntity
  8
0
  6
Continuous
 62
     7
370
     0
100
AcDbLine
 10
161.8392734423
 20
147.0781884057
 30
0.0
 11
161.8517606154
 21
146.7793381673
 31
0.0
  0
ARC
  5
2D6
330
1F
100
AcDbEntity
  8
0
  6
Continuous
 62
     7
370
     0
100
AcDbCircle
 10
154.3861616729
 20
187.1689443321
 30
0.0
 40
1.196218058053055
100
AcDbArc
 50
130.2393382124
 51
184.9005099529
  0
LINE
  5
2D7
330
1F
100
AcDbEntity
  8
0
  6
Continuous
 62
     7
370
     0
100
AcDbLine
 10
161.8392734423
 20
187.7923219365
 30
0.0
 11
153.6134264067
 21
188.082095505
 31
0.0
  0
ARC
  5
2D8
330
1F
100
AcDbEntity
  8
0
  6
Continuous
 62
     7
370
     0
100
AcDbCircle
 10
154.3861618418
 20
147.7016035202
 30
0.0
 40
1.196218363571597
100
AcDbArc
 50
175.0994141242
 51
229.7606635677
  0
LINE
  5
2D9
330
1F
100
AcDbEntity
  8
0
  6
Continuous
 62
     7
370
     0
100
AcDbLine
 10
153.6134264067
 20
146.7884520901
 30
0.0
 11
161.8392734423
 21
147.0782275212
 31
0.0
  0
LINE
  5
2DA
330
1F
100
AcDbEntity
  8
0
  6
Continuous
 62
     7
370
     0
100
AcDbLine
 10
150.2331017152
 20
146.7180347902
 30
0.0
 11
153.6134264067
 21
146.7884520901
 31
0.0
  0
LINE
  5
2DB
330
1F
100
AcDbEntity
  8
0
  6
Continuous
 62
     7
370
     0
100
AcDbLine
 10
150.2331017152
 20
146.7180347902
 30
0.0
 11
149.6709907994
 21
146.3134403241
 31
0.0
  0
LINE
  5
2DC
330
1F
100
AcDbEntity
  8
0
  6
Continuous
 62
     7
370
     0
100
AcDbLine
 10
153.6134264067
 20
188.082095505
 30
0.0
 11
150.2331054404
 21
188.1525146675
 31
0.0
  0
LINE
  5
2DD
330
1F
100
AcDbEntity
  8
0
  6
Continuous
 62
     7
370
     0
100
AcDbLine
 10
149.6709907994
 20
188.557107271
 30
0.0
 11
150.2331054404
 21
188.1525146675
 31
0.0
  0
LINE
  5
2DE
330
1F
100
AcDbEntity
  8
0
  6
Continuous
 62
     7
370
     0
100
AcDbLine
 10
119.4127709938
 20
139.0335003746
 30
0.0
 11
118.9549275193
 21
138.4337621642
 31
0.0
  0
ARC
  5
2DF
330
1F
100
AcDbEntity
  8
0
  6
Continuous
 62
     7
370
     0
100
AcDbCircle
 10
118.4075817753
 20
176.3216284921
 30
0.0
 40
37.30167427703535
100
AcDbArc
 50
271.5441685564
 51
291.6214212713
  0
LINE
  5
2E0
330
1F
100
AcDbEntity
  8
0
  6
Continuous
 62
     7
370
     0
100
AcDbLine
 10
132.1522096738
 20
141.6445451689
 30
0.0
 11
134.5331749514
 21
142.7555869234
 31
0.0
  0
LINE
  5
2E1
330
1F
100
AcDbEntity
  8
0
  6
Continuous
 62
     7
370
     0
100
AcDbLine
 10
134.5331861273
 20
142.7555831981
 30
0.0
 11
133.5282378465
 21
142.2485153091
 31
0.0
  0
LINE
  5
2E2
330
1F
100
AcDbEntity
  8
0
  6
Continuous
 62
     7
370
     0
100
AcDbLine
 10
133.5291244656
 20
192.6215852511
 30
0.0
 11
134.5331861273
 21
192.1149662596
 31
0.0
  0
LINE
  5
2E3
330
1F
100
AcDbEntity
  8
0
  6
Continuous
 62
     7
370
     0
100
AcDbLine
 10
134.533182402
 20
192.1149588091
 30
0.0
 11
132.1522096738
 21
193.2260024262
 31
0.0
  0
ARC
  5
2E4
330
1F
100
AcDbEntity
  8
0
  6
Continuous
 62
     7
370
     0
100
AcDbCircle
 10
118.3655375459
 20
158.3437961039
 30
0.0
 40
37.50787445689191
100
AcDbArc
 50
68.434329063
 51
88.4001246586
  0
LINE
  5
2E5
330
1F
100
AcDbEntity
  8
0
  6
Continuous
 62
     7
370
     0
100
AcDbLine
 10
118.9561236285
 20
196.4367761177
 30
0.0
 11
119.4127372916
 21
195.8370490831
 31
0.0
  0
LINE
  5
2E6
330
1F
100
AcDbEntity
  8
0
  6
Continuous
 62
     7
370
     0
100
AcDbLine
 10
145.9845422402
 20
178.2393393007
 30
0.0
 11
145.5187356666
 21
178.2554586318
 31
0.0
  0
LWPOLYLINE
  5
2E7
330
1F
100
AcDbEntity
  8
0
  6
Continuous
 62
     7
370
     0
100
AcDbPolyline
 90
        3
 70
   128
 43
0.0
 10
129.5528175876
 20
179.8200870765
 10
137.5935623989
 20
178.8803248567
 10
145.5187356666
 20
178.2554595632
  0
LWPOLYLINE
  5
2E8
330
1F
100
AcDbEntity
  8
0
  6
Continuous
 62
     7
370
     0
100
AcDbPolyline
 90
        5
 70
   128
 43
0.0
 10
150.4552556768
 20
179.7976775927
 10
145.3488940939
 20
179.8024962557
 10
140.1314294532
 20
179.8085507837
 10
134.2922716037
 20
179.8156623629
 10
129.5528175876
 20
179.8200870765
  0
LWPOLYLINE
  5
2E9
330
1F
100
AcDbEntity
  8
0
  6
Continuous
 62
     7
370
     0
100
AcDbPolyline
 90
        3
 70
   128
 43
0.0
 10
129.5528166562
 20
155.0504689005
 10
137.5935605362
 20
155.990230189
 10
145.5187338039
 20
156.6150898946
  0
LINE
  5
2EA
330
1F
100
AcDbEntity
  8
0
  6
Continuous
 62
     7
370
     0
100
AcDbLine
 10
145.9845441029
 20
156.6312082944
 30
0.0
 11
145.5187338039
 21
156.6150898946
 31
0.0
  0
LWPOLYLINE
  5
2EB
330
1F
100
AcDbEntity
  8
0
  6
Continuous
 62
     7
370
     0
100
AcDbPolyline
 90
       11
 70
   128
 43
0.0
 10
129.5528175876
 20
155.05046145
 10
131.9903337032
 20
155.0525718269
 10
133.6865114614
 20
155.0543394772
 10
134.6389806464
 20
155.0554086355
 10
135.4850238755
 20
155.0561779079
 10
136.9668046579
 20
155.0577164528
 10
138.445836176
 20
155.0595725787
 10
139.9210567221
 20
155.0616801617
 10
141.3912313625
 20
155.0638650444
 10
145.96840242
 20
155.0694203836
 10
150.4552556768
 20
155.0728709337
  0
ARC
  5
2EC
330
1F
100
AcDbEntity
  8
0
  6
Continuous
 62
     7
370
     0
100
AcDbCircle
 10
246.9847419202
 20
165.4661586199
 30
0.0
 40
118.3059259488051
100
AcDbArc
 50
166.9859642027
 51
173.031196336
  0
LINE
  5
2ED
330
1F
100
AcDbEntity
  8
0
  6
Continuous
 62
     7
370
     0
100
AcDbLine
 10
133.9200853005
 20
191.0794119251
 30
0.0
 11
131.7175120682
 21
192.1074393106
 31
0.0
  0
ARC
  5
2EE
330
1F
100
AcDbEntity
  8
0
  6
Continuous
 62
     7
370
     0
100
AcDbCircle
 10
149.9443172216
 20
221.4790437618
 30
0.0
 40
34.36442381980231
100
AcDbArc
 50
242.205421157
 51
269.9281956882
  0
LINE
  5
2EF
330
1F
100
AcDbEntity
  8
0
  6
Continuous
 62
     7
370
     0
100
AcDbLine
 10
149.9012509927
 20
187.1146469277
 30
0.0
 11
153.194316347
 21
187.0667564583
 31
0.0
  0
LINE
  5
2F0
330
1F
100
AcDbEntity
  8
0
  6
Continuous
 62
     7
370
     0
100
AcDbLine
 10
131.7175120682
 20
142.7631101472
 30
0.0
 11
133.9200853005
 21
143.7911375326
 31
0.0
  0
ARC
  5
2F1
330
1F
100
AcDbEntity
  8
0
  6
Continuous
 62
     7
370
     0
100
AcDbCircle
 10
246.9765926442
 20
169.4027169796
 30
0.0
 40
118.2976275256239
100
AcDbArc
 50
186.9684827425
 51
193.0140993303
  0
LINE
  5
2F2
330
1F
100
AcDbEntity
  8
0
  6
Continuous
 62
     7
370
     0
100
AcDbLine
 10
153.194316347
 20
147.8037929994
 30
0.0
 11
149.9012509927
 21
147.75590253
 31
0.0
  0
ARC
  5
2F3
330
1F
100
AcDbEntity
  8
0
  6
Continuous
 62
     7
370
     0
100
AcDbCircle
 10
149.9446735329
 20
113.3900694774
 30
0.0
 40
34.36586048562238
100
AcDbArc
 50
90.0723953631
 51
117.7939877917
  0
ARC
  5
2F4
330
1F
100
AcDbEntity
  8
0
  6
Continuous
 62
     7
370
     0
100
AcDbCircle
 10
324.5435269614
 20
166.0033836959
 30
0.0
 40
26.35979667989786
100
AcDbArc
 50
3.1440303437
 51
41.9023226256
  0
LINE
  5
2F5
330
1F
100
AcDbEntity
  8
0
  6
Continuous
 62
     7
370
     0
100
AcDbLine
 10
350.8636473313
 20
167.4491169763
 30
0.0
 11
228.8828535572
 21
167.4491169763
 31
0.0
  0
LINE
  5
2F6
330
1F
100
AcDbEntity
  8
0
  6
Continuous
 62
     7
370
     0
100
AcDbLine
 10
218.8542230621
 20
167.4491169763
 30
0.0
 11
163.6629222527
 21
167.4491169763
 31
0.0
  0
LWPOLYLINE
  5
2F7
330
1F
100
AcDbEntity
  8
0
  6
Continuous
 62
     7
370
     0
100
AcDbPolyline
 90
        3
 70
   128
 43
0.0
 10
163.6629222527
 20
167.4491169763
 10
163.6625571743
 20
167.6615953695
 10
163.6615662471
 20
167.874062354
  0
ARC
  5
2F8
330
1F
100
AcDbEntity
  8
0
  6
Continuous
 62
     7
370
     0
100
AcDbCircle
 10
108.470210968
 20
168.4783058281
 30
0.0
 40
55.19466285535941
100
AcDbArc
 50
359.3727420254
 51
8.9510157717
  0
LWPOLYLINE
  5
2F9
330
1F
100
AcDbEntity
  8
0
  6
Continuous
 62
     7
370
     0
100
AcDbPolyline
 90
        3
 70
   128
 43
0.0
 10
160.009824355
 20
188.1616751564
 10
159.1564050511
 20
190.0735425663
 10
156.4282259539
 20
194.240406425
  0
LWPOLYLINE
  5
2FA
330
1F
100
AcDbEntity
  8
0
  6
Continuous
 62
     7
370
     0
100
AcDbPolyline
 90
        6
 70
   128
 43
0.0
 10
156.4290045396
 20
194.2395756853
 10
192.6369635955
 20
193.0848083359
 10
229.2005835667
 20
191.6362739069
 10
266.1112962857
 20
189.8495371354
 10
303.3639012471
 20
187.6850801421
 10
340.9560589686
 20
185.1157436979
  0
ARC
  5
2FB
330
1F
100
AcDbEntity
  8
0
  6
Continuous
 62
     7
370
     0
100
AcDbCircle
 10
340.6954251822
 20
180.3973828141
 30
0.0
 40
4.725553872362711
100
AcDbArc
 50
42.7998364124
 51
86.83829709
  0
LWPOLYLINE
  5
2FC
330
1F
100
AcDbEntity
  8
0
  6
Continuous
 62
     7
370
     0
100
AcDbPolyline
 90
        6
 70
   128
 43
0.0
 10
156.4290045396
 20
140.6586582673
 10
192.6369635955
 20
141.8134256167
 10
229.2005835667
 20
143.2619600457
 10
266.1112962857
 20
145.0486968172
 10
303.3639012471
 20
147.2131538105
 10
340.9560589686
 20
149.7824902547
  0
ARC
  5
2FD
330
1F
100
AcDbEntity
  8
0
  6
Continuous
 62
     7
370
     0
100
AcDbCircle
 10
108.4037966861
 20
166.4241006008
 30
0.0
 40
55.26102769637282
100
AcDbArc
 50
351.0265514086
 51
0.6221782824
  0
LWPOLYLINE
  5
2FE
330
1F
100
AcDbEntity
  8
0
  6
Continuous
 62
     7
370
     0
100
AcDbPolyline
 90
        3
 70
   128
 43
0.0
 10
159.9972589508
 20
146.7084067774
 10
159.1564050511
 20
144.8246913863
 10
156.4282259539
 20
140.6578275276
  0
LWPOLYLINE
  5
2FF
330
1F
100
AcDbEntity
  8
0
  6
Continuous
 62
     7
370
     0
100
AcDbPolyline
 90
        3
 70
   128
 43
0.0
 10
163.6629222527
 20
167.4491169763
 10
163.6625571743
 20
167.2366385831
 10
163.6615662471
 20
167.0241715986
  0
ARC
  5
300
330
1F
100
AcDbEntity
  8
0
  6
Continuous
 62
     7
370
     0
100
AcDbCircle
 10
324.5435269614
 20
168.8948502567
 30
0.0
 40
26.35979667989788
100
AcDbArc
 50
318.0976773744
 51
356.8559696563
  0
ARC
  5
301
330
1F
100
AcDbEntity
  8
0
  6
Continuous
 62
     7
370
     0
100
AcDbCircle
 10
340.6954251822
 20
154.5008511385
 30
0.0
 40
4.72555387236273
100
AcDbArc
 50
273.16170291
 51
317.2001635876
  0
LWPOLYLINE
  5
302
330
1F
100
AcDbEntity
  8
0
  6
Continuous
 62
     7
370
     0
100
AcDbPolyline
 90
        8
 70
   128
 43
0.0
 10
344.1627143517
 20
183.6081094009
 10
344.4399355546
 20
183.8117132795
 10
344.7162477866
 20
183.9732344163
 10
344.9780909911
 20
184.0847416681
 10
345.2125756636
 20
184.1407551331
 10
345.4081981078
 20
184.1385255468
 10
345.5553619757
 20
184.0781590802
 10
345.5857752457
 20
184.0522180212
  0
LWPOLYLINE
  5
303
330
1F
100
AcDbEntity
  8
0
  6
Continuous
 62
     7
370
     0
100
AcDbPolyline
 90
        8
 70
   128
 43
0.0
 10
344.1627143517
 20
151.2901245517
 10
344.4399355546
 20
151.0865206731
 10
344.7162477866
 20
150.9249995363
 10
344.9780909911
 20
150.8134922845
 10
345.2125756636
 20
150.7574788195
 10
345.4081981078
 20
150.7597084058
 10
345.5553619757
 20
150.8200748724
 10
345.5857901469
 20
150.8460289699
  0
ARC
  5
304
330
1F
100
AcDbEntity
  8
0
  6
Continuous
 62
     7
370
     0
100
AcDbCircle
 10
151.2370653391
 20
187.2594222756
 30
0.0
 40
1.343636807081574
100
AcDbArc
 50
138.3480574838
 51
186.1855639936
  0
ARC
  5
305
330
1F
100
AcDbEntity
  8
0
  6
Continuous
 62
     7
370
     0
100
AcDbCircle
 10
151.2370959353
 20
147.6111317593
 30
0.0
 40
1.343666731994961
100
AcDbArc
 50
173.8147706222
 51
221.6511750398
  0
ARC
  5
306
330
1F
100
AcDbEntity
  8
0
  6
Continuous
 62
     7
370
     0
100
AcDbCircle
 10
150.6093299646
 20
222.726363933
 30
0.0
 40
34.57600422547652
100
AcDbArc
 50
242.2929564059
 51
269.376547312
  0
ARC
  5
307
330
1F
100
AcDbEntity
  8
0
  6
Continuous
 62
     7
370
     0
100
AcDbCircle
 10
150.6041307879
 20
112.1647691084
 30
0.0
 40
34.55536382325763
100
AcDbArc
 50
90.6152100885
 51
117.7152798643
  0
ARC
  5
308
330
1F
100
AcDbEntity
  8
0
  6
Continuous
 62
     7
370
     0
100
AcDbCircle
 10
155.7574926851
 20
256.961519139
 30
0.0
 40
81.47076492597645
100
AcDbArc
 50
251.2375551748
 51
262.4951818729
  0
ARC
  5
309
330
1F
100
AcDbEntity
  8
0
  6
Continuous
 62
     7
370
     0
100
AcDbCircle
 10
150.3277019887
 20
176.2473401981
 30
0.0
 40
5.211401008526269
100
AcDbArc
 50
157.3356497097
 51
180.6453553601
  0
ARC
  5
30A
330
1F
100
AcDbEntity
  8
0
  6
Continuous
 62
     7
370
     0
100
AcDbCircle
 10
156.088135623
 20
76.4919445425
 30
0.0
 40
82.91901881920892
100
AcDbArc
 50
97.6034395145
 51
108.6638234377
  0
ARC
  5
30B
330
1F
100
AcDbEntity
  8
0
  6
Continuous
 62
     7
370
     0
100
AcDbCircle
 10
150.3268712604
 20
158.6230432798
 30
0.0
 40
5.210572194848057
100
AcDbArc
 50
179.3527269837
 51
202.6661781207
  0
ARC
  5
30C
330
1F
100
AcDbEntity
  8
0
  6
Continuous
 62
     7
370
     0
100
AcDbCircle
 10
139.4141746072
 20
146.3446228331
 30
0.0
 40
6.058486118061682
100
AcDbArc
 50
204.9275682041
 51
216.3274165675
  0
ARC
  5
30D
330
1F
100
AcDbEntity
  8
0
  6
Continuous
 62
     7
370
     0
100
AcDbCircle
 10
139.4140492116
 20
188.5260005217
 30
0.0
 40
6.058345421927214
100
AcDbArc
 50
143.6724506218
 51
155.0725646066
  0
LWPOLYLINE
  5
30E
330
1F
100
AcDbEntity
  8
0
  6
Continuous
 62
     7
370
     0
100
AcDbPolyline
 90
        3
 70
   128
 43
0.0
 10
146.5294181004
 20
167.4352741613
 10
146.1739974663
 20
163.0019469087
 10
145.1165719524
 20
158.681926587
  0
ARC
  5
30F
330
1F
100
AcDbEntity
  8
0
  6
Continuous
 62
     7
370
     0
100
AcDbCircle
 10
118.5631075008
 20
176.4083315836
 30
0.0
 40
36.12525247369774
100
AcDbArc
 50
271.2860621972
 51
291.3541907404
  0
LINE
  5
310
330
1F
100
AcDbEntity
  8
0
  6
Continuous
 62
     7
370
     0
100
AcDbLine
 10
118.7096135115
 20
140.282415123
 30
0.0
 11
119.3739075431
 21
140.2921791089
 31
0.0
  0
LWPOLYLINE
  5
311
330
1F
100
AcDbEntity
  8
0
  6
Continuous
 62
     7
370
     0
100
AcDbPolyline
 90
        3
 70
   128
 43
0.0
 10
118.7092861225
 20
167.4352745779
 10
118.7094461754
 20
153.8158099068
 10
118.7096135115
 20
140.282415123
  0
LWPOLYLINE
  5
312
330
1F
100
AcDbEntity
  8
0
  6
Continuous
 62
     7
370
     0
100
AcDbPolyline
 90
        3
 70
   128
 43
0.0
 10
146.5292765394
 20
167.4352746707
 10
132.6661944956
 20
167.4352742969
 10
118.7092861225
 20
167.4352745779
  0
ARC
  5
313
330
1F
100
AcDbEntity
  8
0
  6
Continuous
 62
     7
370
     0
100
AcDbCircle
 10
118.5750028348
 20
167.451063537
 30
0.0
 40
27.16935993173597
100
AcDbArc
 50
180.0332967027
 51
270.2838452806
  0
LWPOLYLINE
  5
314
330
1F
100
AcDbEntity
  8
0
  6
Continuous
 62
     7
370
     0
100
AcDbPolyline
 90
        9
 70
   128
 43
0.0
 10
91.4055897489
 20
167.435274697
 10
94.7940486118
 20
167.4352745406
 10
98.1922975376
 20
167.4352744242
 10
101.5989469931
 20
167.4352743487
 10
105.0126018569
 20
167.4352743123
 10
108.4318632826
 20
167.4352743169
 10
111.8553324238
 20
167.4352743623
 10
115.2816078726
 20
167.4352744469
 10
118.7092865991
 20
167.4352745724
  0
LWPOLYLINE
  5
315
330
1F
100
AcDbEntity
  8
0
  6
Continuous
 62
     7
370
     0
100
AcDbPolyline
 90
        3
 70
   128
 43
0.0
 10
118.7096128858
 20
194.5884193194
 10
118.7094460262
 20
181.0548829747
 10
118.7092861225
 20
167.4352740922
  0
ARC
  5
316
330
1F
100
AcDbEntity
  8
0
  6
Continuous
 62
     7
370
     0
100
AcDbCircle
 10
118.5750039195
 20
167.4194848201
 30
0.0
 40
27.16936101733797
100
AcDbArc
 50
89.7161611073
 51
179.9666998154
  0
LWPOLYLINE
  5
317
330
1F
100
AcDbEntity
  8
0
  6
Continuous
 62
     7
370
     0
100
AcDbPolyline
 90
        3
 70
   128
 43
0.0
 10
145.1164937213
 20
176.1885958624
 10
146.1740999118
 20
171.8686188472
 10
146.5297105357
 20
167.4352748489
  0
LINE
  5
318
330
1F
100
AcDbEntity
  8
0
  6
Continuous
 62
     7
370
     0
100
AcDbLine
 10
119.373916216
 20
194.5787242514
 30
0.0
 11
118.7096128858
 21
194.5884193194
 31
0.0
  0
ARC
  5
319
330
1F
100
AcDbEntity
  8
0
  6
Continuous
 62
     7
370
     0
100
AcDbCircle
 10
118.5621105158
 20
158.46241305
 30
0.0
 40
36.12543374535219
100
AcDbArc
 50
68.6442238562
 51
88.7123488578
  0
ARC
  5
31A
330
1F
100
AcDbEntity
  8
0
  6
Continuous
 62
     7
370
     0
100
AcDbCircle
 10
148.3529863606
 20
176.3832877858
 30
0.0
 40
3.009062109281146
100
AcDbArc
 50
141.9156717741
 51
185.8697953956
  0
ARC
  5
31B
330
1F
100
AcDbEntity
  8
0
  6
Continuous
 62
     7
370
     0
100
AcDbCircle
 10
148.5702761165
 20
175.8377600674
 30
0.0
 40
2.06204875308354
100
AcDbArc
 50
95.1294374512
 51
191.7140847853
  0
ARC
  5
31C
330
1F
100
AcDbEntity
  8
0
  6
Continuous
 62
     7
370
     0
100
AcDbCircle
 10
143.4652635993
 20
171.2276068056
 30
0.0
 40
5.204950599041425
100
AcDbArc
 50
53.6383632938
 51
68.6558896978
  0
ARC
  5
31D
330
1F
100
AcDbEntity
  8
0
  6
Continuous
 62
     7
370
     0
100
AcDbCircle
 10
148.5702886191
 20
159.032799258
 30
0.0
 40
2.062060626685825
100
AcDbArc
 50
168.2862900616
 51
264.8702433736
  0
ARC
  5
31E
330
1F
100
AcDbEntity
  8
0
  6
Continuous
 62
     7
370
     0
100
AcDbCircle
 10
148.3529782623
 20
158.4872604409
 30
0.0
 40
3.009054084075414
100
AcDbArc
 50
174.1301831567
 51
218.0844407245
  0
ARC
  5
31F
330
1F
100
AcDbEntity
  8
0
  6
Continuous
 62
     7
370
     0
100
AcDbCircle
 10
143.4880849679
 20
163.6015117038
 30
0.0
 40
5.158059654542019
100
AcDbArc
 50
291.2754976248
 51
306.4303250996
  0
LINE
  5
320
330
1F
100
AcDbEntity
  8
0
  6
Continuous
 62
     7
370
     0
100
AcDbLine
 10
145.3597011611
 20
176.0755565849
 30
0.0
 11
145.1166315571
 21
176.1886442912
 31
0.0
  0
LINE
  5
321
330
1F
100
AcDbEntity
  8
0
  6
Continuous
 62
     7
370
     0
100
AcDbLine
 10
145.1166315571
 20
158.6819060979
 30
0.0
 11
145.3596992985
 21
158.7949938041
 31
0.0
  0
LWPOLYLINE
  5
322
330
1F
100
AcDbEntity
  8
0
  6
Continuous
 62
     7
370
     0
100
AcDbPolyline
 90
        3
 70
   128
 43
0.0
 10
148.7792494342
 20
157.4834420246
 10
148.8398803964
 20
157.8890097228
 10
148.8632137522
 20
158.6740513233
  0
LWPOLYLINE
  5
323
330
1F
100
AcDbEntity
  8
0
  6
Continuous
 62
     7
370
     0
100
AcDbPolyline
 90
        3
 70
   128
 43
0.0
 10
150.5258946315
 20
158.4913835761
 10
149.6611839727
 20
158.5732486931
 10
148.8632137522
 20
158.6740513233
  0
LWPOLYLINE
  5
324
330
1F
100
AcDbEntity
  8
0
  6
Continuous
 62
     7
370
     0
100
AcDbPolyline
 90
        3
 70
   128
 43
0.0
 10
148.8632137522
 20
176.1964972031
 10
149.6611783847
 20
176.297301696
 10
150.5258834556
 20
176.3791677443
  0
LWPOLYLINE
  5
325
330
1F
100
AcDbEntity
  8
0
  6
Continuous
 62
     7
370
     0
100
AcDbPolyline
 90
        3
 70
   128
 43
0.0
 10
148.8632137522
 20
176.1964972031
 10
148.8398822591
 20
176.9815211085
 10
148.7792606101
 20
177.3870506224
  0
ARC
  5
326
330
1F
100
AcDbEntity
  8
0
  6
Continuous
 62
     7
370
     0
100
AcDbCircle
 10
555.542498831
 20
141.9209046158
 30
0.0
 40
436.8359801009847
100
AcDbArc
 50
180.2152115673
 51
180.3802008629
  0
ARC
  5
327
330
1F
100
AcDbEntity
  8
0
  6
Continuous
 62
     7
370
     0
100
AcDbCircle
 10
471.7149125486
 20
150.5413431253
 30
0.0
 40
352.4900415456672
100
AcDbArc
 50
181.6662053196
 51
181.8708840735
  0
LINE
  5
328
330
1F
100
AcDbEntity
  8
0
  6
Continuous
 62
     7
370
     0
100
AcDbLine
 10
119.4127686073
 20
139.0335804683
 30
0.0
 11
118.7161372297
 21
139.0221885306
 31
0.0
  0
ARC
  5
329
330
1F
100
AcDbEntity
  8
0
  6
Continuous
 62
     7
370
     0
100
AcDbCircle
 10
476.6975926541
 20
184.1844642034
 30
0.0
 40
357.4748251356366
100
AcDbArc
 50
178.1320020908
 51
178.3337698068
  0
ARC
  5
32A
330
1F
100
AcDbEntity
  8
0
  6
Continuous
 62
     7
370
     0
100
AcDbCircle
 10
554.4457106031
 20
192.9537667564
 30
0.0
 40
435.7391860666932
100
AcDbArc
 50
179.6193843754
 51
179.7847887221
  0
LINE
  5
32B
330
1F
100
AcDbEntity
  8
0
  6
Continuous
 62
     7
370
     0
100
AcDbLine
 10
118.7161398308
 20
195.8483590645
 30
0.0
 11
119.4127349633
 21
195.8369689894
 31
0.0
  0
LWPOLYLINE
  5
32C
330
1F
100
AcDbEntity
  8
0
  6
Continuous
 62
     7
370
     0
100
AcDbPolyline
 90
        5
 70
   128
 43
0.0
 10
90.1475666657
 20
167.4353533565
 10
90.1760651365
 20
167.4353367728
 10
90.2606925562
 20
167.4352888551
 10
90.4034345046
 20
167.4352085404
 10
90.5992618397
 20
167.4350986771
  0
LWPOLYLINE
  5
32D
330
1F
100
AcDbEntity
  8
0
  6
Continuous
 62
     7
370
     0
100
AcDbPolyline
 90
        3
 70
   128
 43
0.0
 10
90.5992618397
 20
167.4354931686
 10
90.9827115581
 20
167.4352730991
 10
91.4035427019
 20
167.4350319747
  0
ARC
  5
32E
330
1F
100
AcDbEntity
  8
0
  6
Continuous
 62
     7
370
     0
100
AcDbCircle
 10
101.723807324
 20
130.4632091305
 30
0.0
 40
32.41774121011255
100
AcDbArc
 50
20.1765522106
 51
22.2976874896
  0
ARC
  5
32F
330
1F
100
AcDbEntity
  8
0
  6
Continuous
 62
     7
370
     0
100
AcDbCircle
 10
102.2849427691
 20
204.1893146563
 30
0.0
 40
31.81584271109935
100
AcDbArc
 50
337.6821737227
 51
339.84343926
  0
LINE
  5
330
330
1F
100
AcDbEntity
  8
0
  6
Continuous
 62
     7
370
     0
100
AcDbLine
 10
146.7236081705
 20
175.2108715375
 30
0.0
 11
146.5511737958
 21
175.4191064176
 31
0.0
  0
LWPOLYLINE
  5
331
330
1F
100
AcDbEntity
  8
0
  6
Continuous
 62
     7
370
     0
100
AcDbPolyline
 90
        5
 70
   128
 43
0.0
 10
147.7826895759
 20
167.4352749599
 10
147.6869607911
 20
167.4352288412
 10
147.415100281
 20
167.4351929253
 10
147.0015911952
 20
167.4352017383
 10
146.5295317218
 20
167.4352744615
  0
LINE
  5
332
330
1F
100
AcDbEntity
  8
0
  6
Continuous
 62
     7
370
     0
100
AcDbLine
 10
146.5511719331
 20
159.4514421088
 30
0.0
 11
146.7236081705
 21
159.6596769889
 31
0.0
  0
ARC
  5
333
330
1F
100
AcDbEntity
  8
0
  6
Continuous
 62
     7
370
     0
100
AcDbCircle
 10
148.6379329508
 20
175.7170516561
 30
0.0
 40
1.98011557167656
100
AcDbArc
 50
88.2915064109
 51
194.8110138348
  0
ARC
  5
334
330
1F
100
AcDbEntity
  8
0
  6
Continuous
 62
     7
370
     0
100
AcDbCircle
 10
148.6379211552
 20
159.1534875049
 30
0.0
 40
1.980106562100775
100
AcDbArc
 50
165.1886369222
 51
271.7088428321
  0
LWPOLYLINE
  5
335
330
1F
100
AcDbEntity
  8
0
  6
Continuous
 62
     7
370
     0
100
AcDbPolyline
 90
        8
 70
   128
 43
0.0
 10
340.9560589686
 20
185.1157436979
 10
341.0049496785
 20
185.3604002756
 10
341.0604267016
 20
185.5746659351
 10
341.1206869975
 20
185.7516526145
 10
341.1838232175
 20
185.8856755209
 10
341.2477939025
 20
185.9724263561
 10
341.3105277911
 20
186.0091186029
 10
341.3243411675
 20
186.0103237343
  0
LWPOLYLINE
  5
336
330
1F
100
AcDbEntity
  8
0
  6
Continuous
 62
     7
370
     0
100
AcDbPolyline
 90
        8
 70
   128
 43
0.0
 10
340.9560589686
 20
149.7824902547
 10
341.0049496785
 20
149.537833677
 10
341.0604267016
 20
149.3235680175
 10
341.1206869975
 20
149.1465813381
 10
341.1838232175
 20
149.0125584317
 10
341.2477939025
 20
148.9258075965
 10
341.3105277911
 20
148.8891153497
 10
341.3243411675
 20
148.8879102183
  0
LINE
  5
337
330
1F
100
AcDbEntity
  8
0
  6
Continuous
 62
     7
370
     0
100
AcDbLine
 10
89.7065332726
 20
167.4352743496
 30
0.0
 11
90.1496695921
 21
167.4352743414
 31
0.0
  0
ARC
  5
338
330
1F
100
AcDbEntity
  8
0
  6
Continuous
 62
     7
370
     0
100
AcDbCircle
 10
148.7168300438
 20
175.4495037023
 30
0.0
 40
1.938552460860038
100
AcDbArc
 50
88.1544855597
 51
194.2825220565
  0
LINE
  5
339
330
1F
100
AcDbEntity
  8
0
  6
Continuous
 62
     7
370
     0
100
AcDbLine
 10
146.7236565992
 20
175.2108519797
 30
0.0
 11
146.8381962374
 21
174.9712566746
 31
0.0
  0
ARC
  5
33A
330
1F
100
AcDbEntity
  8
0
  6
Continuous
 62
     7
370
     0
100
AcDbCircle
 10
148.7170383187
 20
159.421167638
 30
0.0
 40
1.938724007115991
100
AcDbArc
 50
165.7225138325
 51
271.8388622264
  0
LINE
  5
33B
330
1F
100
AcDbEntity
  8
0
  6
Continuous
 62
     7
370
     0
100
AcDbLine
 10
146.8381962374
 20
159.8992923175
 30
0.0
 11
146.7236435607
 21
159.65966721
 31
0.0
  0
ARC
  5
33C
330
1F
100
AcDbEntity
  8
0
  6
Continuous
 62
     7
370
     0
100
AcDbCircle
 10
118.7092863637
 20
167.4352743349
 30
0.0
 40
29.37952349377906
100
AcDbArc
 50
345.9407273225
 51
14.0592726302
  0
LWPOLYLINE
  5
33D
330
1F
100
AcDbEntity
  8
0
  6
Continuous
 62
     7
370
     0
100
AcDbPolyline
 90
        3
 70
   128
 43
0.0
 10
147.2087452754
 20
160.2982378465
 10
147.2506287143
 20
160.6562242744
 10
147.2168272928
 20
160.6786179257
  0
LINE
  5
33E
330
1F
100
AcDbEntity
  8
0
  6
Continuous
 62
     7
370
     0
100
AcDbLine
 10
147.2168272928
 20
160.6786179257
 30
0.0
 11
146.8381962374
 21
159.8992923175
 31
0.0
  0
LINE
  5
33F
330
1F
100
AcDbEntity
  8
0
  6
Continuous
 62
     7
370
     0
100
AcDbLine
 10
146.8381962374
 20
174.9712562089
 30
0.0
 11
147.2168272928
 21
174.1919310664
 31
0.0
  0
LWPOLYLINE
  5
340
330
1F
100
AcDbEntity
  8
0
  6
Continuous
 62
     7
370
     0
100
AcDbPolyline
 90
        3
 70
   128
 43
0.0
 10
147.2168272928
 20
174.1919310664
 10
147.2506287143
 20
174.2143251834
 10
147.2087434128
 20
174.5723148708
  0
LWPOLYLINE
  5
341
330
1F
100
AcDbEntity
  8
0
  6
Continuous
 62
     7
370
     0
100
AcDbPolyline
 90
        5
 70
   128
 43
0.0
 10
156.4289821878
 20
194.23957196
 10
156.5648882285
 20
194.7805306775
 10
156.7586182252
 20
195.217982204
 10
156.9874441818
 20
195.4844037903
 10
157.0978953138
 20
195.5186652851
  0
LWPOLYLINE
  5
342
330
1F
100
AcDbEntity
  8
0
  6
Continuous
 62
     7
370
     0
100
AcDbPolyline
 90
        5
 70
   128
 43
0.0
 10
156.4290045396
 20
140.6586582673
 10
156.5649180308
 20
140.1176492584
 10
156.7586443022
 20
139.6802014572
 10
156.9874516323
 20
139.4138115359
 10
157.2195409432
 20
139.3418240261
  0
ARC
  5
343
330
1F
100
AcDbEntity
  8
0
  6
Continuous
 62
     7
370
     0
100
AcDbCircle
 10
148.815370209
 20
160.3131433002
 30
0.0
 40
1.639789973412071
100
AcDbArc
 50
167.1218174318
 51
271.6718047362
  0
ARC
  5
344
330
1F
100
AcDbEntity
  8
0
  6
Continuous
 62
     7
370
     0
100
AcDbCircle
 10
148.8153707987
 20
174.5574049157
 30
0.0
 40
1.639790375281109
100
AcDbArc
 50
88.3280860665
 51
192.8781515376
  0
LINE
  5
345
330
1F
100
AcDbEntity
  8
0
  6
Continuous
 62
     7
370
     0
100
AcDbLine
 10
148.8632100269
 20
158.6740513233
 30
0.0
 11
148.2331069753
 21
158.7526949954
 31
0.0
  0
LINE
  5
346
330
1F
100
AcDbEntity
  8
0
  6
Continuous
 62
     7
370
     0
100
AcDbLine
 10
148.2151454881
 20
176.1156109062
 30
0.0
 11
148.8632137522
 21
176.1964972031
 31
0.0
  0
LINE
  5
347
330
1F
100
AcDbEntity
  8
0
  6
Continuous
 62
     7
370
     0
100
AcDbLine
 10
148.694493492
 20
163.6676984274
 30
0.0
 11
148.694493492
 21
171.2305355252
 31
0.0
  0
LWPOLYLINE
  5
348
330
1F
100
AcDbEntity
  8
0
  6
Continuous
 62
     7
370
     0
100
AcDbPolyline
 90
        5
 70
   128
 43
0.0
 10
122.253752929
 20
196.3821428728
 10
130.690498893
 20
196.0836372239
 10
139.2440578535
 20
195.4758970899
 10
147.8671139673
 20
194.7480126185
 10
156.4274995223
 20
194.2412855935
  0
LWPOLYLINE
  5
349
330
1F
100
AcDbEntity
  8
0
  6
Continuous
 62
     7
370
     0
100
AcDbPolyline
 90
        3
 70
   128
 43
0.0
 10
121.3706875321
 20
196.3233056379
 10
121.8123868208
 20
196.2838957918
 10
122.253752929
 20
196.2434614909
  0
LWPOLYLINE
  5
34A
330
1F
100
AcDbEntity
  8
0
  6
Continuous
 62
     7
370
     0
100
AcDbPolyline
 90
        3
 70
   128
 43
0.0
 10
121.3706875321
 20
138.5749283147
 10
121.8123868208
 20
138.6143381608
 10
122.253752929
 20
138.6547724617
  0
LWPOLYLINE
  5
34B
330
1F
100
AcDbEntity
  8
0
  6
Continuous
 62
     7
370
     0
100
AcDbPolyline
 90
        5
 70
   128
 43
0.0
 10
122.253752929
 20
138.5160910797
 10
130.690498893
 20
138.8145967287
 10
139.2440578535
 20
139.4223368627
 10
147.8671139673
 20
140.1502213341
 10
156.4274995223
 20
140.656948359
  0
LWPOLYLINE
  5
34C
330
1F
100
AcDbEntity
  8
0
  6
Continuous
 62
     7
370
     0
100
AcDbPolyline
 90
        3
 70
   128
 43
0.0
 10
122.253752929
 20
138.5160910797
 10
122.2541347712
 20
138.5148673219
 10
122.253752929
 20
138.5145469469
  0
ENDSEC
  0
SECTION
  2
OBJECTS
  0
DICTIONARY
  5
C
330
0
100
AcDbDictionary
281
     1
  3
ACAD_GROUP
350
D
  3
ACAD_LAYOUT
350
1A
  3
ACAD_MATERIAL
350
3B
  3
ACAD_MLEADERSTYLE
350
34E
  3
ACAD_MLINESTYLE
350
17
  3
ACAD_PLOTSETTINGS
350
19
  3
ACAD_PLOTSTYLENAME
350
E
  3
ACAD_TABLESTYLE
350
34D
  3
ACAD_VISUALSTYLE
350
2A
  0
DICTIONARY
  5
D
102
{ACAD_REACTORS
330
C
102
}
330
C
100
AcDbDictionary
281
     1
  0
DICTIONARY
  5
1A
102
{ACAD_REACTORS
330
C
102
}
330
C
100
AcDbDictionary
281
     1
  3
Layout1
350
1E
  3
Layout2
350
26
  3
Model
350
22
  0
DICTIONARY
  5
3B
102
{ACAD_REACTORS
330
C
102
}
330
C
100
AcDbDictionary
281
     1
  3
ByBlock
350
3D
  3
ByLayer
350
3C
  3
Global
350
3E
  0
DICTIONARY
  5
34E
102
{ACAD_REACTORS
330
C
102
}
330
C
100
AcDbDictionary
281
     1
  0
DICTIONARY
  5
17
102
{ACAD_REACTORS
330
C
102
}
330
C
100
AcDbDictionary
281
     1
  3
Standard
350
18
  0
DICTIONARY
  5
19
102
{ACAD_REACTORS
330
C
102
}
330
C
100
AcDbDictionary
281
     1
  0
ACDBDICTIONARYWDFLT
  5
E
102
{ACAD_REACTORS
330
C
102
}
330
C
100
AcDbDictionary
281
     1
  3
Normal
350
F
100
AcDbDictionaryWithDefault
340
F
  0
DICTIONARY
  5
34D
102
{ACAD_REACTORS
330
C
102
}
330
C
100
AcDbDictionary
281
     1
  0
DICTIONARY
  5
2A
102
{ACAD_REACTORS
330
C
102
}
330
C
100
AcDbDictionary
281
     1
  3
2dWireframe
350
2F
  3
3D Hidden
350
31
  3
3dWireframe
350
30
  3
Basic
350
32
  3
Brighten
350
36
  3
ColorChange
350
3A
  3
Conceptual
350
34
  3
Dim
350
35
  3
Facepattern
350
39
  3
Flat
350
2B
  3
FlatWithEdges
350
2C
  3
Gouraud
350
2D
  3
GouraudWithEdges
350
2E
  3
Linepattern
350
38
  3
Realistic
350
33
  3
Thicken
350
37
  0
LAYOUT
  5
1E
102
{ACAD_REACTORS
330
1A
102
}
330
1A
100
AcDbPlotSettings
  1

  2
none_device
  4

  6

 40
0.0
 41
0.0
 42
0.0
 43
0.0
 44
0.0
 45
0.0
 46
0.0
 47
0.0
 48
0.0
 49
0.0
140
0.0
141
0.0
142
1.0
143
1.0
 70
   688
 72
     0
 73
     0
 74
     5
  7

 75
    16
 76
     0
 77
     2
 78
   300
147
1.0
148
0.0
149
0.0
100
AcDbLayout
  1
Layout1
 70
     1
 71
     1
 10
0.0
 20
0.0
 11
420.0
 21
297.0
 12
0.0
 22
0.0
 32
0.0
 14
1.0000000000E+20
 24
1.0000000000E+20
 34
1.0000000000E+20
 15
-1.0000000000E+20
 25
-1.0000000000E+20
 35
-1.0000000000E+20
146
0.0
 13
0.0
 23
0.0
 33
0.0
 16
1.0
 26
0.0
 36
0.0
 17
0.0
 27
1.0
 37
0.0
 76
     0
330
1B
  0
LAYOUT
  5
26
102
{ACAD_REACTORS
330
1A
102
}
330
1A
100
AcDbPlotSettings
  1

  2
none_device
  4

  6

 40
0.0
 41
0.0
 42
0.0
 43
0.0
 44
0.0
 45
0.0
 46
0.0
 47
0.0
 48
0.0
 49
0.0
140
0.0
141
0.0
142
1.0
143
1.0
 70
   688
 72
     0
 73
     0
 74
     5
  7

 75
    16
 76
     0
 77
     2
 78
   300
147
1.0
148
0.0
149
0.0
100
AcDbLayout
  1
Layout2
 70
     1
 71
     2
 10
0.0
 20
0.0
 11
0.0
 21
0.0
 12
0.0
 22
0.0
 32
0.0
 14
0.0
 24
0.0
 34
0.0
 15
0.0
 25
0.0
 35
0.0
146
0.0
 13
0.0
 23
0.0
 33
0.0
 16
1.0
 26
0.0
 36
0.0
 17
0.0
 27
1.0
 37
0.0
 76
     0
330
23
  0
LAYOUT
  5
22
102
{ACAD_REACTORS
330
1A
102
}
330
1A
100
AcDbPlotSettings
  1

  2
none_device
  4

  6

 40
0.0
 41
0.0
 42
0.0
 43
0.0
 44
0.0
 45
0.0
 46
0.0
 47
0.0
 48
0.0
 49
0.0
140
0.0
141
0.0
142
1.0
143
1.0
 70
  1712
 72
     0
 73
     0
 74
     0
  7

 75
     0
 76
     0
 77
     2
 78
   300
147
1.0
148
0.0
149
0.0
100
AcDbLayout
  1
Model
 70
     1
 71
     0
 10
0.0
 20
0.0
 11
594.0
 21
841.0
 12
0.0
 22
0.0
 32
0.0
 14
0.0
 24
0.0
 34
0.0
 15
594.0
 25
841.0
 35
0.0
146
0.0
 13
0.0
 23
0.0
 33
0.0
 16
1.0
 26
0.0
 36
0.0
 17
0.0
 27
1.0
 37
0.0
 76
     0
330
1F
331
29
  0
MATERIAL
  5
3D
102
{ACAD_REACTORS
330
3B
102
}
330
3B
100
AcDbMaterial
  1
ByBlock
 72
     1
 94
      127
  0
MATERIAL
  5
3C
102
{ACAD_REACTORS
330
3B
102
}
330
3B
100
AcDbMaterial
  1
ByLayer
 72
     1
 94
      127
  0
MATERIAL
  5
3E
102
{ACAD_REACTORS
330
3B
102
}
330
3B
100
AcDbMaterial
  1
Global
 72
     1
 94
      127
  0
MLINESTYLE
  5
18
102
{ACAD_REACTORS
330
17
102
}
330
17
100
AcDbMlineStyle
  2
Standard
 70
     0
  3

 62
   256
 51
90.0
 52
90.0
 71
     2
 49
0.5
 62
   256
  6
BYLAYER
 49
-0.5
 62
   256
  6
BYLAYER
  0
ACDBPLACEHOLDER
  5
F
102
{ACAD_REACTORS
330
E
102
}
330
E
  0
VISUALSTYLE
  5
2F
102
{ACAD_REACTORS
330
2A
102
}
330
2A
100
AcDbVisualStyle
  2
2dWireframe
 70
     4
177
     2
291
     0
 71
     0
176
     1
 72
     2
176
     1
 73
     0
176
     1
 90
        0
176
     1
 40
-0.6
176
     1
 41
-30.0
176
     1
 62
     5
 63
     7
421
 16777215
176
     1
 74
     1
176
     1
 91
        4
176
     1
 64
     7
176
     1
 65
   257
176
     1
 75
     1
176
     1
175
     1
176
     1
 42
1.0
176
     1
 92
        0
176
     1
 66
   257
176
     1
 43
1.0
176
     1
 76
     1
176
     1
 77
     6
176
     1
 78
     2
176
     1
 67
     7
176
     1
 79
     5
176
     1
170
     0
176
     1
171
     0
176
     1
290
     0
176
     1
 93
        1
176
     1
 44
0.0
176
     1
173
     0
176
     1
  0
VISUALSTYLE
  5
31
102
{ACAD_REACTORS
330
2A
102
}
330
2A
100
AcDbVisualStyle
  2
3D Hidden
 70
     6
177
     2
291
     0
 71
     1
176
     1
 72
     2
176
     1
 73
     2
176
     1
 90
        0
176
     1
 40
-0.6
176
     1
 41
-30.0
176
     1
 62
     5
 63
     7
421
 16777215
176
     1
 74
     2
176
     1
 91
        2
176
     1
 64
     7
176
     1
 65
   257
176
     1
 75
     2
176
     1
175
     1
176
     1
 42
40.0
176
     1
 92
        0
176
     1
 66
   257
176
     1
 43
1.0
176
     1
 76
     1
176
     1
 77
     6
176
     1
 78
     2
176
     1
 67
     7
176
     1
 79
     3
176
     1
170
     0
176
     1
171
     0
176
     1
290
     0
176
     1
 93
        1
176
     1
 44
0.0
176
     1
173
     0
176
     1
  0
VISUALSTYLE
  5
30
102
{ACAD_REACTORS
330
2A
102
}
330
2A
100
AcDbVisualStyle
  2
3dWireframe
 70
     5
177
     2
291
     0
 71
     0
176
     1
 72
     2
176
     1
 73
     0
176
     1
 90
        0
176
     1
 40
-0.6
176
     1
 41
-30.0
176
     1
 62
     5
 63
     7
421
 16777215
176
     1
 74
     1
176
     1
 91
        4
176
     1
 64
     7
176
     1
 65
   257
176
     1
 75
     1
176
     1
175
     1
176
     1
 42
1.0
176
     1
 92
        0
176
     1
 66
   257
176
     1
 43
1.0
176
     1
 76
     1
176
     1
 77
     6
176
     1
 78
     2
176
     1
 67
     7
176
     1
 79
     5
176
     1
170
     0
176
     1
171
     0
176
     1
290
     0
176
     1
 93
        1
176
     1
 44
0.0
176
     1
173
     0
176
     1
  0
VISUALSTYLE
  5
32
102
{ACAD_REACTORS
330
2A
102
}
330
2A
100
AcDbVisualStyle
  2
Basic
 70
     7
177
     2
291
     1
 71
     1
176
     1
 72
     0
176
     1
 73
     1
176
     1
 90
        0
176
     1
 40
-0.6
176
     1
 41
-30.0
176
     1
 62
     5
 63
     7
421
 16777215
176
     1
 74
     0
176
     1
 91
        4
176
     1
 64
     7
176
     1
 65
   257
176
     1
 75
     1
176
     1
175
     1
176
     1
 42
1.0
176
     1
 92
        8
176
     1
 66
     7
176
     1
 43
1.0
176
     1
 76
     1
176
     1
 77
     6
176
     1
 78
     2
176
     1
 67
     7
176
     1
 79
     5
176
     1
170
     0
176
     1
171
     0
176
     1
290
     0
176
     1
 93
        1
176
     1
 44
0.0
176
     1
173
     0
176
     1
  0
VISUALSTYLE
  5
36
102
{ACAD_REACTORS
330
2A
102
}
330
2A
100
AcDbVisualStyle
  2
Brighten
 70
    12
177
     2
291
     1
 71
     2
176
     1
 72
     2
176
     1
 73
     0
176
     1
 90
        0
176
     1
 40
-0.6
176
     1
 41
-30.0
176
     1
 62
     5
 63
     7
421
 16777215
176
     1
 74
     1
176
     1
 91
        4
176
     1
 64
     7
176
     1
 65
   257
176
     1
 75
     1
176
     1
175
     1
176
     1
 42
1.0
176
     1
 92
        8
176
     1
 66
     7
176
     1
 43
1.0
176
     1
 76
     1
176
     1
 77
     6
176
     1
 78
     2
176
     1
 67
     7
176
     1
 79
     5
176
     1
170
     0
176
     1
171
     0
176
     1
290
     0
176
     1
 93
        1
176
     1
 44
50.0
176
     1
173
     0
176
     1
  0
VISUALSTYLE
  5
3A
102
{ACAD_REACTORS
330
2A
102
}
330
2A
100
AcDbVisualStyle
  2
ColorChange
 70
    16
177
     2
291
     1
 71
     2
176
     1
 72
     2
176
     1
 73
     3
176
     1
 90
        0
176
     1
 40
-0.6
176
     1
 41
-30.0
176
     1
 62
     5
 63
     8
421
  8421504
176
     1
 74
     1
176
     1
 91
        4
176
     1
 64
     7
176
     1
 65
   257
176
     1
 75
     1
176
     1
175
     1
176
     1
 42
1.0
176
     1
 92
        8
176
     1
 66
     8
424
  8421504
176
     1
 43
1.0
176
     1
 76
     1
176
     1
 77
     6
176
     1
 78
     2
176
     1
 67
     7
176
     1
 79
     5
176
     1
170
     0
176
     1
171
     0
176
     1
290
     0
176
     1
 93
        1
176
     1
 44
0.0
176
     1
173
     0
176
     1
  0
VISUALSTYLE
  5
34
102
{ACAD_REACTORS
330
2A
102
}
330
2A
100
AcDbVisualStyle
  2
Conceptual
 70
     9
177
     2
291
     0
 71
     3
176
     1
 72
     2
176
     1
 73
     0
176
     1
 90
        0
176
     1
 40
-0.6
176
     1
 41
-30.0
176
     1
 62
     5
 63
     7
421
 16777215
176
     1
 74
     2
176
     1
 91
        2
176
     1
 64
     7
176
     1
 65
   257
176
     1
 75
     1
176
     1
175
     1
176
     1
 42
40.0
176
     1
 92
        8
176
     1
 66
     7
176
     1
 43
1.0
176
     1
 76
     1
176
     1
 77
     6
176
     1
 78
     2
176
     1
 67
     7
176
     1
 79
     3
176
     1
170
     0
176
     1
171
     0
176
     1
290
     0
176
     1
 93
        1
176
     1
 44
0.0
176
     1
173
     0
176
     1
  0
VISUALSTYLE
  5
35
102
{ACAD_REACTORS
330
2A
102
}
330
2A
100
AcDbVisualStyle
  2
Dim
 70
    11
177
     2
291
     1
 71
     2
176
     1
 72
     2
176
     1
 73
     0
176
     1
 90
        0
176
     1
 40
-0.6
176
     1
 41
-30.0
176
     1
 62
     5
 63
     7
421
 16777215
176
     1
 74
     1
176
     1
 91
        4
176
     1
 64
     7
176
     1
 65
   257
176
     1
 75
     1
176
     1
175
     1
176
     1
 42
1.0
176
     1
 92
        8
176
     1
 66
     7
176
     1
 43
1.0
176
     1
 76
     1
176
     1
 77
     6
176
     1
 78
     2
176
     1
 67
     7
176
     1
 79
     5
176
     1
170
     0
176
     1
171
     0
176
     1
290
     0
176
     1
 93
        1
176
     1
 44
-50.0
176
     1
173
     0
176
     1
  0
VISUALSTYLE
  5
39
102
{ACAD_REACTORS
330
2A
102
}
330
2A
100
AcDbVisualStyle
  2
Facepattern
 70
    15
177
     2
291
     1
 71
     2
176
     1
 72
     2
176
     1
 73
     0
176
     1
 90
        0
176
     1
 40
-0.6
176
     1
 41
-30.0
176
     1
 62
     5
 63
     7
421
 16777215
176
     1
 74
     1
176
     1
 91
        4
176
     1
 64
     7
176
     1
 65
   257
176
     1
 75
     1
176
     1
175
     1
176
     1
 42
1.0
176
     1
 92
        8
176
     1
 66
     7
176
     1
 43
1.0
176
     1
 76
     1
176
     1
 77
     6
176
     1
 78
     2
176
     1
 67
     7
176
     1
 79
     5
176
     1
170
     0
176
     1
171
     0
176
     1
290
     0
176
     1
 93
        1
176
     1
 44
0.0
176
     1
173
     0
176
     1
  0
VISUALSTYLE
  5
2B
102
{ACAD_REACTORS
330
2A
102
}
330
2A
100
AcDbVisualStyle
  2
Flat
 70
     0
177
     2
291
     1
 71
     2
176
     1
 72
     1
176
     1
 73
     1
176
     1
 90
        2
176
     1
 40
-0.6
176
     1
 41
30.0
176
     1
 62
     5
 63
     7
421
 16777215
176
     1
 74
     0
176
     1
 91
        4
176
     1
 64
     7
176
     1
 65
   257
176
     1
 75
     1
176
     1
175
     1
176
     1
 42
1.0
176
     1
 92
        8
176
     1
 66
     7
176
     1
 43
1.0
176
     1
 76
     1
176
     1
 77
     6
176
     1
 78
     2
176
     1
 67
     7
176
     1
 79
     5
176
     1
170
     0
176
     1
171
     0
176
     1
290
     0
176
     1
 93
       13
176
     1
 44
0.0
176
     1
173
     0
176
     1
  0
VISUALSTYLE
  5
2C
102
{ACAD_REACTORS
330
2A
102
}
330
2A
100
AcDbVisualStyle
  2
FlatWithEdges
 70
     1
177
     2
291
     1
 71
     2
176
     1
 72
     1
176
     1
 73
     1
176
     1
 90
        2
176
     1
 40
-0.6
176
     1
 41
30.0
176
     1
 62
     5
 63
     7
421
 16777215
176
     1
 74
     1
176
     1
 91
        4
176
     1
 64
     7
176
     1
 65
   257
176
     1
 75
     1
176
     1
175
     1
176
     1
 42
1.0
176
     1
 92
        0
176
     1
 66
   257
176
     1
 43
1.0
176
     1
 76
     1
176
     1
 77
     6
176
     1
 78
     2
176
     1
 67
     7
176
     1
 79
     5
176
     1
170
     0
176
     1
171
     0
176
     1
290
     0
176
     1
 93
       13
176
     1
 44
0.0
176
     1
173
     0
176
     1
  0
VISUALSTYLE
  5
2D
102
{ACAD_REACTORS
330
2A
102
}
330
2A
100
AcDbVisualStyle
  2
Gouraud
 70
     2
177
     2
291
     1
 71
     2
176
     1
 72
     2
176
     1
 73
     1
176
     1
 90
        2
176
     1
 40
-0.6
176
     1
 41
30.0
176
     1
 62
     5
 63
     7
421
 16777215
176
     1
 74
     0
176
     1
 91
        4
176
     1
 64
     7
176
     1
 65
   257
176
     1
 75
     1
176
     1
175
     1
176
     1
 42
1.0
176
     1
 92
        0
176
     1
 66
     7
176
     1
 43
1.0
176
     1
 76
     1
176
     1
 77
     6
176
     1
 78
     2
176
     1
 67
     7
176
     1
 79
     5
176
     1
170
     0
176
     1
171
     0
176
     1
290
     0
176
     1
 93
       13
176
     1
 44
0.0
176
     1
173
     0
176
     1
  0
VISUALSTYLE
  5
2E
102
{ACAD_REACTORS
330
2A
102
}
330
2A
100
AcDbVisualStyle
  2
GouraudWithEdges
 70
     3
177
     2
291
     1
 71
     2
176
     1
 72
     2
176
     1
 73
     1
176
     1
 90
        2
176
     1
 40
-0.6
176
     1
 41
30.0
176
     1
 62
     5
 63
     7
421
 16777215
176
     1
 74
     1
176
     1
 91
        4
176
     1
 64
     7
176
     1
 65
   257
176
     1
 75
     1
176
     1
175
     1
176
     1
 42
1.0
176
     1
 92
        0
176
     1
 66
   257
176
     1
 43
1.0
176
     1
 76
     1
176
     1
 77
     6
176
     1
 78
     2
176
     1
 67
     7
176
     1
 79
     5
176
     1
170
     0
176
     1
171
     0
176
     1
290
     0
176
     1
 93
       13
176
     1
 44
0.0
176
     1
173
     0
176
     1
  0
VISUALSTYLE
  5
38
102
{ACAD_REACTORS
330
2A
102
}
330
2A
100
AcDbVisualStyle
  2
Linepattern
 70
    14
177
     2
291
     1
 71
     2
176
     1
 72
     2
176
     1
 73
     0
176
     1
 90
        0
176
     1
 40
-0.6
176
     1
 41
-30.0
176
     1
 62
     5
 63
     7
421
 16777215
176
     1
 74
     1
176
     1
 91
        4
176
     1
 64
     7
176
     1
 65
   257
176
     1
 75
     7
176
     1
175
     7
176
     1
 42
1.0
176
     1
 92
        8
176
     1
 66
     7
176
     1
 43
1.0
176
     1
 76
     1
176
     1
 77
     6
176
     1
 78
     2
176
     1
 67
     7
176
     1
 79
     5
176
     1
170
     0
176
     1
171
     0
176
     1
290
     0
176
     1
 93
        1
176
     1
 44
0.0
176
     1
173
     0
176
     1
  0
VISUALSTYLE
  5
33
102
{ACAD_REACTORS
330
2A
102
}
330
2A
100
AcDbVisualStyle
  2
Realistic
 70
     8
177
     2
291
     0
 71
     2
176
     1
 72
     2
176
     1
 73
     0
176
     1
 90
        0
176
     1
 40
-0.6
176
     1
 41
-30.0
176
     1
 62
     5
 63
     7
421
 16777215
176
     1
 74
     1
176
     1
 91
        0
176
     1
 64
     7
176
     1
 65
   257
176
     1
 75
     1
176
     1
175
     1
176
     1
 42
1.0
176
     1
 92
        8
176
     1
 66
     8
424
  7895160
176
     1
 43
1.0
176
     1
 76
     1
176
     1
 77
     6
176
     1
 78
     2
176
     1
 67
     7
176
     1
 79
     5
176
     1
170
     0
176
     1
171
     0
176
     1
290
     0
176
     1
 93
       13
176
     1
 44
0.0
176
     1
173
     0
176
     1
  0
VISUALSTYLE
  5
37
102
{ACAD_REACTORS
330
2A
102
}
330
2A
100
AcDbVisualStyle
  2
Thicken
 70
    13
177
     2
291
     1
 71
     2
176
     1
 72
     2
176
     1
 73
     0
176
     1
 90
        0
176
     1
 40
-0.6
176
     1
 41
-30.0
176
     1
 62
     5
 63
     7
421
 16777215
176
     1
 74
     1
176
     1
 91
        4
176
     1
 64
     7
176
     1
 65
   257
176
     1
 75
     1
176
     1
175
     1
176
     1
 42
1.0
176
     1
 92
       12
176
     1
 66
     7
176
     1
 43
1.0
176
     1
 76
     1
176
     1
 77
     6
176
     1
 78
     2
176
     1
 67
     7
176
     1
 79
     5
176
     1
170
     0
176
     1
171
     0
176
     1
290
     0
176
     1
 93
        1
176
     1
 44
0.0
176
     1
173
     0
176
     1
  0
ENDSEC
  0
EOF
