  0
SECTION
  2
HEADER
  9
$ACADVER
  1
AC1015
  9
$ACADMAINTVER
 70
     6
  9
$DWGCODEPAGE
  3
ANSI_1252
  9
$INSBASE
 10
0.0
 20
0.0
 30
0.0
  9
$EXTMIN
 10
0.0
 20
0.0
 30
0.0
  9
$EXTMAX
 10
594.0
 20
841.0
 30
0.0
  9
$LIMMIN
 10
0.0
 20
0.0
  9
$LIMMAX
 10
594.0
 20
841.0
  9
$ORTHOMODE
 70
     0
  9
$REGENMODE
 70
     1
  9
$FILLMODE
 70
     1
  9
$QTEXTMODE
 70
     0
  9
$MIRRTEXT
 70
     1
  9
$LTSCALE
 40
1.0
  9
$ATTMODE
 70
     1
  9
$TEXTSIZE
 40
10.0
  9
$TRACEWID
 40
1.0
  9
$TEXTSTYLE
  7
Standard
  9
$CLAYER
  8
0
  9
$CELTYPE
  6
ByLayer
  9
$CECOLOR
 62
   256
  9
$CELTSCALE
 40
1.0
  9
$DISPSILH
 70
     0
  9
$DIMSCALE
 40
1.0
  9
$DIMASZ
 40
2.5
  9
$DIMEXO
 40
0.0
  9
$DIMDLI
 40
3.75
  9
$DIMRND
 40
0.0
  9
$DIMDLE
 40
0.0
  9
$DIMEXE
 40
1.0
  9
$DIMTP
 40
0.0
  9
$DIMTM
 40
0.0
  9
$DIMTXT
 40
3.5
  9
$DIMCEN
 40
2.5
  9
$DIMTSZ
 40
0.0
  9
$DIMTOL
 70
     0
  9
$DIMLIM
 70
     0
  9
$DIMTIH
 70
     1
  9
$DIMTOH
 70
     1
  9
$DIMSE1
 70
     0
  9
$DIMSE2
 70
     0
  9
$DIMTAD
 70
     1
  9
$DIMZIN
 70
     0
  9
$DIMBLK
  1

  9
$DIMASO
 70
     1
  9
$DIMSHO
 70
     1
  9
$DIMPOST
  1

  9
$DIMAPOST
  1

  9
$DIMALT
 70
     0
  9
$DIMALTD
 70
     3
  9
$DIMALTF
 40
0.0393700787
  9
$DIMLFAC
 40
1.0
  9
$DIMTOFL
 70
     1
  9
$DIMTVP
 40
0.0
  9
$DIMTIX
 70
     0
  9
$DIMSOXD
 70
     0
  9
$DIMSAH
 70
     0
  9
$DIMBLK1
  1

  9
$DIMBLK2
  1

  9
$DIMSTYLE
  2
ISO-25
  9
$DIMCLRD
 70
     0
  9
$DIMCLRE
 70
     0
  9
$DIMCLRT
 70
     0
  9
$DIMTFAC
 40
1.0
  9
$DIMGAP
 40
1.5
  9
$DIMJUST
 70
     0
  9
$DIMSD1
 70
     0
  9
$DIMSD2
 70
     0
  9
$DIMTOLJ
 70
     0
  9
$DIMTZIN
 70
     0
  9
$DIMALTZ
 70
     0
  9
$DIMALTTZ
 70
     0
  9
$DIMUPT
 70
     0
  9
$DIMDEC
 70
     2
  9
$DIMTDEC
 70
     2
  9
$DIMALTU
 70
     2
  9
$DIMALTTD
 70
     3
  9
$DIMTXSTY
  7
Standard
  9
$DIMAUNIT
 70
     0
  9
$DIMADEC
 70
     2
  9
$DIMALTRND
 40
0.0
  9
$DIMAZIN
 70
     0
  9
$DIMDSEP
 70
    44
  9
$DIMATFIT
 70
     3
  9
$DIMFRAC
 70
     0
  9
$DIMLDRBLK
  1

  9
$DIMLUNIT
 70
     2
  9
$DIMLWD
 70
    -2
  9
$DIMLWE
 70
    -2
  9
$DIMTMOVE
 70
     0
  9
$LUNITS
 70
     2
  9
$LUPREC
 70
     2
  9
$SKETCHINC
 40
1.0
  9
$FILLETRAD
 40
10.0
  9
$AUNITS
 70
     0
  9
$AUPREC
 70
     2
  9
$MENU
  1
.
  9
$ELEVATION
 40
0.0
  9
$PELEVATION
 40
0.0
  9
$THICKNESS
 40
0.0
  9
$LIMCHECK
 70
     0
  9
$CHAMFERA
 40
0.0
  9
$CHAMFERB
 40
0.0
  9
$CHAMFERC
 40
0.0
  9
$CHAMFERD
 40
0.0
  9
$SKPOLY
 70
     0
  9
$TDCREATE
 40
2457872.526892558
  9
$TDUCREATE
 40
2457872.443559225
  9
$TDUPDATE
 40
2457872.526894907
  9
$TDUUPDATE
 40
2457872.443561574
  9
$TDINDWG
 40
0.0000000116
  9
$TDUSRTIMER
 40
0.0000000116
  9
$USRTIMER
 70
     1
  9
$ANGBASE
 50
0.0
  9
$ANGDIR
 70
     0
  9
$PDMODE
 70
     0
  9
$PDSIZE
 40
-1.0
  9
$PLINEWID
 40
0.0
  9
$SPLFRAME
 70
     0
  9
$SPLINETYPE
 70
     6
  9
$SPLINESEGS
 70
     8
  9
$HANDSEED
  5
156
  9
$SURFTAB1
 70
     6
  9
$SURFTAB2
 70
     6
  9
$SURFTYPE
 70
     6
  9
$SURFU
 70
     6
  9
$SURFV
 70
     6
  9
$UCSBASE
  2

  9
$UCSNAME
  2

  9
$UCSORG
 10
0.0
 20
0.0
 30
0.0
  9
$UCSXDIR
 10
1.0
 20
0.0
 30
0.0
  9
$UCSYDIR
 10
0.0
 20
1.0
 30
0.0
  9
$UCSORTHOREF
  2

  9
$UCSORTHOVIEW
 70
     0
  9
$UCSORGTOP
 10
0.0
 20
0.0
 30
0.0
  9
$UCSORGBOTTOM
 10
0.0
 20
0.0
 30
0.0
  9
$UCSORGLEFT
 10
0.0
 20
0.0
 30
0.0
  9
$UCSORGRIGHT
 10
0.0
 20
0.0
 30
0.0
  9
$UCSORGFRONT
 10
0.0
 20
0.0
 30
0.0
  9
$UCSORGBACK
 10
0.0
 20
0.0
 30
0.0
  9
$PUCSBASE
  2

  9
$PUCSNAME
  2

  9
$PUCSORG
 10
0.0
 20
0.0
 30
0.0
  9
$PUCSXDIR
 10
1.0
 20
0.0
 30
0.0
  9
$PUCSYDIR
 10
0.0
 20
1.0
 30
0.0
  9
$PUCSORTHOREF
  2

  9
$PUCSORTHOVIEW
 70
     0
  9
$PUCSORGTOP
 10
0.0
 20
0.0
 30
0.0
  9
$PUCSORGBOTTOM
 10
0.0
 20
0.0
 30
0.0
  9
$PUCSORGLEFT
 10
0.0
 20
0.0
 30
0.0
  9
$PUCSORGRIGHT
 10
0.0
 20
0.0
 30
0.0
  9
$PUCSORGFRONT
 10
0.0
 20
0.0
 30
0.0
  9
$PUCSORGBACK
 10
0.0
 20
0.0
 30
0.0
  9
$USERI1
 70
     0
  9
$USERI2
 70
     0
  9
$USERI3
 70
     0
  9
$USERI4
 70
     0
  9
$USERI5
 70
     0
  9
$USERR1
 40
0.0
  9
$USERR2
 40
0.0
  9
$USERR3
 40
0.0
  9
$USERR4
 40
0.0
  9
$USERR5
 40
0.0
  9
$WORLDVIEW
 70
     1
  9
$SHADEDGE
 70
     3
  9
$SHADEDIF
 70
    70
  9
$TILEMODE
 70
     1
  9
$MAXACTVP
 70
    64
  9
$PINSBASE
 10
0.0
 20
0.0
 30
0.0
  9
$PLIMCHECK
 70
     0
  9
$PEXTMIN
 10
1.0000000000E+20
 20
1.0000000000E+20
 30
1.0000000000E+20
  9
$PEXTMAX
 10
-1.0000000000E+20
 20
-1.0000000000E+20
 30
-1.0000000000E+20
  9
$PLIMMIN
 10
0.0
 20
0.0
  9
$PLIMMAX
 10
420.0
 20
297.0
  9
$UNITMODE
 70
     0
  9
$VISRETAIN
 70
     1
  9
$PLINEGEN
 70
     0
  9
$PSLTSCALE
 70
     1
  9
$TREEDEPTH
 70
  3020
  9
$CMLSTYLE
  2
Standard
  9
$CMLJUST
 70
     0
  9
$CMLSCALE
 40
20.0
  9
$PROXYGRAPHICS
 70
     1
  9
$MEASUREMENT
 70
     1
  9
$CELWEIGHT
370
    -1
  9
$ENDCAPS
280
     0
  9
$JOINSTYLE
280
     0
  9
$LWDISPLAY
290
     1
  9
$INSUNITS
 70
     4
  9
$HYPERLINKBASE
  1

  9
$STYLESHEET
  1

  9
$XEDIT
290
     1
  9
$CEPSNTYPE
380
     0
  9
$PSTYLEMODE
290
     1
  9
$FINGERPRINTGUID
  2
{716AB791-62BD-44F3-AB35-B322FE7EB199}
  9
$VERSIONGUID
  2
{FAEB1C32-E019-11D5-929B-00C0DF256EC4}
  9
$EXTNAMES
290
     1
  9
$PSVPSCALE
 40
0.0
  9
$OLESTARTUP
290
     0
  0
ENDSEC
  0
SECTION
  2
CLASSES
  0
CLASS
  1
ACDBDICTIONARYWDFLT
  2
AcDbDictionaryWithDefault
  3
ObjectDBX Classes
 90
        0
280
     0
281
     0
  0
CLASS
  1
VISUALSTYLE
  2
AcDbVisualStyle
  3
ObjectDBX Classes
 90
     4095
280
     0
281
     0
  0
CLASS
  1
MATERIAL
  2
AcDbMaterial
  3
ObjectDBX Classes
 90
     1153
280
     0
281
     0
  0
CLASS
  1
SCALE
  2
AcDbScale
  3
ObjectDBX Classes
 90
     1153
280
     0
281
     0
  0
CLASS
  1
TABLESTYLE
  2
AcDbTableStyle
  3
ObjectDBX Classes
 90
     4095
280
     0
281
     0
  0
CLASS
  1
MLEADERSTYLE
  2
AcDbMLeaderStyle
  3
ACDB_MLEADERSTYLE_CLASS
 90
     4095
280
     0
281
     0
  0
CLASS
  1
SUN
  2
AcDbSun
  3
SCENEOE
 90
     1153
280
     0
281
     0
  0
CLASS
  1
ACDBPLACEHOLDER
  2
AcDbPlaceHolder
  3
ObjectDBX Classes
 90
        0
280
     0
281
     0
  0
CLASS
  1
LAYOUT
  2
AcDbLayout
  3
ObjectDBX Classes
 90
        0
280
     0
281
     0
  0
ENDSEC
  0
SECTION
  2
TABLES
  0
TABLE
  2
VPORT
  5
8
330
0
100
AcDbSymbolTable
 70
     1
  0
VPORT
  5
29
330
8
100
AcDbSymbolTableRecord
100
AcDbViewportTableRecord
  2
*Active
 70
     0
 10
0.0
 20
0.0
 11
1.0
 21
1.0
 12
297.0
 22
420.5
 13
0.0
 23
0.0
 14
10.0
 24
10.0
 15
10.0
 25
10.0
 16
0.0
 26
0.0
 36
1.0
 17
0.0
 27
0.0
 37
0.0
 40
841.0
 41
0.7063020214
 42
50.0
 43
0.0
 44
0.0
 50
0.0
 51
0.0
 71
     0
 72
  2000
 73
     1
 74
     3
 75
     0
 76
     0
 77
     0
 78
     0
281
     0
 65
     1
110
0.0
120
0.0
130
0.0
111
1.0
121
0.0
131
0.0
112
0.0
122
1.0
132
0.0
 79
     0
146
0.0
  0
ENDTAB
  0
TABLE
  2
LTYPE
  5
5
330
0
100
AcDbSymbolTable
 70
     6
  0
LTYPE
  5
14
330
5
100
AcDbSymbolTableRecord
100
AcDbLinetypeTableRecord
  2
ByBlock
 70
     0
  3

 72
    65
 73
     0
 40
0.0
  0
LTYPE
  5
15
330
5
100
AcDbSymbolTableRecord
100
AcDbLinetypeTableRecord
  2
ByLayer
 70
     0
  3

 72
    65
 73
     0
 40
0.0
  0
LTYPE
  5
16
330
5
100
AcDbSymbolTableRecord
100
AcDbLinetypeTableRecord
  2
Continuous
 70
     0
  3
Solid line
 72
    65
 73
     0
 40
0.0
  0
LTYPE
  5
6E
330
5
100
AcDbSymbolTableRecord
100
AcDbLinetypeTableRecord
  2
HIDDEN
 70
     0
  3
Hidden __ __ __ __ __ __ __ __ __ __ __ __ __ __
 72
    65
 73
     2
 40
1.905
 49
1.27
 74
     0
 49
-0.635
 74
     0
  0
LTYPE
  5
6F
330
5
100
AcDbSymbolTableRecord
100
AcDbLinetypeTableRecord
  2
PHANTOM
 70
     0
  3
Phantom ______  __  __  ______  __  __  ______
 72
    65
 73
     6
 40
12.7
 49
6.35
 74
     0
 49
-1.27
 74
     0
 49
1.27
 74
     0
 49
-1.27
 74
     0
 49
1.27
 74
     0
 49
-1.27
 74
     0
  0
LTYPE
  5
70
330
5
100
AcDbSymbolTableRecord
100
AcDbLinetypeTableRecord
  2
CENTER
 70
     0
  3
Center ____ _ ____ _ ____ _ ____ _ ____ _ ____
 72
    65
 73
     4
 40
10.16
 49
6.35
 74
     0
 49
-1.27
 74
     0
 49
1.27
 74
     0
 49
-1.27
 74
     0
  0
LTYPE
  5
71
330
5
100
AcDbSymbolTableRecord
100
AcDbLinetypeTableRecord
  2
CENTERX2
 70
     0
  3
Center (2x) ________  __  ________  __  _____
 72
    65
 73
     4
 40
20.32
 49
12.7
 74
     0
 49
-2.54
 74
     0
 49
2.54
 74
     0
 49
-2.54
 74
     0
  0
LTYPE
  5
72
330
5
100
AcDbSymbolTableRecord
100
AcDbLinetypeTableRecord
  2
DOT2
 70
     0
  3
Dot (.5x) ........................................
 72
    65
 73
     2
 40
0.635
 49
0.0
 74
     0
 49
-0.635
 74
     0
  0
ENDTAB
  0
TABLE
  2
LAYER
  5
2
330
0
100
AcDbSymbolTable
 70
     1
  0
LAYER
  5
10
330
2
100
AcDbSymbolTableRecord
100
AcDbLayerTableRecord
  2
0
 70
     0
 62
     7
  6
Continuous
370
    -3
390
F
  0
ENDTAB
  0
TABLE
  2
STYLE
  5
3
330
0
100
AcDbSymbolTable
 70
     3
  0
STYLE
  5
11
330
3
100
AcDbSymbolTableRecord
100
AcDbTextStyleTableRecord
  2
Standard
 70
     0
 40
0.0
 41
1.0
 50
0.0
 71
     0
 42
10.0
  3
txt
  4

  0
STYLE
  5
76
330
3
100
AcDbSymbolTableRecord
100
AcDbTextStyleTableRecord
  2
SLDTEXTSTYLE0
 70
     0
 40
0.0
 41
0.96
 50
0.0
 71
     0
 42
10.0
  3
ISOCP3
  4

  0
STYLE
  5
8D
330
3
100
AcDbSymbolTableRecord
100
AcDbTextStyleTableRecord
  2
SLDTEXTSTYLE1
 70
     0
 40
0.0
 41
0.605
 50
0.0
 71
     0
 42
10.0
  3
TXT
  4

  0
ENDTAB
  0
TABLE
  2
VIEW
  5
6
330
0
100
AcDbSymbolTable
 70
     0
  0
ENDTAB
  0
TABLE
  2
UCS
  5
7
330
0
100
AcDbSymbolTable
 70
     0
  0
ENDTAB
  0
TABLE
  2
APPID
  5
9
330
0
100
AcDbSymbolTable
 70
     1
  0
APPID
  5
12
330
9
100
AcDbSymbolTableRecord
100
AcDbRegAppTableRecord
  2
ACAD
 70
     0
  0
ENDTAB
  0
TABLE
  2
DIMSTYLE
  5
A
330
0
100
AcDbSymbolTable
 70
     2
100
AcDbDimStyleTable
  0
DIMSTYLE
105
27
330
A
100
AcDbSymbolTableRecord
100
AcDbDimStyleTableRecord
  2
ISO-25
 70
     0
 41
2.5
 42
0.625
 43
3.75
 44
1.25
 73
     0
 74
     0
 77
     1
 78
     8
140
2.5
141
2.5
143
0.0393700787
147
0.625
171
     3
172
     1
178
     0
271
     2
272
     2
274
     3
278
    44
283
     0
284
     8
340
11
  0
DIMSTYLE
105
77
102
{ACAD_REACTORS
330
75
330
82
102
}
330
A
100
AcDbSymbolTableRecord
100
AcDbDimStyleTableRecord
  2
SLDDIMSTYLE0
 70
     0
 41
2.5
 44
0.0
 45
0.000000001
 73
     0
 74
     0
 77
     1
 78
    12
 79
     3
140
6.0
147
1.5
173
     1
178
     0
271
     2
272
     2
276
     2
284
    12
340
76
  0
ENDTAB
  0
TABLE
  2
BLOCK_RECORD
  5
1
330
0
100
AcDbSymbolTable
 70
     3
  0
BLOCK_RECORD
  5
1F
330
1
100
AcDbSymbolTableRecord
100
AcDbBlockTableRecord
  2
*Model_Space
340
22
  0
BLOCK_RECORD
  5
1B
330
1
100
AcDbSymbolTableRecord
100
AcDbBlockTableRecord
  2
*Paper_Space
340
1E
  0
BLOCK_RECORD
  5
23
330
1
100
AcDbSymbolTableRecord
100
AcDbBlockTableRecord
  2
*Paper_Space0
340
26
  0
BLOCK_RECORD
  5
78
330
1
100
AcDbSymbolTableRecord
100
AcDbBlockTableRecord
  2
_D
340
0
  0
BLOCK_RECORD
  5
83
330
1
100
AcDbSymbolTableRecord
100
AcDbBlockTableRecord
  2
_D_1
340
0
  0
ENDTAB
  0
ENDSEC
  0
SECTION
  2
BLOCKS
  0
BLOCK
  5
20
330
1F
100
AcDbEntity
  8
0
100
AcDbBlockBegin
  2
*Model_Space
 70
     0
 10
0.0
 20
0.0
 30
0.0
  3
*Model_Space
  1

  0
ENDBLK
  5
21
330
1F
100
AcDbEntity
  8
0
100
AcDbBlockEnd
  0
BLOCK
  5
1C
330
1B
100
AcDbEntity
 67
     1
  8
0
100
AcDbBlockBegin
  2
*Paper_Space
 70
     0
 10
0.0
 20
0.0
 30
0.0
  3
*Paper_Space
  1

  0
ENDBLK
  5
1D
330
1B
100
AcDbEntity
 67
     1
  8
0
100
AcDbBlockEnd
  0
BLOCK
  5
24
330
23
100
AcDbEntity
  8
0
100
AcDbBlockBegin
  2
*Paper_Space0
 70
     0
 10
0.0
 20
0.0
 30
0.0
  3
*Paper_Space0
  1

  0
ENDBLK
  5
25
330
23
100
AcDbEntity
  8
0
100
AcDbBlockEnd
  0
BLOCK
  5
79
330
78
100
AcDbEntity
  8
0
100
AcDbBlockBegin
  2
_D
 70
     0
 10
0.0
 20
0.0
 30
0.0
  3
_D
  1

  0
SOLID
  5
7B
330
78
100
AcDbEntity
  8
0
  6
Continuous
 62
     7
370
    18
100
AcDbTrace
 10
42.7614395004
 20
152.0299240879
 30
0.0
 11
42.4614395004
 21
149.5299240879
 31
0.0
 12
43.0614395004
 22
149.5299240879
 32
0.0
 13
43.0614395004
 23
149.5299240879
 33
0.0
  0
SOLID
  5
7C
330
78
100
AcDbEntity
  8
0
  6
Continuous
 62
     7
370
    18
100
AcDbTrace
 10
42.7614395004
 20
52.0299240879
 30
0.0
 11
43.0614395004
 21
54.5299240879
 31
0.0
 12
42.4614395004
 22
54.5299240879
 32
0.0
 13
42.4614395004
 23
54.5299240879
 33
0.0
  0
LINE
  5
7D
330
78
100
AcDbEntity
  8
0
  6
Continuous
 62
     7
370
    18
100
AcDbLine
 10
56.6850079902
 20
152.0299240879
 30
0.0
 11
41.7614395004
 21
152.0299240879
 31
0.0
  0
LINE
  5
7E
330
78
100
AcDbEntity
  8
0
  6
Continuous
 62
     7
370
    18
100
AcDbLine
 10
56.6850079902
 20
52.0299240879
 30
0.0
 11
41.7614395004
 21
52.0299240879
 31
0.0
  0
LINE
  5
7F
330
78
100
AcDbEntity
  8
0
  6
Continuous
 62
     7
370
    18
100
AcDbLine
 10
42.7614395004
 20
152.0299240879
 30
0.0
 11
42.7614395004
 21
52.0299240879
 31
0.0
  0
MTEXT
  5
80
330
78
100
AcDbEntity
  8
0
  6
Continuous
 62
     7
370
    18
100
AcDbMText
 10
35.0270332946
 20
94.3680541463
 30
0.0
 40
6.0
 41
0.0
 71
     1
 72
     1
  1
100
  7
SLDTEXTSTYLE0
 11
-7.044195017643634E-15
 21
1.0
 31
0.0
 73
     1
 44
1.0
  0
MTEXT
  5
81
330
78
100
AcDbEntity
  8
0
  6
Continuous
 62
     7
370
    18
100
AcDbMText
 10
35.0270332946
 20
105.7430548466
 30
0.0
 40
6.0
 41
0.0
 71
     1
 72
     1
  1
mm
  7
SLDTEXTSTYLE0
 11
-7.044195017643634E-15
 21
1.0
 31
0.0
 73
     1
 44
1.0
  0
ENDBLK
  5
7A
330
78
100
AcDbEntity
  8
0
100
AcDbBlockEnd
  0
BLOCK
  5
84
330
83
100
AcDbEntity
  8
0
100
AcDbBlockBegin
  2
_D_1
 70
     0
 10
0.0
 20
0.0
 30
0.0
  3
_D_1
  1

  0
SOLID
  5
86
330
83
100
AcDbEntity
  8
0
  6
Continuous
 62
     7
370
    18
100
AcDbTrace
 10
56.6850079902
 20
38.4602342313
 30
0.0
 11
59.1850079902
 21
38.1602342313
 31
0.0
 12
59.1850079902
 22
38.7602342313
 32
0.0
 13
59.1850079902
 23
38.7602342313
 33
0.0
  0
SOLID
  5
87
330
83
100
AcDbEntity
  8
0
  6
Continuous
 62
     7
370
    18
100
AcDbTrace
 10
156.6850079902
 20
38.4602342313
 30
0.0
 11
154.1850079902
 21
38.7602342313
 31
0.0
 12
154.1850079902
 22
38.1602342313
 32
0.0
 13
154.1850079902
 23
38.1602342313
 33
0.0
  0
LINE
  5
88
330
83
100
AcDbEntity
  8
0
  6
Continuous
 62
     7
370
    18
100
AcDbLine
 10
56.6850079902
 20
52.0299240879
 30
0.0
 11
56.6850079902
 21
37.4602342313
 31
0.0
  0
LINE
  5
89
330
83
100
AcDbEntity
  8
0
  6
Continuous
 62
     7
370
    18
100
AcDbLine
 10
156.6850079902
 20
52.0299240879
 30
0.0
 11
156.6850079902
 21
37.4602342313
 31
0.0
  0
LINE
  5
8A
330
83
100
AcDbEntity
  8
0
  6
Continuous
 62
     7
370
    18
100
AcDbLine
 10
56.6850079902
 20
38.4602342313
 30
0.0
 11
156.6850079902
 21
38.4602342313
 31
0.0
  0
MTEXT
  5
8B
330
83
100
AcDbEntity
  8
0
  6
Continuous
 62
     7
370
    18
100
AcDbMText
 10
93.9626484861
 20
46.1946404371
 30
0.0
 40
6.0
 41
0.0
 71
     1
 72
     1
  1
100
  7
SLDTEXTSTYLE0
 73
     1
 44
1.0
  0
MTEXT
  5
8C
330
83
100
AcDbEntity
  8
0
  6
Continuous
 62
     7
370
    18
100
AcDbMText
 10
105.3376491864
 20
46.1946404371
 30
0.0
 40
6.0
 41
0.0
 71
     1
 72
     1
  1
mm
  7
SLDTEXTSTYLE0
 73
     1
 44
1.0
  0
ENDBLK
  5
85
330
83
100
AcDbEntity
  8
0
100
AcDbBlockEnd
  0
ENDSEC
  0
SECTION
  2
ENTITIES
  0
LINE
  5
73
330
1F
100
AcDbEntity
  8
0
  6
Continuous
 62
     7
370
    18
100
AcDbLine
 10
56.6850079902
 20
152.0299240879
 30
0.0
 11
56.6850079902
 21
52.0299240879
 31
0.0
  0
LINE
  5
74
330
1F
100
AcDbEntity
  8
0
  6
Continuous
 62
     7
370
    18
100
AcDbLine
 10
56.6850079902
 20
52.0299240879
 30
0.0
 11
156.6850079902
 21
52.0299240879
 31
0.0
  0
DIMENSION
  5
75
330
1F
100
AcDbEntity
  8
0
  6
Continuous
 62
     7
370
    18
100
AcDbDimension
  2
_D
 10
42.7614395004
 20
52.0299240879
 30
0.0
 11
42.7614395004
 21
105.4472211621
 31
0.0
 70
   160
  1
<>mm
 71
     2
 42
-1.0
  3
SLDDIMSTYLE0
100
AcDbAlignedDimension
 13
56.6850079902
 23
152.0299240879
 33
0.0
 14
56.6850079902
 24
52.0299240879
 34
0.0
 50
90.0
100
AcDbRotatedDimension
  0
DIMENSION
  5
82
330
1F
100
AcDbEntity
  8
0
  6
Continuous
 62
     7
370
    18
100
AcDbDimension
  2
_D_1
 10
156.6850079902
 20
38.4602342313
 30
0.0
 11
105.0418155019
 21
38.4602342313
 31
0.0
 70
   160
  1
<>mm
 71
     2
 42
-1.0
  3
SLDDIMSTYLE0
100
AcDbAlignedDimension
 13
56.6850079902
 23
52.0299240879
 33
0.0
 14
156.6850079902
 24
52.0299240879
 34
0.0
100
AcDbRotatedDimension
  0
MTEXT
  5
8E
330
1F
100
AcDbEntity
  8
0
  6
Continuous
 62
     7
370
     0
100
AcDbMText
 10
412.8252631579
 20
48.4342449499
 30
0.0
 40
10.0
 41
0.0
 71
     1
 72
     1
  1
KLUDI GmbH & Co KG
  7
SLDTEXTSTYLE1
 73
     1
 44
1.0
  0
MTEXT
  5
8F
330
1F
100
AcDbEntity
  8
0
  6
Continuous
 62
     7
370
     0
100
AcDbMText
 10
210.0873490389
 20
48.4342449499
 30
0.0
 40
10.0
 41
0.0
 71
     1
 72
     1
  1
41 655 05 75
  7
SLDTEXTSTYLE1
 73
     1
 44
1.0
  0
SPLINE
  5
90
330
1F
100
AcDbEntity
  8
0
  6
Continuous
 62
     7
370
    25
100
AcDbSpline
210
0.0
220
0.0
230
1.0
 70
     8
 71
     3
 72
    19
 73
    15
 74
     0
 42
0.000000001
 43
0.00000001
 40
0.0
 40
0.0
 40
0.0
 40
0.0
 40
0.1420009700302072
 40
0.2626419528256881
 40
0.3620080562805217
 40
0.4409332743668695
 40
0.510349441806534
 40
0.5910304932139507
 40
0.6284154682452797
 40
0.6741960171843778
 40
0.7358171542348538
 40
0.811995724810042
 40
0.9009325764766823
 40
1.0
 40
1.0
 40
1.0
 40
1.0
 10
185.0684036366601
 20
236.7050527310111
 30
0.0
 10
186.5721276138187
 20
236.7107834173866
 30
0.0
 10
189.3533832755772
 20
236.7213827721683
 30
0.0
 10
193.1863375222088
 20
236.8045158535105
 30
0.0
 10
196.3488266369338
 20
236.9328746167349
 30
0.0
 10
198.9692774447951
 20
237.0602738801915
 30
0.0
 10
201.3769945435719
 20
237.3734199923423
 30
0.0
 10
203.2880747091421
 20
238.010211286234
 30
0.0
 10
204.7583992412249
 20
238.9451440351716
 30
0.0
 10
205.8928245312506
 20
239.9898801754847
 30
0.0
 10
207.0281770671933
 20
241.590077046174
 30
0.0
 10
207.9100510233505
 20
243.84846953182
 30
0.0
 10
208.3466951686867
 20
246.628753093262
 30
0.0
 10
208.3630267616822
 20
248.6208143160296
 30
0.0
 10
208.3716325704515
 20
249.6705158328749
 30
0.0
  0
SPLINE
  5
91
330
1F
100
AcDbEntity
  8
0
  6
Continuous
 62
     7
370
    25
100
AcDbSpline
210
0.0
220
0.0
230
1.0
 70
     8
 71
     3
 72
     9
 73
     5
 74
     0
 42
0.000000001
 43
0.00000001
 40
0.0
 40
0.0
 40
0.0
 40
0.0
 40
0.4524477563873357
 40
1.0
 40
1.0
 40
1.0
 40
1.0
 10
160.8644638453185
 20
291.9090251153447
 30
0.0
 10
160.9906304229036
 20
285.5385789342458
 30
0.0
 10
161.2694837839911
 20
271.4586192236153
 30
0.0
 10
161.5898149266129
 20
257.3795398702372
 30
0.0
 10
161.7652129624545
 20
249.6705083822943
 30
0.0
  0
SPLINE
  5
92
330
1F
100
AcDbEntity
  8
0
  6
Continuous
 62
     7
370
    25
100
AcDbSpline
210
0.0
220
0.0
230
1.0
 70
     8
 71
     3
 72
     9
 73
     5
 74
     0
 42
0.000000001
 43
0.00000001
 40
0.0
 40
0.0
 40
0.0
 40
0.0
 40
0.4525041017562781
 40
1.0
 40
1.0
 40
1.0
 40
1.0
 10
208.3717499170958
 20
249.6705083822943
 30
0.0
 10
208.5174963808219
 20
256.0408853477904
 30
0.0
 10
208.8395850937426
 20
270.1189388743135
 30
0.0
 10
209.1193002526817
 20
284.1978995831569
 30
0.0
 10
209.2724431548774
 20
291.9060728227831
 30
0.0
  0
SPLINE
  5
93
330
1F
100
AcDbEntity
  8
0
  6
Continuous
 62
     7
370
    25
100
AcDbSpline
210
0.0
220
0.0
230
1.0
 70
     8
 71
     3
 72
    19
 73
    15
 74
     0
 42
0.000000001
 43
0.00000001
 40
0.0
 40
0.0
 40
0.0
 40
0.0
 40
0.099258102465867
 40
0.1883792529046965
 40
0.2646297596442803
 40
0.3262253002580402
 40
0.3718906165128845
 40
0.4088298305914772
 40
0.4892970909993521
 40
0.5587410596992689
 40
0.6378626419652419
 40
0.7372952746998592
 40
0.8579897613818173
 40
1.0
 40
1.0
 40
1.0
 40
1.0
 10
161.7653303090989
 20
249.6705158328749
 30
0.0
 10
161.7741643953458
 20
248.6188448601829
 30
0.0
 10
161.7909303673514
 20
246.6229071259774
 30
0.0
 10
162.2272464208728
 20
243.8372671864307
 30
0.0
 10
163.1155843009776
 20
241.5789091947727
 30
0.0
 10
164.2502699812156
 20
239.9790647639781
 30
0.0
 10
165.383400216699
 20
238.941888184635
 30
0.0
 10
166.8476189842581
 20
238.0132737867619
 30
0.0
 10
168.75136042525
 20
237.3767457242302
 30
0.0
 10
171.1588958584917
 20
237.0603034774316
 30
0.0
 10
173.7824980910412
 20
236.933306090976
 30
0.0
 10
176.9483213231434
 20
236.804504943545
 30
0.0
 10
180.7826710712501
 20
236.7214119890339
 30
0.0
 10
183.5646028883795
 20
236.7107930231736
 30
0.0
 10
185.0684311911201
 20
236.7050527310111
 30
0.0
  0
SPLINE
  5
94
330
1F
100
AcDbEntity
  8
0
  6
Continuous
 62
     7
370
    25
100
AcDbSpline
210
0.0
220
0.0
230
1.0
 70
     8
 71
     3
 72
    19
 73
    15
 74
     0
 42
0.000000001
 43
0.00000001
 40
0.0
 40
0.0
 40
0.0
 40
0.0
 40
0.1278397973217585
 40
0.2391693898045078
 40
0.3339886701072881
 40
0.4178236671478301
 40
0.5013635501682224
 40
0.5793252019531595
 40
0.657326447763581
 40
0.7429947063602177
 40
0.8000212018008301
 40
0.8619754047380737
 40
0.9296634691866629
 40
1.0
 40
1.0
 40
1.0
 40
1.0
 10
159.8169606421649
 20
335.938005772803
 30
0.0
 10
159.8476806695299
 20
334.0617090610298
 30
0.0
 10
159.9051533060139
 20
330.5514348815619
 30
0.0
 10
160.0010512768489
 20
325.648760984721
 30
0.0
 10
160.0841165734064
 20
321.3916854104349
 30
0.0
 10
160.1570528696685
 20
317.5424630181013
 30
0.0
 10
160.2283066446087
 20
313.940798419843
 30
0.0
 10
160.2984907986799
 20
310.4247865331431
 30
0.0
 10
160.369780185801
 20
306.8775316512139
 30
0.0
 10
160.4361169812983
 20
303.6376682051333
 30
0.0
 10
160.4977709882883
 20
300.6333655853978
 30
0.0
 10
160.5635584449581
 20
297.893450711485
 30
0.0
 10
160.6299007474892
 20
294.957023131294
 30
0.0
 10
160.7859843795152
 20
292.9359892466425
 30
0.0
 10
160.8655236904084
 20
291.9060821360089
 30
0.0
  0
SPLINE
  5
95
330
1F
100
AcDbEntity
  8
0
  6
Continuous
 62
     7
370
    25
100
AcDbSpline
210
0.0
220
0.0
230
1.0
 70
     8
 71
     3
 72
    18
 73
    14
 74
     0
 42
0.000000001
 43
0.00000001
 40
0.0
 40
0.0
 40
0.0
 40
0.0
 40
0.105799281046637
 40
0.2015871593492638
 40
0.2858833072718384
 40
0.3592265114367429
 40
0.4288578241633743
 40
0.4984695882136891
 40
0.5820093759904775
 40
0.6658412628093957
 40
0.7606846377961944
 40
0.8720712833395353
 40
1.0
 40
1.0
 40
1.0
 40
1.0
 10
209.2713926230132
 20
291.9038395112492
 30
0.0
 10
209.3741676475236
 20
293.454247408898
 30
0.0
 10
209.5699924682422
 20
296.4083537206593
 30
0.0
 10
209.6325939382658
 20
300.6066294127103
 30
0.0
 10
209.7163880584938
 20
304.3266740951465
 30
0.0
 10
209.7826458564169
 20
307.663243265774
 30
0.0
 10
209.8457596202623
 20
310.784146943109
 30
0.0
 10
209.9108751270347
 20
314.0547809411918
 30
0.0
 10
209.9797506016363
 20
317.5338897124258
 30
0.0
 10
210.0526886641019
 20
321.3835016691723
 30
0.0
 10
210.1357943486884
 20
325.6418131973783
 30
0.0
 10
210.2317415089981
 20
330.5470889541096
 30
0.0
 10
210.2892495120954
 20
334.0595824483373
 30
0.0
 10
210.3199910615145
 20
335.9372253244854
 30
0.0
  0
SPLINE
  5
96
330
1F
100
AcDbEntity
  8
0
  6
Continuous
 62
     7
370
    25
100
AcDbSpline
210
0.0
220
0.0
230
1.0
 70
     8
 71
     3
 72
     9
 73
     5
 74
     0
 42
0.000000001
 43
0.00000001
 40
0.0
 40
0.0
 40
0.0
 40
0.0
 40
0.5158556920279601
 40
0.9999999999999999
 40
0.9999999999999999
 40
0.9999999999999999
 40
0.9999999999999999
 10
160.3635166083037
 20
353.9278386807181
 30
0.0
 10
160.3296140969569
 20
353.9312895918367
 30
0.0
 10
160.2638931756397
 20
353.9379792749631
 30
0.0
 10
160.1984859526234
 20
353.876884191803
 30
0.0
 10
160.1668194178998
 20
353.8473053550459
 30
0.0
  0
SPLINE
  5
97
330
1F
100
AcDbEntity
  8
0
  6
Continuous
 62
     7
370
    25
100
AcDbSpline
210
0.0
220
0.0
230
1.0
 70
     8
 71
     3
 72
     9
 73
     5
 74
     0
 42
0.000000001
 43
0.00000001
 40
0.0
 40
0.0
 40
0.0
 40
0.0
 40
0.4841943248441462
 40
1.0
 40
1.0
 40
1.0
 40
1.0
 10
209.9701807145535
 20
353.8472643768526
 30
0.0
 10
209.9385100628297
 20
353.8767752241915
 30
0.0
 10
209.8731010935403
 20
353.937723578653
 30
0.0
 10
209.8073437784543
 20
353.9305953267829
 30
0.0
 10
209.77342578215
 20
353.9269185340144
 30
0.0
  0
SPLINE
  5
98
330
1F
100
AcDbEntity
  8
0
  6
Continuous
 62
     7
370
    25
100
AcDbSpline
210
0.0
220
0.0
230
1.0
 70
     8
 71
     3
 72
     9
 73
     5
 74
     0
 42
0.000000001
 43
0.00000001
 40
0.0
 40
0.0
 40
0.0
 40
0.0
 40
0.3494506144716842
 40
1.0
 40
1.0
 40
1.0
 40
1.0
 10
159.6269037817179
 20
348.3910589194037
 30
0.0
 10
159.6234136094986
 20
348.3543587048534
 30
0.0
 10
159.6134260116096
 20
348.2493360978514
 30
0.0
 10
159.5944286408502
 20
348.141504370172
 30
0.0
 10
159.582069912976
 20
348.0713545059897
 30
0.0
  0
SPLINE
  5
99
330
1F
100
AcDbEntity
  8
0
  6
Continuous
 62
     7
370
    25
100
AcDbSpline
210
0.0
220
0.0
230
1.0
 70
     8
 71
     3
 72
     9
 73
     5
 74
     0
 42
0.000000001
 43
0.00000001
 40
0.0
 40
0.0
 40
0.0
 40
0.0
 40
0.5092064201880753
 40
1.0
 40
1.0
 40
1.0
 40
1.0
 10
159.5739767198025
 20
346.7132552242018
 30
0.0
 10
159.6091323189167
 20
344.94263085624
 30
0.0
 10
159.6781722950842
 20
341.465407675692
 30
0.0
 10
159.76637772681
 20
337.9983935293808
 30
0.0
 10
159.8096683864056
 20
336.2968052452542
 30
0.0
  0
SPLINE
  5
9A
330
1F
100
AcDbEntity
  8
0
  6
Continuous
 62
     7
370
    25
100
AcDbSpline
210
0.0
220
0.0
230
1.0
 70
     8
 71
     3
 72
     9
 73
     5
 74
     0
 42
0.000000001
 43
0.00000001
 40
0.0
 40
0.0
 40
0.0
 40
0.0
 40
0.4885813022477297
 40
1.0
 40
1.0
 40
1.0
 40
1.0
 10
159.5676772539078
 20
352.4051746999957
 30
0.0
 10
159.5640876586393
 20
350.9330827872918
 30
0.0
 10
159.5567406822977
 20
347.9200900552091
 30
0.0
 10
159.6025193925619
 20
344.9281026178579
 30
0.0
 10
159.62593148095
 20
343.3979442989565
 30
0.0
  0
SPLINE
  5
9B
330
1F
100
AcDbEntity
  8
0
  6
Continuous
 62
     7
370
    25
100
AcDbSpline
210
0.0
220
0.0
230
1.0
 70
     8
 71
     3
 72
     9
 73
     5
 74
     0
 42
0.000000001
 43
0.00000001
 40
0.0
 40
0.0
 40
0.0
 40
0.0
 40
0.4906461815759726
 40
1.0
 40
1.0
 40
1.0
 40
1.0
 10
210.3274118397891
 20
336.3027154183127
 30
0.0
 10
210.3706604445441
 20
338.0028511737559
 30
0.0
 10
210.4588066614699
 20
341.4679464283083
 30
0.0
 10
210.5278280097854
 20
344.9432294709221
 30
0.0
 10
210.5629842971026
 20
346.7133781587817
 30
0.0
  0
SPLINE
  5
9C
330
1F
100
AcDbEntity
  8
0
  6
Continuous
 62
     7
370
    25
100
AcDbSpline
210
0.0
220
0.0
230
1.0
 70
     8
 71
     3
 72
     9
 73
     5
 74
     0
 42
0.000000001
 43
0.00000001
 40
0.0
 40
0.0
 40
0.0
 40
0.0
 40
0.5114123301595493
 40
1.0
 40
1.0
 40
1.0
 40
1.0
 10
210.5110071842133
 20
343.3977524465062
 30
0.0
 10
210.5344284088427
 20
344.9279197801796
 30
0.0
 10
210.5802255538236
 20
347.9199620979629
 30
0.0
 10
210.57287635404
 20
350.9330279004719
 30
0.0
 10
210.5692856256425
 20
352.4051746999957
 30
0.0
  0
SPLINE
  5
9D
330
1F
100
AcDbEntity
  8
0
  6
Continuous
 62
     7
370
    25
100
AcDbSpline
210
0.0
220
0.0
230
1.0
 70
     8
 71
     3
 72
     9
 73
     5
 74
     0
 42
0.000000001
 43
0.00000001
 40
0.0
 40
0.0
 40
0.0
 40
0.0
 40
0.6503658328449926
 40
1.0
 40
1.0
 40
1.0
 40
1.0
 10
210.5548743401229
 20
348.0706392502524
 30
0.0
 10
210.5425019227737
 20
348.1396051695236
 30
0.0
 10
210.5234781415043
 20
348.2456469014048
 30
0.0
 10
210.513465029134
 20
348.3488729803387
 30
0.0
 10
210.5099641029298
 20
348.3849643444754
 30
0.0
  0
SPLINE
  5
9E
330
1F
100
AcDbEntity
  8
0
  6
Continuous
 62
     7
370
    25
100
AcDbSpline
210
0.0
220
0.0
230
1.0
 70
     8
 71
     3
 72
    13
 73
     9
 74
     0
 42
0.000000001
 43
0.00000001
 40
0.0
 40
0.0
 40
0.0
 40
0.0
 40
0.1851011932868883
 40
0.3620248176333716
 40
0.5314886089187542
 40
0.6940341960707638
 40
0.8500881368325325
 40
1.0
 40
1.0
 40
1.0
 40
1.0
 10
185.0684814397762
 20
362.3956023430563
 30
0.0
 10
183.4211216293693
 20
362.3378913729903
 30
0.0
 10
180.1991805691904
 20
362.2250190406048
 30
0.0
 10
175.5363814442746
 20
361.3443920005372
 30
0.0
 10
171.1906869552186
 20
360.0395516356942
 30
0.0
 10
167.1899939109538
 20
358.3252086746518
 30
0.0
 10
163.5232450592481
 20
356.3126198764027
 30
0.0
 10
161.3180365501113
 20
354.7077426839572
 30
0.0
 10
160.2375664059579
 20
353.9214125549532
 30
0.0
  0
LINE
  5
9F
330
1F
100
AcDbEntity
  8
0
  6
Continuous
 62
     7
370
    25
100
AcDbLine
 10
209.8993964736
 20
353.921412555
 30
0.0
 11
209.7718164567
 21
354.0102719044
 31
0.0
  0
SPLINE
  5
A0
330
1F
100
AcDbEntity
  8
0
  6
Continuous
 62
     7
370
    25
100
AcDbSpline
210
0.0
220
0.0
230
1.0
 70
     8
 71
     3
 72
     9
 73
     5
 74
     0
 42
0.000000001
 43
0.00000001
 40
0.0
 40
0.0
 40
0.0
 40
0.0
 40
0.4882522577736182
 40
0.9999999999999999
 40
0.9999999999999999
 40
0.9999999999999999
 40
0.9999999999999999
 10
210.5696674678981
 20
352.4071751808859
 30
0.0
 10
210.4954501515302
 20
352.7815957291998
 30
0.0
 10
210.3434440620831
 20
353.5484545452168
 30
0.0
 10
210.0070594761747
 20
353.8134998361378
 30
0.0
 10
209.8349154238164
 20
353.9491361653544
 30
0.0
  0
SPLINE
  5
A1
330
1F
100
AcDbEntity
  8
0
  6
Continuous
 62
     7
370
    25
100
AcDbSpline
210
0.0
220
0.0
230
1.0
 70
     8
 71
     3
 72
     9
 73
     5
 74
     0
 42
0.000000001
 43
0.00000001
 40
0.0
 40
0.0
 40
0.0
 40
0.0
 40
0.5433415972017435
 40
1.0
 40
1.0
 40
1.0
 40
1.0
 10
160.3655394409358
 20
354.0221481299139
 30
0.0
 10
160.168909904117
 20
353.8711512242124
 30
0.0
 10
159.8070205552591
 20
353.5932470356149
 30
0.0
 10
159.6424498635299
 20
352.7789952154135
 30
0.0
 10
159.5672972742974
 20
352.4071602797247
 30
0.0
  0
SPLINE
  5
A2
330
1F
100
AcDbEntity
  8
0
  6
Continuous
 62
     7
370
    25
100
AcDbSpline
210
0.0
220
0.0
230
1.0
 70
     8
 71
     3
 72
     8
 73
     4
 74
     0
 42
0.000000001
 43
0.00000001
 40
0.0
 40
0.0
 40
0.0
 40
0.0
 40
0.015649247777963
 40
0.015649247777963
 40
0.015649247777963
 40
0.015649247777963
 10
185.0684814397762
 20
362.3949943756859
 30
0.0
 10
184.9238092872556
 20
362.3950406683747
 30
0.0
 10
184.7792338554253
 20
362.3943268566235
 30
0.0
 10
184.6347581320453
 20
362.3928536687919
 30
0.0
  0
SPLINE
  5
A3
330
1F
100
AcDbEntity
  8
0
  6
Continuous
 62
     7
370
    25
100
AcDbSpline
210
0.0
220
0.0
230
1.0
 70
     8
 71
     3
 72
     9
 73
     5
 74
     0
 42
0.000000001
 43
0.00000001
 40
0.0
 40
0.0
 40
0.0
 40
0.0
 40
0.9997170638816131
 40
1.0
 40
1.0
 40
1.0
 40
1.0
 10
160.3653531764209
 20
354.0207325196005
 30
0.0
 10
160.3611442746106
 20
354.0511072277636
 30
0.0
 10
160.3569341816128
 20
354.0814905324609
 30
0.0
 10
160.3635184706608
 20
353.9278635208969
 30
0.0
 10
160.363520333594
 20
353.9278200542666
 30
0.0
  0
SPLINE
  5
A4
330
1F
100
AcDbEntity
  8
0
  6
Continuous
 62
     7
370
    25
100
AcDbSpline
210
0.0
220
0.0
230
1.0
 70
     8
 71
     3
 72
     8
 73
     4
 74
     0
 42
0.000000001
 43
0.00000001
 40
0.0
 40
0.0
 40
0.0
 40
0.0
 40
1.0
 40
1.0
 40
1.0
 40
1.0
 10
185.0684818969839
 20
362.3973916890184
 30
0.0
 10
185.2131335266697
 20
362.3973639923153
 30
0.0
 10
185.3577174546693
 20
362.3965641076001
 30
0.0
 10
185.5022280004264
 20
362.39499404169
 30
0.0
  0
SPLINE
  5
A5
330
1F
100
AcDbEntity
  8
0
  6
Continuous
 62
     7
370
    25
100
AcDbSpline
210
0.0
220
0.0
230
1.0
 70
     8
 71
     3
 72
     9
 73
     5
 74
     0
 42
0.000000001
 43
0.00000001
 40
0.0
 40
0.0
 40
0.0
 40
0.0
 40
0.0026411540166023
 40
1.0
 40
1.0
 40
1.0
 40
1.0
 10
209.7734052930533
 20
353.9267434453703
 30
0.0
 10
209.7734195943341
 20
353.9271461998765
 30
0.0
 10
209.7788343791767
 20
354.0796380665652
 30
0.0
 10
209.7752172644746
 20
354.0501463469961
 30
0.0
 10
209.7716097031295
 20
354.0207325196005
 30
0.0
  0
LINE
  5
A6
330
1F
100
AcDbEntity
  8
0
  6
Continuous
 62
     7
370
    25
100
AcDbLine
 10
159.8807189856
 20
333.1239177561
 30
0.0
 11
159.8254934196
 21
336.2970809167
 31
0.0
  0
LINE
  5
A7
330
1F
100
AcDbEntity
  8
0
  6
Continuous
 62
     7
370
    25
100
AcDbLine
 10
210.3115681801
 20
336.3029910898
 30
0.0
 11
210.2561880146
 21
333.1211182004
 31
0.0
  0
SPLINE
  5
A8
330
1F
100
AcDbEntity
  8
0
  6
Continuous
 62
     7
370
    25
100
AcDbSpline
210
0.0
220
0.0
230
1.0
 70
     8
 71
     3
 72
    12
 73
     8
 74
     0
 42
0.000000001
 43
0.00000001
 40
0.0
 40
0.0
 40
0.0
 40
0.0
 40
0.1721455528966922
 40
0.378506415300349
 40
0.5842469922681535
 40
0.7903636262012044
 40
1.0
 40
1.0
 40
1.0
 40
1.0
 10
159.6319310609757
 20
348.3911073481776
 30
0.0
 10
159.6250888185039
 20
348.8544175104568
 30
0.0
 10
159.6100443829835
 20
349.8731244462192
 30
0.0
 10
159.5914816582887
 20
351.0881221787272
 30
0.0
 10
159.5772184348133
 20
352.0045003178677
 30
0.0
 10
159.5696372870361
 20
352.3788419751411
 30
0.0
 10
159.5682463582532
 20
352.3976924843745
 30
0.0
 10
159.5675450061023
 20
352.4071975326277
 30
0.0
  0
SPLINE
  5
A9
330
1F
100
AcDbEntity
  8
0
  6
Continuous
 62
     7
370
    25
100
AcDbSpline
210
0.0
220
0.0
230
1.0
 70
     8
 71
     3
 72
    11
 73
     7
 74
     0
 42
0.000000001
 43
0.00000001
 40
0.0
 40
0.0
 40
0.0
 40
0.0
 40
0.1230376093495816
 40
0.4179485062216391
 40
0.7128398773819954
 40
1.0
 40
1.0
 40
1.0
 40
1.0
 10
160.1756632570683
 20
353.8381485914923
 30
0.0
 10
160.12700093521
 20
353.7939658547641
 30
0.0
 10
159.9616990828943
 20
353.6438807798511
 30
0.0
 10
159.7653676173991
 20
353.3114052786531
 30
0.0
 10
159.5974387390775
 20
352.8708337121089
 30
0.0
 10
159.5774197060135
 20
352.5596149529595
 30
0.0
 10
159.5675431434571
 20
352.4060724949576
 30
0.0
  0
SPLINE
  5
AA
330
1F
100
AcDbEntity
  8
0
  6
Continuous
 62
     7
370
    25
100
AcDbSpline
210
0.0
220
0.0
230
1.0
 70
     8
 71
     3
 72
    10
 73
     6
 74
     0
 42
0.000000001
 43
0.00000001
 40
0.0
 40
0.0
 40
0.0
 40
0.0
 40
0.5
 40
0.5
 40
1.0
 40
1.0
 40
1.0
 40
1.0
 10
209.7712995064205
 20
354.0202645808606
 30
0.0
 10
210.0094118500344
 20
353.8378735174679
 30
0.0
 10
210.2181102320774
 20
353.590297237089
 30
0.0
 10
210.4986271633472
 20
353.0234173678791
 30
0.0
 10
210.5690083175595
 20
352.7072516615892
 30
0.0
 10
210.5694178793041
 20
352.4072770086036
 30
0.0
  0
LINE
  5
AB
330
1F
100
AcDbEntity
  8
0
  6
Continuous
 62
     7
370
    25
100
AcDbLine
 10
159.5675394182
 20
352.4061022973
 30
0.0
 11
159.5689643417
 21
352.4051784253
 31
0.0
  0
LINE
  5
AC
330
1F
100
AcDbEntity
  8
0
  6
Continuous
 62
     7
370
    25
100
AcDbLine
 10
160.3659715746
 20
354.0223008668
 30
0.0
 11
160.3655487542
 21
354.0212689614
 31
0.0
  0
LINE
  5
AD
330
1F
100
AcDbEntity
  8
0
  6
Continuous
 62
     7
370
    25
100
AcDbLine
 10
209.7714141254
 20
354.0212689614
 30
0.0
 11
209.7709931676
 21
354.0222971415
 31
0.0
  0
LINE
  5
AE
330
1F
100
AcDbEntity
  8
0
  6
Continuous
 62
     7
370
    25
100
AcDbLine
 10
209.7696725522
 20
354.0225877142
 30
0.0
 11
209.7695812826
 21
354.0225579118
 31
0.0
  0
SPLINE
  5
AF
330
1F
100
AcDbEntity
  8
0
  6
Continuous
 62
     7
370
    25
100
AcDbSpline
210
0.0
220
0.0
230
1.0
 70
     8
 71
     3
 72
    54
 73
    50
 74
     0
 42
0.000000001
 43
0.00000001
 40
0.0
 40
0.0
 40
0.0
 40
0.0
 40
0.0625000000000004
 40
0.0625000000000004
 40
0.1250000000000007
 40
0.1250000000000007
 40
0.1875000000000011
 40
0.1875000000000011
 40
0.2500000000000014
 40
0.2500000000000014
 40
0.3125000000000018
 40
0.3125000000000018
 40
0.3437500000000019
 40
0.3437500000000019
 40
0.3750000000000021
 40
0.3750000000000021
 40
0.4062500000000022
 40
0.4062500000000022
 40
0.4218750000000023
 40
0.4218750000000023
 40
0.4375000000000023
 40
0.4375000000000023
 40
0.4687500000000025
 40
0.4687500000000025
 40
0.4843750000000027
 40
0.4843750000000027
 40
0.5000000000000029
 40
0.5000000000000029
 40
0.5625000000000032
 40
0.5625000000000032
 40
0.5781250000000032
 40
0.5781250000000032
 40
0.5937500000000031
 40
0.5937500000000031
 40
0.6250000000000029
 40
0.6250000000000029
 40
0.6562500000000028
 40
0.6562500000000028
 40
0.6875000000000027
 40
0.6875000000000027
 40
0.7500000000000021
 40
0.7500000000000021
 40
0.8125000000000016
 40
0.8125000000000016
 40
0.875000000000001
 40
0.875000000000001
 40
0.9375000000000006
 40
0.9375000000000006
 40
1.0
 40
1.0
 40
1.0
 40
1.0
 10
270.0719123047706
 20
321.5949943755302
 30
0.0
 10
270.0719123049652
 20
324.7111039555055
 30
0.0
 10
270.0625597844348
 20
327.8270827570964
 30
0.0
 10
270.0090910418018
 20
334.058554251681
 30
0.0
 10
269.965128352038
 20
337.1740490915516
 30
0.0
 10
269.8178560826381
 20
343.4042089104878
 30
0.0
 10
269.7147708660016
 20
346.5199663341456
 30
0.0
 10
269.4100499598127
 20
352.741848461798
 30
0.0
 10
269.2089911248073
 20
355.8483999845034
 30
0.0
 10
268.6425528273147
 20
362.0466916106628
 30
0.0
 10
268.2784419289537
 20
365.1385460590741
 30
0.0
 10
267.5206016485222
 20
369.7572480128962
 30
0.0
 10
267.2322283608996
 20
371.2920895276277
 30
0.0
 10
266.5655544028357
 20
374.3307184072292
 30
0.0
 10
266.1869809045437
 20
375.8367129171432
 30
0.0
 10
265.311760147634
 20
378.8139350222148
 30
0.0
 10
264.8152046325603
 20
380.2851896313334
 30
0.0
 10
263.9544009880981
 20
382.4579239747018
 30
0.0
 10
263.6480584975296
 20
383.1764540713963
 30
0.0
 10
262.9908548747018
 20
384.6004057145327
 30
0.0
 10
262.6420168616177
 20
385.301215354177
 30
0.0
 10
261.533736941771
 20
387.3586258166878
 30
0.0
 10
260.7108575773531
 20
388.6736872000792
 30
0.0
 10
259.3316827838868
 20
390.5487981899685
 30
0.0
 10
258.8478266148775
 20
391.1575960017229
 30
0.0
 10
257.8289422722493
 20
392.3407552797647
 30
0.0
 10
257.2912202407547
 20
392.917643670868
 30
0.0
 10
254.5077195708556
 20
395.6735450360717
 30
0.0
 10
251.9810300385742
 20
397.4675570220813
 30
0.0
 10
248.5210931477695
 20
399.2970538875267
 30
0.0
 10
247.814924705392
 20
399.6418174515804
 30
0.0
 10
246.3939812367281
 20
400.2855883483003
 30
0.0
 10
245.6768222738205
 20
400.5858995266154
 30
0.0
 10
243.50780052328
 20
401.4302300035856
 30
0.0
 10
242.0384840857166
 20
401.9179405111461
 30
0.0
 10
239.0641429084419
 20
402.7781597584984
 30
0.0
 10
237.559093139969
 20
403.1505877507501
 30
0.0
 10
234.5214916788862
 20
403.8067173022656
 30
0.0
 10
232.9858995119072
 20
404.0907946069802
 30
0.0
 10
228.3752074444759
 20
404.8358966319387
 30
0.0
 10
225.2940761353537
 20
405.1934141176588
 30
0.0
 10
219.123447075509
 20
405.7496898613853
 30
0.0
 10
216.0338803993838
 20
405.9471402104598
 30
0.0
 10
209.8497143389037
 20
406.2465416617323
 30
0.0
 10
206.7550847723241
 20
406.347920034578
 30
0.0
 10
200.5627845424156
 20
406.4929697891263
 30
0.0
 10
197.4650992663479
 20
406.5363638836342
 30
0.0
 10
191.2679375895732
 20
406.5891641984684
 30
0.0
 10
188.1684535381417
 20
406.5984252408094
 30
0.0
 10
185.0684814396712
 20
406.5984252406803
 30
0.0
  0
SPLINE
  5
B0
330
1F
100
AcDbEntity
  8
0
  6
Continuous
 62
     7
370
    25
100
AcDbSpline
210
0.0
220
0.0
230
1.0
 70
     8
 71
     3
 72
    54
 73
    50
 74
     0
 42
0.000000001
 43
0.00000001
 40
0.0
 40
0.0
 40
0.0
 40
0.0
 40
0.0625000000000005
 40
0.0625000000000005
 40
0.1250000000000009
 40
0.1250000000000009
 40
0.1875000000000015
 40
0.1875000000000015
 40
0.250000000000002
 40
0.250000000000002
 40
0.3125000000000026
 40
0.3125000000000026
 40
0.3437500000000028
 40
0.3437500000000028
 40
0.3750000000000031
 40
0.3750000000000031
 40
0.4062500000000033
 40
0.4062500000000033
 40
0.4218750000000034
 40
0.4218750000000034
 40
0.4375000000000034
 40
0.4375000000000034
 40
0.4687500000000031
 40
0.4687500000000031
 40
0.4843750000000028
 40
0.4843750000000028
 40
0.5000000000000026
 40
0.5000000000000026
 40
0.5625000000000024
 40
0.5625000000000024
 40
0.5781250000000024
 40
0.5781250000000024
 40
0.5937500000000024
 40
0.5937500000000024
 40
0.6250000000000023
 40
0.6250000000000023
 40
0.6562500000000023
 40
0.6562500000000023
 40
0.6875000000000022
 40
0.6875000000000022
 40
0.7500000000000018
 40
0.7500000000000018
 40
0.8125000000000013
 40
0.8125000000000013
 40
0.8750000000000009
 40
0.8750000000000009
 40
0.9375000000000006
 40
0.9375000000000006
 40
1.0
 40
1.0
 40
1.0
 40
1.0
 10
185.0684814396204
 20
236.5915635106907
 30
0.0
 10
188.1845910195957
 20
236.5915635104961
 30
0.0
 10
191.3005698211865
 20
236.6009160310286
 30
0.0
 10
197.5320413157709
 20
236.6543847736687
 30
0.0
 10
200.6475361556415
 20
236.6983474634374
 30
0.0
 10
206.8776959745772
 20
236.8456197328474
 30
0.0
 10
209.9934533982347
 20
236.9487049494892
 30
0.0
 10
216.2153355258872
 20
237.2534258556846
 30
0.0
 10
219.3218870485929
 20
237.454484690691
 30
0.0
 10
225.5201786747543
 20
238.0209229881742
 30
0.0
 10
228.6120331231679
 20
238.3850338865185
 30
0.0
 10
233.2307350769935
 20
239.142874166926
 30
0.0
 10
234.7655765917249
 20
239.431247454546
 30
0.0
 10
237.8042054713243
 20
240.0979214126105
 30
0.0
 10
239.3101999812364
 20
240.4764949109061
 30
0.0
 10
242.2874220863043
 20
241.3517156678234
 30
0.0
 10
243.7586766954211
 20
241.8482711829013
 30
0.0
 10
245.9314110387891
 20
242.7090748273624
 30
0.0
 10
246.6499411354839
 20
243.0154173179293
 30
0.0
 10
248.073892778621
 20
243.672620940754
 30
0.0
 10
248.7747024182645
 20
244.0214589538355
 30
0.0
 10
250.8321128807747
 20
245.129738873676
 30
0.0
 10
252.147174264166
 20
245.9526182380905
 30
0.0
 10
254.0222852540532
 20
247.3317930315559
 30
0.0
 10
254.6310830658067
 20
247.8156492005655
 30
0.0
 10
255.8142423438459
 20
248.8345335431959
 30
0.0
 10
256.3911307349475
 20
249.3722555746926
 30
0.0
 10
259.1470321001371
 20
252.1557562445977
 30
0.0
 10
260.9410440861527
 20
254.6824457768749
 30
0.0
 10
262.7705409516054
 20
258.1423826676779
 30
0.0
 10
263.1153045156602
 20
258.848551110054
 30
0.0
 10
263.7590754123821
 20
260.2694945787152
 30
0.0
 10
264.0593865906978
 20
260.9866535416215
 30
0.0
 10
264.9037170676734
 20
263.155675292158
 30
0.0
 10
265.3914275752406
 20
264.6249917297183
 30
0.0
 10
266.251646822603
 20
267.5993329069886
 30
0.0
 10
266.6240748148582
 20
269.10438267546
 30
0.0
 10
267.2802043663726
 20
272.1419841365432
 30
0.0
 10
267.5642816710824
 20
273.6775763035243
 30
0.0
 10
268.3093836960095
 20
278.2882683709598
 30
0.0
 10
268.6669011817148
 20
281.3693996800845
 30
0.0
 10
269.2231769254346
 20
287.5400287399332
 30
0.0
 10
269.4206272745119
 20
290.6295954160601
 30
0.0
 10
269.7200287257927
 20
296.8137614765434
 30
0.0
 10
269.821407098644
 20
299.9083910431246
 30
0.0
 10
269.9664568532029
 20
306.1006912730364
 30
0.0
 10
270.0098509477157
 20
309.1983765491058
 30
0.0
 10
270.0626512625566
 20
315.3955382258839
 30
0.0
 10
270.0719123048997
 20
318.4950222773176
 30
0.0
 10
270.0719123047706
 20
321.59499437579
 30
0.0
  0
SPLINE
  5
B1
330
1F
100
AcDbEntity
  8
0
  6
Continuous
 62
     7
370
    25
100
AcDbSpline
210
0.0
220
0.0
230
1.0
 70
     8
 71
     3
 72
    54
 73
    50
 74
     0
 42
0.000000001
 43
0.00000001
 40
0.0
 40
0.0
 40
0.0
 40
0.0
 40
0.0625000000000001
 40
0.0625000000000001
 40
0.1250000000000002
 40
0.1250000000000002
 40
0.1875000000000002
 40
0.1875000000000002
 40
0.2500000000000003
 40
0.2500000000000003
 40
0.3125000000000004
 40
0.3125000000000004
 40
0.3437500000000004
 40
0.3437500000000004
 40
0.3750000000000005
 40
0.3750000000000005
 40
0.4062500000000006
 40
0.4062500000000006
 40
0.4218750000000005
 40
0.4218750000000005
 40
0.4375000000000004
 40
0.4375000000000004
 40
0.4687500000000003
 40
0.4687500000000003
 40
0.4843750000000002
 40
0.4843750000000002
 40
0.5000000000000001
 40
0.5000000000000001
 40
0.5624999999999998
 40
0.5624999999999998
 40
0.5781249999999997
 40
0.5781249999999997
 40
0.5937499999999997
 40
0.5937499999999997
 40
0.6249999999999997
 40
0.6249999999999997
 40
0.6562499999999998
 40
0.6562499999999998
 40
0.6874999999999998
 40
0.6874999999999998
 40
0.7499999999999999
 40
0.7499999999999999
 40
0.8125
 40
0.8125
 40
0.875
 40
0.875
 40
0.9375
 40
0.9375
 40
1.0
 40
1.0
 40
1.0
 40
1.0
 10
100.065050574781
 20
321.5949943758409
 30
0.0
 10
100.0650505745865
 20
318.4788847958663
 30
0.0
 10
100.0744030951188
 20
315.3629059942762
 30
0.0
 10
100.1278718377588
 20
309.1314344996933
 30
0.0
 10
100.1718345275274
 20
306.0159396598235
 30
0.0
 10
100.3191067969375
 20
299.7857798408893
 30
0.0
 10
100.4221920135793
 20
296.6700224172325
 30
0.0
 10
100.7269129197753
 20
290.4481402895815
 30
0.0
 10
100.9279717547824
 20
287.3415887668767
 30
0.0
 10
101.494410052266
 20
281.1432971407166
 30
0.0
 10
101.8585209506096
 20
278.0514426923037
 30
0.0
 10
102.6163612310116
 20
273.4327407384786
 30
0.0
 10
102.9047345186298
 20
271.8978992237473
 30
0.0
 10
103.5714084766914
 20
268.8592703441485
 30
0.0
 10
103.9499819749859
 20
267.3532758342367
 30
0.0
 10
104.8252027319028
 20
264.3760537291702
 30
0.0
 10
105.3217582469813
 20
262.9047991200543
 30
0.0
 10
106.182561891446
 20
260.7320647766886
 30
0.0
 10
106.4889043820143
 20
260.0135346799946
 30
0.0
 10
107.1461080048407
 20
258.5895830368589
 30
0.0
 10
107.4949460179229
 20
257.8887733972156
 30
0.0
 10
108.6032259377636
 20
255.8313629347057
 30
0.0
 10
109.4261053021764
 20
254.5163015513134
 30
0.0
 10
110.8052800956381
 20
252.6411905614241
 30
0.0
 10
111.2891362646464
 20
252.0323927496699
 30
0.0
 10
112.3080206072743
 20
250.8492334716295
 30
0.0
 10
112.8457426387701
 20
250.2723450805273
 30
0.0
 10
115.6292433086744
 20
247.5164437153345
 30
0.0
 10
118.1559328409457
 20
245.7224317293113
 30
0.0
 10
121.6158697317477
 20
243.8929348638599
 30
0.0
 10
122.3220381741248
 20
243.5481712998054
 30
0.0
 10
123.7429816427879
 20
242.9044004030851
 30
0.0
 10
124.4601406056954
 20
242.604089224771
 30
0.0
 10
126.6291623562345
 20
241.7597587477985
 30
0.0
 10
128.0984787937956
 20
241.2720482402318
 30
0.0
 10
131.0728199710665
 20
240.411828992869
 30
0.0
 10
132.5778697395377
 20
240.0394010006127
 30
0.0
 10
135.6154712006198
 20
239.3832714490956
 30
0.0
 10
137.1510633676
 20
239.099194144384
 30
0.0
 10
141.7617554350371
 20
238.3540921194512
 30
0.0
 10
144.842886744163
 20
237.9965746337452
 30
0.0
 10
151.0135158040138
 20
237.4402988900257
 30
0.0
 10
154.1030824801418
 20
237.2428485409489
 30
0.0
 10
160.2872485406272
 20
236.9434470896688
 30
0.0
 10
163.3818781072093
 20
236.8420687168176
 30
0.0
 10
169.574178337123
 20
236.6970189622588
 30
0.0
 10
172.6718636131933
 20
236.6536248677458
 30
0.0
 10
178.8690252899731
 20
236.6008245529047
 30
0.0
 10
181.9685093414071
 20
236.5915635105617
 30
0.0
 10
185.0684814398803
 20
236.5915635106907
 30
0.0
  0
SPLINE
  5
B2
330
1F
100
AcDbEntity
  8
0
  6
Continuous
 62
     7
370
    25
100
AcDbSpline
210
0.0
220
0.0
230
1.0
 70
     8
 71
     3
 72
    54
 73
    50
 74
     0
 42
0.000000001
 43
0.00000001
 40
0.0
 40
0.0
 40
0.0
 40
0.0
 40
0.0624999999999999
 40
0.0624999999999999
 40
0.1249999999999998
 40
0.1249999999999998
 40
0.1874999999999997
 40
0.1874999999999997
 40
0.2499999999999996
 40
0.2499999999999996
 40
0.3124999999999994
 40
0.3124999999999994
 40
0.3437499999999993
 40
0.3437499999999993
 40
0.3749999999999992
 40
0.3749999999999992
 40
0.4062499999999991
 40
0.4062499999999991
 40
0.421874999999999
 40
0.421874999999999
 40
0.437499999999999
 40
0.437499999999999
 40
0.4687499999999989
 40
0.4687499999999989
 40
0.4843749999999989
 40
0.4843749999999989
 40
0.4999999999999989
 40
0.4999999999999989
 40
0.5624999999999989
 40
0.5624999999999989
 40
0.5781249999999988
 40
0.5781249999999988
 40
0.5937499999999987
 40
0.5937499999999987
 40
0.6249999999999987
 40
0.6249999999999987
 40
0.6562499999999988
 40
0.6562499999999988
 40
0.6874999999999988
 40
0.6874999999999988
 40
0.749999999999999
 40
0.749999999999999
 40
0.8124999999999992
 40
0.8124999999999992
 40
0.8749999999999994
 40
0.8749999999999994
 40
0.9374999999999997
 40
0.9374999999999997
 40
1.0
 40
1.0
 40
1.0
 40
1.0
 10
185.0684814399312
 20
406.5984252406803
 30
0.0
 10
181.9523718599575
 20
406.5984252408749
 30
0.0
 10
178.8363930583683
 20
406.5890727203424
 30
0.0
 10
172.6049215637871
 20
406.5356039777024
 30
0.0
 10
169.4894267239181
 20
406.4916412879338
 30
0.0
 10
163.2592669049856
 20
406.3443690185239
 30
0.0
 10
160.1435094813296
 20
406.2412838018822
 30
0.0
 10
153.9216273536803
 20
405.9365628956869
 30
0.0
 10
150.8150758309762
 20
405.7355040606804
 30
0.0
 10
144.6167842048179
 20
405.1690657631978
 30
0.0
 10
141.5249297564058
 20
404.8049548648529
 30
0.0
 10
136.9062278025819
 20
404.0471145844518
 30
0.0
 10
135.3713862878508
 20
403.758741296836
 30
0.0
 10
132.3327574082518
 20
403.0920673387795
 30
0.0
 10
130.8267628983399
 20
402.713493840488
 30
0.0
 10
127.8495407932742
 20
401.8382730835736
 30
0.0
 10
126.3782861841592
 20
401.3417175684946
 30
0.0
 10
124.2055518407968
 20
400.4809139240226
 30
0.0
 10
123.4870217441043
 20
400.1745714334509
 30
0.0
 10
122.0630701009701
 20
399.5173678106219
 30
0.0
 10
121.3622604613269
 20
399.1685297975394
 30
0.0
 10
119.3048499988158
 20
398.0602498776995
 30
0.0
 10
117.9897886154213
 20
397.2373705132893
 30
0.0
 10
116.1146776255291
 20
395.8581957198311
 30
0.0
 10
115.5058798137738
 20
395.3743395508239
 30
0.0
 10
114.3227205357319
 20
394.3554552081977
 30
0.0
 10
113.7458321446293
 20
393.8177331767025
 30
0.0
 10
110.9899307794335
 20
391.0342325067978
 30
0.0
 10
109.1959187934124
 20
388.5075429745244
 30
0.0
 10
107.3664219279589
 20
385.0476060837246
 30
0.0
 10
107.0216583639032
 20
384.3414376413473
 30
0.0
 10
106.3778874671809
 20
382.9204941726844
 30
0.0
 10
106.0775762888653
 20
382.2033352097772
 30
0.0
 10
105.2332458118902
 20
380.0343134592384
 30
0.0
 10
104.7455353043232
 20
378.5649970216772
 30
0.0
 10
103.8853160569604
 20
375.5906558444059
 30
0.0
 10
103.5128880647043
 20
374.0856060759346
 30
0.0
 10
102.8567585131876
 20
371.0480046148525
 30
0.0
 10
102.5726812084761
 20
369.5124124478721
 30
0.0
 10
101.8275791835428
 20
364.901720380434
 30
0.0
 10
101.4700616978364
 20
361.8205890713074
 30
0.0
 10
100.9137859541164
 20
355.6499600114552
 30
0.0
 10
100.7163356050395
 20
352.5603933353267
 30
0.0
 10
100.4169341537592
 20
346.3762272748399
 30
0.0
 10
100.315555780908
 20
343.2815977082572
 30
0.0
 10
100.1705060263491
 20
337.0892974783422
 30
0.0
 10
100.1271119318362
 20
333.9916122022714
 30
0.0
 10
100.0743116169951
 20
327.7944505254902
 30
0.0
 10
100.0650505746519
 20
324.6949664740549
 30
0.0
 10
100.065050574781
 20
321.5949943755811
 30
0.0
  0
SPLINE
  5
B3
330
1F
100
AcDbEntity
  8
0
  6
Continuous
 62
     8
370
    18
100
AcDbSpline
210
0.0
220
0.0
230
1.0
 70
     8
 71
     3
 72
    24
 73
    20
 74
     0
 42
0.000000001
 43
0.00000001
 40
0.0
 40
0.0
 40
0.0
 40
0.0
 40
0.004369431348086
 40
0.0093983811448093
 40
0.0150887639960878
 40
0.022782471843701
 40
0.0304616200009529
 40
0.0378085298442548
 40
0.0483556838795469
 40
0.0621058119279929
 40
0.0856428288963403
 40
0.1249088920711226
 40
0.158051351413781
 40
0.2499544789083138
 40
0.3749604107843013
 40
0.4999649692050063
 40
0.6433669096298761
 40
0.8101064316501853
 40
1.0
 40
1.0
 40
1.0
 40
1.0
 10
208.3354294303217
 20
291.9273462013559
 30
0.0
 10
208.3375850273668
 20
292.0004143875484
 30
0.0
 10
208.3422215855387
 20
292.1575796131099
 30
0.0
 10
208.3569844392939
 20
292.4095973727562
 30
0.0
 10
208.3800253025567
 20
292.7167554100873
 30
0.0
 10
208.4082273284595
 20
293.0679755286113
 30
0.0
 10
208.4410491702329
 20
293.4466277935674
 30
0.0
 10
208.4670304346111
 20
293.8736962068888
 30
0.0
 10
208.4863252143916
 20
294.4027516013142
 30
0.0
 10
208.5085898258968
 20
295.2026691600841
 30
0.0
 10
208.5331030415406
 20
296.4831201417846
 30
0.0
 10
208.561214374318
 20
298.0879572715482
 30
0.0
 10
208.6081995264184
 20
300.8363549599746
 30
0.0
 10
208.6790400983133
 20
305.0189075894261
 30
0.0
 10
208.7727793086706
 20
310.7380709332571
 30
0.0
 10
208.875594277607
 20
317.3187306897311
 30
0.0
 10
208.9863578383835
 20
324.5975188953885
 30
0.0
 10
209.1122386795836
 20
332.9617412123834
 30
0.0
 10
209.1987688003474
 20
338.9272842322188
 30
0.0
 10
209.2448428014574
 20
342.1037091960525
 30
0.0
  0
SPLINE
  5
B4
330
1F
100
AcDbEntity
  8
0
  6
Continuous
 62
     8
370
    18
100
AcDbSpline
210
0.0
220
0.0
230
1.0
 70
     8
 71
     3
 72
    31
 73
    27
 74
     0
 42
0.000000001
 43
0.00000001
 40
0.0
 40
0.0
 40
0.0
 40
0.0
 40
0.0308275725969395
 40
0.0626047272947996
 40
0.0953497176436234
 40
0.1290610985986789
 40
0.1637285254234892
 40
0.1993762133149161
 40
0.2359933680726029
 40
0.2735525598182179
 40
0.3120291426529139
 40
0.351417126250664
 40
0.3917227805514931
 40
0.4329526647995462
 40
0.4751091862322789
 40
0.5181924611388635
 40
0.5622025787690693
 40
0.6071395274806906
 40
0.6530032923920924
 40
0.6997938784824408
 40
0.7475112857863265
 40
0.7961555018168175
 40
0.8457265075261016
 40
0.89622428028173
 40
0.9476487901099407
 40
0.9999999999999999
 40
0.9999999999999999
 40
0.9999999999999999
 40
0.9999999999999999
 10
207.450421604829
 20
249.6901510096413
 30
0.0
 10
207.4609899585198
 20
250.1241111050484
 30
0.0
 10
207.4824522030311
 20
251.0053985740617
 30
0.0
 10
207.5100965059414
 20
252.3477577165667
 30
0.0
 10
207.5412302329327
 20
253.7306587224576
 30
0.0
 10
207.5736416043163
 20
255.1542402431955
 30
0.0
 10
207.6073813008291
 20
256.6186754720131
 30
0.0
 10
207.6415874537385
 20
258.1240277362975
 30
0.0
 10
207.6762476344452
 20
259.6700998229307
 30
0.0
 10
207.7113634367371
 20
261.2560060399464
 30
0.0
 10
207.7469484750721
 20
262.8809281365097
 30
0.0
 10
207.7830153444801
 20
264.5445225646552
 30
0.0
 10
207.8195813521193
 20
266.2468852018585
 30
0.0
 10
207.8566786807549
 20
267.9882298977606
 30
0.0
 10
207.894302894414
 20
269.7686846211858
 30
0.0
 10
207.932435101395
 20
271.5882865155525
 30
0.0
 10
207.9710583721774
 20
273.4470386087373
 30
0.0
 10
208.0101542323432
 20
275.3449421076068
 30
0.0
 10
208.0497039959117
 20
277.2819970304155
 30
0.0
 10
208.089688401538
 20
279.2582035653139
 30
0.0
 10
208.1300879411591
 20
281.2735619328483
 30
0.0
 10
208.1708817114782
 20
283.3280720352897
 30
0.0
 10
208.2120516720926
 20
285.4217333945826
 30
0.0
 10
208.2535663702065
 20
287.5545455335618
 30
0.0
 10
208.2954433391896
 20
289.7265067853207
 30
0.0
 10
208.3232392864782
 20
291.1875351245241
 30
0.0
 10
208.3372613667349
 20
291.9245726651801
 30
0.0
  0
SPLINE
  5
B5
330
1F
100
AcDbEntity
  8
0
  6
Continuous
 62
     8
370
    18
100
AcDbSpline
210
0.0
220
0.0
230
1.0
 70
     8
 71
     3
 72
    29
 73
    25
 74
     0
 42
0.000000001
 43
0.00000001
 40
0.0
 40
0.0
 40
0.0
 40
0.0
 40
0.0505235592575247
 40
0.1003383342970725
 40
0.1496344176678692
 40
0.1985925191405623
 40
0.2473804053203407
 40
0.3314646689806993
 40
0.4011165657521526
 40
0.4559142715238582
 40
0.4953575691232462
 40
0.5391041515059247
 40
0.5815631641985324
 40
0.622295218522284
 40
0.6493087293931287
 40
0.6796864537841326
 40
0.7132678632218087
 40
0.7500877474648913
 40
0.8070499435019004
 40
0.875853830494178
 40
0.906408002276173
 40
0.9380010519814515
 40
0.968992234944484
 40
1.0
 40
1.0
 40
1.0
 40
1.0
 10
185.0684814397762
 20
237.4842254531036
 30
0.0
 10
185.580220744746
 20
237.4850665189224
 30
0.0
 10
186.5965202733143
 20
237.4867368514274
 30
0.0
 10
188.1120569227481
 20
237.5019821546915
 30
0.0
 10
189.6115879678368
 20
237.5268018526874
 30
0.0
 10
191.1004875961137
 20
237.5622119234484
 30
0.0
 10
192.9411984069939
 20
237.6204316417498
 30
0.0
 10
194.9906588665457
 20
237.7035933387133
 30
0.0
 10
197.099440984687
 20
237.818438026672
 30
0.0
 10
198.7543036737787
 20
237.9436761180243
 30
0.0
 10
200.1439917709588
 20
238.0950955116943
 30
0.0
 10
201.3934877084623
 20
238.3492872432659
 30
0.0
 10
202.6178780503067
 20
238.7524181906733
 30
0.0
 10
203.6172462587343
 20
239.2647703888134
 30
0.0
 10
204.4135059637413
 20
239.8639481236706
 30
0.0
 10
205.07839004461
 20
240.5054198793985
 30
0.0
 10
205.7135433412097
 20
241.3087478391859
 30
0.0
 10
206.366299912621
 20
242.4262473564483
 30
0.0
 10
206.9510515680977
 20
243.9759169065181
 30
0.0
 10
207.250025910588
 20
245.5376016974705
 30
0.0
 10
207.3796083794554
 20
246.8578183634017
 30
0.0
 10
207.4254909163205
 20
247.8003740030786
 30
0.0
 10
207.4436841722907
 20
248.7481552692818
 30
0.0
 10
207.4479974888301
 20
249.3760952124566
 30
0.0
 10
207.4501547239146
 20
249.6901491577125
 30
0.0
  0
SPLINE
  5
B6
330
1F
100
AcDbEntity
  8
0
  6
Continuous
 62
     8
370
    18
100
AcDbSpline
210
0.0
220
0.0
230
1.0
 70
     8
 71
     3
 72
    30
 73
    26
 74
     0
 42
0.000000001
 43
0.00000001
 40
0.0
 40
0.0
 40
0.0
 40
0.0
 40
0.0313109823829425
 40
0.0620496668093414
 40
0.0726767191292113
 40
0.0866136026544106
 40
0.1038675512359123
 40
0.1244546759600057
 40
0.1716984786594138
 40
0.2136039795010283
 40
0.2503219221307187
 40
0.2984958030017538
 40
0.3410136767109834
 40
0.3776810521943355
 40
0.4182498330616213
 40
0.4605303927151942
 40
0.5040871690648085
 40
0.5435191088768558
 40
0.5983723226859363
 40
0.6681425016688981
 40
0.7524045551398668
 40
0.8134572272618931
 40
0.8748439565902599
 40
0.9369029822731866
 40
0.9999999999999999
 40
0.9999999999999999
 40
0.9999999999999999
 40
0.9999999999999999
 10
162.6868081556371
 20
249.6901491577391
 30
0.0
 10
162.6940236615592
 20
249.3730816733012
 30
0.0
 10
162.7083227893491
 20
248.7447420215834
 30
0.0
 10
162.7103584860016
 20
248.0086226141185
 30
0.0
 10
162.7241611465877
 20
247.4486262353166
 30
0.0
 10
162.7483871951906
 20
247.0256975307304
 30
0.0
 10
162.7905278172948
 20
246.5028992483605
 30
0.0
 10
162.8845937955834
 20
245.6461826992774
 30
0.0
 10
163.072456353875
 20
244.5487098199619
 30
0.0
 10
163.4244243714143
 20
243.3203374229385
 30
0.0
 10
163.9232759882057
 20
242.1338615272762
 30
0.0
 10
164.6023812721268
 20
241.0269969189557
 30
0.0
 10
165.4733534175131
 20
240.0666370379616
 30
0.0
 10
166.4302642818484
 20
239.3115797283703
 30
0.0
 10
167.5132449034436
 20
238.7548518192392
 30
0.0
 10
168.7322733711023
 20
238.3523827482629
 30
0.0
 10
169.9776788040841
 20
238.0974235324441
 30
0.0
 10
171.3658579995834
 20
237.9452939559553
 30
0.0
 10
173.0223508076201
 20
237.819491113858
 30
0.0
 10
175.1347116999269
 20
237.7041569728091
 30
0.0
 10
177.3113103376376
 20
237.615644609394
 30
0.0
 10
179.4039144660546
 20
237.5512933321606
 30
0.0
 10
181.2722534850317
 20
237.5122768528085
 30
0.0
 10
183.1615903862188
 20
237.4882293755059
 30
0.0
 10
184.4292855958988
 20
237.4855674394589
 30
0.0
 10
185.0683900685091
 20
237.4842254329415
 30
0.0
  0
SPLINE
  5
B7
330
1F
100
AcDbEntity
  8
0
  6
Continuous
 62
     8
370
    18
100
AcDbSpline
210
0.0
220
0.0
230
1.0
 70
     8
 71
     3
 72
    15
 73
    11
 74
     0
 42
0.000000001
 43
0.00000001
 40
0.0
 40
0.0
 40
0.0
 40
0.0
 40
0.1542734651163061
 40
0.3002060777532956
 40
0.43779737196862
 40
0.5670472913114389
 40
0.6879708293662746
 40
0.8006237842966057
 40
0.9046503166371043
 40
1.0
 40
1.0
 40
1.0
 40
1.0
 10
161.7997015128176
 20
291.92457266518
 30
0.0
 10
161.8412689359572
 20
289.7526060178342
 30
0.0
 10
161.9221564239879
 20
285.5261009106916
 30
0.0
 10
162.0447155917198
 20
279.3625815069342
 30
0.0
 10
162.1632848795159
 20
273.5514164804028
 30
0.0
 10
162.2776745824038
 20
268.0923995884767
 30
0.0
 10
162.3873185185003
 20
262.9845240341125
 30
0.0
 10
162.4922316094302
 20
258.2318074249638
 30
0.0
 10
162.5937180923457
 20
253.8392131710278
 30
0.0
 10
162.6565111312019
 20
251.0324550439813
 30
0.0
 10
162.6865412747233
 20
249.6901510096412
 30
0.0
  0
SPLINE
  5
B8
330
1F
100
AcDbEntity
  8
0
  6
Continuous
 62
     8
370
    18
100
AcDbSpline
210
0.0
220
0.0
230
1.0
 70
     8
 71
     3
 72
    30
 73
    26
 74
     0
 42
0.000000001
 43
0.00000001
 40
0.0
 40
0.0
 40
0.0
 40
0.0
 40
0.0472860580123444
 40
0.0943347429570735
 40
0.1410281866311315
 40
0.1873075242478393
 40
0.2331788061234096
 40
0.2786431408233043
 40
0.3237029360657815
 40
0.3683616684812908
 40
0.4126195569673451
 40
0.4564759367337329
 40
0.4999302634422526
 40
0.6249095514144215
 40
0.7498897740689422
 40
0.8124058911498234
 40
0.8749218644804668
 40
0.9156212838479824
 40
0.9377667129914675
 40
0.9561913060126184
 40
0.969486795092315
 40
0.9772838242579063
 40
0.9848976846709598
 40
0.9924532738464499
 40
0.9999999999999999
 40
0.9999999999999999
 40
0.9999999999999999
 40
0.9999999999999999
 10
160.8921200773573
 20
342.1037092465353
 30
0.0
 10
160.9035302933497
 20
341.3127390944624
 30
0.0
 10
160.9262934467604
 20
339.7347694112412
 30
0.0
 10
160.9602337841912
 20
337.375736866847
 30
0.0
 10
160.9946620613999
 20
335.0335653244722
 30
0.0
 10
161.0289973305109
 20
332.7110702994354
 30
0.0
 10
161.0631038381671
 20
330.4091385686047
 30
0.0
 10
161.0971376627299
 20
328.1276101000452
 30
0.0
 10
161.1311374530542
 20
325.8663692006896
 30
0.0
 10
161.1650574520592
 20
323.6253111833382
 30
0.0
 10
161.1988920400511
 20
321.4043861006166
 30
0.0
 10
161.232662054753
 20
319.2036110200068
 30
0.0
 10
161.2874806489802
 20
315.6525974761159
 30
0.0
 10
161.3648607017273
 20
310.7446356110427
 30
0.0
 10
161.4498332004519
 20
305.5178661528729
 30
0.0
 10
161.5199411957437
 20
301.3359540767292
 30
0.0
 10
161.5672099626275
 20
298.5638047894944
 30
0.0
 10
161.6047109261625
 20
296.4669578071043
 30
0.0
 10
161.6304072116883
 20
295.1076273271987
 30
0.0
 10
161.6560167248377
 20
294.2068375537738
 30
0.0
 10
161.6886149472824
 20
293.5464752862114
 30
0.0
 10
161.7252646708294
 20
293.0676270531131
 30
0.0
 10
161.759634300843
 20
292.6850120861126
 30
0.0
 10
161.7903047553709
 20
292.3061424798563
 30
0.0
 10
161.7977920159455
 20
292.0535622174717
 30
0.0
 10
161.8015334492268
 20
291.927346201551
 30
0.0
  0
SPLINE
  5
B9
330
1F
100
AcDbEntity
  8
0
  6
Continuous
 62
     8
370
    18
100
AcDbSpline
210
0.0
220
0.0
230
1.0
 70
     8
 71
     3
 72
    15
 73
    11
 74
     0
 42
0.000000001
 43
0.00000001
 40
0.0
 40
0.0
 40
0.0
 40
0.0
 40
0.1447612201031422
 40
0.2913866609717131
 40
0.4363020110897691
 40
0.5096271152356026
 40
0.5816228129878575
 40
0.7249597260249521
 40
0.8672501731815586
 40
1.0
 40
1.0
 40
1.0
 40
1.0
 10
160.363520333594
 20
353.9278200542666
 30
0.0
 10
160.3672111799338
 20
353.8053126892818
 30
0.0
 10
160.3746404029697
 20
353.5587203215059
 30
0.0
 10
160.4221787227765
 20
352.433127944346
 30
0.0
 10
160.4922449351526
 20
351.1038280388522
 30
0.0
 10
160.5671418308656
 20
349.8651879942962
 30
0.0
 10
160.6464468717524
 20
348.5113712131969
 30
0.0
 10
160.7527158151912
 20
346.6673598258014
 30
0.0
 10
160.8416149285242
 20
344.3642673787655
 30
0.0
 10
160.8748260964022
 20
342.8337213661443
 30
0.0
 10
160.8908556644379
 20
342.0949942147471
 30
0.0
  0
SPLINE
  5
BA
330
1F
100
AcDbEntity
  8
0
  6
Continuous
 62
     8
370
    18
100
AcDbSpline
210
0.0
220
0.0
230
1.0
 70
     8
 71
     3
 72
    10
 73
     6
 74
     0
 42
0.000000001
 43
0.00000001
 40
0.015649247777963
 40
0.015649247777963
 40
0.015649247777963
 40
0.015649247777963
 40
0.5078198715659328
 40
0.7539099357829663
 40
0.963154416385524
 40
0.963154416385524
 40
0.963154416385524
 40
0.963154416385524
 10
184.6347581320453
 20
362.3928536687919
 30
0.0
 10
180.0909801877591
 20
362.3465217438125
 30
0.0
 10
173.4232042363976
 20
361.1503568323241
 30
0.0
 10
165.4187786027661
 20
357.511584657307
 30
0.0
 10
161.9065543996605
 20
355.1996486195916
 30
0.0
 10
160.3716695163376
 20
354.0255677813222
 30
0.0
  0
SPLINE
  5
BB
330
1F
100
AcDbEntity
  8
0
  6
Continuous
 62
     8
370
    18
100
AcDbSpline
210
0.0
220
0.0
230
1.0
 70
     8
 71
     3
 72
    28
 73
    24
 74
     0
 42
0.000000001
 43
0.00000001
 40
0.0
 40
0.0
 40
0.0
 40
0.0
 40
0.0235206151982399
 40
0.0483638639812449
 40
0.0745267886260332
 40
0.1020067266626334
 40
0.13080137902239
 40
0.160908877373168
 40
0.1923278511087291
 40
0.2250574945634145
 40
0.2590976351899107
 40
0.3843996566196659
 40
0.4704655358898907
 40
0.517449592954681
 40
0.6028840384865635
 40
0.6897068032186588
 40
0.7779927358490266
 40
0.8439564583621957
 40
0.8874308070032741
 40
0.908319045247353
 40
0.9406583338862831
 40
0.9712195814129259
 40
1.0
 40
1.0
 40
1.0
 40
1.0
 10
185.5022280004264
 20
362.39499404169
 30
0.0
 10
185.7070027903677
 20
362.3918712293791
 30
0.0
 10
186.1280674608299
 20
362.3854499998079
 30
0.0
 10
186.776609379243
 20
362.3628389404519
 30
0.0
 10
187.4591296734118
 20
362.3285908003942
 30
0.0
 10
188.1752636467345
 20
362.2800384483622
 30
0.0
 10
188.9246042840251
 20
362.2156562017936
 30
0.0
 10
189.7066805938837
 20
362.1334932102686
 30
0.0
 10
190.5209500241193
 20
362.0316300178637
 30
0.0
 10
191.3668179184622
 20
361.9080435715212
 30
0.0
 10
193.0157500784659
 20
361.6308691109126
 30
0.0
 10
195.1042870510432
 20
361.1687573207072
 30
0.0
 10
197.2632035500559
 20
360.5346850996035
 30
0.0
 10
199.0638434719056
 20
359.9211896785495
 30
0.0
 10
200.843896066048
 20
359.2289124567351
 30
0.0
 10
202.9104910566903
 20
358.2904528690489
 30
0.0
 10
204.7708702837296
 20
357.3158216474682
 30
0.0
 10
206.2547828902884
 20
356.4420148572167
 30
0.0
 10
207.2118442314176
 20
355.8320780345499
 30
0.0
 10
207.9124339942739
 20
355.3650086565387
 30
0.0
 10
208.5123502235675
 20
354.9497810183225
 30
0.0
 10
209.1601133476851
 20
354.4831923203052
 30
0.0
 10
209.5719391353511
 20
354.1713129059587
 30
0.0
 10
209.7716726334175
 20
354.020052911398
 30
0.0
  0
SPLINE
  5
BC
330
1F
100
AcDbEntity
  8
0
  6
Continuous
 62
     8
370
    18
100
AcDbSpline
210
0.0
220
0.0
230
1.0
 70
     8
 71
     3
 72
    14
 73
    10
 74
     0
 42
0.000000001
 43
0.00000001
 40
0.0
 40
0.0
 40
0.0
 40
0.0
 40
0.1328285815892195
 40
0.2752032240788798
 40
0.4186253783071474
 40
0.5637565228956469
 40
0.7087578450669577
 40
0.8554702725121788
 40
1.0
 40
1.0
 40
1.0
 40
1.0
 10
209.2461072151124
 20
342.0949942147471
 30
0.0
 10
209.2621238075904
 20
342.833747988809
 30
0.0
 10
209.2953080653455
 20
344.3643479394356
 30
0.0
 10
209.3844204321905
 20
346.6670027170853
 30
0.0
 10
209.5115663486851
 20
348.889382263589
 30
0.0
 10
209.630452041053
 20
350.8465900041268
 30
0.0
 10
209.7149157017092
 20
352.4319953126365
 30
0.0
 10
209.7622620857656
 20
353.5583199985128
 30
0.0
 10
209.769709495372
 20
353.8045507511592
 30
0.0
 10
209.7734052930533
 20
353.9267434453703
 30
0.0
  0
SPLINE
  5
BD
330
1F
100
AcDbEntity
  8
0
  6
Continuous
 62
     8
370
    18
100
AcDbSpline
210
0.0
220
0.0
230
1.0
 70
     8
 71
     3
 72
    13
 73
     9
 74
     0
 42
0.000000001
 43
0.00000001
 40
0.0
 40
0.0
 40
0.0
 40
0.0
 40
0.1490134255682797
 40
0.3106590863643933
 40
0.4819865859410866
 40
0.6586244848742722
 40
0.8353011090743483
 40
0.9999999999999999
 40
0.9999999999999999
 40
0.9999999999999999
 40
0.9999999999999999
 10
161.801528954929
 20
291.9275602972247
 30
0.0
 10
161.7248321496829
 20
291.9260539265798
 30
0.0
 10
161.5649367620425
 20
291.9229134865391
 30
0.0
 10
161.339805288466
 20
291.9184829702488
 30
0.0
 10
161.1366334223341
 20
291.9144707446509
 30
0.0
 10
160.9801253226904
 20
291.9113706585683
 30
0.0
 10
160.8809736907224
 20
291.9093873069857
 30
0.0
 10
160.870667394849
 20
291.9091593224091
 30
0.0
 10
160.8656950537621
 20
291.9090493297316
 30
0.0
  0
SPLINE
  5
BE
330
1F
100
AcDbEntity
  8
0
  6
Continuous
 62
     8
370
    18
100
AcDbSpline
210
0.0
220
0.0
230
1.0
 70
     8
 71
     3
 72
    13
 73
     9
 74
     0
 42
0.000000001
 43
0.00000001
 40
0.0
 40
0.0
 40
0.0
 40
0.0
 40
0.1493909438536839
 40
0.3113479762932392
 40
0.4829022922873819
 40
0.6596721397190146
 40
0.8364069644541124
 40
1.0
 40
1.0
 40
1.0
 40
1.0
 10
208.337264904803
 20
291.9247532909848
 30
0.0
 10
208.4139495787376
 20
291.9230739504439
 30
0.0
 10
208.5737692935499
 20
291.9195740108531
 30
0.0
 10
208.7984948411459
 20
291.9146195039109
 30
0.0
 10
209.0010096565811
 20
291.9101173163543
 30
0.0
 10
209.1567466330399
 20
291.9066066360645
 30
0.0
 10
209.2550685765688
 20
291.9043318442668
 30
0.0
 10
209.2651346174703
 20
291.9040207276351
 30
0.0
 10
209.2699732874095
 20
291.9038711762167
 30
0.0
  0
LINE
  5
BF
330
1F
100
AcDbEntity
  8
0
  6
Continuous
 62
     8
370
    18
100
AcDbLine
 10
159.8254934196
 20
336.2970809167
 30
0.0
 11
159.7247690205
 21
342.0845224237
 31
0.0
  0
LINE
  5
C0
330
1F
100
AcDbEntity
  8
0
  6
Continuous
 62
     8
370
    18
100
AcDbLine
 10
210.412193859
 20
342.0845224237
 30
0.0
 11
210.3115681801
 21
336.3029910898
 31
0.0
  0
SPLINE
  5
C1
330
1F
100
AcDbEntity
  8
0
  6
Continuous
 62
     8
370
    18
100
AcDbSpline
210
0.0
220
0.0
230
1.0
 70
     8
 71
     3
 72
    11
 73
     7
 74
     0
 42
0.000000001
 43
0.00000001
 40
0.0
 40
0.0
 40
0.0
 40
0.0
 40
0.3153493639570186
 40
0.630135046535976
 40
0.9449520778012269
 40
1.0
 40
1.0
 40
1.0
 40
1.0
 10
159.7246274594723
 20
342.0929862832762
 30
0.0
 10
159.7142796909829
 20
342.7905944049237
 30
0.0
 10
159.6936026504561
 20
344.1845636861115
 30
0.0
 10
159.6636464490037
 20
346.2220034243408
 30
0.0
 10
159.6427880501486
 20
347.660076351397
 30
0.0
 10
159.633337595655
 20
348.2964014925998
 30
0.0
 10
159.6319310609757
 20
348.3911073481776
 30
0.0
  0
SPLINE
  5
C2
330
1F
100
AcDbEntity
  8
0
  6
Continuous
 62
     8
370
    18
100
AcDbSpline
210
0.0
220
0.0
230
1.0
 70
     8
 71
     3
 72
    26
 73
    22
 74
     0
 42
0.000000001
 43
0.00000001
 40
0.0
 40
0.0
 40
0.0
 40
0.0
 40
0.0361700302088133
 40
0.0691278390513988
 40
0.0988872653308875
 40
0.1254666972524842
 40
0.1905112092567265
 40
0.2489772601411696
 40
0.2974115270892341
 40
0.3458785624931766
 40
0.3948436422463167
 40
0.4447578599194285
 40
0.4960471212837996
 40
0.5790533167524105
 40
0.662201962804679
 40
0.7473881817931837
 40
0.7884246004367992
 40
0.8304425859145044
 40
0.8736860554185737
 40
0.9267562009600688
 40
1.0
 40
1.0
 40
1.0
 40
1.0
 10
210.5694184110127
 20
352.4071970781063
 30
0.0
 10
210.5692713659697
 20
352.405587442488
 30
0.0
 10
210.5689903347954
 20
352.4025111212545
 30
0.0
 10
210.5683111987036
 20
352.3856151825559
 30
0.0
 10
210.5674770360073
 20
352.3597471552698
 30
0.0
 10
210.5660104902074
 20
352.3050188314799
 30
0.0
 10
210.5634468923566
 20
352.1876329266728
 30
0.0
 10
210.559113913154
 20
351.9477233407395
 30
0.0
 10
210.5540208937804
 20
351.6326902566735
 30
0.0
 10
210.5482622779684
 20
351.2670343270681
 30
0.0
 10
210.5415041402802
 20
350.8283596089112
 30
0.0
 10
210.533735669642
 20
350.3173610719784
 30
0.0
 10
210.5232469250238
 20
349.6223439527315
 30
0.0
 10
210.5095565277111
 20
348.7034468689464
 30
0.0
 10
210.49219272431
 20
347.5153698439008
 30
0.0
 10
210.4765877703848
 20
346.4488290770242
 30
0.0
 10
210.4635347681675
 20
345.5603323759348
 30
0.0
 10
210.4535401893681
 20
344.8792930657664
 30
0.0
 10
210.4424265588082
 20
344.124156671792
 30
0.0
 10
210.4286944452209
 20
343.1912727605122
 30
0.0
 10
210.4183402489524
 20
342.4960913597991
 30
0.0
 10
210.4123363142861
 20
342.0929868017167
 30
0.0
  0
LINE
  5
C3
330
1F
100
AcDbEntity
  8
0
  6
Continuous
 62
     8
370
    18
100
AcDbLine
 10
160.3677988295
 20
354.0224200761
 30
0.0
 11
160.3672903274
 21
354.0225877142
 31
0.0
  0
SPLINE
  5
C4
330
1F
100
AcDbEntity
  8
0
  6
Continuous
 62
     8
370
    18
100
AcDbSpline
210
0.0
220
0.0
230
1.0
 70
    24
 71
     3
 72
     9
 73
     5
 74
     0
 42
0.000000001
 43
0.00000001
 40
0.0
 40
0.0
 40
0.0
 40
0.0
 40
0.3267723642271911
 40
1.0
 40
1.0
 40
1.0
 40
1.0
 10
185.0684814397762
 20
362.3973904823996
 30
0.0
 10
185.0684814397762
 20
362.3966266868811
 30
0.0
 10
185.0684814397762
 20
362.3942892936307
 30
0.0
 10
185.0684814397762
 20
362.3947111293044
 30
0.0
 10
185.0684814397762
 20
362.3949951207377
 30
0.0
  0
SPLINE
  5
C5
330
1F
100
AcDbEntity
  8
0
  6
Continuous
 62
     8
370
    18
100
AcDbSpline
210
0.0
220
0.0
230
1.0
 70
    24
 71
     3
 72
     9
 73
     5
 74
     0
 42
0.000000001
 43
0.00000001
 40
0.0
 40
0.0
 40
0.0
 40
0.0
 40
0.3784703974354709
 40
1.0
 40
1.0
 40
1.0
 40
1.0
 10
185.0684814397762
 20
362.3945853388049
 30
0.0
 10
185.0684814397762
 20
362.3940402712169
 30
0.0
 10
185.0684814397762
 20
362.3926000856921
 30
0.0
 10
185.0684814397762
 20
362.3937072275566
 30
0.0
 10
185.0684814397762
 20
362.3943953489996
 30
0.0
  0
LINE
  5
C6
330
1F
100
AcDbEntity
  8
0
  6
Continuous
 62
     8
370
    18
100
AcDbLine
 10
209.772025073
 20
354.0197825706
 30
0.0
 11
209.7714141254
 21
354.0212689614
 31
0.0
  0
SPLINE
  5
C7
330
1F
100
AcDbEntity
  8
0
  6
Continuous
 62
     8
370
    18
100
AcDbSpline
210
0.0
220
0.0
230
1.0
 70
     8
 71
     3
 72
    55
 73
    51
 74
     0
 42
0.000000001
 43
0.00000001
 40
0.0
 40
0.0
 40
0.0
 40
0.0
 40
0.0371946279414617
 40
0.0730639916682102
 40
0.109947097445152
 40
0.146473898292642
 40
0.183288002222357
 40
0.2204453655820458
 40
0.2570436122208378
 40
0.2757113506979919
 40
0.2939724674619197
 40
0.3119530432875878
 40
0.3303774467925376
 40
0.3487212496430945
 40
0.367300997068352
 40
0.3858599726068396
 40
0.4044846227543166
 40
0.4229656106863195
 40
0.4412546288878131
 40
0.4504758136154648
 40
0.4597152756840591
 40
0.4779701913410091
 40
0.4871637993914033
 40
0.4964432427202579
 40
0.5148571481362845
 40
0.5332274147137699
 40
0.551813530702158
 40
0.5706046065437821
 40
0.5893573570673182
 40
0.598744838914479
 40
0.6080650070194678
 40
0.6268370860732363
 40
0.6456606415268674
 40
0.6643398910670798
 40
0.6828812610287689
 40
0.701178459264475
 40
0.719684877801351
 40
0.7380049754382055
 40
0.7564965261420423
 40
0.7746669948492969
 40
0.7939027774214857
 40
0.812231648550908
 40
0.8309623455263675
 40
0.8492782387642288
 40
0.8678037980303687
 40
0.8863010813260139
 40
0.9212382569621521
 40
0.9585972636258154
 40
0.9959105211135959
 40
1.0
 40
1.0
 40
1.0
 40
1.0
 10
265.6460039560258
 20
321.594993648503
 30
0.0
 10
265.6449279708388
 20
320.0996890510925
 30
0.0
 10
265.6428143383847
 20
317.1623583478902
 30
0.0
 10
265.619310879205
 20
312.7422942728766
 30
0.0
 10
265.5733724401087
 20
308.349248156171
 30
0.0
 10
265.49665964721
 20
303.9186315225232
 30
0.0
 10
265.3824121194116
 20
299.4777607585559
 30
0.0
 10
265.2169698108222
 20
295.0355881848795
 30
0.0
 10
265.0254975647676
 20
291.3247211162628
 30
0.0
 10
264.8313936253709
 20
288.3751054127187
 30
0.0
 10
264.6626905878924
 20
286.1740384745059
 30
0.0
 10
264.469272636682
 20
283.9848166111042
 30
0.0
 10
264.2455424758621
 20
281.7951160801896
 30
0.0
 10
263.9839867918877
 20
279.5853290573036
 30
0.0
 10
263.6817658619862
 20
277.3752441122522
 30
0.0
 10
263.3325020199591
 20
275.1606261201531
 30
0.0
 10
262.9306114763723
 20
272.9589179377141
 30
0.0
 10
262.4704957914445
 20
270.7796639208916
 30
0.0
 10
262.0306986612324
 20
268.9833780713564
 30
0.0
 10
261.6400327524128
 20
267.5584572689531
 30
0.0
 10
261.2212384924373
 20
266.1429966357819
 30
0.0
 10
260.7570480708229
 20
264.7423556212234
 30
0.0
 10
260.2408764732555
 20
263.3588160065847
 30
0.0
 10
259.685350818182
 20
261.9837013166066
 30
0.0
 10
258.9169404208024
 20
260.2974185263342
 30
0.0
 10
257.8624780404587
 20
258.3350062242632
 30
0.0
 10
256.6565275660759
 20
256.4431706164594
 30
0.0
 10
255.2888621755913
 20
254.644900270204
 30
0.0
 10
254.0171176920265
 20
253.2474657135678
 30
0.0
 10
252.9301342858753
 20
252.204491501867
 30
0.0
 10
251.7972583951585
 20
251.2103941329118
 30
0.0
 10
250.2986290684988
 20
250.0609550664106
 30
0.0
 10
248.3927512444285
 20
248.8375881918131
 30
0.0
 10
246.4083873216877
 20
247.7664400451783
 30
0.0
 10
244.3767784220388
 20
246.8388052987699
 30
0.0
 10
242.3018015722326
 20
246.0327576102715
 30
0.0
 10
240.1978499049177
 20
245.3341670762966
 30
0.0
 10
238.0583566108555
 20
244.7251516933966
 30
0.0
 10
235.9110910062975
 20
244.1987863952638
 30
0.0
 10
233.7122115695756
 20
243.7337007893643
 30
0.0
 10
231.5077076726882
 20
243.3312312717804
 30
0.0
 10
229.2719165345866
 20
242.9789802110982
 30
0.0
 10
227.066056835688
 20
242.6775996597998
 30
0.0
 10
224.8472731041596
 20
242.4153859965474
 30
0.0
 10
222.633932853189
 20
242.1896486894298
 30
0.0
 10
219.7520592299653
 20
241.9360450983788
 30
0.0
 10
216.1108149876515
 20
241.6775314707743
 30
0.0
 10
211.7099014314817
 20
241.4529302505528
 30
0.0
 10
208.5459146693148
 20
241.3245127846944
 30
0.0
 10
206.8819850572955
 20
241.2816754224321
 30
0.0
 10
206.7176334802567
 20
241.2774442410208
 30
0.0
  0
SPLINE
  5
C8
330
1F
100
AcDbEntity
  8
0
  6
Continuous
 62
     8
370
    18
100
AcDbSpline
210
0.0
220
0.0
230
1.0
 70
     8
 71
     3
 72
    55
 73
    51
 74
     0
 42
0.000000001
 43
0.00000001
 40
0.0
 40
0.0
 40
0.0
 40
0.0
 40
0.0037702173529667
 40
0.0409283449491203
 40
0.077528007974595
 40
0.096188530489653
 40
0.1144514166504246
 40
0.1324305834103628
 40
0.1508574630288546
 40
0.1692012771565883
 40
0.1877811143306138
 40
0.2063422482339672
 40
0.2249643437938186
 40
0.2434465365153189
 40
0.2617348818067485
 40
0.2709560225093826
 40
0.2801955521744992
 40
0.2984486255082345
 40
0.307644098807617
 40
0.3169238504105693
 40
0.3353375209423961
 40
0.3537078555755149
 40
0.3722940389127835
 40
0.3910852398738881
 40
0.4098385630591832
 40
0.4192253737364559
 40
0.4285451096058049
 40
0.447317590398523
 40
0.466141053873526
 40
0.4848204052336197
 40
0.503361758363928
 40
0.5216590490904124
 40
0.5401653293125623
 40
0.5584854184328425
 40
0.5769769018551034
 40
0.595147320627565
 40
0.6143832704458642
 40
0.6327125441678054
 40
0.6514430519179685
 40
0.6697588130221277
 40
0.6882835941172106
 40
0.7067799886265765
 40
0.7417178288843523
 40
0.7790768467285417
 40
0.8163896608445299
 40
0.8537871445428399
 40
0.8905260098307907
 40
0.926555108772647
 40
0.9632234465854469
 40
1.0
 40
1.0
 40
1.0
 40
1.0
 10
163.4174276385962
 20
241.2773250317313
 30
0.0
 10
163.2659094114826
 20
241.2812330570332
 30
0.0
 10
161.6210731368557
 20
241.3236574036036
 30
0.0
 10
158.5066873582331
 20
241.4496256279531
 30
0.0
 10
154.7959885302197
 20
241.6377264609388
 30
0.0
 10
151.8465955640481
 20
241.8322988869229
 30
0.0
 10
149.6458368426642
 20
242.0009047401968
 30
0.0
 10
147.4565377211631
 20
242.1943674910546
 30
0.0
 10
145.2668322117088
 20
242.4181301472724
 30
0.0
 10
143.0569806131658
 20
242.679725084131
 30
0.0
 10
140.8468466611155
 20
242.9819984111583
 30
0.0
 10
138.6322811003724
 20
243.3312893878507
 30
0.0
 10
136.4305844708156
 20
243.7332280819693
 30
0.0
 10
134.2514549569134
 20
244.1933706012501
 30
0.0
 10
132.4551905732145
 20
244.6332154358915
 30
0.0
 10
131.0303274738942
 20
245.0239049663055
 30
0.0
 10
129.6149713249388
 20
245.4427133288459
 30
0.0
 10
128.2143689318625
 20
245.906957076969
 30
0.0
 10
126.8308516804265
 20
246.4231604644374
 30
0.0
 10
125.4557125332896
 20
246.9787715902577
 30
0.0
 10
123.7694811046497
 20
247.7472377598344
 30
0.0
 10
121.8071547692912
 20
248.8017788018471
 30
0.0
 10
119.9154065221692
 20
250.0078207119562
 30
0.0
 10
118.1172223110015
 20
251.3755913805919
 30
0.0
 10
116.719881147218
 20
252.6473958679918
 30
0.0
 10
115.6770006398068
 20
253.734406702929
 30
0.0
 10
114.6830014904682
 20
254.8672995971644
 30
0.0
 10
113.5336620014247
 20
256.3659612342033
 30
0.0
 10
112.3103940746031
 20
258.2718795982305
 30
0.0
 10
111.2393515285644
 20
260.2562595404366
 30
0.0
 10
110.3118003868373
 20
262.2878753876901
 30
0.0
 10
109.5058330026856
 20
264.3628430805725
 30
0.0
 10
108.8073139438153
 20
266.4667790964091
 30
0.0
 10
108.198351031742
 20
268.6062417293309
 30
0.0
 10
107.6720287124447
 20
270.7534768006275
 30
0.0
 10
107.206980621979
 20
272.9523299338717
 30
0.0
 10
106.8045347033333
 20
275.1568236044702
 30
0.0
 10
106.4523282082808
 20
277.3926011809477
 30
0.0
 10
106.1509600321238
 20
279.5984301393934
 30
0.0
 10
105.8887669510553
 20
281.8171370808161
 30
0.0
 10
105.6630861913592
 20
284.030373256229
 30
0.0
 10
105.4093669941317
 20
286.9121576349436
 30
0.0
 10
105.151752933854
 20
290.5533619078943
 30
0.0
 10
104.9233485142907
 20
294.9541100786834
 30
0.0
 10
104.7549772098442
 20
299.4564426997485
 30
0.0
 10
104.6398490404529
 20
303.9354621643195
 30
0.0
 10
104.56344855091
 20
308.3636601659684
 30
0.0
 10
104.5174748973156
 20
312.7629485744902
 30
0.0
 10
104.4940983243795
 20
317.1639247158867
 30
0.0
 10
104.4920014532838
 20
320.1165217684474
 30
0.0
 10
104.490951472944
 20
321.5949955111481
 30
0.0
  0
SPLINE
  5
C9
330
1F
100
AcDbEntity
  8
0
  6
Continuous
 62
     8
370
    18
100
AcDbSpline
210
0.0
220
0.0
230
1.0
 70
     8
 71
     3
 72
    52
 73
    48
 74
     0
 42
0.000000001
 43
0.00000001
 40
0.0
 40
0.0
 40
0.0
 40
0.0
 40
0.1249999999999978
 40
0.1249999999999978
 40
0.1874999999999968
 40
0.1874999999999968
 40
0.2499999999999957
 40
0.2499999999999957
 40
0.3124999999999947
 40
0.3124999999999947
 40
0.3437499999999943
 40
0.3437499999999943
 40
0.3749999999999938
 40
0.3749999999999938
 40
0.4062499999999934
 40
0.4062499999999934
 40
0.437499999999993
 40
0.437499999999993
 40
0.4531249999999929
 40
0.4531249999999929
 40
0.4687499999999928
 40
0.4687499999999928
 40
0.4999999999999928
 40
0.4999999999999928
 40
0.515624999999993
 40
0.515624999999993
 40
0.5312499999999931
 40
0.5312499999999931
 40
0.5624999999999936
 40
0.5624999999999936
 40
0.5781249999999938
 40
0.5781249999999938
 40
0.5937499999999939
 40
0.5937499999999939
 40
0.6249999999999942
 40
0.6249999999999942
 40
0.6562499999999947
 40
0.6562499999999947
 40
0.687499999999995
 40
0.687499999999995
 40
0.7499999999999959
 40
0.7499999999999959
 40
0.8124999999999969
 40
0.8124999999999969
 40
0.8749999999999979
 40
0.8749999999999979
 40
1.0
 40
1.0
 40
1.0
 40
1.0
 10
104.4881123832808
 20
321.5949943757498
 30
0.0
 10
104.4881124070791
 20
327.4755181652693
 30
0.0
 10
104.5184101740312
 20
333.3553571380414
 30
0.0
 10
104.7099147157413
 20
342.1706484945795
 30
0.0
 10
104.7987699262377
 20
345.1083126250022
 30
0.0
 10
105.0591391409183
 20
350.9811023855208
 30
0.0
 10
105.2301524201976
 20
353.9162376926664
 30
0.0
 10
105.709134213013
 20
359.7824480801564
 30
0.0
 10
106.015861184464
 20
362.7135490838645
 30
0.0
 10
106.6537418286125
 20
367.1052698760005
 30
0.0
 10
106.8964578272437
 20
368.5683382634849
 30
0.0
 10
107.4636780605741
 20
371.4922612532114
 30
0.0
 10
107.7864982052659
 20
372.9442055573631
 30
0.0
 10
108.5355087989909
 20
375.8162414693326
 30
0.0
 10
108.9616857333593
 20
377.2371001046845
 30
0.0
 10
109.9541091872216
 20
380.0376775845849
 30
0.0
 10
110.5201996338217
 20
381.4174518144248
 30
0.0
 10
111.5134029336457
 20
383.4441890898077
 30
0.0
 10
111.8694916586007
 20
384.1135121114669
 30
0.0
 10
112.6252633340648
 20
385.4138965197961
 30
0.0
 10
113.0260839762458
 20
386.0474647939972
 30
0.0
 10
114.3028982343021
 20
387.8936288593751
 30
0.0
 10
115.2537564575119
 20
389.0513844705599
 30
0.0
 10
116.8450964490928
 20
390.6628476250936
 30
0.0
 10
117.4059402070795
 20
391.1814985883717
 30
0.0
 10
118.561492343312
 20
392.1579002340991
 30
0.0
 10
119.1573276006246
 20
392.6173422454837
 30
0.0
 10
120.9940186049549
 20
393.9159410781355
 30
0.0
 10
122.2839521817785
 20
394.6753688207469
 30
0.0
 10
124.2972070273339
 20
395.6842589036623
 30
0.0
 10
124.9834793122285
 20
395.9997217650366
 30
0.0
 10
126.3677012160313
 20
396.5872406995864
 30
0.0
 10
127.0649976036639
 20
396.8592165095943
 30
0.0
 10
129.1698370855055
 20
397.6197551987525
 30
0.0
 10
130.5902444905815
 20
398.0534789080909
 30
0.0
 10
133.4559130529514
 20
398.8145230667812
 30
0.0
 10
134.9012321925793
 20
399.1416483667851
 30
0.0
 10
137.8105002324973
 20
399.7165728274866
 30
0.0
 10
139.2750697547452
 20
399.9643429775737
 30
0.0
 10
143.686428012521
 20
400.6167778208819
 30
0.0
 10
146.6336401883686
 20
400.9302958392135
 30
0.0
 10
152.5355211232275
 20
401.4195949041747
 30
0.0
 10
155.4902462118876
 20
401.5941117697904
 30
0.0
 10
161.404311284749
 20
401.8596281137516
 30
0.0
 10
164.3637424989925
 20
401.9501019810573
 30
0.0
 10
173.238467621986
 20
402.144825393714
 30
0.0
 10
179.1537781654496
 20
402.175362879523
 30
0.0
 10
185.0684814396783
 20
402.1753628551074
 30
0.0
  0
SPLINE
  5
CA
330
1F
100
AcDbEntity
  8
0
  6
Continuous
 62
     8
370
    18
100
AcDbSpline
210
0.0
220
0.0
230
1.0
 70
     8
 71
     3
 72
    52
 73
    48
 74
     0
 42
0.000000001
 43
0.00000001
 40
0.0
 40
0.0
 40
0.0
 40
0.0
 40
0.1249999999999993
 40
0.1249999999999993
 40
0.1874999999999989
 40
0.1874999999999989
 40
0.2499999999999986
 40
0.2499999999999986
 40
0.3124999999999982
 40
0.3124999999999982
 40
0.3437499999999981
 40
0.3437499999999981
 40
0.3749999999999981
 40
0.3749999999999981
 40
0.406249999999998
 40
0.406249999999998
 40
0.4374999999999979
 40
0.4374999999999979
 40
0.4531249999999979
 40
0.4531249999999979
 40
0.4687499999999978
 40
0.4687499999999978
 40
0.4999999999999976
 40
0.4999999999999976
 40
0.5156249999999974
 40
0.5156249999999974
 40
0.5312499999999973
 40
0.5312499999999973
 40
0.5624999999999972
 40
0.5624999999999972
 40
0.5781249999999972
 40
0.5781249999999972
 40
0.5937499999999972
 40
0.5937499999999972
 40
0.6249999999999974
 40
0.6249999999999974
 40
0.6562499999999978
 40
0.6562499999999978
 40
0.687499999999998
 40
0.687499999999998
 40
0.7499999999999984
 40
0.7499999999999984
 40
0.8124999999999989
 40
0.8124999999999989
 40
0.8749999999999992
 40
0.8749999999999992
 40
1.0
 40
1.0
 40
1.0
 40
1.0
 10
185.06848143984
 20
402.1753628551074
 30
0.0
 10
190.9490052270921
 20
402.1753628312243
 30
0.0
 10
196.8288441963001
 20
402.145065064196
 30
0.0
 10
205.6441355427475
 20
401.953560522604
 30
0.0
 10
208.581799668995
 20
401.864705312187
 30
0.0
 10
214.4545894184975
 20
401.6043360979181
 30
0.0
 10
217.3897247188249
 20
401.4333228189581
 30
0.0
 10
223.2559350880918
 20
400.9543410275307
 30
0.0
 10
226.1870360804483
 20
400.6476140570998
 30
0.0
 10
230.5787568492094
 20
400.009733416253
 30
0.0
 10
232.0418252278312
 20
399.7670174190311
 30
0.0
 10
234.9657481968627
 20
399.199797189672
 30
0.0
 10
236.4176924892404
 20
398.8769770475209
 30
0.0
 10
239.2897283738818
 20
398.1279664608893
 30
0.0
 10
240.7105869936652
 20
397.7017895310624
 30
0.0
 10
243.5111644376249
 20
396.7093660898971
 30
0.0
 10
244.8909386470827
 20
396.1432756514404
 30
0.0
 10
246.917675888028
 20
395.1500723684538
 30
0.0
 10
247.5869988975448
 20
394.7939836499129
 30
0.0
 10
248.8873832809109
 20
394.0382119889345
 30
0.0
 10
249.5209515422514
 20
393.6373913548463
 30
0.0
 10
251.3671155686001
 20
392.3605771237574
 30
0.0
 10
252.5248711531614
 20
391.4097189222531
 30
0.0
 10
254.1363342705726
 20
389.8183789672808
 30
0.0
 10
254.6549852218807
 20
389.2575352222273
 30
0.0
 10
255.6313868454941
 20
388.1019831121305
 30
0.0
 10
256.0908288466974
 20
387.5061478680391
 30
0.0
 10
257.3894276516064
 20
385.6694569029065
 30
0.0
 10
258.1488553795133
 20
384.3795233514888
 30
0.0
 10
259.1577454449703
 20
382.366268540724
 30
0.0
 10
259.4732083012614
 20
381.6799962669284
 30
0.0
 10
260.0607272269283
 20
380.2957743839834
 30
0.0
 10
260.3327030331162
 20
379.5984780061576
 30
0.0
 10
261.0932417122945
 20
377.4936385518188
 30
0.0
 10
261.5269654168877
 20
376.0732311625845
 30
0.0
 10
262.2880095681591
 20
373.2075626279814
 30
0.0
 10
262.615134865503
 20
371.76224350029
 30
0.0
 10
263.190059322026
 20
368.852975481347
 30
0.0
 10
263.4378294706044
 20
367.3884059681432
 30
0.0
 10
264.0902643103486
 20
362.9770477342722
 30
0.0
 10
264.4037823275371
 20
360.0298355700178
 30
0.0
 10
264.8930813908888
 20
354.1279546537502
 30
0.0
 10
265.0675982560895
 20
351.173229572034
 30
0.0
 10
265.3331145994549
 20
345.2591645103797
 30
0.0
 10
265.4235884665937
 20
342.2997333003754
 30
0.0
 10
265.6183118788729
 20
333.4250081876084
 30
0.0
 10
265.648849364589
 20
327.5096976477341
 30
0.0
 10
265.6488493400885
 20
321.594994375783
 30
0.0
  0
SPLINE
  5
CB
330
1F
100
AcDbEntity
  8
0
  6
Continuous
 62
     8
370
    18
100
AcDbSpline
210
0.0
220
0.0
230
1.0
 70
     8
 71
     3
 72
    54
 73
    50
 74
     0
 42
0.000000001
 43
0.00000001
 40
0.0
 40
0.0
 40
0.0
 40
0.0
 40
0.0625000000000002
 40
0.0625000000000002
 40
0.1250000000000003
 40
0.1250000000000003
 40
0.1875000000000005
 40
0.1875000000000005
 40
0.2500000000000007
 40
0.2500000000000007
 40
0.3125000000000007
 40
0.3125000000000007
 40
0.3281250000000007
 40
0.3281250000000007
 40
0.3437500000000006
 40
0.3437500000000006
 40
0.3750000000000007
 40
0.3750000000000007
 40
0.4062500000000008
 40
0.4062500000000008
 40
0.4375000000000009
 40
0.4375000000000009
 40
0.5000000000000011
 40
0.5000000000000011
 40
0.5156250000000011
 40
0.5156250000000011
 40
0.5312500000000012
 40
0.5312500000000012
 40
0.5625000000000012
 40
0.5625000000000012
 40
0.5781250000000012
 40
0.5781250000000012
 40
0.5937500000000011
 40
0.5937500000000011
 40
0.6250000000000011
 40
0.6250000000000011
 40
0.6875000000000009
 40
0.6875000000000009
 40
0.7187500000000008
 40
0.7187500000000008
 40
0.7500000000000007
 40
0.7500000000000007
 40
0.8125000000000004
 40
0.8125000000000004
 40
0.8750000000000003
 40
0.8750000000000003
 40
0.9375000000000001
 40
0.9375000000000001
 40
1.0
 40
1.0
 40
1.0
 40
1.0
 10
185.0684814396706
 20
406.2192281351039
 30
0.0
 10
188.1550094237211
 20
406.2192281352333
 30
0.0
 10
191.2410137209532
 20
406.2099880317559
 30
0.0
 10
197.4110973956197
 20
406.1575439014089
 30
0.0
 10
200.4951848596272
 20
406.1144825567162
 30
0.0
 10
206.6600999665166
 20
405.9708425012922
 30
0.0
 10
209.7409431102236
 20
405.8705372922477
 30
0.0
 10
215.8972329370545
 20
405.5747099318875
 30
0.0
 10
218.9727118285838
 20
405.3797560763181
 30
0.0
 10
225.114664932829
 20
404.8309668232967
 30
0.0
 10
228.1812127130575
 20
404.4784294753591
 30
0.0
 10
232.0046787875366
 20
403.866278692284
 30
0.0
 10
232.7688754175818
 20
403.7350866278347
 30
0.0
 10
234.2961198377254
 20
403.4524319857021
 30
0.0
 10
235.0595299752029
 20
403.3008637361272
 30
0.0
 10
237.3362953029721
 20
402.8134743893538
 30
0.0
 10
238.8396823537284
 20
402.4446141333283
 30
0.0
 10
241.8089151363056
 20
401.5928036888262
 30
0.0
 10
243.2747874010266
 20
401.1099341352381
 30
0.0
 10
246.1576405793536
 20
399.9956117817626
 30
0.0
 10
247.5751621162747
 20
399.364052261423
 30
0.0
 10
251.7291822449544
 20
397.1804562943724
 30
0.0
 10
254.2479029493223
 20
395.3955012409776
 30
0.0
 10
257.0126137022727
 20
392.6602889541954
 30
0.0
 10
257.5488393320027
 20
392.08539481258
 30
0.0
 10
258.5670808856489
 20
390.902285901762
 30
0.0
 10
259.0498522318355
 20
390.2938426496536
 30
0.0
 10
260.424034736156
 20
388.4209979232054
 30
0.0
 10
261.2412821879482
 20
387.109060857887
 30
0.0
 10
262.3397718235175
 20
385.0595094362926
 30
0.0
 10
262.6847168247849
 20
384.3627257130408
 30
0.0
 10
263.3357058290996
 20
382.9442244810652
 30
0.0
 10
263.6407691497889
 20
382.2244573822848
 30
0.0
 10
264.494700611135
 20
380.054906418493
 30
0.0
 10
264.9860977467308
 20
378.5876599655982
 30
0.0
 10
266.2840674320635
 20
374.1386830310457
 30
0.0
 10
266.9176520246628
 20
371.1105818086913
 30
0.0
 10
267.6666289505561
 20
366.5144431798367
 30
0.0
 10
267.8815421615832
 20
364.9740772204306
 30
0.0
 10
268.2568385223976
 20
361.8930404880816
 30
0.0
 10
268.4175185324652
 20
360.3503460511411
 30
0.0
 10
268.8378218894358
 20
355.7172811868349
 30
0.0
 10
269.0367288446276
 20
352.6220115328063
 30
0.0
 10
269.3383490541963
 20
346.4237103210585
 30
0.0
 10
269.4404831051665
 20
343.3201588427594
 30
0.0
 10
269.586528370359
 20
337.1139701481902
 30
0.0
 10
269.6302060364
 20
334.0104786772643
 30
0.0
 10
269.6833753112988
 20
327.8030330970881
 30
0.0
 10
269.6927151993889
 20
324.699076934607
 30
0.0
 10
269.6927151991943
 20
321.5949943755294
 30
0.0
  0
SPLINE
  5
CC
330
1F
100
AcDbEntity
  8
0
  6
Continuous
 62
     8
370
    18
100
AcDbSpline
210
0.0
220
0.0
230
1.0
 70
     8
 71
     3
 72
    26
 73
    22
 74
     0
 42
0.000000001
 43
0.00000001
 40
0.0
 40
0.0
 40
0.0
 40
0.0
 40
0.0913794345583822
 40
0.1827838856169565
 40
0.2744639345950965
 40
0.320531297397068
 40
0.3665837105321976
 40
0.4226800868081408
 40
0.4511559955861162
 40
0.4798397534172293
 40
0.5192507631469266
 40
0.5598468533816007
 40
0.5986670963784373
 40
0.6385760638381065
 40
0.6697230645061288
 40
0.7011018371164287
 40
0.7329590553878407
 40
0.7649076675541048
 40
0.8458043784119267
 40
0.9270102989197486
 40
1.0
 40
1.0
 40
1.0
 40
1.0
 10
269.692712301439
 20
321.5949945798255
 30
0.0
 10
269.6834081281197
 20
317.4806961218469
 30
0.0
 10
269.6647972343232
 20
309.250972854554
 30
0.0
 10
269.3972078991654
 20
296.8957018168728
 30
0.0
 10
268.8260679507341
 20
286.5895223496385
 30
0.0
 10
267.9468467147428
 20
278.3581858969766
 30
0.0
 10
266.8964845515135
 20
271.7654943776307
 30
0.0
 10
265.5114062692814
 20
266.0350726435234
 30
0.0
 10
263.8012152154884
 20
261.2255986470116
 30
0.0
 10
261.9880511174069
 20
257.26708945131
 30
0.0
 10
259.3919954876483
 20
253.0925653685017
 30
0.0
 10
255.7783291404865
 20
249.1030481174209
 30
0.0
 10
251.47615378927
 20
245.8397949095038
 30
0.0
 10
247.0808520361392
 20
243.5281884353545
 30
0.0
 10
242.7702592705478
 20
241.8723720540598
 30
0.0
 10
238.6878598276668
 20
240.6785257069761
 30
0.0
 10
234.5030287948238
 20
239.7443182107664
 30
0.0
 10
228.0784947811577
 20
238.6490720254319
 30
0.0
 10
219.3762027503675
 20
237.7749779355274
 30
0.0
 10
208.8031016663263
 20
237.2403071552702
 30
0.0
 10
201.8612138831343
 20
237.1251134874868
 30
0.0
 10
198.5752171148121
 20
237.0705856656767
 30
0.0
  0
SPLINE
  5
CD
330
1F
100
AcDbEntity
  8
0
  6
Continuous
 62
     8
370
    18
100
AcDbSpline
210
0.0
220
0.0
230
1.0
 70
     8
 71
     3
 72
    26
 73
    22
 74
     0
 42
0.000000001
 43
0.00000001
 40
0.0
 40
0.0
 40
0.0
 40
0.0
 40
0.0835410905785572
 40
0.1751452903697961
 40
0.2211745198885757
 40
0.2671888258074587
 40
0.323238783739696
 40
0.3516911294177219
 40
0.3803511502503713
 40
0.4197295190152244
 40
0.4602920374044573
 40
0.4990801576243553
 40
0.538956101414913
 40
0.5700773287214743
 40
0.6014301518149373
 40
0.6332609968981049
 40
0.6651831723895084
 40
0.7460129569471083
 40
0.8271516678339844
 40
0.9135604290246618
 40
1.0
 40
1.0
 40
1.0
 40
1.0
 10
171.6735054050147
 20
237.0638652419783
 30
0.0
 10
167.9095808323794
 20
237.1308735511712
 30
0.0
 10
160.0184501607692
 20
237.2713575894989
 30
0.0
 10
150.063034560851
 20
237.8392682632441
 30
0.0
 10
141.8316684181216
 20
238.716278787944
 30
0.0
 10
135.238983560994
 20
239.7671090010095
 30
0.0
 10
129.5085609831519
 20
241.1520541430294
 30
0.0
 10
124.6990852101504
 20
242.8622600929102
 30
0.0
 10
120.7405845972143
 20
244.6754348096533
 30
0.0
 10
116.5660538283191
 20
247.2714786920916
 30
0.0
 10
112.5765364358305
 20
250.8851453493881
 30
0.0
 10
109.313282618007
 20
255.1873213378019
 30
0.0
 10
107.001676568806
 20
259.5826227719682
 30
0.0
 10
105.3458586122298
 20
263.8932172950684
 30
0.0
 10
104.1520170301292
 20
267.9756129623285
 30
0.0
 10
103.217749257166
 20
272.1604467040466
 30
0.0
 10
102.1229262877598
 20
278.5849858539243
 30
0.0
 10
101.2446069135077
 20
287.2872155185796
 30
0.0
 10
100.6975612338395
 20
298.4673203511869
 30
0.0
 10
100.4694662977591
 20
309.9112277736236
 30
0.0
 10
100.4526568167433
 20
317.6999428714032
 30
0.0
 10
100.4442505781114
 20
321.5949945798255
 30
0.0
  0
SPLINE
  5
CE
330
1F
100
AcDbEntity
  8
0
  6
Continuous
 62
     8
370
    18
100
AcDbSpline
210
0.0
220
0.0
230
1.0
 70
     8
 71
     3
 72
    54
 73
    50
 74
     0
 42
0.000000001
 43
0.00000001
 40
0.0
 40
0.0
 40
0.0
 40
0.0
 40
0.0625000000000005
 40
0.0625000000000005
 40
0.1250000000000011
 40
0.1250000000000011
 40
0.1875000000000016
 40
0.1875000000000016
 40
0.2500000000000022
 40
0.2500000000000022
 40
0.3125000000000027
 40
0.3125000000000027
 40
0.3281250000000028
 40
0.3281250000000028
 40
0.3437500000000029
 40
0.3437500000000029
 40
0.375000000000003
 40
0.375000000000003
 40
0.4062500000000032
 40
0.4062500000000032
 40
0.4375000000000033
 40
0.4375000000000033
 40
0.5000000000000034
 40
0.5000000000000034
 40
0.5156250000000036
 40
0.5156250000000036
 40
0.5312500000000037
 40
0.5312500000000037
 40
0.5625000000000039
 40
0.5625000000000039
 40
0.5781250000000039
 40
0.5781250000000039
 40
0.5937500000000038
 40
0.5937500000000038
 40
0.6250000000000036
 40
0.6250000000000036
 40
0.687500000000003
 40
0.687500000000003
 40
0.7187500000000027
 40
0.7187500000000027
 40
0.7500000000000023
 40
0.7500000000000023
 40
0.8125000000000018
 40
0.8125000000000018
 40
0.8750000000000012
 40
0.8750000000000012
 40
0.9375000000000007
 40
0.9375000000000007
 40
1.0
 40
1.0
 40
1.0
 40
1.0
 10
100.4442476803574
 20
321.5949943755804
 30
0.0
 10
100.444247680228
 20
324.6815223596341
 30
0.0
 10
100.4534877837074
 20
327.7675266568694
 30
0.0
 10
100.5059319140616
 20
333.9376103315421
 30
0.0
 10
100.5489932587591
 20
337.0216977955526
 30
0.0
 10
100.6926333141936
 20
343.1866129024481
 30
0.0
 10
100.7929385232436
 20
346.2674560461582
 30
0.0
 10
101.0887658836113
 20
352.4237458729956
 30
0.0
 10
101.2837197391828
 20
355.4992247645283
 30
0.0
 10
101.8325089921978
 20
361.6411778687814
 30
0.0
 10
102.1850463401228
 20
364.7077256490142
 30
0.0
 10
102.7971971231774
 20
368.5311917234995
 30
0.0
 10
102.9283891876239
 20
369.2953883535459
 30
0.0
 10
103.2110438297535
 20
370.8226327736917
 30
0.0
 10
103.362612079328
 20
371.5860429111694
 30
0.0
 10
103.8500014261024
 20
373.8628082389372
 30
0.0
 10
104.2188616821323
 20
375.3661952896917
 30
0.0
 10
105.0706721266448
 20
378.3354280722652
 30
0.0
 10
105.553541680239
 20
379.8013003369842
 30
0.0
 10
106.6678640337197
 20
382.6841535153104
 30
0.0
 10
107.2994235540605
 20
384.1016750522347
 30
0.0
 10
109.4830195211187
 20
388.2556951809067
 30
0.0
 10
111.2679745745269
 20
390.7744158852647
 30
0.0
 10
114.0031868613038
 20
393.5391266382223
 30
0.0
 10
114.5780810029191
 20
394.0753522679531
 30
0.0
 10
115.7611899137381
 20
395.0935938215967
 30
0.0
 10
116.3696331658477
 20
395.5763651677808
 30
0.0
 10
118.2424778923005
 20
396.9505476720926
 30
0.0
 10
119.5544149576229
 20
397.767795123877
 30
0.0
 10
121.6039663792191
 20
398.8662847594408
 30
0.0
 10
122.3007501024708
 20
399.2112297607075
 30
0.0
 10
123.719251334444
 20
399.8622187650241
 30
0.0
 10
124.4390184332219
 20
400.1672820857173
 30
0.0
 10
126.6085693970069
 20
401.0212135470744
 30
0.0
 10
128.0758158498978
 20
401.5126106826752
 30
0.0
 10
132.5247927844404
 20
402.810580368014
 30
0.0
 10
135.5528940067915
 20
403.4441649606044
 30
0.0
 10
140.1490326356461
 20
404.1931418864647
 30
0.0
 10
141.6893985950526
 20
404.4080550974804
 30
0.0
 10
144.7704353274015
 20
404.7833514582812
 30
0.0
 10
146.3131297643418
 20
404.9440314683449
 30
0.0
 10
150.9461946286467
 20
405.3643348253082
 30
0.0
 10
154.0414642826736
 20
405.5632417805015
 30
0.0
 10
160.239765494418
 20
405.864861990077
 30
0.0
 10
163.3433169727151
 20
405.9669960410526
 30
0.0
 10
169.5495056672804
 20
406.113041306255
 30
0.0
 10
172.6529971382045
 20
406.1567189723008
 30
0.0
 10
178.860442718377
 20
406.2098882472064
 30
0.0
 10
181.9643988808561
 20
406.2192281352986
 30
0.0
 10
185.0684814399318
 20
406.2192281351039
 30
0.0
  0
SPLINE
  5
CF
330
1F
100
AcDbEntity
  8
0
  6
Continuous
 62
     7
370
    25
100
AcDbSpline
210
0.0
220
0.0
230
1.0
 70
     8
 71
     3
 72
    15
 73
    11
 74
     0
 42
0.000000001
 43
0.00000001
 40
0.0
 40
0.0
 40
0.0
 40
0.0
 40
0.0880447173176161
 40
0.1977102755372367
 40
0.3094640114782405
 40
0.4233146150777218
 40
0.5602019684472538
 40
0.701293972455363
 40
0.8551816104033341
 40
1.0
 40
1.0
 40
1.0
 40
1.0
 10
386.3198212124249
 20
360.8183889364935
 30
0.0
 10
386.2875163544418
 20
362.0340408657461
 30
0.0
 10
386.214973644696
 20
364.7638682218027
 30
0.0
 10
386.0699011436798
 20
369.0357843642315
 30
0.0
 10
385.884209220205
 20
373.6628631940014
 30
0.0
 10
385.644811342365
 20
378.6639470704417
 30
0.0
 10
385.3378414633419
 20
384.0673318512349
 30
0.0
 10
384.9329155850215
 20
390.0186320750406
 30
0.0
 10
384.4554444807666
 20
396.0746698378013
 30
0.0
 10
384.0574398382142
 20
400.1811678704782
 30
0.0
 10
383.8644795827409
 20
402.1720765804984
 30
0.0
  0
SPLINE
  5
D0
330
1F
100
AcDbEntity
  8
0
  6
Continuous
 62
     7
370
    25
100
AcDbSpline
210
0.0
220
0.0
230
1.0
 70
     8
 71
     3
 72
    13
 73
     9
 74
     0
 42
0.000000001
 43
0.00000001
 40
0.0
 40
0.0
 40
0.0
 40
0.0
 40
0.1871477080892724
 40
0.3761045600727872
 40
0.5532899526698357
 40
0.7188151745977845
 40
0.8727926679903052
 40
1.0
 40
1.0
 40
1.0
 40
1.0
 10
383.8571873269817
 20
241.0187973355986
 30
0.0
 10
384.2644270386995
 20
245.4271233984831
 30
0.0
 10
385.0828432201402
 20
254.286390506086
 30
0.0
 10
385.8206760173108
 20
267.3554389943915
 30
0.0
 10
386.2872755156455
 20
279.9231620359778
 30
0.0
 10
386.5332108381206
 20
291.6696091254701
 30
0.0
 10
386.660907716255
 20
302.2353867723443
 30
0.0
 10
386.6932483091915
 20
308.8864587815016
 30
0.0
 10
386.7078791148802
 20
311.895387602888
 30
0.0
  0
LINE
  5
D1
330
1F
100
AcDbEntity
  8
0
  6
Continuous
 62
     7
370
    25
100
AcDbLine
 10
414.9374714829
 20
360.8949958062
 30
0.0
 11
386.3214901425
 21
360.8949958062
 31
0.0
  0
LINE
  5
D2
330
1F
100
AcDbEntity
  8
0
  6
Continuous
 62
     7
370
    25
100
AcDbLine
 10
386.7102297731
 20
311.8949943519
 30
0.0
 11
414.9374714829
 21
311.8949943519
 31
0.0
  0
ARC
  5
D3
330
1F
100
AcDbEntity
  8
0
  6
Continuous
 62
     7
370
    25
100
AcDbCircle
 10
414.9374701752
 20
336.3949943757
 30
0.0
 40
24.49999999999998
100
AcDbArc
 50
54.6180933656
 51
90.0
  0
ARC
  5
D4
330
1F
100
AcDbEntity
  8
0
  6
Continuous
 62
     7
370
    25
100
AcDbCircle
 10
414.9374701752
 20
336.3949943757
 30
0.0
 40
24.50000000000006
100
AcDbArc
 50
270.0
 51
290.5571264794
  0
SPLINE
  5
D5
330
1F
100
AcDbEntity
  8
0
  6
Continuous
 62
     7
370
    25
100
AcDbSpline
210
0.0
220
0.0
230
1.0
 70
     8
 71
     3
 72
    13
 73
     9
 74
     0
 42
0.000000001
 43
0.00000001
 40
0.0
 40
0.0
 40
0.0
 40
0.0
 40
0.1927523346229339
 40
0.3748203806756951
 40
0.5463445556713022
 40
0.7075412826479285
 40
0.8586602847605899
 40
1.0
 40
1.0
 40
1.0
 40
1.0
 10
457.1403651274582
 20
261.5839383280016
 30
0.0
 10
457.139750318171
 20
265.3053224563604
 30
0.0
 10
457.1385547785602
 20
272.5418138760911
 30
0.0
 10
457.1337960561746
 20
283.1114404513318
 30
0.0
 10
457.1320947245148
 20
293.0799174743838
 30
0.0
 10
457.1337822318997
 20
302.4491522261483
 30
0.0
 10
457.1385667096973
 20
311.2267337020073
 30
0.0
 10
457.1398243763826
 20
316.8558137455866
 30
0.0
 10
457.1404321826836
 20
319.5762406749762
 30
0.0
  0
SPLINE
  5
D6
330
1F
100
AcDbEntity
  8
0
  6
Continuous
 62
     7
370
    25
100
AcDbSpline
210
0.0
220
0.0
230
1.0
 70
     8
 71
     3
 72
    11
 73
     7
 74
     0
 42
0.000000001
 43
0.00000001
 40
0.0
 40
0.0
 40
0.0
 40
0.0
 40
0.250354537644878
 40
0.4994783875539325
 40
0.749196964392979
 40
1.0
 40
1.0
 40
1.0
 40
1.0
 10
447.5393011011025
 20
291.7276165163256
 30
0.0
 10
447.6420522397101
 20
288.2687326093285
 30
0.0
 10
447.8470494149715
 20
281.3679679063783
 30
0.0
 10
448.1692572628354
 20
270.8718190833907
 30
0.0
 10
448.4577208835532
 20
260.2915396327561
 30
0.0
 10
448.7146091112718
 20
253.2196451434139
 30
0.0
 10
448.8433315194985
 20
249.6760367130972
 30
0.0
  0
SPLINE
  5
D7
330
1F
100
AcDbEntity
  8
0
  6
Continuous
 62
     7
370
    25
100
AcDbSpline
210
0.0
220
0.0
230
1.0
 70
     8
 71
     3
 72
    21
 73
    17
 74
     0
 42
0.000000001
 43
0.00000001
 40
0.0
 40
0.0
 40
0.0
 40
0.0
 40
0.1736745834093638
 40
0.3279897589757923
 40
0.4444853747458983
 40
0.4844685915615494
 40
0.499867153859839
 40
0.5128053318413406
 40
0.5187418213504912
 40
0.5246026837796527
 40
0.5370868044135021
 40
0.5521129987810006
 40
0.5704909090222395
 40
0.6779453218499019
 40
0.8283854558476673
 40
0.9999999999999999
 40
0.9999999999999999
 40
0.9999999999999999
 40
0.9999999999999999
 10
448.8515271581551
 20
249.6760367130972
 30
0.0
 10
448.8685883627778
 20
249.4071970233054
 30
0.0
 10
448.9008089691681
 20
248.8994850522905
 30
0.0
 10
448.9564384296293
 20
248.1601335757649
 30
0.0
 10
449.0102605204469
 20
247.5719701778407
 30
0.0
 10
449.0589218664588
 20
247.1228367804016
 30
0.0
 10
449.0852078221775
 20
246.8950253380536
 30
0.0
 10
449.1011975576353
 20
246.7606671274448
 30
0.0
 10
449.1136805456225
 20
246.6580320181855
 30
0.0
 10
449.126009813013
 20
246.5576352495334
 30
0.0
 10
449.1418846771955
 20
246.4308327071545
 30
0.0
 10
449.1590779666367
 20
246.2962663476544
 30
0.0
 10
449.2012625269841
 20
245.9729284883038
 30
0.0
 10
449.2493469549498
 20
245.6361706435304
 30
0.0
 10
449.3100701871126
 20
245.2501511892358
 30
0.0
 10
449.347993973478
 20
245.0278028139812
 30
0.0
 10
449.36820257081
 20
244.9093191599585
 30
0.0
  0
LINE
  5
D8
330
1F
100
AcDbEntity
  8
0
  6
Continuous
 62
     7
370
    25
100
AcDbLine
 10
428.5404286124
 20
312.0449943882
 30
0.0
 11
428.7590100206
 21
311.444447033
 31
0.0
  0
LINE
  5
D9
330
1F
100
AcDbEntity
  8
0
  6
Continuous
 62
     7
370
    25
100
AcDbLine
 10
428.5404286124
 20
312.3855043287
 30
0.0
 11
428.5404286124
 21
312.0449943882
 31
0.0
  0
ARC
  5
DA
330
1F
100
AcDbEntity
  8
0
  6
Continuous
 62
     7
370
    25
100
AcDbCircle
 10
436.1339075159
 20
311.5128510344
 30
0.0
 40
0.2000000000000638
100
AcDbArc
 50
263.16621798
 51
270.0
  0
ARC
  5
DB
330
1F
100
AcDbEntity
  8
0
  6
Continuous
 62
     7
370
    25
100
AcDbCircle
 10
428.9469472981
 20
311.5128510344
 30
0.0
 40
0.2000000000000455
100
AcDbArc
 50
200.0
 51
270.0
  0
LINE
  5
DC
330
1F
100
AcDbEntity
  8
0
  6
Continuous
 62
     7
370
    25
100
AcDbLine
 10
428.9469471909
 20
311.3128509786
 30
0.0
 11
436.1339076198
 21
311.3128509786
 31
0.0
  0
LINE
  5
DD
330
1F
100
AcDbEntity
  8
0
  6
Continuous
 62
     7
370
    25
100
AcDbLine
 10
457.1403651275
 20
261.583938328
 30
0.0
 11
457.1396200694
 21
265.0451129949
 31
0.0
  0
LINE
  5
DE
330
1F
100
AcDbEntity
  8
0
  6
Continuous
 62
     7
370
    25
100
AcDbLine
 10
427.6511310376
 20
312.394802141
 30
0.0
 11
428.5397617854
 21
312.3654047605
 31
0.0
  0
SPLINE
  5
DF
330
1F
100
AcDbEntity
  8
0
  6
Continuous
 62
     7
370
    25
100
AcDbSpline
210
0.0
220
0.0
230
1.0
 70
    24
 71
     3
 72
    54
 73
    50
 74
     0
 42
0.000000001
 43
0.00000001
 40
0.0
 40
0.0
 40
0.0
 40
0.0
 40
0.0625000000000001
 40
0.0625000000000001
 40
0.1250000000000002
 40
0.1250000000000002
 40
0.1875000000000002
 40
0.1875000000000002
 40
0.2500000000000003
 40
0.2500000000000003
 40
0.3125000000000004
 40
0.3125000000000004
 40
0.3437500000000004
 40
0.3437500000000004
 40
0.3750000000000005
 40
0.3750000000000005
 40
0.4062500000000006
 40
0.4062500000000006
 40
0.4218750000000005
 40
0.4218750000000005
 40
0.4375000000000004
 40
0.4375000000000004
 40
0.4687500000000003
 40
0.4687500000000003
 40
0.4843750000000002
 40
0.4843750000000002
 40
0.5000000000000001
 40
0.5000000000000001
 40
0.5624999999999998
 40
0.5624999999999998
 40
0.5781249999999997
 40
0.5781249999999997
 40
0.5937499999999997
 40
0.5937499999999997
 40
0.6249999999999997
 40
0.6249999999999997
 40
0.6562499999999998
 40
0.6562499999999998
 40
0.6874999999999998
 40
0.6874999999999998
 40
0.7499999999999999
 40
0.7499999999999999
 40
0.8125
 40
0.8125
 40
0.875
 40
0.875
 40
0.9375
 40
0.9375
 40
1.0
 40
1.0
 40
1.0
 40
1.0
 10
372.3927644869953
 20
321.5949943758409
 30
0.0
 10
372.3927644869953
 20
318.4788847958663
 30
0.0
 10
372.3927644869955
 20
315.3629059942762
 30
0.0
 10
372.3927644869955
 20
309.1314344996933
 30
0.0
 10
372.392764486996
 20
306.0159396598235
 30
0.0
 10
372.392764486996
 20
299.7857798408893
 30
0.0
 10
372.3927644869948
 20
296.6700224172325
 30
0.0
 10
372.3927644869948
 20
290.4481402895815
 30
0.0
 10
372.3927644869947
 20
287.3415887668767
 30
0.0
 10
372.3927644869947
 20
281.1432971407166
 30
0.0
 10
372.3927644869962
 20
278.0514426923037
 30
0.0
 10
372.3927644869962
 20
273.4327407384786
 30
0.0
 10
372.3927644869968
 20
271.8978992237473
 30
0.0
 10
372.3927644869968
 20
268.8592703441485
 30
0.0
 10
372.3927644869959
 20
267.3532758342367
 30
0.0
 10
372.3927644869959
 20
264.3760537291702
 30
0.0
 10
372.3927644869954
 20
262.9047991200543
 30
0.0
 10
372.3927644869954
 20
260.7320647766886
 30
0.0
 10
372.3927644869958
 20
260.0135346799946
 30
0.0
 10
372.3927644869958
 20
258.5895830368589
 30
0.0
 10
372.3927644869956
 20
257.8887733972156
 30
0.0
 10
372.3927644869956
 20
255.8313629347057
 30
0.0
 10
372.3927644869961
 20
254.5163015513134
 30
0.0
 10
372.3927644869961
 20
252.6411905614241
 30
0.0
 10
372.3927644869958
 20
252.0323927496699
 30
0.0
 10
372.3927644869958
 20
250.8492334716295
 30
0.0
 10
372.3927644869952
 20
250.2723450805273
 30
0.0
 10
372.3927644869952
 20
247.5164437153345
 30
0.0
 10
372.3927644869952
 20
245.7224317293113
 30
0.0
 10
372.3927644869952
 20
243.8929348638599
 30
0.0
 10
372.3927644869955
 20
243.5481712998054
 30
0.0
 10
372.3927644869955
 20
242.9044004030851
 30
0.0
 10
372.3927644869965
 20
242.604089224771
 30
0.0
 10
372.3927644869965
 20
241.7597587477985
 30
0.0
 10
372.3927644869956
 20
241.2720482402318
 30
0.0
 10
372.3927644869956
 20
240.411828992869
 30
0.0
 10
372.3927644869961
 20
240.0394010006127
 30
0.0
 10
372.3927644869961
 20
239.3832714490956
 30
0.0
 10
372.392764486995
 20
239.099194144384
 30
0.0
 10
372.392764486995
 20
238.3540921194512
 30
0.0
 10
372.3927644869963
 20
237.9965746337452
 30
0.0
 10
372.3927644869963
 20
237.4402988900257
 30
0.0
 10
372.3927644869955
 20
237.2428485409489
 30
0.0
 10
372.3927644869955
 20
236.9434470896688
 30
0.0
 10
372.3927644869956
 20
236.8420687168176
 30
0.0
 10
372.3927644869956
 20
236.6970189622588
 30
0.0
 10
372.3927644869947
 20
236.6536248677458
 30
0.0
 10
372.3927644869947
 20
236.6008245529047
 30
0.0
 10
372.3927644869953
 20
236.5915635105617
 30
0.0
 10
372.3927644869953
 20
236.5915635106907
 30
0.0
  0
LWPOLYLINE
  5
E0
330
1F
100
AcDbEntity
  8
0
  6
Continuous
 62
     7
370
    25
100
AcDbPolyline
 90
        3
 70
   128
 43
0.0
 10
379.6282759644
 20
236.9707627868
 10
376.0105203613
 20
236.7811604118
 10
372.3927645255
 20
236.5915654874
  0
ARC
  5
E1
330
1F
100
AcDbEntity
  8
0
  6
Continuous
 62
     7
370
    25
100
AcDbCircle
 10
379.392764487
 20
241.4645935227
 30
0.0
 40
4.500000000000041
100
AcDbArc
 50
273.0
 51
354.2608295227
  0
ARC
  5
E2
330
1F
100
AcDbEntity
  8
0
  6
Continuous
 62
     7
370
    25
100
AcDbCircle
 10
379.392764487
 20
401.7253952287
 30
0.0
 40
4.500000000000036
100
AcDbArc
 50
5.7391704773
 51
87.0
  0
SPLINE
  5
E3
330
1F
100
AcDbEntity
  8
0
  6
Continuous
 62
     7
370
    25
100
AcDbSpline
210
0.0
220
0.0
230
1.0
 70
    24
 71
     3
 72
    54
 73
    50
 74
     0
 42
0.000000001
 43
0.00000001
 40
0.0
 40
0.0
 40
0.0
 40
0.0
 40
0.0624999999999999
 40
0.0624999999999999
 40
0.1249999999999998
 40
0.1249999999999998
 40
0.1874999999999997
 40
0.1874999999999997
 40
0.2499999999999996
 40
0.2499999999999996
 40
0.3124999999999994
 40
0.3124999999999994
 40
0.3437499999999993
 40
0.3437499999999993
 40
0.3749999999999992
 40
0.3749999999999992
 40
0.4062499999999991
 40
0.4062499999999991
 40
0.421874999999999
 40
0.421874999999999
 40
0.437499999999999
 40
0.437499999999999
 40
0.4687499999999989
 40
0.4687499999999989
 40
0.4843749999999989
 40
0.4843749999999989
 40
0.4999999999999989
 40
0.4999999999999989
 40
0.5624999999999989
 40
0.5624999999999989
 40
0.5781249999999988
 40
0.5781249999999988
 40
0.5937499999999987
 40
0.5937499999999987
 40
0.6249999999999987
 40
0.6249999999999987
 40
0.6562499999999988
 40
0.6562499999999988
 40
0.6874999999999988
 40
0.6874999999999988
 40
0.749999999999999
 40
0.749999999999999
 40
0.8124999999999992
 40
0.8124999999999992
 40
0.8749999999999994
 40
0.8749999999999994
 40
0.9374999999999997
 40
0.9374999999999997
 40
1.0
 40
1.0
 40
1.0
 40
1.0
 10
372.3927644869953
 20
406.5984252406803
 30
0.0
 10
372.3927644869953
 20
406.5984252408749
 30
0.0
 10
372.3927644869966
 20
406.5890727203424
 30
0.0
 10
372.3927644869966
 20
406.5356039777024
 30
0.0
 10
372.3927644869964
 20
406.4916412879338
 30
0.0
 10
372.3927644869964
 20
406.3443690185239
 30
0.0
 10
372.3927644869954
 20
406.2412838018822
 30
0.0
 10
372.3927644869954
 20
405.9365628956869
 30
0.0
 10
372.3927644869948
 20
405.7355040606804
 30
0.0
 10
372.3927644869948
 20
405.1690657631978
 30
0.0
 10
372.3927644869955
 20
404.8049548648529
 30
0.0
 10
372.3927644869955
 20
404.0471145844518
 30
0.0
 10
372.3927644869954
 20
403.758741296836
 30
0.0
 10
372.3927644869954
 20
403.0920673387795
 30
0.0
 10
372.3927644869958
 20
402.713493840488
 30
0.0
 10
372.3927644869958
 20
401.8382730835736
 30
0.0
 10
372.3927644869947
 20
401.3417175684946
 30
0.0
 10
372.3927644869947
 20
400.4809139240226
 30
0.0
 10
372.3927644869951
 20
400.1745714334509
 30
0.0
 10
372.3927644869951
 20
399.5173678106219
 30
0.0
 10
372.3927644869956
 20
399.1685297975394
 30
0.0
 10
372.3927644869956
 20
398.0602498776995
 30
0.0
 10
372.3927644869951
 20
397.2373705132893
 30
0.0
 10
372.3927644869951
 20
395.8581957198311
 30
0.0
 10
372.3927644869948
 20
395.3743395508239
 30
0.0
 10
372.3927644869948
 20
394.3554552081977
 30
0.0
 10
372.3927644869951
 20
393.8177331767025
 30
0.0
 10
372.3927644869951
 20
391.0342325067978
 30
0.0
 10
372.3927644869954
 20
388.5075429745244
 30
0.0
 10
372.3927644869954
 20
385.0476060837246
 30
0.0
 10
372.3927644869951
 20
384.3414376413473
 30
0.0
 10
372.3927644869951
 20
382.9204941726844
 30
0.0
 10
372.3927644869941
 20
382.2033352097772
 30
0.0
 10
372.3927644869941
 20
380.0343134592384
 30
0.0
 10
372.3927644869943
 20
378.5649970216772
 30
0.0
 10
372.3927644869943
 20
375.5906558444059
 30
0.0
 10
372.3927644869948
 20
374.0856060759346
 30
0.0
 10
372.3927644869948
 20
371.0480046148525
 30
0.0
 10
372.3927644869964
 20
369.5124124478721
 30
0.0
 10
372.3927644869964
 20
364.901720380434
 30
0.0
 10
372.3927644869951
 20
361.8205890713074
 30
0.0
 10
372.3927644869951
 20
355.6499600114552
 30
0.0
 10
372.3927644869949
 20
352.5603933353267
 30
0.0
 10
372.3927644869949
 20
346.3762272748399
 30
0.0
 10
372.3927644869956
 20
343.2815977082572
 30
0.0
 10
372.3927644869956
 20
337.0892974783422
 30
0.0
 10
372.3927644869956
 20
333.9916122022714
 30
0.0
 10
372.3927644869956
 20
327.7944505254902
 30
0.0
 10
372.3927644869952
 20
324.6949664740549
 30
0.0
 10
372.3927644869952
 20
321.5949943755811
 30
0.0
  0
LWPOLYLINE
  5
E4
330
1F
100
AcDbEntity
  8
0
  6
Continuous
 62
     7
370
    25
100
AcDbPolyline
 90
        3
 70
   128
 43
0.0
 10
379.6282759644
 20
406.2192245102
 10
376.0105203613
 20
406.4088268852
 10
372.3927645255
 20
406.5984218096
  0
SPLINE
  5
E5
330
1F
100
AcDbEntity
  8
0
  6
Continuous
 62
     7
370
    25
100
AcDbSpline
210
0.0
220
0.0
230
1.0
 70
     8
 71
     3
 72
    26
 73
    22
 74
     0
 42
0.000000001
 43
0.00000001
 40
0.0
 40
0.0
 40
0.0
 40
0.0
 40
0.0528622605276034
 40
0.1072575267887032
 40
0.1601197905893132
 40
0.2145150691109964
 40
0.2673774034164416
 40
0.3217726454444187
 40
0.3746366208185892
 40
0.4290336309748377
 40
0.4818982091405005
 40
0.5362958650981634
 40
0.5891599838217487
 40
0.6435571774494842
 40
0.6964209543817401
 40
0.7508177345512498
 40
0.8036820424739635
 40
0.8580792070651103
 40
0.9109463493372951
 40
0.9653472152665931
 40
1.0
 40
1.0
 40
1.0
 40
1.0
 10
386.7102297730585
 20
311.8949943519309
 30
0.0
 10
386.7098909627784
 20
311.9604274329887
 30
0.0
 10
386.7092035167191
 20
312.0931911546755
 30
0.0
 10
386.7034115674478
 20
313.1614041980922
 30
0.0
 10
386.6931902145616
 20
314.8516927655846
 30
0.0
 10
386.6779373293938
 20
317.1486316054214
 30
0.0
 10
386.6579134635708
 20
320.0116656665837
 30
0.0
 10
386.6350360833612
 20
323.3127777609699
 30
0.0
 10
386.6112709979469
 20
327.0167547704063
 30
0.0
 10
386.5891972815697
 20
330.9524599077343
 30
0.0
 10
386.5694361112252
 20
335.0792072080835
 30
0.0
 10
386.5516299331056
 20
339.2059250231746
 30
0.0
 10
386.533011468865
 20
343.2900304351582
 30
0.0
 10
386.5108212870124
 20
347.1424419015599
 30
0.0
 10
386.4821503614212
 20
350.7232737807932
 30
0.0
 10
386.4471601865727
 20
353.8674063599068
 30
0.0
 10
386.4078203172392
 20
356.5399663962406
 30
0.0
 10
386.3695919193359
 20
358.6265727557835
 30
0.0
 10
386.3388740558564
 20
360.0709553836086
 30
0.0
 10
386.3209741223036
 20
360.8371969588308
 30
0.0
 10
386.3213134132374
 20
360.8236896417934
 30
0.0
 10
386.321445438995
 20
360.8184336399771
 30
0.0
  0
SPLINE
  5
E6
330
1F
100
AcDbEntity
  8
0
  6
Continuous
 62
     7
370
    25
100
AcDbSpline
210
0.0
220
0.0
230
1.0
 70
     8
 71
     3
 72
    14
 73
    10
 74
     0
 42
0.000000001
 43
0.00000001
 40
0.0
 40
0.0
 40
0.0
 40
0.0
 40
0.25
 40
0.25
 40
0.5
 40
0.5
 40
0.75
 40
0.75
 40
1.0
 40
1.0
 40
1.0
 40
1.0
 10
455.3468971143898
 20
237.4842254612286
 30
0.0
 10
455.2999151928401
 20
237.3417730156665
 30
0.0
 10
455.2185623406207
 20
237.193612960042
 30
0.0
 10
454.9786774315268
 20
236.9366868711986
 30
0.0
 10
454.8198039343264
 20
236.8299769738589
 30
0.0
 10
454.4678790692937
 20
236.7068509701602
 30
0.0
 10
454.277132824846
 20
236.6912413445549
 30
0.0
 10
453.9293970894792
 20
236.7425798525475
 30
0.0
 10
453.7734224651322
 20
236.8077074581779
 30
0.0
 10
453.6478802850378
 20
236.8897998516727
 30
0.0
  0
SPLINE
  5
E7
330
1F
100
AcDbEntity
  8
0
  6
Continuous
 62
     7
370
    25
100
AcDbSpline
210
0.0
220
0.0
230
1.0
 70
     8
 71
     3
 72
    10
 73
     6
 74
     0
 42
0.000000001
 43
0.00000001
 40
0.0
 40
0.0
 40
0.0
 40
0.0
 40
0.5
 40
0.5
 40
1.0
 40
1.0
 40
1.0
 40
1.0
 10
423.5404274069954
 20
328.3642065050835
 30
0.0
 10
423.5404274069954
 20
329.8010731073942
 30
0.0
 10
423.6023109521883
 20
331.2662827160038
 30
0.0
 10
423.8651068800281
 20
334.2463873872837
 30
0.0
 10
424.0672278957717
 20
335.7627340878761
 30
0.0
 10
424.3393374976799
 20
337.2666079639847
 30
0.0
  0
SPLINE
  5
E8
330
1F
100
AcDbEntity
  8
0
  6
Continuous
 62
     7
370
    25
100
AcDbSpline
210
0.0
220
0.0
230
1.0
 70
     8
 71
     3
 72
    10
 73
     6
 74
     0
 42
0.000000001
 43
0.00000001
 40
0.0
 40
0.0
 40
0.0
 40
0.0
 40
0.5000000000000003
 40
0.5000000000000003
 40
1.0
 40
1.0
 40
1.0
 40
1.0
 10
424.3393374976799
 20
337.2666079639847
 30
0.0
 10
424.7629027854789
 20
339.6075351737578
 30
0.0
 10
425.2427041315277
 20
341.9411728481399
 30
0.0
 10
426.3134181145174
 20
346.5846209856622
 30
0.0
 10
426.9039329617838
 20
348.8930051214463
 30
0.0
 10
427.549570007985
 20
351.1876056526542
 30
0.0
  0
SPLINE
  5
E9
330
1F
100
AcDbEntity
  8
0
  6
Continuous
 62
     7
370
    25
100
AcDbSpline
210
0.0
220
0.0
230
1.0
 70
     8
 71
     3
 72
    12
 73
     8
 74
     0
 42
0.000000001
 43
0.00000001
 40
0.0
 40
0.0
 40
0.0
 40
0.0
 40
0.5000000000000014
 40
0.5000000000000014
 40
0.7500000000000007
 40
0.7500000000000007
 40
1.0
 40
1.0
 40
1.0
 40
1.0
 10
427.9056763605637
 20
352.4325757500528
 30
0.0
 10
427.9916457478407
 20
352.728296519513
 30
0.0
 10
428.0779992077391
 20
353.0217475445625
 30
0.0
 10
428.1958619783088
 20
353.4183846113844
 30
0.0
 10
428.2338963087236
 20
353.545690161888
 30
0.0
 10
428.30292275782
 20
353.7757832697719
 30
0.0
 10
428.3342698220075
 20
353.8797764474769
 30
0.0
 10
428.3621450288908
 20
353.9719694567587
 30
0.0
  0
SPLINE
  5
EA
330
1F
100
AcDbEntity
  8
0
  6
Continuous
 62
     7
370
    25
100
AcDbSpline
210
0.0
220
0.0
230
1.0
 70
     8
 71
     3
 72
     8
 73
     4
 74
     0
 42
0.000000001
 43
0.00000001
 40
0.0
 40
0.0
 40
0.0
 40
0.0
 40
0.0012950007461843
 40
0.0012950007461843
 40
0.0012950007461843
 40
0.0012950007461843
 10
427.5495699407239
 20
351.1876054136073
 30
0.0
 10
427.6664789293784
 20
351.6031011333021
 30
0.0
 10
427.7851833736768
 20
352.0180993890303
 30
0.0
 10
427.9056763602222
 20
352.4325757488778
 30
0.0
  0
SPLINE
  5
EB
330
1F
100
AcDbEntity
  8
0
  6
Continuous
 62
     7
370
    25
100
AcDbSpline
210
0.0
220
0.0
230
1.0
 70
     8
 71
     3
 72
     9
 73
     5
 74
     0
 42
0.000000001
 43
0.00000001
 40
0.0243599003348268
 40
0.0243599003348268
 40
0.0243599003348268
 40
0.0243599003348268
 40
0.5
 40
1.0
 40
1.0
 40
1.0
 40
1.0
 10
423.6404337640316
 20
312.3949975959681
 30
0.0
 10
424.2913255380302
 20
312.3950389733934
 30
0.0
 10
425.6264139899616
 20
312.3959199472177
 30
0.0
 10
426.9615538198866
 20
312.3958301510485
 30
0.0
 10
427.645836657821
 20
312.3948102992642
 30
0.0
  0
SPLINE
  5
EC
330
1F
100
AcDbEntity
  8
0
  6
Continuous
 62
     7
370
    25
100
AcDbSpline
210
0.0
220
0.0
230
1.0
 70
     8
 71
     3
 72
    31
 73
    27
 74
     0
 42
0.000000001
 43
0.00000001
 40
0.0
 40
0.0
 40
0.0
 40
0.0
 40
0.1249999999999997
 40
0.1249999999999997
 40
0.1874999999999996
 40
0.1874999999999996
 40
0.2499999999999996
 40
0.2499999999999996
 40
0.3749999999999994
 40
0.3749999999999994
 40
0.4374999999999993
 40
0.4374999999999993
 40
0.4999999999999993
 40
0.4999999999999993
 40
0.6249999999999994
 40
0.6249999999999994
 40
0.6874999999999996
 40
0.6874999999999996
 40
0.7499999999999997
 40
0.7499999999999997
 40
0.8124999999999998
 40
0.8124999999999998
 40
0.8749999999999998
 40
0.9374999999999999
 40
0.9374999999999999
 40
1.0
 40
1.0
 40
1.0
 40
1.0
 10
423.6403652279926
 20
328.3286399845485
 30
0.0
 10
423.6403697407197
 20
327.151997378583
 30
0.0
 10
423.6403749143736
 20
326.0203875156387
 30
0.0
 10
423.6403829922107
 20
324.3889987586456
 30
0.0
 10
423.6403857477227
 20
323.8545464053274
 30
0.0
 10
423.6403911964011
 20
322.820744711809
 30
0.0
 10
423.6403938939129
 20
322.3203771842378
 30
0.0
 10
423.64040178006
 20
320.8670930252334
 30
0.0
 10
423.6404067558223
 20
319.9617180844529
 30
0.0
 10
423.6404134294796
 20
318.6969844701526
 30
0.0
 10
423.6404155240831
 20
318.29103056522
 30
0.0
 10
423.6404194107197
 20
317.510926313432
 30
0.0
 10
423.6404211935433
 20
317.1384847997523
 30
0.0
 10
423.6404259802663
 20
316.0859187350949
 30
0.0
 10
423.6404284445649
 20
315.4646243859066
 30
0.0
 10
423.6404311241268
 20
314.6514860075615
 30
0.0
 10
423.6404318492526
 20
314.4003367758626
 30
0.0
 10
423.6404329947305
 20
313.9387080862865
 30
0.0
 10
423.6404334153932
 20
313.7278141602166
 30
0.0
 10
423.6404339956034
 20
313.3512224251029
 30
0.0
 10
423.6404341560078
 20
313.1852129101366
 30
0.0
 10
423.6404342935796
 20
312.9002909955969
 30
0.0
 10
423.6404342492172
 20
312.6618667499368
 30
0.0
 10
423.6404340329855
 20
312.516861682714
 30
0.0
 10
423.6404338443341
 20
312.4196228054781
 30
0.0
 10
423.6404337640316
 20
312.3949975959681
 30
0.0
 10
423.6404337640316
 20
312.3949975959681
 30
0.0
  0
SPLINE
  5
ED
330
1F
100
AcDbEntity
  8
0
  6
Continuous
 62
     7
370
    25
100
AcDbSpline
210
0.0
220
0.0
230
1.0
 70
     8
 71
     3
 72
    27
 73
    23
 74
     0
 42
0.000000001
 43
0.00000001
 40
0.199999950954652
 40
0.199999950954652
 40
0.199999950954652
 40
0.199999950954652
 40
0.230923699870928
 40
0.2639127998524892
 40
0.2639127998524892
 40
0.2925674849165607
 40
0.3212221699806322
 40
0.3498768550447039
 40
0.3785315401087754
 40
0.4358409102369186
 40
0.4931502803650618
 40
0.4931502803650618
 40
0.5248283878422454
 40
0.556506495319429
 40
0.5881846027966128
 40
0.6198627102737964
 40
0.6832189252281635
 40
0.7465751401825309
 40
0.8099313551368983
 40
0.8732875700912655
 40
0.9366437850456326
 40
1.0
 40
1.0
 40
1.0
 40
1.0
 10
457.1404274069955
 20
347.4738775467612
 30
0.0
 10
457.1404274069954
 20
347.751336487849
 30
0.0
 10
457.1404274069954
 20
348.3248975267348
 30
0.0
 10
457.1404274069955
 20
348.8987265109484
 30
0.0
 10
457.1404274069954
 20
349.4523359245093
 30
0.0
 10
457.140013621432
 20
349.9632295787108
 30
0.0
 10
457.1246267652032
 20
350.7222322938154
 30
0.0
 10
457.0809489098967
 20
351.4779278068606
 30
0.0
 10
456.9735502298169
 20
352.483272430641
 30
0.0
 10
456.7256736036429
 20
353.7397859894656
 30
0.0
 10
456.3736382423336
 20
354.745848943349
 30
0.0
 10
456.0282879018976
 20
355.5285042158171
 30
0.0
 10
455.7578546183228
 20
356.0764056998627
 30
0.0
 10
455.2831445192977
 20
356.865819012379
 30
0.0
 10
454.7439761194139
 20
357.6183325346439
 30
0.0
 10
453.94527634883
 20
358.5665363417294
 30
0.0
 10
452.8087652474753
 20
359.6372372414604
 30
0.0
 10
451.2620773704376
 20
360.7181685247613
 30
0.0
 10
449.5613896594207
 20
361.5601708445539
 30
0.0
 10
447.7414221004428
 20
362.1267566011968
 30
0.0
 10
445.8485582678157
 20
362.3895492107134
 30
0.0
 10
444.5760254140557
 20
362.394994375686
 30
0.0
 10
443.9404274069954
 20
362.3949943756859
 30
0.0
  0
SPLINE
  5
EE
330
1F
100
AcDbEntity
  8
0
  6
Continuous
 62
     7
370
    25
100
AcDbSpline
210
0.0
220
0.0
230
1.0
 70
     8
 71
     3
 72
    17
 73
    13
 74
     0
 42
0.000000001
 43
0.00000001
 40
0.0485795259645362
 40
0.0485795259645362
 40
0.0485795259645362
 40
0.0485795259645362
 40
0.0625
 40
0.0706381010976144
 40
0.09375
 40
0.1019804541796034
 40
0.109375
 40
0.1115339367760759
 40
0.1163347317203288
 40
0.125
 40
0.128516258696497
 40
0.128594574441206
 40
0.128594574441206
 40
0.128594574441206
 40
0.128594574441206
 10
431.2532528536012
 20
362.3943971716205
 30
0.0
 10
431.9902158814386
 20
362.3942398945135
 30
0.0
 10
433.1581850887406
 20
362.3939255457291
 30
0.0
 10
435.5505776365924
 20
362.393015806023
 30
0.0
 10
437.6400935774109
 20
362.392806244592
 30
0.0
 10
439.6821806524197
 20
362.3957340059845
 30
0.0
 10
440.6221517799883
 20
362.3961002793211
 30
0.0
 10
441.3839705661303
 20
362.3951618032312
 30
0.0
 10
442.2139844684629
 20
362.3936801002231
 30
0.0
 10
443.1096368759394
 20
362.3935266436002
 30
0.0
 10
443.7425139059526
 20
362.3972253273408
 30
0.0
 10
443.9365962913914
 20
362.3973888742273
 30
0.0
 10
443.9408289534683
 20
362.3973919871
 30
0.0
  0
ARC
  5
EF
330
1F
100
AcDbEntity
  8
0
  6
Continuous
 62
     7
370
    25
100
AcDbCircle
 10
431.2532315123
 20
362.2943971738
 30
0.0
 40
0.1000000000883136
100
AcDbArc
 50
89.9877723472
 51
159.8102656139
  0
SPLINE
  5
F0
330
1F
100
AcDbEntity
  8
0
  6
Continuous
 62
     7
370
    25
100
AcDbSpline
210
0.0
220
0.0
230
1.0
 70
     8
 71
     3
 72
    18
 73
    14
 74
     0
 42
0.000000001
 43
0.00000001
 40
0.0
 40
0.0
 40
0.0
 40
0.0
 40
0.2499999999999998
 40
0.2499999999999998
 40
0.4999999999999997
 40
0.4999999999999997
 40
0.5624999999999997
 40
0.5624999999999997
 40
0.6249999999999996
 40
0.6249999999999996
 40
0.7499999999999997
 40
0.7499999999999997
 40
1.0
 40
1.0
 40
1.0
 40
1.0
 10
428.362144946941
 20
353.9719691857221
 30
0.0
 10
428.7678840885572
 20
355.3138897268087
 30
0.0
 10
429.1461707716799
 20
356.4980343320264
 30
0.0
 10
429.8264918119071
 20
358.5613806128416
 30
0.0
 10
430.1286337999158
 20
359.4406579944689
 30
0.0
 10
430.4434441403711
 20
360.3391494873234
 30
0.0
 10
430.5031448464859
 20
360.5084418687119
 30
0.0
 10
430.6148241813463
 20
360.8235626186331
 30
0.0
 10
430.6669502129694
 20
360.9698123760739
 30
0.0
 10
430.8119676676967
 20
361.3750005277313
 30
0.0
 10
430.8935012360609
 20
361.6004341035936
 30
0.0
 10
431.0908135564738
 20
362.1435155470111
 30
0.0
 10
431.1593586031685
 20
362.328862801278
 30
0.0
 10
431.1593760248541
 20
362.3289101782254
 30
0.0
  0
SPLINE
  5
F1
330
1F
100
AcDbEntity
  8
0
  6
Continuous
 62
     7
370
    25
100
AcDbSpline
210
0.0
220
0.0
230
1.0
 70
     8
 71
     3
 72
    15
 73
    11
 74
     0
 42
0.000000001
 43
0.00000001
 40
0.0
 40
0.0
 40
0.0
 40
0.0
 40
0.0115692159475168
 40
0.101819365752631
 40
0.2096188020413948
 40
0.3237758241695654
 40
0.4391686492716525
 40
0.5548573076485512
 40
0.6702659785057927
 40
1.0
 40
1.0
 40
1.0
 40
1.0
 10
455.3468986190697
 20
237.4842269992567
 30
0.0
 10
455.3756691415409
 20
237.5732220087987
 30
0.0
 10
455.6288752674947
 20
238.3564570584178
 30
0.0
 10
456.0461520633334
 20
240.0020469994898
 30
0.0
 10
456.4662687297524
 20
242.4924102097711
 30
0.0
 10
456.7804660235327
 20
245.2025070695664
 30
0.0
 10
456.9793299473918
 20
247.9870588793955
 30
0.0
 10
457.0965098510299
 20
250.7860973897365
 30
0.0
 10
457.16463768291
 20
255.319822408174
 30
0.0
 10
457.1492814087201
 20
258.9185536170991
 30
0.0
 10
457.1379064358612
 20
261.5842698788382
 30
0.0
  0
SPLINE
  5
F2
330
1F
100
AcDbEntity
  8
0
  6
Continuous
 62
     7
370
    25
100
AcDbSpline
210
0.0
220
0.0
230
1.0
 70
     8
 71
     3
 72
    13
 73
     9
 74
     0
 42
0.000000001
 43
0.00000001
 40
0.0
 40
0.0
 40
0.0
 40
0.0
 40
0.0806314921377442
 40
0.2541395517337883
 40
0.4162625867758913
 40
0.6057578848328649
 40
0.7861053697730531
 40
1.0
 40
1.0
 40
1.0
 40
1.0
 10
449.3808164037605
 20
244.911435124848
 30
0.0
 10
449.4202385403648
 20
244.6632144246572
 30
0.0
 10
449.5444917801275
 20
243.8808563682072
 30
0.0
 10
449.8547615270463
 20
242.6191526910405
 30
0.0
 10
450.364085558911
 20
241.0610913217903
 30
0.0
 10
451.0851394049394
 20
239.5633850187687
 30
0.0
 10
452.1421087829767
 20
238.0583764290633
 30
0.0
 10
453.1182702539726
 20
237.3008114566575
 30
0.0
 10
453.6478831209084
 20
236.8897973274924
 30
0.0
  0
ARC
  5
F3
330
1F
100
AcDbEntity
  8
0
  6
Continuous
 62
     7
370
    25
100
AcDbCircle
 10
423.640427407
 20
312.4949975958
 30
0.0
 40
0.1000000000000039
100
AcDbArc
 50
180.0
 51
270.0036423135
  0
SPLINE
  5
F4
330
1F
100
AcDbEntity
  8
0
  6
Continuous
 62
     7
370
    25
100
AcDbSpline
210
0.0
220
0.0
230
1.0
 70
    24
 71
     3
 72
    28
 73
    24
 74
     0
 42
0.000000001
 43
0.00000001
 40
0.0
 40
0.0
 40
0.0
 40
0.0
 40
0.1249999999999999
 40
0.1249999999999999
 40
0.2499999999999998
 40
0.2499999999999998
 40
0.3124999999999997
 40
0.3124999999999997
 40
0.3749999999999997
 40
0.3749999999999997
 40
0.4999999999999996
 40
0.4999999999999996
 40
0.5624999999999996
 40
0.5624999999999996
 40
0.6249999999999997
 40
0.6249999999999997
 40
0.7499999999999998
 40
0.7499999999999998
 40
0.8124999999999998
 40
0.8124999999999998
 40
0.8749999999999999
 40
0.8749999999999999
 40
1.0
 40
1.0
 40
1.0
 40
1.0
 10
423.5404274069954
 20
312.4949975957661
 30
0.0
 10
423.5404274069955
 20
312.4949975957661
 30
0.0
 10
423.5404274069954
 20
312.5926189345749
 30
0.0
 10
423.5404274069954
 20
312.9706444160582
 30
0.0
 10
423.5404274069955
 20
313.2510681635376
 30
0.0
 10
423.5404274069954
 20
313.8095185487256
 30
0.0
 10
423.5404274069954
 20
314.0193132918379
 30
0.0
 10
423.5404274069955
 20
314.4782997012501
 30
0.0
 10
423.5404274069954
 20
314.7281295154236
 30
0.0
 10
423.5404274069954
 20
315.537289036237
 30
0.0
 10
423.5404274069954
 20
316.1559023387659
 30
0.0
 10
423.5404274069954
 20
317.2043295731265
 30
0.0
 10
423.5404274069954
 20
317.5753122417539
 30
0.0
 10
423.5404274069954
 20
318.3528441967583
 30
0.0
 10
423.5404274069955
 20
318.7575093319185
 30
0.0
 10
423.5404274069954
 20
320.0183582413584
 30
0.0
 10
423.5404274069954
 20
320.9211179388681
 30
0.0
 10
423.5404274069954
 20
322.3704204935113
 30
0.0
 10
423.5404274069954
 20
322.8694512804791
 30
0.0
 10
423.5404274069954
 20
323.9005597345389
 30
0.0
 10
423.5404274069955
 20
324.4336978024133
 30
0.0
 10
423.5404274069955
 20
326.0611881648574
 30
0.0
 10
423.5404274069954
 20
327.1901865313624
 30
0.0
 10
423.5404274069954
 20
328.3642065050835
 30
0.0
  0
SPLINE
  5
F5
330
1F
100
AcDbEntity
  8
0
  6
Continuous
 62
     7
370
    25
100
AcDbSpline
210
0.0
220
0.0
230
1.0
 70
     8
 71
     3
 72
    33
 73
    29
 74
     0
 42
0.000000001
 43
0.00000001
 40
0.0
 40
0.0
 40
0.0
 40
0.0
 40
0.03125
 40
0.0625
 40
0.09375
 40
0.125
 40
0.15625
 40
0.1875
 40
0.1945013883333333
 40
0.21875
 40
0.25
 40
0.28125
 40
0.3125
 40
0.34375
 40
0.375
 40
0.40625
 40
0.4375
 40
0.4630009255555555
 40
0.46875
 40
0.5
 40
0.5369990744444445
 40
0.5625
 40
0.59375
 40
0.625
 40
0.65625
 40
0.6875
 40
0.71875
 40
0.7385134455338389
 40
0.7385134455338389
 40
0.7385134455338389
 40
0.7385134455338389
 10
447.5392982270141
 20
291.7276157842825
 30
0.0
 10
447.5252052999796
 20
292.0726946518749
 30
0.0
 10
447.4935496051053
 20
292.7628033882817
 30
0.0
 10
447.4318113848002
 20
293.7972053384751
 30
0.0
 10
447.3519733309242
 20
294.8302319761688
 30
0.0
 10
447.2501902878998
 20
295.8612691432801
 30
0.0
 10
447.1226171001498
 20
296.8897026817261
 30
0.0
 10
447.0061130688125
 20
297.648981426764
 30
0.0
 10
446.8877312667477
 20
298.329369008604
 30
0.0
 10
446.7579443400531
 20
299.007670361408
 30
0.0
 10
446.5472742006273
 20
299.9429472380657
 30
0.0
 10
446.2786579660563
 20
300.9445319748437
 30
0.0
 10
445.9648898905305
 20
301.9326689816152
 30
0.0
 10
445.601761264988
 20
302.9030878718416
 30
0.0
 10
445.1850633803671
 20
303.8515182589846
 30
0.0
 10
444.7105875276059
 20
304.7736897565056
 30
0.0
 10
444.2079437109472
 20
305.6072168331835
 30
0.0
 10
443.8120730457857
 20
306.1737061255213
 30
0.0
 10
443.3950413917626
 20
306.7242959318229
 30
0.0
 10
442.8717041109285
 20
307.353302822668
 30
0.0
 10
442.1405417889005
 20
308.0892850836125
 30
0.0
 10
441.3527321689987
 20
308.763258865451
 30
0.0
 10
440.5683277216145
 20
309.3393971056292
 30
0.0
 10
439.6876717981124
 20
309.8869402441501
 30
0.0
 10
438.769688820504
 20
310.3683100322555
 30
0.0
 10
437.8209136345552
 20
310.7863181485457
 30
0.0
 10
436.9671001939354
 20
311.099979341487
 30
0.0
 10
436.4293307524163
 20
311.2699373343658
 30
0.0
 10
436.2199790477363
 20
311.3323193435328
 30
0.0
  0
SPLINE
  5
F6
330
1F
100
AcDbEntity
  8
0
  6
Continuous
 62
     7
370
    25
100
AcDbSpline
210
0.0
220
0.0
230
1.0
 70
     8
 71
     3
 72
    10
 73
     6
 74
     0
 42
0.000000001
 43
0.00000001
 40
0.0
 40
0.0
 40
0.0
 40
0.0
 40
0.5
 40
0.5
 40
1.0
 40
1.0
 40
1.0
 40
1.0
 10
436.0041710152811
 20
311.4444470057648
 30
0.0
 10
436.0930439435831
 20
311.4035269507941
 30
0.0
 10
436.1475582184121
 20
311.3748047356507
 30
0.0
 10
436.2103684086096
 20
311.339507673682
 30
0.0
 10
436.2199750568114
 20
311.3323174408122
 30
0.0
 10
436.2199790477101
 20
311.3323193435406
 30
0.0
  0
SPLINE
  5
F7
330
1F
100
AcDbEntity
  8
0
  6
Continuous
 62
     7
370
    25
100
AcDbSpline
210
0.0
220
0.0
230
1.0
 70
     8
 71
     3
 72
    12
 73
     8
 74
     0
 42
0.000000001
 43
0.00000001
 40
0.0
 40
0.0
 40
0.0
 40
0.0
 40
0.4999999999999954
 40
0.4999999999999954
 40
0.7499999999999976
 40
0.7499999999999976
 40
1.0
 40
1.0
 40
1.0
 40
1.0
 10
434.4275887966475
 20
312.044994375686
 30
0.0
 10
434.7902882287064
 20
311.9345963882808
 30
0.0
 10
435.1023860987784
 20
311.82151139849
 30
0.0
 10
435.5026834590929
 20
311.6632192859047
 30
0.0
 10
435.6239859804171
 20
311.6125623712452
 30
0.0
 10
435.8357306105634
 20
311.5210969276378
 30
0.0
 10
435.9272968276206
 20
311.479842441079
 30
0.0
 10
436.0041710152811
 20
311.4444470057648
 30
0.0
  0
SPLINE
  5
F8
330
1F
100
AcDbEntity
  8
0
  6
Continuous
 62
     7
370
    25
100
AcDbSpline
210
0.0
220
0.0
230
1.0
 70
     8
 71
     3
 72
    28
 73
    24
 74
     0
 42
0.000000001
 43
0.00000001
 40
0.0
 40
0.0
 40
0.0
 40
0.0
 40
0.1249999999999979
 40
0.1249999999999979
 40
0.1874999999999968
 40
0.1874999999999968
 40
0.2499999999999957
 40
0.2499999999999957
 40
0.3749999999999936
 40
0.3749999999999936
 40
0.4374999999999924
 40
0.4374999999999924
 40
0.4999999999999912
 40
0.4999999999999912
 40
0.624999999999989
 40
0.624999999999989
 40
0.6874999999999892
 40
0.6874999999999892
 40
0.7499999999999893
 40
0.7499999999999893
 40
0.8749999999999947
 40
0.8749999999999947
 40
1.0
 40
1.0
 40
1.0
 40
1.0
 10
428.5404274069954
 20
312.3855043282558
 30
0.0
 10
428.5404274069954
 20
312.3855057382028
 30
0.0
 10
428.5853038039014
 20
312.3922302267761
 30
0.0
 10
428.7177862343199
 20
312.4103890482015
 30
0.0
 10
428.7734892828639
 20
312.4178424852423
 30
0.0
 10
428.9046018131138
 20
312.4344308130006
 30
0.0
 10
428.9799848732723
 20
312.4435665103587
 30
0.0
 10
429.2350454194649
 20
312.4721595882233
 30
0.0
 10
429.4470797121618
 20
312.4931426066054
 30
0.0
 10
429.8089854596773
 20
312.5190994471469
 30
0.0
 10
429.9370418977715
 20
312.5268574432535
 30
0.0
 10
430.2080708563141
 20
312.5393903665261
 30
0.0
 10
430.3520434149127
 20
312.5441825582354
 30
0.0
 10
430.8002565213753
 20
312.5518976930789
 30
0.0
 10
431.116182383204
 20
312.5482269152679
 30
0.0
 10
431.6153321093374
 20
312.5236312842239
 30
0.0
 10
431.7864271938988
 20
312.5121449738519
 30
0.0
 10
432.126759034277
 20
312.4827666611849
 30
0.0
 10
432.2972640690592
 20
312.4648336671972
 30
0.0
 10
432.8097054222724
 20
312.4008653625559
 30
0.0
 10
433.1554540368434
 20
312.3437179668959
 30
0.0
 10
433.8118156543992
 20
312.208913173132
 30
0.0
 10
434.12942276924
 20
312.1301664441636
 30
0.0
 10
434.4275887966475
 20
312.044994375686
 30
0.0
  0
SPLINE
  5
F9
330
1F
100
AcDbEntity
  8
0
  6
Continuous
 62
     7
370
    25
100
AcDbSpline
210
0.0
220
0.0
230
1.0
 70
     8
 71
     3
 72
     9
 73
     5
 74
     0
 42
0.000000001
 43
0.00000001
 40
0.9730169297598164
 40
0.9730169297598164
 40
0.9730169297598164
 40
0.9730169297598164
 40
0.984375
 40
1.0
 40
1.0
 40
1.0
 40
1.0
 10
428.5404274069896
 20
312.3855043282558
 30
0.0
 10
428.4149231971001
 20
312.3879786029491
 30
0.0
 10
428.116737770419
 20
312.3926382318144
 30
0.0
 10
427.8185197277078
 20
312.3945529332642
 30
0.0
 10
427.645836657821
 20
312.3948102992642
 30
0.0
  0
LINE
  5
FA
330
1F
100
AcDbEntity
  8
0
  6
Continuous
 62
     7
370
    25
100
AcDbLine
 10
428.5404286124
 20
312.0449943882
 30
0.0
 11
434.4275905527
 21
312.0449943882
 31
0.0
  0
SPLINE
  5
FB
330
1F
100
AcDbEntity
  8
0
  6
Continuous
 62
     8
370
    18
100
AcDbSpline
210
0.0
220
0.0
230
1.0
 70
     8
 71
     3
 72
    54
 73
    50
 74
     0
 42
0.000000001
 43
0.00000001
 40
0.0
 40
0.0
 40
0.0
 40
0.0
 40
0.0625000000000006
 40
0.0625000000000006
 40
0.1250000000000012
 40
0.1250000000000012
 40
0.1875000000000019
 40
0.1875000000000019
 40
0.2500000000000026
 40
0.2500000000000026
 40
0.3125000000000033
 40
0.3125000000000033
 40
0.3281250000000035
 40
0.3281250000000035
 40
0.3437500000000037
 40
0.3437500000000037
 40
0.3750000000000039
 40
0.3750000000000039
 40
0.4062500000000041
 40
0.4062500000000041
 40
0.4375000000000043
 40
0.4375000000000043
 40
0.5000000000000046
 40
0.5000000000000046
 40
0.5156250000000044
 40
0.5156250000000044
 40
0.5312500000000044
 40
0.5312500000000044
 40
0.5625000000000041
 40
0.5625000000000041
 40
0.5781250000000039
 40
0.5781250000000039
 40
0.5937500000000037
 40
0.5937500000000037
 40
0.6250000000000034
 40
0.6250000000000034
 40
0.687500000000003
 40
0.687500000000003
 40
0.7187500000000027
 40
0.7187500000000027
 40
0.7500000000000023
 40
0.7500000000000023
 40
0.8125000000000018
 40
0.8125000000000018
 40
0.8750000000000012
 40
0.8750000000000012
 40
0.9375000000000006
 40
0.9375000000000006
 40
1.0
 40
1.0
 40
1.0
 40
1.0
 10
379.6282762900888
 20
236.970760616267
 30
0.0
 10
379.6282762900883
 20
236.9707606161378
 30
0.0
 10
379.6283092316955
 20
236.9800007196171
 30
0.0
 10
379.6284006560423
 20
237.0324448499712
 30
0.0
 10
379.6284589567243
 20
237.0755061946685
 30
0.0
 10
379.6285494891746
 20
237.2191462501029
 30
0.0
 10
379.6285806929446
 20
237.3194514591528
 30
0.0
 10
379.6285689584993
 20
237.6152788195203
 30
0.0
 10
379.6285220023312
 20
237.8102326750917
 30
0.0
 10
379.6283737733806
 20
238.3590219281056
 30
0.0
 10
379.6282653461425
 20
238.7115592760296
 30
0.0
 10
379.6282806018979
 20
239.3237100590813
 30
0.0
 10
379.6282888326936
 20
239.4549021235273
 30
0.0
 10
379.6283082080967
 20
239.7375567656557
 30
0.0
 10
379.6283193233849
 20
239.8891250152299
 30
0.0
 10
379.6283469086234
 20
240.3765143620032
 30
0.0
 10
379.6283556266485
 20
240.7453746180327
 30
0.0
 10
379.6283329852245
 20
241.5971850625442
 30
0.0
 10
379.6282984483418
 20
242.0800546161378
 30
0.0
 10
379.6282660719102
 20
243.194376969615
 30
0.0
 10
379.6282344153989
 20
243.8259364899512
 30
0.0
 10
379.6280658043929
 20
246.0095324570067
 30
0.0
 10
379.6282605151845
 20
247.7944875104135
 30
0.0
 10
379.6282797445483
 20
250.5296997971824
 30
0.0
 10
379.6282528248933
 20
251.1045939387956
 30
0.0
 10
379.6281921205053
 20
252.2877028496123
 30
0.0
 10
379.628158923578
 20
252.8961461017206
 30
0.0
 10
379.6280964354034
 20
254.7689908281689
 30
0.0
 10
379.628114576851
 20
256.0809278934881
 30
0.0
 10
379.6281946907125
 20
258.1304793150815
 30
0.0
 10
379.6282273849784
 20
258.8272630383327
 30
0.0
 10
379.6282729888489
 20
260.2457642703062
 30
0.0
 10
379.6282732063071
 20
260.9655313690863
 30
0.0
 10
379.6282925279496
 20
263.1350823328757
 30
0.0
 10
379.6283289456477
 20
264.6023287857681
 30
0.0
 10
379.6283687165692
 20
269.0513057203136
 30
0.0
 10
379.6282959765666
 20
272.0794069426643
 30
0.0
 10
379.6282703516412
 20
276.6755455715217
 30
0.0
 10
379.6282917278652
 20
278.2159115309295
 30
0.0
 10
379.6283609259629
 20
281.2969482632807
 30
0.0
 10
379.6284043905739
 20
282.8396427002221
 30
0.0
 10
379.6285176954032
 20
287.4727075645304
 30
0.0
 10
379.62856715247
 20
290.5679772185596
 30
0.0
 10
379.6285817439064
 20
296.7662784303086
 30
0.0
 10
379.6285511147345
 20
299.869829908608
 30
0.0
 10
379.628460635386
 20
306.0760186031781
 30
0.0
 10
379.6284018806029
 20
309.1795100741045
 30
0.0
 10
379.6283096154747
 20
315.3869556542817
 30
0.0
 10
379.6282762900883
 20
318.4909118167635
 30
0.0
 10
379.6282762900888
 20
321.5949943758415
 30
0.0
  0
SPLINE
  5
FC
330
1F
100
AcDbEntity
  8
0
  6
Continuous
 62
     8
370
    18
100
AcDbSpline
210
0.0
220
0.0
230
1.0
 70
     8
 71
     3
 72
    52
 73
    48
 74
     0
 42
0.000000001
 43
0.00000001
 40
0.0
 40
0.0
 40
0.0
 40
0.0
 40
0.1249999999999995
 40
0.1249999999999995
 40
0.1874999999999993
 40
0.1874999999999993
 40
0.2499999999999991
 40
0.2499999999999991
 40
0.3124999999999989
 40
0.3124999999999989
 40
0.3437499999999989
 40
0.3437499999999989
 40
0.3749999999999989
 40
0.3749999999999989
 40
0.4062499999999989
 40
0.4062499999999989
 40
0.4374999999999988
 40
0.4374999999999988
 40
0.4531249999999989
 40
0.4531249999999989
 40
0.4687499999999989
 40
0.4687499999999989
 40
0.4999999999999988
 40
0.4999999999999988
 40
0.5156249999999986
 40
0.5156249999999986
 40
0.5312499999999984
 40
0.5312499999999984
 40
0.5624999999999982
 40
0.5624999999999982
 40
0.5781249999999981
 40
0.5781249999999981
 40
0.5937499999999981
 40
0.5937499999999981
 40
0.6249999999999981
 40
0.6249999999999981
 40
0.6562499999999982
 40
0.6562499999999982
 40
0.6874999999999983
 40
0.6874999999999983
 40
0.7499999999999987
 40
0.7499999999999987
 40
0.812499999999999
 40
0.812499999999999
 40
0.8749999999999992
 40
0.8749999999999992
 40
1.0
 40
1.0
 40
1.0
 40
1.0
 10
383.870211207753
 20
241.0146258985175
 30
0.0
 10
383.8702112053272
 20
241.014625880633
 30
0.0
 10
383.8702120298685
 20
241.0449236090218
 30
0.0
 10
383.8702129271921
 20
241.2364281013812
 30
0.0
 10
383.870213156968
 20
241.3252832968676
 30
0.0
 10
383.8702131878522
 20
241.5856524857476
 30
0.0
 10
383.8702129693947
 20
241.7566657542038
 30
0.0
 10
383.8702121065656
 20
242.2356475320561
 30
0.0
 10
383.8702113828064
 20
242.5423744992672
 30
0.0
 10
383.8702111325915
 20
243.1802551460761
 30
0.0
 10
383.8702112631757
 20
243.4229711471049
 30
0.0
 10
383.8702115347844
 20
243.990191389605
 30
0.0
 10
383.8702116702262
 20
244.3130115387054
 30
0.0
 10
383.8702116717688
 20
245.0620221476158
 30
0.0
 10
383.8702115154863
 20
245.4881990918742
 30
0.0
 10
383.8702111755857
 20
246.4806225720395
 30
0.0
 10
383.8702111968661
 20
247.0467130349829
 30
0.0
 10
383.8702105875646
 20
248.0399163663055
 30
0.0
 10
383.870210362711
 20
248.3960051002884
 30
0.0
 10
383.8702100995118
 20
249.1517767927816
 30
0.0
 10
383.8702100633398
 20
249.5525974438904
 30
0.0
 10
383.870210314579
 20
250.8294117297223
 30
0.0
 10
383.8702111090805
 20
251.7802699728155
 30
0.0
 10
383.8702112081247
 20
253.3716099944711
 30
0.0
 10
383.870210982819
 20
253.9324537608714
 30
0.0
 10
383.8702105221809
 20
255.0880059028205
 30
0.0
 10
383.8702102920798
 20
255.6838411623945
 30
0.0
 10
383.8702099566995
 20
257.5205321717502
 30
0.0
 10
383.8702102890017
 20
258.8104657495748
 30
0.0
 10
383.8702109078035
 20
260.8237205935013
 30
0.0
 10
383.8702111098382
 20
261.5099928779167
 30
0.0
 10
383.8702112129508
 20
262.8942147705143
 30
0.0
 10
383.8702112217668
 20
263.591511152394
 30
0.0
 10
383.8702114674844
 20
265.6963506164189
 30
0.0
 10
383.8702116424872
 20
267.1167580089999
 30
0.0
 10
383.8702116682122
 20
269.9824265454906
 30
0.0
 10
383.8702115436374
 20
271.4277456717289
 30
0.0
 10
383.8702112698386
 20
274.3370136841565
 30
0.0
 10
383.8702111215089
 20
275.8015831933772
 30
0.0
 10
383.8702112990476
 20
280.2129414040628
 30
0.0
 10
383.8702120340055
 20
283.1601535484575
 30
0.0
 10
383.8702129156781
 20
289.0620344199378
 30
0.0
 10
383.870213146503
 20
292.016759476682
 30
0.0
 10
383.8702131270162
 20
297.9308244851738
 30
0.0
 10
383.8702128974363
 20
300.890255666841
 30
0.0
 10
383.8702119918041
 20
309.7649806915256
 30
0.0
 10
383.8702111519584
 20
315.680291168617
 30
0.0
 10
383.8702111495326
 20
321.594994375588
 30
0.0
  0
SPLINE
  5
FD
330
1F
100
AcDbEntity
  8
0
  6
Continuous
 62
     8
370
    18
100
AcDbSpline
210
0.0
220
0.0
230
1.0
 70
     8
 71
     3
 72
    54
 73
    50
 74
     0
 42
0.000000001
 43
0.00000001
 40
0.0
 40
0.0
 40
0.0
 40
0.0
 40
0.0625000000000005
 40
0.0625000000000005
 40
0.1250000000000011
 40
0.1250000000000011
 40
0.1875000000000016
 40
0.1875000000000016
 40
0.2500000000000022
 40
0.2500000000000022
 40
0.3125000000000027
 40
0.3125000000000027
 40
0.3281250000000028
 40
0.3281250000000028
 40
0.3437500000000029
 40
0.3437500000000029
 40
0.375000000000003
 40
0.375000000000003
 40
0.4062500000000032
 40
0.4062500000000032
 40
0.4375000000000033
 40
0.4375000000000033
 40
0.5000000000000034
 40
0.5000000000000034
 40
0.5156250000000036
 40
0.5156250000000036
 40
0.5312500000000037
 40
0.5312500000000037
 40
0.5625000000000039
 40
0.5625000000000039
 40
0.5781250000000039
 40
0.5781250000000039
 40
0.5937500000000038
 40
0.5937500000000038
 40
0.6250000000000036
 40
0.6250000000000036
 40
0.687500000000003
 40
0.687500000000003
 40
0.7187500000000027
 40
0.7187500000000027
 40
0.7500000000000023
 40
0.7500000000000023
 40
0.8125000000000018
 40
0.8125000000000018
 40
0.8750000000000012
 40
0.8750000000000012
 40
0.9375000000000007
 40
0.9375000000000007
 40
1.0
 40
1.0
 40
1.0
 40
1.0
 10
379.6282762900888
 20
321.5949943755804
 30
0.0
 10
379.6282762900883
 20
324.6815223596341
 30
0.0
 10
379.6283092316955
 20
327.7675266568694
 30
0.0
 10
379.6284006560423
 20
333.9376103315421
 30
0.0
 10
379.6284589567243
 20
337.0216977955526
 30
0.0
 10
379.6285494891746
 20
343.1866129024481
 30
0.0
 10
379.6285806929445
 20
346.2674560461582
 30
0.0
 10
379.628568958499
 20
352.4237458729956
 30
0.0
 10
379.6285220023308
 20
355.4992247645283
 30
0.0
 10
379.62837377338
 20
361.6411778687814
 30
0.0
 10
379.6282653461419
 20
364.7077256490142
 30
0.0
 10
379.6282806018982
 20
368.5311917234995
 30
0.0
 10
379.6282888326941
 20
369.2953883535459
 30
0.0
 10
379.6283082080975
 20
370.8226327736917
 30
0.0
 10
379.6283193233858
 20
371.5860429111694
 30
0.0
 10
379.6283469086246
 20
373.8628082389372
 30
0.0
 10
379.6283556266499
 20
375.3661952896917
 30
0.0
 10
379.6283329852259
 20
378.3354280722652
 30
0.0
 10
379.6282984483428
 20
379.8013003369842
 30
0.0
 10
379.62826607191
 20
382.6841535153104
 30
0.0
 10
379.6282344153979
 20
384.1016750522347
 30
0.0
 10
379.6280658043909
 20
388.2556951809067
 30
0.0
 10
379.6282605151842
 20
390.7744158852647
 30
0.0
 10
379.6282797445483
 20
393.5391266382223
 30
0.0
 10
379.6282528248934
 20
394.0753522679531
 30
0.0
 10
379.6281921205058
 20
395.0935938215967
 30
0.0
 10
379.6281589235788
 20
395.5763651677808
 30
0.0
 10
379.6280964354049
 20
396.9505476720926
 30
0.0
 10
379.6281145768526
 20
397.767795123877
 30
0.0
 10
379.6281946907137
 20
398.8662847594408
 30
0.0
 10
379.6282273849794
 20
399.2112297607075
 30
0.0
 10
379.6282729888493
 20
399.8622187650241
 30
0.0
 10
379.628273206307
 20
400.1672820857173
 30
0.0
 10
379.6282925279485
 20
401.0212135470744
 30
0.0
 10
379.6283289456463
 20
401.5126106826752
 30
0.0
 10
379.6283687165677
 20
402.810580368014
 30
0.0
 10
379.6282959765657
 20
403.4441649606044
 30
0.0
 10
379.6282703516414
 20
404.1931418864647
 30
0.0
 10
379.6282917278655
 20
404.4080550974804
 30
0.0
 10
379.6283609259634
 20
404.7833514582812
 30
0.0
 10
379.6284043905743
 20
404.9440314683449
 30
0.0
 10
379.6285176954035
 20
405.3643348253082
 30
0.0
 10
379.6285671524702
 20
405.5632417805015
 30
0.0
 10
379.6285817439064
 20
405.864861990077
 30
0.0
 10
379.6285511147345
 20
405.9669960410526
 30
0.0
 10
379.628460635386
 20
406.113041306255
 30
0.0
 10
379.6284018806028
 20
406.1567189723008
 30
0.0
 10
379.6283096154747
 20
406.2098882472064
 30
0.0
 10
379.6282762900883
 20
406.2192281352986
 30
0.0
 10
379.6282762900888
 20
406.2192281351039
 30
0.0
  0
SPLINE
  5
FE
330
1F
100
AcDbEntity
  8
0
  6
Continuous
 62
     8
370
    18
100
AcDbSpline
210
0.0
220
0.0
230
1.0
 70
     8
 71
     3
 72
    52
 73
    48
 74
     0
 42
0.000000001
 43
0.00000001
 40
0.0
 40
0.0
 40
0.0
 40
0.0
 40
0.1249999999999978
 40
0.1249999999999978
 40
0.1874999999999968
 40
0.1874999999999968
 40
0.2499999999999957
 40
0.2499999999999957
 40
0.3124999999999947
 40
0.3124999999999947
 40
0.3437499999999943
 40
0.3437499999999943
 40
0.3749999999999938
 40
0.3749999999999938
 40
0.4062499999999934
 40
0.4062499999999934
 40
0.437499999999993
 40
0.437499999999993
 40
0.4531249999999929
 40
0.4531249999999929
 40
0.4687499999999928
 40
0.4687499999999928
 40
0.4999999999999928
 40
0.4999999999999928
 40
0.515624999999993
 40
0.515624999999993
 40
0.5312499999999931
 40
0.5312499999999931
 40
0.5624999999999936
 40
0.5624999999999936
 40
0.5781249999999938
 40
0.5781249999999938
 40
0.5937499999999939
 40
0.5937499999999939
 40
0.6249999999999942
 40
0.6249999999999942
 40
0.6562499999999947
 40
0.6562499999999947
 40
0.687499999999995
 40
0.687499999999995
 40
0.7499999999999959
 40
0.7499999999999959
 40
0.8124999999999969
 40
0.8124999999999969
 40
0.8749999999999979
 40
0.8749999999999979
 40
1.0
 40
1.0
 40
1.0
 40
1.0
 10
383.8702111495326
 20
321.5949943757498
 30
0.0
 10
383.870211151949
 20
327.4755181652693
 30
0.0
 10
383.8702119813343
 20
333.3553571380414
 30
0.0
 10
383.8702128859227
 20
342.1706484945795
 30
0.0
 10
383.8702131181199
 20
345.1083126250022
 30
0.0
 10
383.8702131538462
 20
350.9811023855208
 30
0.0
 10
383.8702129378093
 20
353.9162376926664
 30
0.0
 10
383.8702120798212
 20
359.7824480801564
 30
0.0
 10
383.8702113584822
 20
362.7135490838645
 30
0.0
 10
383.8702111118985
 20
367.1052698760005
 30
0.0
 10
383.8702112436933
 20
368.5683382634849
 30
0.0
 10
383.8702115177234
 20
371.4922612532114
 30
0.0
 10
383.8702116543758
 20
372.9442055573631
 30
0.0
 10
383.8702116583397
 20
375.8162414693326
 30
0.0
 10
383.8702115032677
 20
377.2371001046845
 30
0.0
 10
383.870211165788
 20
380.0376775845849
 30
0.0
 10
383.8702111882791
 20
381.4174518144248
 30
0.0
 10
383.8702105807933
 20
383.4441890898077
 30
0.0
 10
383.8702103565449
 20
384.1135121114669
 30
0.0
 10
383.8702100945561
 20
385.4138965197961
 30
0.0
 10
383.8702100589893
 20
386.0474647939972
 30
0.0
 10
383.8702103120442
 20
387.8936288593751
 30
0.0
 10
383.8702111077563
 20
389.0513844705599
 30
0.0
 10
383.8702112086168
 20
390.6628476250936
 30
0.0
 10
383.8702109839165
 20
391.1814985883717
 30
0.0
 10
383.870210524489
 20
392.1579002340991
 30
0.0
 10
383.8702102949933
 20
392.6173422454837
 30
0.0
 10
383.8702099614287
 20
393.9159410781355
 30
0.0
 10
383.8702102949413
 20
394.6753688207469
 30
0.0
 10
383.8702109155588
 20
395.6842589036623
 30
0.0
 10
383.8702111181988
 20
395.9997217650366
 30
0.0
 10
383.8702112225221
 20
396.5872406995864
 30
0.0
 10
383.8702112319432
 20
396.8592165095943
 30
0.0
 10
383.8702114794765
 20
397.6197551987525
 30
0.0
 10
383.8702116556898
 20
398.0534789080909
 30
0.0
 10
383.870211683836
 20
398.8145230667812
 30
0.0
 10
383.8702115604718
 20
399.1416483667851
 30
0.0
 10
383.8702112890943
 20
399.7165728274866
 30
0.0
 10
383.8702111419753
 20
399.9643429775737
 30
0.0
 10
383.8702113231454
 20
400.6167778208819
 30
0.0
 10
383.8702120605236
 20
400.9302958392135
 30
0.0
 10
383.870212947037
 20
401.4195949041747
 30
0.0
 10
383.8702131802826
 20
401.5941117697904
 30
0.0
 10
383.8702131656376
 20
401.8596281137516
 30
0.0
 10
383.8702129384791
 20
401.9501019810573
 30
0.0
 10
383.8702120401115
 20
402.144825393714
 30
0.0
 10
383.87021120511
 20
402.175362879523
 30
0.0
 10
383.8702112075264
 20
402.1753628551074
 30
0.0
  0
SPLINE
  5
FF
330
1F
100
AcDbEntity
  8
0
  6
Continuous
 62
     8
370
    18
100
AcDbSpline
210
0.0
220
0.0
230
1.0
 70
     8
 71
     3
 72
    26
 73
    22
 74
     0
 42
0.000000001
 43
0.00000001
 40
0.0
 40
0.0
 40
0.0
 40
0.0
 40
0.0665449026069848
 40
0.1301397266045754
 40
0.1909677551020477
 40
0.2555381482323961
 40
0.3167502692265242
 40
0.3746548276472301
 40
0.4292349767902165
 40
0.4804533852315157
 40
0.5524832015528908
 40
0.6124342911001596
 40
0.6614567038030849
 40
0.7070050527104681
 40
0.7479584224050809
 40
0.8181063668360066
 40
0.8776354031036472
 40
0.9129084789861633
 40
0.9450780864062209
 40
0.9741247558765218
 40
1.0
 40
1.0
 40
1.0
 40
1.0
 10
453.6478802459303
 20
236.889799877335
 30
0.0
 10
453.6475201558152
 20
236.8908368500703
 30
0.0
 10
453.646815939154
 20
236.8928648243101
 30
0.0
 10
453.6417776076726
 20
236.9102440326665
 30
0.0
 10
453.6329562947979
 20
236.9401498139749
 30
0.0
 10
453.6178607050091
 20
236.9871202629246
 30
0.0
 10
453.5939509512206
 20
237.0533213975063
 30
0.0
 10
453.5637594122333
 20
237.1384540105049
 30
0.0
 10
453.5291006120036
 20
237.2354119113587
 30
0.0
 10
453.4891042086638
 20
237.4211517111496
 30
0.0
 10
453.455519847588
 20
237.8397388811629
 30
0.0
 10
453.4466018641459
 20
238.6484960912936
 30
0.0
 10
453.4501448494125
 20
239.6669993883599
 30
0.0
 10
453.4563355432597
 20
240.7582388710545
 30
0.0
 10
453.4703721561956
 20
242.1708684014226
 30
0.0
 10
453.4775375846258
 20
243.8690566203843
 30
0.0
 10
453.4962366653465
 20
245.5751293151862
 30
0.0
 10
453.5086700482473
 20
246.9024229220149
 30
0.0
 10
453.5251230152776
 20
247.9139931075617
 30
0.0
 10
453.5394118448871
 20
248.8279836846598
 30
0.0
 10
453.5421672931446
 20
249.4044485153898
 30
0.0
 10
453.5434654616109
 20
249.6760371627567
 30
0.0
  0
SPLINE
  5
100
330
1F
100
AcDbEntity
  8
0
  6
Continuous
 62
     8
370
    18
100
AcDbSpline
210
0.0
220
0.0
230
1.0
 70
     8
 71
     3
 72
    30
 73
    26
 74
     0
 42
0.000000001
 43
0.00000001
 40
0.0
 40
0.0
 40
0.0
 40
0.0
 40
0.0313109823829425
 40
0.0620496668093414
 40
0.0726767191292113
 40
0.0866136026544106
 40
0.1038675512359123
 40
0.1244546759600057
 40
0.1716984786594138
 40
0.2136039795010283
 40
0.2503219221307187
 40
0.2984958030017538
 40
0.3410136767109834
 40
0.3776810521943355
 40
0.4182498330616213
 40
0.4605303927151942
 40
0.5040871690648085
 40
0.5435191088768558
 40
0.5983723226859363
 40
0.6681425016688981
 40
0.7524045551398668
 40
0.8134572272618931
 40
0.8748439565902599
 40
0.9369029822731866
 40
0.9999999999999999
 40
0.9999999999999999
 40
0.9999999999999999
 40
0.9999999999999999
 10
455.1617156747167
 20
249.6901491577391
 30
0.0
 10
455.1601264760881
 20
249.3730816733012
 30
0.0
 10
455.1569771259914
 20
248.7447420215834
 30
0.0
 10
455.1483031621759
 20
248.0086226141185
 30
0.0
 10
455.1420314124663
 20
247.4486262353166
 30
0.0
 10
455.138612929531
 20
247.0256975307304
 30
0.0
 10
455.1346835441911
 20
246.5028992483605
 30
0.0
 10
455.1283823084998
 20
245.6461826992774
 30
0.0
 10
455.1205459671186
 20
244.5487098199619
 30
0.0
 10
455.1130081222055
 20
243.3203374229385
 30
0.0
 10
455.1068854527355
 20
242.1338615272762
 30
0.0
 10
455.1034049997614
 20
241.0269969189557
 30
0.0
 10
455.102381338998
 20
240.0666370379616
 30
0.0
 10
455.1038926823597
 20
239.3115797283703
 30
0.0
 10
455.1145762791461
 20
238.7548518192392
 30
0.0
 10
455.1323734758759
 20
238.3523827482629
 30
0.0
 10
455.155703885478
 20
238.0974235324441
 30
0.0
 10
455.1913097299702
 20
237.9452939559553
 30
0.0
 10
455.2314273009014
 20
237.819491113858
 30
0.0
 10
455.2739136999916
 20
237.7041569728091
 30
0.0
 10
455.305177183537
 20
237.615644609394
 30
0.0
 10
455.3251893995579
 20
237.5512933321606
 30
0.0
 10
455.3375000675659
 20
237.5122768528085
 30
0.0
 10
455.3451978081011
 20
237.4882293755059
 30
0.0
 10
455.3463275422775
 20
237.4855674394589
 30
0.0
 10
455.3468970941378
 20
237.4842254329415
 30
0.0
  0
SPLINE
  5
101
330
1F
100
AcDbEntity
  8
0
  6
Continuous
 62
     8
370
    18
100
AcDbSpline
210
0.0
220
0.0
230
1.0
 70
     8
 71
     3
 72
    10
 73
     6
 74
     0
 42
0.000000001
 43
0.00000001
 40
0.0
 40
0.0
 40
0.0
 40
0.0
 40
0.5
 40
0.5
 40
1.0
 40
1.0
 40
1.0
 40
1.0
 10
424.4376347312901
 20
337.2420849957226
 30
0.0
 10
424.1654466985577
 20
335.7361651446951
 30
0.0
 10
423.9637727452489
 20
334.2177383739715
 30
0.0
 10
423.7019246190446
 20
331.2339211485288
 30
0.0
 10
423.6403597113924
 20
329.7670311392743
 30
0.0
 10
423.6403652279926
 20
328.3286399845485
 30
0.0
  0
LWPOLYLINE
  5
102
330
1F
100
AcDbEntity
  8
0
  6
Continuous
 62
     8
370
    18
100
AcDbPolyline
 90
        9
 70
   128
 43
0.0
 10
423.640364293
 20
328.3286402648
 10
423.6208661236
 20
328.3293275809
 10
423.6021167375
 20
328.3313541388
 10
423.5848388411
 20
328.3346417075
 10
423.569695536
 20
328.3390654897
 10
423.5572679676
 20
328.3444541222
 10
423.5480329729
 20
328.3506008512
 10
423.54234818
 20
328.3572709834
 10
423.5404259302
 20
328.3642056113
  0
ARC
  5
103
330
1F
100
AcDbEntity
  8
0
  6
Continuous
 62
     8
370
    18
100
AcDbCircle
 10
424.4817215637
 20
337.6280660181
 30
0.0
 40
0.3884908940178125
100
AcDbArc
 50
248.4996214587
 51
263.4840984995
  0
SPLINE
  5
104
330
1F
100
AcDbEntity
  8
0
  6
Continuous
 62
     8
370
    18
100
AcDbSpline
210
0.0
220
0.0
230
1.0
 70
     8
 71
     3
 72
    10
 73
     6
 74
     0
 42
0.000000001
 43
0.00000001
 40
0.0
 40
0.0
 40
0.0
 40
0.0
 40
0.4999999999999996
 40
0.4999999999999996
 40
1.0
 40
1.0
 40
1.0
 40
1.0
 10
427.6458366578206
 20
351.1594921768367
 30
0.0
 10
427.000340217292
 20
348.8655302442596
 30
0.0
 10
426.4100492428476
 20
346.5577661595624
 30
0.0
 10
425.3400514713477
 20
341.9154966029403
 30
0.0
 10
424.8606440555106
 20
339.5824455623446
 30
0.0
 10
424.4376347312901
 20
337.2420849957226
 30
0.0
  0
SPLINE
  5
105
330
1F
100
AcDbEntity
  8
0
  6
Continuous
 62
     8
370
    18
100
AcDbSpline
210
0.0
220
0.0
230
1.0
 70
     8
 71
     3
 72
    10
 73
     6
 74
     0
 42
0.000000001
 43
0.00000001
 40
0.0
 40
0.0
 40
0.0
 40
0.0
 40
0.5
 40
0.5
 40
1.0
 40
1.0
 40
1.0
 40
1.0
 10
427.6458366578207
 20
351.1594921768367
 30
0.0
 10
427.6205757063981
 20
351.1665449646831
 30
0.0
 10
427.595479957426
 20
351.1736973581624
 30
0.0
 10
427.5598275051642
 20
351.1841212369818
 30
0.0
 10
427.5494917316486
 20
351.1873274577703
 30
0.0
 10
427.549570007985
 20
351.1876056526542
 30
0.0
  0
SPLINE
  5
106
330
1F
100
AcDbEntity
  8
0
  6
Continuous
 62
     8
370
    18
100
AcDbSpline
210
0.0
220
0.0
230
1.0
 70
     8
 71
     3
 72
    12
 73
     8
 74
     0
 42
0.000000001
 43
0.00000001
 40
0.0
 40
0.0
 40
0.0
 40
0.0
 40
0.5000000000000046
 40
0.5000000000000046
 40
0.7500000000000022
 40
0.7500000000000022
 40
1.0
 40
1.0
 40
1.0
 40
1.0
 10
428.4578910729053
 20
354.0224627210904
 30
0.0
 10
428.4030771514163
 20
353.8316502962711
 30
0.0
 10
428.3311550779682
 20
353.5798850477113
 30
0.0
 10
428.2133521387127
 20
353.1626995781153
 30
0.0
 10
428.1723186290235
 20
353.0166837628195
 30
0.0
 10
428.0874257394393
 20
352.7128516488079
 30
0.0
 10
428.044102707544
 20
352.556933458394
 30
0.0
 10
428.0016867018563
 20
352.403407478231
 30
0.0
  0
ARC
  5
107
330
1F
100
AcDbEntity
  8
0
  6
Continuous
 62
     8
370
    18
100
AcDbCircle
 10
428.5565527764
 20
354.4025600767
 30
0.0
 40
2.074716888950443
100
AcDbArc
 50
251.7166603488
 51
254.4879487869
  0
ARC
  5
108
330
1F
100
AcDbEntity
  8
0
  6
Continuous
 62
     8
370
    18
100
AcDbCircle
 10
428.4406199391
 20
353.9391454776
 30
0.0
 40
0.085067131920424
100
AcDbArc
 50
78.2909499744
 51
157.2845586196
  0
SPLINE
  5
109
330
1F
100
AcDbEntity
  8
0
  6
Continuous
 62
     8
370
    18
100
AcDbSpline
210
0.0
220
0.0
230
1.0
 70
     8
 71
     3
 72
    26
 73
    22
 74
     0
 42
0.000000001
 43
0.00000001
 40
0.0
 40
0.0
 40
0.0
 40
0.0
 40
0.0391386632941165
 40
0.0732287643521639
 40
0.1022842353480513
 40
0.1263269634525892
 40
0.1695506359729106
 40
0.2115696674272488
 40
0.252628047943117
 40
0.3167881745191655
 40
0.3795553198003114
 40
0.4417150806483164
 40
0.5040771833785239
 40
0.588694530623311
 40
0.6703050873571753
 40
0.7509893907819416
 40
0.7892648103080153
 40
0.8303726946985271
 40
0.8745391170288722
 40
0.9308544321629026
 40
1.0
 40
1.0
 40
1.0
 40
1.0
 10
453.7680692744395
 20
342.0929868017168
 30
0.0
 10
453.7682341335797
 20
342.3083892514297
 30
0.0
 10
453.7685425864015
 20
342.7114090253133
 30
0.0
 10
453.7575542323374
 20
343.2742575404321
 30
0.0
 10
453.7381487339339
 20
343.753761163032
 30
0.0
 10
453.6987855015112
 20
344.2825259517879
 30
0.0
 10
453.6175884754711
 20
344.8790694639598
 30
0.0
 10
453.475027594432
 20
345.5600862307746
 30
0.0
 10
453.2446312219014
 20
346.3377671517158
 30
0.0
 10
452.9007377423619
 20
347.1980405434691
 30
0.0
 10
452.4117602523255
 20
348.1189852435783
 30
0.0
 10
451.8262094439395
 20
348.9702533018251
 30
0.0
 10
451.0668318913643
 20
349.8380977321499
 30
0.0
 10
450.1232306396392
 20
350.6777304859243
 30
0.0
 10
448.9755408937623
 20
351.4155874095429
 30
0.0
 10
447.957512872951
 20
351.8571938847184
 30
0.0
 10
447.1100637431015
 20
352.1012141731047
 30
0.0
 10
446.4425746537661
 20
352.2347701786327
 30
0.0
 10
445.6692898545363
 20
352.3354822065463
 30
0.0
 10
444.7368757760182
 20
352.3946848066602
 30
0.0
 10
444.0463173764591
 20
352.4027513479325
 30
0.0
 10
443.6657282116819
 20
352.4071970808459
 30
0.0
  0
SPLINE
  5
10A
330
1F
100
AcDbEntity
  8
0
  6
Continuous
 62
     8
370
    18
100
AcDbSpline
210
0.0
220
0.0
230
1.0
 70
     8
 71
     3
 72
    29
 73
    25
 74
     0
 42
0.000000001
 43
0.00000001
 40
0.0
 40
0.0
 40
0.0
 40
0.0
 40
0.0059686377724255
 40
0.0118244714025589
 40
0.0175831081065674
 40
0.0232564298509254
 40
0.0288538382739141
 40
0.0450266059707793
 40
0.0559545358344926
 40
0.0615684069257193
 40
0.0722550565987662
 40
0.0839447684474364
 40
0.0966393632267814
 40
0.1103374653329445
 40
0.1250352992644966
 40
0.1531902450017522
 40
0.1949035522977516
 40
0.2501754290265638
 40
0.3751191948110559
 40
0.500077559556484
 40
0.6137686729954682
 40
0.734981659689977
 40
0.8637317757867827
 40
1.0
 40
1.0
 40
1.0
 40
1.0
 10
453.5637372001762
 20
291.9082807964103
 30
0.0
 10
453.5635752396929
 20
292.0081110296441
 30
0.0
 10
453.563254379695
 20
292.2058847567479
 30
0.0
 10
453.5604644449475
 20
292.4994570993077
 30
0.0
 10
453.5579640790488
 20
292.7876544121996
 30
0.0
 10
453.5566336144231
 20
293.0711968627235
 30
0.0
 10
453.5596401805864
 20
293.5277032128738
 30
0.0
 10
453.5685875265726
 20
294.0718924162151
 30
0.0
 10
453.5843535636947
 20
294.6174470276357
 30
0.0
 10
453.5985414632802
 20
295.0717920689329
 30
0.0
 10
453.6061036920856
 20
295.5393698265778
 30
0.0
 10
453.6163947954659
 20
296.1254239606798
 30
0.0
 10
453.6254625277126
 20
296.7620794449877
 30
0.0
 10
453.6339526458726
 20
297.4491921832011
 30
0.0
 10
453.6431496422131
 20
298.3949938580142
 30
0.0
 10
453.6510703970972
 20
299.8095573717669
 30
0.0
 10
453.6614876329566
 20
301.9029698090575
 30
0.0
 10
453.6765692485095
 20
305.6156525817868
 30
0.0
 10
453.6969847106944
 20
310.721015680559
 30
0.0
 10
453.7258843723732
 20
316.8036431470705
 30
0.0
 10
453.7515724418352
 20
322.8240848172032
 30
0.0
 10
453.7651348536393
 20
328.9082291371832
 30
0.0
 10
453.7746148917683
 20
335.3703519433872
 30
0.0
 10
453.7732704631417
 20
339.804535986206
 30
0.0
 10
453.7725791792806
 20
342.0845230416025
 30
0.0
  0
SPLINE
  5
10B
330
1F
100
AcDbEntity
  8
0
  6
Continuous
 62
     8
370
    18
100
AcDbSpline
210
0.0
220
0.0
230
1.0
 70
     8
 71
     3
 72
     8
 73
     4
 74
     0
 42
0.000000001
 43
0.00000001
 40
0.0
 40
0.0
 40
0.0
 40
0.0
 40
0.0012942453669404
 40
0.0012942453669404
 40
0.0012942453669404
 40
0.0012942453669404
 10
428.0016887338405
 20
352.4034148899617
 30
0.0
 10
427.8812432375399
 20
351.9891869655692
 30
0.0
 10
427.7625828266101
 20
351.5744379810021
 30
0.0
 10
427.645731084417
 20
351.1591877528331
 30
0.0
  0
SPLINE
  5
10C
330
1F
100
AcDbEntity
  8
0
  6
Continuous
 62
     8
370
    18
100
AcDbSpline
210
0.0
220
0.0
230
1.0
 70
     8
 71
     3
 72
    10
 73
     6
 74
     0
 42
0.000000001
 43
0.00000001
 40
0.0
 40
0.0
 40
0.0
 40
0.0
 40
0.5
 40
0.5
 40
1.0
 40
1.0
 40
1.0
 40
1.0
 10
443.6579675110217
 20
352.4061011378635
 30
0.0
 10
441.0459502637299
 20
352.4042965270179
 30
0.0
 10
438.4364973284332
 20
352.4038111895855
 30
0.0
 10
433.2190551344906
 20
352.4035935435377
 30
0.0
 10
430.6123081137903
 20
352.404500332165
 30
0.0
 10
428.001688733738
 20
352.4034148899617
 30
0.0
  0
SPLINE
  5
10D
330
1F
100
AcDbEntity
  8
0
  6
Continuous
 62
     8
370
    18
100
AcDbSpline
210
0.0
220
0.0
230
1.0
 70
     8
 71
     3
 72
    20
 73
    16
 74
     0
 42
0.000000001
 43
0.00000001
 40
0.0
 40
0.0
 40
0.0
 40
0.0
 40
0.2499999999999977
 40
0.2499999999999977
 40
0.4999999999999967
 40
0.4999999999999967
 40
0.6249999999999974
 40
0.6249999999999974
 40
0.7499999999999983
 40
0.7499999999999983
 40
0.8124999999999988
 40
0.8124999999999988
 40
0.8749999999999991
 40
0.8749999999999991
 40
1.0
 40
1.0
 40
1.0
 40
1.0
 10
428.4578848069415
 20
354.0224184483302
 30
0.0
 10
429.7212888940928
 20
354.0219855056997
 30
0.0
 10
430.9859581262752
 20
354.0216606721617
 30
0.0
 10
433.525184422708
 20
354.0218702408266
 30
0.0
 10
434.8036686532573
 20
354.0227498599039
 30
0.0
 10
436.7098183490271
 20
354.0230481652351
 30
0.0
 10
437.3428189664232
 20
354.0229373120392
 30
0.0
 10
438.5983337736913
 20
354.0217912596552
 30
0.0
 10
439.2174993704813
 20
354.0204493206616
 30
0.0
 10
440.1599775983453
 20
354.0197361451169
 30
0.0
 10
440.476694398607
 20
354.0197399177329
 30
0.0
 10
441.1206198475771
 20
354.0207291838199
 30
0.0
 10
441.4486172371413
 20
354.0217984814438
 30
0.0
 10
442.429899421613
 20
354.024453717581
 30
0.0
 10
443.079331567872
 20
354.0252625566762
 30
0.0
 10
443.6714959265361
 20
354.0197834682334
 30
0.0
  0
SPLINE
  5
10E
330
1F
100
AcDbEntity
  8
0
  6
Continuous
 62
     8
370
    18
100
AcDbSpline
210
0.0
220
0.0
230
1.0
 70
     8
 71
     3
 72
    30
 73
    26
 74
     0
 42
0.000000001
 43
0.00000001
 40
0.0
 40
0.0
 40
0.0
 40
0.0
 40
0.0275853054670527
 40
0.0567317643787066
 40
0.1176365737993024
 40
0.1633848436132369
 40
0.2454242853089738
 40
0.2918486771894397
 40
0.3407325958167227
 40
0.3921319862831155
 40
0.4461121186839659
 40
0.5028482096334441
 40
0.5465271226338884
 40
0.5875254335861811
 40
0.6252990587541474
 40
0.6594687519375995
 40
0.6898005372356374
 40
0.716196677916289
 40
0.7386888894111177
 40
0.7574410730893159
 40
0.7945040355692835
 40
0.8373108951020934
 40
0.8858551552831727
 40
0.9401092240249969
 40
1.0
 40
1.0
 40
1.0
 40
1.0
 10
443.6718213670342
 20
354.0206507622551
 30
0.0
 10
443.8458560818215
 20
354.020168819726
 30
0.0
 10
444.2037747731633
 20
354.0191776597752
 30
0.0
 10
444.9458078750206
 20
354.005671771433
 30
0.0
 10
445.8018224090502
 20
353.9535532143921
 30
0.0
 10
446.9826348371931
 20
353.7983656204466
 30
0.0
 10
448.055037587276
 20
353.5330357354644
 30
0.0
 10
449.0950969417857
 20
353.1168011323487
 30
0.0
 10
449.920226709655
 20
352.6947168996287
 30
0.0
 10
450.7408766565164
 20
352.1697268912723
 30
0.0
 10
451.5484874662829
 20
351.5393308395726
 30
0.0
 10
452.237733878984
 20
350.8497760476478
 30
0.0
 10
452.8275395651206
 20
350.1805139437996
 30
0.0
 10
453.2795763391917
 20
349.5537593258216
 30
0.0
 10
453.6561952422863
 20
348.9494509326813
 30
0.0
 10
453.9634467819166
 20
348.3825238155526
 30
0.0
 10
454.2049157259039
 20
347.862813271842
 30
0.0
 10
454.3887347026501
 20
347.3985796878129
 30
0.0
 10
454.5315172575994
 20
346.9969767276341
 30
0.0
 10
454.6845990257007
 20
346.5278086621009
 30
0.0
 10
454.8470758866452
 20
345.9271802888904
 30
0.0
 10
454.9999809059694
 20
345.1313736915369
 30
0.0
 10
455.1068039207038
 20
344.2185854124585
 30
0.0
 10
455.1502002943064
 20
343.1927156844621
 30
0.0
 10
455.1429630137467
 20
342.4727525849775
 30
0.0
 10
455.1391656775662
 20
342.0949944058107
 30
0.0
  0
SPLINE
  5
10F
330
1F
100
AcDbEntity
  8
0
  6
Continuous
 62
     8
370
    18
100
AcDbSpline
210
0.0
220
0.0
230
1.0
 70
     8
 71
     3
 72
    30
 73
    26
 74
     0
 42
0.000000001
 43
0.00000001
 40
0.0
 40
0.0
 40
0.0
 40
0.0
 40
0.0472860580123444
 40
0.0943347429570735
 40
0.1410281866311315
 40
0.1873075242478393
 40
0.2331788061234096
 40
0.2786431408233043
 40
0.3237029360657815
 40
0.3683616684812908
 40
0.4126195569673451
 40
0.4564759367337329
 40
0.4999302634422526
 40
0.6249095514144215
 40
0.7498897740689422
 40
0.8124058911498234
 40
0.8749218644804668
 40
0.9156212838479824
 40
0.9377667129914675
 40
0.9561913060126184
 40
0.969486795092315
 40
0.9772838242579063
 40
0.9848976846709598
 40
0.9924532738464499
 40
0.9999999999999999
 40
0.9999999999999999
 40
0.9999999999999999
 40
0.9999999999999999
 10
455.1425866427828
 20
342.1037092465353
 30
0.0
 10
455.138756060847
 20
341.3127390944624
 30
0.0
 10
455.1311141262583
 20
339.7347694112412
 30
0.0
 10
455.1426544875747
 20
337.375736866847
 30
0.0
 10
455.1513258766972
 20
335.0335653244722
 30
0.0
 10
455.1535590000833
 20
332.7110702994354
 30
0.0
 10
455.1535901003498
 20
330.4091385686047
 30
0.0
 10
455.1516224663144
 20
328.1276101000452
 30
0.0
 10
455.1491674867522
 20
325.8663692006896
 30
0.0
 10
455.1477985151495
 20
323.6253111833382
 30
0.0
 10
455.1471552174261
 20
321.4043861006166
 30
0.0
 10
455.1469577587663
 20
319.2036110200068
 30
0.0
 10
455.1469441120269
 20
315.6525974761159
 30
0.0
 10
455.1467240634631
 20
310.7446356110427
 30
0.0
 10
455.1460098983972
 20
305.5178661528729
 30
0.0
 10
455.1453668555487
 20
301.3359540767292
 30
0.0
 10
455.1448932672264
 20
298.5638047894944
 30
0.0
 10
455.1447315986635
 20
296.4669578071043
 30
0.0
 10
455.1448264503686
 20
295.1076273271987
 30
0.0
 10
455.1463480328796
 20
294.2068375537738
 30
0.0
 10
455.1498307052872
 20
293.5464752862114
 30
0.0
 10
455.1545848609111
 20
293.0676270531131
 30
0.0
 10
455.1592511603514
 20
292.6850120861126
 30
0.0
 10
455.1632904714858
 20
292.3061424798563
 30
0.0
 10
455.16376175356
 20
292.0535622174717
 30
0.0
 10
455.1639972563076
 20
291.927346201551
 30
0.0
  0
SPLINE
  5
110
330
1F
100
AcDbEntity
  8
0
  6
Continuous
 62
     8
370
    18
100
AcDbSpline
210
0.0
220
0.0
230
1.0
 70
     8
 71
     3
 72
     8
 73
     4
 74
     0
 42
0.000000001
 43
0.00000001
 40
0.0
 40
0.0
 40
0.0
 40
0.0
 40
0.015649247777963
 40
0.015649247777963
 40
0.015649247777963
 40
0.015649247777963
 10
443.9404274069954
 20
362.3949943756859
 30
0.0
 10
443.9404351599505
 20
362.3950406683747
 30
0.0
 10
443.9402853909177
 20
362.3943268566235
 30
0.0
 10
443.9399859059515
 20
362.3928536687919
 30
0.0
  0
LINE
  5
111
330
1F
100
AcDbEntity
  8
0
  6
Continuous
 62
     8
370
    18
100
AcDbLine
 10
457.1404247321
 20
342.0949942147
 30
0.0
 11
457.1404247321
 21
347.4738775468
 31
0.0
  0
SPLINE
  5
112
330
1F
100
AcDbEntity
  8
0
  6
Continuous
 62
     8
370
    18
100
AcDbSpline
210
0.0
220
0.0
230
1.0
 70
     8
 71
     3
 72
    25
 73
    21
 74
     0
 42
0.000000001
 43
0.00000001
 40
0.0
 40
0.0
 40
0.0
 40
0.0
 40
0.015625
 40
0.015625
 40
0.03125
 40
0.0625
 40
0.0625
 40
0.125
 40
0.125
 40
0.2499999999999999
 40
0.2499999999999999
 40
0.3749999999999998
 40
0.3749999999999998
 40
0.4374999999999998
 40
0.4374999999999998
 40
0.4999999999999999
 40
0.4999999999999999
 40
0.7499999999999999
 40
0.7499999999999999
 40
1.0
 40
1.0
 40
1.0
 40
1.0
 10
431.2532528536012
 20
362.3943971716205
 30
0.0
 10
431.2532516229462
 20
362.394394262235
 30
0.0
 10
431.2529827155079
 20
362.3936614588275
 30
0.0
 10
431.2519123196444
 20
362.3907439957852
 30
0.0
 10
431.2495079116575
 20
362.3841897798664
 30
0.0
 10
431.2447200329547
 20
362.3711347493536
 30
0.0
 10
431.2320002480236
 20
362.3364347446958
 30
0.0
 10
431.2193285700139
 20
362.3018518053251
 30
0.0
 10
431.169001446933
 20
362.1642412155923
 30
0.0
 10
431.1190369671738
 20
362.0274075655034
 30
0.0
 10
430.9876079966897
 20
361.6647770405343
 30
0.0
 10
430.9061431300729
 20
361.4389810293081
 30
0.0
 10
430.7612447274879
 20
361.0331320578136
 30
0.0
 10
430.7091610487423
 20
360.8866424783224
 30
0.0
 10
430.5975713463835
 20
360.571001753817
 30
0.0
 10
430.5379184239759
 20
360.4014296364603
 30
0.0
 10
430.2233498517813
 20
359.5014240411184
 30
0.0
 10
429.9214187360207
 20
358.6206050697326
 30
0.0
 10
429.2415126420545
 20
356.5534464166525
 30
0.0
 10
428.8634305063242
 20
355.3670323453464
 30
0.0
 10
428.4578785955538
 20
354.0224184504588
 30
0.0
  0
SPLINE
  5
113
330
1F
100
AcDbEntity
  8
0
  6
Continuous
 62
     8
370
    18
100
AcDbSpline
210
0.0
220
0.0
230
1.0
 70
     8
 71
     3
 72
    15
 73
    11
 74
     0
 42
0.000000001
 43
0.00000001
 40
0.0
 40
0.0
 40
0.0
 40
0.0
 40
0.0619852449943563
 40
0.1372698373619892
 40
0.2255497329083356
 40
0.3265386529818942
 40
0.4492500659676925
 40
0.5714328538630307
 40
0.7864888533314693
 40
1.0
 40
1.0
 40
1.0
 40
1.0
 10
453.5432439249899
 20
249.6760371627567
 30
0.0
 10
453.5458383782286
 20
250.5485518430175
 30
0.0
 10
453.5515839419374
 20
252.480785042487
 30
0.0
 10
453.5554156057616
 20
255.6557963712223
 30
0.0
 10
453.5582012353005
 20
259.3799172822573
 30
0.0
 10
453.5570646510244
 20
263.7717557149348
 30
0.0
 10
453.5548430946651
 20
268.6409007530032
 30
0.0
 10
453.5558059930732
 20
275.1158372547058
 30
0.0
 10
453.5587885767602
 20
282.8690848407671
 30
0.0
 10
453.5611905952662
 20
288.9024261847521
 30
0.0
 10
453.56238727525
 20
291.9082226864401
 30
0.0
  0
SPLINE
  5
114
330
1F
100
AcDbEntity
  8
0
  6
Continuous
 62
     8
370
    18
100
AcDbSpline
210
0.0
220
0.0
230
1.0
 70
     8
 71
     3
 72
    15
 73
    11
 74
     0
 42
0.000000001
 43
0.00000001
 40
0.0
 40
0.0
 40
0.0
 40
0.0
 40
0.1542734651163061
 40
0.3002060777532956
 40
0.43779737196862
 40
0.5670472913114389
 40
0.6879708293662746
 40
0.8006237842966057
 40
0.9046503166371043
 40
1.0
 40
1.0
 40
1.0
 40
1.0
 10
455.1636745549873
 20
291.92457266518
 30
0.0
 10
455.1637553669718
 20
289.7526060178342
 30
0.0
 10
455.1639126218109
 20
285.5261009106916
 30
0.0
 10
455.1643222878408
 20
279.3625815069342
 30
0.0
 10
455.1650315509635
 20
273.5514164804028
 30
0.0
 10
455.165965609878
 20
268.0923995884767
 30
0.0
 10
455.1676272398755
 20
262.9845240341125
 30
0.0
 10
455.1682478466102
 20
258.2318074249638
 30
0.0
 10
455.1725287365251
 20
253.8392131710278
 30
0.0
 10
455.1651833520866
 20
251.0324550439813
 30
0.0
 10
455.1616704953604
 20
249.6901510096412
 30
0.0
  0
SPLINE
  5
115
330
1F
100
AcDbEntity
  8
0
  6
Continuous
 62
     8
370
    18
100
AcDbSpline
210
0.0
220
0.0
230
1.0
 70
     8
 71
     3
 72
    10
 73
     6
 74
     0
 42
0.000000001
 43
0.00000001
 40
0.0
 40
0.0
 40
0.0
 40
0.0
 40
0.0634444016587008
 40
0.5563141933860944
 40
1.0
 40
1.0
 40
1.0
 40
1.0
 10
457.1379064358612
 20
261.5842698788382
 30
0.0
 10
457.1388057451806
 20
263.286921246814
 30
0.0
 10
457.1466913666944
 20
278.2166722985879
 30
0.0
 10
457.1380990303593
 20
305.0535827119671
 30
0.0
 10
457.1399754007347
 20
330.1878390738231
 30
0.0
 10
457.1408643163582
 20
342.0949942147471
 30
0.0
  0
LINE
  5
116
330
1F
100
AcDbEntity
  8
0
  6
Continuous
 62
     8
370
    18
100
AcDbLine
 10
428.7590100206
 20
311.444447033
 30
0.0
 11
436.0041706599
 21
311.444447033
 31
0.0
  0
SPLINE
  5
117
330
1F
100
AcDbEntity
  8
0
  6
Continuous
 62
     8
370
    18
100
AcDbSpline
210
0.0
220
0.0
230
1.0
 70
     8
 71
     3
 72
     8
 73
     4
 74
     0
 42
0.000000001
 43
0.00000001
 40
0.0
 40
0.0
 40
0.0
 40
0.0
 40
1.0
 40
1.0
 40
1.0
 40
1.0
 10
443.9404256276056
 20
362.3973916890184
 30
0.0
 10
443.9402784757191
 20
362.3973639923153
 30
0.0
 10
443.9401313679154
 20
362.3965641076001
 30
0.0
 10
443.9399843115092
 20
362.39499404169
 30
0.0
  0
SPLINE
  5
118
330
1F
100
AcDbEntity
  8
0
  6
Continuous
 62
     7
370
    25
100
AcDbSpline
210
0.0
220
0.0
230
1.0
 70
     8
 71
     3
 72
    20
 73
    16
 74
     0
 42
0.000000001
 43
0.00000001
 40
0.0
 40
0.0
 40
0.0
 40
0.0
 40
0.0097435980611208
 40
0.0768186076157785
 40
0.131790920630729
 40
0.1746521275350159
 40
0.2053943722687914
 40
0.2332971208766698
 40
0.2720046662131878
 40
0.3215453650132706
 40
0.3819307660980055
 40
0.4531762221780891
 40
0.5327680907045702
 40
0.7749130106421315
 40
1.0
 40
1.0
 40
1.0
 40
1.0
 10
209.5684807990252
 20
166.3862710122762
 30
0.0
 10
209.7504100511986
 20
166.388281139569
 30
0.0
 10
211.1847417784384
 20
166.4041289997533
 30
0.0
 10
213.645385081021
 20
166.4407453964752
 30
0.0
 10
216.7242650592235
 20
166.4919127622092
 30
0.0
 10
219.1246867163183
 20
166.538455879524
 30
0.0
 10
221.0196585524682
 20
166.5789888132661
 30
0.0
 10
222.8370161034392
 20
166.6210439628844
 30
0.0
 10
225.0051913235077
 20
166.6757380697681
 30
0.0
 10
227.7794996672966
 20
166.753966648894
 30
0.0
 10
231.1607267311228
 20
166.8630179802257
 30
0.0
 10
235.1021292298736
 20
167.0105085711971
 30
0.0
 10
242.432934985511
 20
167.3352922680167
 30
0.0
 10
252.6291854884877
 20
167.9165530043103
 30
0.0
 10
261.3170263152582
 20
168.7219019947462
 30
0.0
 10
265.5023567621171
 20
169.1098754529652
 30
0.0
  0
SPLINE
  5
119
330
1F
100
AcDbEntity
  8
0
  6
Continuous
 62
     7
370
    25
100
AcDbSpline
210
0.0
220
0.0
230
1.0
 70
     8
 71
     3
 72
    16
 73
    12
 74
     0
 42
0.000000001
 43
0.00000001
 40
0.0
 40
0.0
 40
0.0
 40
0.0
 40
0.1117348841944838
 40
0.2466825190324592
 40
0.3852816963790538
 40
0.5123930330566074
 40
0.6251722960945469
 40
0.724987208400459
 40
0.8194897092561575
 40
0.9206959159228686
 40
1.0
 40
1.0
 40
1.0
 40
1.0
 10
104.4916890804231
 20
169.1157418538627
 30
0.0
 10
106.5737307212346
 20
168.9144237555954
 30
0.0
 10
111.1703549571527
 20
168.4699640332319
 30
0.0
 10
118.3623261015684
 20
167.9167303834176
 30
0.0
 10
125.84810768866
 20
167.4428105506651
 30
0.0
 10
132.925245552363
 20
167.0931336987804
 30
0.0
 10
139.2800802327123
 20
166.8475750850824
 30
0.0
 10
145.0265237563707
 20
166.6739802427886
 30
0.0
 10
150.5573955355193
 20
166.5442833511938
 30
0.0
 10
155.7049548875654
 20
166.4490617311346
 30
0.0
 10
159.0839700334621
 20
166.4072576543821
 30
0.0
 10
160.5684820805251
 20
166.3888917540011
 30
0.0
  0
SPLINE
  5
11A
330
1F
100
AcDbEntity
  8
0
  6
Continuous
 62
     7
370
    25
100
AcDbSpline
210
0.0
220
0.0
230
1.0
 70
     8
 71
     3
 72
    12
 73
     8
 74
     0
 42
0.000000001
 43
0.00000001
 40
0.0
 40
0.0
 40
0.0
 40
0.0
 40
0.2301776989872847
 40
0.4848564747070454
 40
0.6598923262352896
 40
0.8333061997735829
 40
0.9999999999999999
 40
0.9999999999999999
 40
0.9999999999999999
 40
0.9999999999999999
 10
160.8665760849177
 20
97.84586366757725
 30
0.0
 10
162.7312179644969
 20
97.53490141752611
 30
0.0
 10
166.6589820020277
 20
96.87987679528813
 30
0.0
 10
171.8443790087549
 20
96.37316651522129
 30
0.0
 10
176.5756253596911
 20
96.07337305893175
 30
0.0
 10
180.8333555304413
 20
95.87877025325959
 30
0.0
 10
183.6754917416508
 20
95.85244437778574
 30
0.0
 10
185.0684814397762
 20
95.83954152211521
 30
0.0
  0
SPLINE
  5
11B
330
1F
100
AcDbEntity
  8
0
  6
Continuous
 62
     7
370
    25
100
AcDbSpline
210
0.0
220
0.0
230
1.0
 70
     8
 71
     3
 72
    12
 73
     8
 74
     0
 42
0.000000001
 43
0.00000001
 40
0.0
 40
0.0
 40
0.0
 40
0.0
 40
0.1660662444704778
 40
0.3402120981806088
 40
0.5161234632909545
 40
0.7715807042110626
 40
1.0
 40
1.0
 40
1.0
 40
1.0
 10
185.0684814397762
 20
95.8395415221152
 30
0.0
 10
186.4578083206023
 20
95.85275209613192
 30
0.0
 10
189.3040569046643
 20
95.8798159772881
 30
0.0
 10
193.5311788218481
 20
96.06896327151416
 30
0.0
 10
198.3798115855891
 20
96.3872802549261
 30
0.0
 10
203.6163545036672
 20
96.90272549798853
 30
0.0
 10
207.4577038444457
 20
97.5435088680645
 30
0.0
 10
209.2710554842412
 20
97.84599777802798
 30
0.0
  0
LINE
  5
11C
330
1F
100
AcDbEntity
  8
0
  6
Continuous
 62
     7
370
    25
100
AcDbLine
 10
209.568480799
 20
138.0424947713
 30
0.0
 11
209.568480799
 21
166.4158535425
 31
0.0
  0
LINE
  5
11D
330
1F
100
AcDbEntity
  8
0
  6
Continuous
 62
     7
370
    25
100
AcDbLine
 10
160.5684820805
 20
166.4160249059
 30
0.0
 11
160.5684820805
 21
138.0424947713
 31
0.0
  0
ARC
  5
11E
330
1F
100
AcDbEntity
  8
0
  6
Continuous
 62
     7
370
    25
100
AcDbCircle
 10
185.0684814398
 20
138.0424960791
 30
0.0
 40
24.50000000000006
100
AcDbArc
 50
180.0
 51
202.2732564375
  0
ARC
  5
11F
330
1F
100
AcDbEntity
  8
0
  6
Continuous
 62
     7
370
    25
100
AcDbCircle
 10
185.0684814398
 20
138.0424960791
 30
0.0
 40
24.49999999999998
100
AcDbArc
 50
337.7306864162
 51
0.0
  0
SPLINE
  5
120
330
1F
100
AcDbEntity
  8
0
  6
Continuous
 62
     7
370
    25
100
AcDbSpline
210
0.0
220
0.0
230
1.0
 70
     8
 71
     3
 72
    18
 73
    14
 74
     0
 42
0.000000001
 43
0.00000001
 40
0.0
 40
0.0
 40
0.0
 40
0.0
 40
0.1065032518592234
 40
0.2580668741231696
 40
0.4129877298823278
 40
0.5713234118616949
 40
0.729750873234542
 40
0.8560360498702373
 40
0.9040380876411657
 40
0.942708707029901
 40
0.9736445323968546
 40
0.9871648180314186
 40
1.0
 40
1.0
 40
1.0
 40
1.0
 10
159.5719501618802
 20
107.1800255452094
 30
0.0
 10
159.5734883840214
 20
106.7080372478038
 30
0.0
 10
159.5772156334036
 20
105.5643675249754
 30
0.0
 10
159.5961580636749
 20
103.8165763324576
 30
0.0
 10
159.6285574057533
 20
102.0704527939681
 30
0.0
 10
159.6801154896403
 20
100.5640132227636
 30
0.0
 10
159.7357023342148
 20
99.53077280821388
 30
0.0
 10
159.8334474659096
 20
98.88338399178106
 30
0.0
 10
160.0299028254674
 20
98.4589693289947
 30
0.0
 10
160.2213998386132
 20
98.21269604738335
 30
0.0
 10
160.4523019298434
 20
98.03973719425117
 30
0.0
 10
160.6666052336496
 20
97.94240857861996
 30
0.0
 10
160.7792800763636
 20
97.91391885831833
 30
0.0
 10
160.834153020805
 20
97.90004428967806
 30
0.0
  0
SPLINE
  5
121
330
1F
100
AcDbEntity
  8
0
  6
Continuous
 62
     7
370
    25
100
AcDbSpline
210
0.0
220
0.0
230
1.0
 70
     8
 71
     3
 72
    17
 73
    13
 74
     0
 42
0.000000001
 43
0.00000001
 40
0.0
 40
0.0
 40
0.0
 40
0.0
 40
0.01407207635996
 40
0.0285872570140924
 40
0.060435201328445
 40
0.0985485320780014
 40
0.2315854997369161
 40
0.4108671710118683
 40
0.5633897119168256
 40
0.7210383113059122
 40
0.8844188566004876
 40
0.9999999999999999
 40
0.9999999999999999
 40
0.9999999999999999
 40
0.9999999999999999
 10
209.3025379125535
 20
97.89920982465121
 30
0.0
 10
209.362103268307
 20
97.91438095117182
 30
0.0
 10
209.4831095853924
 20
97.94520091561374
 30
0.0
 10
209.7097585604156
 20
98.05067766220876
 30
0.0
 10
209.9517836864416
 20
98.23710181899173
 30
0.0
 10
210.2839611437262
 20
98.68838635151768
 30
0.0
 10
210.3905744157348
 20
99.33383794865584
 30
0.0
 10
210.4535414512243
 20
100.310213416252
 30
0.0
 10
210.5064655266814
 20
101.8040965895534
 30
0.0
 10
210.5392396456033
 20
103.5098687321979
 30
0.0
 10
210.5589080547769
 20
105.3089029766318
 30
0.0
 10
210.5628318981877
 20
106.5328754422662
 30
0.0
 10
210.5644576494157
 20
107.0399993334708
 30
0.0
  0
SPLINE
  5
122
330
1F
100
AcDbEntity
  8
0
  6
Continuous
 62
     7
370
    25
100
AcDbSpline
210
0.0
220
0.0
230
1.0
 70
    24
 71
     3
 72
    54
 73
    50
 74
     0
 42
0.000000001
 43
0.00000001
 40
0.0
 40
0.0
 40
0.0
 40
0.0
 40
0.0625000000000004
 40
0.0625000000000004
 40
0.1250000000000007
 40
0.1250000000000007
 40
0.1875000000000011
 40
0.1875000000000011
 40
0.2500000000000014
 40
0.2500000000000014
 40
0.3125000000000018
 40
0.3125000000000018
 40
0.3437500000000019
 40
0.3437500000000019
 40
0.3750000000000021
 40
0.3750000000000021
 40
0.4062500000000022
 40
0.4062500000000022
 40
0.4218750000000023
 40
0.4218750000000023
 40
0.4375000000000023
 40
0.4375000000000023
 40
0.4687500000000025
 40
0.4687500000000025
 40
0.4843750000000027
 40
0.4843750000000027
 40
0.5000000000000029
 40
0.5000000000000029
 40
0.5625000000000032
 40
0.5625000000000032
 40
0.5781250000000032
 40
0.5781250000000032
 40
0.5937500000000031
 40
0.5937500000000031
 40
0.6250000000000029
 40
0.6250000000000029
 40
0.6562500000000028
 40
0.6562500000000028
 40
0.6875000000000027
 40
0.6875000000000027
 40
0.7500000000000021
 40
0.7500000000000021
 40
0.8125000000000016
 40
0.8125000000000016
 40
0.875000000000001
 40
0.875000000000001
 40
0.9375000000000006
 40
0.9375000000000006
 40
1.0
 40
1.0
 40
1.0
 40
1.0
 10
270.0719123047706
 20
180.5872017672228
 30
0.0
 10
270.0719123049652
 20
180.5872017672228
 30
0.0
 10
270.0625597844348
 20
180.5872017672225
 30
0.0
 10
270.0090910418018
 20
180.5872017672225
 30
0.0
 10
269.965128352038
 20
180.5872017672226
 30
0.0
 10
269.8178560826381
 20
180.5872017672226
 30
0.0
 10
269.7147708660016
 20
180.5872017672229
 30
0.0
 10
269.4100499598127
 20
180.5872017672229
 30
0.0
 10
269.2089911248073
 20
180.5872017672221
 30
0.0
 10
268.6425528273147
 20
180.5872017672221
 30
0.0
 10
268.2784419289537
 20
180.5872017672236
 30
0.0
 10
267.5206016485222
 20
180.5872017672236
 30
0.0
 10
267.2322283608996
 20
180.5872017672233
 30
0.0
 10
266.5655544028357
 20
180.5872017672233
 30
0.0
 10
266.1869809045437
 20
180.587201767222
 30
0.0
 10
265.311760147634
 20
180.587201767222
 30
0.0
 10
264.8152046325603
 20
180.5872017672238
 30
0.0
 10
263.9544009880981
 20
180.5872017672238
 30
0.0
 10
263.6480584975296
 20
180.5872017672228
 30
0.0
 10
262.9908548747018
 20
180.5872017672228
 30
0.0
 10
262.6420168616177
 20
180.5872017672226
 30
0.0
 10
261.533736941771
 20
180.5872017672226
 30
0.0
 10
260.7108575773531
 20
180.5872017672224
 30
0.0
 10
259.3316827838868
 20
180.5872017672224
 30
0.0
 10
258.8478266148775
 20
180.5872017672224
 30
0.0
 10
257.8289422722493
 20
180.5872017672224
 30
0.0
 10
257.2912202407547
 20
180.5872017672224
 30
0.0
 10
254.5077195708556
 20
180.5872017672224
 30
0.0
 10
251.9810300385742
 20
180.5872017672231
 30
0.0
 10
248.5210931477695
 20
180.5872017672231
 30
0.0
 10
247.814924705392
 20
180.5872017672226
 30
0.0
 10
246.3939812367281
 20
180.5872017672226
 30
0.0
 10
245.6768222738205
 20
180.5872017672225
 30
0.0
 10
243.50780052328
 20
180.5872017672225
 30
0.0
 10
242.0384840857166
 20
180.5872017672229
 30
0.0
 10
239.0641429084419
 20
180.5872017672229
 30
0.0
 10
237.559093139969
 20
180.5872017672234
 30
0.0
 10
234.5214916788862
 20
180.5872017672234
 30
0.0
 10
232.9858995119072
 20
180.5872017672224
 30
0.0
 10
228.3752074444759
 20
180.5872017672224
 30
0.0
 10
225.2940761353537
 20
180.5872017672219
 30
0.0
 10
219.123447075509
 20
180.5872017672219
 30
0.0
 10
216.0338803993838
 20
180.5872017672223
 30
0.0
 10
209.8497143389037
 20
180.5872017672223
 30
0.0
 10
206.7550847723241
 20
180.5872017672239
 30
0.0
 10
200.5627845424156
 20
180.5872017672239
 30
0.0
 10
197.4650992663479
 20
180.587201767223
 30
0.0
 10
191.2679375895732
 20
180.587201767223
 30
0.0
 10
188.1684535381417
 20
180.5872017672229
 30
0.0
 10
185.0684814396712
 20
180.5872017672229
 30
0.0
  0
LWPOLYLINE
  5
123
330
1F
100
AcDbEntity
  8
0
  6
Continuous
 62
     7
370
    25
100
AcDbPolyline
 90
        3
 70
   128
 43
0.0
 10
269.6927123014
 20
173.3516902898
 10
269.8823146765
 20
176.9694458929
 10
270.0719096009
 20
180.5872017287
  0
ARC
  5
124
330
1F
100
AcDbEntity
  8
0
  6
Continuous
 62
     7
370
    25
100
AcDbCircle
 10
265.1988822928
 20
173.5872017672
 30
0.0
 40
4.500000000000002
100
AcDbArc
 50
275.7391704773
 51
357.0
  0
SPLINE
  5
125
330
1F
100
AcDbEntity
  8
0
  6
Continuous
 62
     7
370
    25
100
AcDbSpline
210
0.0
220
0.0
230
1.0
 70
    24
 71
     3
 72
    54
 73
    50
 74
     0
 42
0.000000001
 43
0.00000001
 40
0.0
 40
0.0
 40
0.0
 40
0.0
 40
0.0624999999999999
 40
0.0624999999999999
 40
0.1249999999999998
 40
0.1249999999999998
 40
0.1874999999999997
 40
0.1874999999999997
 40
0.2499999999999996
 40
0.2499999999999996
 40
0.3124999999999994
 40
0.3124999999999994
 40
0.3437499999999993
 40
0.3437499999999993
 40
0.3749999999999992
 40
0.3749999999999992
 40
0.4062499999999991
 40
0.4062499999999991
 40
0.421874999999999
 40
0.421874999999999
 40
0.437499999999999
 40
0.437499999999999
 40
0.4687499999999989
 40
0.4687499999999989
 40
0.4843749999999989
 40
0.4843749999999989
 40
0.4999999999999989
 40
0.4999999999999989
 40
0.5624999999999989
 40
0.5624999999999989
 40
0.5781249999999988
 40
0.5781249999999988
 40
0.5937499999999987
 40
0.5937499999999987
 40
0.6249999999999987
 40
0.6249999999999987
 40
0.6562499999999988
 40
0.6562499999999988
 40
0.6874999999999988
 40
0.6874999999999988
 40
0.749999999999999
 40
0.749999999999999
 40
0.8124999999999992
 40
0.8124999999999992
 40
0.8749999999999994
 40
0.8749999999999994
 40
0.9374999999999997
 40
0.9374999999999997
 40
1.0
 40
1.0
 40
1.0
 40
1.0
 10
185.0684814399312
 20
180.5872017672228
 30
0.0
 10
181.9523718599575
 20
180.5872017672228
 30
0.0
 10
178.8363930583683
 20
180.5872017672216
 30
0.0
 10
172.6049215637871
 20
180.5872017672216
 30
0.0
 10
169.4894267239181
 20
180.5872017672218
 30
0.0
 10
163.2592669049856
 20
180.5872017672218
 30
0.0
 10
160.1435094813296
 20
180.5872017672228
 30
0.0
 10
153.9216273536803
 20
180.5872017672228
 30
0.0
 10
150.8150758309762
 20
180.5872017672233
 30
0.0
 10
144.6167842048179
 20
180.5872017672233
 30
0.0
 10
141.5249297564058
 20
180.5872017672226
 30
0.0
 10
136.9062278025819
 20
180.5872017672226
 30
0.0
 10
135.3713862878508
 20
180.5872017672228
 30
0.0
 10
132.3327574082518
 20
180.5872017672228
 30
0.0
 10
130.8267628983399
 20
180.5872017672224
 30
0.0
 10
127.8495407932742
 20
180.5872017672224
 30
0.0
 10
126.3782861841592
 20
180.5872017672235
 30
0.0
 10
124.2055518407968
 20
180.5872017672235
 30
0.0
 10
123.4870217441043
 20
180.5872017672231
 30
0.0
 10
122.0630701009701
 20
180.5872017672231
 30
0.0
 10
121.3622604613269
 20
180.5872017672225
 30
0.0
 10
119.3048499988158
 20
180.5872017672225
 30
0.0
 10
117.9897886154213
 20
180.587201767223
 30
0.0
 10
116.1146776255291
 20
180.587201767223
 30
0.0
 10
115.5058798137738
 20
180.5872017672233
 30
0.0
 10
114.3227205357319
 20
180.5872017672233
 30
0.0
 10
113.7458321446293
 20
180.5872017672231
 30
0.0
 10
110.9899307794335
 20
180.5872017672231
 30
0.0
 10
109.1959187934124
 20
180.5872017672228
 30
0.0
 10
107.3664219279589
 20
180.5872017672228
 30
0.0
 10
107.0216583639032
 20
180.5872017672231
 30
0.0
 10
106.3778874671809
 20
180.5872017672231
 30
0.0
 10
106.0775762888653
 20
180.587201767224
 30
0.0
 10
105.2332458118902
 20
180.587201767224
 30
0.0
 10
104.7455353043232
 20
180.5872017672239
 30
0.0
 10
103.8853160569604
 20
180.5872017672239
 30
0.0
 10
103.5128880647043
 20
180.5872017672234
 30
0.0
 10
102.8567585131876
 20
180.5872017672234
 30
0.0
 10
102.5726812084761
 20
180.5872017672218
 30
0.0
 10
101.8275791835428
 20
180.5872017672218
 30
0.0
 10
101.4700616978364
 20
180.5872017672231
 30
0.0
 10
100.9137859541164
 20
180.5872017672231
 30
0.0
 10
100.7163356050395
 20
180.5872017672233
 30
0.0
 10
100.4169341537592
 20
180.5872017672233
 30
0.0
 10
100.315555780908
 20
180.5872017672226
 30
0.0
 10
100.1705060263491
 20
180.5872017672226
 30
0.0
 10
100.1271119318362
 20
180.5872017672225
 30
0.0
 10
100.0743116169951
 20
180.5872017672225
 30
0.0
 10
100.0650505746519
 20
180.5872017672229
 30
0.0
 10
100.065050574781
 20
180.5872017672229
 30
0.0
  0
LWPOLYLINE
  5
126
330
1F
100
AcDbEntity
  8
0
  6
Continuous
 62
     7
370
    25
100
AcDbPolyline
 90
        3
 70
   128
 43
0.0
 10
100.4442505781
 20
173.3516902898
 10
100.2546482031
 20
176.9694458929
 10
100.0650532786
 20
180.5872017287
  0
ARC
  5
127
330
1F
100
AcDbEntity
  8
0
  6
Continuous
 62
     7
370
    25
100
AcDbCircle
 10
104.9380805868
 20
173.5872017672
 30
0.0
 40
4.500000000000013
100
AcDbArc
 50
183.0
 51
264.2608295227
  0
SPLINE
  5
128
330
1F
100
AcDbEntity
  8
0
  6
Continuous
 62
     7
370
    25
100
AcDbSpline
210
0.0
220
0.0
230
1.0
 70
     8
 71
     3
 72
    26
 73
    22
 74
     0
 42
0.000000001
 43
0.00000001
 40
0.0
 40
0.0
 40
0.0
 40
0.0
 40
0.0369425620794478
 40
0.0898680497809899
 40
0.1443283921049912
 40
0.1972535376184247
 40
0.2517134660042243
 40
0.3046391431245324
 40
0.3590994563782372
 40
0.4120279711383603
 40
0.4664919900270313
 40
0.5194101550856731
 40
0.5738634210949403
 40
0.6267745526527346
 40
0.6812194138235445
 40
0.7341428049257741
 40
0.7886006597447415
 40
0.8415289120564424
 40
0.8959923447923578
 40
0.9489171739633085
 40
1.0
 40
1.0
 40
1.0
 40
1.0
 10
160.6466703359544
 20
166.41602490589
 30
0.0
 10
160.6473821682899
 20
166.4202171132507
 30
0.0
 10
160.6491138019441
 20
166.4304152554094
 30
0.0
 10
161.4542317085377
 20
166.4469347262766
 30
0.0
 10
162.9176472220356
 20
166.4691497074304
 30
0.0
 10
165.0529890207591
 20
166.4978165011308
 30
0.0
 10
167.7275478993711
 20
166.5327986037236
 30
0.0
 10
170.9228410241155
 20
166.5721745143989
 30
0.0
 10
174.4885916744819
 20
166.6102650781488
 30
0.0
 10
178.3887883255405
 20
166.6414917790926
 30
0.0
 10
182.4424326578263
 20
166.6597657495211
 30
0.0
 10
186.6076515844853
 20
166.6619435717198
 30
0.0
 10
190.6913072380642
 20
166.6475767432634
 30
0.0
 10
194.6516082844966
 20
166.619156370223
 30
0.0
 10
198.3054725693914
 20
166.5822811211661
 30
0.0
 10
201.6158405619965
 20
166.542569481553
 30
0.0
 10
204.4280485842616
 20
166.5061576540019
 30
0.0
 10
206.7181231589153
 20
166.4756932387481
 30
0.0
 10
208.3600854206418
 20
166.4520500512812
 30
0.0
 10
209.3890864630221
 20
166.4332310517676
 30
0.0
 10
209.4954337937986
 20
166.4215772482975
 30
0.0
 10
209.5476657394826
 20
166.4158535425362
 30
0.0
  0
SPLINE
  5
129
330
1F
100
AcDbEntity
  8
0
  6
Continuous
 62
     7
370
    25
100
AcDbSpline
210
0.0
220
0.0
230
1.0
 70
     8
 71
     3
 72
    10
 73
     6
 74
     0
 42
0.000000001
 43
0.00000001
 40
0.0
 40
0.0
 40
0.0
 40
0.0
 40
0.4999999999999996
 40
0.4999999999999996
 40
1.0
 40
1.0
 40
1.0
 40
1.0
 10
210.4397931138028
 20
125.4303962462331
 30
0.0
 10
210.4088170860381
 20
126.0760496396589
 30
0.0
 10
210.3727869661405
 20
126.6668713615532
 30
0.0
 10
210.2459704295813
 20
127.7375208837472
 30
0.0
 10
210.1557292528306
 20
128.2170304854159
 30
0.0
 10
209.9977532520905
 20
128.6406287565383
 30
0.0
  0
SPLINE
  5
12A
330
1F
100
AcDbEntity
  8
0
  6
Continuous
 62
     7
370
    25
100
AcDbSpline
210
0.0
220
0.0
230
1.0
 70
     8
 71
     3
 72
    10
 73
     6
 74
     0
 42
0.000000001
 43
0.00000001
 40
0.0
 40
0.0
 40
0.0
 40
0.0
 40
0.5000000000000003
 40
0.5000000000000003
 40
1.0
 40
1.0
 40
1.0
 40
1.0
 10
160.1392096274619
 20
128.6406287565383
 30
0.0
 10
159.9812459274648
 20
128.2170634687393
 30
0.0
 10
159.8909489706492
 20
127.7372621226905
 30
0.0
 10
159.7641504648663
 20
126.6665481397007
 30
0.0
 10
159.7281450092357
 20
126.0760332924344
 30
0.0
 10
159.6971697657495
 20
125.4303962462331
 30
0.0
  0
SPLINE
  5
12B
330
1F
100
AcDbEntity
  8
0
  6
Continuous
 62
     7
370
    25
100
AcDbSpline
210
0.0
220
0.0
230
1.0
 70
     8
 71
     3
 72
    54
 73
    50
 74
     0
 42
0.000000001
 43
0.00000001
 40
0.0
 40
0.0
 40
0.0
 40
0.0
 40
0.0624999999999995
 40
0.0624999999999995
 40
0.0937499999999993
 40
0.0937499999999993
 40
0.1249999999999992
 40
0.1249999999999992
 40
0.1874999999999991
 40
0.1874999999999991
 40
0.2187499999999991
 40
0.2187499999999991
 40
0.2499999999999991
 40
0.2499999999999991
 40
0.3124999999999993
 40
0.3124999999999993
 40
0.3437499999999994
 40
0.3437499999999994
 40
0.3749999999999996
 40
0.3749999999999996
 40
0.4374999999999998
 40
0.4374999999999998
 40
0.4687499999999999
 40
0.4687499999999999
 40
0.5
 40
0.5
 40
0.5625000000000001
 40
0.5625000000000001
 40
0.5937500000000002
 40
0.5937500000000002
 40
0.6250000000000003
 40
0.6250000000000003
 40
0.6875000000000003
 40
0.6875000000000003
 40
0.7187500000000003
 40
0.7187500000000003
 40
0.7500000000000003
 40
0.7500000000000003
 40
0.7812500000000004
 40
0.7812500000000004
 40
0.8125000000000004
 40
0.8125000000000004
 40
0.8750000000000004
 40
0.8750000000000004
 40
0.9062500000000004
 40
0.9062500000000004
 40
0.9375000000000003
 40
0.9375000000000003
 40
1.0
 40
1.0
 40
1.0
 40
1.0
 10
207.6758957236443
 20
128.6406287565383
 30
0.0
 10
207.5222130006508
 20
128.3962823862111
 30
0.0
 10
207.2398511354987
 20
128.1401274624925
 30
0.0
 10
206.6326771136866
 20
127.7419522041136
 30
0.0
 10
206.3994674630707
 20
127.6069083231864
 30
0.0
 10
205.8705099563708
 20
127.332909706504
 30
0.0
 10
205.5730031993693
 20
127.1932744183994
 30
0.0
 10
204.6025542812406
 20
126.7777680799319
 30
0.0
 10
203.8503958700805
 20
126.5036432938287
 30
0.0
 10
202.5692897915464
 20
126.1032051750628
 30
0.0
 10
202.1166109431454
 20
125.9715310455254
 30
0.0
 10
201.1588012511571
 20
125.7130977139916
 30
0.0
 10
200.6577786640914
 20
125.5875127083547
 30
0.0
 10
199.1042498808496
 20
125.2265469447345
 30
0.0
 10
197.9961075017376
 20
125.0053303812783
 30
0.0
 10
196.226245403948
 20
124.7090571483606
 30
0.0
 10
195.6152288841656
 20
124.6158523124182
 30
0.0
 10
194.3719891720441
 20
124.4448838830143
 30
0.0
 10
193.7412113065893
 20
124.36721724601
 30
0.0
 10
191.8222332474185
 20
124.1582059683806
 30
0.0
 10
190.5075990505143
 20
124.0507324138127
 30
0.0
 10
188.4820216671102
 20
123.9414667085424
 30
0.0
 10
187.7956873233308
 20
123.9137529898377
 30
0.0
 10
186.4306850759043
 20
123.8771745303706
 30
0.0
 10
185.749159856685
 20
123.8680981535279
 30
0.0
 10
183.7074521667575
 20
123.8680952382313
 30
0.0
 10
182.3501142760371
 20
123.904276986515
 30
0.0
 10
180.3199910554584
 20
124.0133258117556
 30
0.0
 10
179.6456165244678
 20
124.0588716761787
 30
0.0
 10
178.3254285389471
 20
124.1660130034234
 30
0.0
 10
177.6762770412775
 20
124.2277685393788
 30
0.0
 10
175.7612435498684
 20
124.4362795722013
 30
0.0
 10
174.5275042100028
 20
124.6061804072687
 30
0.0
 10
172.7445281237389
 20
124.9040939749334
 30
0.0
 10
172.1669385026778
 20
125.0097538471118
 30
0.0
 10
171.0556934895633
 20
125.2304142097047
 30
0.0
 10
170.5202168006124
 20
125.3457177553115
 30
0.0
 10
169.4893182677383
 20
125.5850681856356
 30
0.0
 10
168.9938951955574
 20
125.7091164622467
 30
0.0
 10
168.0438687653119
 20
125.9649325625238
 30
0.0
 10
167.5883282609546
 20
126.0969935303965
 30
0.0
 10
166.2916712732527
 20
126.5015715767243
 30
0.0
 10
165.5397787664547
 20
126.7759659168251
 30
0.0
 10
164.5762588255587
 20
127.187765627131
 30
0.0
 10
164.2826473842419
 20
127.3250869569923
 30
0.0
 10
163.7519503772647
 20
127.598886583619
 30
0.0
 10
163.5140043607119
 20
127.735989861626
 30
0.0
 10
162.8980061819989
 20
128.1387390315812
 30
0.0
 10
162.6147520050388
 20
128.3962790057795
 30
0.0
 10
162.4610671559081
 20
128.6406287565383
 30
0.0
  0
LINE
  5
12C
330
1F
100
AcDbEntity
  8
0
  6
Continuous
 62
     7
370
    25
100
AcDbLine
 10
162.4610673879
 20
128.6406294678
 30
0.0
 11
162.4318629746
 21
128.7715920483
 31
0.0
  0
LINE
  5
12D
330
1F
100
AcDbEntity
  8
0
  6
Continuous
 62
     7
370
    25
100
AcDbLine
 10
207.7061597501
 20
128.7721322154
 30
0.0
 11
207.6758954917
 21
128.6406294678
 31
0.0
  0
SPLINE
  5
12E
330
1F
100
AcDbEntity
  8
0
  6
Continuous
 62
     7
370
    25
100
AcDbSpline
210
0.0
220
0.0
230
1.0
 70
     8
 71
     3
 72
    14
 73
    10
 74
     0
 42
0.000000001
 43
0.00000001
 40
0.0
 40
0.0
 40
0.0
 40
0.0
 40
0.1452663718158716
 40
0.2902730825763865
 40
0.4352942341775675
 40
0.5791313832002083
 40
0.7211592790007546
 40
0.8627602632531339
 40
1.0
 40
1.0
 40
1.0
 40
1.0
 10
159.7246274594723
 20
99.21189781770084
 30
0.0
 10
159.7142968484869
 20
99.20890902721113
 30
0.0
 10
159.6936540922992
 20
99.20293678864151
 30
0.0
 10
159.6634411021454
 20
99.63280223624062
 30
0.0
 10
159.6357198206957
 20
100.5048558959194
 30
0.0
 10
159.611424666437
 20
101.7865783696772
 30
0.0
 10
159.5914925133297
 20
103.3742163922092
 30
0.0
 10
159.5771253544154
 20
105.2007554563024
 30
0.0
 10
159.5729119263847
 20
106.5271842475816
 30
0.0
 10
159.5708381627261
 20
107.1800255452094
 30
0.0
  0
SPLINE
  5
12F
330
1F
100
AcDbEntity
  8
0
  6
Continuous
 62
     7
370
    25
100
AcDbSpline
210
0.0
220
0.0
230
1.0
 70
     8
 71
     3
 72
     8
 73
     4
 74
     0
 42
0.000000001
 43
0.00000001
 40
0.0
 40
0.0
 40
0.0
 40
0.0
 40
0.0012942453669404
 40
0.0012942453669404
 40
0.0012942453669404
 40
0.0012942453669404
 10
159.5809098760171
 20
124.9782775203776
 30
0.0
 10
159.5861172587627
 20
125.0987230166783
 30
0.0
 10
159.5915092608149
 20
125.217383427608
 30
0.0
 10
159.5971595805169
 20
125.3342351698011
 30
0.0
  0
SPLINE
  5
130
330
1F
100
AcDbEntity
  8
0
  6
Continuous
 62
     7
370
    25
100
AcDbSpline
210
0.0
220
0.0
230
1.0
 70
     8
 71
     3
 72
     9
 73
     5
 74
     0
 42
0.000000001
 43
0.00000001
 40
0.0
 40
0.0
 40
0.0
 40
0.0
 40
0.267801132688277
 40
0.9999999999999999
 40
0.9999999999999999
 40
0.9999999999999999
 40
0.9999999999999999
 10
159.5699087027966
 20
114.3611111913619
 30
0.0
 10
159.5702557014849
 20
115.3088747920846
 30
0.0
 10
159.571551434198
 20
118.8479322680885
 30
0.0
 10
159.5769538455646
 20
122.3869864705491
 30
0.0
 10
159.580909485048
 20
124.9782779489455
 30
0.0
  0
SPLINE
  5
131
330
1F
100
AcDbEntity
  8
0
  6
Continuous
 62
     7
370
    25
100
AcDbSpline
210
0.0
220
0.0
230
1.0
 70
     8
 71
     3
 72
    14
 73
    10
 74
     0
 42
0.000000001
 43
0.00000001
 40
0.0
 40
0.0
 40
0.0
 40
0.0
 40
0.1285643797025006
 40
0.2715892115154885
 40
0.4150452476219917
 40
0.5603287296262999
 40
0.7068081197703426
 40
0.8532729238660014
 40
1.0
 40
1.0
 40
1.0
 40
1.0
 10
210.5655808244406
 20
107.0399993334708
 30
0.0
 10
210.5636430865718
 20
106.4348245286245
 30
0.0
 10
210.5595496611521
 20
105.1564070660462
 30
0.0
 10
210.5454557750523
 20
103.374537352723
 30
0.0
 10
210.5255421821533
 20
101.7864910630919
 30
0.0
 10
210.501241980242
 20
100.504879622058
 30
0.0
 10
210.4735220659807
 20
99.63279588846933
 30
0.0
 10
210.4433087149595
 20
99.2029383788341
 30
0.0
 10
210.4226660069519
 20
99.20890955759133
 30
0.0
 10
210.412335420078
 20
99.21189781770084
 30
0.0
  0
SPLINE
  5
132
330
1F
100
AcDbEntity
  8
0
  6
Continuous
 62
     7
370
    25
100
AcDbSpline
210
0.0
220
0.0
230
1.0
 70
     8
 71
     3
 72
    10
 73
     6
 74
     0
 42
0.000000001
 43
0.00000001
 40
0.0
 40
0.0
 40
0.0
 40
0.0
 40
0.5
 40
0.5
 40
1.0
 40
1.0
 40
1.0
 40
1.0
 10
210.5560530032301
 20
124.9782795554813
 30
0.0
 10
210.5564427526106
 20
122.3676595941433
 30
0.0
 10
210.5625767583524
 20
119.7609119902171
 30
0.0
 10
210.5689880756103
 20
114.5434686335271
 30
0.0
 10
210.5711081023137
 20
111.9340151170517
 30
0.0
 10
210.5694242415011
 20
109.3219972861032
 30
0.0
  0
SPLINE
  5
133
330
1F
100
AcDbEntity
  8
0
  6
Continuous
 62
     7
370
    25
100
AcDbSpline
210
0.0
220
0.0
230
1.0
 70
     8
 71
     3
 72
     8
 73
     4
 74
     0
 42
0.000000001
 43
0.00000001
 40
0.0
 40
0.0
 40
0.0
 40
0.0
 40
0.0012942453668352
 40
0.0012942453668352
 40
0.0012942453668352
 40
0.0012942453668352
 10
210.5398032990355
 20
125.3342351698011
 30
0.0
 10
210.545453618737
 20
125.2173834276176
 30
0.0
 10
210.5508456207888
 20
125.0987230166976
 30
0.0
 10
210.556053003534
 20
124.978277520407
 30
0.0
  0
ARC
  5
134
330
1F
100
AcDbEntity
  8
0
  6
Continuous
 62
     7
370
    25
100
AcDbCircle
 10
210.4584015084
 20
124.9766487023
 30
0.0
 40
0.0976654764841443
100
AcDbArc
 50
0.9558473431
 51
91.3731898107
  0
SPLINE
  5
135
330
1F
100
AcDbEntity
  8
0
  6
Continuous
 62
     7
370
    25
100
AcDbSpline
210
0.0
220
0.0
230
1.0
 70
     8
 71
     3
 72
    14
 73
    10
 74
     0
 42
0.000000001
 43
0.00000001
 40
0.0
 40
0.0
 40
0.0
 40
0.0
 40
0.25
 40
0.25
 40
0.5
 40
0.5
 40
0.75
 40
0.75
 40
1.0
 40
1.0
 40
1.0
 40
1.0
 10
160.8902132108431
 20
97.83769355683076
 30
0.0
 10
160.7419610988888
 20
97.86225911226917
 30
0.0
 10
160.5884784113033
 20
97.91298642311574
 30
0.0
 10
160.2998459145424
 20
98.07248393159452
 30
0.0
 10
160.1653421616061
 20
98.18138069758622
 30
0.0
 10
159.9450447611015
 20
98.44129830525956
 30
0.0
 10
159.8597149467029
 20
98.5917662371286
 30
0.0
 10
159.7497119294449
 20
98.90234891082433
 30
0.0
 10
159.7252805363052
 20
99.06167640755169
 30
0.0
 10
159.7247524985907
 20
99.21188930141479
 30
0.0
  0
SPLINE
  5
136
330
1F
100
AcDbEntity
  8
0
  6
Continuous
 62
     7
370
    25
100
AcDbSpline
210
0.0
220
0.0
230
1.0
 70
     8
 71
     3
 72
    14
 73
    10
 74
     0
 42
0.000000001
 43
0.00000001
 40
0.0
 40
0.0
 40
0.0
 40
0.0
 40
0.25
 40
0.25
 40
0.5
 40
0.5
 40
0.75
 40
0.75
 40
1.0
 40
1.0
 40
1.0
 40
1.0
 10
209.2440182017874
 20
97.8405676139542
 30
0.0
 10
209.3917568617887
 20
97.86512993294936
 30
0.0
 10
209.5446469392032
 20
97.9151766531692
 30
0.0
 10
209.8325906759388
 20
98.07330272547111
 30
0.0
 10
209.966972907884
 20
98.18129623788765
 30
0.0
 10
210.1877142050515
 20
98.43940375259356
 30
0.0
 10
210.2736108824911
 20
98.588982675979
 30
0.0
 10
210.3852113160016
 20
98.89828228400941
 30
0.0
 10
210.411135822998
 20
99.05739633671602
 30
0.0
 10
210.4121863315388
 20
99.20734229116574
 30
0.0
  0
ARC
  5
137
330
1F
100
AcDbEntity
  8
0
  6
Continuous
 62
     7
370
    25
100
AcDbCircle
 10
209.9998002082
 20
128.5429214222
 30
0.0
 40
0.0977294807018714
100
AcDbArc
 50
359.6534017387
 51
91.2000385164
  0
SPLINE
  5
138
330
1F
100
AcDbEntity
  8
0
  6
Continuous
 62
     7
370
    25
100
AcDbSpline
210
0.0
220
0.0
230
1.0
 70
     8
 71
     3
 72
    10
 73
     6
 74
     0
 42
0.000000001
 43
0.00000001
 40
0.0
 40
0.0
 40
0.0
 40
0.0
 40
0.5
 40
0.5
 40
1.0
 40
1.0
 40
1.0
 40
1.0
 10
210.0975272729612
 20
128.542331522928
 30
0.0
 10
210.2555699152889
 20
128.1192892692758
 30
0.0
 10
210.3458687141562
 20
127.6401743433102
 30
0.0
 10
210.4727550938054
 20
126.5702416076158
 30
0.0
 10
210.5088007597926
 20
125.979642507173
 30
0.0
 10
210.5397883159809
 20
125.3341295963975
 30
0.0
  0
ARC
  5
139
330
1F
100
AcDbEntity
  8
0
  6
Continuous
 62
     7
370
    25
100
AcDbCircle
 10
160.1371626713
 20
128.5429214222
 30
0.0
 40
0.0977294807018998
100
AcDbArc
 50
88.7999614836
 51
180.3465982613
  0
SPLINE
  5
13A
330
1F
100
AcDbEntity
  8
0
  6
Continuous
 62
     7
370
    25
100
AcDbSpline
210
0.0
220
0.0
230
1.0
 70
     8
 71
     3
 72
    10
 73
     6
 74
     0
 42
0.000000001
 43
0.00000001
 40
0.0
 40
0.0
 40
0.0
 40
0.0
 40
0.4999999999999996
 40
0.4999999999999996
 40
1.0
 40
1.0
 40
1.0
 40
1.0
 10
159.5971745635715
 20
125.3341295963975
 30
0.0
 10
159.628161329113
 20
125.9796260369261
 30
0.0
 10
159.6641821992771
 20
126.5699170113705
 30
0.0
 10
159.7910504821016
 20
127.6399147828704
 30
0.0
 10
159.8814052662365
 20
128.1193221987076
 30
0.0
 10
160.0394356065912
 20
128.542331522928
 30
0.0
  0
SPLINE
  5
13B
330
1F
100
AcDbEntity
  8
0
  6
Continuous
 62
     7
370
    25
100
AcDbSpline
210
0.0
220
0.0
230
1.0
 70
     8
 71
     3
 72
    10
 73
     6
 74
     0
 42
0.000000001
 43
0.00000001
 40
0.0
 40
0.0
 40
0.0
 40
0.0
 40
0.5
 40
0.5
 40
1.0
 40
1.0
 40
1.0
 40
1.0
 10
161.8366498869462
 20
129.4395388472227
 30
0.0
 10
161.2909467488416
 20
129.4395388472228
 30
0.0
 10
160.8949367372273
 20
129.3776553020299
 30
0.0
 10
160.37529365856
 20
129.1148593741901
 30
0.0
 10
160.2405543109686
 20
128.9127383584465
 30
0.0
 10
160.1392096274618
 20
128.6406287565383
 30
0.0
  0
SPLINE
  5
13C
330
1F
100
AcDbEntity
  8
0
  6
Continuous
 62
     7
370
    25
100
AcDbSpline
210
0.0
220
0.0
230
1.0
 70
     8
 71
     3
 72
     9
 73
     5
 74
     0
 42
0.000000001
 43
0.00000001
 40
0.0
 40
0.0
 40
0.0
 40
0.0
 40
0.7080374329839004
 40
1.0
 40
1.0
 40
1.0
 40
1.0
 10
160.0765276942908
 20
128.6177561853823
 30
0.0
 10
160.1015831998864
 20
128.698378723283
 30
0.0
 10
160.136970461108
 20
128.8122463440397
 30
0.0
 10
160.2341624630834
 20
128.8742169756844
 30
0.0
 10
160.2625388894736
 20
128.892310080379
 30
0.0
  0
SPLINE
  5
13D
330
1F
100
AcDbEntity
  8
0
  6
Continuous
 62
     7
370
    25
100
AcDbSpline
210
0.0
220
0.0
230
1.0
 70
     8
 71
     3
 72
    10
 73
     6
 74
     0
 42
0.000000001
 43
0.00000001
 40
0.0
 40
0.0
 40
0.0
 40
0.0
 40
0.5
 40
0.5
 40
1.0
 40
1.0
 40
1.0
 40
1.0
 10
209.9977532520905
 20
128.6406287565383
 30
0.0
 10
209.8962770557542
 20
128.9130914692607
 30
0.0
 10
209.7625319642206
 20
129.1138296785734
 30
0.0
 10
209.2446104929404
 20
129.3769377873643
 30
0.0
 10
208.8491000569555
 20
129.4395388472227
 30
0.0
 10
208.3003129926061
 20
129.4395388472227
 30
0.0
  0
LINE
  5
13E
330
1F
100
AcDbEntity
  8
0
  6
Continuous
 62
     7
370
    25
100
AcDbLine
 10
208.0083832387
 20
129.4395403241
 30
0.0
 11
208.3003137503
 21
129.4395403241
 31
0.0
  0
LINE
  5
13F
330
1F
100
AcDbEntity
  8
0
  6
Continuous
 62
     7
370
    25
100
AcDbLine
 10
161.8366491292
 20
129.4395403241
 30
0.0
 11
162.1285796408
 21
129.4395403241
 31
0.0
  0
SPLINE
  5
140
330
1F
100
AcDbEntity
  8
0
  6
Continuous
 62
     7
370
    25
100
AcDbSpline
210
0.0
220
0.0
230
1.0
 70
     8
 71
     3
 72
     9
 73
     5
 74
     0
 42
0.000000001
 43
0.00000001
 40
0.0
 40
0.0
 40
0.0
 40
0.0
 40
0.5799615280463982
 40
0.9999999999999999
 40
0.9999999999999999
 40
0.9999999999999999
 40
0.9999999999999999
 10
209.6859559659421
 20
129.026986775249
 30
0.0
 10
209.7875362489009
 20
128.9720911624904
 30
0.0
 10
209.9626862856645
 20
128.8774372758033
 30
0.0
 10
210.0316974399258
 20
128.6942770285416
 30
0.0
 10
210.0606847797095
 20
128.6173426781592
 30
0.0
  0
SPLINE
  5
141
330
1F
100
AcDbEntity
  8
0
  6
Continuous
 62
     8
370
    18
100
AcDbSpline
210
0.0
220
0.0
230
1.0
 70
     8
 71
     3
 72
    54
 73
    50
 74
     0
 42
0.000000001
 43
0.00000001
 40
0.0
 40
0.0
 40
0.0
 40
0.0
 40
0.0625000000000002
 40
0.0625000000000002
 40
0.1250000000000003
 40
0.1250000000000003
 40
0.1875000000000005
 40
0.1875000000000005
 40
0.2500000000000007
 40
0.2500000000000007
 40
0.3125000000000007
 40
0.3125000000000007
 40
0.3281250000000007
 40
0.3281250000000007
 40
0.3437500000000006
 40
0.3437500000000006
 40
0.3750000000000007
 40
0.3750000000000007
 40
0.4062500000000008
 40
0.4062500000000008
 40
0.4375000000000009
 40
0.4375000000000009
 40
0.5000000000000011
 40
0.5000000000000011
 40
0.5156250000000011
 40
0.5156250000000011
 40
0.5312500000000012
 40
0.5312500000000012
 40
0.5625000000000012
 40
0.5625000000000012
 40
0.5781250000000012
 40
0.5781250000000012
 40
0.5937500000000011
 40
0.5937500000000011
 40
0.6250000000000011
 40
0.6250000000000011
 40
0.6875000000000009
 40
0.6875000000000009
 40
0.7187500000000008
 40
0.7187500000000008
 40
0.7500000000000007
 40
0.7500000000000007
 40
0.8125000000000004
 40
0.8125000000000004
 40
0.8750000000000003
 40
0.8750000000000003
 40
0.9375000000000001
 40
0.9375000000000001
 40
1.0
 40
1.0
 40
1.0
 40
1.0
 10
185.0684814396706
 20
173.3516899641294
 30
0.0
 10
188.1550094237211
 20
173.3516899641299
 30
0.0
 10
191.2410137209532
 20
173.3516570225226
 30
0.0
 10
197.4110973956197
 20
173.3515655981759
 30
0.0
 10
200.4951848596272
 20
173.351507297494
 30
0.0
 10
206.6600999665166
 20
173.3514167650436
 30
0.0
 10
209.7409431102236
 20
173.3513855612736
 30
0.0
 10
215.8972329370545
 20
173.3513972957189
 30
0.0
 10
218.9727118285838
 20
173.351444251887
 30
0.0
 10
225.114664932829
 20
173.3515924808376
 30
0.0
 10
228.1812127130575
 20
173.3517009080757
 30
0.0
 10
232.0046787875366
 20
173.3516856523204
 30
0.0
 10
232.7688754175818
 20
173.3516774215246
 30
0.0
 10
234.2961198377254
 20
173.3516580461215
 30
0.0
 10
235.0595299752029
 20
173.3516469308333
 30
0.0
 10
237.3362953029721
 20
173.3516193455949
 30
0.0
 10
238.8396823537284
 20
173.3516106275697
 30
0.0
 10
241.8089151363056
 20
173.3516332689937
 30
0.0
 10
243.2747874010266
 20
173.3516678058765
 30
0.0
 10
246.1576405793536
 20
173.351700182308
 30
0.0
 10
247.5751621162747
 20
173.3517318388192
 30
0.0
 10
251.7291822449544
 20
173.3519004498253
 30
0.0
 10
254.2479029493223
 20
173.3517057390337
 30
0.0
 10
257.0126137022727
 20
173.3516865096699
 30
0.0
 10
257.5488393320027
 20
173.3517134293249
 30
0.0
 10
258.5670808856489
 20
173.3517741337129
 30
0.0
 10
259.0498522318355
 20
173.3518073306402
 30
0.0
 10
260.424034736156
 20
173.3518698188147
 30
0.0
 10
261.2412821879482
 20
173.3518516773672
 30
0.0
 10
262.3397718235175
 20
173.3517715635057
 30
0.0
 10
262.6847168247849
 20
173.3517388692398
 30
0.0
 10
263.3357058290996
 20
173.3516932653692
 30
0.0
 10
263.6407691497889
 20
173.3516930479111
 30
0.0
 10
264.494700611135
 20
173.3516737262686
 30
0.0
 10
264.9860977467308
 20
173.3516373085705
 30
0.0
 10
266.2840674320635
 20
173.351597537649
 30
0.0
 10
266.9176520246628
 20
173.3516702776516
 30
0.0
 10
267.6666289505561
 20
173.3516959025769
 30
0.0
 10
267.8815421615832
 20
173.351674526353
 30
0.0
 10
268.2568385223976
 20
173.3516053282553
 30
0.0
 10
268.4175185324652
 20
173.3515618636443
 30
0.0
 10
268.8378218894358
 20
173.351448558815
 30
0.0
 10
269.0367288446276
 20
173.3513991017481
 30
0.0
 10
269.3383490541963
 20
173.3513845103118
 30
0.0
 10
269.4404831051665
 20
173.3514151394836
 30
0.0
 10
269.586528370359
 20
173.3515056188321
 30
0.0
 10
269.6302060364
 20
173.3515643736153
 30
0.0
 10
269.6833753112988
 20
173.3516566387434
 30
0.0
 10
269.6927151993889
 20
173.3516899641299
 30
0.0
 10
269.6927151991943
 20
173.3516899641294
 30
0.0
  0
SPLINE
  5
142
330
1F
100
AcDbEntity
  8
0
  6
Continuous
 62
     8
370
    18
100
AcDbSpline
210
0.0
220
0.0
230
1.0
 70
     8
 71
     3
 72
    52
 73
    48
 74
     0
 42
0.000000001
 43
0.00000001
 40
0.0
 40
0.0
 40
0.0
 40
0.0
 40
0.1249999999999993
 40
0.1249999999999993
 40
0.1874999999999989
 40
0.1874999999999989
 40
0.2499999999999986
 40
0.2499999999999986
 40
0.3124999999999982
 40
0.3124999999999982
 40
0.3437499999999981
 40
0.3437499999999981
 40
0.3749999999999981
 40
0.3749999999999981
 40
0.406249999999998
 40
0.406249999999998
 40
0.4374999999999979
 40
0.4374999999999979
 40
0.4531249999999979
 40
0.4531249999999979
 40
0.4687499999999978
 40
0.4687499999999978
 40
0.4999999999999976
 40
0.4999999999999976
 40
0.5156249999999974
 40
0.5156249999999974
 40
0.5312499999999973
 40
0.5312499999999973
 40
0.5624999999999972
 40
0.5624999999999972
 40
0.5781249999999972
 40
0.5781249999999972
 40
0.5937499999999972
 40
0.5937499999999972
 40
0.6249999999999974
 40
0.6249999999999974
 40
0.6562499999999978
 40
0.6562499999999978
 40
0.687499999999998
 40
0.687499999999998
 40
0.7499999999999984
 40
0.7499999999999984
 40
0.8124999999999989
 40
0.8124999999999989
 40
0.8749999999999992
 40
0.8749999999999992
 40
1.0
 40
1.0
 40
1.0
 40
1.0
 10
185.06848143984
 20
169.1097550466918
 30
0.0
 10
190.9490052270921
 20
169.1097550442668
 30
0.0
 10
196.8288441963001
 20
169.1097542148751
 30
0.0
 10
205.6441355427475
 20
169.1097533102762
 30
0.0
 10
208.581799668995
 20
169.1097530780753
 30
0.0
 10
214.4545894184975
 20
169.1097530423407
 30
0.0
 10
217.3897247188249
 20
169.1097532583727
 30
0.0
 10
223.2559350880918
 20
169.1097541163501
 30
0.0
 10
226.1870360804483
 20
169.1097548376829
 30
0.0
 10
230.5787568492094
 20
169.1097550842596
 30
0.0
 10
232.0418252278312
 20
169.1097549524629
 30
0.0
 10
234.9657481968627
 20
169.1097546784294
 30
0.0
 10
236.4176924892404
 20
169.1097545417752
 30
0.0
 10
239.2897283738818
 20
169.109754537807
 30
0.0
 10
240.7105869936652
 20
169.1097546928765
 30
0.0
 10
243.5111644376249
 20
169.1097550303511
 30
0.0
 10
244.8909386470827
 20
169.1097550078578
 30
0.0
 10
246.917675888028
 20
169.1097556153389
 30
0.0
 10
247.5869988975448
 20
169.1097558395857
 30
0.0
 10
248.8873832809109
 20
169.1097561015717
 30
0.0
 10
249.5209515422514
 20
169.1097561371373
 30
0.0
 10
251.3671155686001
 20
169.1097558840799
 30
0.0
 10
252.5248711531614
 20
169.1097550883677
 30
0.0
 10
254.1363342705726
 20
169.1097549875042
 30
0.0
 10
254.6549852218807
 20
169.1097552122029
 30
0.0
 10
255.6313868454941
 20
169.1097556716271
 30
0.0
 10
256.0908288466974
 20
169.1097559011211
 30
0.0
 10
257.3894276516064
 20
169.1097562346817
 30
0.0
 10
258.1488553795133
 20
169.1097559011678
 30
0.0
 10
259.1577454449703
 20
169.1097552805487
 30
0.0
 10
259.4732083012614
 20
169.1097550779082
 30
0.0
 10
260.0607272269283
 20
169.109754973583
 30
0.0
 10
260.3327030331162
 20
169.1097549641608
 30
0.0
 10
261.0932417122945
 20
169.109754716625
 30
0.0
 10
261.5269654168877
 20
169.10975454041
 30
0.0
 10
262.2880095681591
 20
169.1097545122596
 30
0.0
 10
262.615134865503
 20
169.1097546356213
 30
0.0
 10
263.190059322026
 20
169.1097549069939
 30
0.0
 10
263.4378294706044
 20
169.1097550541104
 30
0.0
 10
264.0902643103486
 20
169.1097548729344
 30
0.0
 10
264.4037823275371
 20
169.1097541355538
 30
0.0
 10
264.8930813908888
 20
169.1097532490341
 30
0.0
 10
265.0675982560895
 20
169.1097530157849
 30
0.0
 10
265.3331145994549
 20
169.1097530304213
 30
0.0
 10
265.4235884665937
 20
169.109753257575
 30
0.0
 10
265.6183118788729
 20
169.1097541559274
 30
0.0
 10
265.648849364589
 20
169.1097549909183
 30
0.0
 10
265.6488493400885
 20
169.1097549884933
 30
0.0
  0
SPLINE
  5
143
330
1F
100
AcDbEntity
  8
0
  6
Continuous
 62
     8
370
    18
100
AcDbSpline
210
0.0
220
0.0
230
1.0
 70
     8
 71
     3
 72
    54
 73
    50
 74
     0
 42
0.000000001
 43
0.00000001
 40
0.0
 40
0.0
 40
0.0
 40
0.0
 40
0.0625000000000005
 40
0.0625000000000005
 40
0.1250000000000011
 40
0.1250000000000011
 40
0.1875000000000016
 40
0.1875000000000016
 40
0.2500000000000022
 40
0.2500000000000022
 40
0.3125000000000027
 40
0.3125000000000027
 40
0.3281250000000028
 40
0.3281250000000028
 40
0.3437500000000029
 40
0.3437500000000029
 40
0.375000000000003
 40
0.375000000000003
 40
0.4062500000000032
 40
0.4062500000000032
 40
0.4375000000000033
 40
0.4375000000000033
 40
0.5000000000000034
 40
0.5000000000000034
 40
0.5156250000000036
 40
0.5156250000000036
 40
0.5312500000000037
 40
0.5312500000000037
 40
0.5625000000000039
 40
0.5625000000000039
 40
0.5781250000000039
 40
0.5781250000000039
 40
0.5937500000000038
 40
0.5937500000000038
 40
0.6250000000000036
 40
0.6250000000000036
 40
0.687500000000003
 40
0.687500000000003
 40
0.7187500000000027
 40
0.7187500000000027
 40
0.7500000000000023
 40
0.7500000000000023
 40
0.8125000000000018
 40
0.8125000000000018
 40
0.8750000000000012
 40
0.8750000000000012
 40
0.9375000000000007
 40
0.9375000000000007
 40
1.0
 40
1.0
 40
1.0
 40
1.0
 10
100.4442476803574
 20
173.3516899641294
 30
0.0
 10
100.444247680228
 20
173.3516899641299
 30
0.0
 10
100.4534877837074
 20
173.3516570225226
 30
0.0
 10
100.5059319140616
 20
173.3515655981759
 30
0.0
 10
100.5489932587591
 20
173.3515072974939
 30
0.0
 10
100.6926333141936
 20
173.3514167650436
 30
0.0
 10
100.7929385232436
 20
173.3513855612736
 30
0.0
 10
101.0887658836113
 20
173.3513972957191
 30
0.0
 10
101.2837197391828
 20
173.3514442518874
 30
0.0
 10
101.8325089921978
 20
173.3515924808381
 30
0.0
 10
102.1850463401228
 20
173.3517009080763
 30
0.0
 10
102.7971971231774
 20
173.3516856523201
 30
0.0
 10
102.9283891876239
 20
173.3516774215241
 30
0.0
 10
103.2110438297535
 20
173.3516580461207
 30
0.0
 10
103.362612079328
 20
173.3516469308324
 30
0.0
 10
103.8500014261024
 20
173.3516193455936
 30
0.0
 10
104.2188616821323
 20
173.3516106275683
 30
0.0
 10
105.0706721266448
 20
173.3516332689923
 30
0.0
 10
105.553541680239
 20
173.3516678058754
 30
0.0
 10
106.6678640337197
 20
173.3517001823082
 30
0.0
 10
107.2994235540605
 20
173.3517318388203
 30
0.0
 10
109.4830195211187
 20
173.3519004498273
 30
0.0
 10
111.2679745745269
 20
173.351705739034
 30
0.0
 10
114.0031868613038
 20
173.3516865096699
 30
0.0
 10
114.5780810029191
 20
173.3517134293248
 30
0.0
 10
115.7611899137381
 20
173.3517741337123
 30
0.0
 10
116.3696331658477
 20
173.3518073306393
 30
0.0
 10
118.2424778923005
 20
173.3518698188133
 30
0.0
 10
119.5544149576229
 20
173.3518516773656
 30
0.0
 10
121.6039663792191
 20
173.3517715635045
 30
0.0
 10
122.3007501024708
 20
173.3517388692387
 30
0.0
 10
123.719251334444
 20
173.3516932653689
 30
0.0
 10
124.4390184332219
 20
173.3516930479111
 30
0.0
 10
126.6085693970069
 20
173.3516737262696
 30
0.0
 10
128.0758158498978
 20
173.3516373085718
 30
0.0
 10
132.5247927844404
 20
173.3515975376505
 30
0.0
 10
135.5528940067915
 20
173.3516702776524
 30
0.0
 10
140.1490326356461
 20
173.3516959025768
 30
0.0
 10
141.6893985950526
 20
173.3516745263526
 30
0.0
 10
144.7704353274015
 20
173.3516053282547
 30
0.0
 10
146.3131297643418
 20
173.3515618636438
 30
0.0
 10
150.9461946286467
 20
173.3514485588146
 30
0.0
 10
154.0414642826736
 20
173.351399101748
 30
0.0
 10
160.239765494418
 20
173.3513845103117
 30
0.0
 10
163.3433169727151
 20
173.3514151394837
 30
0.0
 10
169.5495056672804
 20
173.3515056188322
 30
0.0
 10
172.6529971382045
 20
173.3515643736154
 30
0.0
 10
178.860442718377
 20
173.3516566387435
 30
0.0
 10
181.9643988808561
 20
173.3516899641299
 30
0.0
 10
185.0684814399318
 20
173.3516899641294
 30
0.0
  0
SPLINE
  5
144
330
1F
100
AcDbEntity
  8
0
  6
Continuous
 62
     8
370
    18
100
AcDbSpline
210
0.0
220
0.0
230
1.0
 70
     8
 71
     3
 72
    52
 73
    48
 74
     0
 42
0.000000001
 43
0.00000001
 40
0.0
 40
0.0
 40
0.0
 40
0.0
 40
0.1249999999999978
 40
0.1249999999999978
 40
0.1874999999999968
 40
0.1874999999999968
 40
0.2499999999999957
 40
0.2499999999999957
 40
0.3124999999999947
 40
0.3124999999999947
 40
0.3437499999999943
 40
0.3437499999999943
 40
0.3749999999999938
 40
0.3749999999999938
 40
0.4062499999999934
 40
0.4062499999999934
 40
0.437499999999993
 40
0.437499999999993
 40
0.4531249999999929
 40
0.4531249999999929
 40
0.4687499999999928
 40
0.4687499999999928
 40
0.4999999999999928
 40
0.4999999999999928
 40
0.515624999999993
 40
0.515624999999993
 40
0.5312499999999931
 40
0.5312499999999931
 40
0.5624999999999936
 40
0.5624999999999936
 40
0.5781249999999938
 40
0.5781249999999938
 40
0.5937499999999939
 40
0.5937499999999939
 40
0.6249999999999942
 40
0.6249999999999942
 40
0.6562499999999947
 40
0.6562499999999947
 40
0.687499999999995
 40
0.687499999999995
 40
0.7499999999999959
 40
0.7499999999999959
 40
0.8124999999999969
 40
0.8124999999999969
 40
0.8749999999999979
 40
0.8749999999999979
 40
1.0
 40
1.0
 40
1.0
 40
1.0
 10
104.4881123832808
 20
169.1097551046856
 30
0.0
 10
104.4881124070791
 20
169.1097551022692
 30
0.0
 10
104.5184101740312
 20
169.1097542728839
 30
0.0
 10
104.7099147157413
 20
169.1097533682955
 30
0.0
 10
104.7987699262377
 20
169.1097531360982
 30
0.0
 10
105.0591391409183
 20
169.109753100372
 30
0.0
 10
105.2301524201976
 20
169.1097533164088
 30
0.0
 10
105.709134213013
 20
169.109754174397
 30
0.0
 10
106.015861184464
 20
169.109754895736
 30
0.0
 10
106.6537418286125
 20
169.1097551423196
 30
0.0
 10
106.8964578272437
 20
169.1097550105248
 30
0.0
 10
107.4636780605741
 20
169.1097547364948
 30
0.0
 10
107.7864982052659
 20
169.1097545998424
 30
0.0
 10
108.5355087989909
 20
169.1097545958785
 30
0.0
 10
108.9616857333593
 20
169.1097547509505
 30
0.0
 10
109.9541091872216
 20
169.1097550884302
 30
0.0
 10
110.5201996338217
 20
169.1097550659391
 30
0.0
 10
111.5134029336457
 20
169.1097556734248
 30
0.0
 10
111.8694916586007
 20
169.1097558976733
 30
0.0
 10
112.6252633340648
 20
169.1097561596621
 30
0.0
 10
113.0260839762458
 20
169.1097561952289
 30
0.0
 10
114.3028982343021
 20
169.109755942174
 30
0.0
 10
115.2537564575119
 20
169.1097551464619
 30
0.0
 10
116.8450964490928
 20
169.1097550456014
 30
0.0
 10
117.4059402070795
 20
169.1097552703017
 30
0.0
 10
118.561492343312
 20
169.1097557297291
 30
0.0
 10
119.1573276006246
 20
169.1097559592249
 30
0.0
 10
120.9940186049549
 20
169.1097562927895
 30
0.0
 10
122.2839521817785
 20
169.1097559592768
 30
0.0
 10
124.2972070273339
 20
169.1097553386594
 30
0.0
 10
124.9834793122285
 20
169.1097551360195
 30
0.0
 10
126.3677012160313
 20
169.1097550316961
 30
0.0
 10
127.0649976036639
 20
169.109755022275
 30
0.0
 10
129.1698370855055
 20
169.1097547747417
 30
0.0
 10
130.5902444905815
 20
169.1097545985284
 30
0.0
 10
133.4559130529514
 20
169.1097545703822
 30
0.0
 10
134.9012321925793
 20
169.1097546937464
 30
0.0
 10
137.8105002324973
 20
169.1097549651238
 30
0.0
 10
139.2750697547452
 20
169.1097551122429
 30
0.0
 10
143.686428012521
 20
169.1097549310728
 30
0.0
 10
146.6336401883686
 20
169.1097541936945
 30
0.0
 10
152.5355211232275
 20
169.1097533071811
 30
0.0
 10
155.4902462118876
 20
169.1097530739356
 30
0.0
 10
161.404311284749
 20
169.1097530885805
 30
0.0
 10
164.3637424989925
 20
169.1097533157391
 30
0.0
 10
173.238467621986
 20
169.1097542141067
 30
0.0
 10
179.1537781654496
 20
169.1097550491082
 30
0.0
 10
185.0684814396783
 20
169.1097550466918
 30
0.0
  0
SPLINE
  5
145
330
1F
100
AcDbEntity
  8
0
  6
Continuous
 62
     8
370
    18
100
AcDbSpline
210
0.0
220
0.0
230
1.0
 70
     8
 71
     3
 72
    18
 73
    14
 74
     0
 42
0.000000001
 43
0.00000001
 40
0.0
 40
0.0
 40
0.0
 40
0.0
 40
0.2499999999999993
 40
0.2499999999999993
 40
0.374999999999999
 40
0.374999999999999
 40
0.4374999999999988
 40
0.4374999999999988
 40
0.4999999999999987
 40
0.4999999999999987
 40
0.7499999999999993
 40
0.7499999999999993
 40
1.0
 40
1.0
 40
1.0
 40
1.0
 10
185.0684793411434
 20
121.8205902293316
 30
0.0
 10
187.3135895862965
 20
121.8206075654858
 30
0.0
 10
189.5250362712827
 20
121.8891524676189
 30
0.0
 10
192.7942494700528
 20
122.0864774930651
 30
0.0
 10
193.8759567939169
 20
122.1680174172861
 30
0.0
 10
195.4864561322242
 20
122.3130490102118
 30
0.0
 10
196.0212766726708
 20
122.3651805210446
 30
0.0
 10
197.0868612730014
 20
122.4768725769179
 30
0.0
 10
197.6188503615498
 20
122.5365834759321
 30
0.0
 10
200.2522788332369
 20
122.8513763944207
 30
0.0
 10
202.2655891124577
 20
123.1535006172763
 30
0.0
 10
206.1181005131494
 20
123.8337938553623
 30
0.0
 10
207.9572433950742
 20
124.212070383678
 30
0.0
 10
209.7083028365452
 20
124.6178080282127
 30
0.0
  0
SPLINE
  5
146
330
1F
100
AcDbEntity
  8
0
  6
Continuous
 62
     8
370
    18
100
AcDbSpline
210
0.0
220
0.0
230
1.0
 70
     8
 71
     3
 72
    18
 73
    14
 74
     0
 42
0.000000001
 43
0.00000001
 40
0.0
 40
0.0
 40
0.0
 40
0.0
 40
0.2500000000000003
 40
0.2500000000000003
 40
0.5000000000000006
 40
0.5000000000000006
 40
0.5625000000000004
 40
0.5625000000000004
 40
0.6250000000000002
 40
0.6250000000000002
 40
0.7500000000000001
 40
0.7500000000000001
 40
1.0
 40
1.0
 40
1.0
 40
1.0
 10
209.7691637053418
 20
124.5220876586646
 30
0.0
 10
208.0134171855246
 20
124.1165356717356
 30
0.0
 10
206.1694302655728
 20
123.7384620986433
 30
0.0
 10
202.306993697008
 20
123.0585807553499
 30
0.0
 10
200.2886014274091
 20
122.7566659435301
 30
0.0
 10
197.6487101035033
 20
122.4421131805682
 30
0.0
 10
197.1154301959937
 20
122.3824497371757
 30
0.0
 10
196.0472618251683
 20
122.2708467400013
 30
0.0
 10
195.5111481739149
 20
122.2187573121357
 30
0.0
 10
193.8967661594527
 20
122.0738440137793
 30
0.0
 10
192.8124659330225
 20
121.9923723557593
 30
0.0
 10
189.5354630424247
 20
121.7952151078259
 30
0.0
 10
187.3188086288078
 20
121.7267327645202
 30
0.0
 10
185.0684814397762
 20
121.726713400617
 30
0.0
  0
LWPOLYLINE
  5
147
330
1F
100
AcDbEntity
  8
0
  6
Continuous
 62
     8
370
    18
100
AcDbPolyline
 90
        9
 70
   128
 43
0.0
 10
185.0684793411
 20
121.8205915068
 10
185.0684796804
 20
121.8142659639
 10
185.0684800118
 20
121.805913863
 10
185.0684803277
 20
121.7957289194
 10
185.0684806207
 20
121.7839495514
 10
185.0684808841
 20
121.7708402549
 10
185.0684811118
 20
121.7567102288
 10
185.0684812985
 20
121.7418872987
 10
185.0684814398
 20
121.7267141913
  0
SPLINE
  5
148
330
1F
100
AcDbEntity
  8
0
  6
Continuous
 62
     8
370
    18
100
AcDbSpline
210
0.0
220
0.0
230
1.0
 70
     8
 71
     3
 72
    25
 73
    21
 74
     0
 42
0.000000001
 43
0.00000001
 40
0.0
 40
0.0
 40
0.0
 40
0.0
 40
0.015625
 40
0.015625
 40
0.03125
 40
0.0625
 40
0.0625
 40
0.125
 40
0.125
 40
0.2499999999999999
 40
0.2499999999999999
 40
0.3749999999999998
 40
0.3749999999999998
 40
0.4374999999999998
 40
0.4374999999999998
 40
0.4999999999999999
 40
0.4999999999999999
 40
0.7499999999999999
 40
0.7499999999999999
 40
1.0
 40
1.0
 40
1.0
 40
1.0
 10
185.0684814397762
 20
121.726713400617
 30
0.0
 10
184.9298365007579
 20
121.726714631272
 30
0.0
 10
184.7873241435111
 20
121.7269835387103
 30
0.0
 10
184.5065622110761
 20
121.7280539345737
 30
0.0
 10
184.0858148603751
 20
121.7304583425607
 30
0.0
 10
183.6662480703875
 20
121.7352462212635
 30
0.0
 10
182.8286741299022
 20
121.7479660061946
 30
0.0
 10
182.2723704231859
 20
121.7606376842043
 30
0.0
 10
180.6096027349342
 20
121.8109648072853
 30
0.0
 10
179.5092730583145
 20
121.8609292870443
 30
0.0
 10
177.3247052638139
 20
121.9923582575285
 30
0.0
 10
176.2404670289589
 20
122.0738231241452
 30
0.0
 10
174.62619458015
 20
122.2187215267303
 30
0.0
 10
174.0901202168531
 20
122.2708052054759
 30
0.0
 10
173.0220358522139
 20
122.3823949078346
 30
0.0
 10
172.4888225771379
 20
122.4420478302423
 30
0.0
 10
169.8486918917528
 20
122.7566164024368
 30
0.0
 10
167.8301704801205
 20
123.0585475181975
 30
0.0
 10
163.9675683510045
 20
123.7384536121636
 30
0.0
 10
162.1235453643168
 20
124.116535747894
 30
0.0
 10
160.3677991742117
 20
124.5220876586643
 30
0.0
  0
SPLINE
  5
149
330
1F
100
AcDbEntity
  8
0
  6
Continuous
 62
     8
370
    18
100
AcDbSpline
210
0.0
220
0.0
230
1.0
 70
     8
 71
     3
 72
    18
 73
    14
 74
     0
 42
0.000000001
 43
0.00000001
 40
0.0
 40
0.0
 40
0.0
 40
0.0
 40
0.2499999999999998
 40
0.2499999999999998
 40
0.4999999999999997
 40
0.4999999999999997
 40
0.5624999999999997
 40
0.5624999999999997
 40
0.6249999999999996
 40
0.6249999999999996
 40
0.7499999999999997
 40
0.7499999999999997
 40
1.0
 40
1.0
 40
1.0
 40
1.0
 10
160.4286027340504
 20
124.6178213072772
 30
0.0
 10
162.179664110475
 20
124.212082165661
 30
0.0
 10
164.0188458362392
 20
123.8337954825382
 30
0.0
 10
167.8715293120424
 20
123.1534744423111
 30
0.0
 10
169.884972469785
 20
122.8513324543024
 30
0.0
 10
172.5186456498004
 20
122.5365221138471
 30
0.0
 10
173.0505697467512
 20
122.4768214077323
 30
0.0
 10
174.1160730663712
 20
122.3651420728719
 30
0.0
 10
174.6508556818126
 20
122.3130160412488
 30
0.0
 10
176.2612495433201
 20
122.1679985865215
 30
0.0
 10
177.3428976014536
 20
122.0864650181573
 30
0.0
 10
180.6119677759201
 20
121.8891526977443
 30
0.0
 10
182.8233651943309
 20
121.8206076510497
 30
0.0
 10
185.0684793411434
 20
121.8205902293641
 30
0.0
  0
SPLINE
  5
14A
330
1F
100
AcDbEntity
  8
0
  6
Continuous
 62
     8
370
    18
100
AcDbSpline
210
0.0
220
0.0
230
1.0
 70
     8
 71
     3
 72
     8
 73
     4
 74
     0
 42
0.000000001
 43
0.00000001
 40
0.0000000000000248
 40
0.0000000000000248
 40
0.0000000000000248
 40
0.0000000000000248
 40
0.0012950084904912
 40
0.0012950084904912
 40
0.0012950084904912
 40
0.0012950084904912
 10
210.4560608529443
 20
125.0742877322747
 30
0.0
 10
210.4508537932121
 20
125.1947814607913
 30
0.0
 10
210.4454621368673
 20
125.3134866257057
 30
0.0
 10
210.4398122240083
 20
125.4303963134943
 30
0.0
  0
SPLINE
  5
14B
330
1F
100
AcDbEntity
  8
0
  6
Continuous
 62
     8
370
    18
100
AcDbSpline
210
0.0
220
0.0
230
1.0
 70
     8
 71
     3
 72
    12
 73
     8
 74
     0
 42
0.000000001
 43
0.00000001
 40
0.0
 40
0.0
 40
0.0
 40
0.0
 40
0.5000000000000062
 40
0.5000000000000062
 40
0.7500000000000031
 40
0.7500000000000031
 40
1.0
 40
1.0
 40
1.0
 40
1.0
 10
209.7083030641577
 20
124.6178079459314
 30
0.0
 10
209.948839177407
 20
124.6735427061828
 30
0.0
 10
210.1395713738697
 20
124.7450654309378
 30
0.0
 10
210.3307653898126
 20
124.863006503002
 30
0.0
 10
210.3796466328986
 20
124.9048230509381
 30
0.0
 10
210.4427921407766
 20
124.9888183513113
 30
0.0
 10
210.4579174722817
 20
125.0313071447236
 30
0.0
 10
210.4560607514961
 20
125.0742877319332
 30
0.0
  0
SPLINE
  5
14C
330
1F
100
AcDbEntity
  8
0
  6
Continuous
 62
     8
370
    18
100
AcDbSpline
210
0.0
220
0.0
230
1.0
 70
     8
 71
     3
 72
    12
 73
     8
 74
     0
 42
0.000000001
 43
0.00000001
 40
0.0
 40
0.0
 40
0.0
 40
0.0
 40
0.5000000000000014
 40
0.5000000000000014
 40
0.7500000000000007
 40
0.7500000000000007
 40
1.0
 40
1.0
 40
1.0
 40
1.0
 10
159.6809022214551
 20
125.0742898936544
 30
0.0
 10
159.6771872722153
 20
124.9883205063774
 30
0.0
 10
159.7428504065557
 20
124.901967046479
 30
0.0
 10
159.9342003758516
 20
124.7841042759093
 30
0.0
 10
160.0148744916386
 20
124.7460699454946
 30
0.0
 10
160.2018676116052
 20
124.6770434963982
 30
0.0
 10
160.30830996439
 20
124.6456964322107
 30
0.0
 10
160.4286025073361
 20
124.6178212253273
 30
0.0
  0
SPLINE
  5
14D
330
1F
100
AcDbEntity
  8
0
  6
Continuous
 62
     8
370
    18
100
AcDbSpline
210
0.0
220
0.0
230
1.0
 70
     8
 71
     3
 72
     8
 73
     4
 74
     0
 42
0.000000001
 43
0.00000001
 40
0.0
 40
0.0
 40
0.0
 40
0.0
 40
0.0012950007461843
 40
0.0012950007461843
 40
0.0012950007461843
 40
0.0012950007461843
 10
159.6971506555441
 20
125.4303963134943
 30
0.0
 10
159.6915007764723
 20
125.3134873248397
 30
0.0
 10
159.686109150593
 20
125.1947828805414
 30
0.0
 10
159.6809021200255
 20
125.0742898939959
 30
0.0
  0
SPLINE
  5
14E
330
1F
100
AcDbEntity
  8
0
  6
Continuous
 62
     8
370
    18
100
AcDbSpline
210
0.0
220
0.0
230
1.0
 70
     8
 71
     3
 72
     9
 73
     5
 74
     0
 42
0.000000001
 43
0.00000001
 40
0.0
 40
0.0
 40
0.0
 40
0.0
 40
0.0310275103877661
 40
1.0
 40
1.0
 40
1.0
 40
1.0
 10
159.5708381627261
 20
107.1800255452094
 30
0.0
 10
159.5707529161957
 20
107.2016802739258
 30
0.0
 10
159.5680054662929
 20
107.8996005532451
 30
0.0
 10
159.5677716081801
 20
108.618064808503
 30
0.0
 10
159.5675450061023
 20
109.3142369066176
 30
0.0
  0
LINE
  5
14F
330
1F
100
AcDbEntity
  8
0
  6
Continuous
 62
     8
370
    18
100
AcDbLine
 10
159.5675394182
 20
109.3220004116
 30
0.0
 11
159.5699087028
 21
114.3611111914
 31
0.0
  0
SPLINE
  5
150
330
1F
100
AcDbEntity
  8
0
  6
Continuous
 62
     8
370
    18
100
AcDbSpline
210
0.0
220
0.0
230
1.0
 70
     8
 71
     3
 72
     9
 73
     5
 74
     0
 42
0.000000001
 43
0.00000001
 40
0.0
 40
0.0
 40
0.0
 40
0.0
 40
0.9082491643030431
 40
1.0
 40
1.0
 40
1.0
 40
1.0
 10
210.5694178734481
 20
109.3142369066176
 30
0.0
 10
210.5691390399299
 20
108.6184675122942
 30
0.0
 10
210.5688320388017
 20
107.8524118728625
 30
0.0
 10
210.5658540567799
 20
107.1082745543203
 30
0.0
 10
210.5655808244406
 20
107.0399993334708
 30
0.0
  0
SPLINE
  5
151
330
1F
100
AcDbEntity
  8
0
  6
Continuous
 62
     8
370
    18
100
AcDbSpline
210
0.0
220
0.0
230
1.0
 70
     8
 71
     3
 72
    12
 73
     8
 74
     0
 42
0.000000001
 43
0.00000001
 40
0.0
 40
0.0
 40
0.0
 40
0.0
 40
0.5000000000000046
 40
0.5000000000000046
 40
0.7500000000000022
 40
0.7500000000000022
 40
1.0
 40
1.0
 40
1.0
 40
1.0
 10
160.3678563983399
 20
124.5220751813128
 30
0.0
 10
160.1187011801637
 20
124.5768891028019
 30
0.0
 10
159.9150296897817
 20
124.64881117625
 30
0.0
 10
159.7134617485204
 20
124.7666141155055
 30
0.0
 10
159.6625492810824
 20
124.8076476251947
 30
0.0
 10
159.5948967610133
 20
124.8925405147789
 30
0.0
 10
159.5789804525726
 20
124.9358635466742
 30
0.0
 10
159.5809100706189
 20
124.9782795523618
 30
0.0
  0
ARC
  5
152
330
1F
100
AcDbEntity
  8
0
  6
Continuous
 62
     8
370
    18
100
AcDbCircle
 10
159.6785613711
 20
124.9766487023
 30
0.0
 40
0.0976654764841327
100
AcDbArc
 50
88.6268101893
 51
179.0441526569
  0
SPLINE
  5
153
330
1F
100
AcDbEntity
  8
0
  6
Continuous
 62
     8
370
    18
100
AcDbSpline
210
0.0
220
0.0
230
1.0
 70
     8
 71
     3
 72
    14
 73
    10
 74
     0
 42
0.000000001
 43
0.00000001
 40
0.0
 40
0.0
 40
0.0
 40
0.0
 40
0.25
 40
0.25
 40
0.5
 40
0.5
 40
0.75
 40
0.75
 40
1.0
 40
1.0
 40
1.0
 40
1.0
 10
210.5560528089334
 20
124.9782795523619
 30
0.0
 10
210.5579829590166
 20
124.935851851604
 30
0.0
 10
210.542059856388
 20
124.8927777040179
 30
0.0
 10
210.4754990549776
 20
124.8087685792768
 30
0.0
 10
210.4239747804095
 20
124.766951578187
 30
0.0
 10
210.2897186535457
 20
124.6883670669972
 30
0.0
 10
210.206599044034
 20
124.6510167480804
 30
0.0
 10
210.0080602122456
 20
124.5812985602942
 30
0.0
 10
209.8937184390242
 20
124.5494896986903
 30
0.0
 10
209.7691064812118
 20
124.522075181313
 30
0.0
  0
SPLINE
  5
154
330
1F
100
AcDbEntity
  8
0
  6
Continuous
 62
     8
370
    18
100
AcDbSpline
210
0.0
220
0.0
230
1.0
 70
     8
 71
     3
 72
    10
 73
     6
 74
     0
 42
0.000000001
 43
0.00000001
 40
0.0
 40
0.0
 40
0.0
 40
0.0
 40
0.5
 40
0.5
 40
1.0
 40
1.0
 40
1.0
 40
1.0
 10
159.5971745635715
 20
125.3341295963975
 30
0.0
 10
159.5971010505604
 20
125.35939054782
 30
0.0
 10
159.6078448869043
 20
125.3844862967922
 30
0.0
 10
159.6448813110448
 20
125.420138749054
 30
0.0
 10
159.6709442200176
 20
125.4304745225695
 30
0.0
 10
159.6971697657495
 20
125.4303962462331
 30
0.0
  0
SPLINE
  5
155
330
1F
100
AcDbEntity
  8
0
  6
Continuous
 62
     8
370
    18
100
AcDbSpline
210
0.0
220
0.0
230
1.0
 70
     8
 71
     3
 72
    10
 73
     6
 74
     0
 42
0.000000001
 43
0.00000001
 40
0.0
 40
0.0
 40
0.0
 40
0.0
 40
0.5
 40
0.5
 40
1.0
 40
1.0
 40
1.0
 40
1.0
 10
210.4397931138226
 20
125.430396245822
 30
0.0
 10
210.4660186595512
 20
125.4304745222268
 30
0.0
 10
210.4920815685208
 20
125.4201387487798
 30
0.0
 10
210.5291179926547
 20
125.3844862966551
 30
0.0
 10
210.5398618289953
 20
125.3593905477514
 30
0.0
 10
210.5397883159809
 20
125.3341295963975
 30
0.0
  0
ENDSEC
  0
SECTION
  2
OBJECTS
  0
DICTIONARY
  5
C
330
0
100
AcDbDictionary
281
     1
  3
ACAD_GROUP
350
D
  3
ACAD_LAYOUT
350
1A
  3
ACAD_MLINESTYLE
350
17
  3
ACAD_PLOTSETTINGS
350
19
  3
ACAD_PLOTSTYLENAME
350
E
  3
ACAD_SCALELIST
350
47
  0
DICTIONARY
  5
D
102
{ACAD_REACTORS
330
C
102
}
330
C
100
AcDbDictionary
281
     1
  0
DICTIONARY
  5
1A
102
{ACAD_REACTORS
330
C
102
}
330
C
100
AcDbDictionary
281
     1
  3
Layout1
350
1E
  3
Layout2
350
26
  3
Model
350
22
  0
DICTIONARY
  5
17
102
{ACAD_REACTORS
330
C
102
}
330
C
100
AcDbDictionary
281
     1
  3
Standard
350
18
  0
DICTIONARY
  5
19
102
{ACAD_REACTORS
330
C
102
}
330
C
100
AcDbDictionary
281
     1
  0
ACDBDICTIONARYWDFLT
  5
E
102
{ACAD_REACTORS
330
C
102
}
330
C
100
AcDbDictionary
281
     1
  3
Normal
350
F
100
AcDbDictionaryWithDefault
340
F
  0
DICTIONARY
  5
47
102
{ACAD_REACTORS
330
C
102
}
330
C
100
AcDbDictionary
281
     1
  3
A0
350
48
  3
A1
350
49
  3
A2
350
4A
  3
A3
350
4B
  3
A4
350
4C
  3
A5
350
4D
  3
A6
350
4E
  3
A7
350
4F
  3
A8
350
50
  3
A9
350
51
  3
B0
350
52
  3
B1
350
53
  3
B2
350
54
  3
B3
350
55
  3
B4
350
56
  3
B5
350
57
  3
B6
350
58
  3
B7
350
59
  3
B8
350
5A
  3
B9
350
5B
  3
C0
350
5C
  3
C1
350
5D
  3
C2
350
5E
  3
C3
350
5F
  3
C4
350
60
  3
C5
350
61
  3
C6
350
62
  3
C7
350
63
  3
C8
350
64
  3
C9
350
65
  3
D0
350
66
  3
D1
350
67
  3
D2
350
68
  0
LAYOUT
  5
1E
102
{ACAD_REACTORS
330
1A
102
}
330
1A
100
AcDbPlotSettings
  1

  2
none_device
  4

  6

 40
0.0
 41
0.0
 42
0.0
 43
0.0
 44
0.0
 45
0.0
 46
0.0
 47
0.0
 48
0.0
 49
0.0
140
0.0
141
0.0
142
1.0
143
1.0
 70
   688
 72
     1
 73
     0
 74
     5
  7

 75
    16
147
1.0
148
0.0
149
0.0
100
AcDbLayout
  1
Layout1
 70
     1
 71
     1
 10
0.0
 20
0.0
 11
420.0
 21
297.0
 12
0.0
 22
0.0
 32
0.0
 14
1.0000000000E+20
 24
1.0000000000E+20
 34
1.0000000000E+20
 15
-1.0000000000E+20
 25
-1.0000000000E+20
 35
-1.0000000000E+20
146
0.0
 13
0.0
 23
0.0
 33
0.0
 16
1.0
 26
0.0
 36
0.0
 17
0.0
 27
1.0
 37
0.0
 76
     0
330
1B
  0
LAYOUT
  5
26
102
{ACAD_REACTORS
330
1A
102
}
330
1A
100
AcDbPlotSettings
  1

  2
none_device
  4

  6

 40
0.0
 41
0.0
 42
0.0
 43
0.0
 44
0.0
 45
0.0
 46
0.0
 47
0.0
 48
0.0
 49
0.0
140
0.0
141
0.0
142
1.0
143
1.0
 70
   688
 72
     1
 73
     0
 74
     5
  7

 75
    16
147
1.0
148
0.0
149
0.0
100
AcDbLayout
  1
Layout2
 70
     1
 71
     2
 10
0.0
 20
0.0
 11
0.0
 21
0.0
 12
0.0
 22
0.0
 32
0.0
 14
0.0
 24
0.0
 34
0.0
 15
0.0
 25
0.0
 35
0.0
146
0.0
 13
0.0
 23
0.0
 33
0.0
 16
1.0
 26
0.0
 36
0.0
 17
0.0
 27
1.0
 37
0.0
 76
     0
330
23
  0
LAYOUT
  5
22
102
{ACAD_REACTORS
330
1A
102
}
330
1A
100
AcDbPlotSettings
  1

  2
none_device
  4
Letter_(8.50_x_11.00_Inches)
  6

 40
6.35
 41
6.35
 42
6.35000508
 43
6.35000508
 44
215.9
 45
279.4
 46
0.0
 47
0.0
 48
0.0
 49
0.0
140
0.0
141
0.0
142
1.0
143
1.0
 70
  1712
 72
     1
 73
     0
 74
     0
  7

 75
     0
147
1.0
148
0.0
149
0.0
100
AcDbLayout
  1
Model
 70
     1
 71
     0
 10
0.0
 20
0.0
 11
594.0
 21
841.0
 12
0.0
 22
0.0
 32
0.0
 14
0.0
 24
0.0
 34
0.0
 15
594.0
 25
841.0
 35
0.0
146
0.0
 13
0.0
 23
0.0
 33
0.0
 16
1.0
 26
0.0
 36
0.0
 17
0.0
 27
1.0
 37
0.0
 76
     0
330
1F
331
29
  0
MLINESTYLE
  5
18
102
{ACAD_REACTORS
330
17
102
}
330
17
100
AcDbMlineStyle
  2
Standard
 70
     0
  3

 62
   256
 51
90.0
 52
90.0
 71
     2
 49
0.5
 62
   256
  6
BYLAYER
 49
-0.5
 62
   256
  6
BYLAYER
  0
ACDBPLACEHOLDER
  5
F
102
{ACAD_REACTORS
330
E
102
}
330
E
  0
SCALE
  5
48
102
{ACAD_REACTORS
330
47
102
}
330
47
100
AcDbScale
 70
     0
300
1:1
140
1.0
141
1.0
290
     1
  0
SCALE
  5
49
102
{ACAD_REACTORS
330
47
102
}
330
47
100
AcDbScale
 70
     0
300
1:2
140
1.0
141
2.0
290
     0
  0
SCALE
  5
4A
102
{ACAD_REACTORS
330
47
102
}
330
47
100
AcDbScale
 70
     0
300
1:4
140
1.0
141
4.0
290
     0
  0
SCALE
  5
4B
102
{ACAD_REACTORS
330
47
102
}
330
47
100
AcDbScale
 70
     0
300
1:5
140
1.0
141
5.0
290
     0
  0
SCALE
  5
4C
102
{ACAD_REACTORS
330
47
102
}
330
47
100
AcDbScale
 70
     0
300
1:8
140
1.0
141
8.0
290
     0
  0
SCALE
  5
4D
102
{ACAD_REACTORS
330
47
102
}
330
47
100
AcDbScale
 70
     0
300
1:10
140
1.0
141
10.0
290
     0
  0
SCALE
  5
4E
102
{ACAD_REACTORS
330
47
102
}
330
47
100
AcDbScale
 70
     0
300
1:16
140
1.0
141
16.0
290
     0
  0
SCALE
  5
4F
102
{ACAD_REACTORS
330
47
102
}
330
47
100
AcDbScale
 70
     0
300
1:20
140
1.0
141
20.0
290
     0
  0
SCALE
  5
50
102
{ACAD_REACTORS
330
47
102
}
330
47
100
AcDbScale
 70
     0
300
1:30
140
1.0
141
30.0
290
     0
  0
SCALE
  5
51
102
{ACAD_REACTORS
330
47
102
}
330
47
100
AcDbScale
 70
     0
300
1:40
140
1.0
141
40.0
290
     0
  0
SCALE
  5
52
102
{ACAD_REACTORS
330
47
102
}
330
47
100
AcDbScale
 70
     0
300
1:50
140
1.0
141
50.0
290
     0
  0
SCALE
  5
53
102
{ACAD_REACTORS
330
47
102
}
330
47
100
AcDbScale
 70
     0
300
1:100
140
1.0
141
100.0
290
     0
  0
SCALE
  5
54
102
{ACAD_REACTORS
330
47
102
}
330
47
100
AcDbScale
 70
     0
300
2:1
140
2.0
141
1.0
290
     0
  0
SCALE
  5
55
102
{ACAD_REACTORS
330
47
102
}
330
47
100
AcDbScale
 70
     0
300
4:1
140
4.0
141
1.0
290
     0
  0
SCALE
  5
56
102
{ACAD_REACTORS
330
47
102
}
330
47
100
AcDbScale
 70
     0
300
8:1
140
8.0
141
1.0
290
     0
  0
SCALE
  5
57
102
{ACAD_REACTORS
330
47
102
}
330
47
100
AcDbScale
 70
     0
300
10:1
140
10.0
141
1.0
290
     0
  0
SCALE
  5
58
102
{ACAD_REACTORS
330
47
102
}
330
47
100
AcDbScale
 70
     0
300
100:1
140
100.0
141
1.0
290
     0
  0
SCALE
  5
59
102
{ACAD_REACTORS
330
47
102
}
330
47
100
AcDbScale
 70
     0
300
1/128" = 1'-0"
140
0.0078125
141
12.0
290
     0
  0
SCALE
  5
5A
102
{ACAD_REACTORS
330
47
102
}
330
47
100
AcDbScale
 70
     0
300
1/64" = 1'-0"
140
0.015625
141
12.0
290
     0
  0
SCALE
  5
5B
102
{ACAD_REACTORS
330
47
102
}
330
47
100
AcDbScale
 70
     0
300
1/32" = 1'-0"
140
0.03125
141
12.0
290
     0
  0
SCALE
  5
5C
102
{ACAD_REACTORS
330
47
102
}
330
47
100
AcDbScale
 70
     0
300
1/16" = 1'-0"
140
0.0625
141
12.0
290
     0
  0
SCALE
  5
5D
102
{ACAD_REACTORS
330
47
102
}
330
47
100
AcDbScale
 70
     0
300
3/32" = 1'-0"
140
0.09375
141
12.0
290
     0
  0
SCALE
  5
5E
102
{ACAD_REACTORS
330
47
102
}
330
47
100
AcDbScale
 70
     0
300
1/8" = 1'-0"
140
0.125
141
12.0
290
     0
  0
SCALE
  5
5F
102
{ACAD_REACTORS
330
47
102
}
330
47
100
AcDbScale
 70
     0
300
3/16" = 1'-0"
140
0.1875
141
12.0
290
     0
  0
SCALE
  5
60
102
{ACAD_REACTORS
330
47
102
}
330
47
100
AcDbScale
 70
     0
300
1/4" = 1'-0"
140
0.25
141
12.0
290
     0
  0
SCALE
  5
61
102
{ACAD_REACTORS
330
47
102
}
330
47
100
AcDbScale
 70
     0
300
3/8" = 1'-0"
140
0.375
141
12.0
290
     0
  0
SCALE
  5
62
102
{ACAD_REACTORS
330
47
102
}
330
47
100
AcDbScale
 70
     0
300
1/2" = 1'-0"
140
0.5
141
12.0
290
     0
  0
SCALE
  5
63
102
{ACAD_REACTORS
330
47
102
}
330
47
100
AcDbScale
 70
     0
300
3/4" = 1'-0"
140
0.75
141
12.0
290
     0
  0
SCALE
  5
64
102
{ACAD_REACTORS
330
47
102
}
330
47
100
AcDbScale
 70
     0
300
1" = 1'-0"
140
1.0
141
12.0
290
     0
  0
SCALE
  5
65
102
{ACAD_REACTORS
330
47
102
}
330
47
100
AcDbScale
 70
     0
300
1-1/2" = 1'-0"
140
1.5
141
12.0
290
     0
  0
SCALE
  5
66
102
{ACAD_REACTORS
330
47
102
}
330
47
100
AcDbScale
 70
     0
300
3" = 1'-0"
140
3.0
141
12.0
290
     0
  0
SCALE
  5
67
102
{ACAD_REACTORS
330
47
102
}
330
47
100
AcDbScale
 70
     0
300
6" = 1'-0"
140
6.0
141
12.0
290
     0
  0
SCALE
  5
68
102
{ACAD_REACTORS
330
47
102
}
330
47
100
AcDbScale
 70
     0
300
1'-0" = 1'-0"
140
12.0
141
12.0
290
     0
  0
ENDSEC
  0
EOF
