  0
SECTION
  2
HEADER
  9
$ACADVER
  1
AC1015
  9
$ACADMAINTVER
 70
     6
  9
$DWGCODEPAGE
  3
ANSI_1252
  9
$INSBASE
 10
0.0
 20
0.0
 30
0.0
  9
$EXTMIN
 10
0.0
 20
0.0
 30
0.0
  9
$EXTMAX
 10
594.0
 20
841.0
 30
0.0
  9
$LIMMIN
 10
0.0
 20
0.0
  9
$LIMMAX
 10
594.0
 20
841.0
  9
$ORTHOMODE
 70
     0
  9
$REGENMODE
 70
     1
  9
$FILLMODE
 70
     1
  9
$QTEXTMODE
 70
     0
  9
$MIRRTEXT
 70
     1
  9
$LTSCALE
 40
1.0
  9
$ATTMODE
 70
     1
  9
$TEXTSIZE
 40
10.0
  9
$TRACEWID
 40
1.0
  9
$TEXTSTYLE
  7
Standard
  9
$CLAYER
  8
0
  9
$CELTYPE
  6
ByLayer
  9
$CECOLOR
 62
   256
  9
$CELTSCALE
 40
1.0
  9
$DISPSILH
 70
     0
  9
$DIMSCALE
 40
1.0
  9
$DIMASZ
 40
2.5
  9
$DIMEXO
 40
0.0
  9
$DIMDLI
 40
3.75
  9
$DIMRND
 40
0.0
  9
$DIMDLE
 40
0.0
  9
$DIMEXE
 40
1.0
  9
$DIMTP
 40
0.0
  9
$DIMTM
 40
0.0
  9
$DIMTXT
 40
3.5
  9
$DIMCEN
 40
2.5
  9
$DIMTSZ
 40
0.0
  9
$DIMTOL
 70
     0
  9
$DIMLIM
 70
     0
  9
$DIMTIH
 70
     1
  9
$DIMTOH
 70
     1
  9
$DIMSE1
 70
     0
  9
$DIMSE2
 70
     0
  9
$DIMTAD
 70
     1
  9
$DIMZIN
 70
     0
  9
$DIMBLK
  1

  9
$DIMASO
 70
     1
  9
$DIMSHO
 70
     1
  9
$DIMPOST
  1

  9
$DIMAPOST
  1

  9
$DIMALT
 70
     0
  9
$DIMALTD
 70
     3
  9
$DIMALTF
 40
0.0393700787
  9
$DIMLFAC
 40
1.0
  9
$DIMTOFL
 70
     1
  9
$DIMTVP
 40
0.0
  9
$DIMTIX
 70
     0
  9
$DIMSOXD
 70
     0
  9
$DIMSAH
 70
     0
  9
$DIMBLK1
  1

  9
$DIMBLK2
  1

  9
$DIMSTYLE
  2
ISO-25
  9
$DIMCLRD
 70
     0
  9
$DIMCLRE
 70
     0
  9
$DIMCLRT
 70
     0
  9
$DIMTFAC
 40
1.0
  9
$DIMGAP
 40
1.5
  9
$DIMJUST
 70
     0
  9
$DIMSD1
 70
     0
  9
$DIMSD2
 70
     0
  9
$DIMTOLJ
 70
     0
  9
$DIMTZIN
 70
     0
  9
$DIMALTZ
 70
     0
  9
$DIMALTTZ
 70
     0
  9
$DIMUPT
 70
     0
  9
$DIMDEC
 70
     2
  9
$DIMTDEC
 70
     2
  9
$DIMALTU
 70
     2
  9
$DIMALTTD
 70
     3
  9
$DIMTXSTY
  7
Standard
  9
$DIMAUNIT
 70
     0
  9
$DIMADEC
 70
     2
  9
$DIMALTRND
 40
0.0
  9
$DIMAZIN
 70
     0
  9
$DIMDSEP
 70
    44
  9
$DIMATFIT
 70
     3
  9
$DIMFRAC
 70
     0
  9
$DIMLDRBLK
  1

  9
$DIMLUNIT
 70
     2
  9
$DIMLWD
 70
    -2
  9
$DIMLWE
 70
    -2
  9
$DIMTMOVE
 70
     0
  9
$LUNITS
 70
     2
  9
$LUPREC
 70
     2
  9
$SKETCHINC
 40
1.0
  9
$FILLETRAD
 40
10.0
  9
$AUNITS
 70
     0
  9
$AUPREC
 70
     2
  9
$MENU
  1
.
  9
$ELEVATION
 40
0.0
  9
$PELEVATION
 40
0.0
  9
$THICKNESS
 40
0.0
  9
$LIMCHECK
 70
     0
  9
$CHAMFERA
 40
0.0
  9
$CHAMFERB
 40
0.0
  9
$CHAMFERC
 40
0.0
  9
$CHAMFERD
 40
0.0
  9
$SKPOLY
 70
     0
  9
$TDCREATE
 40
2458786.498932662
  9
$TDUCREATE
 40
2458786.457265995
  9
$TDUPDATE
 40
2458786.49893375
  9
$TDUUPDATE
 40
2458786.457267083
  9
$TDINDWG
 40
0.0000000116
  9
$TDUSRTIMER
 40
0.0000000116
  9
$USRTIMER
 70
     1
  9
$ANGBASE
 50
0.0
  9
$ANGDIR
 70
     0
  9
$PDMODE
 70
     0
  9
$PDSIZE
 40
-1.0
  9
$PLINEWID
 40
0.0
  9
$SPLFRAME
 70
     0
  9
$SPLINETYPE
 70
     6
  9
$SPLINESEGS
 70
     8
  9
$HANDSEED
  5
24D
  9
$SURFTAB1
 70
     6
  9
$SURFTAB2
 70
     6
  9
$SURFTYPE
 70
     6
  9
$SURFU
 70
     6
  9
$SURFV
 70
     6
  9
$UCSBASE
  2

  9
$UCSNAME
  2

  9
$UCSORG
 10
0.0
 20
0.0
 30
0.0
  9
$UCSXDIR
 10
1.0
 20
0.0
 30
0.0
  9
$UCSYDIR
 10
0.0
 20
1.0
 30
0.0
  9
$UCSORTHOREF
  2

  9
$UCSORTHOVIEW
 70
     0
  9
$UCSORGTOP
 10
0.0
 20
0.0
 30
0.0
  9
$UCSORGBOTTOM
 10
0.0
 20
0.0
 30
0.0
  9
$UCSORGLEFT
 10
0.0
 20
0.0
 30
0.0
  9
$UCSORGRIGHT
 10
0.0
 20
0.0
 30
0.0
  9
$UCSORGFRONT
 10
0.0
 20
0.0
 30
0.0
  9
$UCSORGBACK
 10
0.0
 20
0.0
 30
0.0
  9
$PUCSBASE
  2

  9
$PUCSNAME
  2

  9
$PUCSORG
 10
0.0
 20
0.0
 30
0.0
  9
$PUCSXDIR
 10
1.0
 20
0.0
 30
0.0
  9
$PUCSYDIR
 10
0.0
 20
1.0
 30
0.0
  9
$PUCSORTHOREF
  2

  9
$PUCSORTHOVIEW
 70
     0
  9
$PUCSORGTOP
 10
0.0
 20
0.0
 30
0.0
  9
$PUCSORGBOTTOM
 10
0.0
 20
0.0
 30
0.0
  9
$PUCSORGLEFT
 10
0.0
 20
0.0
 30
0.0
  9
$PUCSORGRIGHT
 10
0.0
 20
0.0
 30
0.0
  9
$PUCSORGFRONT
 10
0.0
 20
0.0
 30
0.0
  9
$PUCSORGBACK
 10
0.0
 20
0.0
 30
0.0
  9
$USERI1
 70
     0
  9
$USERI2
 70
     0
  9
$USERI3
 70
     0
  9
$USERI4
 70
     0
  9
$USERI5
 70
     0
  9
$USERR1
 40
0.0
  9
$USERR2
 40
0.0
  9
$USERR3
 40
0.0
  9
$USERR4
 40
0.0
  9
$USERR5
 40
0.0
  9
$WORLDVIEW
 70
     1
  9
$SHADEDGE
 70
     3
  9
$SHADEDIF
 70
    70
  9
$TILEMODE
 70
     1
  9
$MAXACTVP
 70
    64
  9
$PINSBASE
 10
0.0
 20
0.0
 30
0.0
  9
$PLIMCHECK
 70
     0
  9
$PEXTMIN
 10
1.0000000000E+20
 20
1.0000000000E+20
 30
1.0000000000E+20
  9
$PEXTMAX
 10
-1.0000000000E+20
 20
-1.0000000000E+20
 30
-1.0000000000E+20
  9
$PLIMMIN
 10
0.0
 20
0.0
  9
$PLIMMAX
 10
420.0
 20
297.0
  9
$UNITMODE
 70
     0
  9
$VISRETAIN
 70
     1
  9
$PLINEGEN
 70
     0
  9
$PSLTSCALE
 70
     1
  9
$TREEDEPTH
 70
  3020
  9
$CMLSTYLE
  2
Standard
  9
$CMLJUST
 70
     0
  9
$CMLSCALE
 40
20.0
  9
$PROXYGRAPHICS
 70
     1
  9
$MEASUREMENT
 70
     1
  9
$CELWEIGHT
370
    -1
  9
$ENDCAPS
280
     0
  9
$JOINSTYLE
280
     0
  9
$LWDISPLAY
290
     1
  9
$INSUNITS
 70
     4
  9
$HYPERLINKBASE
  1

  9
$STYLESHEET
  1

  9
$XEDIT
290
     1
  9
$CEPSNTYPE
380
     0
  9
$PSTYLEMODE
290
     1
  9
$FINGERPRINTGUID
  2
{1674b179-fd0a-4830-ade5-345fc5164b6d}
  9
$VERSIONGUID
  2
{FAEB1C32-E019-11D5-929B-00C0DF256EC4}
  9
$EXTNAMES
290
     1
  9
$PSVPSCALE
 40
0.0
  9
$OLESTARTUP
290
     0
  0
ENDSEC
  0
SECTION
  2
CLASSES
  0
CLASS
  1
ACDBDICTIONARYWDFLT
  2
AcDbDictionaryWithDefault
  3
ObjectDBX Classes
 90
        0
280
     0
281
     0
  0
CLASS
  1
VISUALSTYLE
  2
AcDbVisualStyle
  3
ObjectDBX Classes
 90
     4095
280
     0
281
     0
  0
CLASS
  1
MATERIAL
  2
AcDbMaterial
  3
ObjectDBX Classes
 90
     1153
280
     0
281
     0
  0
CLASS
  1
SCALE
  2
AcDbScale
  3
ObjectDBX Classes
 90
     1153
280
     0
281
     0
  0
CLASS
  1
TABLESTYLE
  2
AcDbTableStyle
  3
ObjectDBX Classes
 90
     4095
280
     0
281
     0
  0
CLASS
  1
MLEADERSTYLE
  2
AcDbMLeaderStyle
  3
ACDB_MLEADERSTYLE_CLASS
 90
     4095
280
     0
281
     0
  0
CLASS
  1
SUN
  2
AcDbSun
  3
SCENEOE
 90
     1153
280
     0
281
     0
  0
CLASS
  1
ACDBPLACEHOLDER
  2
AcDbPlaceHolder
  3
ObjectDBX Classes
 90
        0
280
     0
281
     0
  0
CLASS
  1
LAYOUT
  2
AcDbLayout
  3
ObjectDBX Classes
 90
        0
280
     0
281
     0
  0
ENDSEC
  0
SECTION
  2
TABLES
  0
TABLE
  2
VPORT
  5
8
330
0
100
AcDbSymbolTable
 70
     1
  0
VPORT
  5
29
330
8
100
AcDbSymbolTableRecord
100
AcDbViewportTableRecord
  2
*Active
 70
     0
 10
0.0
 20
0.0
 11
1.0
 21
1.0
 12
297.0
 22
420.5
 13
0.0
 23
0.0
 14
10.0
 24
10.0
 15
10.0
 25
10.0
 16
0.0
 26
0.0
 36
1.0
 17
0.0
 27
0.0
 37
0.0
 40
841.0
 41
0.7063020214
 42
50.0
 43
0.0
 44
0.0
 50
0.0
 51
0.0
 71
     0
 72
  2000
 73
     1
 74
     3
 75
     0
 76
     0
 77
     0
 78
     0
281
     0
 65
     1
110
0.0
120
0.0
130
0.0
111
1.0
121
0.0
131
0.0
112
0.0
122
1.0
132
0.0
 79
     0
146
0.0
  0
ENDTAB
  0
TABLE
  2
LTYPE
  5
5
330
0
100
AcDbSymbolTable
 70
     6
  0
LTYPE
  5
14
330
5
100
AcDbSymbolTableRecord
100
AcDbLinetypeTableRecord
  2
ByBlock
 70
     0
  3

 72
    65
 73
     0
 40
0.0
  0
LTYPE
  5
15
330
5
100
AcDbSymbolTableRecord
100
AcDbLinetypeTableRecord
  2
ByLayer
 70
     0
  3

 72
    65
 73
     0
 40
0.0
  0
LTYPE
  5
16
330
5
100
AcDbSymbolTableRecord
100
AcDbLinetypeTableRecord
  2
Continuous
 70
     0
  3
Solid line
 72
    65
 73
     0
 40
0.0
  0
LTYPE
  5
6E
330
5
100
AcDbSymbolTableRecord
100
AcDbLinetypeTableRecord
  2
HIDDEN
 70
     0
  3
Hidden __ __ __ __ __ __ __ __ __ __ __ __ __ __
 72
    65
 73
     2
 40
1.905
 49
1.27
 74
     0
 49
-0.635
 74
     0
  0
LTYPE
  5
6F
330
5
100
AcDbSymbolTableRecord
100
AcDbLinetypeTableRecord
  2
PHANTOM
 70
     0
  3
Phantom ______  __  __  ______  __  __  ______
 72
    65
 73
     6
 40
12.7
 49
6.35
 74
     0
 49
-1.27
 74
     0
 49
1.27
 74
     0
 49
-1.27
 74
     0
 49
1.27
 74
     0
 49
-1.27
 74
     0
  0
LTYPE
  5
70
330
5
100
AcDbSymbolTableRecord
100
AcDbLinetypeTableRecord
  2
CENTER
 70
     0
  3
Center ____ _ ____ _ ____ _ ____ _ ____ _ ____
 72
    65
 73
     4
 40
10.16
 49
6.35
 74
     0
 49
-1.27
 74
     0
 49
1.27
 74
     0
 49
-1.27
 74
     0
  0
LTYPE
  5
71
330
5
100
AcDbSymbolTableRecord
100
AcDbLinetypeTableRecord
  2
CENTERX2
 70
     0
  3
Center (2x) ________  __  ________  __  _____
 72
    65
 73
     4
 40
20.32
 49
12.7
 74
     0
 49
-2.54
 74
     0
 49
2.54
 74
     0
 49
-2.54
 74
     0
  0
LTYPE
  5
72
330
5
100
AcDbSymbolTableRecord
100
AcDbLinetypeTableRecord
  2
DOT2
 70
     0
  3
Dot (.5x) ........................................
 72
    65
 73
     2
 40
0.635
 49
0.0
 74
     0
 49
-0.635
 74
     0
  0
ENDTAB
  0
TABLE
  2
LAYER
  5
2
330
0
100
AcDbSymbolTable
 70
     1
  0
LAYER
  5
10
330
2
100
AcDbSymbolTableRecord
100
AcDbLayerTableRecord
  2
0
 70
     0
 62
     7
  6
Continuous
370
    -3
390
F
  0
ENDTAB
  0
TABLE
  2
STYLE
  5
3
330
0
100
AcDbSymbolTable
 70
     3
  0
STYLE
  5
11
330
3
100
AcDbSymbolTableRecord
100
AcDbTextStyleTableRecord
  2
Standard
 70
     0
 40
0.0
 41
1.0
 50
0.0
 71
     0
 42
10.0
  3
txt
  4

  0
STYLE
  5
77
330
3
100
AcDbSymbolTableRecord
100
AcDbTextStyleTableRecord
  2
SLDTEXTSTYLE0
 70
     0
 40
0.0
 41
0.96
 50
0.0
 71
     0
 42
10.0
  3
ISOCP3
  4

  0
STYLE
  5
8E
330
3
100
AcDbSymbolTableRecord
100
AcDbTextStyleTableRecord
  2
SLDTEXTSTYLE1
 70
     0
 40
0.0
 41
0.605
 50
0.0
 71
     0
 42
10.0
  3
TXT
  4

  0
ENDTAB
  0
TABLE
  2
VIEW
  5
6
330
0
100
AcDbSymbolTable
 70
     0
  0
ENDTAB
  0
TABLE
  2
UCS
  5
7
330
0
100
AcDbSymbolTable
 70
     0
  0
ENDTAB
  0
TABLE
  2
APPID
  5
9
330
0
100
AcDbSymbolTable
 70
     1
  0
APPID
  5
12
330
9
100
AcDbSymbolTableRecord
100
AcDbRegAppTableRecord
  2
ACAD
 70
     0
  0
ENDTAB
  0
TABLE
  2
DIMSTYLE
  5
A
330
0
100
AcDbSymbolTable
 70
     2
100
AcDbDimStyleTable
  0
DIMSTYLE
105
27
330
A
100
AcDbSymbolTableRecord
100
AcDbDimStyleTableRecord
  2
ISO-25
 70
     0
 41
2.5
 42
0.625
 43
3.75
 44
1.25
 73
     0
 74
     0
 77
     1
 78
     8
140
2.5
141
2.5
143
0.0393700787
147
0.625
171
     3
172
     1
178
     0
271
     2
272
     2
274
     3
278
    44
283
     0
284
     8
340
11
  0
DIMSTYLE
105
78
102
{ACAD_REACTORS
330
76
330
83
102
}
330
A
100
AcDbSymbolTableRecord
100
AcDbDimStyleTableRecord
  2
SLDDIMSTYLE0
 70
     0
 41
2.5
 44
0.0
 45
0.000000001
 73
     0
 74
     0
 77
     1
 78
    12
 79
     3
140
6.0
147
1.5
173
     1
178
     0
271
     2
272
     2
276
     2
284
    12
340
77
  0
ENDTAB
  0
TABLE
  2
BLOCK_RECORD
  5
1
330
0
100
AcDbSymbolTable
 70
     3
  0
BLOCK_RECORD
  5
1F
330
1
100
AcDbSymbolTableRecord
100
AcDbBlockTableRecord
  2
*Model_Space
340
22
  0
BLOCK_RECORD
  5
1B
330
1
100
AcDbSymbolTableRecord
100
AcDbBlockTableRecord
  2
*Paper_Space
340
1E
  0
BLOCK_RECORD
  5
23
330
1
100
AcDbSymbolTableRecord
100
AcDbBlockTableRecord
  2
*Paper_Space0
340
26
  0
BLOCK_RECORD
  5
79
330
1
100
AcDbSymbolTableRecord
100
AcDbBlockTableRecord
  2
_D
340
0
  0
BLOCK_RECORD
  5
84
330
1
100
AcDbSymbolTableRecord
100
AcDbBlockTableRecord
  2
_D_1
340
0
  0
ENDTAB
  0
ENDSEC
  0
SECTION
  2
BLOCKS
  0
BLOCK
  5
20
330
1F
100
AcDbEntity
  8
0
100
AcDbBlockBegin
  2
*Model_Space
 70
     0
 10
0.0
 20
0.0
 30
0.0
  3
*Model_Space
  1

  0
ENDBLK
  5
21
330
1F
100
AcDbEntity
  8
0
100
AcDbBlockEnd
  0
BLOCK
  5
1C
330
1B
100
AcDbEntity
 67
     1
  8
0
100
AcDbBlockBegin
  2
*Paper_Space
 70
     0
 10
0.0
 20
0.0
 30
0.0
  3
*Paper_Space
  1

  0
ENDBLK
  5
1D
330
1B
100
AcDbEntity
 67
     1
  8
0
100
AcDbBlockEnd
  0
BLOCK
  5
24
330
23
100
AcDbEntity
  8
0
100
AcDbBlockBegin
  2
*Paper_Space0
 70
     0
 10
0.0
 20
0.0
 30
0.0
  3
*Paper_Space0
  1

  0
ENDBLK
  5
25
330
23
100
AcDbEntity
  8
0
100
AcDbBlockEnd
  0
BLOCK
  5
7A
330
79
100
AcDbEntity
  8
0
100
AcDbBlockBegin
  2
_D
 70
     0
 10
0.0
 20
0.0
 30
0.0
  3
_D
  1

  0
SOLID
  5
7C
330
79
100
AcDbEntity
  8
0
  6
Continuous
 62
     7
370
    18
100
AcDbTrace
 10
42.7614395004
 20
152.0299240879
 30
0.0
 11
42.4614395004
 21
149.5299240879
 31
0.0
 12
43.0614395004
 22
149.5299240879
 32
0.0
 13
43.0614395004
 23
149.5299240879
 33
0.0
  0
SOLID
  5
7D
330
79
100
AcDbEntity
  8
0
  6
Continuous
 62
     7
370
    18
100
AcDbTrace
 10
42.7614395004
 20
52.0299240879
 30
0.0
 11
43.0614395004
 21
54.5299240879
 31
0.0
 12
42.4614395004
 22
54.5299240879
 32
0.0
 13
42.4614395004
 23
54.5299240879
 33
0.0
  0
LINE
  5
7E
330
79
100
AcDbEntity
  8
0
  6
Continuous
 62
     7
370
     0
100
AcDbLine
 10
56.6850079902
 20
152.0299240879
 30
0.0
 11
41.7614395004
 21
152.0299240879
 31
0.0
  0
LINE
  5
7F
330
79
100
AcDbEntity
  8
0
  6
Continuous
 62
     7
370
     0
100
AcDbLine
 10
56.6850079902
 20
52.0299240879
 30
0.0
 11
41.7614395004
 21
52.0299240879
 31
0.0
  0
LINE
  5
80
330
79
100
AcDbEntity
  8
0
  6
Continuous
 62
     7
370
     0
100
AcDbLine
 10
42.7614395004
 20
152.0299240879
 30
0.0
 11
42.7614395004
 21
52.0299240879
 31
0.0
  0
MTEXT
  5
81
330
79
100
AcDbEntity
  8
0
  6
Continuous
 62
     7
370
    18
100
AcDbMText
 10
35.0270332946
 20
94.3680541463
 30
0.0
 40
6.0
 41
0.0
 71
     1
 72
     1
  1
100
  7
SLDTEXTSTYLE0
 11
-7.044195017643634E-15
 21
1.0
 31
0.0
 73
     1
 44
1.0
  0
MTEXT
  5
82
330
79
100
AcDbEntity
  8
0
  6
Continuous
 62
     7
370
    18
100
AcDbMText
 10
35.0270332946
 20
105.7430548466
 30
0.0
 40
6.0
 41
0.0
 71
     1
 72
     1
  1
mm
  7
SLDTEXTSTYLE0
 11
-7.044195017643634E-15
 21
1.0
 31
0.0
 73
     1
 44
1.0
  0
ENDBLK
  5
7B
330
79
100
AcDbEntity
  8
0
100
AcDbBlockEnd
  0
BLOCK
  5
85
330
84
100
AcDbEntity
  8
0
100
AcDbBlockBegin
  2
_D_1
 70
     0
 10
0.0
 20
0.0
 30
0.0
  3
_D_1
  1

  0
SOLID
  5
87
330
84
100
AcDbEntity
  8
0
  6
Continuous
 62
     7
370
    18
100
AcDbTrace
 10
56.6850079902
 20
38.4602342313
 30
0.0
 11
59.1850079902
 21
38.1602342313
 31
0.0
 12
59.1850079902
 22
38.7602342313
 32
0.0
 13
59.1850079902
 23
38.7602342313
 33
0.0
  0
SOLID
  5
88
330
84
100
AcDbEntity
  8
0
  6
Continuous
 62
     7
370
    18
100
AcDbTrace
 10
156.6850079902
 20
38.4602342313
 30
0.0
 11
154.1850079902
 21
38.7602342313
 31
0.0
 12
154.1850079902
 22
38.1602342313
 32
0.0
 13
154.1850079902
 23
38.1602342313
 33
0.0
  0
LINE
  5
89
330
84
100
AcDbEntity
  8
0
  6
Continuous
 62
     7
370
     0
100
AcDbLine
 10
56.6850079902
 20
52.0299240879
 30
0.0
 11
56.6850079902
 21
37.4602342313
 31
0.0
  0
LINE
  5
8A
330
84
100
AcDbEntity
  8
0
  6
Continuous
 62
     7
370
     0
100
AcDbLine
 10
156.6850079902
 20
52.0299240879
 30
0.0
 11
156.6850079902
 21
37.4602342313
 31
0.0
  0
LINE
  5
8B
330
84
100
AcDbEntity
  8
0
  6
Continuous
 62
     7
370
     0
100
AcDbLine
 10
56.6850079902
 20
38.4602342313
 30
0.0
 11
156.6850079902
 21
38.4602342313
 31
0.0
  0
MTEXT
  5
8C
330
84
100
AcDbEntity
  8
0
  6
Continuous
 62
     7
370
    18
100
AcDbMText
 10
93.9626484861
 20
46.1946404371
 30
0.0
 40
6.0
 41
0.0
 71
     1
 72
     1
  1
100
  7
SLDTEXTSTYLE0
 73
     1
 44
1.0
  0
MTEXT
  5
8D
330
84
100
AcDbEntity
  8
0
  6
Continuous
 62
     7
370
    18
100
AcDbMText
 10
105.3376491864
 20
46.1946404371
 30
0.0
 40
6.0
 41
0.0
 71
     1
 72
     1
  1
mm
  7
SLDTEXTSTYLE0
 73
     1
 44
1.0
  0
ENDBLK
  5
86
330
84
100
AcDbEntity
  8
0
100
AcDbBlockEnd
  0
ENDSEC
  0
SECTION
  2
ENTITIES
  0
LINE
  5
73
330
1F
100
AcDbEntity
  8
0
  6
Continuous
 62
     7
370
    25
100
AcDbLine
 10
764.4089972587
 20
813.581008218
 30
0.0
 11
764.4089972587
 21
814.581008218
 31
0.0
  0
LINE
  5
74
330
1F
100
AcDbEntity
  8
0
  6
Continuous
 62
     7
370
    18
100
AcDbLine
 10
56.6850079902
 20
152.0299240879
 30
0.0
 11
56.6850079902
 21
52.0299240879
 31
0.0
  0
LINE
  5
75
330
1F
100
AcDbEntity
  8
0
  6
Continuous
 62
     7
370
    18
100
AcDbLine
 10
56.6850079902
 20
52.0299240879
 30
0.0
 11
156.6850079902
 21
52.0299240879
 31
0.0
  0
DIMENSION
  5
76
330
1F
100
AcDbEntity
  8
0
  6
Continuous
 62
     7
370
    18
100
AcDbDimension
  2
_D
 10
42.7614395004
 20
52.0299240879
 30
0.0
 11
42.7614395004
 21
105.4472211621
 31
0.0
 70
   160
  1
<>mm
 71
     2
 42
-1.0
  3
SLDDIMSTYLE0
100
AcDbAlignedDimension
 13
56.6850079902
 23
152.0299240879
 33
0.0
 14
56.6850079902
 24
52.0299240879
 34
0.0
 50
90.0
100
AcDbRotatedDimension
  0
DIMENSION
  5
83
330
1F
100
AcDbEntity
  8
0
  6
Continuous
 62
     7
370
    18
100
AcDbDimension
  2
_D_1
 10
156.6850079902
 20
38.4602342313
 30
0.0
 11
105.0418155019
 21
38.4602342313
 31
0.0
 70
   160
  1
<>mm
 71
     2
 42
-1.0
  3
SLDDIMSTYLE0
100
AcDbAlignedDimension
 13
56.6850079902
 23
52.0299240879
 33
0.0
 14
156.6850079902
 24
52.0299240879
 34
0.0
100
AcDbRotatedDimension
  0
MTEXT
  5
8F
330
1F
100
AcDbEntity
  8
0
  6
Continuous
 62
     7
370
     0
100
AcDbMText
 10
412.8252631579
 20
48.4342449499
 30
0.0
 40
10.0
 41
0.0
 71
     1
 72
     1
  1
KLUDI GmbH & Co KG
  7
SLDTEXTSTYLE1
 73
     1
 44
1.0
  0
MTEXT
  5
90
330
1F
100
AcDbEntity
  8
0
  6
Continuous
 62
     7
370
     0
100
AcDbMText
 10
210.0873490389
 20
48.4342449499
 30
0.0
 40
10.0
 41
0.0
 71
     1
 72
     1
  1
38 691 05 76
  7
SLDTEXTSTYLE1
 73
     1
 44
1.0
  0
ARC
  5
91
330
1F
100
AcDbEntity
  8
0
  6
Continuous
 62
     7
370
    25
100
AcDbCircle
 10
369.9068295825
 20
474.7316714545
 30
0.0
 40
0.8000000000000114
100
AcDbArc
 50
0.0
 51
90.0
  0
ARC
  5
92
330
1F
100
AcDbEntity
  8
0
  6
Continuous
 62
     7
370
    25
100
AcDbCircle
 10
369.9068295825
 20
406.3316714545
 30
0.0
 40
0.8000000000000114
100
AcDbArc
 50
270.0
 51
0.0
  0
LINE
  5
93
330
1F
100
AcDbEntity
  8
0
  6
Continuous
 62
     7
370
    25
100
AcDbLine
 10
357.7068315989
 20
405.5316717827
 30
0.0
 11
369.9068295008
 21
405.5316717827
 31
0.0
  0
LINE
  5
94
330
1F
100
AcDbEntity
  8
0
  6
Continuous
 62
     7
370
    25
100
AcDbLine
 10
369.9068295008
 20
475.5316720807
 30
0.0
 11
357.7068315989
 21
475.5316720807
 31
0.0
  0
ARC
  5
95
330
1F
100
AcDbEntity
  8
0
  6
Continuous
 62
     7
370
    25
100
AcDbCircle
 10
371.5068295825
 20
457.3316714545
 30
0.0
 40
0.8000000000000114
100
AcDbArc
 50
180.0
 51
270.0
  0
ARC
  5
96
330
1F
100
AcDbEntity
  8
0
  6
Continuous
 62
     7
370
    25
100
AcDbCircle
 10
371.5068295825
 20
423.7316714545
 30
0.0
 40
0.8000000000000114
100
AcDbArc
 50
90.0
 51
180.0
  0
LINE
  5
97
330
1F
100
AcDbEntity
  8
0
  6
Continuous
 62
     7
370
    25
100
AcDbLine
 10
371.5068305081
 20
424.5316711717
 30
0.0
 11
382.906829769
 21
424.5316711717
 31
0.0
  0
LINE
  5
98
330
1F
100
AcDbEntity
  8
0
  6
Continuous
 62
     7
370
    25
100
AcDbLine
 10
382.906829769
 20
456.5316715275
 30
0.0
 11
371.5068305081
 21
456.5316715275
 31
0.0
  0
ARC
  5
99
330
1F
100
AcDbEntity
  8
0
  6
Continuous
 62
     7
370
    25
100
AcDbCircle
 10
382.9068295825
 20
455.7316714545
 30
0.0
 40
0.8000000000000114
100
AcDbArc
 50
0.0
 51
90.0
  0
ARC
  5
9A
330
1F
100
AcDbEntity
  8
0
  6
Continuous
 62
     7
370
    25
100
AcDbCircle
 10
382.9068295825
 20
425.3316714545
 30
0.0
 40
0.8000000000000114
100
AcDbArc
 50
270.0
 51
0.0
  0
LINE
  5
9B
330
1F
100
AcDbEntity
  8
0
  6
Continuous
 62
     7
370
    25
100
AcDbLine
 10
400.7068293339
 20
456.5316715275
 30
0.0
 11
383.70682841
 21
456.5316715275
 31
0.0
  0
LINE
  5
9C
330
1F
100
AcDbEntity
  8
0
  6
Continuous
 62
     7
370
    25
100
AcDbLine
 10
383.70682841
 20
424.5316711717
 30
0.0
 11
400.7068293339
 21
424.5316711717
 31
0.0
  0
LINE
  5
9D
330
1F
100
AcDbEntity
  8
0
  6
Continuous
 62
     7
370
    25
100
AcDbLine
 10
400.7068293339
 20
430.0316711419
 30
0.0
 11
401.5070812947
 21
430.0316711419
 31
0.0
  0
LINE
  5
9E
330
1F
100
AcDbEntity
  8
0
  6
Continuous
 62
     7
370
    25
100
AcDbLine
 10
401.5070812947
 20
451.0316715573
 30
0.0
 11
400.7068293339
 21
451.0316715573
 31
0.0
  0
SPLINE
  5
9F
330
1F
100
AcDbEntity
  8
0
  6
Continuous
 62
     7
370
    25
100
AcDbSpline
210
0.0
220
0.0
230
1.0
 70
     8
 71
     3
 72
     9
 73
     5
 74
     0
 42
0.000000001
 43
0.00000001
 40
0.0
 40
0.0
 40
0.0
 40
0.0
 40
0.5050897579243488
 40
1.0
 40
1.0
 40
1.0
 40
1.0
 10
501.5610026365559
 20
417.4126469993066
 30
0.0
 10
501.6503842580109
 20
417.3837788491059
 30
0.0
 10
501.8273461148941
 20
417.3266243537953
 30
0.0
 10
502.0329345962714
 20
417.3485227207747
 30
0.0
 10
502.1346824413577
 20
417.3593604468775
 30
0.0
  0
SPLINE
  5
A0
330
1F
100
AcDbEntity
  8
0
  6
Continuous
 62
     7
370
    25
100
AcDbSpline
210
0.0
220
0.0
230
1.0
 70
     8
 71
     3
 72
    15
 73
    11
 74
     0
 42
0.000000001
 43
0.00000001
 40
0.0
 40
0.0
 40
0.0
 40
0.0
 40
0.1111014553661283
 40
0.2331136028756111
 40
0.3639264427910943
 40
0.4997183618721707
 40
0.6355229077468029
 40
0.7663931770128507
 40
0.8885593718018794
 40
0.9999999999999999
 40
0.9999999999999999
 40
0.9999999999999999
 40
0.9999999999999999
 10
546.5328039771359
 20
425.1879462503862
 30
0.0
 10
546.6097789424963
 20
425.2068061778737
 30
0.0
 10
546.771288181482
 20
425.2463781675663
 30
0.0
 10
546.9987361998881
 20
425.3833663856907
 30
0.0
 10
547.1965666842945
 20
425.5853997982371
 30
0.0
 10
547.3335684933403
 20
425.8451741920395
 30
0.0
 10
547.3898432772347
 20
426.1321572310148
 30
0.0
 10
547.3626742847874
 20
426.4100803485287
 30
0.0
 10
547.2722259893867
 20
426.6543785384621
 30
0.0
 10
547.172836346104
 20
426.7819277086809
 30
0.0
 10
547.1254231578152
 20
426.8427742176723
 30
0.0
  0
SPLINE
  5
A1
330
1F
100
AcDbEntity
  8
0
  6
Continuous
 62
     7
370
    25
100
AcDbSpline
210
0.0
220
0.0
230
1.0
 70
     8
 71
     3
 72
    14
 73
    10
 74
     0
 42
0.000000001
 43
0.00000001
 40
0.0
 40
0.0
 40
0.0
 40
0.0
 40
0.2912332460573646
 40
0.5465179251773391
 40
0.7371001510847617
 40
0.813468789838565
 40
0.880504953054207
 40
0.9414635132633575
 40
1.0
 40
1.0
 40
1.0
 40
1.0
 10
432.7745324170629
 20
420.9798806809854
 30
0.0
 10
432.753993484301
 20
420.9544065457635
 30
0.0
 10
432.7154508554275
 20
420.9066026919258
 30
0.0
 10
432.946505450895
 20
420.9333108219803
 30
0.0
 10
433.2278652964719
 20
420.9702777123664
 30
0.0
 10
433.5011554759002
 20
421.0003620217787
 30
0.0
 10
433.703805239435
 20
421.0173555938046
 30
0.0
 10
433.9168116577463
 20
421.0292789739355
 30
0.0
 10
434.0631487843946
 20
421.0308361027154
 30
0.0
 10
434.1348342767398
 20
421.031598886199
 30
0.0
  0
LINE
  5
A2
330
1F
100
AcDbEntity
  8
0
  6
Continuous
 62
     7
370
    25
100
AcDbLine
 10
444.0174343234
 20
501.5629352533
 30
0.0
 11
444.0174343234
 21
504.0916697585
 31
0.0
  0
LINE
  5
A3
330
1F
100
AcDbEntity
  8
0
  6
Continuous
 62
     7
370
    25
100
AcDbLine
 10
444.0174343234
 20
487.894699862
 30
0.0
 11
444.0174343234
 21
488.7080201411
 31
0.0
  0
LINE
  5
A4
330
1F
100
AcDbEntity
  8
0
  6
Continuous
 62
     7
370
    25
100
AcDbLine
 10
444.0174343234
 20
475.6316719108
 30
0.0
 11
444.0174343234
 21
479.9686418378
 31
0.0
  0
LINE
  5
A5
330
1F
100
AcDbEntity
  8
0
  6
Continuous
 62
     7
370
    25
100
AcDbLine
 10
399.0174343979
 20
504.0916697585
 30
0.0
 11
399.0174343979
 21
479.5955018603
 31
0.0
  0
ARC
  5
A6
330
1F
100
AcDbEntity
  8
0
  6
Continuous
 62
     7
370
    25
100
AcDbCircle
 10
399.5574344854
 20
504.0916714545
 30
0.0
 40
0.5400000000000205
100
AcDbArc
 50
90.0
 51
180.0
  0
ARC
  5
A7
330
1F
100
AcDbEntity
  8
0
  6
Continuous
 62
     7
370
    25
100
AcDbCircle
 10
443.4774344854
 20
504.0916714545
 30
0.0
 40
0.5400000000000773
100
AcDbArc
 50
0.0
 51
90.0
  0
LINE
  5
A8
330
1F
100
AcDbEntity
  8
0
  6
Continuous
 62
     7
370
    25
100
AcDbLine
 10
399.4068296796
 20
470.5316712611
 30
0.0
 11
399.4068296796
 21
468.5316718646
 31
0.0
  0
LINE
  5
A9
330
1F
100
AcDbEntity
  8
0
  6
Continuous
 62
     7
370
    25
100
AcDbLine
 10
443.4068294412
 20
468.5316718646
 30
0.0
 11
443.4068294412
 21
470.5316712611
 31
0.0
  0
ARC
  5
AA
330
1F
100
AcDbEntity
  8
0
  6
Continuous
 62
     7
370
    25
100
AcDbCircle
 10
421.4069522253
 20
470.6051373595
 30
0.0
 40
22.00000000000001
100
AcDbArc
 50
156.9546678274
 51
180.1968877068
  0
ARC
  5
AB
330
1F
100
AcDbEntity
  8
0
  6
Continuous
 62
     7
370
    25
100
AcDbCircle
 10
421.4069522253
 20
470.6051373595
 30
0.0
 40
22.00000000000005
100
AcDbArc
 50
359.8116200575
 51
13.2075302009
  0
LINE
  5
AC
330
1F
100
AcDbEntity
  8
0
  6
Continuous
 62
     7
370
    25
100
AcDbLine
 10
443.4068294412
 20
466.5271890813
 30
0.0
 11
443.4068294412
 21
468.0316717827
 31
0.0
  0
LINE
  5
AD
330
1F
100
AcDbEntity
  8
0
  6
Continuous
 62
     7
370
    25
100
AcDbLine
 10
399.4068296796
 20
468.0316717827
 30
0.0
 11
399.4068296796
 21
456.5316715275
 31
0.0
  0
LINE
  5
AE
330
1F
100
AcDbEntity
  8
0
  6
Continuous
 62
     7
370
    25
100
AcDbLine
 10
406.8400243467
 20
468.3474758172
 30
0.0
 11
406.2568040735
 21
468.334474554
 31
0.0
  0
LINE
  5
AF
330
1F
100
AcDbEntity
  8
0
  6
Continuous
 62
     7
370
    25
100
AcDbLine
 10
421.1004187581
 20
468.5238077768
 30
0.0
 11
419.8016265344
 21
468.5171897986
 31
0.0
  0
SPLINE
  5
B0
330
1F
100
AcDbEntity
  8
0
  6
Continuous
 62
     7
370
    25
100
AcDbSpline
210
0.0
220
0.0
230
1.0
 70
     8
 71
     3
 72
     9
 73
     5
 74
     0
 42
0.000000001
 43
0.00000001
 40
0.0
 40
0.0
 40
0.0
 40
0.0
 40
0.7758248382652051
 40
1.0
 40
1.0
 40
1.0
 40
1.0
 10
443.4068294411937
 20
468.0316717826796
 30
0.0
 10
443.3729548734149
 20
468.1884145456578
 30
0.0
 10
443.3292922241827
 20
468.3904482461112
 30
0.0
 10
443.1358261962899
 20
468.411696484335
 30
0.0
 10
443.0924559181968
 20
468.4164598115754
 30
0.0
  0
ARC
  5
B1
330
1F
100
AcDbEntity
  8
0
  6
Continuous
 62
     7
370
    25
100
AcDbCircle
 10
482.7878030904
 20
370.5316714566
 30
0.0
 40
50.49999990018755
100
AcDbArc
 50
68.1744351168
 51
89.6395061784
  0
ARC
  5
B2
330
1F
100
AcDbEntity
  8
0
  6
Continuous
 62
     7
370
    25
100
AcDbCircle
 10
482.7878030904
 20
370.5316714566
 30
0.0
 40
85.49999970476284
100
AcDbArc
 50
41.2287723807
 51
90.0
  0
LINE
  5
B3
330
1F
100
AcDbEntity
  8
0
  6
Continuous
 62
     7
370
    25
100
AcDbLine
 10
434.1311695224
 20
421.0316696667
 30
0.0
 11
459.6792550927
 21
421.0316696667
 31
0.0
  0
LINE
  5
B4
330
1F
100
AcDbEntity
  8
0
  6
Continuous
 62
     7
370
    25
100
AcDbLine
 10
468.4068279511
 20
456.031671562
 30
0.0
 11
453.9029689676
 21
456.031671562
 31
0.0
  0
LINE
  5
B5
330
1F
100
AcDbEntity
  8
0
  6
Continuous
 62
     7
370
    25
100
AcDbLine
 10
482.7878045088
 20
456.031671562
 30
0.0
 11
474.3682759053
 21
456.031671562
 31
0.0
  0
LINE
  5
B6
330
1F
100
AcDbEntity
  8
0
  6
Continuous
 62
     7
370
    25
100
AcDbLine
 10
538.5845916516
 20
422.075119754
 30
0.0
 11
538.2684262639
 21
423.7307151311
 31
0.0
  0
LINE
  5
B7
330
1F
100
AcDbEntity
  8
0
  6
Continuous
 62
     7
370
    25
100
AcDbLine
 10
514.6306695586
 20
419.5627392733
 30
0.0
 11
515.0106044656
 21
417.5732293629
 31
0.0
  0
LINE
  5
B8
330
1F
100
AcDbEntity
  8
0
  6
Continuous
 62
     7
370
    25
100
AcDbLine
 10
483.1568280405
 20
418.0316710376
 30
0.0
 11
483.1568280405
 21
421.0625150704
 31
0.0
  0
LINE
  5
B9
330
1F
100
AcDbEntity
  8
0
  6
Continuous
 62
     7
370
    25
100
AcDbLine
 10
459.6568288451
 20
421.0466937625
 30
0.0
 11
459.6568288451
 21
418.0316710376
 31
0.0
  0
LINE
  5
BA
330
1F
100
AcDbEntity
  8
0
  6
Continuous
 62
     7
370
    25
100
AcDbLine
 10
481.8818288094
 20
412.2066730165
 30
0.0
 11
481.8818288094
 21
414.8066723251
 31
0.0
  0
LINE
  5
BB
330
1F
100
AcDbEntity
  8
0
  6
Continuous
 62
     7
370
    25
100
AcDbLine
 10
460.9318280762
 20
414.8066723251
 30
0.0
 11
460.9318280762
 21
412.2066730165
 31
0.0
  0
LINE
  5
BC
330
1F
100
AcDbEntity
  8
0
  6
Continuous
 62
     7
370
    25
100
AcDbLine
 10
481.8818288094
 20
414.8066723251
 30
0.0
 11
480.6568304247
 21
416.0316707098
 31
0.0
  0
LINE
  5
BD
330
1F
100
AcDbEntity
  8
0
  6
Continuous
 62
     7
370
    25
100
AcDbLine
 10
462.1568301863
 20
416.0316707098
 30
0.0
 11
460.9318280762
 21
414.8066723251
 31
0.0
  0
LINE
  5
BE
330
1F
100
AcDbEntity
  8
0
  6
Continuous
 62
     7
370
    25
100
AcDbLine
 10
481.8818288094
 20
408.2066723608
 30
0.0
 11
481.8818288094
 21
411.2066709899
 31
0.0
  0
LINE
  5
BF
330
1F
100
AcDbEntity
  8
0
  6
Continuous
 62
     7
370
    25
100
AcDbLine
 10
460.9318280762
 20
411.2066709899
 30
0.0
 11
460.9318280762
 21
408.2066723608
 31
0.0
  0
LINE
  5
C0
330
1F
100
AcDbEntity
  8
0
  6
Continuous
 62
     7
370
    25
100
AcDbLine
 10
460.9318280762
 20
408.2066723608
 30
0.0
 11
462.1068293399
 21
407.0316710972
 31
0.0
  0
LINE
  5
C1
330
1F
100
AcDbEntity
  8
0
  6
Continuous
 62
     7
370
    25
100
AcDbLine
 10
480.7068312711
 20
407.0316710972
 30
0.0
 11
481.8818288094
 21
408.2066723608
 31
0.0
  0
ARC
  5
C2
330
1F
100
AcDbEntity
  8
0
  6
Continuous
 62
     7
370
    25
100
AcDbCircle
 10
481.1818295604
 20
411.9066714545
 30
0.0
 40
0.3000000000000114
100
AcDbArc
 50
90.0
 51
180.0
  0
ARC
  5
C3
330
1F
100
AcDbEntity
  8
0
  6
Continuous
 62
     7
370
    25
100
AcDbCircle
 10
461.6318295604
 20
411.9066714545
 30
0.0
 40
0.3000000000000114
100
AcDbArc
 50
0.0
 51
90.0
  0
ARC
  5
C4
330
1F
100
AcDbEntity
  8
0
  6
Continuous
 62
     7
370
    25
100
AcDbCircle
 10
481.1818295604
 20
411.5066714545
 30
0.0
 40
0.3000000000000682
100
AcDbArc
 50
180.0
 51
270.0
  0
ARC
  5
C5
330
1F
100
AcDbEntity
  8
0
  6
Continuous
 62
     7
370
    25
100
AcDbCircle
 10
461.6318295604
 20
411.5066714545
 30
0.0
 40
0.3000000000000682
100
AcDbArc
 50
270.0
 51
0.0
  0
ARC
  5
C6
330
1F
100
AcDbEntity
  8
0
  6
Continuous
 62
     7
370
    25
100
AcDbCircle
 10
481.1568295604
 20
417.5316714545
 30
0.0
 40
0.5000000000000568
100
AcDbArc
 50
90.0
 51
180.0
  0
ARC
  5
C7
330
1F
100
AcDbEntity
  8
0
  6
Continuous
 62
     7
370
    25
100
AcDbCircle
 10
461.6568295604
 20
417.5316714545
 30
0.0
 40
0.5000000000000568
100
AcDbArc
 50
0.0
 51
90.0
  0
LINE
  5
C8
330
1F
100
AcDbEntity
  8
0
  6
Continuous
 62
     7
370
    25
100
AcDbLine
 10
480.8818305081
 20
411.506672343
 30
0.0
 11
480.8818305081
 21
411.9066716635
 31
0.0
  0
LINE
  5
C9
330
1F
100
AcDbEntity
  8
0
  6
Continuous
 62
     7
370
    25
100
AcDbLine
 10
461.9318301028
 20
411.9066716635
 30
0.0
 11
461.9318301028
 21
411.506672343
 31
0.0
  0
LINE
  5
CA
330
1F
100
AcDbEntity
  8
0
  6
Continuous
 62
     7
370
    25
100
AcDbLine
 10
480.6568304247
 20
416.0316707098
 30
0.0
 11
480.6568304247
 21
417.5316700243
 31
0.0
  0
LINE
  5
CB
330
1F
100
AcDbEntity
  8
0
  6
Continuous
 62
     7
370
    25
100
AcDbLine
 10
462.1568301863
 20
417.5316700243
 30
0.0
 11
462.1568301863
 21
416.0316707098
 31
0.0
  0
LINE
  5
CC
330
1F
100
AcDbEntity
  8
0
  6
Continuous
 62
     7
370
    25
100
AcDbLine
 10
478.4068295902
 20
462.4816718974
 30
0.0
 11
478.4068295902
 21
471.4816705787
 31
0.0
  0
LINE
  5
CD
330
1F
100
AcDbEntity
  8
0
  6
Continuous
 62
     7
370
    25
100
AcDbLine
 10
464.4068310207
 20
471.4816705787
 30
0.0
 11
464.4068310207
 21
462.4816718974
 31
0.0
  0
ARC
  5
CE
330
1F
100
AcDbEntity
  8
0
  6
Continuous
 62
     7
370
    25
100
AcDbCircle
 10
464.9068295604
 20
471.4816714545
 30
0.0
 40
0.5
100
AcDbArc
 50
90.0
 51
180.0
  0
ARC
  5
CF
330
1F
100
AcDbEntity
  8
0
  6
Continuous
 62
     7
370
    25
100
AcDbCircle
 10
477.9068295604
 20
471.4816714545
 30
0.0
 40
0.5
100
AcDbArc
 50
0.0
 51
90.0
  0
ARC
  5
D0
330
1F
100
AcDbEntity
  8
0
  6
Continuous
 62
     7
370
    25
100
AcDbCircle
 10
464.9068295604
 20
462.4816714545
 30
0.0
 40
0.5
100
AcDbArc
 50
180.0
 51
270.0
  0
ARC
  5
D1
330
1F
100
AcDbEntity
  8
0
  6
Continuous
 62
     7
370
    25
100
AcDbCircle
 10
477.9068295604
 20
462.4816714545
 30
0.0
 40
0.5
100
AcDbArc
 50
270.0
 51
0.0
  0
SPLINE
  5
D2
330
1F
100
AcDbEntity
  8
0
  6
Continuous
 62
     7
370
    25
100
AcDbSpline
210
0.0
220
0.0
230
1.0
 70
     8
 71
     3
 72
    13
 73
     9
 74
     0
 42
0.000000001
 43
0.00000001
 40
0.0
 40
0.0
 40
0.0
 40
0.0
 40
0.0255934508976749
 40
0.2145787324535483
 40
0.4263238586976133
 40
0.6551495761764958
 40
0.8960138112563731
 40
1.0
 40
1.0
 40
1.0
 40
1.0
 10
444.0224224871437
 20
488.7071335219812
 30
0.0
 10
444.0224263056077
 20
488.7263400044261
 30
0.0
 10
444.0224583200936
 20
488.8873695847819
 30
0.0
 10
444.1093679696405
 20
489.2025664598335
 30
0.0
 10
444.3477078473919
 20
489.6184245677054
 30
0.0
 10
444.7459307536357
 20
489.9486900894755
 30
0.0
 10
445.1584218173643
 20
490.1268980535356
 30
0.0
 10
445.4182825353492
 20
490.1130960423814
 30
0.0
 10
445.4966409301798
 20
490.1089341842604
 30
0.0
  0
SPLINE
  5
D3
330
1F
100
AcDbEntity
  8
0
  6
Continuous
 62
     7
370
    25
100
AcDbSpline
210
0.0
220
0.0
230
1.0
 70
     8
 71
     3
 72
    13
 73
     9
 74
     0
 42
0.000000001
 43
0.00000001
 40
0.0
 40
0.0
 40
0.0
 40
0.0
 40
0.1990277536774208
 40
0.4386477823203361
 40
0.6278716521446199
 40
0.7863738998279839
 40
0.9198208328268678
 40
1.0
 40
1.0
 40
1.0
 40
1.0
 10
445.5077832734625
 20
500.144769390769
 30
0.0
 10
445.3558838581199
 20
500.153729654787
 30
0.0
 10
445.0211047107664
 20
500.1734776540879
 30
0.0
 10
444.5934018224775
 20
500.4184142430805
 30
0.0
 10
444.2848968671091
 20
500.744411174982
 30
0.0
 10
444.114337272933
 20
501.0700499642178
 30
0.0
 10
444.0346962037168
 20
501.3433043742551
 30
0.0
 10
444.0258938620714
 20
501.5050865820294
 30
0.0
 10
444.0225901252071
 20
501.5658074521494
 30
0.0
  0
LINE
  5
D4
330
1F
100
AcDbEntity
  8
0
  6
Continuous
 62
     7
370
    25
100
AcDbLine
 10
445.4970134592
 20
490.131669631
 30
0.0
 11
506.0174333102
 21
490.131669631
 31
0.0
  0
LINE
  5
D5
330
1F
100
AcDbEntity
  8
0
  6
Continuous
 62
     7
370
    25
100
AcDbLine
 10
506.0174333102
 20
500.1316712701
 30
0.0
 11
445.4991480506
 21
500.1316712701
 31
0.0
  0
ARC
  5
D6
330
1F
100
AcDbEntity
  8
0
  6
Continuous
 62
     7
370
    25
100
AcDbCircle
 10
506.0174344854
 20
499.6316714545
 30
0.0
 40
0.5
100
AcDbArc
 50
0.0
 51
90.0
  0
ARC
  5
D7
330
1F
100
AcDbEntity
  8
0
  6
Continuous
 62
     7
370
    25
100
AcDbCircle
 10
506.0174344854
 20
490.6316714545
 30
0.0
 40
0.5
100
AcDbArc
 50
270.0
 51
0.0
  0
LINE
  5
D8
330
1F
100
AcDbEntity
  8
0
  6
Continuous
 62
     7
370
    25
100
AcDbLine
 10
444.4174336439
 20
479.9316720569
 30
0.0
 11
445.017982105
 21
480.1502534651
 31
0.0
  0
LINE
  5
D9
330
1F
100
AcDbEntity
  8
0
  6
Continuous
 62
     7
370
    25
100
AcDbLine
 10
445.017982105
 20
487.7130882346
 30
0.0
 11
444.4174336439
 21
487.9316696429
 31
0.0
  0
LINE
  5
DA
330
1F
100
AcDbEntity
  8
0
  6
Continuous
 62
     7
370
    25
100
AcDbLine
 10
444.0110100603
 20
479.9316720569
 30
0.0
 11
444.4174336439
 21
479.9316720569
 31
0.0
  0
LINE
  5
DB
330
1F
100
AcDbEntity
  8
0
  6
Continuous
 62
     7
370
    25
100
AcDbLine
 10
444.4174336439
 20
487.9316696429
 30
0.0
 11
444.0110100603
 21
487.9316696429
 31
0.0
  0
ARC
  5
DC
330
1F
100
AcDbEntity
  8
0
  6
Continuous
 62
     7
370
    25
100
AcDbCircle
 10
444.9495778266
 20
487.5251515634
 30
0.0
 40
0.2000000000000455
100
AcDbArc
 50
0.0
 51
70.0
  0
ARC
  5
DD
330
1F
100
AcDbEntity
  8
0
  6
Continuous
 62
     7
370
    25
100
AcDbCircle
 10
444.9495778266
 20
480.3381913455
 30
0.0
 40
0.2000000000000455
100
AcDbArc
 50
290.0
 51
0.0
  0
LINE
  5
DE
330
1F
100
AcDbEntity
  8
0
  6
Continuous
 62
     7
370
    25
100
AcDbLine
 10
445.1495779848
 20
480.3381906354
 30
0.0
 11
445.1495779848
 21
487.5251510643
 31
0.0
  0
LINE
  5
DF
330
1F
100
AcDbEntity
  8
0
  6
Continuous
 62
     7
370
    25
100
AcDbLine
 10
474.4068289346
 20
456.0251322805
 30
0.0
 11
474.4068289346
 21
461.9816713498
 31
0.0
  0
LINE
  5
E0
330
1F
100
AcDbEntity
  8
0
  6
Continuous
 62
     7
370
    25
100
AcDbLine
 10
468.4068279511
 20
461.9816713498
 30
0.0
 11
468.4068279511
 21
456.031671562
 31
0.0
  0
LINE
  5
E1
330
1F
100
AcDbEntity
  8
0
  6
Continuous
 62
     7
370
    25
100
AcDbLine
 10
443.687924946
 20
464.4425222182
 30
0.0
 11
443.4068238533
 21
466.620755335
 31
0.0
  0
LINE
  5
E2
330
1F
100
AcDbEntity
  8
0
  6
Continuous
 62
     7
370
    25
100
AcDbLine
 10
453.9068209177
 20
456.0316644606
 30
0.0
 11
453.6775814539
 21
456.0587021519
 31
0.0
  0
LINE
  5
E3
330
1F
100
AcDbEntity
  8
0
  6
Continuous
 62
     7
370
    25
100
AcDbLine
 10
370.7068281418
 20
440.5316710004
 30
0.0
 11
370.7068281418
 21
406.3316704237
 31
0.0
  0
LINE
  5
E4
330
1F
100
AcDbEntity
  8
0
  6
Continuous
 62
     7
370
    25
100
AcDbLine
 10
370.7068281418
 20
474.731671577
 30
0.0
 11
370.7068281418
 21
440.5316710004
 31
0.0
  0
LINE
  5
E5
330
1F
100
AcDbEntity
  8
0
  6
Continuous
 62
     7
370
    25
100
AcDbLine
 10
357.7068315989
 20
405.5316717827
 30
0.0
 11
357.7068315989
 21
475.5316720807
 31
0.0
  0
CIRCLE
  5
E6
330
1F
100
AcDbEntity
  8
0
  6
Continuous
 62
     7
370
    25
100
AcDbCircle
 10
421.4068295604
 20
440.5316714545
 30
0.0
 40
22.49999999999994
  0
LINE
  5
E7
330
1F
100
AcDbEntity
  8
0
  6
Continuous
 62
     7
370
    25
100
AcDbLine
 10
383.70682841
 20
442.9893129968
 30
0.0
 11
383.70682841
 21
438.0740308666
 31
0.0
  0
LINE
  5
E8
330
1F
100
AcDbEntity
  8
0
  6
Continuous
 62
     7
370
    25
100
AcDbLine
 10
400.7068293339
 20
456.5316715275
 30
0.0
 11
400.7068293339
 21
449.300074903
 31
0.0
  0
LINE
  5
E9
330
1F
100
AcDbEntity
  8
0
  6
Continuous
 62
     7
370
    25
100
AcDbLine
 10
383.70682841
 20
446.0994358637
 30
0.0
 11
399.6066002345
 21
446.0994358637
 31
0.0
  0
LINE
  5
EA
330
1F
100
AcDbEntity
  8
0
  6
Continuous
 62
     7
370
    25
100
AcDbLine
 10
383.70682841
 20
456.5316715275
 30
0.0
 11
383.70682841
 21
446.0994358637
 31
0.0
  0
LINE
  5
EB
330
1F
100
AcDbEntity
  8
0
  6
Continuous
 62
     7
370
    25
100
AcDbLine
 10
399.6066002345
 20
434.9639070683
 30
0.0
 11
383.70682841
 21
434.9639070683
 31
0.0
  0
LINE
  5
EC
330
1F
100
AcDbEntity
  8
0
  6
Continuous
 62
     7
370
    25
100
AcDbLine
 10
383.70682841
 20
434.9639070683
 30
0.0
 11
383.70682841
 21
438.0740308666
 31
0.0
  0
LINE
  5
ED
330
1F
100
AcDbEntity
  8
0
  6
Continuous
 62
     7
370
    25
100
AcDbLine
 10
383.70682841
 20
442.9893129968
 30
0.0
 11
383.70682841
 21
446.0994358637
 31
0.0
  0
LINE
  5
EE
330
1F
100
AcDbEntity
  8
0
  6
Continuous
 62
     7
370
    25
100
AcDbLine
 10
383.70682841
 20
434.9639070683
 30
0.0
 11
383.70682841
 21
424.5316711717
 31
0.0
  0
LINE
  5
EF
330
1F
100
AcDbEntity
  8
0
  6
Continuous
 62
     7
370
    25
100
AcDbLine
 10
400.7068293339
 20
431.7346540743
 30
0.0
 11
400.7068293339
 21
424.5316711717
 31
0.0
  0
SPLINE
  5
F0
330
1F
100
AcDbEntity
  8
0
  6
Continuous
 62
     7
370
    25
100
AcDbSpline
210
0.0
220
0.0
230
1.0
 70
     8
 71
     3
 72
    14
 73
    10
 74
     0
 42
0.000000001
 43
0.00000001
 40
0.0
 40
0.0
 40
0.0
 40
0.0
 40
0.1195357997268207
 40
0.263608815421618
 40
0.4136690763542689
 40
0.5669126219604882
 40
0.7201561462316604
 40
0.8702164015555712
 40
0.9999999999999999
 40
0.9999999999999999
 40
0.9999999999999999
 40
0.9999999999999999
 10
453.6725225096981
 20
456.0500708871555
 30
0.0
 10
453.1097147886663
 20
456.081492239645
 30
0.0
 10
451.8685713237766
 20
456.1507848325555
 30
0.0
 10
449.9876033521649
 20
456.719562729293
 30
0.0
 10
448.106599863799
 20
457.6864401626206
 30
0.0
 10
446.4256788209574
 20
459.0520425321766
 30
0.0
 10
445.0698615318822
 20
460.7319563225643
 30
0.0
 10
444.0978802408681
 20
462.5471026513098
 30
0.0
 10
443.7821494086037
 20
463.8289236321181
 30
0.0
 10
443.6357224530021
 20
464.4233956464601
 30
0.0
  0
SPLINE
  5
F1
330
1F
100
AcDbEntity
  8
0
  6
Continuous
 62
     7
370
    25
100
AcDbSpline
210
0.0
220
0.0
230
1.0
 70
     8
 71
     3
 72
    10
 73
     6
 74
     0
 42
0.000000001
 43
0.00000001
 40
0.0
 40
0.0
 40
0.0
 40
0.0
 40
0.5
 40
0.5
 40
1.0
 40
1.0
 40
1.0
 40
1.0
 10
504.5142235304032
 20
417.7789380044623
 30
0.0
 10
504.8920869351079
 20
417.8455655498652
 30
0.0
 10
505.2948308314957
 20
417.9165801357404
 30
0.0
 10
506.1418983429603
 20
418.0659409944466
 30
0.0
 10
506.5850242801409
 20
418.1440760534703
 30
0.0
 10
507.045669644574
 20
418.2253002595747
 30
0.0
  0
SPLINE
  5
F2
330
1F
100
AcDbEntity
  8
0
  6
Continuous
 62
     7
370
    25
100
AcDbSpline
210
0.0
220
0.0
230
1.0
 70
     8
 71
     3
 72
    21
 73
    17
 74
     0
 42
0.000000001
 43
0.00000001
 40
0.0
 40
0.0
 40
0.0
 40
0.0
 40
0.07472038307415
 40
0.148992985672313
 40
0.2231358245559701
 40
0.2978177399684295
 40
0.3718851320644272
 40
0.4460178866980061
 40
0.5207588891013468
 40
0.5950312988328119
 40
0.6698264414200559
 40
0.7442547956331015
 40
0.8187850641319867
 40
0.8932391637988076
 40
0.967587795711938
 40
1.0
 40
1.0
 40
1.0
 40
1.0
 10
507.0456730371753
 20
418.2253004514646
 30
0.0
 10
508.0012521842478
 20
418.3937943127727
 30
0.0
 10
509.906683932734
 20
418.7297722940263
 30
0.0
 10
513.118295990369
 20
419.2960701487649
 30
0.0
 10
516.4865318819791
 20
419.8899757054512
 30
0.0
 10
519.9964725907408
 20
420.5088801396941
 30
0.0
 10
523.598785010892
 20
421.1440591335898
 30
0.0
 10
527.2509497969688
 20
421.7880372864479
 30
0.0
 10
530.8975117950091
 20
422.4310255322639
 30
0.0
 10
534.4692552443072
 20
423.0608171183766
 30
0.0
 10
537.8515098094549
 20
423.6572010722621
 30
0.0
 10
540.9156967349899
 20
424.1974992359583
 30
0.0
 10
543.5120265642429
 20
424.6553021721558
 30
0.0
 10
545.3903325250977
 20
424.9864998229131
 30
0.0
 10
546.4091503257087
 20
425.1661421139718
 30
0.0
 10
546.4126510803952
 20
425.1667608159369
 30
0.0
 10
546.4137138968746
 20
425.166948651619
 30
0.0
  0
SPLINE
  5
F3
330
1F
100
AcDbEntity
  8
0
  6
Continuous
 62
     7
370
    25
100
AcDbSpline
210
0.0
220
0.0
230
1.0
 70
     8
 71
     3
 72
    17
 73
    13
 74
     0
 42
0.000000001
 43
0.00000001
 40
0.0
 40
0.0
 40
0.0
 40
0.0
 40
0.1249999999999994
 40
0.1249999999999994
 40
0.2499999999999987
 40
0.3749999999999981
 40
0.3749999999999981
 40
0.4999999999999974
 40
0.4999999999999974
 40
0.7499999999999987
 40
0.7499999999999987
 40
1.0
 40
1.0
 40
1.0
 40
1.0
 10
502.1199699068109
 20
417.3567664953201
 30
0.0
 10
502.1046509586915
 20
417.3540653505812
 30
0.0
 10
502.10602280134
 20
417.3543072427752
 30
0.0
 10
502.1419842179748
 20
417.3606482107492
 30
0.0
 10
502.2107416767415
 20
417.3727720069096
 30
0.0
 10
502.3418396516719
 20
417.3958881187015
 30
0.0
 10
502.5024821006346
 20
417.4242137179383
 30
0.0
 10
502.5979988686521
 20
417.4410559019767
 30
0.0
 10
502.9235916627051
 20
417.4984666943437
 30
0.0
 10
503.188490102071
 20
417.5451754347606
 30
0.0
 10
503.7965551589178
 20
417.6523937135339
 30
0.0
 10
504.1395377552462
 20
417.7128707982221
 30
0.0
 10
504.5142235304032
 20
417.7789380044623
 30
0.0
  0
LWPOLYLINE
  5
F4
330
1F
100
AcDbEntity
  8
0
  6
Continuous
 62
     7
370
    25
100
AcDbPolyline
 90
       13
 70
   128
 43
0.0
 10
399.0174343979
 20
479.5955018603
 10
399.0577606654
 20
479.5883921438
 10
399.37950095
 20
479.5316596978
 10
400.0183714724
 20
479.4190106445
 10
400.9652210569
 20
479.2520543092
 10
402.2064859217
 20
479.0331860536
 10
403.7243852562
 20
478.7655388468
 10
405.4971745408
 20
478.4529497379
 10
407.4994556776
 20
478.0998928004
 10
409.7025495192
 20
477.7114288413
 10
412.0748935437
 20
477.293119719
 10
414.5825037903
 20
476.8509594255
 10
417.1894586815
 20
476.3912846797
  0
LINE
  5
F5
330
1F
100
AcDbEntity
  8
0
  6
Continuous
 62
     7
370
    25
100
AcDbLine
 10
425.8718675172
 20
475.6316719108
 30
0.0
 11
444.0174343234
 21
475.6316719108
 31
0.0
  0
SPLINE
  5
F6
330
1F
100
AcDbEntity
  8
0
  6
Continuous
 62
     7
370
    25
100
AcDbSpline
210
0.0
220
0.0
230
1.0
 70
     8
 71
     3
 72
    12
 73
     8
 74
     0
 42
0.000000001
 43
0.00000001
 40
0.0
 40
0.0
 40
0.0
 40
0.0
 40
0.236695951382815
 40
0.4732914773060687
 40
0.7120739659957754
 40
0.9503936589299998
 40
1.0
 40
1.0
 40
1.0
 40
1.0
 10
443.6674339866678
 20
483.3213435017538
 30
0.0
 10
443.687311892646
 20
482.885721807512
 30
0.0
 10
443.7270592707958
 20
482.0146632447873
 30
0.0
 10
443.8564680912528
 20
480.9318105348926
 30
0.0
 10
443.9664208321506
 20
480.2144240419148
 30
0.0
 10
444.0246486191148
 20
479.890549765629
 30
0.0
 10
444.0129636426053
 20
479.9571648291987
 30
0.0
 10
444.0109504556696
 20
479.9686418377829
 30
0.0
  0
SPLINE
  5
F7
330
1F
100
AcDbEntity
  8
0
  6
Continuous
 62
     7
370
    25
100
AcDbSpline
210
0.0
220
0.0
230
1.0
 70
     8
 71
     3
 72
    12
 73
     8
 74
     0
 42
0.000000001
 43
0.00000001
 40
0.0
 40
0.0
 40
0.0
 40
0.0
 40
0.1854878229807822
 40
0.4195928734067585
 40
0.6564408067146175
 40
0.8956706209249885
 40
1.0
 40
1.0
 40
1.0
 40
1.0
 10
444.0109504556696
 20
487.8946998619509
 30
0.0
 10
444.0086658427226
 20
487.8824157828881
 30
0.0
 10
444.0034978090716
 20
487.8546279100869
 30
0.0
 10
443.9082042198486
 20
487.2923650383506
 30
0.0
 10
443.7841329910381
 20
486.3644083714892
 30
0.0
 10
443.6969027514338
 20
485.3703383830928
 30
0.0
 10
443.6742983232905
 20
484.7349498882835
 30
0.0
 10
443.6674339866678
 20
484.5420000606251
 30
0.0
  0
SPLINE
  5
F8
330
1F
100
AcDbEntity
  8
0
  6
Continuous
 62
     7
370
    25
100
AcDbSpline
210
0.0
220
0.0
230
1.0
 70
     8
 71
     3
 72
    12
 73
     8
 74
     0
 42
0.000000001
 43
0.00000001
 40
0.0
 40
0.0
 40
0.0
 40
0.0
 40
0.5
 40
0.5
 40
0.75
 40
0.75
 40
1.0
 40
1.0
 40
1.0
 40
1.0
 10
417.1894587783297
 20
476.391283803852
 30
0.0
 10
418.6152274536781
 20
476.1398823181391
 30
0.0
 10
420.0528990633916
 20
475.9501131979299
 30
0.0
 10
422.2273586205051
 20
475.7593649062875
 30
0.0
 10
422.955181865673
 20
475.7114531757808
 30
0.0
 10
424.4169973615291
 20
475.6474879417394
 30
0.0
 10
425.1482759550794
 20
475.6316714544624
 30
0.0
 10
425.8718676616762
 20
475.6316714544624
 30
0.0
  0
LINE
  5
F9
330
1F
100
AcDbEntity
  8
0
  6
Continuous
 62
     7
370
    25
100
AcDbLine
 10
421.5174344844
 20
504.631672939
 30
0.0
 11
443.4774348682
 21
504.631672939
 31
0.0
  0
LINE
  5
FA
330
1F
100
AcDbEntity
  8
0
  6
Continuous
 62
     7
370
    25
100
AcDbLine
 10
399.5574338532
 20
504.631672939
 30
0.0
 11
421.5174344844
 21
504.631672939
 31
0.0
  0
LINE
  5
FB
330
1F
100
AcDbEntity
  8
0
  6
Continuous
 62
     7
370
    25
100
AcDbLine
 10
399.4068296796
 20
468.5316718646
 30
0.0
 11
443.4068294412
 21
468.5316718646
 31
0.0
  0
LINE
  5
FC
330
1F
100
AcDbEntity
  8
0
  6
Continuous
 62
     7
370
    25
100
AcDbLine
 10
443.4068294412
 20
468.0316717827
 30
0.0
 11
443.4055833316
 21
468.0316717827
 31
0.0
  0
LINE
  5
FD
330
1F
100
AcDbEntity
  8
0
  6
Continuous
 62
     7
370
    25
100
AcDbLine
 10
406.1025099999
 20
468.0316717827
 30
0.0
 11
399.4068296796
 21
468.0316717827
 31
0.0
  0
SPLINE
  5
FE
330
1F
100
AcDbEntity
  8
0
  6
Continuous
 62
     7
370
    25
100
AcDbSpline
210
0.0
220
0.0
230
1.0
 70
     8
 71
     3
 72
     9
 73
     5
 74
     0
 42
0.000000001
 43
0.00000001
 40
0.0
 40
0.0
 40
0.0
 40
0.0
 40
0.1301928965217842
 40
1.0
 40
1.0
 40
1.0
 40
1.0
 10
483.1086227840225
 20
421.0626342796755
 30
0.0
 10
483.1246694293732
 20
421.0518988846929
 30
0.0
 10
483.2479222778724
 20
420.9694412754886
 30
0.0
 10
483.0018446112472
 20
421.1340768574323
 30
0.0
 10
482.7878045088092
 20
421.2772780560923
 30
0.0
  0
SPLINE
  5
FF
330
1F
100
AcDbEntity
  8
0
  6
Continuous
 62
     7
370
    25
100
AcDbSpline
210
0.0
220
0.0
230
1.0
 70
     8
 71
     3
 72
    17
 73
    13
 74
     0
 42
0.000000001
 43
0.00000001
 40
0.0
 40
0.0
 40
0.0
 40
0.0
 40
0.1063081080687271
 40
0.2125795165170201
 40
0.3198067353996945
 40
0.4277207985525152
 40
0.5345772776348675
 40
0.6402767486774585
 40
0.7465243223549763
 40
0.8541615085716365
 40
0.961882812215457
 40
1.0
 40
1.0
 40
1.0
 40
1.0
 10
468.4068279510776
 20
456.0316715619561
 30
0.0
 10
468.4395036932104
 20
456.0259171621359
 30
0.0
 10
468.5048438971762
 20
456.0144103490261
 30
0.0
 10
469.0135990938342
 20
455.9341118024174
 30
0.0
 10
469.766659780907
 20
455.8433829341749
 30
0.0
 10
470.7144334806528
 20
455.7766818923579
 30
0.0
 10
471.736339858975
 20
455.7658241375008
 30
0.0
 10
472.7133711320492
 20
455.8138838468802
 30
0.0
 10
473.5519306291849
 20
455.900741505688
 30
0.0
 10
474.1347175818749
 20
455.9851116936852
 30
0.0
 10
474.4180872349846
 20
456.0335739969847
 30
0.0
 10
474.3785972381831
 20
456.0268700319089
 30
0.0
 10
474.3682759052555
 20
456.0251178449985
 30
0.0
  0
SPLINE
  5
100
330
1F
100
AcDbEntity
  8
0
  6
Continuous
 62
     7
370
    25
100
AcDbSpline
210
0.0
220
0.0
230
1.0
 70
     8
 71
     3
 72
    23
 73
    19
 74
     0
 42
0.000000001
 43
0.00000001
 40
0.0
 40
0.0
 40
0.0
 40
0.0
 40
0.0553550511749485
 40
0.1125335305259212
 40
0.1678175485524895
 40
0.2243832641555148
 40
0.2862389202817411
 40
0.3500133396987299
 40
0.4387475206219204
 40
0.5277787450753556
 40
0.6127144399445057
 40
0.6745364192135535
 40
0.738139694768167
 40
0.800315297807264
 40
0.8645062798106126
 40
0.9130262672768117
 40
0.962898822986428
 40
1.0
 40
1.0
 40
1.0
 40
1.0
 10
482.7878045088092
 20
421.2772780560923
 30
0.0
 10
482.5993390146274
 20
421.4009271530377
 30
0.0
 10
482.2161998612451
 20
421.6522984214271
 30
0.0
 10
481.2934275500326
 20
422.2311701053234
 30
0.0
 10
480.1524228442032
 20
422.9006719927122
 30
0.0
 10
478.7641162017724
 20
423.6406631180342
 30
0.0
 10
477.0969794650065
 20
424.4020765261968
 30
0.0
 10
474.8934286963982
 20
425.1730689989774
 30
0.0
 10
472.0998815107561
 20
425.6771672111442
 30
0.0
 10
468.9653759000821
 20
425.4459995576707
 30
0.0
 10
466.4191120257744
 20
424.6861514354124
 30
0.0
 10
464.4293581717744
 20
423.8294743136176
 30
0.0
 10
462.8785023701654
 20
423.0252640266253
 30
0.0
 10
461.5624404132125
 20
422.2586781641915
 30
0.0
 10
460.6170438426163
 20
421.6644733544492
 30
0.0
 10
460.0128993865742
 20
421.2698054010084
 30
0.0
 10
459.6964948358245
 20
421.0583506745641
 30
0.0
 10
459.6844101620571
 20
421.0501898856681
 30
0.0
 10
459.679255092744
 20
421.0467086636496
 30
0.0
  0
LINE
  5
101
330
1F
100
AcDbEntity
  8
0
  6
Continuous
 62
     7
370
    25
100
AcDbLine
 10
538.2443608886
 20
418.5256445312
 30
0.0
 11
537.6023443586
 21
421.8875402116
 31
0.0
  0
LWPOLYLINE
  5
102
330
1F
100
AcDbEntity
  8
0
  6
Continuous
 62
     7
370
    25
100
AcDbPolyline
 90
       15
 70
   128
 43
0.0
 10
538.2443608886
 20
418.5256445312
 10
537.3195948249
 20
418.3490434193
 10
536.1242907292
 20
418.1207762563
 10
534.6911790019
 20
417.8470978045
 10
533.0595093018
 20
417.5354996228
 10
531.2739478594
 20
417.1945126259
 10
529.3833928353
 20
416.8334798419
 10
527.4396183139
 20
416.4622770154
 10
525.495836342
 20
416.0910779142
 10
523.6052813178
 20
415.7300414049
 10
521.8197198755
 20
415.389054408
 10
520.1880501753
 20
415.0774562263
 10
518.7549384481
 20
414.8037777745
 10
517.5596343523
 20
414.5755106115
 10
516.6348682886
 20
414.3989094996
  0
LINE
  5
103
330
1F
100
AcDbEntity
  8
0
  6
Continuous
 62
     7
370
    25
100
AcDbLine
 10
516.6348682886
 20
414.3989094996
 30
0.0
 11
515.9928517586
 21
417.76080518
 31
0.0
  0
LWPOLYLINE
  5
104
330
1F
100
AcDbEntity
  8
0
  6
Continuous
 62
     7
370
    25
100
AcDbPolyline
 90
        5
 70
   128
 43
0.0
 10
515.0106044656
 20
417.5732293629
 10
515.072809363
 20
417.5851093137
 10
515.2587758547
 20
417.6206225061
 10
515.566544438
 20
417.6793964111
 10
515.9928517586
 20
417.76080518
  0
LWPOLYLINE
  5
105
330
1F
100
AcDbEntity
  8
0
  6
Continuous
 62
     7
370
    25
100
AcDbPolyline
 90
        5
 70
   128
 43
0.0
 10
537.6023443586
 20
421.8875402116
 10
538.0286516792
 20
421.9689527058
 10
538.3364202625
 20
422.0277266108
 10
538.5223867542
 20
422.0632398033
 10
538.5845916516
 20
422.075119754
  0
SPLINE
  5
106
330
1F
100
AcDbEntity
  8
0
  6
Continuous
 62
     7
370
    25
100
AcDbSpline
210
0.0
220
0.0
230
1.0
 70
    24
 71
     3
 72
    10
 73
     6
 74
     0
 42
0.000000001
 43
0.00000001
 40
0.0
 40
0.0
 40
0.0
 40
0.0
 40
0.5
 40
0.5
 40
1.0
 40
1.0
 40
1.0
 40
1.0
 10
538.3526586939253
 20
417.9585422969755
 30
0.0
 10
538.3526586939253
 20
417.9585422969755
 30
0.0
 10
538.342723838682
 20
418.0105658015319
 30
0.0
 10
538.3053862147109
 20
418.2060828979804
 30
0.0
 10
538.2781519138078
 20
418.3486943142953
 30
0.0
 10
538.2443600166882
 20
418.5256443423271
 30
0.0
  0
LWPOLYLINE
  5
107
330
1F
100
AcDbEntity
  8
0
  6
Continuous
 62
     7
370
    25
100
AcDbPolyline
 90
       19
 70
   128
 43
0.0
 10
538.3526550776
 20
417.9585435891
 10
538.1885113364
 20
417.9271952712
 10
537.7010496503
 20
417.8341077172
 10
536.9050966746
 20
417.6821046972
 10
535.8248295432
 20
417.475805571
 10
534.4930680639
 20
417.2214837276
 10
532.9502837902
 20
416.9268579685
 10
531.2433557755
 20
416.6008876168
 10
529.4241400605
 20
416.2534744942
 10
527.5479125029
 20
415.8951760733
 10
525.6716923958
 20
415.5368739271
 10
523.8524766809
 20
415.1894608044
 10
522.1455412155
 20
414.8634904527
 10
520.6027569419
 20
414.5688684189
 10
519.2709954625
 20
414.3145428502
 10
518.1907283312
 20
414.1082474493
 10
517.3947753555
 20
413.9562444293
 10
516.9073136693
 20
413.8631568753
 10
516.7431699282
 20
413.8318085575
  0
SPLINE
  5
108
330
1F
100
AcDbEntity
  8
0
  6
Continuous
 62
     7
370
    25
100
AcDbSpline
210
0.0
220
0.0
230
1.0
 70
    24
 71
     3
 72
    10
 73
     6
 74
     0
 42
0.000000001
 43
0.00000001
 40
0.0
 40
0.0
 40
0.0
 40
0.0
 40
0.5
 40
0.5
 40
1.0
 40
1.0
 40
1.0
 40
1.0
 10
516.7431684701687
 20
413.8318084468984
 30
0.0
 10
516.7431684701687
 20
413.8318084468984
 30
0.0
 10
516.7332336149256
 20
413.883831951455
 30
0.0
 10
516.6958959909543
 20
414.0793490479033
 30
0.0
 10
516.6686616900513
 20
414.2219604642182
 30
0.0
 10
516.6348697929316
 20
414.39891049225
 30
0.0
  0
LINE
  5
109
330
1F
100
AcDbEntity
  8
0
  6
Continuous
 62
     7
370
    25
100
AcDbLine
 10
483.1568280405
 20
418.0316710376
 30
0.0
 11
459.6568288451
 21
418.0316710376
 31
0.0
  0
LINE
  5
10A
330
1F
100
AcDbEntity
  8
0
  6
Continuous
 62
     7
370
    25
100
AcDbLine
 10
481.8818288094
 20
414.8066723251
 30
0.0
 11
460.9318280762
 21
414.8066723251
 31
0.0
  0
LINE
  5
10B
330
1F
100
AcDbEntity
  8
0
  6
Continuous
 62
     7
370
    25
100
AcDbLine
 10
480.4784448987
 20
412.2066730165
 30
0.0
 11
460.9318280762
 21
412.2066730165
 31
0.0
  0
LINE
  5
10C
330
1F
100
AcDbEntity
  8
0
  6
Continuous
 62
     7
370
    25
100
AcDbLine
 10
481.8818288094
 20
412.2066730165
 30
0.0
 11
480.4784448987
 21
412.2066730165
 31
0.0
  0
LINE
  5
10D
330
1F
100
AcDbEntity
  8
0
  6
Continuous
 62
     7
370
    25
100
AcDbLine
 10
480.6568304247
 20
416.0316707098
 30
0.0
 11
462.1568301863
 21
416.0316707098
 31
0.0
  0
LINE
  5
10E
330
1F
100
AcDbEntity
  8
0
  6
Continuous
 62
     7
370
    25
100
AcDbLine
 10
481.8818288094
 20
408.2066723608
 30
0.0
 11
460.9318280762
 21
408.2066723608
 31
0.0
  0
LINE
  5
10F
330
1F
100
AcDbEntity
  8
0
  6
Continuous
 62
     7
370
    25
100
AcDbLine
 10
460.9318280762
 20
411.2066709899
 30
0.0
 11
481.8818288094
 21
411.2066709899
 31
0.0
  0
LINE
  5
110
330
1F
100
AcDbEntity
  8
0
  6
Continuous
 62
     7
370
    25
100
AcDbLine
 10
480.7068312711
 20
407.0316710972
 30
0.0
 11
462.1068293399
 21
407.0316710972
 31
0.0
  0
LINE
  5
111
330
1F
100
AcDbEntity
  8
0
  6
Continuous
 62
     7
370
    25
100
AcDbLine
 10
471.4068303055
 20
471.9816715919
 30
0.0
 11
477.9068285769
 21
471.9816715919
 31
0.0
  0
LINE
  5
112
330
1F
100
AcDbEntity
  8
0
  6
Continuous
 62
     7
370
    25
100
AcDbLine
 10
464.9068283087
 20
471.9816715919
 30
0.0
 11
471.4068303055
 21
471.9816715919
 31
0.0
  0
LINE
  5
113
330
1F
100
AcDbEntity
  8
0
  6
Continuous
 62
     7
370
    25
100
AcDbLine
 10
471.4068303055
 20
461.9816713498
 30
0.0
 11
464.9068283087
 21
461.9816713498
 31
0.0
  0
LINE
  5
114
330
1F
100
AcDbEntity
  8
0
  6
Continuous
 62
     7
370
    25
100
AcDbLine
 10
477.9068285769
 20
461.9816713498
 30
0.0
 11
471.4068303055
 21
461.9816713498
 31
0.0
  0
LINE
  5
115
330
1F
100
AcDbEntity
  8
0
  6
Continuous
 62
     7
370
    25
100
AcDbLine
 10
506.5174343234
 20
499.6316702568
 30
0.0
 11
506.5174343234
 21
490.6316706442
 31
0.0
  0
LINE
  5
116
330
1F
100
AcDbEntity
  8
0
  6
Continuous
 62
     7
370
    25
100
AcDbLine
 10
444.4174336439
 20
483.9316708499
 30
0.0
 11
444.4174336439
 21
487.9316696429
 31
0.0
  0
LINE
  5
117
330
1F
100
AcDbEntity
  8
0
  6
Continuous
 62
     7
370
    25
100
AcDbLine
 10
444.4174336439
 20
479.9316720569
 30
0.0
 11
444.4174336439
 21
483.9316708499
 31
0.0
  0
LINE
  5
118
330
1F
100
AcDbEntity
  8
0
  6
Continuous
 62
     7
370
    25
100
AcDbLine
 10
443.6674339867
 20
483.3213435018
 30
0.0
 11
443.6674339867
 21
484.5420000606
 31
0.0
  0
LINE
  5
119
330
1F
100
AcDbEntity
  8
0
  6
Continuous
 62
     8
370
    18
100
AcDbLine
 10
369.9068295008
 20
440.5316710004
 30
0.0
 11
369.9068295008
 21
475.5316720807
 31
0.0
  0
LINE
  5
11A
330
1F
100
AcDbEntity
  8
0
  6
Continuous
 62
     8
370
    18
100
AcDbLine
 10
369.9068295008
 20
405.5316717827
 30
0.0
 11
369.9068295008
 21
440.5316710004
 31
0.0
  0
SPLINE
  5
11B
330
1F
100
AcDbEntity
  8
0
  6
Continuous
 62
     8
370
    18
100
AcDbSpline
210
0.0
220
0.0
230
1.0
 70
    11
 71
     3
 72
    70
 73
    66
 74
     0
 42
0.000000001
 43
0.00000001
 40
0.0
 40
0.0
 40
0.0
 40
0.0
 40
0.0312499999999999
 40
0.0312499999999999
 40
0.0624999999999999
 40
0.0624999999999999
 40
0.0937499999999999
 40
0.0937499999999999
 40
0.1249999999999999
 40
0.1249999999999999
 40
0.1562499999999999
 40
0.1562499999999999
 40
0.1874999999999999
 40
0.1874999999999999
 40
0.2187499999999999
 40
0.2187499999999999
 40
0.2499999999999999
 40
0.2499999999999999
 40
0.2812499999999999
 40
0.2812499999999999
 40
0.3124999999999999
 40
0.3124999999999999
 40
0.3437499999999999
 40
0.3437499999999999
 40
0.3749999999999999
 40
0.3749999999999999
 40
0.4062499999999999
 40
0.4062499999999999
 40
0.4374999999999999
 40
0.4374999999999999
 40
0.4687499999999999
 40
0.4687499999999999
 40
0.4999999999999999
 40
0.4999999999999999
 40
0.5312499999999998
 40
0.5312499999999998
 40
0.5624999999999998
 40
0.5624999999999998
 40
0.5937499999999998
 40
0.5937499999999998
 40
0.6249999999999998
 40
0.6249999999999998
 40
0.6562499999999998
 40
0.6562499999999998
 40
0.6874999999999998
 40
0.6874999999999998
 40
0.7187499999999998
 40
0.7187499999999998
 40
0.7499999999999998
 40
0.7499999999999998
 40
0.7812499999999999
 40
0.7812499999999999
 40
0.8124999999999999
 40
0.8124999999999999
 40
0.8437499999999999
 40
0.8437499999999999
 40
0.875
 40
0.875
 40
0.90625
 40
0.90625
 40
0.9375
 40
0.9375
 40
0.96875
 40
0.96875
 40
1.0
 40
1.0
 40
1.0
 40
1.0
 10
421.4068295604037
 20
462.0316714544635
 30
0.0
 10
422.3026628937371
 20
462.0316714544635
 30
0.0
 10
423.2550426807212
 20
461.9761071972781
 30
0.0
 10
425.2665810418565
 20
461.7067047381975
 30
0.0
 10
426.3260295604041
 20
461.4927381211301
 30
0.0
 10
428.5276295604043
 20
460.8506047877968
 30
0.0
 10
429.6700749418798
 20
460.4220893309941
 30
0.0
 10
431.9862808081427
 20
459.2929389711909
 30
0.0
 10
433.160162893738
 20
458.5916714544632
 30
0.0
 10
435.4534962270715
 20
456.8716714544631
 30
0.0
 10
436.572620515556
 20
455.8521193183524
 30
0.0
 10
438.6382988792267
 20
453.4851961933131
 30
0.0
 10
439.5838768499092
 20
452.1372077866426
 30
0.0
 10
441.1709587414896
 20
449.1614292399295
 30
0.0
 10
441.8110504677032
 20
447.5338016319771
 30
0.0
 10
442.6795317300308
 20
444.1141566615626
 30
0.0
 10
442.9068295604056
 20
442.3233381211285
 30
0.0
 10
442.9068295604056
 20
438.7400047877949
 30
0.0
 10
442.6795317300308
 20
436.9491862473608
 30
0.0
 10
441.8110504677033
 20
433.5295412769463
 30
0.0
 10
441.1709587414896
 20
431.9019136689938
 30
0.0
 10
439.5838768499094
 20
428.9261351222808
 30
0.0
 10
438.6382988792268
 20
427.5781467156103
 30
0.0
 10
436.5726205155562
 20
425.211223590571
 30
0.0
 10
435.4534962270716
 20
424.1916714544603
 30
0.0
 10
433.1601628937382
 20
422.4716714544601
 30
0.0
 10
431.9862808081428
 20
421.7704039377324
 30
0.0
 10
429.6700749418799
 20
420.6412535779293
 30
0.0
 10
428.5276295604044
 20
420.2127381211266
 30
0.0
 10
426.3260295604042
 20
419.5706047877932
 30
0.0
 10
425.2665810418566
 20
419.3566381707259
 30
0.0
 10
423.2550426807214
 20
419.0872357116452
 30
0.0
 10
422.3026628937372
 20
419.0316714544599
 30
0.0
 10
420.5109962270704
 20
419.0316714544599
 30
0.0
 10
419.5586164400863
 20
419.0872357116453
 30
0.0
 10
417.547078078951
 20
419.3566381707258
 30
0.0
 10
416.4876295604034
 20
419.5706047877932
 30
0.0
 10
414.2860295604032
 20
420.2127381211266
 30
0.0
 10
413.1435841789277
 20
420.6412535779293
 30
0.0
 10
410.8273783126648
 20
421.7704039377324
 30
0.0
 10
409.6534962270695
 20
422.4716714544602
 30
0.0
 10
407.3601628937359
 20
424.1916714544603
 30
0.0
 10
406.2410386052514
 20
425.211223590571
 30
0.0
 10
404.1753602415808
 20
427.5781467156102
 30
0.0
 10
403.2297822708982
 20
428.9261351222808
 30
0.0
 10
401.6427003793179
 20
431.9019136689938
 30
0.0
 10
401.0026086531042
 20
433.5295412769463
 30
0.0
 10
400.1341273907767
 20
436.9491862473608
 30
0.0
 10
399.9068295604019
 20
438.7400047877949
 30
0.0
 10
399.9068295604019
 20
442.3233381211285
 30
0.0
 10
400.1341273907767
 20
444.1141566615626
 30
0.0
 10
401.0026086531042
 20
447.5338016319771
 30
0.0
 10
401.6427003793178
 20
449.1614292399296
 30
0.0
 10
403.2297822708981
 20
452.1372077866426
 30
0.0
 10
404.1753602415807
 20
453.4851961933131
 30
0.0
 10
406.2410386052513
 20
455.8521193183524
 30
0.0
 10
407.3601628937358
 20
456.8716714544631
 30
0.0
 10
409.6534962270694
 20
458.5916714544632
 30
0.0
 10
410.8273783126647
 20
459.2929389711909
 30
0.0
 10
413.1435841789275
 20
460.4220893309941
 30
0.0
 10
414.2860295604031
 20
460.8506047877968
 30
0.0
 10
416.4876295604033
 20
461.4927381211301
 30
0.0
 10
417.5470780789508
 20
461.7067047381975
 30
0.0
 10
419.5586164400861
 20
461.9761071972782
 30
0.0
 10
420.5109962270702
 20
462.0316714544635
 30
0.0
 10
421.4068295604037
 20
462.0316714544635
 30
0.0
  0
LINE
  5
11C
330
1F
100
AcDbEntity
  8
0
  6
Continuous
 62
     8
370
    18
100
AcDbLine
 10
371.5068305081
 20
440.5316710004
 30
0.0
 11
371.5068305081
 21
424.5316711717
 31
0.0
  0
LINE
  5
11D
330
1F
100
AcDbEntity
  8
0
  6
Continuous
 62
     8
370
    18
100
AcDbLine
 10
371.5068305081
 20
456.5316715275
 30
0.0
 11
371.5068305081
 21
440.5316710004
 31
0.0
  0
LINE
  5
11E
330
1F
100
AcDbEntity
  8
0
  6
Continuous
 62
     8
370
    18
100
AcDbLine
 10
382.906829769
 20
440.5316710004
 30
0.0
 11
382.906829769
 21
456.5316715275
 31
0.0
  0
LINE
  5
11F
330
1F
100
AcDbEntity
  8
0
  6
Continuous
 62
     8
370
    18
100
AcDbLine
 10
382.906829769
 20
424.5316711717
 30
0.0
 11
382.906829769
 21
440.5316710004
 31
0.0
  0
SPLINE
  5
120
330
1F
100
AcDbEntity
  8
0
  6
Continuous
 62
     8
370
    18
100
AcDbSpline
210
0.0
220
0.0
230
1.0
 70
     8
 71
     3
 72
    14
 73
    10
 74
     0
 42
0.000000001
 43
0.00000001
 40
0.0
 40
0.0
 40
0.0
 40
0.0
 40
0.25
 40
0.25
 40
0.5
 40
0.5
 40
0.75
 40
0.75
 40
1.0
 40
1.0
 40
1.0
 40
1.0
 10
420.365205207483
 20
463.0075475338027
 30
0.0
 10
420.3901090506336
 20
463.008701920679
 30
0.0
 10
420.4125124911961
 20
463.1062813734681
 30
0.0
 10
420.4443025085419
 20
463.5456698027642
 30
0.0
 10
420.4534605697427
 20
463.8889434625703
 30
0.0
 10
420.4542238969611
 20
464.7662837525654
 30
0.0
 10
420.4458265749238
 20
465.2973997075563
 30
0.0
 10
420.4153790483151
 20
466.4027287893423
 30
0.0
 10
420.3935556553839
 20
466.973534607536
 30
0.0
 10
420.36911077536
 20
467.5027195078321
 30
0.0
  0
SPLINE
  5
121
330
1F
100
AcDbEntity
  8
0
  6
Continuous
 62
     8
370
    18
100
AcDbSpline
210
0.0
220
0.0
230
1.0
 70
     8
 71
     3
 72
    21
 73
    17
 74
     0
 42
0.000000001
 43
0.00000001
 40
0.0
 40
0.0
 40
0.0
 40
0.0
 40
0.0211484995009274
 40
0.0437733522629468
 40
0.067750686626458
 40
0.0919766892691118
 40
0.1161950674253626
 40
0.2310355260071414
 40
0.3468612743521115
 40
0.4660019593125252
 40
0.656141887700856
 40
0.8500935700159911
 40
0.8875425829069126
 40
0.9249732932027466
 40
0.9624373213375172
 40
1.0
 40
1.0
 40
1.0
 40
1.0
 10
439.6042794238115
 20
466.8313280343033
 30
0.0
 10
439.5146112463484
 20
466.8415728634484
 30
0.0
 10
439.3290152555454
 20
466.8627777018827
 30
0.0
 10
439.0302131155174
 20
466.8977294364179
 30
0.0
 10
438.7084459636359
 20
466.9337569462068
 30
0.0
 10
438.3687731767966
 20
466.9706473716024
 30
0.0
 10
437.5798906104985
 20
467.0538917677884
 30
0.0
 10
436.2452347389569
 20
467.1854918833802
 30
0.0
 10
434.2064819857519
 20
467.3602856837125
 30
0.0
 10
431.5057715112367
 20
467.5426677484801
 30
0.0
 10
428.0151953474539
 20
467.6709615122603
 30
0.0
 10
424.8992729198871
 20
467.666294605588
 30
0.0
 10
422.8934256047445
 20
467.6131069966161
 30
0.0
 10
422.0530715536243
 20
467.5835763100597
 30
0.0
 10
421.2111095495118
 20
467.5476775775945
 30
0.0
 10
420.6501283177265
 20
467.5178074332185
 30
0.0
 10
420.3692688925329
 20
467.50285272332
 30
0.0
  0
SPLINE
  5
122
330
1F
100
AcDbEntity
  8
0
  6
Continuous
 62
     8
370
    18
100
AcDbSpline
210
0.0
220
0.0
230
1.0
 70
     8
 71
     3
 72
    28
 73
    24
 74
     0
 42
0.000000001
 43
0.00000001
 40
0.0
 40
0.0
 40
0.0
 40
0.0
 40
0.0368455058960503
 40
0.0737440416461979
 40
0.1107078522591345
 40
0.1477509729925645
 40
0.1848873645921801
 40
0.222129815111525
 40
0.2594905360781896
 40
0.2969506200088712
 40
0.3344426497974281
 40
0.371977066566763
 40
0.4095706807499342
 40
0.4472426585103239
 40
0.4850058690702567
 40
0.5228752650774898
 40
0.5908941582320214
 40
0.6587812845430201
 40
0.7266482235619562
 40
0.7946017365002919
 40
0.8627447567451114
 40
0.9311776998835399
 40
1.0
 40
1.0
 40
1.0
 40
1.0
 10
443.404202279219
 20
466.527180233687
 30
0.0
 10
443.4008019260674
 20
466.5232357183913
 30
0.0
 10
443.3939963258098
 20
466.5153410106605
 30
0.0
 10
443.3710042345025
 20
466.5062843149713
 30
0.0
 10
443.3385424855506
 20
466.4991719857991
 30
0.0
 10
443.2956478252918
 20
466.4941725910901
 30
0.0
 10
443.2425098197257
 20
466.4911865112182
 30
0.0
 10
443.1789816909404
 20
466.4901653658771
 30
0.0
 10
443.1049951663543
 20
466.4910254880759
 30
0.0
 10
443.0205779277546
 20
466.4937057799934
 30
0.0
 10
442.9258023914001
 20
466.4982062729558
 30
0.0
 10
442.8206341453593
 20
466.5044577204453
 30
0.0
 10
442.7050340728611
 20
466.5124282600863
 30
0.0
 10
442.579094495441
 20
466.5221746675679
 30
0.0
 10
442.442631219061
 20
466.5335633911491
 30
0.0
 10
442.2567323063745
 20
466.5500124052433
 30
0.0
 10
442.0102485014634
 20
466.5729952933125
 30
0.0
 10
441.6891687103771
 20
466.6045436831348
 30
0.0
 10
441.3366545954503
 20
466.640768333596
 30
0.0
 10
440.9528780795861
 20
466.6816212494925
 30
0.0
 10
440.5370084216796
 20
466.7270789615666
 30
0.0
 10
440.0913927517394
 20
466.7766469694267
 30
0.0
 10
439.7687771369876
 20
466.8128622473803
 30
0.0
 10
439.6070117418437
 20
466.8310212529601
 30
0.0
  0
LINE
  5
123
330
1F
100
AcDbEntity
  8
0
  6
Continuous
 62
     8
370
    18
100
AcDbLine
 10
453.9029391652
 20
456.0288707257
 30
0.0
 11
453.6725225097
 21
456.0500708872
 31
0.0
  0
SPLINE
  5
124
330
1F
100
AcDbEntity
  8
0
  6
Continuous
 62
     8
370
    18
100
AcDbSpline
210
0.0
220
0.0
230
1.0
 70
     8
 71
     3
 72
     9
 73
     5
 74
     0
 42
0.000000001
 43
0.00000001
 40
0.0
 40
0.0
 40
0.0
 40
0.0
 40
0.0951201500214286
 40
1.0
 40
1.0
 40
1.0
 40
1.0
 10
443.6357224530021
 20
464.4233956464601
 30
0.0
 10
443.6165446317085
 20
464.4878761645479
 30
0.0
 10
443.4149278208718
 20
465.1657611139859
 30
0.0
 10
443.4093045418904
 20
465.8804665413588
 30
0.0
 10
443.4042161500494
 20
466.5271890812588
 30
0.0
  0
SPLINE
  5
125
330
1F
100
AcDbEntity
  8
0
  6
Continuous
 62
     8
370
    18
100
AcDbSpline
210
0.0
220
0.0
230
1.0
 70
     8
 71
     3
 72
    35
 73
    31
 74
     0
 42
0.000000001
 43
0.00000001
 40
0.0
 40
0.0
 40
0.0
 40
0.0
 40
0.0274885130269718
 40
0.0548182261809935
 40
0.0820059189320123
 40
0.1090677931627407
 40
0.1360195668367727
 40
0.1628765892720879
 40
0.1896539307012837
 40
0.2163664383474254
 40
0.2430244670660289
 40
0.2695782521629969
 40
0.2960203553036272
 40
0.3223643430503485
 40
0.348623602458816
 40
0.3748114108541695
 40
0.40094100737658
 40
0.4270256674069686
 40
0.4530787805147761
 40
0.4791139318995729
 40
0.5324011634429837
 40
0.5852630297806852
 40
0.6377930948676074
 40
0.6900871854793377
 40
0.7422336765157186
 40
0.794121271700645
 40
0.8457524465625926
 40
0.8972133874306462
 40
0.9485919868605642
 40
1.0
 40
1.0
 40
1.0
 40
1.0
 10
452.6828228535825
 20
449.4586633927397
 30
0.0
 10
452.7041737619843
 20
449.5672521457349
 30
0.0
 10
452.746752235574
 20
449.7838023395034
 30
0.0
 10
452.8078392687623
 20
450.0999666507457
 30
0.0
 10
452.8667839619845
 20
450.4085927263478
 30
0.0
 10
452.9235018131121
 20
450.7092211181837
 30
0.0
 10
452.9781336119678
 20
451.0020662134973
 30
0.0
 10
453.0307357022853
 20
451.2871440031385
 30
0.0
 10
453.0813780417723
 20
451.5645164102798
 30
0.0
 10
453.1301130168714
 20
451.834209010897
 30
0.0
 10
453.1769372255284
 20
452.0960295562444
 30
0.0
 10
453.2218432847827
 20
452.3497309450943
 30
0.0
 10
453.2648805762217
 20
452.5951006248921
 30
0.0
 10
453.306119053378
 20
452.8321359280894
 30
0.0
 10
453.3456317867472
 20
453.0608932468925
 30
0.0
 10
453.3834803417948
 20
453.2814205253936
 30
0.0
 10
453.4197155579964
 20
453.4937572353878
 30
0.0
 10
453.4543762635931
 20
453.6979336754793
 30
0.0
 10
453.4874920220032
 20
453.8939725368533
 30
0.0
 10
453.530089363629
 20
454.1474439259871
 30
0.0
 10
453.5796508178394
 20
454.4445621958079
 30
0.0
 10
453.6335486845475
 20
454.7667951675764
 30
0.0
 10
453.6820985966808
 20
455.0523205250876
 30
0.0
 10
453.7257937694609
 20
455.301488891594
 30
0.0
 10
453.7649536528698
 20
455.5143084621234
 30
0.0
 10
453.799696799974
 20
455.6906850437704
 30
0.0
 10
453.8305863888002
 20
455.8308706198451
 30
0.0
 10
453.8579124475668
 20
455.9341950131449
 30
0.0
 10
453.8825012779047
 20
456.0043438113011
 30
0.0
 10
453.8961161792383
 20
456.0206701795184
 30
0.0
 10
453.9029255779445
 20
456.0288356996272
 30
0.0
  0
SPLINE
  5
126
330
1F
100
AcDbEntity
  8
0
  6
Continuous
 62
     8
370
    18
100
AcDbSpline
210
0.0
220
0.0
230
1.0
 70
     8
 71
     3
 72
    28
 73
    24
 74
     0
 42
0.000000001
 43
0.00000001
 40
0.0
 40
0.0
 40
0.0
 40
0.0
 40
0.035758022064306
 40
0.0715126603707167
 40
0.1072798516116009
 40
0.1429859394853027
 40
0.178580489164409
 40
0.2140870465182698
 40
0.249528699482962
 40
0.2849265724266022
 40
0.3202993362578954
 40
0.3556654662532743
 40
0.3910429840938979
 40
0.426448615086334
 40
0.4913928992726559
 40
0.5558567436115713
 40
0.6199806176767634
 40
0.6838945165243906
 40
0.7476765423619747
 40
0.8110987579324874
 40
0.8742125191350093
 40
0.9371401676158556
 40
1.0
 40
1.0
 40
1.0
 40
1.0
 10
450.1101146804626
 20
438.531729899984
 30
0.0
 10
450.1477910282717
 20
438.670720180332
 30
0.0
 10
450.2231401586023
 20
438.9486875884697
 30
0.0
 10
450.334749957321
 20
439.3658284568678
 30
0.0
 10
450.4451476297634
 20
439.782601569639
 30
0.0
 10
450.5540597083078
 20
440.1983880987494
 30
0.0
 10
450.6614181249957
 20
440.6125492228426
 30
0.0
 10
450.7671891216525
 20
441.0248434252931
 30
0.0
 10
450.871432510462
 20
441.4353050181871
 30
0.0
 10
450.9741783300464
 20
441.8439547296897
 30
0.0
 10
451.0754144948012
 20
442.2507958953577
 30
0.0
 10
451.1751297834109
 20
442.6558174142473
 30
0.0
 10
451.2733090581635
 20
443.0590025919835
 30
0.0
 10
451.3967086478277
 20
443.571729139401
 30
0.0
 10
451.5427510698877
 20
444.1890833746455
 30
0.0
 10
451.7085304684917
 20
444.9044511172713
 30
0.0
 10
451.8677031484002
 20
445.6051646658038
 30
0.0
 10
452.0204943128861
 20
446.2912611575159
 30
0.0
 10
452.1666128525527
 20
446.9614237799208
 30
0.0
 10
452.3059351481278
 20
447.6142584248038
 30
0.0
 10
452.4383464912095
 20
448.2479888803575
 30
0.0
 10
452.5645851002444
 20
448.8642677752944
 30
0.0
 10
452.6431316248055
 20
449.2591197553099
 30
0.0
 10
452.682383713601
 20
449.456439306585
 30
0.0
  0
SPLINE
  5
127
330
1F
100
AcDbEntity
  8
0
  6
Continuous
 62
     8
370
    18
100
AcDbSpline
210
0.0
220
0.0
230
1.0
 70
     8
 71
     3
 72
    15
 73
    11
 74
     0
 42
0.000000001
 43
0.00000001
 40
0.0
 40
0.0
 40
0.0
 40
0.0
 40
0.1265427764310743
 40
0.2524408648115903
 40
0.3777814689536015
 40
0.5027669916847671
 40
0.6274473919386652
 40
0.7518199999571337
 40
0.8759776972355376
 40
1.0
 40
1.0
 40
1.0
 40
1.0
 10
449.2414662804233
 20
435.4617977336091
 30
0.0
 10
449.2791574862682
 20
435.589794282611
 30
0.0
 10
449.3543478753812
 20
435.8451352861375
 30
0.0
 10
449.4657449023128
 20
436.2293171228542
 30
0.0
 10
449.5757480089684
 20
436.613222273403
 30
0.0
 10
449.6847898283781
 20
436.9969835787414
 30
0.0
 10
449.7928448419141
 20
437.3806820860696
 30
0.0
 10
449.8996697280474
 20
437.7643788848108
 30
0.0
 10
450.0055059499172
 20
438.1479886164526
 30
0.0
 10
450.0752577879779
 20
438.4038626694742
 30
0.0
 10
450.1101146804625
 20
438.531729899984
 30
0.0
  0
SPLINE
  5
128
330
1F
100
AcDbEntity
  8
0
  6
Continuous
 62
     8
370
    18
100
AcDbSpline
210
0.0
220
0.0
230
1.0
 70
     8
 71
     3
 72
    26
 73
    22
 74
     0
 42
0.000000001
 43
0.00000001
 40
0.0
 40
0.0
 40
0.0
 40
0.0
 40
0.0258277774354292
 40
0.0515968656001541
 40
0.0773422313607776
 40
0.103106390490387
 40
0.1289307002613383
 40
0.1547765748066041
 40
0.1805633943306115
 40
0.2063307483122468
 40
0.2321200548289429
 40
0.2579709337749305
 40
0.3785464821184195
 40
0.4991330604381839
 40
0.6199313398435604
 40
0.7407116327424669
 40
0.7926043801379031
 40
0.8444188737094864
 40
0.8963612193529283
 40
0.9481476149772012
 40
1.0
 40
1.0
 40
1.0
 40
1.0
 10
443.3815618387407
 20
435.6982073649467
 30
0.0
 10
443.3853600898864
 20
435.7112740229626
 30
0.0
 10
443.3929479612922
 20
435.7373776472167
 30
0.0
 10
443.415799020507
 20
435.7738327342244
 30
0.0
 10
443.4471625408291
 20
435.8083227550322
 30
0.0
 10
443.487789195256
 20
435.8406036407849
 30
0.0
 10
443.53738234889
 20
435.8706750879181
 30
0.0
 10
443.5958968268191
 20
435.8985227070292
 30
0.0
 10
443.6631832339251
 20
435.9240170101562
 30
0.0
 10
443.7391506205038
 20
435.9471133304123
 30
0.0
 10
443.8237758534968
 20
435.9677835959033
 30
0.0
 10
444.030700329144
 20
436.0083035016472
 30
0.0
 10
444.434383526302
 20
436.0474014597198
 30
0.0
 10
445.1451103215949
 20
436.0440123194533
 30
0.0
 10
445.9963839045726
 20
435.9850476949009
 30
0.0
 10
446.7766645950477
 20
435.8932202592213
 30
0.0
 10
447.4069803979419
 20
435.8013822017149
 30
0.0
 10
447.855578101893
 20
435.7285544837102
 30
0.0
 10
448.3125860558127
 20
435.6473326872686
 30
0.0
 10
448.775734326902
 20
435.5591935002877
 30
0.0
 10
449.0861542333128
 20
435.4942755424578
 30
0.0
 10
449.2414630125697
 20
435.4617958961008
 30
0.0
  0
SPLINE
  5
129
330
1F
100
AcDbEntity
  8
0
  6
Continuous
 62
     8
370
    18
100
AcDbSpline
210
0.0
220
0.0
230
1.0
 70
     8
 71
     3
 72
    21
 73
    17
 74
     0
 42
0.000000001
 43
0.00000001
 40
0.0
 40
0.0
 40
0.0
 40
0.0
 40
0.0771468489427612
 40
0.1565801566205267
 40
0.2341873180418513
 40
0.3163361939580025
 40
0.4221837956200737
 40
0.5312895187921821
 40
0.6449042847970755
 40
0.6995905761932689
 40
0.7546986130049284
 40
0.8117682745868736
 40
0.8655170917160657
 40
0.9210813630557076
 40
0.9806679581572532
 40
1.0
 40
1.0
 40
1.0
 40
1.0
 10
420.369110715803
 20
467.5027196758461
 30
0.0
 10
419.5692173529996
 20
467.4275883774462
 30
0.0
 10
417.9457235908577
 20
467.2750990582871
 30
0.0
 10
415.6222758618646
 20
466.6644509886078
 30
0.0
 10
413.3953888315904
 20
465.7996209419409
 30
0.0
 10
411.1188998098197
 20
464.5872018980704
 30
0.0
 10
408.8435651456138
 20
462.9752711730048
 30
0.0
 10
406.6654489585877
 20
460.9582147925969
 30
0.0
 10
405.1018390421057
 20
459.1096044165547
 30
0.0
 10
403.9978623901516
 20
457.5611532009507
 30
0.0
 10
403.2455248417943
 20
456.3800367749124
 30
0.0
 10
402.5685251933465
 20
455.1862607604203
 30
0.0
 10
401.9557268849472
 20
453.9751184728184
 30
0.0
 10
401.4044812328604
 20
452.7378184903922
 30
0.0
 10
401.0026634161334
 20
451.7469670420724
 30
0.0
 10
400.8114952126175
 20
451.1724148316694
 30
0.0
 10
400.7646663284341
 20
451.0316715572995
 30
0.0
  0
SPLINE
  5
12A
330
1F
100
AcDbEntity
  8
0
  6
Continuous
 62
     8
370
    18
100
AcDbSpline
210
0.0
220
0.0
230
1.0
 70
     8
 71
     3
 72
    28
 73
    24
 74
     0
 42
0.000000001
 43
0.00000001
 40
0.0
 40
0.0
 40
0.0
 40
0.0
 40
0.0316935840223601
 40
0.0685988254747349
 40
0.0973419732618389
 40
0.1366852113434607
 40
0.176570207633567
 40
0.2045271322995484
 40
0.2402860413296661
 40
0.2729493971768538
 40
0.320512045707217
 40
0.3659463506237243
 40
0.4091557669907797
 40
0.4793403728505518
 40
0.5468490270866423
 40
0.6172089810181342
 40
0.6855467539248329
 40
0.7560871976006323
 40
0.7907629873973722
 40
0.825079736643408
 40
0.8957139766973565
 40
0.9654284076532894
 40
1.0
 40
1.0
 40
1.0
 40
1.0
 10
506.5041648393909
 20
418.4666098558378
 30
0.0
 10
506.9123654790662
 20
418.5535879633246
 30
0.0
 10
507.7958908140365
 20
418.7418467607958
 30
0.0
 10
509.1452931840156
 20
419.030209467544
 30
0.0
 10
510.6578771517413
 20
419.3508733059464
 30
0.0
 10
512.2730488619981
 20
419.6949193700664
 30
0.0
 10
513.9334903467736
 20
420.0476717951615
 30
0.0
 10
515.5792838625075
 20
420.3941290050249
 30
0.0
 10
517.1412813570362
 20
420.7237906953426
 30
0.0
 10
519.0556042062536
 20
421.1250764252758
 30
0.0
 10
521.1665123539365
 20
421.5677157316908
 30
0.0
 10
523.4883010823959
 20
422.0507730811044
 30
0.0
 10
526.2176850485655
 20
422.6145014356244
 30
0.0
 10
529.3378979119976
 20
423.2575855026844
 30
0.0
 10
532.8756821558721
 20
423.9784723749067
 30
0.0
 10
536.2562162121986
 20
424.6639394504951
 30
0.0
 10
539.4525535091723
 20
425.3064952738544
 30
0.0
 10
541.8105415814781
 20
425.7779706199677
 30
0.0
 10
543.4460653284111
 20
426.1037998041701
 30
0.0
 10
544.896046830615
 20
426.3920897695987
 30
0.0
 10
546.2615869360482
 20
426.6620842328386
 30
0.0
 10
547.1077575239145
 20
426.830195465009
 30
0.0
 10
547.0421717484129
 20
426.8170726211683
 30
0.0
 10
547.0204295760433
 20
426.8127223008347
 30
0.0
  0
SPLINE
  5
12B
330
1F
100
AcDbEntity
  8
0
  6
Continuous
 62
     8
370
    18
100
AcDbSpline
210
0.0
220
0.0
230
1.0
 70
     8
 71
     3
 72
    20
 73
    16
 74
     0
 42
0.000000001
 43
0.00000001
 40
0.0
 40
0.0
 40
0.0
 40
0.0
 40
0.0416848392129084
 40
0.0834584486017938
 40
0.1253496874803853
 40
0.1673872483362122
 40
0.2095996383572738
 40
0.2520151627974768
 40
0.3757879007367071
 40
0.5035393234800284
 40
0.5953989976786996
 40
0.6907905929983561
 40
0.7899025510474935
 40
0.8929145629732125
 40
1.0
 40
1.0
 40
1.0
 40
1.0
 10
501.5639077684319
 20
417.4113886382888
 30
0.0
 10
501.564834332308
 20
417.4115856308943
 30
0.0
 10
501.5666894332294
 20
417.4119800356119
 30
0.0
 10
501.5816910781155
 20
417.4151770132692
 30
0.0
 10
501.6056479577027
 20
417.4202960390365
 30
0.0
 10
501.6394571314565
 20
417.427527358266
 30
0.0
 10
501.6829013814215
 20
417.436817966356
 30
0.0
 10
501.7699442635599
 20
417.4554003886277
 30
0.0
 10
501.9351395802114
 20
417.490531011314
 30
0.0
 10
502.1966966418653
 20
417.5465010191479
 30
0.0
 10
502.4868226324689
 20
417.6083089235287
 30
0.0
 10
502.7860483893655
 20
417.671989006926
 30
0.0
 10
503.1320447131282
 20
417.7458598417733
 30
0.0
 10
503.5233913731392
 20
417.8296460739942
 30
0.0
 10
503.8162620885275
 20
417.8922766220908
 30
0.0
 10
503.9655365738013
 20
417.9241990449835
 30
0.0
  0
SPLINE
  5
12C
330
1F
100
AcDbEntity
  8
0
  6
Continuous
 62
     8
370
    18
100
AcDbSpline
210
0.0
220
0.0
230
1.0
 70
     8
 71
     3
 72
    15
 73
    11
 74
     0
 42
0.000000001
 43
0.00000001
 40
0.0
 40
0.0
 40
0.0
 40
0.0
 40
0.0957894648633372
 40
0.1939132139111857
 40
0.294401196481942
 40
0.3972833033170308
 40
0.5025894915509111
 40
0.6621669245166455
 40
0.8279376800379444
 40
0.9999999999999999
 40
0.9999999999999999
 40
0.9999999999999999
 40
0.9999999999999999
 10
503.9654491949117
 20
417.9242647938422
 30
0.0
 10
504.0374084749669
 20
417.9396352192808
 30
0.0
 10
504.1830806037981
 20
417.9707506305658
 30
0.0
 10
504.4125844621366
 20
418.0197659447331
 30
0.0
 10
504.6535946434581
 20
418.0712425733457
 30
0.0
 10
504.9069453663727
 20
418.1253555506486
 30
0.0
 10
505.2162242762432
 20
418.1913541518251
 30
0.0
 10
505.5891046500561
 20
418.2709666988898
 30
0.0
 10
506.0325341720969
 20
418.3658240849463
 30
0.0
 10
506.3450172643751
 20
418.4325991410162
 30
0.0
 10
506.5041685426487
 20
418.4666084547772
 30
0.0
  0
SPLINE
  5
12D
330
1F
100
AcDbEntity
  8
0
  6
Continuous
 62
     8
370
    18
100
AcDbSpline
210
0.0
220
0.0
230
1.0
 70
     8
 71
     3
 72
    23
 73
    19
 74
     0
 42
0.000000001
 43
0.00000001
 40
0.0
 40
0.0
 40
0.0
 40
0.0
 40
0.0578244434829254
 40
0.1178160784811284
 40
0.1796767839885985
 40
0.2431639049623003
 40
0.2934318301008525
 40
0.3431269654938192
 40
0.3930897413475355
 40
0.451517694971002
 40
0.5007234362116958
 40
0.56530754828534
 40
0.6291631784774253
 40
0.6925014412432982
 40
0.7556053946987135
 40
0.8793696872645723
 40
0.9411049490706216
 40
0.9999999999999999
 40
0.9999999999999999
 40
0.9999999999999999
 40
0.9999999999999999
 10
434.1370554810802
 20
421.0325004064512
 30
0.0
 10
434.1783060668825
 20
421.0476586308737
 30
0.0
 10
434.2623532614866
 20
421.0785431919803
 30
0.0
 10
434.906688895906
 20
421.3258793632494
 30
0.0
 10
435.7863916679169
 20
421.6905844422696
 30
0.0
 10
436.7663296409338
 20
422.1360812748663
 30
0.0
 10
437.7393796412431
 20
422.6221203619784
 30
0.0
 10
438.665006714234
 20
423.1237424923876
 30
0.0
 10
439.6588582109698
 20
423.7107207886892
 30
0.0
 10
440.6573739599664
 20
424.3596254318506
 30
0.0
 10
441.7455025053771
 20
425.1391763440101
 30
0.0
 10
442.8545430752976
 20
426.0233391082401
 30
0.0
 10
444.021265346742
 20
427.0797229441513
 30
0.0
 10
445.1339418141245
 20
428.2342886789974
 30
0.0
 10
446.5171317645648
 20
429.8959887306816
 30
0.0
 10
447.7361679563629
 20
431.7798385112467
 30
0.0
 10
448.708537688629
 20
433.8369565108206
 30
0.0
 10
449.0666228296757
 20
434.9287501603206
 30
0.0
 10
449.2414498871605
 20
435.4617939793539
 30
0.0
  0
SPLINE
  5
12E
330
1F
100
AcDbEntity
  8
0
  6
Continuous
 62
     8
370
    18
100
AcDbSpline
210
0.0
220
0.0
230
1.0
 70
     8
 71
     3
 72
    12
 73
     8
 74
     0
 42
0.000000001
 43
0.00000001
 40
0.0
 40
0.0
 40
0.0
 40
0.0
 40
0.2084972699982959
 40
0.4194264765232492
 40
0.6329290502080162
 40
0.8459625569059018
 40
0.9999999999999999
 40
0.9999999999999999
 40
0.9999999999999999
 40
0.9999999999999999
 10
443.1765245443622
 20
495.1316723131609
 30
0.0
 10
443.1937543067012
 20
495.8211529755729
 30
0.0
 10
443.2284148013409
 20
497.2081564834308
 30
0.0
 10
443.4780530933873
 20
499.1074548699547
 30
0.0
 10
443.7648213786609
 20
500.6020966456786
 30
0.0
 10
443.9883868205677
 20
501.5188988091267
 30
0.0
 10
443.9966944377157
 20
501.5499182661525
 30
0.0
 10
444.0001806414167
 20
501.5629352533293
 30
0.0
  0
SPLINE
  5
12F
330
1F
100
AcDbEntity
  8
0
  6
Continuous
 62
     8
370
    18
100
AcDbSpline
210
0.0
220
0.0
230
1.0
 70
     8
 71
     3
 72
    12
 73
     8
 74
     0
 42
0.000000001
 43
0.00000001
 40
0.0
 40
0.0
 40
0.0
 40
0.0
 40
0.1391562336894373
 40
0.3412740804845206
 40
0.5520373840758579
 40
0.7729197880009726
 40
1.0
 40
1.0
 40
1.0
 40
1.0
 10
443.9982230013649
 20
488.7080201410723
 30
0.0
 10
443.9974553737206
 20
488.7105541367379
 30
0.0
 10
443.995572803235
 20
488.7167686412399
 30
0.0
 10
443.7943017526277
 20
489.5344775891091
 30
0.0
 10
443.5119917462459
 20
490.9534659177593
 30
0.0
 10
443.2375722163643
 20
492.8979190362123
 30
0.0
 10
443.1970606018194
 20
494.3802515933177
 30
0.0
 10
443.1765245443622
 20
495.1316723131609
 30
0.0
  0
LINE
  5
130
330
1F
100
AcDbEntity
  8
0
  6
Continuous
 62
     8
370
    18
100
AcDbLine
 10
421.5174344844
 20
504.0916697585
 30
0.0
 11
399.0174343979
 21
504.0916697585
 31
0.0
  0
LINE
  5
131
330
1F
100
AcDbEntity
  8
0
  6
Continuous
 62
     8
370
    18
100
AcDbLine
 10
444.0174343234
 20
504.0916697585
 30
0.0
 11
421.5174344844
 21
504.0916697585
 31
0.0
  0
SPLINE
  5
132
330
1F
100
AcDbEntity
  8
0
  6
Continuous
 62
     8
370
    18
100
AcDbSpline
210
0.0
220
0.0
230
1.0
 70
    24
 71
     3
 72
    38
 73
    34
 74
     0
 42
0.000000001
 43
0.00000001
 40
0.0
 40
0.0
 40
0.0
 40
0.0
 40
0.0625000000000001
 40
0.0625000000000001
 40
0.1250000000000002
 40
0.1250000000000002
 40
0.1875000000000003
 40
0.1875000000000003
 40
0.2500000000000004
 40
0.2500000000000004
 40
0.3125000000000005
 40
0.3125000000000005
 40
0.3750000000000006
 40
0.3750000000000006
 40
0.4375000000000006
 40
0.4375000000000006
 40
0.5000000000000007
 40
0.5000000000000007
 40
0.5625000000000007
 40
0.5625000000000007
 40
0.6250000000000007
 40
0.6250000000000007
 40
0.6875000000000007
 40
0.6875000000000007
 40
0.7500000000000006
 40
0.7500000000000006
 40
0.8125000000000004
 40
0.8125000000000004
 40
0.8750000000000003
 40
0.8750000000000003
 40
0.9375000000000002
 40
0.9375000000000002
 40
1.0
 40
1.0
 40
1.0
 40
1.0
 10
443.4068295604031
 20
470.5316714544621
 30
0.0
 10
443.4068295604031
 20
470.531671454462
 30
0.0
 10
443.2650156251861
 20
470.5316714544621
 30
0.0
 10
442.7031958222879
 20
470.531671454462
 30
0.0
 10
442.2832038467086
 20
470.531671454462
 30
0.0
 10
441.1811546611481
 20
470.531671454462
 30
0.0
 10
440.4991247015053
 20
470.531671454462
 30
0.0
 10
438.899197266002
 20
470.531671454462
 30
0.0
 10
437.9813393515012
 20
470.531671454462
 30
0.0
 10
435.9450179809573
 20
470.531671454462
 30
0.0
 10
434.8266048769742
 20
470.531671454462
 30
0.0
 10
432.4321442607026
 20
470.531671454462
 30
0.0
 10
431.1561559561728
 20
470.531671454462
 30
0.0
 10
428.495573874033
 20
470.531671454462
 30
0.0
 10
427.1110458845596
 20
470.531671454462
 30
0.0
 10
424.286587015236
 20
470.531671454462
 30
0.0
 10
422.8467259756991
 20
470.531671454462
 30
0.0
 10
419.9669326909868
 20
470.531671454462
 30
0.0
 10
418.5270716543772
 20
470.531671454462
 30
0.0
 10
415.7026127966506
 20
470.531671454462
 30
0.0
 10
414.3180848158466
 20
470.531671454462
 30
0.0
 10
411.6575027564551
 20
470.531671454462
 30
0.0
 10
410.3815144660038
 20
470.531671454462
 30
0.0
 10
407.9870538827576
 20
470.531671454462
 30
0.0
 10
406.8686407977207
 20
470.531671454462
 30
0.0
 10
404.8323194692102
 20
470.531671454462
 30
0.0
 10
403.9144615777954
 20
470.531671454462
 30
0.0
 10
402.3145341917182
 20
470.531671454462
 30
0.0
 10
401.6325042584141
 20
470.531671454462
 30
0.0
 10
400.5304551277729
 20
470.531671454462
 30
0.0
 10
400.1104631807728
 20
470.531671454462
 30
0.0
 10
399.5486434361765
 20
470.5316714544621
 30
0.0
 10
399.406829530681
 20
470.5316714544621
 30
0.0
 10
399.4068295604031
 20
470.5316714544621
 30
0.0
  0
LINE
  5
133
330
1F
100
AcDbEntity
  8
0
  6
Continuous
 62
     8
370
    18
100
AcDbLine
 10
443.4055833316
 20
468.0316717827
 30
0.0
 11
406.1025099999
 21
468.0316717827
 31
0.0
  0
SPLINE
  5
134
330
1F
100
AcDbEntity
  8
0
  6
Continuous
 62
     8
370
    18
100
AcDbSpline
210
0.0
220
0.0
230
1.0
 70
    11
 71
     3
 72
     8
 73
     4
 74
     0
 42
0.000000001
 43
0.00000001
 40
0.0
 40
0.0
 40
0.0
 40
0.0
 40
1.0
 40
1.0
 40
1.0
 40
1.0
 10
443.4042157404029
 20
466.5271894744621
 30
0.0
 10
443.4076985169722
 20
466.533161605768
 30
0.0
 10
443.4076856807991
 20
466.5331396051498
 30
0.0
 10
443.4042157239622
 20
466.5271894464003
 30
0.0
  0
LINE
  5
135
330
1F
100
AcDbEntity
  8
0
  6
Continuous
 62
     8
370
    18
100
AcDbLine
 10
482.7878045088
 20
421.2772780561
 30
0.0
 11
482.7878045088
 21
456.031671562
 31
0.0
  0
SPLINE
  5
136
330
1F
100
AcDbEntity
  8
0
  6
Continuous
 62
     8
370
    18
100
AcDbSpline
210
0.0
220
0.0
230
1.0
 70
    11
 71
     3
 72
     8
 73
     4
 74
     0
 42
0.000000001
 43
0.00000001
 40
0.0
 40
0.0
 40
0.0
 40
0.0
 40
1.0
 40
1.0
 40
1.0
 40
1.0
 10
453.9029686167675
 20
456.0288704879007
 30
0.0
 10
453.9080941712164
 20
456.0325889626446
 30
0.0
 10
453.9081131174452
 20
456.032602703516
 30
0.0
 10
453.9029685849564
 20
456.0288704644277
 30
0.0
  0
LINE
  5
137
330
1F
100
AcDbEntity
  8
0
  6
Continuous
 62
     8
370
    18
100
AcDbLine
 10
480.8818305081
 20
411.9066716635
 30
0.0
 11
461.9318301028
 21
411.9066716635
 31
0.0
  0
LINE
  5
138
330
1F
100
AcDbEntity
  8
0
  6
Continuous
 62
     8
370
    18
100
AcDbLine
 10
480.8818305081
 20
411.506672343
 30
0.0
 11
461.9318301028
 21
411.506672343
 31
0.0
  0
LINE
  5
139
330
1F
100
AcDbEntity
  8
0
  6
Continuous
 62
     8
370
    18
100
AcDbLine
 10
480.6568304247
 20
417.5316700243
 30
0.0
 11
462.1568301863
 21
417.5316700243
 31
0.0
  0
LINE
  5
13A
330
1F
100
AcDbEntity
  8
0
  6
Continuous
 62
     8
370
    18
100
AcDbLine
 10
471.4068303055
 20
471.4816705787
 30
0.0
 11
464.4068310207
 21
471.4816705787
 31
0.0
  0
LINE
  5
13B
330
1F
100
AcDbEntity
  8
0
  6
Continuous
 62
     8
370
    18
100
AcDbLine
 10
478.4068295902
 20
471.4816705787
 30
0.0
 11
471.4068303055
 21
471.4816705787
 31
0.0
  0
LINE
  5
13C
330
1F
100
AcDbEntity
  8
0
  6
Continuous
 62
     8
370
    18
100
AcDbLine
 10
471.4068303055
 20
462.4816718974
 30
0.0
 11
478.4068295902
 21
462.4816718974
 31
0.0
  0
LINE
  5
13D
330
1F
100
AcDbEntity
  8
0
  6
Continuous
 62
     8
370
    18
100
AcDbLine
 10
464.4068310207
 20
462.4816718974
 30
0.0
 11
471.4068303055
 21
462.4816718974
 31
0.0
  0
SPLINE
  5
13E
330
1F
100
AcDbEntity
  8
0
  6
Continuous
 62
     8
370
    18
100
AcDbSpline
210
0.0
220
0.0
230
1.0
 70
     8
 71
     3
 72
    14
 73
    10
 74
     0
 42
0.000000001
 43
0.00000001
 40
0.0
 40
0.0
 40
0.0
 40
0.0
 40
0.0054926641901809
 40
0.2126148076535574
 40
0.2197513373472316
 40
0.4371292321795664
 40
0.6491183962719108
 40
0.8556117098498041
 40
1.0
 40
1.0
 40
1.0
 40
1.0
 10
444.6204638278524
 20
495.1316723131609
 30
0.0
 10
444.6204786096218
 20
495.1172333037893
 30
0.0
 10
444.6210507951681
 20
494.5583156103069
 30
0.0
 10
444.6596969811285
 20
493.9738655732096
 30
0.0
 10
444.7893448819991
 20
492.9120186446887
 30
0.0
 10
444.9794271336198
 20
491.9017124802448
 30
0.0
 10
445.282304012345
 20
490.8195850794488
 30
0.0
 10
445.4944989405976
 20
490.1957049768141
 30
0.0
 10
445.4963833204726
 20
490.1915050039627
 30
0.0
 10
445.4971587455312
 20
490.1897767090273
 30
0.0
  0
SPLINE
  5
13F
330
1F
100
AcDbEntity
  8
0
  6
Continuous
 62
     8
370
    18
100
AcDbSpline
210
0.0
220
0.0
230
1.0
 70
     8
 71
     3
 72
    12
 73
     8
 74
     0
 42
0.000000001
 43
0.00000001
 40
0.0
 40
0.0
 40
0.0
 40
0.0
 40
0.1598852170672563
 40
0.3772582922035061
 40
0.5914302971987396
 40
0.7985114569220861
 40
1.0
 40
1.0
 40
1.0
 40
1.0
 10
445.4993752932588
 20
500.0797928773832
 30
0.0
 10
445.4957287162022
 20
500.069970124873
 30
0.0
 10
445.4871244095754
 20
500.0467927798705
 30
0.0
 10
445.250617548944
 20
499.3481018023948
 30
0.0
 10
444.9455565888212
 20
498.2045476980349
 30
0.0
 10
444.6769160600714
 20
496.7420913665049
 30
0.0
 10
444.6391087328269
 20
495.6635575732897
 30
0.0
 10
444.6204638278524
 20
495.1316723131609
 30
0.0
  0
LINE
  5
140
330
1F
100
AcDbEntity
  8
0
  6
Continuous
 62
     8
370
    18
100
AcDbLine
 10
506.0174333102
 20
490.131669631
 30
0.0
 11
506.0174333102
 21
500.1316712701
 31
0.0
  0
LINE
  5
141
330
1F
100
AcDbEntity
  8
0
  6
Continuous
 62
     8
370
    18
100
AcDbLine
 10
445.017982105
 20
480.1502534651
 30
0.0
 11
445.017982105
 21
487.7130882346
 31
0.0
  0
LINE
  5
142
330
1F
100
AcDbEntity
  8
0
  6
Continuous
 62
     7
370
    25
100
AcDbLine
 10
202.3601511802
 20
422.5631402337
 30
0.0
 11
202.3882827099
 21
422.6673217022
 31
0.0
  0
SPLINE
  5
143
330
1F
100
AcDbEntity
  8
0
  6
Continuous
 62
     7
370
    25
100
AcDbSpline
210
0.0
220
0.0
230
1.0
 70
     8
 71
     3
 72
     9
 73
     5
 74
     0
 42
0.000000001
 43
0.00000001
 40
0.0
 40
0.0
 40
0.0
 40
0.0
 40
0.1871587096936096
 40
1.0
 40
1.0
 40
1.0
 40
1.0
 10
196.8882566626312
 20
418.8769096040198
 30
0.0
 10
196.9854816082641
 20
418.9001725325413
 30
0.0
 10
197.5049602143741
 20
419.0244677286319
 30
0.0
 10
197.8604070397647
 20
419.1832434474771
 30
0.0
 10
198.1493288959504
 20
419.3123029076525
 30
0.0
  0
SPLINE
  5
144
330
1F
100
AcDbEntity
  8
0
  6
Continuous
 62
     7
370
    25
100
AcDbSpline
210
0.0
220
0.0
230
1.0
 70
     8
 71
     3
 72
    12
 73
     8
 74
     0
 42
0.000000001
 43
0.00000001
 40
0.0
 40
0.0
 40
0.0
 40
0.0
 40
0.1533337261034131
 40
0.3844879949130429
 40
0.6295881700724671
 40
0.8888269907775087
 40
1.0
 40
1.0
 40
1.0
 40
1.0
 10
198.7399122054817
 20
419.5329928302237
 30
0.0
 10
199.0581721798488
 20
419.6446625688974
 30
0.0
 10
199.8562166969627
 20
419.9246771162915
 30
0.0
 10
200.7718156727874
 20
420.4612322976106
 30
0.0
 10
201.6381643102372
 20
421.1187169638683
 30
0.0
 10
202.1599514545865
 20
421.7045622085876
 30
0.0
 10
202.2345705380773
 20
422.0710036816997
 30
0.0
 10
202.2569662268401
 20
422.1809850537249
 30
0.0
  0
SPLINE
  5
145
330
1F
100
AcDbEntity
  8
0
  6
Continuous
 62
     7
370
    25
100
AcDbSpline
210
0.0
220
0.0
230
1.0
 70
     8
 71
     3
 72
    12
 73
     8
 74
     0
 42
0.000000001
 43
0.00000001
 40
0.0
 40
0.0
 40
0.0
 40
0.0
 40
0.2156470743052681
 40
0.4159354464681225
 40
0.6019432891060768
 40
0.8502066654795384
 40
1.0
 40
1.0
 40
1.0
 40
1.0
 10
167.3881228390278
 20
422.651917626805
 30
0.0
 10
167.4507633683274
 20
422.3227176007011
 30
0.0
 10
167.5715830762005
 20
421.6877636590538
 30
0.0
 10
168.3836565750255
 20
420.8400339592753
 30
0.0
 10
169.6165951963671
 20
420.0394841668912
 30
0.0
 10
171.0831678254944
 20
419.3824566249916
 30
0.0
 10
172.3947089671893
 20
419.0080150511396
 30
0.0
 10
172.8882570360915
 20
418.8671083652445
 30
0.0
  0
LINE
  5
146
330
1F
100
AcDbEntity
  8
0
  6
Continuous
 62
     7
370
    25
100
AcDbLine
 10
167.3882571823
 20
438.5316716039
 30
0.0
 11
167.3882571823
 21
422.70271196
 31
0.0
  0
LINE
  5
147
330
1F
100
AcDbEntity
  8
0
  6
Continuous
 62
     7
370
    25
100
AcDbLine
 10
202.3882566328
 20
422.6931044363
 30
0.0
 11
202.3882566328
 21
438.5316716039
 31
0.0
  0
LINE
  5
148
330
1F
100
AcDbEntity
  8
0
  6
Continuous
 62
     7
370
    25
100
AcDbLine
 10
195.269092762
 20
415.2126805388
 30
0.0
 11
196.2128056522
 21
415.7177367711
 31
0.0
  0
LINE
  5
149
330
1F
100
AcDbEntity
  8
0
  6
Continuous
 62
     7
370
    25
100
AcDbLine
 10
173.5637088615
 20
415.7177367711
 30
0.0
 11
174.507421286
 21
415.2126805388
 31
0.0
  0
LINE
  5
14A
330
1F
100
AcDbEntity
  8
0
  6
Continuous
 62
     7
370
    25
100
AcDbLine
 10
196.8882566626
 20
416.4622770154
 30
0.0
 11
196.8882566626
 21
421.6467262709
 31
0.0
  0
LINE
  5
14B
330
1F
100
AcDbEntity
  8
0
  6
Continuous
 62
     7
370
    25
100
AcDbLine
 10
172.8882570361
 20
421.6467262709
 30
0.0
 11
172.8882570361
 21
416.4622770154
 31
0.0
  0
LINE
  5
14C
330
1F
100
AcDbEntity
  8
0
  6
Continuous
 62
     7
370
    25
100
AcDbLine
 10
174.4132571231
 20
408.2066723608
 30
0.0
 11
175.5882569897
 21
407.0316710972
 31
0.0
  0
LINE
  5
14D
330
1F
100
AcDbEntity
  8
0
  6
Continuous
 62
     7
370
    25
100
AcDbLine
 10
194.1882575239
 20
407.0316710972
 30
0.0
 11
195.3632569249
 21
408.2066723608
 31
0.0
  0
LINE
  5
14E
330
1F
100
AcDbEntity
  8
0
  6
Continuous
 62
     7
370
    25
100
AcDbLine
 10
195.3632569249
 20
412.2066730165
 30
0.0
 11
195.3632569249
 21
414.8066723251
 31
0.0
  0
LINE
  5
14F
330
1F
100
AcDbEntity
  8
0
  6
Continuous
 62
     7
370
    25
100
AcDbLine
 10
174.4132571231
 20
414.8066723251
 30
0.0
 11
174.4132571231
 21
412.2066730165
 31
0.0
  0
LINE
  5
150
330
1F
100
AcDbEntity
  8
0
  6
Continuous
 62
     7
370
    25
100
AcDbLine
 10
195.3632569249
 20
414.8066723251
 30
0.0
 11
195.0601728941
 21
415.1097582185
 31
0.0
  0
LINE
  5
151
330
1F
100
AcDbEntity
  8
0
  6
Continuous
 62
     7
370
    25
100
AcDbLine
 10
174.7163420851
 20
415.1097582185
 30
0.0
 11
174.4132571231
 21
414.8066723251
 31
0.0
  0
LINE
  5
152
330
1F
100
AcDbEntity
  8
0
  6
Continuous
 62
     7
370
    25
100
AcDbLine
 10
195.3632569249
 20
408.2066723608
 30
0.0
 11
195.3632569249
 21
411.2066709899
 31
0.0
  0
LINE
  5
153
330
1F
100
AcDbEntity
  8
0
  6
Continuous
 62
     7
370
    25
100
AcDbLine
 10
174.4132571231
 20
411.2066709899
 30
0.0
 11
174.4132571231
 21
408.2066723608
 31
0.0
  0
ARC
  5
154
330
1F
100
AcDbEntity
  8
0
  6
Continuous
 62
     7
370
    25
100
AcDbCircle
 10
194.6632570356
 20
411.5066714545
 30
0.0
 40
0.3000000000000114
100
AcDbArc
 50
180.0
 51
270.0
  0
ARC
  5
155
330
1F
100
AcDbEntity
  8
0
  6
Continuous
 62
     7
370
    25
100
AcDbCircle
 10
175.1132570356
 20
411.5066714545
 30
0.0
 40
0.3000000000000398
100
AcDbArc
 50
270.0
 51
0.0
  0
ARC
  5
156
330
1F
100
AcDbEntity
  8
0
  6
Continuous
 62
     7
370
    25
100
AcDbCircle
 10
194.6632570356
 20
411.9066714545
 30
0.0
 40
0.3000000000000114
100
AcDbArc
 50
90.0
 51
180.0
  0
ARC
  5
157
330
1F
100
AcDbEntity
  8
0
  6
Continuous
 62
     7
370
    25
100
AcDbCircle
 10
175.1132570356
 20
411.9066714545
 30
0.0
 40
0.3000000000000682
100
AcDbArc
 50
0.0
 51
90.0
  0
LINE
  5
158
330
1F
100
AcDbEntity
  8
0
  6
Continuous
 62
     7
370
    25
100
AcDbLine
 10
194.363256761
 20
411.506672343
 30
0.0
 11
194.363256761
 21
411.9066716635
 31
0.0
  0
LINE
  5
159
330
1F
100
AcDbEntity
  8
0
  6
Continuous
 62
     7
370
    25
100
AcDbLine
 10
175.4132568213
 20
411.9066716635
 30
0.0
 11
175.4132568213
 21
411.506672343
 31
0.0
  0
ARC
  5
15A
330
1F
100
AcDbEntity
  8
0
  6
Continuous
 62
     7
370
    25
100
AcDbCircle
 10
178.3882570356
 20
462.4816714545
 30
0.0
 40
0.5
100
AcDbArc
 50
180.0
 51
270.0
  0
ARC
  5
15B
330
1F
100
AcDbEntity
  8
0
  6
Continuous
 62
     7
370
    25
100
AcDbCircle
 10
191.3882570356
 20
462.4816714545
 30
0.0
 40
0.5
100
AcDbArc
 50
270.0
 51
0.0
  0
LINE
  5
15C
330
1F
100
AcDbEntity
  8
0
  6
Continuous
 62
     7
370
    25
100
AcDbLine
 10
191.8882577057
 20
462.4816718974
 30
0.0
 11
191.8882577057
 21
471.4816705787
 31
0.0
  0
LINE
  5
15D
330
1F
100
AcDbEntity
  8
0
  6
Continuous
 62
     7
370
    25
100
AcDbLine
 10
177.8882568079
 20
471.4816705787
 30
0.0
 11
177.8882568079
 21
462.4816718974
 31
0.0
  0
ARC
  5
15E
330
1F
100
AcDbEntity
  8
0
  6
Continuous
 62
     7
370
    25
100
AcDbCircle
 10
178.3882570356
 20
471.4816714545
 30
0.0
 40
0.5
100
AcDbArc
 50
90.0
 51
180.0
  0
ARC
  5
15F
330
1F
100
AcDbEntity
  8
0
  6
Continuous
 62
     7
370
    25
100
AcDbCircle
 10
191.3882570356
 20
471.4816714545
 30
0.0
 40
0.5000000000000568
100
AcDbArc
 50
0.0
 51
90.0
  0
LINE
  5
160
330
1F
100
AcDbEntity
  8
0
  6
Continuous
 62
     7
370
    25
100
AcDbLine
 10
187.8882570501
 20
455.7735913663
 30
0.0
 11
187.8882570501
 21
461.9816713498
 31
0.0
  0
LINE
  5
161
330
1F
100
AcDbEntity
  8
0
  6
Continuous
 62
     7
370
    25
100
AcDbLine
 10
181.8882569979
 20
461.9816713498
 30
0.0
 11
181.8882569979
 21
455.7789884971
 31
0.0
  0
SPLINE
  5
162
330
1F
100
AcDbEntity
  8
0
  6
Continuous
 62
     7
370
    25
100
AcDbSpline
210
0.0
220
0.0
230
1.0
 70
     8
 71
     3
 72
    15
 73
    11
 74
     0
 42
0.000000001
 43
0.00000001
 40
0.0
 40
0.0
 40
0.0
 40
0.0
 40
0.0362049147904346
 40
0.1467946883485193
 40
0.2555816870907461
 40
0.3686753626967542
 40
0.4889410115908986
 40
0.7088506747084583
 40
0.912215293782295
 40
1.0
 40
1.0
 40
1.0
 40
1.0
 10
162.8902422572614
 20
467.5736780741283
 30
0.0
 10
162.8948751512699
 20
467.5017962349824
 30
0.0
 10
162.9136594582091
 20
467.2103476226485
 30
0.0
 10
162.8394022219007
 20
466.6143478283213
 30
0.0
 10
162.6242448003395
 20
465.8395092816109
 30
0.0
 10
162.2388646964747
 20
465.0773353857564
 30
0.0
 10
161.5450616202737
 20
464.1917548498187
 30
0.0
 10
160.4383606374928
 20
463.3932582909712
 30
0.0
 10
159.2210548578912
 20
462.96932198626
 30
0.0
 10
158.4994179303393
 20
463.0084269759608
 30
0.0
 10
158.2818365032913
 20
463.0202175580927
 30
0.0
  0
SPLINE
  5
163
330
1F
100
AcDbEntity
  8
0
  6
Continuous
 62
     7
370
    25
100
AcDbSpline
210
0.0
220
0.0
230
1.0
 70
     8
 71
     3
 72
    15
 73
    11
 74
     0
 42
0.000000001
 43
0.00000001
 40
0.0
 40
0.0
 40
0.0
 40
0.0
 40
0.0878055998991372
 40
0.2911211243591177
 40
0.5109771085994996
 40
0.6312278754306507
 40
0.7444003596916767
 40
0.8533575735668962
 40
0.9641667869397762
 40
1.0
 40
1.0
 40
1.0
 40
1.0
 10
211.494991400385
 20
463.0202231460282
 30
0.0
 10
211.2773049777341
 20
463.0084238387937
 30
0.0
 10
210.5555615332084
 20
462.9693030128702
 30
0.0
 10
209.3381526515614
 20
463.393252135359
 30
0.0
 10
208.2314201983378
 20
464.1917727804632
 30
0.0
 10
207.5374503450558
 20
465.0776100637587
 30
0.0
 10
207.1517554747246
 20
465.8404851001275
 30
0.0
 10
206.9364374059504
 20
466.6169866534182
 30
0.0
 10
206.8621074288745
 20
467.2139298431128
 30
0.0
 10
206.8813851180341
 20
467.5068361890984
 30
0.0
 10
206.8860957707406
 20
467.5784101241299
 30
0.0
  0
LINE
  5
164
330
1F
100
AcDbEntity
  8
0
  6
Continuous
 62
     7
370
    25
100
AcDbLine
 10
207.2776535834
 20
475.8459897243
 30
0.0
 11
207.2776535834
 21
504.0916697585
 31
0.0
  0
LINE
  5
165
330
1F
100
AcDbEntity
  8
0
  6
Continuous
 62
     7
370
    25
100
AcDbLine
 10
162.2776517953
 20
504.0916697585
 30
0.0
 11
162.2776517953
 21
475.846338039
 31
0.0
  0
ARC
  5
166
330
1F
100
AcDbEntity
  8
0
  6
Continuous
 62
     7
370
    25
100
AcDbCircle
 10
162.8176521106
 20
504.0916714545
 30
0.0
 40
0.5400000000000205
100
AcDbArc
 50
90.0
 51
180.0
  0
ARC
  5
167
330
1F
100
AcDbEntity
  8
0
  6
Continuous
 62
     7
370
    25
100
AcDbCircle
 10
206.7376521106
 20
504.0916714545
 30
0.0
 40
0.539999999999992
100
AcDbArc
 50
0.0
 51
90.0
  0
LINE
  5
168
330
1F
100
AcDbEntity
  8
0
  6
Continuous
 62
     7
370
    25
100
AcDbLine
 10
85.8882533695
 20
418.0316710376
 30
0.0
 11
172.8882570361
 21
418.0316710376
 31
0.0
  0
LINE
  5
169
330
1F
100
AcDbEntity
  8
0
  6
Continuous
 62
     7
370
    25
100
AcDbLine
 10
196.8882566626
 20
418.0316710376
 30
0.0
 11
283.8882597472
 21
418.0316710376
 31
0.0
  0
LINE
  5
16A
330
1F
100
AcDbEntity
  8
0
  6
Continuous
 62
     7
370
    25
100
AcDbLine
 10
158.3649644937
 20
463.0316718944
 30
0.0
 11
85.8882533695
 21
463.0316718944
 31
0.0
  0
LINE
  5
16B
330
1F
100
AcDbEntity
  8
0
  6
Continuous
 62
     7
370
    25
100
AcDbLine
 10
283.8882597472
 20
463.0316718944
 30
0.0
 11
211.4135789062
 21
463.0316718944
 31
0.0
  0
SPLINE
  5
16C
330
1F
100
AcDbEntity
  8
0
  6
Continuous
 62
     7
370
    25
100
AcDbSpline
210
0.0
220
0.0
230
1.0
 70
     8
 71
     3
 72
    10
 73
     6
 74
     0
 42
0.000000001
 43
0.00000001
 40
0.0
 40
0.0
 40
0.0
 40
0.0
 40
0.0456913166122276
 40
0.578929900850575
 40
1.0
 40
1.0
 40
1.0
 40
1.0
 10
284.8205508972646
 20
461.4085023754307
 30
0.0
 10
284.8189071627216
 20
461.4521762863511
 30
0.0
 10
284.7980802934922
 20
462.005544733434
 30
0.0
 10
284.5428005370335
 20
462.7347641065773
 30
0.0
 10
284.1379488481328
 20
462.9083787534049
 30
0.0
 10
283.9593159343244
 20
462.9849828311273
 30
0.0
  0
SPLINE
  5
16D
330
1F
100
AcDbEntity
  8
0
  6
Continuous
 62
     7
370
    25
100
AcDbSpline
210
0.0
220
0.0
230
1.0
 70
     8
 71
     3
 72
    11
 73
     7
 74
     0
 42
0.000000001
 43
0.00000001
 40
0.0
 40
0.0
 40
0.0
 40
0.0
 40
0.2313202295504349
 40
0.4696117800141566
 40
0.938720467536986
 40
0.9999999999999999
 40
0.9999999999999999
 40
0.9999999999999999
 40
0.9999999999999999
 10
283.8882597471715
 20
418.0316710376212
 30
0.0
 10
284.019752571443
 20
418.0485581829367
 30
0.0
 10
284.2867010323935
 20
418.0828414031565
 30
0.0
 10
284.7542651114805
 20
418.4560286598679
 30
0.0
 10
284.8900070687974
 20
418.9487736056712
 30
0.0
 10
284.8869932102995
 20
419.1990064475518
 30
0.0
 10
284.8866449977399
 20
419.2279176318117
 30
0.0
  0
ARC
  5
16E
330
1F
100
AcDbEntity
  8
0
  6
Continuous
 62
     7
370
    25
100
AcDbCircle
 10
184.8882570356
 20
470.6051373595
 30
0.0
 40
22.00000000000002
100
AcDbArc
 50
166.7924697991
 51
180.1854222215
  0
ARC
  5
16F
330
1F
100
AcDbEntity
  8
0
  6
Continuous
 62
     7
370
    25
100
AcDbCircle
 10
184.8882570356
 20
470.6051373595
 30
0.0
 40
21.99999999999998
100
AcDbArc
 50
0.0
 51
13.2075302009
  0
LINE
  5
170
330
1F
100
AcDbEntity
  8
0
  6
Continuous
 62
     7
370
    25
100
AcDbLine
 10
162.8882566775
 20
470.5316712611
 30
0.0
 11
162.8882566775
 21
468.5316718646
 31
0.0
  0
LINE
  5
171
330
1F
100
AcDbEntity
  8
0
  6
Continuous
 62
     7
370
    25
100
AcDbLine
 10
206.8882564391
 20
468.5316718646
 30
0.0
 11
206.8882564391
 21
470.5316712611
 31
0.0
  0
LINE
  5
172
330
1F
100
AcDbEntity
  8
0
  6
Continuous
 62
     7
370
    25
100
AcDbLine
 10
206.8882564391
 20
467.5552453377
 30
0.0
 11
206.8882564391
 21
468.0316717827
 31
0.0
  0
LINE
  5
173
330
1F
100
AcDbEntity
  8
0
  6
Continuous
 62
     7
370
    25
100
AcDbLine
 10
162.8882566775
 20
468.0316717827
 30
0.0
 11
162.8882566775
 21
467.5454468929
 31
0.0
  0
SPLINE
  5
174
330
1F
100
AcDbEntity
  8
0
  6
Continuous
 62
     7
370
    25
100
AcDbSpline
210
0.0
220
0.0
230
1.0
 70
     8
 71
     3
 72
     9
 73
     5
 74
     0
 42
0.000000001
 43
0.00000001
 40
0.0
 40
0.0
 40
0.0
 40
0.0
 40
0.1862141192387791
 40
1.0
 40
1.0
 40
1.0
 40
1.0
 10
163.2494999404193
 20
468.4271299743124
 30
0.0
 10
163.2078407481236
 20
468.419593194729
 30
0.0
 10
162.984124133798
 20
468.3791194668816
 30
0.0
 10
162.931269242114
 20
468.187560094914
 30
0.0
 10
162.8882566775323
 20
468.0316717826792
 30
0.0
  0
SPLINE
  5
175
330
1F
100
AcDbEntity
  8
0
  6
Continuous
 62
     7
370
    25
100
AcDbSpline
210
0.0
220
0.0
230
1.0
 70
     8
 71
     3
 72
     9
 73
     5
 74
     0
 42
0.000000001
 43
0.00000001
 40
0.0
 40
0.0
 40
0.0
 40
0.0
 40
0.8290117871178364
 40
1.0
 40
1.0
 40
1.0
 40
1.0
 10
206.8882564391137
 20
468.0316717826792
 30
0.0
 10
206.844826580071
 20
468.1806764801271
 30
0.0
 10
206.7924390751915
 20
468.3604142109571
 30
0.0
 10
206.4375682870095
 20
468.4030490966958
 30
0.0
 10
206.3768895651342
 20
468.4103391596147
 30
0.0
  0
LINE
  5
176
330
1F
100
AcDbEntity
  8
0
  6
Continuous
 62
     7
370
    25
100
AcDbLine
 10
167.4115882098
 20
422.5902864241
 30
0.0
 11
167.4218132003
 21
422.6405368649
 31
0.0
  0
SPLINE
  5
177
330
1F
100
AcDbEntity
  8
0
  6
Continuous
 62
     7
370
    25
100
AcDbSpline
210
0.0
220
0.0
230
1.0
 70
     8
 71
     3
 72
     9
 73
     5
 74
     0
 42
0.000000001
 43
0.00000001
 40
0.0
 40
0.0
 40
0.0
 40
0.0
 40
0.7216423565831119
 40
1.0
 40
1.0
 40
1.0
 40
1.0
 10
202.3715189035179
 20
422.6475925647684
 30
0.0
 10
202.3732617974183
 20
422.5179277453271
 30
0.0
 10
202.3756769742499
 20
422.3382475779167
 30
0.0
 10
202.2675027978016
 20
422.1585166552963
 30
0.0
 10
202.2373916889669
 20
422.1084871792265
 30
0.0
  0
ARC
  5
178
330
1F
100
AcDbEntity
  8
0
  6
Continuous
 62
     7
370
    25
100
AcDbCircle
 10
184.8882571579
 20
438.5316714545
 30
0.0
 40
17.5000000611812
100
AcDbArc
 50
359.9999993602
 51
180.0000006398
  0
ELLIPSE
  5
179
330
1F
100
AcDbEntity
  8
0
  6
Continuous
 62
     7
370
    25
100
AcDbEllipse
 10
184.8882570356
 20
421.6467275048
 30
0.0
 11
12.0
 21
5.684341886080801E-14
 31
0.0
210
0.0
220
0.0
230
1.0
 40
0.173665597
 41
0.0
 42
1.570796326794983
  0
ELLIPSE
  5
17A
330
1F
100
AcDbEntity
  8
0
  6
Continuous
 62
     7
370
    25
100
AcDbEllipse
 10
184.8882570356
 20
421.6467275048
 30
0.0
 11
12.0
 21
5.684341886080801E-14
 31
0.0
210
0.0
220
0.0
230
1.0
 40
0.173665597
 41
1.570796326794976
 42
3.141592653589793
  0
LWPOLYLINE
  5
17B
330
1F
100
AcDbEntity
  8
0
  6
Continuous
 62
     7
370
    25
100
AcDbPolyline
 90
       19
 70
   128
 43
0.0
 10
184.8882574896
 20
413.8318085575
 10
186.7983870517
 20
413.8631568753
 10
188.6504793848
 20
413.9562444293
 10
190.3882565285
 20
414.1082474493
 10
191.9589208747
 20
414.3145428502
 10
193.3147458668
 20
414.5688684189
 10
194.4145372446
 20
414.8634904527
 10
195.2248754288
 20
415.1894608044
 10
195.7211418386
 20
415.5368739271
 10
195.8882564987
 20
415.8951760733
 10
195.7211418386
 20
416.2534744942
 10
195.2248754288
 20
416.6008876168
 10
194.4145372446
 20
416.9268579685
 10
193.3147458668
 20
417.2214837276
 10
191.9589208747
 20
417.475805571
 10
190.3882565285
 20
417.6821046972
 10
188.6504793848
 20
417.8341077172
 10
186.7983870517
 20
417.9271952712
 10
184.8882574896
 20
417.9585435891
  0
SPLINE
  5
17C
330
1F
100
AcDbEntity
  8
0
  6
Continuous
 62
     7
370
    25
100
AcDbSpline
210
0.0
220
0.0
230
1.0
 70
     8
 71
     3
 72
     8
 73
     4
 74
     0
 42
0.000000001
 43
0.00000001
 40
0.0
 40
0.0
 40
0.0
 40
0.0
 40
1.0
 40
1.0
 40
1.0
 40
1.0
 10
189.6840885588661
 20
418.5256443423268
 30
0.0
 10
188.103302124448
 20
418.1673688627968
 30
0.0
 10
186.5067761169313
 20
417.9585422969752
 30
0.0
 10
184.8882570355534
 20
417.9585422969752
 30
0.0
  0
LWPOLYLINE
  5
17D
330
1F
100
AcDbEntity
  8
0
  6
Continuous
 62
     7
370
    25
100
AcDbPolyline
 90
       11
 70
   128
 43
0.0
 10
196.2128056522
 20
415.7177367711
 10
196.2355802144
 20
415.7300414049
 10
196.7239620472
 20
416.0910779142
 10
196.8882566626
 20
416.4622770154
 10
196.7239620472
 20
416.8334798419
 10
196.2355802144
 20
417.1945126259
 10
195.4364793684
 20
417.5354996228
 10
194.3485455896
 20
417.8470978045
 10
193.0015644367
 20
418.1207762563
 10
191.4324237342
 20
418.3490434193
 10
189.6840891178
 20
418.5256445312
  0
LINE
  5
17E
330
1F
100
AcDbEntity
  8
0
  6
Continuous
 62
     7
370
    25
100
AcDbLine
 10
189.6840891178
 20
421.8875402116
 30
0.0
 11
189.6840891178
 21
418.5256445312
 31
0.0
  0
SPLINE
  5
17F
330
1F
100
AcDbEntity
  8
0
  6
Continuous
 62
     7
370
    25
100
AcDbSpline
210
0.0
220
0.0
230
1.0
 70
     8
 71
     3
 72
    10
 73
     6
 74
     0
 42
0.000000001
 43
0.00000001
 40
0.0
 40
0.0
 40
0.0
 40
0.0
 40
0.5
 40
0.5
 40
1.0
 40
1.0
 40
1.0
 40
1.0
 10
184.8882570355534
 20
417.9585422969752
 30
0.0
 10
184.0808821842775
 20
417.9585422969752
 30
0.0
 10
183.2640460474335
 20
418.0105658015317
 30
0.0
 10
181.6625764557869
 20
418.2060828979801
 30
0.0
 10
180.8731660872013
 20
418.348694314295
 30
0.0
 10
180.0924255122406
 20
418.5256443423268
 30
0.0
  0
LINE
  5
180
330
1F
100
AcDbEntity
  8
0
  6
Continuous
 62
     7
370
    25
100
AcDbLine
 10
180.0924258615
 20
418.5256445312
 30
0.0
 11
180.0924258615
 21
421.8875402116
 31
0.0
  0
LINE
  5
181
330
1F
100
AcDbEntity
  8
0
  6
Continuous
 62
     7
370
    25
100
AcDbLine
 10
180.0924258615
 20
421.8875402116
 30
0.0
 11
189.6840891178
 21
421.8875402116
 31
0.0
  0
LWPOLYLINE
  5
182
330
1F
100
AcDbEntity
  8
0
  6
Continuous
 62
     7
370
    25
100
AcDbPolyline
 90
       11
 70
   128
 43
0.0
 10
180.0924258615
 20
418.5256445312
 10
178.3440898481
 20
418.3490434193
 10
176.7749486799
 20
418.1207762563
 10
175.427968924
 20
417.8470978045
 10
174.340034214
 20
417.5354996228
 10
173.5409345321
 20
417.1945126259
 10
173.0525510694
 20
416.8334798419
 10
172.8882570361
 20
416.4622770154
 10
173.0525510694
 20
416.0910779142
 10
173.5409345321
 20
415.7300414049
 10
173.5637088615
 20
415.7177367711
  0
LWPOLYLINE
  5
183
330
1F
100
AcDbEntity
  8
0
  6
Continuous
 62
     7
370
    25
100
AcDbPolyline
 90
       19
 70
   128
 43
0.0
 10
184.8882574896
 20
417.9585435891
 10
182.9781269963
 20
417.9271952712
 10
181.1260355945
 20
417.8341077172
 10
179.3882565881
 20
417.6821046972
 10
177.8175931732
 20
417.475805571
 10
176.4617681812
 20
417.2214837276
 10
175.3619777347
 20
416.9268579685
 10
174.5516381535
 20
416.6008876168
 10
174.0553717437
 20
416.2534744942
 10
173.8882570836
 20
415.8951760733
 10
174.0553717437
 20
415.5368739271
 10
174.5516381535
 20
415.1894608044
 10
175.3619777347
 20
414.8634904527
 10
176.4617681812
 20
414.5688684189
 10
177.8175931732
 20
414.3145428502
 10
179.3882565881
 20
414.1082474493
 10
181.1260355945
 20
413.9562444293
 10
182.9781269963
 20
413.8631568753
 10
184.8882574896
 20
413.8318085575
  0
ARC
  5
184
330
1F
100
AcDbEntity
  8
0
  6
Continuous
 62
     7
370
    25
100
AcDbCircle
 10
184.8882574896
 20
361.1073818139
 30
0.0
 40
60.96907130548517
100
AcDbArc
 50
85.4884491248
 51
94.5115508752
  0
CIRCLE
  5
185
330
1F
100
AcDbEntity
  8
0
  6
Continuous
 62
     7
370
    25
100
AcDbCircle
 10
184.7776521106
 20
495.1316714545
 30
0.0
 40
4.999999999999972
  0
LINE
  5
186
330
1F
100
AcDbEntity
  8
0
  6
Continuous
 62
     7
370
    25
100
AcDbLine
 10
194.1882575239
 20
407.0316710972
 30
0.0
 11
175.5882569897
 21
407.0316710972
 31
0.0
  0
LINE
  5
187
330
1F
100
AcDbEntity
  8
0
  6
Continuous
 62
     7
370
    25
100
AcDbLine
 10
195.3632569249
 20
408.2066723608
 30
0.0
 11
174.4132571231
 21
408.2066723608
 31
0.0
  0
LINE
  5
188
330
1F
100
AcDbEntity
  8
0
  6
Continuous
 62
     7
370
    25
100
AcDbLine
 10
195.3632569249
 20
414.8066723251
 30
0.0
 11
194.2331044312
 21
414.8066723251
 31
0.0
  0
LINE
  5
189
330
1F
100
AcDbEntity
  8
0
  6
Continuous
 62
     7
370
    25
100
AcDbLine
 10
175.5434096168
 20
414.8066723251
 30
0.0
 11
174.4132571231
 21
414.8066723251
 31
0.0
  0
LINE
  5
18A
330
1F
100
AcDbEntity
  8
0
  6
Continuous
 62
     7
370
    25
100
AcDbLine
 10
179.6507573064
 20
412.2066730165
 30
0.0
 11
174.4132571231
 21
412.2066730165
 31
0.0
  0
LINE
  5
18B
330
1F
100
AcDbEntity
  8
0
  6
Continuous
 62
     7
370
    25
100
AcDbLine
 10
195.3632569249
 20
412.2066730165
 30
0.0
 11
179.6507573064
 21
412.2066730165
 31
0.0
  0
LINE
  5
18C
330
1F
100
AcDbEntity
  8
0
  6
Continuous
 62
     7
370
    25
100
AcDbLine
 10
174.4132571231
 20
411.2066709899
 30
0.0
 11
195.3632569249
 21
411.2066709899
 31
0.0
  0
LINE
  5
18D
330
1F
100
AcDbEntity
  8
0
  6
Continuous
 62
     7
370
    25
100
AcDbLine
 10
191.3882566924
 20
461.9816713498
 30
0.0
 11
178.3882568899
 21
461.9816713498
 31
0.0
  0
LINE
  5
18E
330
1F
100
AcDbEntity
  8
0
  6
Continuous
 62
     7
370
    25
100
AcDbLine
 10
178.3882568899
 20
471.9816715919
 30
0.0
 11
191.3882566924
 21
471.9816715919
 31
0.0
  0
CIRCLE
  5
18F
330
1F
100
AcDbEntity
  8
0
  6
Continuous
 62
     7
370
    25
100
AcDbCircle
 10
184.7776521106
 20
483.9316714545
 30
0.0
 40
3.569682227408578
  0
CIRCLE
  5
190
330
1F
100
AcDbEntity
  8
0
  6
Continuous
 62
     7
370
    25
100
AcDbCircle
 10
184.7776521106
 20
483.9316714545
 30
0.0
 40
4.0
  0
SPLINE
  5
191
330
1F
100
AcDbEntity
  8
0
  6
Continuous
 62
     7
370
    25
100
AcDbSpline
210
0.0
220
0.0
230
1.0
 70
     8
 71
     3
 72
     9
 73
     5
 74
     0
 42
0.000000001
 43
0.00000001
 40
0.0
 40
0.0
 40
0.0
 40
0.0
 40
0.5960325062100033
 40
1.0
 40
1.0
 40
1.0
 40
1.0
 10
162.3317867825867
 20
475.8463380389878
 30
0.0
 10
162.3336008083962
 20
475.771209479438
 30
0.0
 10
162.3366443098674
 20
475.6451617240436
 30
0.0
 10
162.5976092389224
 20
475.6355533725155
 30
0.0
 10
162.7030305872799
 20
475.6316719108292
 30
0.0
  0
SPLINE
  5
192
330
1F
100
AcDbEntity
  8
0
  6
Continuous
 62
     7
370
    25
100
AcDbSpline
210
0.0
220
0.0
230
1.0
 70
     8
 71
     3
 72
     9
 73
     5
 74
     0
 42
0.000000001
 43
0.00000001
 40
0.0
 40
0.0
 40
0.0
 40
0.0
 40
0.7867815614670275
 40
1.0
 40
1.0
 40
1.0
 40
1.0
 10
206.8522738601209
 20
475.6316719108292
 30
0.0
 10
207.0576137300027
 20
475.6392374242084
 30
0.0
 10
207.3186008704473
 20
475.6488531978229
 30
0.0
 10
207.2404830282449
 20
475.8113437438456
 30
0.0
 10
207.2238268639089
 20
475.8459897243449
 30
0.0
  0
LINE
  5
193
330
1F
100
AcDbEntity
  8
0
  6
Continuous
 62
     7
370
    25
100
AcDbLine
 10
162.7030305873
 20
475.6316719108
 30
0.0
 11
206.8522738601
 21
475.6316719108
 31
0.0
  0
LINE
  5
194
330
1F
100
AcDbEntity
  8
0
  6
Continuous
 62
     7
370
    25
100
AcDbLine
 10
162.8176521818
 20
504.631672939
 30
0.0
 11
206.7376504029
 21
504.631672939
 31
0.0
  0
SPLINE
  5
195
330
1F
100
AcDbEntity
  8
0
  6
Continuous
 62
     7
370
    25
100
AcDbSpline
210
0.0
220
0.0
230
1.0
 70
    24
 71
     3
 72
    30
 73
    26
 74
     0
 42
0.000000001
 43
0.00000001
 40
0.0
 40
0.0
 40
0.0
 40
0.0
 40
0.0496466811612395
 40
0.106091432956446
 40
0.1691986085527393
 40
0.2032883409430977
 40
0.238975112534159
 40
0.276154664152943
 40
0.3146768466290529
 40
0.3543449242287204
 40
0.394918126829263
 40
0.4361179348402578
 40
0.4776383910180106
 40
0.5191588471957636
 40
0.5603586835383387
 40
0.6009318586776087
 40
0.6405999395528156
 40
0.6791221343354292
 40
0.7163016823997492
 40
0.7519884546369299
 40
0.7860781847199805
 40
0.8491853471606587
 40
0.9056301067494137
 40
0.9557233818530007
 40
1.0
 40
1.0
 40
1.0
 40
1.0
 10
284.8882543231488
 20
419.2279064559409
 30
0.0
 10
284.8882543231489
 20
419.4167254696533
 30
0.0
 10
284.8882543231488
 20
419.8202182966785
 30
0.0
 10
284.8882543231489
 20
421.172393786369
 30
0.0
 10
284.8882543231488
 20
422.8999581951854
 30
0.0
 10
284.8882543231488
 20
424.7360674368871
 30
0.0
 10
284.8882543231488
 20
426.3905725333341
 30
0.0
 10
284.8882543231488
 20
428.2870206314444
 30
0.0
 10
284.8882543231488
 20
430.4124739809131
 30
0.0
 10
284.8882543231488
 20
432.7422510889152
 30
0.0
 10
284.8882543231488
 20
435.2390964114819
 30
0.0
 10
284.8882543231488
 20
437.8545705116699
 30
0.0
 10
284.8882543231488
 20
440.5316709746119
 30
0.0
 10
284.8882543231488
 20
443.2087722021743
 30
0.0
 10
284.8882543231488
 20
445.8242458501758
 30
0.0
 10
284.8882543231488
 20
448.3210933631074
 30
0.0
 10
284.8882543231488
 20
450.6508615559964
 30
0.0
 10
284.8882543231488
 20
452.7763465744218
 30
0.0
 10
284.8882543231488
 20
454.6726849280899
 30
0.0
 10
284.8882543231489
 20
456.3275746490164
 30
0.0
 10
284.8882543231488
 20
458.1619414925769
 30
0.0
 10
284.8882543231488
 20
459.9011439733343
 30
0.0
 10
284.8882543231488
 20
461.2152419439038
 30
0.0
 10
284.8882543231488
 20
461.9156221025415
 30
0.0
 10
284.8882543231488
 20
461.9946114034204
 30
0.0
 10
284.8882543231488
 20
462.0316717305251
 30
0.0
  0
LINE
  5
196
330
1F
100
AcDbEntity
  8
0
  6
Continuous
 62
     7
370
    25
100
AcDbLine
 10
191.8882577057
 20
468.5316718646
 30
0.0
 11
206.8882564391
 21
468.5316718646
 31
0.0
  0
LINE
  5
197
330
1F
100
AcDbEntity
  8
0
  6
Continuous
 62
     7
370
    25
100
AcDbLine
 10
162.8882566775
 20
468.5316718646
 30
0.0
 11
177.8882568079
 21
468.5316718646
 31
0.0
  0
LINE
  5
198
330
1F
100
AcDbEntity
  8
0
  6
Continuous
 62
     7
370
    25
100
AcDbLine
 10
162.8900094266
 20
468.0316717827
 30
0.0
 11
162.8882566775
 21
468.0316717827
 31
0.0
  0
ARC
  5
199
330
1F
100
AcDbEntity
  8
0
  6
Continuous
 62
     7
370
    25
100
AcDbCircle
 10
259.8882570356
 20
440.5316714538
 30
0.0
 40
34.99999999999998
100
AcDbArc
 50
220.0052008835
 51
139.9947991137
  0
ARC
  5
19A
330
1F
100
AcDbEntity
  8
0
  6
Continuous
 62
     7
370
    25
100
AcDbCircle
 10
109.8882570356
 20
440.5316714545
 30
0.0
 40
35.00000000000001
100
AcDbArc
 50
40.0052008849
 51
180.0
  0
ARC
  5
19B
330
1F
100
AcDbEntity
  8
0
  6
Continuous
 62
     7
370
    25
100
AcDbCircle
 10
109.8882570356
 20
440.5316714545
 30
0.0
 40
35.00000000000003
100
AcDbArc
 50
180.0
 51
319.9947991151
  0
SPLINE
  5
19C
330
1F
100
AcDbEntity
  8
0
  6
Continuous
 62
     8
370
    18
100
AcDbSpline
210
0.0
220
0.0
230
1.0
 70
     8
 71
     3
 72
    29
 73
    25
 74
     0
 42
0.000000001
 43
0.00000001
 40
0.0
 40
0.0
 40
0.0
 40
0.0
 40
0.0506720056255812
 40
0.1089266057599092
 40
0.1696416507882778
 40
0.2286117144015736
 40
0.2894825077262452
 40
0.3194049568079095
 40
0.3490175824461951
 40
0.4099693145862668
 40
0.4701273246204671
 40
0.530902420002878
 40
0.5613890106788174
 40
0.5920513400864454
 40
0.6505118379021474
 40
0.7100463779533993
 40
0.7505801039084075
 40
0.7918510104124046
 40
0.8339005349741091
 40
0.8728909843276057
 40
0.9127902670725937
 40
0.9535675335191295
 40
0.9918417282279074
 40
1.0
 40
1.0
 40
1.0
 40
1.0
 10
167.4218132003338
 20
422.6405368649432
 30
0.0
 10
167.4367781187652
 20
422.8491249920901
 30
0.0
 10
167.4689473165318
 20
423.2975145202216
 30
0.0
 10
168.1087908438657
 20
423.9784115734652
 30
0.0
 10
169.2564333832698
 20
424.6639489220041
 30
0.0
 10
170.9936038125502
 20
425.3065164879712
 30
0.0
 10
172.9029293459082
 20
425.7778927226643
 30
0.0
 10
174.7041217440629
 20
426.1039324813714
 30
0.0
 10
176.6694603286016
 20
426.3913658679543
 30
0.0
 10
179.4197095428971
 20
426.6680890269049
 30
0.0
 10
183.0477245374499
 20
426.8429679386211
 30
0.0
 10
186.1646233687381
 20
426.8415243420392
 30
0.0
 10
188.6094206482704
 20
426.7526141194588
 30
0.0
 10
190.9363805713579
 20
426.609949391515
 30
0.0
 10
193.6456665366206
 20
426.3356820992068
 30
0.0
 10
196.1428836250929
 20
425.9295937162113
 30
0.0
 10
198.0189381614039
 20
425.5005389789915
 30
0.0
 10
199.4031089266034
 20
425.0845739906413
 30
0.0
 10
200.5043447493263
 20
424.6418815879352
 30
0.0
 10
201.3387253310198
 20
424.1817851513225
 30
0.0
 10
201.9320014690594
 20
423.7099581931574
 30
0.0
 10
202.2714477768083
 20
423.2286635312262
 30
0.0
 10
202.4090118894343
 20
422.87244086252
 30
0.0
 10
202.3771220145664
 20
422.6811948493181
 30
0.0
 10
202.3715189035179
 20
422.6475925647684
 30
0.0
  0
SPLINE
  5
19D
330
1F
100
AcDbEntity
  8
0
  6
Continuous
 62
     8
370
    18
100
AcDbSpline
210
0.0
220
0.0
230
1.0
 70
     8
 71
     3
 72
    32
 73
    28
 74
     0
 42
0.000000001
 43
0.00000001
 40
0.0
 40
0.0
 40
0.0
 40
0.0
 40
0.028247533189229
 40
0.0685915510822863
 40
0.109228901594531
 40
0.1495318659401772
 40
0.1898703965984358
 40
0.2305398986529367
 40
0.2709544211109809
 40
0.3116533829566229
 40
0.3521527609050953
 40
0.3927075944017147
 40
0.4332209814583277
 40
0.4736769793859824
 40
0.5143728061450361
 40
0.5550823379673876
 40
0.5957579702421526
 40
0.6365856649807048
 40
0.6771238927821807
 40
0.7178430007866936
 40
0.7586026488569002
 40
0.799223184938036
 40
0.8399897601658264
 40
0.8805607558622447
 40
0.9212074696312048
 40
0.9618464912672756
 40
1.0
 40
1.0
 40
1.0
 40
1.0
 10
172.8882570360915
 20
418.909863522
 30
0.0
 10
172.4487722032395
 20
419.0388058193064
 30
0.0
 10
171.3816012697452
 20
419.3519075727626
 30
0.0
 10
170.1335965162238
 20
419.8911165141919
 30
0.0
 10
169.0889771304142
 20
420.5085765005124
 30
0.0
 10
168.4768960509028
 20
421.1441397003279
 30
0.0
 10
168.3125261897642
 20
421.7880176174745
 30
0.0
 10
168.644898740086
 20
422.4310227787756
 30
0.0
 10
169.5204753044989
 20
423.0608475572143
 30
0.0
 10
170.9782327251263
 20
423.6570812913091
 30
0.0
 10
173.0469216707494
 20
424.1979454386456
 30
0.0
 10
175.710841063849
 20
424.6536344637329
 30
0.0
 10
178.9056839083038
 20
424.9927128805988
 30
0.0
 10
182.4926043908484
 20
425.184941886534
 30
0.0
 10
186.2530339585008
 20
425.2090494130472
 30
0.0
 10
189.9237236461014
 20
425.061069703608
 30
0.0
 10
193.2602601877792
 20
424.7572679529424
 30
0.0
 10
196.0857704411013
 20
424.3275069824725
 30
0.0
 10
198.3194056198783
 20
423.8042754480046
 30
0.0
 10
199.9391240984795
 20
423.2181722197074
 30
0.0
 10
200.9630848085277
 20
422.5931588552966
 30
0.0
 10
201.4300948189478
 20
421.9487132859044
 30
0.0
 10
201.3840537650868
 20
421.3006723818863
 30
0.0
 10
200.8726063195666
 20
420.6586552951219
 30
0.0
 10
199.9239510243908
 20
420.0331973419902
 30
0.0
 10
198.6314670053072
 20
419.439039241974
 30
0.0
 10
197.4569770018855
 20
419.0741710429144
 30
0.0
 10
196.8882566626312
 20
418.8974918329188
 30
0.0
  0
CIRCLE
  5
19E
330
1F
100
AcDbEntity
  8
0
  6
Continuous
 62
     8
370
    18
100
AcDbCircle
 10
184.7776521106
 20
495.1316714545
 30
0.0
 40
4.499999999999972
  0
LINE
  5
19F
330
1F
100
AcDbEntity
  8
0
  6
Continuous
 62
     8
370
    18
100
AcDbLine
 10
194.363256761
 20
411.506672343
 30
0.0
 11
175.4132568213
 21
411.506672343
 31
0.0
  0
LINE
  5
1A0
330
1F
100
AcDbEntity
  8
0
  6
Continuous
 62
     8
370
    18
100
AcDbLine
 10
194.363256761
 20
411.9066716635
 30
0.0
 11
175.4132568213
 21
411.9066716635
 31
0.0
  0
LINE
  5
1A1
330
1F
100
AcDbEntity
  8
0
  6
Continuous
 62
     8
370
    18
100
AcDbLine
 10
177.8882568079
 20
462.4816718974
 30
0.0
 11
191.8882577057
 21
462.4816718974
 31
0.0
  0
LINE
  5
1A2
330
1F
100
AcDbEntity
  8
0
  6
Continuous
 62
     8
370
    18
100
AcDbLine
 10
191.8882577057
 20
471.4816705787
 30
0.0
 11
177.8882568079
 21
471.4816705787
 31
0.0
  0
SPLINE
  5
1A3
330
1F
100
AcDbEntity
  8
0
  6
Continuous
 62
     8
370
    18
100
AcDbSpline
210
0.0
220
0.0
230
1.0
 70
     8
 71
     3
 72
    32
 73
    28
 74
     0
 42
0.000000001
 43
0.00000001
 40
0.0
 40
0.0
 40
0.0
 40
0.0
 40
0.0186982832054303
 40
0.0373696223540061
 40
0.0560143409901677
 40
0.0746327640461672
 40
0.0932252178329339
 40
0.1117920300306292
 40
0.1303335296789002
 40
0.1488500471668145
 40
0.1673419142224953
 40
0.1858094639024442
 40
0.204253030580547
 40
0.222672949936778
 40
0.2410695589455827
 40
0.259443195863958
 40
0.3846934039048505
 40
0.5124357574054231
 40
0.6308427189929322
 40
0.757815300494568
 40
0.7904254151806231
 40
0.8236973253625601
 40
0.8576315208896301
 40
0.8922284631387486
 40
0.9274885871297277
 40
0.9634123034486906
 40
1.0
 40
1.0
 40
1.0
 40
1.0
 10
158.8601898662167
 20
451.4191170479911
 30
0.0
 10
158.841748026457
 20
451.5543409263375
 30
0.0
 10
158.8048909214619
 20
451.8245938266455
 30
0.0
 10
158.7520912688268
 20
452.2238687961416
 30
0.0
 10
158.7011639549887
 20
452.618098599593
 30
0.0
 10
158.6522838006657
 20
453.0067262701711
 30
0.0
 10
158.6054040629602
 20
453.3897096948094
 30
0.0
 10
158.5605372414804
 20
453.7668731149031
 30
0.0
 10
158.51767999182
 20
454.1380805844537
 30
0.0
 10
158.4768332188179
 20
454.5031896268983
 30
0.0
 10
158.4379966438308
 20
454.8620637443477
 30
0.0
 10
158.4011704806244
 20
455.2145688805819
 30
0.0
 10
158.366354155945
 20
455.5605753161251
 30
0.0
 10
158.3335497480263
 20
455.8999538484607
 30
0.0
 10
158.302749533394
 20
456.2325893657815
 30
0.0
 10
158.2181926079501
 20
457.1900558991088
 30
0.0
 10
158.1130098867999
 20
458.6685347666678
 30
0.0
 10
158.0527290105266
 20
460.3408993445501
 30
0.0
 10
158.0669989777469
 20
461.6445706070513
 30
0.0
 10
158.1208790809901
 20
462.3189339232085
 30
0.0
 10
158.1743667378293
 20
462.6463795691652
 30
0.0
 10
158.2053321695659
 20
462.785896390962
 30
0.0
 10
158.2401221056123
 20
462.8967111338578
 30
0.0
 10
158.2787231261695
 20
462.9770567592651
 30
0.0
 10
158.3211991708344
 20
463.0240689705945
 30
0.0
 10
158.367301744951
 20
463.0390035080954
 30
0.0
 10
158.4007841774311
 20
463.0180982691102
 30
0.0
 10
158.4176786914241
 20
463.0075499359576
 30
0.0
  0
SPLINE
  5
1A4
330
1F
100
AcDbEntity
  8
0
  6
Continuous
 62
     8
370
    18
100
AcDbSpline
210
0.0
220
0.0
230
1.0
 70
     8
 71
     3
 72
    21
 73
    17
 74
     0
 42
0.000000001
 43
0.00000001
 40
0.0
 40
0.0
 40
0.0
 40
0.0
 40
0.0211484995009274
 40
0.0437733522629468
 40
0.067750686626458
 40
0.0919766892691118
 40
0.1161950674253626
 40
0.2310355260071414
 40
0.3468612743521115
 40
0.4660019593125252
 40
0.656141887700856
 40
0.8500935700159911
 40
0.8875425829069126
 40
0.9249732932027466
 40
0.9624373213375172
 40
1.0
 40
1.0
 40
1.0
 40
1.0
 10
172.5249181122206
 20
466.831328034303
 30
0.0
 10
172.3946943605909
 20
466.8415728634481
 30
0.0
 10
172.1251560818661
 20
466.8627777018824
 30
0.0
 10
171.7162814499851
 20
466.8977294364176
 30
0.0
 10
171.2958536811612
 20
466.9337569462065
 30
0.0
 10
170.8743124748059
 20
466.9706473716021
 30
0.0
 10
169.9430864908271
 20
467.0538917677881
 30
0.0
 10
168.5769371211267
 20
467.1854918833799
 30
0.0
 10
166.930163909101
 20
467.3602856837122
 30
0.0
 10
165.2384390758258
 20
467.5426677484799
 30
0.0
 10
163.7548196921416
 20
467.67096151226
 30
0.0
 10
163.1077054598823
 20
467.6662946055876
 30
0.0
 10
162.9330505698001
 20
467.6131069966158
 30
0.0
 10
162.8927968247457
 20
467.5835763100594
 30
0.0
 10
162.8822709545583
 20
467.5476775775941
 30
0.0
 10
162.9024750756232
 20
467.5178074332182
 30
0.0
 10
162.9125904190738
 20
467.5028527233197
 30
0.0
  0
SPLINE
  5
1A5
330
1F
100
AcDbEntity
  8
0
  6
Continuous
 62
     8
370
    18
100
AcDbSpline
210
0.0
220
0.0
230
1.0
 70
     8
 71
     3
 72
     9
 73
     5
 74
     0
 42
0.000000001
 43
0.00000001
 40
0.0
 40
0.0
 40
0.0
 40
0.0
 40
0.416616719712287
 40
1.0
 40
1.0
 40
1.0
 40
1.0
 10
177.8882568079175
 20
466.5563543790051
 30
0.0
 10
177.1003475895559
 20
466.5816216328404
 30
0.0
 10
175.2091387611976
 20
466.6422703121655
 30
0.0
 10
173.516430107979
 20
466.7614774897438
 30
0.0
 10
172.5289321812929
 20
466.8310209640333
 30
0.0
  0
SPLINE
  5
1A6
330
1F
100
AcDbEntity
  8
0
  6
Continuous
 62
     8
370
    18
100
AcDbSpline
210
0.0
220
0.0
230
1.0
 70
     8
 71
     3
 72
    11
 73
     7
 74
     0
 42
0.000000001
 43
0.00000001
 40
0.0
 40
0.0
 40
0.0
 40
0.0
 40
0.2787242242242877
 40
0.5792535923805108
 40
0.8797829077166412
 40
1.0
 40
1.0
 40
1.0
 40
1.0
 10
161.7526624660136
 20
435.6981915884682
 30
0.0
 10
162.4812252311833
 20
435.8050304883744
 30
0.0
 10
163.9953476587325
 20
436.0270665053331
 30
0.0
 10
165.9312243541051
 20
436.0686792908296
 30
0.0
 10
167.1426964943564
 20
435.9391335759254
 30
0.0
 10
167.3336867872823
 20
435.7358605749898
 30
0.0
 10
167.3882571823092
 20
435.6777807229229
 30
0.0
  0
SPLINE
  5
1A7
330
1F
100
AcDbEntity
  8
0
  6
Continuous
 62
     8
370
    18
100
AcDbSpline
210
0.0
220
0.0
230
1.0
 70
     8
 71
     3
 72
    47
 73
    43
 74
     0
 42
0.000000001
 43
0.00000001
 40
0.0
 40
0.0
 40
0.0
 40
0.0
 40
0.0290556894299763
 40
0.0579019457525136
 40
0.0865388598136437
 40
0.1149665244702389
 40
0.1431850346487257
 40
0.1711944874059226
 40
0.19899498199209
 40
0.2265866199162947
 40
0.2539695050141856
 40
0.2811437435182814
 40
0.3081094441308919
 40
0.334866718099777
 40
0.3614156792966763
 40
0.3877564442988302
 40
0.4138891324736359
 40
0.439813866066567
 40
0.4655307702925233
 40
0.4910399734307551
 40
0.5163416069235339
 40
0.5414358054787451
 40
0.566322707176578
 40
0.5910024535805184
 40
0.615475189852844
 40
0.6397410648748331
 40
0.663800231371917
 40
0.6876528460440205
 40
0.7112990697013363
 40
0.7347390674058029
 40
0.7579730086185685
 40
0.7810010673537419
 40
0.8038234223387324
 40
0.8264402571815296
 40
0.8488517605452617
 40
0.8710581263304036
 40
0.8930595538650391
 40
0.9148562481035821
 40
0.9364484198344012
 40
0.9578362858968139
 40
0.9790200694079513
 40
1.0
 40
1.0
 40
1.0
 40
1.0
 10
161.7526300405968
 20
435.6982152624265
 30
0.0
 10
161.7183315413215
 20
435.8508034760403
 30
0.0
 10
161.6499817659972
 20
436.15488004901
 30
0.0
 10
161.5488629177771
 20
436.6119982639652
 30
0.0
 10
161.449246537339
 20
437.0674710449487
 30
0.0
 10
161.3512053229159
 20
437.5212775622074
 30
0.0
 10
161.2547200061296
 20
437.9731473726166
 30
0.0
 10
161.1597956920201
 20
438.4228856875379
 30
0.0
 10
161.0664310265205
 20
438.8702871366568
 30
0.0
 10
160.974626367094
 20
439.3151585773751
 30
0.0
 10
160.8843816176762
 20
439.7573129981536
 30
0.0
 10
160.7956968023267
 20
440.1965710723139
 30
0.0
 10
160.7085719132452
 20
440.6327606762958
 30
0.0
 10
160.6230069510343
 20
441.0657169391088
 30
0.0
 10
160.5390019140328
 20
441.4952821433872
 30
0.0
 10
160.4565568011401
 20
441.92130565849
 30
0.0
 10
160.3756716110665
 20
442.3436438582537
 30
0.0
 10
160.2963463425314
 20
442.7621600363461
 30
0.0
 10
160.2185809942094
 20
443.1767243161808
 30
0.0
 10
160.142375564743
 20
443.5872135565795
 30
0.0
 10
160.0677300527387
 20
443.9935112532406
 30
0.0
 10
159.9946444567665
 20
444.3955074363633
 30
0.0
 10
159.923118775359
 20
444.7930985646909
 30
0.0
 10
159.8531530070103
 20
445.1861874162511
 30
0.0
 10
159.7847471501748
 20
445.574682976059
 30
0.0
 10
159.7179012032671
 20
445.9585003210387
 30
0.0
 10
159.6526151646586
 20
446.3375605024262
 30
0.0
 10
159.5888890326844
 20
446.7117904258668
 30
0.0
 10
159.5267228056138
 20
447.0811227295437
 30
0.0
 10
159.4661164817536
 20
447.4454956602171
 30
0.0
 10
159.407070059063
 20
447.8048529486784
 30
0.0
 10
159.3495835365685
 20
448.1591436801098
 30
0.0
 10
159.2936569091464
 20
448.5083221769635
 30
0.0
 10
159.2392901867328
 20
448.8523478304575
 30
0.0
 10
159.1864833235904
 20
449.1911851169008
 30
0.0
 10
159.1352364786958
 20
449.5248029301383
 30
0.0
 10
159.085549057283
 20
449.8531764287304
 30
0.0
 10
159.0374232383876
 20
450.1762796257883
 30
0.0
 10
158.9908509934102
 20
450.4941120458892
 30
0.0
 10
158.9458618524344
 20
450.8066000258402
 30
0.0
 10
158.9023471649206
 20
451.1139592314279
 30
0.0
 10
158.8744520199539
 20
451.3158688177807
 30
0.0
 10
158.8605718811259
 20
451.4163355152158
 30
0.0
  0
SPLINE
  5
1A8
330
1F
100
AcDbEntity
  8
0
  6
Continuous
 62
     8
370
    18
100
AcDbSpline
210
0.0
220
0.0
230
1.0
 70
     8
 71
     3
 72
    27
 73
    23
 74
     0
 42
0.000000001
 43
0.00000001
 40
0.0
 40
0.0
 40
0.0
 40
0.0
 40
0.0210549998568009
 40
0.0420969095779734
 40
0.0631329961866162
 40
0.0841718563446691
 40
0.105222585317842
 40
0.1262550459562026
 40
0.1472091152450912
 40
0.1680952116179755
 40
0.1889251328415567
 40
0.2097108682640405
 40
0.2304628182383743
 40
0.2511907192470911
 40
0.3804381895749294
 40
0.5086072863352311
 40
0.6346159183664215
 40
0.757061361945877
 40
0.8479554524618479
 40
0.9391403715790343
 40
0.970876953157121
 40
0.9999999999999999
 40
0.9999999999999999
 40
0.9999999999999999
 40
0.9999999999999999
 10
206.8882761256107
 20
467.5552464758813
 30
0.0
 10
206.8873720224604
 20
467.5618734959997
 30
0.0
 10
206.8855643782512
 20
467.5751234161419
 30
0.0
 10
206.8712013576675
 20
467.592509612941
 30
0.0
 10
206.8482479474463
 20
467.6080148952141
 30
0.0
 10
206.8158640030636
 20
467.6214581779211
 30
0.0
 10
206.7742933424944
 20
467.6328702578651
 30
0.0
 10
206.7235878542725
 20
467.6422475756684
 30
0.0
 10
206.6639067221244
 20
467.6497074807011
 30
0.0
 10
206.5953597316772
 20
467.6552696908792
 30
0.0
 10
206.518009817556
 20
467.658988902061
 30
0.0
 10
206.4319514364423
 20
467.6609370557865
 30
0.0
 10
206.3372090183828
 20
467.6611390997294
 30
0.0
 10
206.053399515675
 20
467.6569612232705
 30
0.0
 10
205.4491692898769
 20
467.6223087721652
 30
0.0
 10
204.2958587844332
 20
467.5165019268302
 30
0.0
 10
202.8709609044201
 20
467.3628740192686
 30
0.0
 10
201.3485231398572
 20
467.2014202253696
 30
0.0
 10
199.8165965846091
 20
467.0514118634288
 30
0.0
 10
198.6481990701961
 20
466.9482712782493
 30
0.0
 10
197.7795827994213
 20
466.873307765613
 30
0.0
 10
197.4224798034051
 20
466.8449148461845
 30
0.0
 10
197.2515959588839
 20
466.8313280343031
 30
0.0
  0
SPLINE
  5
1A9
330
1F
100
AcDbEntity
  8
0
  6
Continuous
 62
     8
370
    18
100
AcDbSpline
210
0.0
220
0.0
230
1.0
 70
     8
 71
     3
 72
     9
 73
     5
 74
     0
 42
0.000000001
 43
0.00000001
 40
0.0
 40
0.0
 40
0.0
 40
0.0
 40
0.5005466842134747
 40
1.0
 40
1.0
 40
1.0
 40
1.0
 10
206.8639236520304
 20
467.5028527233198
 30
0.0
 10
206.8710598255592
 20
467.5122718722582
 30
0.0
 10
206.8853165847265
 20
467.5310895954305
 30
0.0
 10
206.8872903313267
 20
467.5472000539533
 30
0.0
 10
206.8882761256107
 20
467.5552464758813
 30
0.0
  0
SPLINE
  5
1AA
330
1F
100
AcDbEntity
  8
0
  6
Continuous
 62
     8
370
    18
100
AcDbSpline
210
0.0
220
0.0
230
1.0
 70
     8
 71
     3
 72
    31
 73
    27
 74
     0
 42
0.000000001
 43
0.00000001
 40
0.0
 40
0.0
 40
0.0
 40
0.0
 40
0.019784395506244
 40
0.0393762604606991
 40
0.058775653621433
 40
0.0779826355216155
 40
0.0969972685407137
 40
0.1158196169792722
 40
0.1344497471374755
 40
0.1528877273977531
 40
0.1711336283116469
 40
0.1891875226912189
 40
0.2070494857052909
 40
0.2247195949808025
 40
0.2421979307096374
 40
0.3691696998883994
 40
0.4875795449484238
 40
0.6153204924451672
 40
0.7405727433394678
 40
0.7773405951994848
 40
0.814201727025492
 40
0.8511588289103783
 40
0.8882145700455085
 40
0.9253715983644255
 40
0.9626325402064377
 40
1.0
 40
1.0
 40
1.0
 40
1.0
 10
211.3588353884448
 20
463.0075499361259
 30
0.0
 10
211.3680368239309
 20
463.0141392784906
 30
0.0
 10
211.3863501517349
 20
463.0272538394655
 30
0.0
 10
211.4126241427511
 20
463.0332289435281
 30
0.0
 10
211.4378481386295
 20
463.0293917653804
 30
0.0
 10
211.4619481218479
 20
463.0150830803768
 30
0.0
 10
211.4849436355628
 20
462.9908707138641
 30
0.0
 10
211.5068295247989
 20
462.9569999886069
 30
0.0
 10
211.5276071518297
 20
462.9138022269956
 30
0.0
 10
211.5472761660728
 20
462.8615863482444
 30
0.0
 10
211.5658366433815
 20
462.8006671372623
 30
0.0
 10
211.5832886415171
 20
462.73135666121
 30
0.0
 10
211.5996318768548
 20
462.6539684047567
 30
0.0
 10
211.6148674277302
 20
462.5688071578003
 30
0.0
 10
211.6585361289683
 20
462.2824904201017
 30
0.0
 10
211.7094966197869
 20
461.6449570191214
 30
0.0
 10
211.7237983353506
 20
460.3416697042849
 30
0.0
 10
211.6635436774144
 20
458.6696771801984
 30
0.0
 10
211.5513710061297
 20
457.0915125206255
 30
0.0
 10
211.4440993526368
 20
455.9045642309202
 30
0.0
 10
211.3764856339658
 20
455.2191690991407
 30
0.0
 10
211.3008436319261
 20
454.5077744603034
 30
0.0
 10
211.2171954520761
 20
453.7715230190365
 30
0.0
 10
211.1253627467372
 20
453.0111025523566
 30
0.0
 10
211.0260396726332
 20
452.2292811580792
 30
0.0
 10
210.9531973464192
 20
451.6913698122732
 30
0.0
 10
210.9167241989791
 20
451.4220302559329
 30
0.0
  0
SPLINE
  5
1AB
330
1F
100
AcDbEntity
  8
0
  6
Continuous
 62
     8
370
    18
100
AcDbSpline
210
0.0
220
0.0
230
1.0
 70
     8
 71
     3
 72
    38
 73
    34
 74
     0
 42
0.000000001
 43
0.00000001
 40
0.0
 40
0.0
 40
0.0
 40
0.0
 40
0.0271077739571662
 40
0.0545551448158496
 40
0.0823425999931568
 40
0.1104706092091365
 40
0.1389396253095148
 40
0.1677500850425176
 40
0.196902409792703
 40
0.2263970062745709
 40
0.2562342671884608
 40
0.2864145718411239
 40
0.3169382867331532
 40
0.3478057661153179
 40
0.3790173525157136
 40
0.4105733772394895
 40
0.4424741608428097
 40
0.474720013582591
 40
0.5073112358434505
 40
0.540248118543201
 40
0.5735309435181523
 40
0.6071599838893831
 40
0.6411355044110785
 40
0.6754577618019546
 40
0.7101270050607277
 40
0.7451434757665195
 40
0.7805074083650434
 40
0.81621903044135
 40
0.8522785629798755
 40
0.8886862206124732
 40
0.9254422118550931
 40
0.9625467393336976
 40
1.0
 40
1.0
 40
1.0
 40
1.0
 10
210.9163242069747
 20
451.4191170473357
 30
0.0
 10
210.898348502608
 20
451.2892026139637
 30
0.0
 10
210.8621719004112
 20
451.0277462237237
 30
0.0
 10
210.8051210417462
 20
450.6280738028591
 30
0.0
 10
210.7456153754339
 20
450.2198678672064
 30
0.0
 10
210.6834723789842
 20
449.8027765371629
 30
0.0
 10
210.6187418564305
 20
449.3769393268761
 30
0.0
 10
210.5514102081385
 20
448.9423772959423
 30
0.0
 10
210.4814811347921
 20
448.4991600722335
 30
0.0
 10
210.4089536178071
 20
448.0473608769218
 30
0.0
 10
210.3338279260728
 20
447.5870693874937
 30
0.0
 10
210.2561039776696
 20
447.118388820482
 30
0.0
 10
210.1757817866028
 20
446.6414373133028
 30
0.0
 10
210.0928613409978
 20
446.1563481277178
 30
0.0
 10
210.0073426362958
 20
445.663270166906
 30
0.0
 10
209.9192256661988
 20
445.1623683977875
 30
0.0
 10
209.8285104251287
 20
444.653824288213
 30
0.0
 10
209.735196907552
 20
444.1378362273798
 30
0.0
 10
209.6392851081498
 20
443.6146199362815
 30
0.0
 10
209.5407750217853
 20
443.0844088643406
 30
0.0
 10
209.4396666434273
 20
442.5474545716382
 30
0.0
 10
209.3359599684578
 20
442.0040270935437
 30
0.0
 10
209.2296549914685
 20
441.454415291466
 30
0.0
 10
209.1207517107974
 20
440.8989271677041
 30
0.0
 10
209.009250111314
 20
440.3378902194864
 30
0.0
 10
208.8951502296132
 20
439.7716515391438
 30
0.0
 10
208.7784519070283
 20
439.2005787618395
 30
0.0
 10
208.6591557251078
 20
438.6250576797954
 30
0.0
 10
208.5372594628044
 20
438.0455023489911
 30
0.0
 10
208.4127715118202
 20
437.4623177482634
 30
0.0
 10
208.2856600840672
 20
436.8760419357573
 30
0.0
 10
208.1560454951726
 20
436.2868085093498
 30
0.0
 10
208.0680750084398
 20
435.895023849949
 30
0.0
 10
208.0238840305081
 20
435.6982152624266
 30
0.0
  0
SPLINE
  5
1AC
330
1F
100
AcDbEntity
  8
0
  6
Continuous
 62
     8
370
    18
100
AcDbSpline
210
0.0
220
0.0
230
1.0
 70
     8
 71
     3
 72
    11
 73
     7
 74
     0
 42
0.000000001
 43
0.00000001
 40
0.0
 40
0.0
 40
0.0
 40
0.0
 40
0.1202168855349698
 40
0.4207462386774835
 40
0.7212756285534492
 40
1.0
 40
1.0
 40
1.0
 40
1.0
 10
202.3882566328288
 20
435.6777788602778
 30
0.0
 10
202.4428273914539
 20
435.7358579982354
 30
0.0
 10
202.6338192087105
 20
435.9391287678326
 30
0.0
 10
203.845288294296
 20
436.068675978936
 30
0.0
 10
205.7811672600805
 20
436.0270626340649
 30
0.0
 10
207.2952889833372
 20
435.8050267327238
 30
0.0
 10
208.0238515819551
 20
435.6981878631779
 30
0.0
  0
SPLINE
  5
1AD
330
1F
100
AcDbEntity
  8
0
  6
Continuous
 62
     8
370
    18
100
AcDbSpline
210
0.0
220
0.0
230
1.0
 70
     8
 71
     3
 72
     9
 73
     5
 74
     0
 42
0.000000001
 43
0.00000001
 40
0.0
 40
0.0
 40
0.0
 40
0.0
 40
0.5442997347990511
 40
1.0
 40
1.0
 40
1.0
 40
1.0
 10
197.2476018901111
 20
466.8310228266784
 30
0.0
 10
196.3262393621865
 20
466.7657886371096
 30
0.0
 10
194.6334909204392
 20
466.6459388826485
 30
0.0
 10
192.7476403230652
 20
466.5826390104658
 30
0.0
 10
191.8882577057124
 20
466.5537932419249
 30
0.0
  0
SPLINE
  5
1AE
330
1F
100
AcDbEntity
  8
0
  6
Continuous
 62
     8
370
    18
100
AcDbSpline
210
0.0
220
0.0
230
1.0
 70
     8
 71
     3
 72
    13
 73
     9
 74
     0
 42
0.000000001
 43
0.00000001
 40
0.0
 40
0.0
 40
0.0
 40
0.0
 40
0.1526510190817057
 40
0.3110676494184127
 40
0.4702611505178221
 40
0.6309648376854781
 40
0.960768107284528
 40
1.0
 40
1.0
 40
1.0
 40
1.0
 10
208.0238515819551
 20
435.6981878631779
 30
0.0
 10
207.8765878958139
 20
435.1350663090669
 30
0.0
 10
207.5764983912158
 20
433.9875541651724
 30
0.0
 10
206.8905969240558
 20
432.3703554032239
 30
0.0
 10
206.054229163004
 20
430.8287717169686
 30
0.0
 10
204.7179026786887
 20
428.9191768204976
 30
0.0
 10
203.5060678920066
 20
427.4648385874903
 30
0.0
 10
202.4956712548414
 20
426.6911945280015
 30
0.0
 10
202.3882566328288
 20
426.6089489215084
 30
0.0
  0
SPLINE
  5
1AF
330
1F
100
AcDbEntity
  8
0
  6
Continuous
 62
     8
370
    18
100
AcDbSpline
210
0.0
220
0.0
230
1.0
 70
     8
 71
     3
 72
    12
 73
     8
 74
     0
 42
0.000000001
 43
0.00000001
 40
0.0
 40
0.0
 40
0.0
 40
0.0
 40
0.0359264788405077
 40
0.3652899203780869
 40
0.5296649067595798
 40
0.6870560305643347
 40
1.0
 40
1.0
 40
1.0
 40
1.0
 10
167.3882571823092
 20
426.6062294595906
 30
0.0
 10
167.2898526002955
 20
426.6813741184465
 30
0.0
 10
166.2893036155706
 20
427.4454230131954
 30
0.0
 10
165.0739147794685
 20
428.8958954852291
 30
0.0
 10
163.739474841903
 20
430.8092462789629
 30
0.0
 10
162.6034831486277
 20
432.8409711496892
 30
0.0
 10
162.0925913807296
 20
434.5566445354814
 30
0.0
 10
161.7526624660136
 20
435.6981915884682
 30
0.0
  0
SPLINE
  5
1B0
330
1F
100
AcDbEntity
  8
0
  6
Continuous
 62
     8
370
    18
100
AcDbSpline
210
0.0
220
0.0
230
1.0
 70
    11
 71
     3
 72
    88
 73
    84
 74
     0
 42
0.000000001
 43
0.00000001
 40
0.0
 40
0.0
 40
0.0
 40
0.0
 40
0.0312499999999998
 40
0.0312499999999998
 40
0.0468749999999997
 40
0.0468749999999997
 40
0.0624999999999996
 40
0.0624999999999996
 40
0.0937499999999995
 40
0.0937499999999995
 40
0.1093749999999992
 40
0.1093749999999992
 40
0.1249999999999988
 40
0.1249999999999988
 40
0.1562499999999985
 40
0.1562499999999985
 40
0.1874999999999981
 40
0.1874999999999981
 40
0.203124999999998
 40
0.203124999999998
 40
0.2187499999999978
 40
0.2187499999999978
 40
0.2499999999999975
 40
0.2499999999999975
 40
0.2812499999999972
 40
0.2812499999999972
 40
0.3124999999999968
 40
0.3124999999999968
 40
0.3437499999999962
 40
0.3437499999999962
 40
0.3593749999999961
 40
0.3593749999999961
 40
0.3749999999999958
 40
0.3749999999999958
 40
0.4062499999999957
 40
0.4062499999999957
 40
0.4374999999999956
 40
0.4374999999999956
 40
0.4687499999999954
 40
0.4687499999999954
 40
0.4843749999999954
 40
0.4843749999999954
 40
0.4999999999999953
 40
0.4999999999999953
 40
0.5312499999999956
 40
0.5312499999999956
 40
0.562499999999996
 40
0.562499999999996
 40
0.5937499999999963
 40
0.5937499999999963
 40
0.6249999999999967
 40
0.6249999999999967
 40
0.6562499999999971
 40
0.6562499999999971
 40
0.6718749999999971
 40
0.6718749999999971
 40
0.6874999999999971
 40
0.6874999999999971
 40
0.7187499999999973
 40
0.7187499999999973
 40
0.7499999999999974
 40
0.7499999999999974
 40
0.7812499999999976
 40
0.7812499999999976
 40
0.7968749999999979
 40
0.7968749999999979
 40
0.8124999999999981
 40
0.8124999999999981
 40
0.8281249999999983
 40
0.8281249999999983
 40
0.8437499999999986
 40
0.8437499999999986
 40
0.8749999999999987
 40
0.8749999999999987
 40
0.9062499999999989
 40
0.9062499999999989
 40
0.937499999999999
 40
0.937499999999999
 40
0.9531249999999991
 40
0.9531249999999991
 40
0.9687499999999993
 40
0.9687499999999993
 40
1.0
 40
1.0
 40
1.0
 40
1.0
 10
178.6839021105702
 20
495.1316714544618
 30
0.0
 10
178.6839021105702
 20
495.5493794261038
 30
0.0
 10
178.7212996045551
 20
495.9610145476283
 30
0.0
 10
178.8317407735355
 20
496.5696796404939
 30
0.0
 10
178.8776750584308
 20
496.7710939123287
 30
0.0
 10
178.9882621989384
 20
497.1709125199062
 30
0.0
 10
179.0530268967761
 20
497.3692625531476
 30
0.0
 10
179.2718956435116
 20
497.9482964550758
 30
0.0
 10
179.4513065513932
 20
498.3170673499026
 30
0.0
 10
179.7718187992644
 20
498.8442191154336
 30
0.0
 10
179.8879389858638
 20
499.0164075067024
 30
0.0
 10
180.1347670805012
 20
499.3469136023045
 30
0.0
 10
180.2652391386266
 20
499.5051266951928
 30
0.0
 10
180.6777522858534
 20
499.9589346234334
 30
0.0
 10
180.9806482210237
 20
500.2339324399111
 30
0.0
 10
181.6471741078717
 20
500.7251123317962
 30
0.0
 10
182.0019104083732
 20
500.9343080606813
 30
0.0
 10
182.5605446735737
 20
501.1900456497571
 30
0.0
 10
182.7515202076791
 20
501.2657735026934
 30
0.0
 10
183.143450266492
 20
501.3974082862521
 30
0.0
 10
183.3455900597496
 20
501.4534754976659
 30
0.0
 10
183.9526299251691
 20
501.5868871964396
 30
0.0
 10
184.3615324372634
 20
501.6314540335882
 30
0.0
 10
185.187780292261
 20
501.6318873044154
 30
0.0
 10
185.6074686033976
 20
501.5860013017764
 30
0.0
 10
186.4117570199042
 20
501.4089029810515
 30
0.0
 10
186.8019101208013
 20
501.2782561725862
 30
0.0
 10
187.5582950655259
 20
500.9321382998869
 30
0.0
 10
187.9118750643151
 20
500.722346781664
 30
0.0
 10
188.4060680364298
 20
500.3581721010708
 30
0.0
 10
188.5648757548258
 20
500.2283852012798
 30
0.0
 10
188.8706763498054
 20
499.9519091844397
 30
0.0
 10
189.0176082967831
 20
499.8050751383558
 30
0.0
 10
189.4316582000824
 20
499.348917491628
 30
0.0
 10
189.6757557793178
 20
499.0211552501084
 30
0.0
 10
190.102750458392
 20
498.3193659965027
 30
0.0
 10
190.2855311801345
 20
497.9433105312488
 30
0.0
 10
190.5757095155331
 20
497.1743568694574
 30
0.0
 10
190.6855678087051
 20
496.7780730348233
 30
0.0
 10
190.7969833832526
 20
496.1655455187483
 30
0.0
 10
190.8250849754837
 20
495.9580676182016
 30
0.0
 10
190.8622006857267
 20
495.5447137701706
 30
0.0
 10
190.8714247492068
 20
495.3378870269224
 30
0.0
 10
190.8713567084172
 20
494.7169610548837
 30
0.0
 10
190.8336337382689
 20
494.2986171210756
 30
0.0
 10
190.6853366651228
 20
493.4846746962666
 30
0.0
 10
190.5756025046712
 20
493.0883705794799
 30
0.0
 10
190.2842780440773
 20
492.3170450907768
 30
0.0
 10
190.1012902570868
 20
491.9413279752326
 30
0.0
 10
189.6750548877773
 20
491.2412859870657
 30
0.0
 10
189.4306567391575
 20
490.9129194157941
 30
0.0
 10
188.874985473009
 20
490.3015473760619
 30
0.0
 10
188.5692831716576
 20
490.0253298277998
 30
0.0
 10
188.0756856661752
 20
489.6617674879676
 30
0.0
 10
187.9049123099052
 20
489.5487038659243
 30
0.0
 10
187.5503012112171
 20
489.3394391210425
 30
0.0
 10
187.3652602283971
 20
489.242751779482
 30
0.0
 10
186.8011528920742
 20
488.9849851895535
 30
0.0
 10
186.41209099148
 20
488.8545243294191
 30
0.0
 10
185.6074243681131
 20
488.6773210072849
 30
0.0
 10
185.1873797999919
 20
488.6314663609541
 30
0.0
 10
184.3622249471886
 20
488.6318779694917
 30
0.0
 10
183.9527548669008
 20
488.6763146758114
 30
0.0
 10
183.3432730540429
 20
488.8104337338547
 30
0.0
 10
183.1418961496616
 20
488.8664121341105
 30
0.0
 10
182.7508136367751
 20
488.997851433765
 30
0.0
 10
182.5598723396652
 20
489.0735647211748
 30
0.0
 10
182.1868722574372
 20
489.2444015625397
 30
0.0
 10
182.0048141605761
 20
489.3395264006384
 30
0.0
 10
181.649537993668
 20
489.5492320198012
 30
0.0
 10
181.4757706445343
 20
489.6643482927679
 30
0.0
 10
180.9789003878934
 20
490.0310928932285
 30
0.0
 10
180.6762562316698
 20
490.3057420983465
 30
0.0
 10
180.1248553391194
 20
490.9129676747513
 30
0.0
 10
179.875758730886
 20
491.2477319679493
 30
0.0
 10
179.4503829890482
 20
491.9482386371724
 30
0.0
 10
179.2709984111334
 20
492.3168574774523
 30
0.0
 10
179.0517470902618
 20
492.8977508554289
 30
0.0
 10
178.9870856082508
 20
493.0963151210476
 30
0.0
 10
178.877104374001
 20
493.4946872986791
 30
0.0
 10
178.8313663818179
 20
493.6954973843025
 30
0.0
 10
178.72131234106
 20
494.3027189490472
 30
0.0
 10
178.6839021105702
 20
494.7139634828197
 30
0.0
 10
178.6839021105702
 20
495.1316714544618
 30
0.0
  0
CIRCLE
  5
1B1
330
1F
100
AcDbEntity
  8
0
  6
Continuous
 62
     8
370
    18
100
AcDbCircle
 10
184.7776521106
 20
483.9316714545
 30
0.0
 40
3.781418633081842
  0
LINE
  5
1B2
330
1F
100
AcDbEntity
  8
0
  6
Continuous
 62
     8
370
    18
100
AcDbLine
 10
207.2776535834
 20
504.0916697585
 30
0.0
 11
162.2776517953
 21
504.0916697585
 31
0.0
  0
LINE
  5
1B3
330
1F
100
AcDbEntity
  8
0
  6
Continuous
 62
     8
370
    18
100
AcDbLine
 10
85.8882533695
 20
463.0316718944
 30
0.0
 11
85.8882533695
 21
418.0316710376
 31
0.0
  0
LINE
  5
1B4
330
1F
100
AcDbEntity
  8
0
  6
Continuous
 62
     8
370
    18
100
AcDbLine
 10
283.8882597472
 20
418.0316710376
 30
0.0
 11
283.8882597472
 21
463.0316718944
 31
0.0
  0
SPLINE
  5
1B5
330
1F
100
AcDbEntity
  8
0
  6
Continuous
 62
     8
370
    18
100
AcDbSpline
210
0.0
220
0.0
230
1.0
 70
    24
 71
     3
 72
    14
 73
    10
 74
     0
 42
0.000000001
 43
0.00000001
 40
0.0
 40
0.0
 40
0.0
 40
0.0
 40
0.0542224827554207
 40
0.2119203395161819
 40
0.3696182161470574
 40
0.5273160906675224
 40
0.6850139441923762
 40
0.8427118249387063
 40
1.0
 40
1.0
 40
1.0
 40
1.0
 10
177.8882568079175
 20
470.5316712611386
 30
0.0
 10
177.411498823542
 20
470.5316712611386
 30
0.0
 10
175.5481626430198
 20
470.5316712611386
 30
0.0
 10
172.5976698277349
 20
470.5316712611386
 30
0.0
 10
169.2294320388631
 20
470.5316712611386
 30
0.0
 10
166.4760491196617
 20
470.5316712611386
 30
0.0
 10
164.4419246507236
 20
470.5316712611386
 30
0.0
 10
163.134828919879
 20
470.5316712611386
 30
0.0
 10
162.9711090813663
 20
470.5316712611386
 30
0.0
 10
162.8893556381704
 20
470.5316712611386
 30
0.0
  0
SPLINE
  5
1B6
330
1F
100
AcDbEntity
  8
0
  6
Continuous
 62
     8
370
    18
100
AcDbSpline
210
0.0
220
0.0
230
1.0
 70
    24
 71
     3
 72
    15
 73
    11
 74
     0
 42
0.000000001
 43
0.00000001
 40
0.0
 40
0.0
 40
0.0
 40
0.0
 40
0.0000096653040645
 40
0.1576414283591777
 40
0.3152731919977562
 40
0.472904999410371
 40
0.6305367122621185
 40
0.7881685162112871
 40
0.9458002294179717
 40
1.0
 40
1.0
 40
1.0
 40
1.0
 10
206.8882303620817
 20
470.5316712611386
 30
0.0
 10
206.8882390549111
 20
470.5316712611386
 30
0.0
 10
207.0300193906182
 20
470.5316712611563
 30
0.0
 10
206.5387773240701
 20
470.5316712611304
 30
0.0
 10
205.3624698398016
 20
470.5316712611408
 30
0.0
 10
203.2929910662831
 20
470.5316712611381
 30
0.0
 10
200.5490891262237
 20
470.5316712611387
 30
0.0
 10
197.1782909538031
 20
470.5316712611385
 30
0.0
 10
194.22839172691
 20
470.5316712611386
 30
0.0
 10
192.3650239690604
 20
470.5316712611386
 30
0.0
 10
191.8882577057124
 20
470.5316712611386
 30
0.0
  0
LINE
  5
1B7
330
1F
100
AcDbEntity
  8
0
  6
Continuous
 62
     8
370
    18
100
AcDbLine
 10
206.8882564391
 20
468.0316717827
 30
0.0
 11
191.8882577057
 21
468.0316717827
 31
0.0
  0
LINE
  5
1B8
330
1F
100
AcDbEntity
  8
0
  6
Continuous
 62
     8
370
    18
100
AcDbLine
 10
177.8882568079
 20
468.0316717827
 30
0.0
 11
162.8900094266
 21
468.0316717827
 31
0.0
  0
ARC
  5
1B9
330
1F
100
AcDbEntity
  8
0
  6
Continuous
 62
     8
370
    18
100
AcDbCircle
 10
259.8882570356
 20
440.5316714538
 30
0.0
 40
34.19999999999998
100
AcDbArc
 50
221.1395104134
 51
138.8604895836
  0
ARC
  5
1BA
330
1F
100
AcDbEntity
  8
0
  6
Continuous
 62
     8
370
    18
100
AcDbCircle
 10
109.8882570356
 20
440.5316714545
 30
0.0
 40
34.20000000000002
100
AcDbArc
 50
180.0
 51
318.8604895851
  0
ARC
  5
1BB
330
1F
100
AcDbEntity
  8
0
  6
Continuous
 62
     8
370
    18
100
AcDbCircle
 10
109.8882570356
 20
440.5316714545
 30
0.0
 40
34.2
100
AcDbArc
 50
41.1395104149
 51
180.0
  0
SPLINE
  5
1BC
330
1F
100
AcDbEntity
  8
0
  6
Continuous
 62
     7
370
    25
100
AcDbSpline
210
0.0
220
0.0
230
1.0
 70
     8
 71
     3
 72
    12
 73
     8
 74
     0
 42
0.000000001
 43
0.00000001
 40
0.0
 40
0.0
 40
0.0
 40
0.0
 40
0.004059900141728
 40
0.2609989080534209
 40
0.5675589830986948
 40
0.913359430916597
 40
1.0
 40
1.0
 40
1.0
 40
1.0
 10
178.9751530933322
 20
204.9675527189004
 30
0.0
 10
178.9771592630851
 20
204.9666550402463
 30
0.0
 10
179.106129951182
 20
204.9089459488114
 30
0.0
 10
179.3545693450974
 20
204.7133589727201
 30
0.0
 10
179.6446075193825
 20
204.3169326109595
 30
0.0
 10
179.7926332733635
 20
203.9197388688145
 30
0.0
 10
179.7644363243961
 20
203.6864579381698
 30
0.0
 10
179.7587869997264
 20
203.6397195581424
 30
0.0
  0
SPLINE
  5
1BD
330
1F
100
AcDbEntity
  8
0
  6
Continuous
 62
     7
370
    25
100
AcDbSpline
210
0.0
220
0.0
230
1.0
 70
     8
 71
     3
 72
    12
 73
     8
 74
     0
 42
0.000000001
 43
0.00000001
 40
0.0
 40
0.0
 40
0.0
 40
0.0
 40
0.2678762228328143
 40
0.5168208507573929
 40
0.727256604818952
 40
0.9024989836519001
 40
1.0
 40
1.0
 40
1.0
 40
1.0
 10
189.7861173684837
 20
203.6165631536471
 30
0.0
 10
189.7920946245622
 20
203.759781817172
 30
0.0
 10
189.8036267065778
 20
204.0360974630494
 30
0.0
 10
189.9653803375096
 20
204.3956249721361
 30
0.0
 10
190.1692121635746
 20
204.6650983210609
 30
0.0
 10
190.3615794534296
 20
204.838599413293
 30
0.0
 10
190.486875876267
 20
204.911438044768
 30
0.0
 10
190.5316671664955
 20
204.9374765876757
 30
0.0
  0
LINE
  5
1BE
330
1F
100
AcDbEntity
  8
0
  6
Continuous
 62
     7
370
    25
100
AcDbLine
 10
179.7776518698
 20
203.6400641475
 30
0.0
 11
179.7776518698
 21
142.2430946652
 31
0.0
  0
LINE
  5
1BF
330
1F
100
AcDbEntity
  8
0
  6
Continuous
 62
     7
370
    25
100
AcDbLine
 10
189.7776516463
 20
142.2430946652
 30
0.0
 11
189.7776516463
 21
203.6226316515
 31
0.0
  0
ARC
  5
1C0
330
1F
100
AcDbEntity
  8
0
  6
Continuous
 62
     7
370
    25
100
AcDbCircle
 10
189.2776521106
 20
142.24309349
 30
0.0
 40
0.5
100
AcDbArc
 50
270.0
 51
0.0
  0
ARC
  5
1C1
330
1F
100
AcDbEntity
  8
0
  6
Continuous
 62
     7
370
    25
100
AcDbCircle
 10
180.2776521106
 20
142.24309349
 30
0.0
 40
0.5
100
AcDbArc
 50
180.0
 51
270.0
  0
LINE
  5
1C2
330
1F
100
AcDbEntity
  8
0
  6
Continuous
 62
     7
370
    25
100
AcDbLine
 10
167.375962793
 20
198.4585448328
 30
0.0
 11
167.3624651349
 21
198.2466931615
 31
0.0
  0
SPLINE
  5
1C3
330
1F
100
AcDbEntity
  8
0
  6
Continuous
 62
     7
370
    25
100
AcDbSpline
210
0.0
220
0.0
230
1.0
 70
     8
 71
     3
 72
    23
 73
    19
 74
     0
 42
0.000000001
 43
0.00000001
 40
0.0
 40
0.0
 40
0.0
 40
0.0
 40
0.0847097608573558
 40
0.1991843802115182
 40
0.2949582175244271
 40
0.4403871230784737
 40
0.5232512256387136
 40
0.5337709307745614
 40
0.5375290406941351
 40
0.5392245502712333
 40
0.540941874575733
 40
0.5447334474516129
 40
0.5493970710435673
 40
0.5622188555496068
 40
0.667593352073258
 40
0.860509590038056
 40
0.9914203684045108
 40
1.0
 40
1.0
 40
1.0
 40
1.0
 10
161.2464737455489
 20
204.3535373333918
 30
0.0
 10
161.5625016263839
 20
204.3488928832677
 30
0.0
 10
162.3056015588662
 20
204.337972041206
 30
0.0
 10
163.303493161662
 20
203.9876261004269
 30
0.0
 10
164.362632722934
 20
203.4362407840231
 30
0.0
 10
165.1834287101834
 20
202.8015433782771
 30
0.0
 10
165.7018246072072
 20
202.3004690690199
 30
0.0
 10
165.8923566653545
 20
202.1040230975448
 30
0.0
 10
165.918654266772
 20
202.0773628515668
 30
0.0
 10
165.933706095841
 20
202.0615625306362
 30
0.0
 10
165.9507538425787
 20
202.0432318752884
 30
0.0
 10
165.9766112458053
 20
202.0145667001659
 30
0.0
 10
166.0276839606769
 20
201.9559392024491
 30
0.0
 10
166.2849994154786
 20
201.6437497319683
 30
0.0
 10
166.7329713333936
 20
200.9718465788831
 30
0.0
 10
167.1597491899721
 20
199.8871972771014
 30
0.0
 10
167.4106549015748
 20
198.9576754383262
 30
0.0
 10
167.3779729599989
 20
198.4874659884581
 30
0.0
 10
167.3759627930017
 20
198.4585448328482
 30
0.0
  0
SPLINE
  5
1C4
330
1F
100
AcDbEntity
  8
0
  6
Continuous
 62
     7
370
    25
100
AcDbSpline
210
0.0
220
0.0
230
1.0
 70
     8
 71
     3
 72
    21
 73
    17
 74
     0
 42
0.000000001
 43
0.00000001
 40
0.0
 40
0.0
 40
0.0
 40
0.0
 40
0.0279348010103257
 40
0.156292680472055
 40
0.3454467474323744
 40
0.4487663475162986
 40
0.4613380206819193
 40
0.4659108036261875
 40
0.4696284908453265
 40
0.4713121706180132
 40
0.4869502182143116
 40
0.568198417061535
 40
0.710791197360307
 40
0.8046973936132076
 40
0.9169396181780223
 40
0.9999999999999999
 40
0.9999999999999999
 40
0.9999999999999999
 40
0.9999999999999999
 10
202.4133352871181
 20
198.2578969720828
 30
0.0
 10
202.4055832157884
 20
198.3545608307477
 30
0.0
 10
202.3622110791162
 20
198.8953863612367
 30
0.0
 10
202.6097380633249
 20
199.8912496154458
 30
0.0
 10
203.0448161782333
 20
200.9712449546149
 30
0.0
 10
203.4914044224234
 20
201.6436421684523
 30
0.0
 10
203.7488551788143
 20
201.9559750307101
 30
0.0
 10
203.7998711507573
 20
202.0145260760286
 30
0.0
 10
203.8258352013826
 20
202.0433270928825
 30
0.0
 10
203.8760437097669
 20
202.0971949846906
 30
0.0
 10
204.0412565622146
 20
202.262958423208
 30
0.0
 10
204.6092265155027
 20
202.8210156215734
 30
0.0
 10
205.4105559808576
 20
203.4322291530282
 30
0.0
 10
206.4739197811932
 20
203.9887095907168
 30
0.0
 10
207.4707527593498
 20
204.3377693440165
 30
0.0
 10
208.2139817348582
 20
204.3488336497338
 30
0.0
 10
208.5300701047422
 20
204.353539196037
 30
0.0
  0
LINE
  5
1C5
330
1F
100
AcDbEntity
  8
0
  6
Continuous
 62
     7
370
    25
100
AcDbLine
 10
74.8882534291
 20
290.5536963765
 30
0.0
 11
74.8882534291
 21
278.3536984745
 31
0.0
  0
LINE
  5
1C6
330
1F
100
AcDbEntity
  8
0
  6
Continuous
 62
     7
370
    25
100
AcDbLine
 10
144.8882574524
 20
278.3536984745
 30
0.0
 11
144.8882574524
 21
290.5536963765
 31
0.0
  0
ARC
  5
1C7
330
1F
100
AcDbEntity
  8
0
  6
Continuous
 62
     7
370
    25
100
AcDbCircle
 10
144.0882570356
 20
278.3536983928
 30
0.0
 40
0.8000000000000114
100
AcDbArc
 50
270.0
 51
0.0
  0
ARC
  5
1C8
330
1F
100
AcDbEntity
  8
0
  6
Continuous
 62
     7
370
    25
100
AcDbCircle
 10
75.6882570356
 20
278.3536983928
 30
0.0
 40
0.8000000000000114
100
AcDbArc
 50
180.0
 51
270.0
  0
LINE
  5
1C9
330
1F
100
AcDbEntity
  8
0
  6
Continuous
 62
     7
370
    25
100
AcDbLine
 10
224.8882556643
 20
290.5536963765
 30
0.0
 11
224.8882556643
 21
278.3536984745
 31
0.0
  0
LINE
  5
1CA
330
1F
100
AcDbEntity
  8
0
  6
Continuous
 62
     7
370
    25
100
AcDbLine
 10
294.8882596876
 20
278.3536984745
 30
0.0
 11
294.8882596876
 21
290.5536963765
 31
0.0
  0
ARC
  5
1CB
330
1F
100
AcDbEntity
  8
0
  6
Continuous
 62
     7
370
    25
100
AcDbCircle
 10
294.0882570356
 20
278.3536983928
 30
0.0
 40
0.8000000000000114
100
AcDbArc
 50
270.0
 51
0.0
  0
ARC
  5
1CC
330
1F
100
AcDbEntity
  8
0
  6
Continuous
 62
     7
370
    25
100
AcDbCircle
 10
225.6882570356
 20
278.3536983928
 30
0.0
 40
0.8000000000000114
100
AcDbArc
 50
180.0
 51
270.0
  0
LINE
  5
1CD
330
1F
100
AcDbEntity
  8
0
  6
Continuous
 62
     7
370
    25
100
AcDbLine
 10
209.0441787924
 20
204.3536975209
 30
0.0
 11
283.8882597472
 21
204.3536975209
 31
0.0
  0
LINE
  5
1CE
330
1F
100
AcDbEntity
  8
0
  6
Continuous
 62
     7
370
    25
100
AcDbLine
 10
85.8882533695
 20
204.3536975209
 30
0.0
 11
160.7323455001
 21
204.3536975209
 31
0.0
  0
LINE
  5
1CF
330
1F
100
AcDbEntity
  8
0
  6
Continuous
 62
     7
370
    25
100
AcDbLine
 10
88.606158116
 20
249.353699309
 30
0.0
 11
85.8882533695
 21
249.353699309
 31
0.0
  0
LINE
  5
1D0
330
1F
100
AcDbEntity
  8
0
  6
Continuous
 62
     7
370
    25
100
AcDbLine
 10
238.6061640765
 20
249.353699309
 30
0.0
 11
131.1703527655
 21
249.353699309
 31
0.0
  0
LINE
  5
1D1
330
1F
100
AcDbEntity
  8
0
  6
Continuous
 62
     7
370
    25
100
AcDbLine
 10
283.8882597472
 20
249.353699309
 30
0.0
 11
281.1703550006
 21
249.353699309
 31
0.0
  0
SPLINE
  5
1D2
330
1F
100
AcDbEntity
  8
0
  6
Continuous
 62
     7
370
    25
100
AcDbSpline
210
0.0
220
0.0
230
1.0
 70
     8
 71
     3
 72
    11
 73
     7
 74
     0
 42
0.000000001
 43
0.00000001
 40
0.0
 40
0.0
 40
0.0
 40
0.0
 40
0.2837645197900915
 40
0.5578329931624425
 40
0.8010316195930998
 40
1.0
 40
1.0
 40
1.0
 40
1.0
 10
284.8823087598325
 20
217.5357201296913
 30
0.0
 10
284.8676825248035
 20
218.5544047796049
 30
0.0
 10
284.8389298235462
 20
220.556966297057
 30
0.0
 10
284.6163130352265
 20
223.7448883942349
 30
0.0
 10
284.3645575300727
 20
226.6826236801031
 30
0.0
 10
284.2498245383386
 20
228.5050098866489
 30
0.0
 10
284.1981964494229
 20
229.3250557661133
 30
0.0
  0
SPLINE
  5
1D3
330
1F
100
AcDbEntity
  8
0
  6
Continuous
 62
     7
370
    25
100
AcDbSpline
210
0.0
220
0.0
230
1.0
 70
     8
 71
     3
 72
    10
 73
     6
 74
     0
 42
0.000000001
 43
0.00000001
 40
0.0
 40
0.0
 40
0.0
 40
0.0
 40
0.4814507834105993
 40
0.9499502778229048
 40
1.0
 40
1.0
 40
1.0
 40
1.0
 10
283.8882597471715
 20
204.3536975208747
 30
0.0
 10
284.1583257307838
 20
204.4524280113121
 30
0.0
 10
284.6911927755638
 20
204.6472330880765
 30
0.0
 10
284.889359633106
 20
205.5250888980562
 30
0.0
 10
284.8867412578536
 20
205.9688376916722
 30
0.0
 10
284.8864885355474
 20
206.0116677705275
 30
0.0
  0
SPLINE
  5
1D4
330
1F
100
AcDbEntity
  8
0
  6
Continuous
 62
     7
370
    25
100
AcDbSpline
210
0.0
220
0.0
230
1.0
 70
     8
 71
     3
 72
    11
 73
     7
 74
     0
 42
0.000000001
 43
0.00000001
 40
0.0
 40
0.0
 40
0.0
 40
0.0
 40
0.2796943018546599
 40
0.5498316339529656
 40
0.7895419052788247
 40
1.0
 40
1.0
 40
1.0
 40
1.0
 10
84.89420435681355
 20
236.1716767001974
 30
0.0
 10
84.90881876258362
 20
235.1529895050817
 30
0.0
 10
84.9375482095209
 20
233.1504229841934
 30
0.0
 10
85.16032853740644
 20
229.9625360744472
 30
0.0
 10
85.41667019881564
 20
226.9649984437484
 30
0.0
 10
85.53495377409092
 20
225.0825854166815
 30
0.0
 10
85.59025249733936
 20
224.2025389961975
 30
0.0
  0
SPLINE
  5
1D5
330
1F
100
AcDbEntity
  8
0
  6
Continuous
 62
     7
370
    25
100
AcDbSpline
210
0.0
220
0.0
230
1.0
 70
     8
 71
     3
 72
    10
 73
     6
 74
     0
 42
0.000000001
 43
0.00000001
 40
0.0
 40
0.0
 40
0.0
 40
0.0
 40
0.4814507834105993
 40
0.9499502778229048
 40
1.0
 40
1.0
 40
1.0
 40
1.0
 10
85.88825336947453
 20
249.353699309014
 30
0.0
 10
85.61818738586223
 20
249.2549688185766
 30
0.0
 10
85.08532034108222
 20
249.0601637418122
 30
0.0
 10
84.88715348354009
 20
248.1823079318325
 30
0.0
 10
84.88977185879239
 20
247.7385591382165
 30
0.0
 10
84.89002458109866
 20
247.6957290593612
 30
0.0
  0
ARC
  5
1D6
330
1F
100
AcDbEntity
  8
0
  6
Continuous
 62
     7
370
    25
100
AcDbCircle
 10
126.6882570356
 20
276.7536983928
 30
0.0
 40
0.8000000000000682
100
AcDbArc
 50
90.0
 51
180.0
  0
ARC
  5
1D7
330
1F
100
AcDbEntity
  8
0
  6
Continuous
 62
     7
370
    25
100
AcDbCircle
 10
93.0882570356
 20
276.7536983928
 30
0.0
 40
0.8000000000000682
100
AcDbArc
 50
0.0
 51
90.0
  0
ARC
  5
1D8
330
1F
100
AcDbEntity
  8
0
  6
Continuous
 62
     7
370
    25
100
AcDbCircle
 10
276.6882570356
 20
276.7536983928
 30
0.0
 40
0.8000000000000114
100
AcDbArc
 50
90.0
 51
180.0
  0
ARC
  5
1D9
330
1F
100
AcDbEntity
  8
0
  6
Continuous
 62
     7
370
    25
100
AcDbCircle
 10
243.0882570356
 20
276.7536983928
 30
0.0
 40
0.8000000000000114
100
AcDbArc
 50
0.0
 51
90.0
  0
LINE
  5
1DA
330
1F
100
AcDbEntity
  8
0
  6
Continuous
 62
     7
370
    25
100
AcDbLine
 10
93.8882546808
 20
276.7536974672
 30
0.0
 11
93.8882546808
 21
265.3536982063
 31
0.0
  0
LINE
  5
1DB
330
1F
100
AcDbEntity
  8
0
  6
Continuous
 62
     7
370
    25
100
AcDbLine
 10
125.8882562007
 20
265.3536982063
 30
0.0
 11
125.8882562007
 21
276.7536974672
 31
0.0
  0
ARC
  5
1DC
330
1F
100
AcDbEntity
  8
0
  6
Continuous
 62
     7
370
    25
100
AcDbCircle
 10
125.0882570356
 20
265.3536983928
 30
0.0
 40
0.8000000000000682
100
AcDbArc
 50
270.0
 51
0.0
  0
ARC
  5
1DD
330
1F
100
AcDbEntity
  8
0
  6
Continuous
 62
     7
370
    25
100
AcDbCircle
 10
94.6882570356
 20
265.3536983928
 30
0.0
 40
0.8000000000000682
100
AcDbArc
 50
180.0
 51
270.0
  0
LINE
  5
1DE
330
1F
100
AcDbEntity
  8
0
  6
Continuous
 62
     7
370
    25
100
AcDbLine
 10
243.8882606412
 20
276.7536974672
 30
0.0
 11
243.8882606412
 21
265.3536982063
 31
0.0
  0
LINE
  5
1DF
330
1F
100
AcDbEntity
  8
0
  6
Continuous
 62
     7
370
    25
100
AcDbLine
 10
275.8882584359
 20
265.3536982063
 30
0.0
 11
275.8882584359
 21
276.7536974672
 31
0.0
  0
ARC
  5
1E0
330
1F
100
AcDbEntity
  8
0
  6
Continuous
 62
     7
370
    25
100
AcDbCircle
 10
275.0882570356
 20
265.3536983928
 30
0.0
 40
0.8000000000000682
100
AcDbArc
 50
270.0
 51
0.0
  0
ARC
  5
1E1
330
1F
100
AcDbEntity
  8
0
  6
Continuous
 62
     7
370
    25
100
AcDbCircle
 10
244.6882570356
 20
265.3536983928
 30
0.0
 40
0.8000000000000114
100
AcDbArc
 50
180.0
 51
270.0
  0
LINE
  5
1E2
330
1F
100
AcDbEntity
  8
0
  6
Continuous
 62
     7
370
    25
100
AcDbLine
 10
167.3882571823
 20
198.1504279349
 30
0.0
 11
167.3882571823
 21
165.4727234665
 31
0.0
  0
LINE
  5
1E3
330
1F
100
AcDbEntity
  8
0
  6
Continuous
 62
     7
370
    25
100
AcDbLine
 10
202.3882566328
 20
165.4727234665
 30
0.0
 11
202.3882566328
 21
198.1583050612
 31
0.0
  0
LINE
  5
1E4
330
1F
100
AcDbEntity
  8
0
  6
Continuous
 62
     7
370
    25
100
AcDbLine
 10
167.3882571823
 20
165.4727234665
 30
0.0
 11
167.3882571823
 21
121.877029461
 31
0.0
  0
LINE
  5
1E5
330
1F
100
AcDbEntity
  8
0
  6
Continuous
 62
     7
370
    25
100
AcDbLine
 10
202.3882566328
 20
121.904708368
 30
0.0
 11
202.3882566328
 21
165.4727234665
 31
0.0
  0
LINE
  5
1E6
330
1F
100
AcDbEntity
  8
0
  6
Continuous
 62
     7
370
    25
100
AcDbLine
 10
99.3882583763
 20
247.5536986414
 30
0.0
 11
99.3882583763
 21
246.5536984775
 31
0.0
  0
LINE
  5
1E7
330
1F
100
AcDbEntity
  8
0
  6
Continuous
 62
     7
370
    25
100
AcDbLine
 10
120.3882562305
 20
246.5536984775
 30
0.0
 11
120.3882562305
 21
247.5536986414
 31
0.0
  0
LINE
  5
1E8
330
1F
100
AcDbEntity
  8
0
  6
Continuous
 62
     7
370
    25
100
AcDbLine
 10
249.3882568861
 20
247.5536986414
 30
0.0
 11
249.3882568861
 21
246.5536984775
 31
0.0
  0
LINE
  5
1E9
330
1F
100
AcDbEntity
  8
0
  6
Continuous
 62
     7
370
    25
100
AcDbLine
 10
270.3882547404
 20
246.5536984775
 30
0.0
 11
270.3882547404
 21
247.5536986414
 31
0.0
  0
SPLINE
  5
1EA
330
1F
100
AcDbEntity
  8
0
  6
Continuous
 62
     7
370
    25
100
AcDbSpline
210
0.0
220
0.0
230
1.0
 70
     8
 71
     3
 72
    11
 73
     7
 74
     0
 42
0.000000001
 43
0.00000001
 40
0.0
 40
0.0
 40
0.0
 40
0.0
 40
0.2470580743684256
 40
0.5000698725871517
 40
0.7530443129162352
 40
0.9999999999999999
 40
0.9999999999999999
 40
0.9999999999999999
 40
0.9999999999999999
 10
90.1382508064748
 20
248.639276174091
 30
0.0
 10
90.03898068435589
 20
248.743689305289
 30
0.0
 10
89.83804818115149
 20
248.9550317653487
 30
0.0
 10
89.45734473378218
 20
249.1793189923113
 30
0.0
 10
89.04087416070564
 20
249.3267848037447
 30
0.0
 10
88.74989574955308
 20
249.3448013505579
 30
0.0
 10
88.60615811600697
 20
249.3537011716592
 30
0.0
  0
SPLINE
  5
1EB
330
1F
100
AcDbEntity
  8
0
  6
Continuous
 62
     7
370
    25
100
AcDbSpline
210
0.0
220
0.0
230
1.0
 70
     8
 71
     3
 72
    11
 73
     7
 74
     0
 42
0.000000001
 43
0.00000001
 40
0.0
 40
0.0
 40
0.0
 40
0.0
 40
0.2469519634599447
 40
0.4999269455903497
 40
0.7529429393950474
 40
1.0
 40
1.0
 40
1.0
 40
1.0
 10
131.1703527654649
 20
249.3537011716592
 30
0.0
 10
131.0266175775098
 20
249.3448012334698
 30
0.0
 10
130.7356415816866
 20
249.3267842926338
 30
0.0
 10
130.3191725168074
 20
249.1793168216598
 30
0.0
 10
129.938463844794
 20
248.9550352972703
 30
0.0
 10
129.7375323735905
 20
248.7436897417737
 30
0.0
 10
129.6382638002874
 20
248.639276174091
 30
0.0
  0
SPLINE
  5
1EC
330
1F
100
AcDbEntity
  8
0
  6
Continuous
 62
     7
370
    25
100
AcDbSpline
210
0.0
220
0.0
230
1.0
 70
     8
 71
     3
 72
    11
 73
     7
 74
     0
 42
0.000000001
 43
0.00000001
 40
0.0
 40
0.0
 40
0.0
 40
0.0
 40
0.2470591249936617
 40
0.5000719991560942
 40
0.7530475152700179
 40
1.0
 40
1.0
 40
1.0
 40
1.0
 10
240.1382493163587
 20
248.639276174091
 30
0.0
 10
240.0389791944519
 20
248.743689304549
 30
0.0
 10
239.8380466916767
 20
248.9550317631106
 30
0.0
 10
239.4573432410285
 20
249.1793190015149
 30
0.0
 10
239.0408750325475
 20
249.3267839367415
 30
0.0
 10
238.7498991891379
 20
249.3448011157957
 30
0.0
 10
238.6061640764715
 20
249.3537011716592
 30
0.0
  0
SPLINE
  5
1ED
330
1F
100
AcDbEntity
  8
0
  6
Continuous
 62
     7
370
    25
100
AcDbSpline
210
0.0
220
0.0
230
1.0
 70
     8
 71
     3
 72
    11
 73
     7
 74
     0
 42
0.000000001
 43
0.00000001
 40
0.0
 40
0.0
 40
0.0
 40
0.0
 40
0.2469514840458137
 40
0.4999300272018636
 40
0.7529418761226272
 40
1.0
 40
1.0
 40
1.0
 40
1.0
 10
281.1703550006391
 20
249.3537011716592
 30
0.0
 10
281.0266199840844
 20
249.3448008118044
 30
0.0
 10
280.7356419767494
 20
249.3267828713109
 30
0.0
 10
280.31917021674
 20
249.1793208692606
 30
0.0
 10
279.9384649876988
 20
248.9550316024158
 30
0.0
 10
279.7375324495529
 20
248.7436892514109
 30
0.0
 10
279.6382623101712
 20
248.639276174091
 30
0.0
  0
SPLINE
  5
1EE
330
1F
100
AcDbEntity
  8
0
  6
Continuous
 62
     7
370
    25
100
AcDbSpline
210
0.0
220
0.0
230
1.0
 70
     8
 71
     3
 72
    28
 73
    24
 74
     0
 42
0.000000001
 43
0.00000001
 40
0.0
 40
0.0
 40
0.0
 40
0.0
 40
0.0264831394742628
 40
0.1106614086030006
 40
0.1618828269914591
 40
0.2042325984283618
 40
0.2381681147844553
 40
0.2866223715406267
 40
0.3473443604853172
 40
0.4114419745836783
 40
0.4709973620547709
 40
0.5286238978538718
 40
0.5934667172244262
 40
0.6657535385259111
 40
0.7025080445585158
 40
0.7358030122001121
 40
0.7754169467788057
 40
0.8094646638012057
 40
0.8427345815427946
 40
0.8717292747582381
 40
0.9047221085746829
 40
0.9468737481108773
 40
1.0
 40
1.0
 40
1.0
 40
1.0
 10
167.6677270635159
 20
118.6083256427276
 30
0.0
 10
167.7019536810912
 20
118.1041701809249
 30
0.0
 10
167.8449716837821
 20
115.9975259285621
 30
0.0
 10
168.8024956736004
 20
113.0238424323791
 30
0.0
 10
170.2404557949594
 20
109.9596644525929
 30
0.0
 10
171.5751475230961
 20
107.9153080314915
 30
0.0
 10
173.0951621511705
 20
106.0735845022958
 30
0.0
 10
175.1058007882047
 20
104.1935119312488
 30
0.0
 10
177.9284442040769
 20
102.3839329904002
 30
0.0
 10
181.2990354651631
 20
101.1637579247816
 30
0.0
 10
184.8013452205267
 20
100.7554748758386
 30
0.0
 10
188.3199567272601
 20
101.1301675604677
 30
0.0
 10
191.8963590144954
 20
102.3755330923302
 30
0.0
 10
194.7196134769074
 20
104.2297917092251
 30
0.0
 10
196.6981503504312
 20
106.1123976623841
 30
0.0
 10
198.0512047752765
 20
107.7184990690576
 30
0.0
 10
199.1922082695472
 20
109.4162511733021
 30
0.0
 10
200.1474258536278
 20
111.2188293364874
 30
0.0
 10
200.8580992114379
 20
112.9104261912556
 30
0.0
 10
201.425835990759
 20
114.631638975858
 30
0.0
 10
201.8990602360261
 20
116.5517866330963
 30
0.0
 10
202.3001222961242
 20
118.9703642887446
 30
0.0
 10
202.3567215302933
 20
120.7898289350718
 30
0.0
 10
202.3882808472158
 20
121.8043490473258
 30
0.0
  0
LINE
  5
1EF
330
1F
100
AcDbEntity
  8
0
  6
Continuous
 62
     7
370
    25
100
AcDbLine
 10
167.3880264471
 20
121.8047662798
 30
0.0
 11
167.4616032588
 21
120.963923556
 31
0.0
  0
CIRCLE
  5
1F0
330
1F
100
AcDbEntity
  8
0
  6
Continuous
 62
     7
370
    25
100
AcDbCircle
 10
184.7776521106
 20
226.74309349
 30
0.0
 40
22.5
  0
LINE
  5
1F1
330
1F
100
AcDbEntity
  8
0
  6
Continuous
 62
     7
370
    25
100
AcDbLine
 10
189.2776524956
 20
141.7430936519
 30
0.0
 11
180.2776528831
 21
141.7430936519
 31
0.0
  0
SPLINE
  5
1F2
330
1F
100
AcDbEntity
  8
0
  6
Continuous
 62
     7
370
    25
100
AcDbSpline
210
0.0
220
0.0
230
1.0
 70
     8
 71
     3
 72
     9
 73
     5
 74
     0
 42
0.000000001
 43
0.00000001
 40
0.0
 40
0.0
 40
0.0
 40
0.0
 40
0.7809694440356125
 40
1.0
 40
1.0
 40
1.0
 40
1.0
 10
161.0452177311422
 20
204.4925335023629
 30
0.0
 10
160.9588949112459
 20
204.4171647548576
 30
0.0
 10
160.8483620081272
 20
204.3206581013888
 30
0.0
 10
160.7531908842993
 20
204.3713026016419
 30
0.0
 10
160.7323455001356
 20
204.3823952946889
 30
0.0
  0
SPLINE
  5
1F3
330
1F
100
AcDbEntity
  8
0
  6
Continuous
 62
     7
370
    25
100
AcDbSpline
210
0.0
220
0.0
230
1.0
 70
     8
 71
     3
 72
     9
 73
     5
 74
     0
 42
0.000000001
 43
0.00000001
 40
0.0
 40
0.0
 40
0.0
 40
0.0
 40
0.218363310329952
 40
1.0
 40
1.0
 40
1.0
 40
1.0
 10
209.0441787923814
 20
204.3823226515281
 30
0.0
 10
209.0233961574341
 20
204.3712629912267
 30
0.0
 10
208.9282215838488
 20
204.3206150124767
 30
0.0
 10
208.8176863383258
 20
204.4171515267332
 30
0.0
 10
208.7312879349233
 20
204.4926080081689
 30
0.0
  0
LINE
  5
1F4
330
1F
100
AcDbEntity
  8
0
  6
Continuous
 62
     7
370
    25
100
AcDbLine
 10
202.314484709
 20
198.1583050612
 30
0.0
 11
202.2938987549
 21
198.2479858372
 31
0.0
  0
LINE
  5
1F5
330
1F
100
AcDbEntity
  8
0
  6
Continuous
 62
     7
370
    25
100
AcDbLine
 10
188.7308152701
 20
204.5930939887
 30
0.0
 11
188.7776514824
 21
204.5930939887
 31
0.0
  0
LINE
  5
1F6
330
1F
100
AcDbEntity
  8
0
  6
Continuous
 62
     7
370
    25
100
AcDbLine
 10
74.8882534291
 20
290.5536963765
 30
0.0
 11
144.8882574524
 21
290.5536963765
 31
0.0
  0
LINE
  5
1F7
330
1F
100
AcDbEntity
  8
0
  6
Continuous
 62
     7
370
    25
100
AcDbLine
 10
144.0882569487
 20
277.5536998335
 30
0.0
 11
75.6882595207
 21
277.5536998335
 31
0.0
  0
LINE
  5
1F8
330
1F
100
AcDbEntity
  8
0
  6
Continuous
 62
     7
370
    25
100
AcDbLine
 10
224.8882556643
 20
290.5536963765
 30
0.0
 11
294.8882596876
 21
290.5536963765
 31
0.0
  0
LINE
  5
1F9
330
1F
100
AcDbEntity
  8
0
  6
Continuous
 62
     7
370
    25
100
AcDbLine
 10
294.088253596
 20
277.5536998335
 30
0.0
 11
225.6882580306
 21
277.5536998335
 31
0.0
  0
ARC
  5
1FA
330
1F
100
AcDbEntity
  8
0
  6
Continuous
 62
     7
370
    25
100
AcDbCircle
 10
184.8882570356
 20
176.8536984149
 30
0.0
 40
7.000000000000028
100
AcDbArc
 50
136.8936392563
 51
180.0
  0
ARC
  5
1FB
330
1F
100
AcDbEntity
  8
0
  6
Continuous
 62
     7
370
    25
100
AcDbCircle
 10
184.8882570356
 20
176.8536984149
 30
0.0
 40
7.000000000000019
100
AcDbArc
 50
314.3055822203
 51
45.6944177797
  0
ARC
  5
1FC
330
1F
100
AcDbEntity
  8
0
  6
Continuous
 62
     7
370
    25
100
AcDbCircle
 10
184.8882570356
 20
176.8536984149
 30
0.0
 40
7.000000000000028
100
AcDbArc
 50
180.0
 51
223.1063607437
  0
LINE
  5
1FD
330
1F
100
AcDbEntity
  8
0
  6
Continuous
 62
     7
370
    25
100
AcDbLine
 10
85.8882533695
 20
224.1943121582
 30
0.0
 11
85.8882533695
 21
204.3536975209
 31
0.0
  0
LINE
  5
1FE
330
1F
100
AcDbEntity
  8
0
  6
Continuous
 62
     7
370
    25
100
AcDbLine
 10
283.8882597472
 20
204.3536975209
 30
0.0
 11
283.8882597472
 21
204.3549138282
 31
0.0
  0
LINE
  5
1FF
330
1F
100
AcDbEntity
  8
0
  6
Continuous
 62
     7
370
    25
100
AcDbLine
 10
283.8882597472
 20
229.3296639502
 30
0.0
 11
283.8882597472
 21
249.353699309
 31
0.0
  0
SPLINE
  5
200
330
1F
100
AcDbEntity
  8
0
  6
Continuous
 62
     7
370
    25
100
AcDbSpline
210
0.0
220
0.0
230
1.0
 70
    24
 71
     3
 72
    16
 73
    12
 74
     0
 42
0.000000001
 43
0.00000001
 40
0.0
 40
0.0
 40
0.0
 40
0.0
 40
0.0010243837204783
 40
0.1405310382027124
 40
0.2769256199339948
 40
0.4093801911867608
 40
0.5372182109574759
 40
0.6599234758767085
 40
0.7771374769935641
 40
0.9941249095951801
 40
1.0
 40
1.0
 40
1.0
 40
1.0
 10
284.8882543231488
 20
206.0116621825921
 30
0.0
 10
284.8882543231488
 20
206.0128510956151
 30
0.0
 10
284.8882543231488
 20
206.1759532399785
 30
0.0
 10
284.8882543231488
 20
206.7820649364922
 30
0.0
 10
284.8882543231488
 20
207.8217242170955
 30
0.0
 10
284.8882543231488
 20
209.1260798093238
 30
0.0
 10
284.8882543231488
 20
210.6017009419784
 30
0.0
 10
284.8882543231488
 20
212.2079963363421
 30
0.0
 10
284.8882543231488
 20
214.4214742235248
 30
0.0
 10
284.8882543231488
 20
216.1978085062903
 30
0.0
 10
284.8882543231488
 20
217.5009604483673
 30
0.0
 10
284.8882543231488
 20
217.5353140730488
 30
0.0
  0
SPLINE
  5
201
330
1F
100
AcDbEntity
  8
0
  6
Continuous
 62
     7
370
    25
100
AcDbSpline
210
0.0
220
0.0
230
1.0
 70
    24
 71
     3
 72
    16
 73
    12
 74
     0
 42
0.000000001
 43
0.00000001
 40
0.0
 40
0.0
 40
0.0
 40
0.0
 40
0.0010243837204783
 40
0.1405310382027124
 40
0.2769256199339948
 40
0.4093801911867608
 40
0.5372182109574759
 40
0.6599234758767085
 40
0.7771374769935641
 40
0.9941249095951801
 40
1.0
 40
1.0
 40
1.0
 40
1.0
 10
84.8882587934972
 20
247.6957346472966
 30
0.0
 10
84.8882587934972
 20
247.6945457342736
 30
0.0
 10
84.88825879349659
 20
247.5314435899102
 30
0.0
 10
84.88825879349747
 20
246.9253318933964
 30
0.0
 10
84.88825879349713
 20
245.8856726127932
 30
0.0
 10
84.88825879349723
 20
244.5813170205649
 30
0.0
 10
84.8882587934972
 20
243.1056958879103
 30
0.0
 10
84.88825879349722
 20
241.4994004935466
 30
0.0
 10
84.88825879349716
 20
239.285922606364
 30
0.0
 10
84.88825879349733
 20
237.5095883235984
 30
0.0
 10
84.88825879349719
 20
236.2064363815214
 30
0.0
 10
84.8882587934972
 20
236.1720827568399
 30
0.0
  0
LINE
  5
202
330
1F
100
AcDbEntity
  8
0
  6
Continuous
 62
     7
370
    25
100
AcDbLine
 10
124.8882578994
 20
247.5536986414
 30
0.0
 11
124.8882578994
 21
264.5536995653
 31
0.0
  0
LINE
  5
203
330
1F
100
AcDbEntity
  8
0
  6
Continuous
 62
     7
370
    25
100
AcDbLine
 10
124.8882578994
 20
247.5536986414
 30
0.0
 11
94.8882567073
 21
247.5536986414
 31
0.0
  0
LINE
  5
204
330
1F
100
AcDbEntity
  8
0
  6
Continuous
 62
     7
370
    25
100
AcDbLine
 10
94.8882567073
 20
264.5536995653
 30
0.0
 11
94.8882567073
 21
247.5536986414
 31
0.0
  0
LINE
  5
205
330
1F
100
AcDbEntity
  8
0
  6
Continuous
 62
     7
370
    25
100
AcDbLine
 10
124.8882578994
 20
264.5536995653
 30
0.0
 11
94.8882567073
 21
264.5536995653
 31
0.0
  0
LINE
  5
206
330
1F
100
AcDbEntity
  8
0
  6
Continuous
 62
     7
370
    25
100
AcDbLine
 10
125.0882575597
 20
264.5536995653
 30
0.0
 11
124.8882578994
 21
264.5536995653
 31
0.0
  0
LINE
  5
207
330
1F
100
AcDbEntity
  8
0
  6
Continuous
 62
     7
370
    25
100
AcDbLine
 10
94.8882567073
 20
264.5536995653
 30
0.0
 11
94.6882533218
 21
264.5536995653
 31
0.0
  0
LINE
  5
208
330
1F
100
AcDbEntity
  8
0
  6
Continuous
 62
     7
370
    25
100
AcDbLine
 10
275.0882597949
 20
264.5536995653
 30
0.0
 11
274.8882564093
 21
264.5536995653
 31
0.0
  0
LINE
  5
209
330
1F
100
AcDbEntity
  8
0
  6
Continuous
 62
     7
370
    25
100
AcDbLine
 10
244.8882552172
 20
264.5536995653
 30
0.0
 11
244.6882592823
 21
264.5536995653
 31
0.0
  0
LINE
  5
20A
330
1F
100
AcDbEntity
  8
0
  6
Continuous
 62
     7
370
    25
100
AcDbLine
 10
274.8882564093
 20
247.5536986414
 30
0.0
 11
274.8882564093
 21
264.5536995653
 31
0.0
  0
LINE
  5
20B
330
1F
100
AcDbEntity
  8
0
  6
Continuous
 62
     7
370
    25
100
AcDbLine
 10
274.8882564093
 20
247.5536986414
 30
0.0
 11
244.8882552172
 21
247.5536986414
 31
0.0
  0
LINE
  5
20C
330
1F
100
AcDbEntity
  8
0
  6
Continuous
 62
     7
370
    25
100
AcDbLine
 10
244.8882552172
 20
264.5536995653
 30
0.0
 11
244.8882552172
 21
247.5536986414
 31
0.0
  0
LINE
  5
20D
330
1F
100
AcDbEntity
  8
0
  6
Continuous
 62
     7
370
    25
100
AcDbLine
 10
274.8882564093
 20
264.5536995653
 30
0.0
 11
244.8882552172
 21
264.5536995653
 31
0.0
  0
SPLINE
  5
20E
330
1F
100
AcDbEntity
  8
0
  6
Continuous
 62
     7
370
    25
100
AcDbSpline
210
0.0
220
0.0
230
1.0
 70
     8
 71
     3
 72
    29
 73
    25
 74
     0
 42
0.000000001
 43
0.00000001
 40
0.0
 40
0.0
 40
0.0
 40
0.0
 40
0.0510312181536306
 40
0.1091403216778836
 40
0.1697037248923557
 40
0.2285265049549644
 40
0.2892452674690066
 40
0.319092982282536
 40
0.3486316474672977
 40
0.4094311466440647
 40
0.4694389061142125
 40
0.5300622097010445
 40
0.5604726571095703
 40
0.5910584043249676
 40
0.6493728912808254
 40
0.7087587379458065
 40
0.7491912269219911
 40
0.7903590552660283
 40
0.8323035569923707
 40
0.8711966238525851
 40
0.9109962542032484
 40
0.9516716754045602
 40
0.9898502765366827
 40
1.0
 40
1.0
 40
1.0
 40
1.0
 10
167.4205943319143
 20
121.9431906167495
 30
0.0
 10
167.4355712250986
 20
120.921789105833
 30
0.0
 10
167.4676022641177
 20
118.7373205883837
 30
0.0
 10
168.1086452740033
 20
115.3848326905697
 30
0.0
 10
169.256471824864
 20
112.0043484820497
 30
0.0
 10
170.9935930410644
 20
108.8078436473152
 30
0.0
 10
172.9029306737938
 20
106.4503826837943
 30
0.0
 10
174.7041215047479
 20
104.8137921211765
 30
0.0
 10
176.6694604706312
 20
103.3681370487931
 30
0.0
 10
179.4197094951085
 20
101.96861765007
 30
0.0
 10
183.0477245498772
 20
101.0888383139506
 30
0.0
 10
186.1646233694483
 20
101.0936310320763
 30
0.0
 10
188.6094206444672
 20
101.543914581534
 30
0.0
 10
190.9363805930046
 20
102.2658818510882
 30
0.0
 10
193.6456663682076
 20
103.6465851438001
 30
0.0
 10
196.1428841682535
 20
105.6892142795897
 30
0.0
 10
198.0189368311966
 20
107.8386502413737
 30
0.0
 10
199.4031140975659
 20
109.9131791228088
 30
0.0
 10
200.5043256464311
 20
112.1092431572586
 30
0.0
 10
201.3387914788927
 20
114.3839749015221
 30
0.0
 10
201.9317451833383
 20
116.7046902722468
 30
0.0
 10
202.2724016564781
 20
119.0552570311946
 30
0.0
 10
202.4099005653112
 20
120.8348242845635
 30
0.0
 10
202.3754097638652
 20
121.8004277304638
 30
0.0
 10
202.3681661422492
 20
122.0032199446189
 30
0.0
  0
LINE
  5
20F
330
1F
100
AcDbEntity
  8
0
  6
Continuous
 62
     7
370
    25
100
AcDbLine
 10
108.0744209076
 20
246.5536984775
 30
0.0
 11
93.2871790911
 21
246.5536984775
 31
0.0
  0
LINE
  5
210
330
1F
100
AcDbEntity
  8
0
  6
Continuous
 62
     7
370
    25
100
AcDbLine
 10
126.4893355156
 20
246.5536984775
 30
0.0
 11
111.7020936991
 21
246.5536984775
 31
0.0
  0
LINE
  5
211
330
1F
100
AcDbEntity
  8
0
  6
Continuous
 62
     7
370
    25
100
AcDbLine
 10
243.287177601
 20
246.5536984775
 30
0.0
 11
258.0744194175
 21
246.5536984775
 31
0.0
  0
LINE
  5
212
330
1F
100
AcDbEntity
  8
0
  6
Continuous
 62
     7
370
    25
100
AcDbLine
 10
261.702092209
 20
246.5536984775
 30
0.0
 11
276.4893340255
 21
246.5536984775
 31
0.0
  0
SPLINE
  5
213
330
1F
100
AcDbEntity
  8
0
  6
Continuous
 62
     7
370
    25
100
AcDbSpline
210
0.0
220
0.0
230
1.0
 70
     8
 71
     3
 72
    18
 73
    14
 74
     0
 42
0.000000001
 43
0.00000001
 40
0.0
 40
0.0
 40
0.0
 40
0.0
 40
0.1249999999999971
 40
0.1249999999999971
 40
0.2499999999999942
 40
0.2499999999999942
 40
0.4999999999999952
 40
0.4999999999999952
 40
0.624999999999996
 40
0.624999999999996
 40
0.7499999999999967
 40
0.7499999999999967
 40
1.0
 40
1.0
 40
1.0
 40
1.0
 10
93.28718000555206
 20
246.5536984149437
 30
0.0
 10
93.12883276475786
 20
246.5536984149437
 30
0.0
 10
92.97387876562888
 20
246.5660741484687
 30
0.0
 10
92.67415860576448
 20
246.6131929433197
 30
0.0
 10
92.53145300925337
 20
246.6471987186029
 30
0.0
 10
92.13898913194001
 20
246.7684503310446
 30
0.0
 10
91.91680840123688
 20
246.8763172452711
 30
0.0
 10
91.64237156291901
 20
247.0425097924216
 30
0.0
 10
91.55957311274977
 20
247.0993371578924
 30
0.0
 10
91.40992839640163
 20
247.2116910398405
 30
0.0
 10
91.34348794071728
 20
247.2670653676589
 30
0.0
 10
91.16312379734231
 20
247.4290328442353
 30
0.0
 10
91.06786574594746
 20
247.5314026644726
 30
0.0
 10
90.98904668555198
 20
247.6253355849437
 30
0.0
  0
SPLINE
  5
214
330
1F
100
AcDbEntity
  8
0
  6
Continuous
 62
     7
370
    25
100
AcDbSpline
210
0.0
220
0.0
230
1.0
 70
     8
 71
     3
 72
    20
 73
    16
 74
     0
 42
0.000000001
 43
0.00000001
 40
0.0
 40
0.0
 40
0.0
 40
0.0
 40
0.0760888176142091
 40
0.1495732557581891
 40
0.2204970199307643
 40
0.2889087226959251
 40
0.4315581795179331
 40
0.559613305514948
 40
0.6898858423550145
 40
0.8006064606866584
 40
0.854948694537824
 40
0.9049087911125397
 40
0.9375843640734801
 40
0.9690722638404087
 40
1.0
 40
1.0
 40
1.0
 40
1.0
 10
240.9890466853021
 20
247.625335584735
 30
0.0
 10
241.0100665444196
 20
247.6007299263792
 30
0.0
 10
241.0513867917618
 20
247.5523608158351
 30
0.0
 10
241.122304342602
 20
247.4759806130496
 30
0.0
 10
241.1988834760454
 20
247.3988900796845
 30
0.0
 10
241.3131266742824
 20
247.2922229769876
 30
0.0
 10
241.4764313654597
 20
247.1563906091269
 30
0.0
 10
241.724047376804
 20
246.9866688476244
 30
0.0
 10
242.0173148905361
 20
246.827555419135
 30
0.0
 10
242.3255638378567
 20
246.7060015776522
 30
0.0
 10
242.5997064573078
 20
246.6308048340874
 30
0.0
 10
242.7971469492467
 20
246.5918645233696
 30
0.0
 10
242.9751949145113
 20
246.5687244059069
 30
0.0
 10
243.130718139559
 20
246.556061398617
 30
0.0
 10
243.2353390317119
 20
246.5544813492981
 30
0.0
 10
243.2871800055521
 20
246.5536984148983
 30
0.0
  0
SPLINE
  5
215
330
1F
100
AcDbEntity
  8
0
  6
Continuous
 62
     7
370
    25
100
AcDbSpline
210
0.0
220
0.0
230
1.0
 70
     8
 71
     3
 72
    20
 73
    16
 74
     0
 42
0.000000001
 43
0.00000001
 40
0.0
 40
0.0
 40
0.0
 40
0.0
 40
0.25
 40
0.25
 40
0.375
 40
0.375
 40
0.5
 40
0.5
 40
0.625
 40
0.625
 40
0.75
 40
0.75
 40
0.875
 40
0.875
 40
1.0
 40
1.0
 40
1.0
 40
1.0
 10
128.7874673855521
 20
247.625335584944
 30
0.0
 10
128.7086549055519
 20
247.531410504944
 30
0.0
 10
128.6127138619899
 20
247.4280732217202
 30
0.0
 10
128.4313402771668
 20
247.2656320748783
 30
0.0
 10
128.3646227498696
 20
247.2103622130693
 30
0.0
 10
128.2166428517687
 20
247.09915627409
 30
0.0
 10
128.1344276656106
 20
247.0426826988394
 30
0.0
 10
127.9507569890598
 20
246.9315323654868
 30
0.0
 10
127.8502543140598
 20
246.8773931054868
 30
0.0
 10
127.6291953241938
 20
246.7760042054408
 30
0.0
 10
127.5071018374556
 20
246.7282780919932
 30
0.0
 10
127.2427602279625
 20
246.6465261449254
 30
0.0
 10
127.1007240707199
 20
246.6127850435865
 30
0.0
 10
126.8010031749356
 20
246.5660835668943
 30
0.0
 10
126.6472940555521
 20
246.553698414944
 30
0.0
 10
126.489334065552
 20
246.553698414944
 30
0.0
  0
SPLINE
  5
216
330
1F
100
AcDbEntity
  8
0
  6
Continuous
 62
     7
370
    25
100
AcDbSpline
210
0.0
220
0.0
230
1.0
 70
     8
 71
     3
 72
    21
 73
    17
 74
     0
 42
0.000000001
 43
0.00000001
 40
0.0
 40
0.0
 40
0.0
 40
0.0
 40
0.0186995431384772
 40
0.0374571078164643
 40
0.0564158124291152
 40
0.0757143009056216
 40
0.0954840698314295
 40
0.1454374841263579
 40
0.1996557181068164
 40
0.2546283061755367
 40
0.3148909638577715
 40
0.4405413951476623
 40
0.569035746524651
 40
0.7122663342469664
 40
0.8511280771113705
 40
1.0
 40
1.0
 40
1.0
 40
1.0
 10
276.489334065552
 20
246.5536984148985
 30
0.0
 10
276.5206653552844
 20
246.553982627123
 30
0.0
 10
276.5834251504754
 20
246.5545519334348
 30
0.0
 10
276.6771253898568
 20
246.5591315886317
 30
0.0
 10
276.7701804441289
 20
246.5663805569638
 30
0.0
 10
276.8625053550369
 20
246.5765221348335
 30
0.0
 10
276.9994897708083
 20
246.5958382285466
 30
0.0
 10
277.1779669507839
 20
246.6310752830078
 30
0.0
 10
277.381040129896
 20
246.6868477234543
 30
0.0
 10
277.5707395267644
 20
246.753129898296
 30
0.0
 10
277.8063468123977
 20
246.853057937372
 30
0.0
 10
278.0558795810102
 20
246.9889259975176
 30
0.0
 10
278.3010514257687
 20
247.1570870070009
 30
0.0
 10
278.498155828736
 20
247.3212924385573
 30
0.0
 10
278.6629565587519
 20
247.4818593393667
 30
0.0
 10
278.7450122117831
 20
247.5764136627706
 30
0.0
 10
278.787467385802
 20
247.6253355847352
 30
0.0
  0
LINE
  5
217
330
1F
100
AcDbEntity
  8
0
  6
Continuous
 62
     7
370
    25
100
AcDbLine
 10
108.0744209076
 20
246.5536984775
 30
0.0
 11
111.7020936991
 21
246.5536984775
 31
0.0
  0
LINE
  5
218
330
1F
100
AcDbEntity
  8
0
  6
Continuous
 62
     7
370
    25
100
AcDbLine
 10
258.0744194175
 20
246.5536984775
 30
0.0
 11
261.702092209
 21
246.5536984775
 31
0.0
  0
SPLINE
  5
219
330
1F
100
AcDbEntity
  8
0
  6
Continuous
 62
     7
370
    25
100
AcDbSpline
210
0.0
220
0.0
230
1.0
 70
     8
 71
     3
 72
     8
 73
     4
 74
     0
 42
0.000000001
 43
0.00000001
 40
0.0
 40
0.0
 40
0.0
 40
0.0
 40
1.0
 40
1.0
 40
1.0
 40
1.0
 10
90.98904668555198
 20
247.6253355849437
 30
0.0
 10
90.42656308610123
 20
248.2956774119595
 30
0.0
 10
90.13825000535228
 20
248.6392755828517
 30
0.0
 10
90.13825004555197
 20
248.6392755349437
 30
0.0
  0
SPLINE
  5
21A
330
1F
100
AcDbEntity
  8
0
  6
Continuous
 62
     7
370
    25
100
AcDbSpline
210
0.0
220
0.0
230
1.0
 70
     8
 71
     3
 72
     8
 73
     4
 74
     0
 42
0.000000001
 43
0.00000001
 40
0.0
 40
0.0
 40
0.0
 40
0.0
 40
1.0
 40
1.0
 40
1.0
 40
1.0
 10
129.638264025552
 20
248.6392755349439
 30
0.0
 10
129.6382640657516
 20
248.639275582852
 30
0.0
 10
129.349950985003
 20
248.2956774119598
 30
0.0
 10
128.7874673855521
 20
247.625335584944
 30
0.0
  0
SPLINE
  5
21B
330
1F
100
AcDbEntity
  8
0
  6
Continuous
 62
     7
370
    25
100
AcDbSpline
210
0.0
220
0.0
230
1.0
 70
     8
 71
     3
 72
     8
 73
     4
 74
     0
 42
0.000000001
 43
0.00000001
 40
0.0
 40
0.0
 40
0.0
 40
0.0
 40
1.0
 40
1.0
 40
1.0
 40
1.0
 10
240.9890466855521
 20
247.6253355849447
 30
0.0
 10
240.4265630860875
 20
248.2956774119768
 30
0.0
 10
240.1382500053386
 20
248.6392755828692
 30
0.0
 10
240.1382500455521
 20
248.6392755349447
 30
0.0
  0
SPLINE
  5
21C
330
1F
100
AcDbEntity
  8
0
  6
Continuous
 62
     7
370
    25
100
AcDbSpline
210
0.0
220
0.0
230
1.0
 70
    24
 71
     3
 72
    20
 73
    16
 74
     0
 42
0.000000001
 43
0.00000001
 40
0.0
 40
0.0
 40
0.0
 40
0.0
 40
0.0638393089623503
 40
0.1273690316008318
 40
0.1906269003149197
 40
0.2536511357800925
 40
0.3164803850489221
 40
0.3791536558858129
 40
0.4417102478414027
 40
0.5041896806396965
 40
0.6038384677239119
 40
0.7030771636971423
 40
0.8020719675360208
 40
0.9009903075607474
 40
1.0
 40
1.0
 40
1.0
 40
1.0
 10
278.787467385552
 20
247.625335584945
 30
0.0
 10
278.8220339923291
 20
247.6665304625378
 30
0.0
 10
278.8909995764258
 20
247.7487204447164
 30
0.0
 10
278.9866098564918
 20
247.8626643388724
 30
0.0
 10
279.0761164620467
 20
247.9693341570402
 30
0.0
 10
279.1589853791573
 20
248.0680934861997
 30
0.0
 10
279.2353584726237
 20
248.1591113942352
 30
0.0
 10
279.3051980008679
 20
248.2423429024859
 30
0.0
 10
279.3685126748534
 20
248.3177983922737
 30
0.0
 10
279.4365751325841
 20
248.3989120703667
 30
0.0
 10
279.5039715161938
 20
248.4792319522374
 30
0.0
 10
279.5640425474224
 20
248.5508218191369
 30
0.0
 10
279.6066401460754
 20
248.6015876600994
 30
0.0
 10
279.6333177878689
 20
248.6333808353809
 30
0.0
 10
279.6366147734302
 20
248.6373100297475
 30
0.0
 10
279.6382640270621
 20
248.639275533678
 30
0.0
  0
CIRCLE
  5
21D
330
1F
100
AcDbEntity
  8
0
  6
Continuous
 62
     8
370
    18
100
AcDbCircle
 10
184.7776521106
 20
226.74309349
 30
0.0
 40
21.96000000000001
  0
ARC
  5
21E
330
1F
100
AcDbEntity
  8
0
  6
Continuous
 62
     8
370
    18
100
AcDbCircle
 10
184.7774796215
 20
217.2117233254
 30
0.0
 40
14.46334022239273
100
AcDbArc
 50
249.7760966642
 51
290.0232661762
  0
LINE
  5
21F
330
1F
100
AcDbEntity
  8
0
  6
Continuous
 62
     8
370
    18
100
AcDbLine
 10
179.7776518698
 20
142.2430946652
 30
0.0
 11
189.7776516463
 21
142.2430946652
 31
0.0
  0
SPLINE
  5
220
330
1F
100
AcDbEntity
  8
0
  6
Continuous
 62
     8
370
    18
100
AcDbSpline
210
0.0
220
0.0
230
1.0
 70
     8
 71
     3
 72
    32
 73
    28
 74
     0
 42
0.000000001
 43
0.00000001
 40
0.0
 40
0.0
 40
0.0
 40
0.0
 40
0.0186982832054303
 40
0.0373696223540061
 40
0.0560143409901677
 40
0.0746327640461672
 40
0.0932252178329339
 40
0.1117920300306292
 40
0.1303335296789002
 40
0.1488500471668145
 40
0.1673419142224953
 40
0.1858094639024442
 40
0.204253030580547
 40
0.222672949936778
 40
0.2410695589455827
 40
0.259443195863958
 40
0.3846934039048505
 40
0.5124357574054231
 40
0.6308427189929322
 40
0.757815300494568
 40
0.7904254151806231
 40
0.8236973253625601
 40
0.8576315208896301
 40
0.8922284631387486
 40
0.9274885871297277
 40
0.9634123034486906
 40
1.0
 40
1.0
 40
1.0
 40
1.0
 10
158.8601898662167
 20
207.1632558488682
 30
0.0
 10
158.841748026457
 20
207.2390819467865
 30
0.0
 10
158.8048909214619
 20
207.3906248779024
 30
0.0
 10
158.7520912688268
 20
207.6284730550992
 30
0.0
 10
158.7011639549887
 20
207.8736712602224
 30
0.0
 10
158.6522838006657
 20
208.1268652479696
 30
0.0
 10
158.6054040629602
 20
208.387717467975
 30
0.0
 10
158.5605372414804
 20
208.656149813657
 30
0.0
 10
158.51767999182
 20
208.9320114397255
 30
0.0
 10
158.4768332188179
 20
209.2151676575845
 30
0.0
 10
158.4379966438308
 20
209.5054763574241
 30
0.0
 10
158.4011704806244
 20
209.8027940685577
 30
0.0
 10
158.366354155945
 20
210.1069757233588
 30
0.0
 10
158.3335497480263
 20
210.4178700402979
 30
0.0
 10
158.302749533394
 20
210.7353386708643
 30
0.0
 10
158.2181926079501
 20
211.6872347672745
 30
0.0
 10
158.1130098867999
 20
213.4123987791961
 30
0.0
 10
158.0527290105266
 20
216.0358036214568
 30
0.0
 10
158.0669989777469
 20
218.8748681328417
 30
0.0
 10
158.1208790809901
 20
221.1046000816911
 30
0.0
 10
158.1743667378293
 20
222.6804329670408
 30
0.0
 10
158.2053321695659
 20
223.501721263081
 30
0.0
 10
158.2401221056123
 20
224.343936371238
 30
0.0
 10
158.2787231261695
 20
225.2061750388777
 30
0.0
 10
158.3211991708344
 20
226.0872817731377
 30
0.0
 10
158.367301744951
 20
226.9861742705145
 30
0.0
 10
158.4007841774311
 20
227.5903986530265
 30
0.0
 10
158.4176786914241
 20
227.8952772573891
 30
0.0
  0
SPLINE
  5
221
330
1F
100
AcDbEntity
  8
0
  6
Continuous
 62
     8
370
    18
100
AcDbSpline
210
0.0
220
0.0
230
1.0
 70
     8
 71
     3
 72
    12
 73
     8
 74
     0
 42
0.000000001
 43
0.00000001
 40
0.0
 40
0.0
 40
0.0
 40
0.0
 40
0.3411125759718518
 40
0.524701080461669
 40
0.7121736120189819
 40
0.8996461501611716
 40
1.0
 40
1.0
 40
1.0
 40
1.0
 10
158.4177546511532
 20
227.895322760761
 30
0.0
 10
158.9821944287567
 20
227.8715371915181
 30
0.0
 10
159.8504185343041
 20
227.8349501092459
 30
0.0
 10
160.898047311778
 20
227.8114784617068
 30
0.0
 10
161.6103036631679
 20
227.8048949596822
 30
0.0
 10
162.1273183906716
 20
227.8083730057201
 30
0.0
 10
162.3331642777101
 20
227.818460931026
 30
0.0
 10
162.4049347202422
 20
227.821978197627
 30
0.0
  0
SPLINE
  5
222
330
1F
100
AcDbEntity
  8
0
  6
Continuous
 62
     8
370
    18
100
AcDbSpline
210
0.0
220
0.0
230
1.0
 70
     8
 71
     3
 72
    10
 73
     6
 74
     0
 42
0.000000001
 43
0.00000001
 40
0.0
 40
0.0
 40
0.0
 40
0.0
 40
0.3671674699815657
 40
0.7507476651906442
 40
1.0
 40
1.0
 40
1.0
 40
1.0
 10
171.2189179194033
 20
195.5777033392417
 30
0.0
 10
172.0807478084375
 20
195.3984319846511
 30
0.0
 10
173.8429321790093
 20
195.0318756802453
 30
0.0
 10
176.8350581400704
 20
194.7161692591768
 30
0.0
 10
178.9461577735091
 20
194.5972861963748
 30
0.0
 10
179.7776518697978
 20
194.5504619900214
 30
0.0
  0
SPLINE
  5
223
330
1F
100
AcDbEntity
  8
0
  6
Continuous
 62
     8
370
    18
100
AcDbSpline
210
0.0
220
0.0
230
1.0
 70
     8
 71
     3
 72
    28
 73
    24
 74
     0
 42
0.000000001
 43
0.00000001
 40
0.0
 40
0.0
 40
0.0
 40
0.0
 40
0.035758022064306
 40
0.0715126603707167
 40
0.1072798516116009
 40
0.1429859394853027
 40
0.178580489164409
 40
0.2140870465182698
 40
0.249528699482962
 40
0.2849265724266022
 40
0.3202993362578954
 40
0.3556654662532743
 40
0.3910429840938979
 40
0.426448615086334
 40
0.4913928992726559
 40
0.5558567436115713
 40
0.6199806176767634
 40
0.6838945165243906
 40
0.7476765423619747
 40
0.8110987579324874
 40
0.8742125191350093
 40
0.9371401676158556
 40
1.0
 40
1.0
 40
1.0
 40
1.0
 10
167.3882628232612
 20
198.1504132948848
 30
0.0
 10
167.3892296664259
 20
198.1127369470757
 30
0.0
 10
167.3911632612636
 20
198.0373878167451
 30
0.0
 10
167.4066396379502
 20
197.9257780180264
 30
0.0
 10
167.4313412057062
 20
197.815380345584
 30
0.0
 10
167.4661459807635
 20
197.7064682670396
 30
0.0
 10
167.5107370946026
 20
197.5991098503516
 30
0.0
 10
167.5651031189934
 20
197.4933388536949
 30
0.0
 10
167.6291697325438
 20
197.3890954648854
 30
0.0
 10
167.7029096246883
 20
197.2863496453009
 30
0.0
 10
167.7863396038443
 20
197.1851134805462
 30
0.0
 10
167.8794685732834
 20
197.0853981919365
 30
0.0
 10
167.9823098030082
 20
196.9872189171839
 30
0.0
 10
168.1261758618263
 20
196.8638193275197
 30
0.0
 10
168.3220901583391
 20
196.7177769054597
 30
0.0
 10
168.5839564112215
 20
196.5519975068557
 30
0.0
 10
168.8755472446512
 20
196.3928248269472
 30
0.0
 10
169.1965414460396
 20
196.2400336624613
 30
0.0
 10
169.5462136931578
 20
196.0939151227947
 30
0.0
 10
169.9233373106452
 20
195.9545928272196
 30
0.0
 10
170.3274398181968
 20
195.8221814841379
 30
0.0
 10
170.7558404443482
 20
195.695942875103
 30
0.0
 10
171.0634295239078
 20
195.6173963505418
 30
0.0
 10
171.2171411480803
 20
195.5781442617464
 30
0.0
  0
LINE
  5
224
330
1F
100
AcDbEntity
  8
0
  6
Continuous
 62
     8
370
    18
100
AcDbLine
 10
167.4167591456
 20
198.2416491184
 30
0.0
 11
167.3882571823
 21
198.1504130337
 31
0.0
  0
SPLINE
  5
225
330
1F
100
AcDbEntity
  8
0
  6
Continuous
 62
     8
370
    18
100
AcDbSpline
210
0.0
220
0.0
230
1.0
 70
     8
 71
     3
 72
    10
 73
     6
 74
     0
 42
0.000000001
 43
0.00000001
 40
0.0
 40
0.0
 40
0.0
 40
0.0
 40
0.3432491358176449
 40
0.6863242914073165
 40
1.0
 40
1.0
 40
1.0
 40
1.0
 10
160.7323455001356
 20
204.3823952946889
 30
0.0
 10
160.4807594887913
 20
204.4368484192232
 30
0.0
 10
159.9777149857001
 20
204.545727068027
 30
0.0
 10
159.3438899807721
 20
205.5335678566724
 30
0.0
 10
159.0167969053384
 20
206.635443708263
 30
0.0
 10
158.8605715270282
 20
207.1617189023721
 30
0.0
  0
SPLINE
  5
226
330
1F
100
AcDbEntity
  8
0
  6
Continuous
 62
     8
370
    18
100
AcDbSpline
210
0.0
220
0.0
230
1.0
 70
     8
 71
     3
 72
    25
 73
    21
 74
     0
 42
0.000000001
 43
0.00000001
 40
0.0
 40
0.0
 40
0.0
 40
0.0
 40
0.0296532057852358
 40
0.059228451421326
 40
0.0887801107212695
 40
0.1183911998881853
 40
0.1481004301762228
 40
0.1777414326333985
 40
0.2073232916222149
 40
0.2369180840947853
 40
0.2665916249090956
 40
0.3867645915921013
 40
0.5069304166868263
 40
0.627175533987697
 40
0.747351897798444
 40
0.7979245208105277
 40
0.8484140573593335
 40
0.899020697277953
 40
0.9494718174482639
 40
1.0
 40
1.0
 40
1.0
 40
1.0
 10
211.3588152484885
 20
227.8952867713035
 30
0.0
 10
211.2891697115759
 20
227.8920529805336
 30
0.0
 10
211.150061740262
 20
227.8855939008337
 30
0.0
 10
210.941985078041
 20
227.8765576916122
 30
0.0
 10
210.7349297171642
 20
227.8678107860414
 30
0.0
 10
210.5288898482033
 20
227.8597422553192
 30
0.0
 10
210.324405471533
 20
227.8522427544891
 30
0.0
 10
210.1222508449347
 20
227.8450911379817
 30
0.0
 10
209.9230558066328
 20
227.8384606736488
 30
0.0
 10
209.7268813856031
 20
227.8324258316842
 30
0.0
 10
209.3378545761214
 20
227.8216355514519
 30
0.0
 10
208.7811957960517
 20
227.8088003485492
 30
0.0
 10
208.1303838476248
 20
227.8053731798213
 30
0.0
 10
207.5938494300725
 20
227.8089619649625
 30
0.0
 10
207.2685417072694
 20
227.8231673688502
 30
0.0
 10
207.0861310937026
 20
227.8368543356297
 30
0.0
 10
206.9876972115746
 20
227.848161217514
 30
0.0
 10
206.9173361769386
 20
227.8609777340428
 30
0.0
 10
206.8727860657123
 20
227.8751717216214
 30
0.0
 10
206.8668791088461
 20
227.8858978634719
 30
0.0
 10
206.8639233764652
 20
227.8912650272261
 30
0.0
  0
SPLINE
  5
227
330
1F
100
AcDbEntity
  8
0
  6
Continuous
 62
     8
370
    18
100
AcDbSpline
210
0.0
220
0.0
230
1.0
 70
     8
 71
     3
 72
    31
 73
    27
 74
     0
 42
0.000000001
 43
0.00000001
 40
0.0
 40
0.0
 40
0.0
 40
0.0
 40
0.019784395506244
 40
0.0393762604606991
 40
0.058775653621433
 40
0.0779826355216155
 40
0.0969972685407137
 40
0.1158196169792722
 40
0.1344497471374755
 40
0.1528877273977531
 40
0.1711336283116469
 40
0.1891875226912189
 40
0.2070494857052909
 40
0.2247195949808025
 40
0.2421979307096374
 40
0.3691696998883994
 40
0.4875795449484238
 40
0.6153204924451672
 40
0.7405727433394678
 40
0.7773405951994848
 40
0.814201727025492
 40
0.8511588289103783
 40
0.8882145700455085
 40
0.9253715983644255
 40
0.9626325402064377
 40
1.0
 40
1.0
 40
1.0
 40
1.0
 10
211.3588353884448
 20
227.8952772537603
 30
0.0
 10
211.3680368239309
 20
227.7304931316801
 30
0.0
 10
211.3863501517349
 20
227.4025284734339
 30
0.0
 10
211.4126241427511
 20
226.9125339339151
 30
0.0
 10
211.4378481386295
 20
226.4273201566417
 30
0.0
 10
211.4619481218479
 20
225.947061161971
 30
0.0
 10
211.4849436355628
 20
225.4719798133059
 30
0.0
 10
211.5068295247989
 20
225.0022696181778
 30
0.0
 10
211.5276071518297
 20
224.5381157130039
 30
0.0
 10
211.5472761660728
 20
224.0796895331172
 30
0.0
 10
211.5658366433815
 20
223.6271509744336
 30
0.0
 10
211.5832886415171
 20
223.180646622525
 30
0.0
 10
211.5996318768548
 20
222.740316249196
 30
0.0
 10
211.6148674277302
 20
222.3062706157599
 30
0.0
 10
211.6585361289683
 20
220.9842166934488
 30
0.0
 10
211.7094966197869
 20
218.8759396684871
 30
0.0
 10
211.7237983353506
 20
216.0372522598979
 30
0.0
 10
211.6635436774144
 20
213.4139784956158
 30
0.0
 10
211.5513710061297
 20
211.5721317456242
 30
0.0
 10
211.4440993526368
 20
210.4157544136232
 30
0.0
 10
211.3764856339658
 20
209.800513746778
 30
0.0
 10
211.3008436319261
 20
209.2127961614289
 30
0.0
 10
211.2171954520761
 20
208.6535005472591
 30
0.0
 10
211.1253627467372
 20
208.1245784699155
 30
0.0
 10
211.0260396726332
 20
207.6240242969712
 30
0.0
 10
210.9531973464192
 20
207.3180649531936
 30
0.0
 10
210.9167241989791
 20
207.1648669317096
 30
0.0
  0
SPLINE
  5
228
330
1F
100
AcDbEntity
  8
0
  6
Continuous
 62
     8
370
    18
100
AcDbSpline
210
0.0
220
0.0
230
1.0
 70
     8
 71
     3
 72
    10
 73
     6
 74
     0
 42
0.000000001
 43
0.00000001
 40
0.0
 40
0.0
 40
0.0
 40
0.0
 40
0.3136379041408031
 40
0.6566804287043938
 40
1.0
 40
1.0
 40
1.0
 40
1.0
 10
210.9163234318735
 20
207.1632555846202
 30
0.0
 10
210.7601065731706
 20
206.6367516845038
 30
0.0
 10
210.4330269938549
 20
205.5343823526141
 30
0.0
 10
209.7990735873065
 20
204.5459182721073
 30
0.0
 10
209.29587809483
 20
204.4368691974312
 30
0.0
 10
209.0441787923814
 20
204.3823226515281
 30
0.0
  0
SPLINE
  5
229
330
1F
100
AcDbEntity
  8
0
  6
Continuous
 62
     8
370
    18
100
AcDbSpline
210
0.0
220
0.0
230
1.0
 70
     8
 71
     3
 72
    11
 73
     7
 74
     0
 42
0.000000001
 43
0.00000001
 40
0.0
 40
0.0
 40
0.0
 40
0.0
 40
0.3056039495044365
 40
0.6228142912199484
 40
0.9279890164808617
 40
1.0
 40
1.0
 40
1.0
 40
1.0
 10
198.5611597384454
 20
195.5785862330424
 30
0.0
 10
199.2646406793653
 20
195.7808994309029
 30
0.0
 10
200.6983197411583
 20
196.1932093867599
 30
0.0
 10
201.8971176727313
 20
197.0008755802692
 30
0.0
 10
202.4582576514546
 20
197.6688417874203
 30
0.0
 10
202.3375330332316
 20
198.0798389185744
 30
0.0
 10
202.3144847090484
 20
198.1583050612437
 30
0.0
  0
SPLINE
  5
22A
330
1F
100
AcDbEntity
  8
0
  6
Continuous
 62
     8
370
    18
100
AcDbSpline
210
0.0
220
0.0
230
1.0
 70
     8
 71
     3
 72
    10
 73
     6
 74
     0
 42
0.000000001
 43
0.00000001
 40
0.0
 40
0.0
 40
0.0
 40
0.0
 40
0.2657586348954684
 40
0.6409079913092778
 40
1.0
 40
1.0
 40
1.0
 40
1.0
 10
189.7776516462804
 20
194.5367007676589
 30
0.0
 10
190.6849128637432
 20
194.5875379034625
 30
0.0
 10
192.8728792668128
 20
194.7101375947375
 30
0.0
 10
195.935998483919
 20
195.0318320800893
 30
0.0
 10
197.6977579536911
 20
195.3987137916048
 30
0.0
 10
198.5593734617473
 20
195.5781429234969
 30
0.0
  0
LINE
  5
22B
330
1F
100
AcDbEntity
  8
0
  6
Continuous
 62
     8
370
    18
100
AcDbLine
 10
74.8882534291
 20
278.3536984745
 30
0.0
 11
144.8882574524
 21
278.3536984745
 31
0.0
  0
LINE
  5
22C
330
1F
100
AcDbEntity
  8
0
  6
Continuous
 62
     8
370
    18
100
AcDbLine
 10
224.8882556643
 20
278.3536984745
 30
0.0
 11
294.8882596876
 21
278.3536984745
 31
0.0
  0
ARC
  5
22D
330
1F
100
AcDbEntity
  8
0
  6
Continuous
 62
     8
370
    18
100
AcDbCircle
 10
184.8882570356
 20
176.8536984149
 30
0.0
 40
6.500000000000028
100
AcDbArc
 50
180.0
 51
218.1638501521
  0
ARC
  5
22E
330
1F
100
AcDbEntity
  8
0
  6
Continuous
 62
     8
370
    18
100
AcDbCircle
 10
184.8882570356
 20
176.8536984149
 30
0.0
 40
6.499999999999991
100
AcDbArc
 50
318.7825815953
 51
41.2174184047
  0
ARC
  5
22F
330
1F
100
AcDbEntity
  8
0
  6
Continuous
 62
     8
370
    18
100
AcDbCircle
 10
184.8882570356
 20
176.8536984149
 30
0.0
 40
6.500000000000028
100
AcDbArc
 50
141.8361498479
 51
180.0
  0
SPLINE
  5
230
330
1F
100
AcDbEntity
  8
0
  6
Continuous
 62
     8
370
    18
100
AcDbSpline
210
0.0
220
0.0
230
1.0
 70
     8
 71
     3
 72
    22
 73
    18
 74
     0
 42
0.000000001
 43
0.00000001
 40
0.0
 40
0.0
 40
0.0
 40
0.0
 40
0.0671034752492781
 40
0.1361414430900279
 40
0.1808410394348363
 40
0.2271123510370868
 40
0.2751570860027647
 40
0.3631003540153636
 40
0.4583146192193818
 40
0.5614191781165248
 40
0.65840926807482
 40
0.7564435087114613
 40
0.8560764576923232
 40
0.8946977632376467
 40
0.9314020433463306
 40
0.9713501774307548
 40
1.0
 40
1.0
 40
1.0
 40
1.0
 10
158.4177546511532
 20
227.8953205488699
 30
0.0
 10
158.4942523402402
 20
228.6986036900485
 30
0.0
 10
158.649453032107
 20
230.3283274211026
 30
0.0
 10
159.2036040659106
 20
232.3998243996513
 30
0.0
 10
159.8481461590885
 20
234.1374664572205
 30
0.0
 10
160.5180761203298
 20
235.5730040627047
 30
0.0
 10
161.5210315841174
 20
237.3469526119593
 30
0.0
 10
162.9935168582507
 20
239.3955237945341
 30
0.0
 10
165.0618302606415
 20
241.5970379124791
 30
0.0
 10
167.3995065821539
 20
243.5188643174276
 30
0.0
 10
169.9129407149648
 20
245.1320721748485
 30
0.0
 10
172.5155538688549
 20
246.4360966928364
 30
0.0
 10
174.6875156668182
 20
247.2615535179163
 30
0.0
 10
176.342689608533
 20
247.7647707361022
 30
0.0
 10
177.454154964084
 20
248.0568139476179
 30
0.0
 10
178.4873084020408
 20
248.2922705307282
 30
0.0
 10
179.1843862473486
 20
248.4162620703816
 30
0.0
 10
179.4755196507217
 20
248.4680469308125
 30
0.0
  0
SPLINE
  5
231
330
1F
100
AcDbEntity
  8
0
  6
Continuous
 62
     8
370
    18
100
AcDbSpline
210
0.0
220
0.0
230
1.0
 70
     8
 71
     3
 72
    22
 73
    18
 74
     0
 42
0.000000001
 43
0.00000001
 40
0.0
 40
0.0
 40
0.0
 40
0.0
 40
0.0190181083445985
 40
0.0928866767081302
 40
0.1660519447244954
 40
0.2389255458450626
 40
0.3108616476526411
 40
0.3831834995837792
 40
0.452632809312909
 40
0.5287381360660751
 40
0.6004385205362577
 40
0.6679654146646756
 40
0.7315958697092982
 40
0.8010510659518021
 40
0.8668638691202321
 40
0.9343644770204798
 40
1.0
 40
1.0
 40
1.0
 40
1.0
 10
189.6775735850574
 20
248.5547661010253
 30
0.0
 10
189.8846563448104
 20
248.5285920844659
 30
0.0
 10
190.8960728857444
 20
248.4007551108691
 30
0.0
 10
192.5367131760717
 20
248.0151237977995
 30
0.0
 10
194.6810783397589
 20
247.405273228296
 30
0.0
 10
196.7267052675703
 20
246.6396384584689
 30
0.0
 10
198.7087324744241
 20
245.7279205100332
 30
0.0
 10
200.597093110991
 20
244.6730025581238
 30
0.0
 10
202.4513063588227
 20
243.4312798381249
 30
0.0
 10
204.2145584432552
 20
242.0125319407897
 30
0.0
 10
205.854196507925
 20
240.4125909180815
 30
0.0
 10
207.279176341297
 20
238.7236889153893
 30
0.0
 10
208.5479727334277
 20
236.8779427616634
 30
0.0
 10
209.6332312235091
 20
234.8690709574888
 30
0.0
 10
210.5085540037122
 20
232.6458813856264
 30
0.0
 10
211.1277888686569
 20
230.3218360307438
 30
0.0
 10
211.2824903760594
 20
228.696596335762
 30
0.0
 10
211.3587575341703
 20
227.89536036291
 30
0.0
  0
LINE
  5
232
330
1F
100
AcDbEntity
  8
0
  6
Continuous
 62
     8
370
    18
100
AcDbLine
 10
85.8882533695
 20
226.8536984149
 30
0.0
 11
85.8882533695
 21
224.1943121582
 31
0.0
  0
LINE
  5
233
330
1F
100
AcDbEntity
  8
0
  6
Continuous
 62
     8
370
    18
100
AcDbLine
 10
85.8882533695
 20
249.353699309
 30
0.0
 11
85.8882533695
 21
226.8536984149
 31
0.0
  0
SPLINE
  5
234
330
1F
100
AcDbEntity
  8
0
  6
Continuous
 62
     8
370
    18
100
AcDbSpline
210
0.0
220
0.0
230
1.0
 70
     8
 71
     3
 72
    25
 73
    21
 74
     0
 42
0.000000001
 43
0.00000001
 40
0.0
 40
0.0
 40
0.0
 40
0.0
 40
0.0537971689818565
 40
0.1060211448498045
 40
0.1567035184365679
 40
0.2058788522348162
 40
0.2535849848776671
 40
0.2998633594608123
 40
0.3447593736282825
 40
0.388322747452635
 40
0.4306079026446531
 40
0.4716743434590169
 40
0.5115870258131855
 40
0.6419229812786176
 40
0.7598560553924427
 40
0.8215642543352509
 40
0.8809596953021555
 40
0.9211296360669351
 40
0.9606484484469755
 40
1.0
 40
1.0
 40
1.0
 40
1.0
 10
130.319556275552
 20
248.2408395824883
 30
0.0
 10
130.2915589017951
 20
248.2047500984188
 30
0.0
 10
130.2363828827836
 20
248.1336264967405
 30
0.0
 10
130.1449147197787
 20
248.0233007263168
 30
0.0
 10
130.0485377806262
 20
247.9129554463738
 30
0.0
 10
129.9465966092731
 20
247.8027147948118
 30
0.0
 10
129.8392572327541
 20
247.6931599204458
 30
0.0
 10
129.7264748318586
 20
247.5847267376089
 30
0.0
 10
129.6082583701253
 20
247.477860983145
 30
0.0
 10
129.4846017107023
 20
247.3729770254315
 30
0.0
 10
129.3555051296114
 20
247.2704754158606
 30
0.0
 10
129.2209558876788
 20
247.1707152606513
 30
0.0
 10
128.9740760437936
 20
247.0003188734265
 30
0.0
 10
128.5875021692536
 20
246.7715282116691
 30
0.0
 10
128.0756904877297
 20
246.5537183738016
 30
0.0
 10
127.6268966530279
 20
246.4194003581239
 30
0.0
 10
127.3006266791578
 20
246.3495464389778
 30
0.0
 10
127.0067576587127
 20
246.3077033523078
 30
0.0
 10
126.7487867186912
 20
246.2848005752965
 30
0.0
 10
126.5756959250566
 20
246.2819499654135
 30
0.0
 10
126.489334065552
 20
246.2805276831243
 30
0.0
  0
SPLINE
  5
235
330
1F
100
AcDbEntity
  8
0
  6
Continuous
 62
     8
370
    18
100
AcDbSpline
210
0.0
220
0.0
230
1.0
 70
     8
 71
     3
 72
    21
 73
    17
 74
     0
 42
0.000000001
 43
0.00000001
 40
0.0
 40
0.0
 40
0.0
 40
0.0
 40
0.054934568448998
 40
0.1099050294477298
 40
0.1649212398923862
 40
0.2199930321106396
 40
0.2751302086953235
 40
0.3303425374135726
 40
0.3856397462076324
 40
0.4410315182996675
 40
0.4965274874121966
 40
0.5959404911562521
 40
0.6959418137462288
 40
0.7965843935151978
 40
0.8979201638113539
 40
1.0
 40
1.0
 40
1.0
 40
1.0
 10
131.1703528055513
 20
249.353698414944
 30
0.0
 10
131.1698441558081
 20
249.3530342629145
 30
0.0
 10
131.1688265239858
 20
249.3517055249193
 30
0.0
 10
131.160597421083
 20
249.3409556484604
 30
0.0
 10
131.1474625866261
 20
249.3237876414519
 30
0.0
 10
131.1289399186078
 20
249.2995677860373
 30
0.0
 10
131.1051588022244
 20
249.2684625860116
 30
0.0
 10
131.0760844526579
 20
249.2304264349934
 30
0.0
 10
131.0417265116108
 20
249.1854738181132
 30
0.0
 10
131.002081341519
 20
249.1336042156365
 30
0.0
 10
130.9453341445681
 20
249.0593671880129
 30
0.0
 10
130.865458577659
 20
248.9549073196212
 30
0.0
 10
130.7550752901671
 20
248.8105481035762
 30
0.0
 10
130.6274048326956
 20
248.6435541804678
 30
0.0
 10
130.483844324336
 20
248.4557478686959
 30
0.0
 10
130.3744523386843
 20
248.3126501550444
 30
0.0
 10
130.319556275552
 20
248.2408395824883
 30
0.0
  0
SPLINE
  5
236
330
1F
100
AcDbEntity
  8
0
  6
Continuous
 62
     8
370
    18
100
AcDbSpline
210
0.0
220
0.0
230
1.0
 70
     8
 71
     3
 72
    20
 73
    16
 74
     0
 42
0.000000001
 43
0.00000001
 40
0.0
 40
0.0
 40
0.0
 40
0.0
 40
0.0638908132923755
 40
0.1274840602588502
 40
0.1907920115608686
 40
0.2538271044705506
 40
0.3166019384406347
 40
0.3791292702531183
 40
0.4414220087464309
 40
0.5034932091231339
 40
0.6033020095498589
 40
0.7028003537192663
 40
0.8020447688286463
 40
0.9010922168345528
 40
1.0
 40
1.0
 40
1.0
 40
1.0
 10
89.45695779555203
 20
248.240839582488
 30
0.0
 10
89.42225012659074
 20
248.2862403781718
 30
0.0
 10
89.35299643684577
 20
248.3768305189838
 30
0.0
 10
89.25713343364312
 20
248.502239366198
 30
0.0
 10
89.16747212352563
 20
248.6195316457468
 30
0.0
 10
89.08456202853282
 20
248.7279848929948
 30
0.0
 10
89.00825700542379
 20
248.8277881503372
 30
0.0
 10
88.93859582576243
 20
248.9188928227221
 30
0.0
 10
88.8755689899186
 20
249.0013168088138
 30
0.0
 10
88.8076855773067
 20
249.0900979325214
 30
0.0
 10
88.7404102525925
 20
249.1781151144569
 30
0.0
 10
88.68037015647982
 20
249.2566709624833
 30
0.0
 10
88.63779323362232
 20
249.3123629610465
 30
0.0
 10
88.61111410152039
 20
249.3472342770926
 30
0.0
 10
88.60781143415626
 20
249.3515447160521
 30
0.0
 10
88.60616126555206
 20
249.3536984149437
 30
0.0
  0
SPLINE
  5
237
330
1F
100
AcDbEntity
  8
0
  6
Continuous
 62
     8
370
    18
100
AcDbSpline
210
0.0
220
0.0
230
1.0
 70
     8
 71
     3
 72
    23
 73
    19
 74
     0
 42
0.000000001
 43
0.00000001
 40
0.0
 40
0.0
 40
0.0
 40
0.0
 40
0.023832736197129
 40
0.0475908496634888
 40
0.0713816358323075
 40
0.0953119506152744
 40
0.1194867997245596
 40
0.1788479974049737
 40
0.2404083636653671
 40
0.3001281000258153
 40
0.363175388373643
 40
0.4245210172933919
 40
0.4886406318269323
 40
0.5779375274245708
 40
0.6731827075686047
 40
0.7749667422911639
 40
0.88377373105821
 40
1.0
 40
1.0
 40
1.0
 40
1.0
 10
93.28718000555202
 20
246.2805276831241
 30
0.0
 10
93.23488090629066
 20
246.2810444064908
 30
0.0
 10
93.13044646158838
 20
246.2820762353108
 30
0.0
 10
92.97450988512036
 20
246.2903243888418
 30
0.0
 10
92.81978142066762
 20
246.3034694522663
 30
0.0
 10
92.66625270874931
 20
246.3219429122021
 30
0.0
 10
92.44095789066512
 20
246.3569684239723
 30
0.0
 10
92.147583328946
 20
246.4200270547503
 30
0.0
 10
91.80816811864179
 20
246.5214590550859
 30
0.0
 10
91.49067210735812
 20
246.6427056234302
 30
0.0
 10
91.20270010644143
 20
246.7765428827648
 30
0.0
 10
90.93578311512046
 20
246.9218052338374
 30
0.0
 10
90.66202118708097
 20
247.0930661810823
 30
0.0
 10
90.38385425836908
 20
247.2948333785081
 30
0.0
 10
90.10980161271124
 20
247.5255235165217
 30
0.0
 10
89.86283193044423
 20
247.7644735055443
 30
0.0
 10
89.63995907997862
 20
248.0086744933607
 30
0.0
 10
89.51928442628146
 20
248.1617687288399
 30
0.0
 10
89.45695779555201
 20
248.240839582488
 30
0.0
  0
LINE
  5
238
330
1F
100
AcDbEntity
  8
0
  6
Continuous
 62
     8
370
    18
100
AcDbLine
 10
126.4893355156
 20
246.2805266652
 30
0.0
 11
93.2871790911
 21
246.2805266652
 31
0.0
  0
SPLINE
  5
239
330
1F
100
AcDbEntity
  8
0
  6
Continuous
 62
     8
370
    18
100
AcDbSpline
210
0.0
220
0.0
230
1.0
 70
     8
 71
     3
 72
    20
 73
    16
 74
     0
 42
0.000000001
 43
0.00000001
 40
0.0
 40
0.0
 40
0.0
 40
0.0
 40
0.0638908133259945
 40
0.1274840603164663
 40
0.1907920116328567
 40
0.2538271045472996
 40
0.3166019385125435
 40
0.3791292703106027
 40
0.4414220087799319
 40
0.5034932091231242
 40
0.6033020096911024
 40
0.7028003539311269
 40
0.8020447690404445
 40
0.9010922169756663
 40
0.9999999999999999
 40
0.9999999999999999
 40
0.9999999999999999
 40
0.9999999999999999
 10
239.456957795552
 20
248.2408395824891
 30
0.0
 10
239.4222501265721
 20
248.2862403781963
 30
0.0
 10
239.3529964367949
 20
248.3768305190485
 30
0.0
 10
239.2571334335518
 20
248.5022393663035
 30
0.0
 10
239.1674721234101
 20
248.6195316458702
 30
0.0
 10
239.0845620284087
 20
248.7279848931164
 30
0.0
 10
239.0082570053071
 20
248.8277881504413
 30
0.0
 10
238.9385958256695
 20
248.9188928227968
 30
0.0
 10
238.8755689898634
 20
249.0013168088511
 30
0.0
 10
238.8076855772634
 20
249.0900979325899
 30
0.0
 10
238.7404102525312
 20
249.1781151145721
 30
0.0
 10
238.680370156369
 20
249.2566709626144
 30
0.0
 10
238.6377932335075
 20
249.3123629611302
 30
0.0
 10
238.6111141014358
 20
249.3472342771102
 30
0.0
 10
238.6078114341277
 20
249.3515447160592
 30
0.0
 10
238.6061612655521
 20
249.3536984149447
 30
0.0
  0
SPLINE
  5
23A
330
1F
100
AcDbEntity
  8
0
  6
Continuous
 62
     8
370
    18
100
AcDbSpline
210
0.0
220
0.0
230
1.0
 70
     8
 71
     3
 72
    23
 73
    19
 74
     0
 42
0.000000001
 43
0.00000001
 40
0.0
 40
0.0
 40
0.0
 40
0.0
 40
0.023618966912198
 40
0.0472285771449705
 40
0.0709347811252511
 40
0.0948422450497157
 40
0.1190530249747898
 40
0.1784286835663116
 40
0.2401307076328174
 40
0.3003641810180225
 40
0.3635001234141629
 40
0.4245245596011029
 40
0.4886171529946524
 40
0.577906757916533
 40
0.6731501997146051
 40
0.7749385756702091
 40
0.8837563289763023
 40
1.0
 40
1.0
 40
1.0
 40
1.0
 10
243.287180005552
 20
246.2805276831251
 30
0.0
 10
243.2353511243671
 20
246.2810427649725
 30
0.0
 10
243.1317138940649
 20
246.2820727246168
 30
0.0
 10
242.9767605978044
 20
246.2902853567305
 30
0.0
 10
242.8225842327447
 20
246.3033629426527
 30
0.0
 10
242.6691832079003
 20
246.3217497703963
 30
0.0
 10
242.4436728842044
 20
246.356512029888
 30
0.0
 10
242.1496297107913
 20
246.4193748073342
 30
0.0
 10
241.8090855522893
 20
246.5213055085559
 30
0.0
 10
241.4902731616497
 20
246.6429978322798
 30
0.0
 10
241.2016687256477
 20
246.7769358925099
 30
0.0
 10
240.9353548815387
 20
246.922077171175
 30
0.0
 10
240.6621542390687
 20
247.0930771188776
 30
0.0
 10
240.3839284382456
 20
247.2947845988206
 30
0.0
 10
240.1098735369775
 20
247.5254686878817
 30
0.0
 10
239.8628758852575
 20
247.7644240609352
 30
0.0
 10
239.6399803839584
 20
248.0086476032116
 30
0.0
 10
239.5192926913571
 20
248.1617582900591
 30
0.0
 10
239.456957795552
 20
248.2408395824891
 30
0.0
  0
LINE
  5
23B
330
1F
100
AcDbEntity
  8
0
  6
Continuous
 62
     8
370
    18
100
AcDbLine
 10
276.4893340255
 20
246.2805266652
 30
0.0
 11
243.287177601
 21
246.2805266652
 31
0.0
  0
SPLINE
  5
23C
330
1F
100
AcDbEntity
  8
0
  6
Continuous
 62
     8
370
    18
100
AcDbSpline
210
0.0
220
0.0
230
1.0
 70
     8
 71
     3
 72
    21
 73
    17
 74
     0
 42
0.000000001
 43
0.00000001
 40
0.0
 40
0.0
 40
0.0
 40
0.0
 40
0.0624999999999994
 40
0.1249999999999991
 40
0.1249999999999991
 40
0.1874999999999987
 40
0.1874999999999987
 40
0.2499999999999982
 40
0.2499999999999982
 40
0.500000000000001
 40
0.500000000000001
 40
0.6250000000000007
 40
0.6250000000000007
 40
0.7500000000000003
 40
0.7500000000000003
 40
1.0
 40
1.0
 40
1.0
 40
1.0
 10
276.4893340655521
 20
246.280527684945
 30
0.0
 10
276.6212900962139
 20
246.280527684945
 30
0.0
 10
276.8849260475092
 20
246.2921384950586
 30
0.0
 10
277.1363861927008
 20
246.3247144473799
 30
0.0
 10
277.3861529952545
 20
246.3678109062151
 30
0.0
 10
277.5092411188822
 20
246.3944047463392
 30
0.0
 10
277.7446387179255
 20
246.454657861238
 30
0.0
 10
277.8578967995273
 20
246.4885317785282
 30
0.0
 10
278.4029855091446
 20
246.6733665475363
 30
0.0
 10
278.7732867466447
 20
246.8706840833586
 30
0.0
 10
279.2306814514027
 20
247.1746948212556
 30
0.0
 10
279.3686789196973
 20
247.2786473806109
 30
0.0
 10
279.6180867714695
 20
247.4841727485855
 30
0.0
 10
279.7288207589433
 20
247.5854671122533
 30
0.0
 10
280.0294277749016
 20
247.8817492224785
 30
0.0
 10
280.1881904548929
 20
248.0690101640832
 30
0.0
 10
280.319556275552
 20
248.240839584945
 30
0.0
  0
SPLINE
  5
23D
330
1F
100
AcDbEntity
  8
0
  6
Continuous
 62
     8
370
    18
100
AcDbSpline
210
0.0
220
0.0
230
1.0
 70
     8
 71
     3
 72
     8
 73
     4
 74
     0
 42
0.000000001
 43
0.00000001
 40
0.0
 40
0.0
 40
0.0
 40
0.0
 40
1.0
 40
1.0
 40
1.0
 40
1.0
 10
280.319556275552
 20
248.240839584945
 30
0.0
 10
280.882038771485
 20
248.9765791919461
 30
0.0
 10
281.1703528421668
 20
249.3537004028379
 30
0.0
 10
281.1703528055521
 20
249.353700354945
 30
0.0
  0
LINE
  5
23E
330
1F
100
AcDbEntity
  8
0
  6
Continuous
 62
     8
370
    18
100
AcDbLine
 10
283.8882597472
 20
204.3549138282
 30
0.0
 11
283.8882597472
 21
229.3296639502
 31
0.0
  0
LINE
  5
23F
330
1F
100
AcDbEntity
  8
0
  6
Continuous
 62
     8
370
    18
100
AcDbLine
 10
125.8882562007
 20
276.7536974672
 30
0.0
 11
93.8882546808
 21
276.7536974672
 31
0.0
  0
LINE
  5
240
330
1F
100
AcDbEntity
  8
0
  6
Continuous
 62
     8
370
    18
100
AcDbLine
 10
275.8882584359
 20
276.7536974672
 30
0.0
 11
243.8882606412
 21
276.7536974672
 31
0.0
  0
LINE
  5
241
330
1F
100
AcDbEntity
  8
0
  6
Continuous
 62
     8
370
    18
100
AcDbLine
 10
93.8882546808
 20
265.3536982063
 30
0.0
 11
125.8882562007
 21
265.3536982063
 31
0.0
  0
LINE
  5
242
330
1F
100
AcDbEntity
  8
0
  6
Continuous
 62
     8
370
    18
100
AcDbLine
 10
243.8882606412
 20
265.3536982063
 30
0.0
 11
275.8882584359
 21
265.3536982063
 31
0.0
  0
LINE
  5
243
330
1F
100
AcDbEntity
  8
0
  6
Continuous
 62
     8
370
    18
100
AcDbLine
 10
167.3882571823
 20
165.4727234665
 30
0.0
 11
179.7776518698
 21
165.4727234665
 31
0.0
  0
LINE
  5
244
330
1F
100
AcDbEntity
  8
0
  6
Continuous
 62
     8
370
    18
100
AcDbLine
 10
189.7776516463
 20
165.4727234665
 30
0.0
 11
202.3882566328
 21
165.4727234665
 31
0.0
  0
LINE
  5
245
330
1F
100
AcDbEntity
  8
0
  6
Continuous
 62
     8
370
    18
100
AcDbLine
 10
126.4893355156
 20
246.2805285279
 30
0.0
 11
126.4893355156
 21
246.5536984775
 31
0.0
  0
LINE
  5
246
330
1F
100
AcDbEntity
  8
0
  6
Continuous
 62
     8
370
    18
100
AcDbLine
 10
93.2871790911
 20
246.2805285279
 30
0.0
 11
93.2871790911
 21
246.5536984775
 31
0.0
  0
LINE
  5
247
330
1F
100
AcDbEntity
  8
0
  6
Continuous
 62
     8
370
    18
100
AcDbLine
 10
243.287177601
 20
246.5536984775
 30
0.0
 11
243.287177601
 21
246.2805285279
 31
0.0
  0
LINE
  5
248
330
1F
100
AcDbEntity
  8
0
  6
Continuous
 62
     8
370
    18
100
AcDbLine
 10
276.4893340255
 20
246.2805285279
 30
0.0
 11
276.4893340255
 21
246.5536984775
 31
0.0
  0
ARC
  5
249
330
1F
100
AcDbEntity
  8
0
  6
Continuous
 62
     8
370
    18
100
AcDbCircle
 10
89.6295869763
 20
246.4559794923
 30
0.0
 40
1.793189201620705
100
AcDbArc
 50
40.7008709581
 51
95.5244794642
  0
ARC
  5
24A
330
1F
100
AcDbEntity
  8
0
  6
Continuous
 62
     8
370
    18
100
AcDbCircle
 10
239.6295940265
 20
246.4559986608
 30
0.0
 40
1.793170227044114
100
AcDbArc
 50
40.7005845733
 51
95.5245730855
  0
ARC
  5
24B
330
1F
100
AcDbEntity
  8
0
  6
Continuous
 62
     8
370
    18
100
AcDbCircle
 10
130.1469233603
 20
246.4559890766
 30
0.0
 40
1.79317971427692
100
AcDbArc
 50
84.4754737247
 51
139.2992722346
  0
ARC
  5
24C
330
1F
100
AcDbEntity
  8
0
  6
Continuous
 62
     8
370
    18
100
AcDbCircle
 10
280.1469261404
 20
246.4559794923
 30
0.0
 40
1.79318920162072
100
AcDbArc
 50
84.4755205358
 51
139.2991290419
  0
ENDSEC
  0
SECTION
  2
OBJECTS
  0
DICTIONARY
  5
C
330
0
100
AcDbDictionary
281
     1
  3
ACAD_GROUP
350
D
  3
ACAD_LAYOUT
350
1A
  3
ACAD_MLINESTYLE
350
17
  3
ACAD_PLOTSETTINGS
350
19
  3
ACAD_PLOTSTYLENAME
350
E
  3
ACAD_SCALELIST
350
47
  0
DICTIONARY
  5
D
102
{ACAD_REACTORS
330
C
102
}
330
C
100
AcDbDictionary
281
     1
  0
DICTIONARY
  5
1A
102
{ACAD_REACTORS
330
C
102
}
330
C
100
AcDbDictionary
281
     1
  3
Layout1
350
1E
  3
Layout2
350
26
  3
Model
350
22
  0
DICTIONARY
  5
17
102
{ACAD_REACTORS
330
C
102
}
330
C
100
AcDbDictionary
281
     1
  3
Standard
350
18
  0
DICTIONARY
  5
19
102
{ACAD_REACTORS
330
C
102
}
330
C
100
AcDbDictionary
281
     1
  0
ACDBDICTIONARYWDFLT
  5
E
102
{ACAD_REACTORS
330
C
102
}
330
C
100
AcDbDictionary
281
     1
  3
Normal
350
F
100
AcDbDictionaryWithDefault
340
F
  0
DICTIONARY
  5
47
102
{ACAD_REACTORS
330
C
102
}
330
C
100
AcDbDictionary
281
     1
  3
A0
350
48
  3
A1
350
49
  3
A2
350
4A
  3
A3
350
4B
  3
A4
350
4C
  3
A5
350
4D
  3
A6
350
4E
  3
A7
350
4F
  3
A8
350
50
  3
A9
350
51
  3
B0
350
52
  3
B1
350
53
  3
B2
350
54
  3
B3
350
55
  3
B4
350
56
  3
B5
350
57
  3
B6
350
58
  3
B7
350
59
  3
B8
350
5A
  3
B9
350
5B
  3
C0
350
5C
  3
C1
350
5D
  3
C2
350
5E
  3
C3
350
5F
  3
C4
350
60
  3
C5
350
61
  3
C6
350
62
  3
C7
350
63
  3
C8
350
64
  3
C9
350
65
  3
D0
350
66
  3
D1
350
67
  3
D2
350
68
  0
LAYOUT
  5
1E
102
{ACAD_REACTORS
330
1A
102
}
330
1A
100
AcDbPlotSettings
  1

  2
none_device
  4

  6

 40
0.0
 41
0.0
 42
0.0
 43
0.0
 44
0.0
 45
0.0
 46
0.0
 47
0.0
 48
0.0
 49
0.0
140
0.0
141
0.0
142
1.0
143
1.0
 70
   688
 72
     1
 73
     0
 74
     5
  7

 75
    16
147
1.0
148
0.0
149
0.0
100
AcDbLayout
  1
Layout1
 70
     1
 71
     1
 10
0.0
 20
0.0
 11
420.0
 21
297.0
 12
0.0
 22
0.0
 32
0.0
 14
1.0000000000E+20
 24
1.0000000000E+20
 34
1.0000000000E+20
 15
-1.0000000000E+20
 25
-1.0000000000E+20
 35
-1.0000000000E+20
146
0.0
 13
0.0
 23
0.0
 33
0.0
 16
1.0
 26
0.0
 36
0.0
 17
0.0
 27
1.0
 37
0.0
 76
     0
330
1B
  0
LAYOUT
  5
26
102
{ACAD_REACTORS
330
1A
102
}
330
1A
100
AcDbPlotSettings
  1

  2
none_device
  4

  6

 40
0.0
 41
0.0
 42
0.0
 43
0.0
 44
0.0
 45
0.0
 46
0.0
 47
0.0
 48
0.0
 49
0.0
140
0.0
141
0.0
142
1.0
143
1.0
 70
   688
 72
     1
 73
     0
 74
     5
  7

 75
    16
147
1.0
148
0.0
149
0.0
100
AcDbLayout
  1
Layout2
 70
     1
 71
     2
 10
0.0
 20
0.0
 11
0.0
 21
0.0
 12
0.0
 22
0.0
 32
0.0
 14
0.0
 24
0.0
 34
0.0
 15
0.0
 25
0.0
 35
0.0
146
0.0
 13
0.0
 23
0.0
 33
0.0
 16
1.0
 26
0.0
 36
0.0
 17
0.0
 27
1.0
 37
0.0
 76
     0
330
23
  0
LAYOUT
  5
22
102
{ACAD_REACTORS
330
1A
102
}
330
1A
100
AcDbPlotSettings
  1

  2
none_device
  4
Letter_(8.50_x_11.00_Inches)
  6

 40
6.35
 41
6.35
 42
6.35000508
 43
6.35000508
 44
215.9
 45
279.4
 46
0.0
 47
0.0
 48
0.0
 49
0.0
140
0.0
141
0.0
142
1.0
143
1.0
 70
  1712
 72
     1
 73
     0
 74
     0
  7

 75
     0
147
1.0
148
0.0
149
0.0
100
AcDbLayout
  1
Model
 70
     1
 71
     0
 10
0.0
 20
0.0
 11
594.0
 21
841.0
 12
0.0
 22
0.0
 32
0.0
 14
0.0
 24
0.0
 34
0.0
 15
594.0
 25
841.0
 35
0.0
146
0.0
 13
0.0
 23
0.0
 33
0.0
 16
1.0
 26
0.0
 36
0.0
 17
0.0
 27
1.0
 37
0.0
 76
     0
330
1F
331
29
  0
MLINESTYLE
  5
18
102
{ACAD_REACTORS
330
17
102
}
330
17
100
AcDbMlineStyle
  2
Standard
 70
     0
  3

 62
   256
 51
90.0
 52
90.0
 71
     2
 49
0.5
 62
   256
  6
BYLAYER
 49
-0.5
 62
   256
  6
BYLAYER
  0
ACDBPLACEHOLDER
  5
F
102
{ACAD_REACTORS
330
E
102
}
330
E
  0
SCALE
  5
48
102
{ACAD_REACTORS
330
47
102
}
330
47
100
AcDbScale
 70
     0
300
1:1
140
1.0
141
1.0
290
     1
  0
SCALE
  5
49
102
{ACAD_REACTORS
330
47
102
}
330
47
100
AcDbScale
 70
     0
300
1:2
140
1.0
141
2.0
290
     0
  0
SCALE
  5
4A
102
{ACAD_REACTORS
330
47
102
}
330
47
100
AcDbScale
 70
     0
300
1:4
140
1.0
141
4.0
290
     0
  0
SCALE
  5
4B
102
{ACAD_REACTORS
330
47
102
}
330
47
100
AcDbScale
 70
     0
300
1:5
140
1.0
141
5.0
290
     0
  0
SCALE
  5
4C
102
{ACAD_REACTORS
330
47
102
}
330
47
100
AcDbScale
 70
     0
300
1:8
140
1.0
141
8.0
290
     0
  0
SCALE
  5
4D
102
{ACAD_REACTORS
330
47
102
}
330
47
100
AcDbScale
 70
     0
300
1:10
140
1.0
141
10.0
290
     0
  0
SCALE
  5
4E
102
{ACAD_REACTORS
330
47
102
}
330
47
100
AcDbScale
 70
     0
300
1:16
140
1.0
141
16.0
290
     0
  0
SCALE
  5
4F
102
{ACAD_REACTORS
330
47
102
}
330
47
100
AcDbScale
 70
     0
300
1:20
140
1.0
141
20.0
290
     0
  0
SCALE
  5
50
102
{ACAD_REACTORS
330
47
102
}
330
47
100
AcDbScale
 70
     0
300
1:30
140
1.0
141
30.0
290
     0
  0
SCALE
  5
51
102
{ACAD_REACTORS
330
47
102
}
330
47
100
AcDbScale
 70
     0
300
1:40
140
1.0
141
40.0
290
     0
  0
SCALE
  5
52
102
{ACAD_REACTORS
330
47
102
}
330
47
100
AcDbScale
 70
     0
300
1:50
140
1.0
141
50.0
290
     0
  0
SCALE
  5
53
102
{ACAD_REACTORS
330
47
102
}
330
47
100
AcDbScale
 70
     0
300
1:100
140
1.0
141
100.0
290
     0
  0
SCALE
  5
54
102
{ACAD_REACTORS
330
47
102
}
330
47
100
AcDbScale
 70
     0
300
2:1
140
2.0
141
1.0
290
     0
  0
SCALE
  5
55
102
{ACAD_REACTORS
330
47
102
}
330
47
100
AcDbScale
 70
     0
300
4:1
140
4.0
141
1.0
290
     0
  0
SCALE
  5
56
102
{ACAD_REACTORS
330
47
102
}
330
47
100
AcDbScale
 70
     0
300
8:1
140
8.0
141
1.0
290
     0
  0
SCALE
  5
57
102
{ACAD_REACTORS
330
47
102
}
330
47
100
AcDbScale
 70
     0
300
10:1
140
10.0
141
1.0
290
     0
  0
SCALE
  5
58
102
{ACAD_REACTORS
330
47
102
}
330
47
100
AcDbScale
 70
     0
300
100:1
140
100.0
141
1.0
290
     0
  0
SCALE
  5
59
102
{ACAD_REACTORS
330
47
102
}
330
47
100
AcDbScale
 70
     0
300
1/128" = 1'-0"
140
0.0078125
141
12.0
290
     0
  0
SCALE
  5
5A
102
{ACAD_REACTORS
330
47
102
}
330
47
100
AcDbScale
 70
     0
300
1/64" = 1'-0"
140
0.015625
141
12.0
290
     0
  0
SCALE
  5
5B
102
{ACAD_REACTORS
330
47
102
}
330
47
100
AcDbScale
 70
     0
300
1/32" = 1'-0"
140
0.03125
141
12.0
290
     0
  0
SCALE
  5
5C
102
{ACAD_REACTORS
330
47
102
}
330
47
100
AcDbScale
 70
     0
300
1/16" = 1'-0"
140
0.0625
141
12.0
290
     0
  0
SCALE
  5
5D
102
{ACAD_REACTORS
330
47
102
}
330
47
100
AcDbScale
 70
     0
300
3/32" = 1'-0"
140
0.09375
141
12.0
290
     0
  0
SCALE
  5
5E
102
{ACAD_REACTORS
330
47
102
}
330
47
100
AcDbScale
 70
     0
300
1/8" = 1'-0"
140
0.125
141
12.0
290
     0
  0
SCALE
  5
5F
102
{ACAD_REACTORS
330
47
102
}
330
47
100
AcDbScale
 70
     0
300
3/16" = 1'-0"
140
0.1875
141
12.0
290
     0
  0
SCALE
  5
60
102
{ACAD_REACTORS
330
47
102
}
330
47
100
AcDbScale
 70
     0
300
1/4" = 1'-0"
140
0.25
141
12.0
290
     0
  0
SCALE
  5
61
102
{ACAD_REACTORS
330
47
102
}
330
47
100
AcDbScale
 70
     0
300
3/8" = 1'-0"
140
0.375
141
12.0
290
     0
  0
SCALE
  5
62
102
{ACAD_REACTORS
330
47
102
}
330
47
100
AcDbScale
 70
     0
300
1/2" = 1'-0"
140
0.5
141
12.0
290
     0
  0
SCALE
  5
63
102
{ACAD_REACTORS
330
47
102
}
330
47
100
AcDbScale
 70
     0
300
3/4" = 1'-0"
140
0.75
141
12.0
290
     0
  0
SCALE
  5
64
102
{ACAD_REACTORS
330
47
102
}
330
47
100
AcDbScale
 70
     0
300
1" = 1'-0"
140
1.0
141
12.0
290
     0
  0
SCALE
  5
65
102
{ACAD_REACTORS
330
47
102
}
330
47
100
AcDbScale
 70
     0
300
1-1/2" = 1'-0"
140
1.5
141
12.0
290
     0
  0
SCALE
  5
66
102
{ACAD_REACTORS
330
47
102
}
330
47
100
AcDbScale
 70
     0
300
3" = 1'-0"
140
3.0
141
12.0
290
     0
  0
SCALE
  5
67
102
{ACAD_REACTORS
330
47
102
}
330
47
100
AcDbScale
 70
     0
300
6" = 1'-0"
140
6.0
141
12.0
290
     0
  0
SCALE
  5
68
102
{ACAD_REACTORS
330
47
102
}
330
47
100
AcDbScale
 70
     0
300
1'-0" = 1'-0"
140
12.0
141
12.0
290
     0
  0
ENDSEC
  0
EOF
