  0
SECTION
  2
HEADER
  9
$ACADVER
  1
AC1014
  9
$ACADMAINTVER
 70
     9
  9
$DWGCODEPAGE
  3
ANSI_1252
  9
$INSBASE
 10
0.0
 20
0.0
 30
0.0
  9
$EXTMIN
 10
0.0
 20
0.0
 30
0.0
  9
$EXTMAX
 10
594.0
 20
841.0
 30
0.0
  9
$LIMMIN
 10
0.0
 20
0.0
  9
$LIMMAX
 10
594.0
 20
841.0
  9
$ORTHOMODE
 70
     0
  9
$REGENMODE
 70
     1
  9
$FILLMODE
 70
     1
  9
$QTEXTMODE
 70
     0
  9
$MIRRTEXT
 70
     1
  9
$DRAGMODE
 70
     2
  9
$LTSCALE
 40
1.0
  9
$OSMODE
 70
    37
  9
$ATTMODE
 70
     1
  9
$TEXTSIZE
 40
10.0
  9
$TRACEWID
 40
1.0
  9
$TEXTSTYLE
  7
STANDARD
  9
$CLAYER
  8
0
  9
$CELTYPE
  6
BYLAYER
  9
$CECOLOR
 62
   256
  9
$CELTSCALE
 40
1.0
  9
$DELOBJ
 70
     1
  9
$DISPSILH
 70
     0
  9
$DIMSCALE
 40
1.0
  9
$DIMASZ
 40
2.5
  9
$DIMEXO
 40
0.0
  9
$DIMDLI
 40
3.75
  9
$DIMRND
 40
0.0
  9
$DIMDLE
 40
0.0
  9
$DIMEXE
 40
1.0
  9
$DIMTP
 40
0.0
  9
$DIMTM
 40
0.0
  9
$DIMTXT
 40
3.5
  9
$DIMCEN
 40
2.5
  9
$DIMTSZ
 40
0.0
  9
$DIMTOL
 70
     0
  9
$DIMLIM
 70
     0
  9
$DIMTIH
 70
     1
  9
$DIMTOH
 70
     1
  9
$DIMSE1
 70
     0
  9
$DIMSE2
 70
     0
  9
$DIMTAD
 70
     1
  9
$DIMZIN
 70
     0
  9
$DIMBLK
  1

  9
$DIMASO
 70
     1
  9
$DIMSHO
 70
     1
  9
$DIMPOST
  1

  9
$DIMAPOST
  1

  9
$DIMALT
 70
     0
  9
$DIMALTD
 70
     3
  9
$DIMALTF
 40
0.0393700787
  9
$DIMLFAC
 40
1.0
  9
$DIMTOFL
 70
     1
  9
$DIMTVP
 40
0.0
  9
$DIMTIX
 70
     0
  9
$DIMSOXD
 70
     0
  9
$DIMSAH
 70
     0
  9
$DIMBLK1
  1

  9
$DIMBLK2
  1

  9
$DIMSTYLE
  2
ISO-25
  9
$DIMCLRD
 70
     0
  9
$DIMCLRE
 70
     0
  9
$DIMCLRT
 70
     0
  9
$DIMTFAC
 40
1.0
  9
$DIMGAP
 40
1.5
  9
$DIMJUST
 70
     0
  9
$DIMSD1
 70
     0
  9
$DIMSD2
 70
     0
  9
$DIMTOLJ
 70
     0
  9
$DIMTZIN
 70
     0
  9
$DIMALTZ
 70
     0
  9
$DIMALTTZ
 70
     0
  9
$DIMFIT
 70
     3
  9
$DIMUPT
 70
     0
  9
$DIMUNIT
 70
     2
  9
$DIMDEC
 70
     2
  9
$DIMTDEC
 70
     2
  9
$DIMALTU
 70
     2
  9
$DIMALTTD
 70
     3
  9
$DIMTXSTY
  7
STANDARD
  9
$DIMAUNIT
 70
     0
  9
$LUNITS
 70
     2
  9
$LUPREC
 70
     2
  9
$SKETCHINC
 40
1.0
  9
$FILLETRAD
 40
10.0
  9
$AUNITS
 70
     0
  9
$AUPREC
 70
     2
  9
$MENU
  1
.
  9
$ELEVATION
 40
0.0
  9
$PELEVATION
 40
0.0
  9
$THICKNESS
 40
0.0
  9
$LIMCHECK
 70
     0
  9
$CHAMFERA
 40
0.0
  9
$CHAMFERB
 40
0.0
  9
$CHAMFERC
 40
0.0
  9
$CHAMFERD
 40
0.0
  9
$SKPOLY
 70
     0
  9
$TDCREATE
 40
2456994.486544086
  9
$TDUPDATE
 40
2456994.486544444
  9
$TDINDWG
 40
0.0000000116
  9
$TDUSRTIMER
 40
0.0000000116
  9
$USRTIMER
 70
     1
  9
$ANGBASE
 50
0.0
  9
$ANGDIR
 70
     0
  9
$PDMODE
 70
     0
  9
$PDSIZE
 40
-1.0
  9
$PLINEWID
 40
0.0
  9
$COORDS
 70
     1
  9
$SPLFRAME
 70
     0
  9
$SPLINETYPE
 70
     6
  9
$SPLINESEGS
 70
     8
  9
$ATTDIA
 70
     0
  9
$ATTREQ
 70
     1
  9
$HANDLING
 70
     1
  9
$HANDSEED
  5
13A
  9
$SURFTAB1
 70
     6
  9
$SURFTAB2
 70
     6
  9
$SURFTYPE
 70
     6
  9
$SURFU
 70
     6
  9
$SURFV
 70
     6
  9
$UCSNAME
  2

  9
$UCSORG
 10
0.0
 20
0.0
 30
0.0
  9
$UCSXDIR
 10
1.0
 20
0.0
 30
0.0
  9
$UCSYDIR
 10
0.0
 20
1.0
 30
0.0
  9
$PUCSNAME
  2

  9
$PUCSORG
 10
0.0
 20
0.0
 30
0.0
  9
$PUCSXDIR
 10
1.0
 20
0.0
 30
0.0
  9
$PUCSYDIR
 10
0.0
 20
1.0
 30
0.0
  9
$USERI1
 70
     0
  9
$USERI2
 70
     0
  9
$USERI3
 70
     0
  9
$USERI4
 70
     0
  9
$USERI5
 70
     0
  9
$USERR1
 40
0.0
  9
$USERR2
 40
0.0
  9
$USERR3
 40
0.0
  9
$USERR4
 40
0.0
  9
$USERR5
 40
0.0
  9
$WORLDVIEW
 70
     1
  9
$SHADEDGE
 70
     3
  9
$SHADEDIF
 70
    70
  9
$TILEMODE
 70
     1
  9
$MAXACTVP
 70
    64
  9
$PINSBASE
 10
0.0
 20
0.0
 30
0.0
  9
$PLIMCHECK
 70
     0
  9
$PEXTMIN
 10
1.0000000000E+20
 20
1.0000000000E+20
 30
1.0000000000E+20
  9
$PEXTMAX
 10
-1.0000000000E+20
 20
-1.0000000000E+20
 30
-1.0000000000E+20
  9
$PLIMMIN
 10
0.0
 20
0.0
  9
$PLIMMAX
 10
420.0
 20
297.0
  9
$UNITMODE
 70
     0
  9
$VISRETAIN
 70
     1
  9
$PLINEGEN
 70
     0
  9
$PSLTSCALE
 70
     1
  9
$TREEDEPTH
 70
  3020
  9
$PICKSTYLE
 70
     1
  9
$CMLSTYLE
  2
STANDARD
  9
$CMLJUST
 70
     0
  9
$CMLSCALE
 40
20.0
  9
$PROXYGRAPHICS
 70
     1
  9
$MEASUREMENT
 70
     1
  0
ENDSEC
  0
SECTION
  2
CLASSES
  0
CLASS
  1
ACDBDICTIONARYWDFLT
  2
AcDbDictionaryWithDefault
  3
ObjectDBX Classes
 90
        0
280
     0
281
     0
  0
CLASS
  1
VISUALSTYLE
  2
AcDbVisualStyle
  3
ObjectDBX Classes
 90
     4095
280
     0
281
     0
  0
CLASS
  1
MATERIAL
  2
AcDbMaterial
  3
ObjectDBX Classes
 90
     1153
280
     0
281
     0
  0
CLASS
  1
SCALE
  2
AcDbScale
  3
ObjectDBX Classes
 90
     1153
280
     0
281
     0
  0
CLASS
  1
SUN
  2
AcDbSun
  3
SCENEOE
 90
     1153
280
     0
281
     0
  0
CLASS
  1
XRECORD
  2
AcDbXrecord
  3
ObjectDBX Classes
 90
        0
280
     0
281
     0
  0
CLASS
  1
LWPOLYLINE
  2
AcDbPolyline
  3
ObjectDBX Classes
 90
        0
280
     0
281
     1
  0
CLASS
  1
HATCH
  2
AcDbHatch
  3
ObjectDBX Classes
 90
        0
280
     0
281
     1
  0
ENDSEC
  0
SECTION
  2
TABLES
  0
TABLE
  2
VPORT
  5
8
330
0
100
AcDbSymbolTable
 70
     1
  0
VPORT
  5
29
330
8
100
AcDbSymbolTableRecord
100
AcDbViewportTableRecord
  2
*ACTIVE
 70
     0
 10
0.0
 20
0.0
 11
1.0
 21
1.0
 12
297.0
 22
420.5
 13
0.0
 23
0.0
 14
10.0
 24
10.0
 15
10.0
 25
10.0
 16
0.0
 26
0.0
 36
1.0
 17
0.0
 27
0.0
 37
0.0
 40
841.0
 41
0.7063020214
 42
50.0
 43
0.0
 44
0.0
 50
0.0
 51
0.0
 71
     0
 72
  2000
 73
     1
 74
     3
 75
     0
 76
     0
 77
     0
 78
     0
  0
ENDTAB
  0
TABLE
  2
LTYPE
  5
5
330
0
100
AcDbSymbolTable
 70
     6
  0
LTYPE
  5
14
330
5
100
AcDbSymbolTableRecord
100
AcDbLinetypeTableRecord
  2
BYBLOCK
 70
     0
  3

 72
    65
 73
     0
 40
0.0
  0
LTYPE
  5
15
330
5
100
AcDbSymbolTableRecord
100
AcDbLinetypeTableRecord
  2
BYLAYER
 70
     0
  3

 72
    65
 73
     0
 40
0.0
  0
LTYPE
  5
16
330
5
100
AcDbSymbolTableRecord
100
AcDbLinetypeTableRecord
  2
CONTINUOUS
 70
     0
  3
Solid line
 72
    65
 73
     0
 40
0.0
  0
LTYPE
  5
6A
330
5
100
AcDbSymbolTableRecord
100
AcDbLinetypeTableRecord
  2
HIDDEN
 70
     0
  3
Hidden __ __ __ __ __ __ __ __ __ __ __ __ __ __
 72
    65
 73
     2
 40
1.905
 49
1.27
 74
     0
 49
-0.635
 74
     0
  0
LTYPE
  5
6B
330
5
100
AcDbSymbolTableRecord
100
AcDbLinetypeTableRecord
  2
PHANTOM
 70
     0
  3
Phantom ______  __  __  ______  __  __  ______
 72
    65
 73
     6
 40
12.7
 49
6.35
 74
     0
 49
-1.27
 74
     0
 49
1.27
 74
     0
 49
-1.27
 74
     0
 49
1.27
 74
     0
 49
-1.27
 74
     0
  0
LTYPE
  5
6C
330
5
100
AcDbSymbolTableRecord
100
AcDbLinetypeTableRecord
  2
CENTER
 70
     0
  3
Center ____ _ ____ _ ____ _ ____ _ ____ _ ____
 72
    65
 73
     4
 40
10.16
 49
6.35
 74
     0
 49
-1.27
 74
     0
 49
1.27
 74
     0
 49
-1.27
 74
     0
  0
LTYPE
  5
6D
330
5
100
AcDbSymbolTableRecord
100
AcDbLinetypeTableRecord
  2
CENTERX2
 70
     0
  3
Center (2x) ________  __  ________  __  _____
 72
    65
 73
     4
 40
20.32
 49
12.7
 74
     0
 49
-2.54
 74
     0
 49
2.54
 74
     0
 49
-2.54
 74
     0
  0
LTYPE
  5
6E
330
5
100
AcDbSymbolTableRecord
100
AcDbLinetypeTableRecord
  2
DOT2
 70
     0
  3
Dot (.5x) ........................................
 72
    65
 73
     2
 40
0.635
 49
0.0
 74
     0
 49
-0.635
 74
     0
  0
ENDTAB
  0
TABLE
  2
LAYER
  5
2
330
0
100
AcDbSymbolTable
 70
     1
  0
LAYER
  5
10
330
2
100
AcDbSymbolTableRecord
100
AcDbLayerTableRecord
  2
0
 70
     0
 62
     7
  6
CONTINUOUS
  0
ENDTAB
  0
TABLE
  2
STYLE
  5
3
330
0
100
AcDbSymbolTable
 70
     3
  0
STYLE
  5
11
330
3
100
AcDbSymbolTableRecord
100
AcDbTextStyleTableRecord
  2
STANDARD
 70
     0
 40
0.0
 41
1.0
 50
0.0
 71
     0
 42
10.0
  3
txt
  4

  0
STYLE
  5
72
330
3
100
AcDbSymbolTableRecord
100
AcDbTextStyleTableRecord
  2
SLDTEXTSTYLE0
 70
     0
 40
0.0
 41
0.96
 50
0.0
 71
     0
 42
10.0
  3
ISOCP3
  4

  0
STYLE
  5
89
330
3
100
AcDbSymbolTableRecord
100
AcDbTextStyleTableRecord
  2
SLDTEXTSTYLE1
 70
     0
 40
0.0
 41
0.605
 50
0.0
 71
     0
 42
10.0
  3
TXT
  4

  0
ENDTAB
  0
TABLE
  2
VIEW
  5
6
330
0
100
AcDbSymbolTable
 70
     0
  0
ENDTAB
  0
TABLE
  2
UCS
  5
7
330
0
100
AcDbSymbolTable
 70
     0
  0
ENDTAB
  0
TABLE
  2
APPID
  5
9
330
0
100
AcDbSymbolTable
 70
     1
  0
APPID
  5
12
330
9
100
AcDbSymbolTableRecord
100
AcDbRegAppTableRecord
  2
ACAD
 70
     0
  0
ENDTAB
  0
TABLE
  2
DIMSTYLE
  5
A
330
0
100
AcDbSymbolTable
 70
     2
  0
DIMSTYLE
105
27
330
A
100
AcDbSymbolTableRecord
100
AcDbDimStyleTableRecord
  2
ISO-25
 70
     0
  3

  4

  5

  6

  7

 40
1.0
 41
2.5
 42
0.625
 43
3.75
 44
1.25
 45
0.0
 46
0.0
 47
0.0
 48
0.0
140
2.5
141
2.5
142
0.0
143
0.0393700787
144
1.0
145
0.0
146
1.0
147
0.625
 71
     0
 72
     0
 73
     0
 74
     0
 75
     0
 76
     0
 77
     1
 78
     8
170
     0
171
     3
172
     1
173
     0
174
     0
175
     0
176
     0
177
     0
178
     0
270
     2
271
     2
272
     2
273
     2
274
     3
340
11
275
     0
280
     0
281
     0
282
     0
283
     0
284
     8
285
     0
286
     0
287
     3
288
     0
  0
DIMSTYLE
105
73
102
{ACAD_REACTORS
330
71
330
7E
102
}
330
A
100
AcDbSymbolTableRecord
100
AcDbDimStyleTableRecord
  2
SLDDIMSTYLE0
 70
     0
  3

  4

  5

  6

  7

 40
1.0
 41
2.5
 42
0.0625
 43
0.38
 44
0.0
 45
0.000000001
 46
0.0
 47
0.0
 48
0.0
140
6.0
141
0.09
142
0.0
143
25.4
144
1.0
145
0.0
146
1.0
147
1.5
 71
     0
 72
     0
 73
     0
 74
     0
 75
     0
 76
     0
 77
     1
 78
    12
170
     0
171
     2
172
     0
173
     1
174
     0
175
     0
176
     0
177
     0
178
     0
270
     2
271
     2
272
     2
273
     2
274
     2
340
72
275
     0
280
     0
281
     0
282
     0
283
     1
284
    12
285
     0
286
     0
287
     3
288
     0
  0
ENDTAB
  0
TABLE
  2
BLOCK_RECORD
  5
1
330
0
100
AcDbSymbolTable
 70
     3
  0
BLOCK_RECORD
  5
1F
330
1
100
AcDbSymbolTableRecord
100
AcDbBlockTableRecord
  2
*MODEL_SPACE
  0
BLOCK_RECORD
  5
1B
330
1
100
AcDbSymbolTableRecord
100
AcDbBlockTableRecord
  2
*PAPER_SPACE
  0
BLOCK_RECORD
  5
23
330
1
100
AcDbSymbolTableRecord
100
AcDbBlockTableRecord
  2
*PAPER_SPACE0
  0
BLOCK_RECORD
  5
74
330
1
100
AcDbSymbolTableRecord
100
AcDbBlockTableRecord
  2
_D
  0
BLOCK_RECORD
  5
7F
330
1
100
AcDbSymbolTableRecord
100
AcDbBlockTableRecord
  2
_D_1
  0
ENDTAB
  0
ENDSEC
  0
SECTION
  2
BLOCKS
  0
BLOCK
  5
20
330
1F
100
AcDbEntity
  8
0
100
AcDbBlockBegin
  2
*MODEL_SPACE
 70
     0
 10
0.0
 20
0.0
 30
0.0
  3
*MODEL_SPACE
  1

  0
ENDBLK
  5
21
330
1F
100
AcDbEntity
  8
0
100
AcDbBlockEnd
  0
BLOCK
  5
1C
330
1B
100
AcDbEntity
 67
     1
  8
0
100
AcDbBlockBegin
  2
*PAPER_SPACE
 70
     0
 10
0.0
 20
0.0
 30
0.0
  3
*PAPER_SPACE
  1

  0
ENDBLK
  5
1D
330
1B
100
AcDbEntity
 67
     1
  8
0
100
AcDbBlockEnd
  0
BLOCK
  5
24
330
23
100
AcDbEntity
  8
0
100
AcDbBlockBegin
  2
*PAPER_SPACE0
 70
     0
 10
0.0
 20
0.0
 30
0.0
  3
*PAPER_SPACE0
  1
*PAPER_SPACE0
  0
ENDBLK
  5
25
330
23
100
AcDbEntity
  8
0
100
AcDbBlockEnd
  0
BLOCK
  5
75
330
74
100
AcDbEntity
  8
0
100
AcDbBlockBegin
  2
_D
 70
     0
 10
0.0
 20
0.0
 30
0.0
  3
_D
  1
_D
  0
SOLID
  5
77
330
74
100
AcDbEntity
  8
0
  6
CONTINUOUS
 62
     7
100
AcDbTrace
 10
42.7614395004
 20
152.0299240879
 30
0.0
 11
42.4614395004
 21
149.5299240879
 31
0.0
 12
43.0614395004
 22
149.5299240879
 32
0.0
 13
43.0614395004
 23
149.5299240879
 33
0.0
  0
SOLID
  5
78
330
74
100
AcDbEntity
  8
0
  6
CONTINUOUS
 62
     7
100
AcDbTrace
 10
42.7614395004
 20
52.0299240879
 30
0.0
 11
43.0614395004
 21
54.5299240879
 31
0.0
 12
42.4614395004
 22
54.5299240879
 32
0.0
 13
42.4614395004
 23
54.5299240879
 33
0.0
  0
LINE
  5
79
330
74
100
AcDbEntity
  8
0
  6
CONTINUOUS
 62
     7
100
AcDbLine
 10
56.6850079902
 20
152.0299240879
 30
0.0
 11
41.7614395004
 21
152.0299240879
 31
0.0
  0
LINE
  5
7A
330
74
100
AcDbEntity
  8
0
  6
CONTINUOUS
 62
     7
100
AcDbLine
 10
56.6850079902
 20
52.0299240879
 30
0.0
 11
41.7614395004
 21
52.0299240879
 31
0.0
  0
LINE
  5
7B
330
74
100
AcDbEntity
  8
0
  6
CONTINUOUS
 62
     7
100
AcDbLine
 10
42.7614395004
 20
152.0299240879
 30
0.0
 11
42.7614395004
 21
52.0299240879
 31
0.0
  0
MTEXT
  5
7C
330
74
100
AcDbEntity
  8
0
  6
CONTINUOUS
 62
     7
100
AcDbMText
 10
35.0270332946
 20
94.3680541463
 30
0.0
 40
6.0
 41
0.0
 71
     1
 72
     1
  1
100
  7
SLDTEXTSTYLE0
 11
-7.044195017643634E-15
 21
1.0
 31
0.0
  0
MTEXT
  5
7D
330
74
100
AcDbEntity
  8
0
  6
CONTINUOUS
 62
     7
100
AcDbMText
 10
35.0270332946
 20
105.7430548466
 30
0.0
 40
6.0
 41
0.0
 71
     1
 72
     1
  1
mm
  7
SLDTEXTSTYLE0
 11
-7.044195017643634E-15
 21
1.0
 31
0.0
  0
ENDBLK
  5
76
330
74
100
AcDbEntity
  8
0
100
AcDbBlockEnd
  0
BLOCK
  5
80
330
7F
100
AcDbEntity
  8
0
100
AcDbBlockBegin
  2
_D_1
 70
     0
 10
0.0
 20
0.0
 30
0.0
  3
_D_1
  1
_D_1
  0
SOLID
  5
82
330
7F
100
AcDbEntity
  8
0
  6
CONTINUOUS
 62
     7
100
AcDbTrace
 10
56.6850079902
 20
38.4602342313
 30
0.0
 11
59.1850079902
 21
38.1602342313
 31
0.0
 12
59.1850079902
 22
38.7602342313
 32
0.0
 13
59.1850079902
 23
38.7602342313
 33
0.0
  0
SOLID
  5
83
330
7F
100
AcDbEntity
  8
0
  6
CONTINUOUS
 62
     7
100
AcDbTrace
 10
156.6850079902
 20
38.4602342313
 30
0.0
 11
154.1850079902
 21
38.7602342313
 31
0.0
 12
154.1850079902
 22
38.1602342313
 32
0.0
 13
154.1850079902
 23
38.1602342313
 33
0.0
  0
LINE
  5
84
330
7F
100
AcDbEntity
  8
0
  6
CONTINUOUS
 62
     7
100
AcDbLine
 10
56.6850079902
 20
52.0299240879
 30
0.0
 11
56.6850079902
 21
37.4602342313
 31
0.0
  0
LINE
  5
85
330
7F
100
AcDbEntity
  8
0
  6
CONTINUOUS
 62
     7
100
AcDbLine
 10
156.6850079902
 20
52.0299240879
 30
0.0
 11
156.6850079902
 21
37.4602342313
 31
0.0
  0
LINE
  5
86
330
7F
100
AcDbEntity
  8
0
  6
CONTINUOUS
 62
     7
100
AcDbLine
 10
56.6850079902
 20
38.4602342313
 30
0.0
 11
156.6850079902
 21
38.4602342313
 31
0.0
  0
MTEXT
  5
87
330
7F
100
AcDbEntity
  8
0
  6
CONTINUOUS
 62
     7
100
AcDbMText
 10
93.9626484861
 20
46.1946404371
 30
0.0
 40
6.0
 41
0.0
 71
     1
 72
     1
  1
100
  7
SLDTEXTSTYLE0
  0
MTEXT
  5
88
330
7F
100
AcDbEntity
  8
0
  6
CONTINUOUS
 62
     7
100
AcDbMText
 10
105.3376491864
 20
46.1946404371
 30
0.0
 40
6.0
 41
0.0
 71
     1
 72
     1
  1
mm
  7
SLDTEXTSTYLE0
  0
ENDBLK
  5
81
330
7F
100
AcDbEntity
  8
0
100
AcDbBlockEnd
  0
ENDSEC
  0
SECTION
  2
ENTITIES
  0
LINE
  5
6F
330
1F
100
AcDbEntity
  8
0
  6
CONTINUOUS
 62
     7
100
AcDbLine
 10
56.6850079902
 20
152.0299240879
 30
0.0
 11
56.6850079902
 21
52.0299240879
 31
0.0
  0
LINE
  5
70
330
1F
100
AcDbEntity
  8
0
  6
CONTINUOUS
 62
     7
100
AcDbLine
 10
56.6850079902
 20
52.0299240879
 30
0.0
 11
156.6850079902
 21
52.0299240879
 31
0.0
  0
DIMENSION
  5
71
330
1F
100
AcDbEntity
  8
0
  6
CONTINUOUS
 62
     7
100
AcDbDimension
  2
_D
 10
42.7614395004
 20
52.0299240879
 30
0.0
 11
42.7614395004
 21
105.4472211621
 31
0.0
 70
   160
  1
<>mm
  3
SLDDIMSTYLE0
100
AcDbAlignedDimension
 13
56.6850079902
 23
152.0299240879
 33
0.0
 14
56.6850079902
 24
52.0299240879
 34
0.0
 50
90.0
100
AcDbRotatedDimension
  0
DIMENSION
  5
7E
330
1F
100
AcDbEntity
  8
0
  6
CONTINUOUS
 62
     7
100
AcDbDimension
  2
_D_1
 10
156.6850079902
 20
38.4602342313
 30
0.0
 11
105.0418155019
 21
38.4602342313
 31
0.0
 70
   160
  1
<>mm
  3
SLDDIMSTYLE0
100
AcDbAlignedDimension
 13
56.6850079902
 23
52.0299240879
 33
0.0
 14
156.6850079902
 24
52.0299240879
 34
0.0
100
AcDbRotatedDimension
  0
MTEXT
  5
8A
330
1F
100
AcDbEntity
  8
0
  6
CONTINUOUS
 62
     7
100
AcDbMText
 10
222.8856995391
 20
49.3034557666
 30
0.0
 40
10.0
 41
0.0
 71
     1
 72
     1
  1
38 925 05 76
  7
SLDTEXTSTYLE1
  0
MTEXT
  5
8B
330
1F
100
AcDbEntity
  8
0
  6
CONTINUOUS
 62
     7
100
AcDbMText
 10
412.8252631579
 20
48.4342449499
 30
0.0
 40
10.0
 41
0.0
 71
     1
 72
     1
  1
KLUDI GmbH & Co KG
  7
SLDTEXTSTYLE1
  0
SPLINE
  5
8C
330
1F
100
AcDbEntity
  8
0
  6
CONTINUOUS
 62
     7
100
AcDbSpline
210
0.0
220
0.0
230
1.0
 70
     8
 71
     3
 72
    14
 73
    10
 74
     0
 42
0.000000001
 43
0.00000001
 40
0.0
 40
0.0
 40
0.0
 40
0.0
 40
0.0090874250083
 40
0.1106513421635332
 40
0.2655512289236939
 40
0.4273750241901277
 40
0.6842617219346081
 40
0.9061355751767265
 40
0.9999999999999999
 40
0.9999999999999999
 40
0.9999999999999999
 40
0.9999999999999999
 10
204.9102638597462
 20
329.7911380489707
 30
0.0
 10
204.9153040401254
 20
329.7892246043077
 30
0.0
 10
204.9766748600438
 20
329.7659259008879
 30
0.0
 10
205.118153021198
 20
329.6949722173875
 30
0.0
 10
205.3239209891486
 20
329.5541751314278
 30
0.0
 10
205.565356113368
 20
329.310124391274
 30
0.0
 10
205.7546278183546
 20
328.9765359151131
 30
0.0
 10
205.8552164724418
 20
328.6427500404002
 30
0.0
 10
205.8423056336239
 20
328.4550701839677
 30
0.0
 10
205.8384674279206
 20
328.399275676305
 30
0.0
  0
SPLINE
  5
8D
330
1F
100
AcDbEntity
  8
0
  6
CONTINUOUS
 62
     7
100
AcDbSpline
210
0.0
220
0.0
230
1.0
 70
     8
 71
     3
 72
    14
 73
    10
 74
     0
 42
0.000000001
 43
0.00000001
 40
0.0
 40
0.0
 40
0.0
 40
0.0
 40
0.0553113954452352
 40
0.2779005750338748
 40
0.4726605382322877
 40
0.6439304360717847
 40
0.7920519197028936
 40
0.9154570093212305
 40
0.9999999999999999
 40
0.9999999999999999
 40
0.9999999999999999
 40
0.9999999999999999
 10
215.8644062440592
 20
328.3984694964556
 30
0.0
 10
215.8607949408851
 20
328.4301198103367
 30
0.0
 10
215.842650700975
 20
328.58914021394
 30
0.0
 10
215.9155162322275
 20
328.8596626029965
 30
0.0
 10
216.0519008558104
 20
329.1689415370564
 30
0.0
 10
216.2313706717247
 20
329.407204693403
 30
0.0
 10
216.419336085888
 20
329.5797679265191
 30
0.0
 10
216.5893656027091
 20
329.6953613384864
 30
0.0
 10
216.6974813408403
 20
329.7464058322252
 30
0.0
 10
216.7414366773262
 20
329.7671583881141
 30
0.0
  0
LINE
  5
8E
330
1F
100
AcDbEntity
  8
0
  6
CONTINUOUS
 62
     7
100
AcDbLine
 10
205.8533279602
 20
328.3987164334
 30
0.0
 11
205.8533279602
 21
267.0017465377
 31
0.0
  0
LINE
  5
8F
330
1F
100
AcDbEntity
  8
0
  6
CONTINUOUS
 62
     7
100
AcDbLine
 10
215.8533279602
 20
267.0017465377
 30
0.0
 11
215.8533279602
 21
328.3971022339
 31
0.0
  0
ARC
  5
90
330
1F
100
AcDbEntity
  8
0
  6
CONTINUOUS
 62
     7
100
AcDbCircle
 10
215.3533279602
 20
267.0017465377
 30
0.0
 40
0.5
100
AcDbArc
 50
270.0
 51
0.0
  0
ARC
  5
91
330
1F
100
AcDbEntity
  8
0
  6
CONTINUOUS
 62
     7
100
AcDbCircle
 10
206.3533279602
 20
267.0017465377
 30
0.0
 40
0.5
100
AcDbArc
 50
180.0
 51
270.0
  0
CIRCLE
  5
92
330
1F
100
AcDbEntity
  8
0
  6
CONTINUOUS
 62
     7
100
AcDbCircle
 10
210.8533279602
 20
351.5017465377
 30
0.0
 40
22.50000000000003
  0
LINE
  5
93
330
1F
100
AcDbEntity
  8
0
  6
CONTINUOUS
 62
     7
100
AcDbLine
 10
215.3533279602
 20
266.5017465377
 30
0.0
 11
206.3533281584
 21
266.5017465377
 31
0.0
  0
LINE
  5
94
330
1F
100
AcDbEntity
  8
0
  6
CONTINUOUS
 62
     7
100
AcDbLine
 10
214.8533279602
 20
329.3517465377
 30
0.0
 11
214.8064912505
 21
329.3517465377
 31
0.0
  0
ARC
  5
95
330
1F
100
AcDbEntity
  8
0
  6
CONTINUOUS
 62
     7
100
AcDbCircle
 10
210.8533279602
 20
351.5017465377
 30
0.0
 40
22.55
100
AcDbArc
 50
284.9704066106
 51
0.0
  0
ARC
  5
96
330
1F
100
AcDbEntity
  8
0
  6
CONTINUOUS
 62
     7
100
AcDbCircle
 10
210.8533279602
 20
351.5017465377
 30
0.0
 40
22.54999999999998
100
AcDbArc
 50
0.0
 51
254.7124925571
  0
ARC
  5
97
330
1F
100
AcDbEntity
  8
0
  6
CONTINUOUS
 62
     7
100
AcDbCircle
 10
210.8533279602
 20
351.5017465377
 30
0.0
 40
40.00000000000003
100
AcDbArc
 50
180.0
 51
262.8192442185
  0
ARC
  5
98
330
1F
100
AcDbEntity
  8
0
  6
CONTINUOUS
 62
     7
100
AcDbCircle
 10
210.8533279602
 20
351.5017465377
 30
0.0
 40
40.00000000000003
100
AcDbArc
 50
277.1807557815
 51
180.0
  0
CIRCLE
  5
99
330
1F
100
AcDbEntity
  8
0
  6
CONTINUOUS
 62
     8
100
AcDbCircle
 10
210.8533279602
 20
351.5017465377
 30
0.0
 40
21.96000000000001
  0
SPLINE
  5
9A
330
1F
100
AcDbEntity
  8
0
  6
CONTINUOUS
 62
     8
100
AcDbSpline
210
0.0
220
0.0
230
1.0
 70
     8
 71
     3
 72
    27
 73
    23
 74
     0
 42
0.000000001
 43
0.00000001
 40
0.0
 40
0.0
 40
0.0
 40
0.0
 40
0.0045671546995874
 40
0.0491294915210993
 40
0.1025219557934232
 40
0.1576276047064647
 40
0.2108569345937633
 40
0.2655987700269064
 40
0.3171859710247689
 40
0.37016171383642
 40
0.4210682743050193
 40
0.4734602781487525
 40
0.5256452154209948
 40
0.5795092669322476
 40
0.6330871184620681
 40
0.6883372613163132
 40
0.7411970411262758
 40
0.7955198484237185
 40
0.8466436401244578
 40
0.8991499773116111
 40
0.9488639722873188
 40
1.0
 40
1.0
 40
1.0
 40
1.0
 10
215.8488700460991
 20
328.397091959275
 30
0.0
 10
215.850322907945
 20
328.3976213243772
 30
0.0
 10
215.8659515363661
 20
328.4033157753014
 30
0.0
 10
215.7979371162324
 20
328.3784082780157
 30
0.0
 10
215.6156387113625
 20
328.3131140081877
 30
0.0
 10
215.2735324240809
 20
328.1976862808447
 30
0.0
 10
214.8072859275961
 20
328.0552726782936
 30
0.0
 10
214.2410673353793
 20
327.9045936507783
 30
0.0
 10
213.5831243262067
 20
327.7598366844212
 30
0.0
 10
212.8658159114181
 20
327.6380294267897
 30
0.0
 10
212.0876317932548
 20
327.5480185889238
 30
0.0
 10
211.2766176033887
 20
327.4999890421195
 30
0.0
 10
210.4370857890155
 20
327.4995431816556
 30
0.0
 10
209.6041194870919
 20
327.5487132682379
 30
0.0
 10
208.7953912248017
 20
327.6439855925971
 30
0.0
 10
208.0549984037108
 20
327.7730623438898
 30
0.0
 10
207.3941368980123
 20
327.9222373847745
 30
0.0
 10
206.8451657166512
 20
328.0711312540822
 30
0.0
 10
206.4037554979539
 20
328.2074505010383
 30
0.0
 10
206.0910040220349
 20
328.3131733104542
 30
0.0
 10
205.8909030988977
 20
328.3848743311045
 30
0.0
 10
205.8659701949865
 20
328.3940592288288
 30
0.0
 10
205.8533279601969
 20
328.3987164333791
 30
0.0
  0
LINE
  5
9B
330
1F
100
AcDbEntity
  8
0
  6
CONTINUOUS
 62
     8
100
AcDbLine
 10
205.8533279602
 20
267.0017465377
 30
0.0
 11
215.8533279602
 21
267.0017465377
 31
0.0
  0
ARC
  5
9C
330
1F
100
AcDbEntity
  8
0
  6
CONTINUOUS
 62
     8
100
AcDbCircle
 10
210.8533279602
 20
351.5017465377
 30
0.0
 40
39.00000000000004
100
AcDbArc
 50
180.0
 51
262.634114171
  0
ARC
  5
9D
330
1F
100
AcDbEntity
  8
0
  6
CONTINUOUS
 62
     8
100
AcDbCircle
 10
210.8533279602
 20
351.5017465377
 30
0.0
 40
39.00000000000004
100
AcDbArc
 50
277.365885829
 51
180.0
  0
LINE
  5
9E
330
1F
100
AcDbEntity
  8
0
  6
CONTINUOUS
 62
     7
100
AcDbLine
 10
346.5661407491
 20
391.5017465377
 30
0.0
 11
340.5661407491
 21
391.5017465377
 31
0.0
  0
LINE
  5
9F
330
1F
100
AcDbEntity
  8
0
  6
CONTINUOUS
 62
     7
100
AcDbLine
 10
340.5661407491
 20
311.5017465377
 30
0.0
 11
346.5661407491
 21
311.5017465377
 31
0.0
  0
ARC
  5
A0
330
1F
100
AcDbEntity
  8
0
  6
CONTINUOUS
 62
     7
100
AcDbCircle
 10
346.5661407491
 20
390.5017465377
 30
0.0
 40
1.0
100
AcDbArc
 50
0.0
 51
90.0
  0
ARC
  5
A1
330
1F
100
AcDbEntity
  8
0
  6
CONTINUOUS
 62
     7
100
AcDbCircle
 10
346.5661407491
 20
312.5017465377
 30
0.0
 40
1.0
100
AcDbArc
 50
270.0
 51
0.0
  0
ARC
  5
A2
330
1F
100
AcDbEntity
  8
0
  6
CONTINUOUS
 62
     7
100
AcDbCircle
 10
371.439799176
 20
372.9144781009
 30
0.0
 40
0.1000000000000047
100
AcDbArc
 50
170.0001748973
 51
250.5903481159
  0
LINE
  5
A3
330
1F
100
AcDbEntity
  8
0
  6
CONTINUOUS
 62
     7
100
AcDbLine
 10
347.5661407491
 20
328.9517465377
 30
0.0
 11
361.2471323703
 21
328.9517465377
 31
0.0
  0
LINE
  5
A4
330
1F
100
AcDbEntity
  8
0
  6
CONTINUOUS
 62
     7
100
AcDbLine
 10
361.2471323703
 20
374.0517465377
 30
0.0
 11
347.5661407491
 21
374.0517465377
 31
0.0
  0
ARC
  5
A5
330
1F
100
AcDbEntity
  8
0
  6
CONTINUOUS
 62
     7
100
AcDbCircle
 10
361.2471323703
 20
329.6517465377
 30
0.0
 40
0.7000000000000247
100
AcDbArc
 50
270.0
 51
319.0
  0
ARC
  5
A6
330
1F
100
AcDbEntity
  8
0
  6
CONTINUOUS
 62
     7
100
AcDbCircle
 10
361.2471323703
 20
373.3517465377
 30
0.0
 40
0.7000000000000247
100
AcDbArc
 50
41.0
 51
90.0
  0
LINE
  5
A7
330
1F
100
AcDbEntity
  8
0
  6
CONTINUOUS
 62
     7
100
AcDbLine
 10
393.5424375868
 20
329.0017465377
 30
0.0
 11
396.0261407491
 21
329.0017465377
 31
0.0
  0
LINE
  5
A8
330
1F
100
AcDbEntity
  8
0
  6
CONTINUOUS
 62
     7
100
AcDbLine
 10
379.8661407491
 20
329.0017465377
 30
0.0
 11
380.5860626318
 21
329.0017465377
 31
0.0
  0
LINE
  5
A9
330
1F
100
AcDbEntity
  8
0
  6
CONTINUOUS
 62
     7
100
AcDbLine
 10
367.6661407491
 20
329.0017465377
 30
0.0
 11
371.8661407491
 21
329.0017465377
 31
0.0
  0
LINE
  5
AA
330
1F
100
AcDbEntity
  8
0
  6
CONTINUOUS
 62
     7
100
AcDbLine
 10
396.0261407491
 20
374.0017465377
 30
0.0
 11
371.6138812386
 21
374.0017465377
 31
0.0
  0
ARC
  5
AB
330
1F
100
AcDbEntity
  8
0
  6
CONTINUOUS
 62
     7
100
AcDbCircle
 10
396.0261407491
 20
373.4617465377
 30
0.0
 40
0.5400000000000205
100
AcDbArc
 50
0.0
 51
90.0
  0
ARC
  5
AC
330
1F
100
AcDbEntity
  8
0
  6
CONTINUOUS
 62
     7
100
AcDbCircle
 10
396.0261407491
 20
329.5417465377
 30
0.0
 40
0.5400000000000205
100
AcDbArc
 50
270.0
 51
0.0
  0
LINE
  5
AD
330
1F
100
AcDbEntity
  8
0
  6
CONTINUOUS
 62
     7
100
AcDbLine
 10
361.7754290764
 20
329.1925052174
 30
0.0
 11
361.8462802567
 21
329.2740101768
 31
0.0
  0
LINE
  5
AE
330
1F
100
AcDbEntity
  8
0
  6
CONTINUOUS
 62
     7
100
AcDbLine
 10
361.8462802567
 20
373.7294828986
 30
0.0
 11
361.7754290764
 21
373.810987858
 31
0.0
  0
ARC
  5
AF
330
1F
100
AcDbEntity
  8
0
  6
CONTINUOUS
 62
     7
100
AcDbCircle
 10
362.3745769629
 20
328.8147688565
 30
0.0
 40
0.6999999999999446
100
AcDbArc
 50
92.7443153111
 51
139.0
  0
ARC
  5
B0
330
1F
100
AcDbEntity
  8
0
  6
CONTINUOUS
 62
     7
100
AcDbCircle
 10
362.3745769629
 20
374.1887242189
 30
0.0
 40
0.6999999999999446
100
AcDbArc
 50
221.0
 51
267.2556846889
  0
ARC
  5
B1
330
1F
100
AcDbEntity
  8
0
  6
CONTINUOUS
 62
     7
100
AcDbCircle
 10
371.6138812386
 20
373.9017465377
 30
0.0
 40
0.1000000000000428
100
AcDbArc
 50
109.4174312396
 51
170.0
  0
ARC
  5
B2
330
1F
100
AcDbEntity
  8
0
  6
CONTINUOUS
 62
     7
100
AcDbCircle
 10
367.6661407491
 20
329.1017465377
 30
0.0
 40
0.1000000000000227
100
AcDbArc
 50
180.0
 51
270.0
  0
ARC
  5
B3
330
1F
100
AcDbEntity
  8
0
  6
CONTINUOUS
 62
     7
100
AcDbCircle
 10
361.2877230725
 20
351.4887351752
 30
0.0
 40
22.00000000000002
100
AcDbArc
 50
272.7443153111
 51
286.5817210736
  0
ARC
  5
B4
330
1F
100
AcDbEntity
  8
0
  6
CONTINUOUS
 62
     7
100
AcDbCircle
 10
361.2877230725
 20
351.5147579002
 30
0.0
 40
22.00000000000002
100
AcDbArc
 50
63.4503284137
 51
87.2556846889
  0
SPLINE
  5
B5
330
1F
100
AcDbEntity
  8
0
  6
CONTINUOUS
 62
     7
100
AcDbSpline
210
0.0
220
0.0
230
1.0
 70
     8
 71
     3
 72
    14
 73
    10
 74
     0
 42
0.000000001
 43
0.00000001
 40
0.0
 40
0.0
 40
0.0
 40
0.0
 40
0.086272706454595
 40
0.2197497902943275
 40
0.4224104618610297
 40
0.5938978576113827
 40
0.7807254639131271
 40
0.9894435837931697
 40
1.0
 40
1.0
 40
1.0
 40
1.0
 10
380.5857937335729
 20
328.9995963397947
 30
0.0
 10
380.6526243561711
 20
328.9969855424696
 30
0.0
 10
380.8228521826151
 20
328.9903354420117
 30
0.0
 10
381.1417686520549
 20
328.9047115699981
 30
0.0
 10
381.48999643294
 20
328.7110555267686
 30
0.0
 10
381.7977433994403
 20
328.3948801855977
 30
0.0
 10
381.9976766079567
 20
328.0034769755113
 30
0.0
 10
382.0848129273274
 20
327.6865282639596
 30
0.0
 10
382.0645016343991
 20
327.5179667003126
 30
0.0
 10
382.0635237987339
 20
327.5098517314973
 30
0.0
  0
SPLINE
  5
B6
330
1F
100
AcDbEntity
  8
0
  6
CONTINUOUS
 62
     7
100
AcDbSpline
210
0.0
220
0.0
230
1.0
 70
     8
 71
     3
 72
    15
 73
    11
 74
     0
 42
0.000000001
 43
0.00000001
 40
0.0
 40
0.0
 40
0.0
 40
0.0
 40
0.0322511657088579
 40
0.2218568097918904
 40
0.4114884190142941
 40
0.5729721047730388
 40
0.7146918561069598
 40
0.8391307904074599
 40
0.9462631310754842
 40
1.0
 40
1.0
 40
1.0
 40
1.0
 10
392.0745079465377
 20
327.5099623205557
 30
0.0
 10
392.0718744742782
 20
327.5348034140253
 30
0.0
 10
392.0537587336116
 20
327.7056860977289
 30
0.0
 10
392.1429946282481
 20
328.0231952543468
 30
0.0
 10
392.336381059531
 20
328.3958315482355
 30
0.0
 10
392.606121809286
 20
328.6724357674869
 30
0.0
 10
392.8868808699062
 20
328.8519197555614
 30
0.0
 10
393.1587439169602
 20
328.9528917761103
 30
0.0
 10
393.3766347324069
 20
328.9969499881263
 30
0.0
 10
393.5011439868355
 20
328.9980479040912
 30
0.0
 10
393.5427351496321
 20
328.9984146527464
 30
0.0
  0
ARC
  5
B7
330
1F
100
AcDbEntity
  8
0
  6
CONTINUOUS
 62
     7
100
AcDbCircle
 10
391.5661407491
 20
267.0017465377
 30
0.0
 40
0.5
100
AcDbArc
 50
270.0
 51
0.0
  0
ARC
  5
B8
330
1F
100
AcDbEntity
  8
0
  6
CONTINUOUS
 62
     7
100
AcDbCircle
 10
382.5661407491
 20
267.0017465377
 30
0.0
 40
0.5
100
AcDbArc
 50
180.0
 51
270.0
  0
LINE
  5
B9
330
1F
100
AcDbEntity
  8
0
  6
CONTINUOUS
 62
     7
100
AcDbLine
 10
382.0661407491
 20
327.5076038314
 30
0.0
 11
382.0661407491
 21
267.0017465377
 31
0.0
  0
LINE
  5
BA
330
1F
100
AcDbEntity
  8
0
  6
CONTINUOUS
 62
     7
100
AcDbLine
 10
392.0661407491
 20
267.0017465377
 30
0.0
 11
392.0661407491
 21
327.5077409056
 31
0.0
  0
LINE
  5
BB
330
1F
100
AcDbEntity
  8
0
  6
CONTINUOUS
 62
     7
100
AcDbLine
 10
340.5661407491
 20
351.5017465377
 30
0.0
 11
340.5661407491
 21
311.5017465377
 31
0.0
  0
LINE
  5
BC
330
1F
100
AcDbEntity
  8
0
  6
CONTINUOUS
 62
     7
100
AcDbLine
 10
340.5661407491
 20
391.5017465377
 30
0.0
 11
340.5661407491
 21
351.5017465377
 31
0.0
  0
LINE
  5
BD
330
1F
100
AcDbEntity
  8
0
  6
CONTINUOUS
 62
     7
100
AcDbLine
 10
347.5661407491
 20
351.5017465377
 30
0.0
 11
347.5661407491
 21
312.5017465377
 31
0.0
  0
LINE
  5
BE
330
1F
100
AcDbEntity
  8
0
  6
CONTINUOUS
 62
     7
100
AcDbLine
 10
347.5661407491
 20
390.5017465377
 30
0.0
 11
347.5661407491
 21
351.5017465377
 31
0.0
  0
SPLINE
  5
BF
330
1F
100
AcDbEntity
  8
0
  6
CONTINUOUS
 62
     7
100
AcDbSpline
210
0.0
220
0.0
230
1.0
 70
     8
 71
     3
 72
    12
 73
     8
 74
     0
 42
0.000000001
 43
0.00000001
 40
0.0
 40
0.0
 40
0.0
 40
0.0
 40
0.4999999999999999
 40
0.4999999999999999
 40
0.7499999999999999
 40
0.7499999999999999
 40
1.0
 40
1.0
 40
1.0
 40
1.0
 10
367.5661407491487
 20
347.1473133613789
 30
0.0
 10
367.5661407491487
 20
348.5943891691753
 30
0.0
 10
367.6288516942634
 20
350.0429814168819
 30
0.0
 10
367.8185602633414
 20
352.2175864031224
 30
0.0
 10
367.8977572436978
 20
352.9427497280497
 30
0.0
 10
368.0886140966232
 20
354.3936751432183
 30
0.0
 10
368.2000159717647
 20
355.1166315636033
 30
0.0
 10
368.3257530985383
 20
355.8297222447254
 30
0.0
  0
SPLINE
  5
C0
330
1F
100
AcDbEntity
  8
0
  6
CONTINUOUS
 62
     7
100
AcDbSpline
210
0.0
220
0.0
230
1.0
 70
     8
 71
     3
 72
    20
 73
    16
 74
     0
 42
0.000000001
 43
0.00000001
 40
0.0
 40
0.0
 40
0.0
 40
0.0
 40
0.0000021370453553
 40
0.0877913019843248
 40
0.2190347774422281
 40
0.2863301372767292
 40
0.3541117342696298
 40
0.4853554851079542
 40
0.5527020862614611
 40
0.6205503390159126
 40
0.7512565364149449
 40
0.818362776432063
 40
0.8859776420213527
 40
0.9709217333633058
 40
1.0
 40
1.0
 40
1.0
 40
1.0
 10
368.4019856560433
 20
355.8257413034297
 30
0.0
 10
368.4019890512767
 20
355.8257604981334
 30
0.0
 10
368.5414675906849
 20
356.6142922122324
 30
0.0
 10
368.8852792185912
 20
358.5580417990275
 30
0.0
 10
369.3141940292056
 20
360.9832545012604
 30
0.0
 10
369.6865979378866
 20
363.0892034364911
 30
0.0
 10
370.0386968956941
 20
365.0805144629138
 30
0.0
 10
370.3575793140689
 20
366.884256848987
 30
0.0
 10
370.635144157134
 20
368.4545765674993
 30
0.0
 10
370.8825298019514
 20
369.8542731954371
 30
0.0
 10
371.0831412485905
 20
370.9895686338717
 30
0.0
 10
371.2328664688752
 20
371.8369722339056
 30
0.0
 10
371.3249554229772
 20
372.3582334400193
 30
0.0
 10
371.3809135990875
 20
372.6749825246687
 30
0.0
 10
371.3889793571327
 20
372.7206435114941
 30
0.0
 10
371.3910363069031
 20
372.7322880904464
 30
0.0
  0
SPLINE
  5
C1
330
1F
100
AcDbEntity
  8
0
  6
CONTINUOUS
 62
     7
100
AcDbSpline
210
0.0
220
0.0
230
1.0
 70
     8
 71
     3
 72
    22
 73
    18
 74
     0
 42
0.000000001
 43
0.00000001
 40
0.0
 40
0.0
 40
0.0
 40
0.0
 40
0.125
 40
0.125
 40
0.2500000000000001
 40
0.2500000000000001
 40
0.3750000000000001
 40
0.3750000000000001
 40
0.5000000000000001
 40
0.5000000000000001
 40
0.6250000000000001
 40
0.6250000000000001
 40
0.7500000000000002
 40
0.7500000000000002
 40
0.8750000000000001
 40
0.8750000000000001
 40
1.0
 40
1.0
 40
1.0
 40
1.0
 10
376.4764685299352
 20
329.3517465376751
 30
0.0
 10
376.7125771116883
 20
329.3452407305994
 30
0.0
 10
376.941698743845
 20
329.3351613740525
 30
0.0
 10
377.3866558755601
 20
329.3091207564427
 30
0.0
 10
377.6036025566162
 20
329.2930542155057
 30
0.0
 10
378.0187595634565
 20
329.2567244228717
 30
0.0
 10
378.2132518166567
 20
329.2368355351059
 30
0.0
 10
378.5770903293736
 20
329.1955460719832
 30
0.0
 10
378.7477479781066
 20
329.173953379923
 30
0.0
 10
379.0559761891943
 20
329.1320854493182
 30
0.0
 10
379.1925254462827
 20
329.1119961984051
 30
0.0
 10
379.4312881039752
 20
329.0752809052323
 30
0.0
 10
379.5342563992216
 20
329.0585184547371
 30
0.0
 10
379.6988721574314
 20
329.0310268249355
 30
0.0
 10
379.7608299801198
 20
329.0202673377671
 30
0.0
 10
379.8445159726367
 20
329.0056185990961
 30
0.0
 10
379.8661407491487
 20
329.001746537675
 30
0.0
 10
379.8661407491487
 20
329.001746537675
 30
0.0
  0
SPLINE
  5
C2
330
1F
100
AcDbEntity
  8
0
  6
CONTINUOUS
 62
     7
100
AcDbSpline
210
0.0
220
0.0
230
1.0
 70
     8
 71
     3
 72
    22
 73
    18
 74
     0
 42
0.000000001
 43
0.00000001
 40
0.0
 40
0.0
 40
0.0
 40
0.0
 40
0.125
 40
0.125
 40
0.25
 40
0.25
 40
0.375
 40
0.375
 40
0.5
 40
0.5
 40
0.625
 40
0.625
 40
0.75
 40
0.75
 40
0.875
 40
0.875
 40
1.0
 40
1.0
 40
1.0
 40
1.0
 10
371.8661407491487
 20
329.001746537675
 30
0.0
 10
371.8661407491487
 20
329.001746537675
 30
0.0
 10
371.8873828699821
 20
329.005550411628
 30
0.0
 10
371.970498561966
 20
329.0201017150403
 30
0.0
 10
372.0328725856076
 20
329.0309364479791
 30
0.0
 10
372.1981507492839
 20
329.0585401733279
 30
0.0
 10
372.2993626845443
 20
329.0750205090349
 30
0.0
 10
372.5377032969025
 20
329.1116900287008
 30
0.0
 10
372.6762894178183
 20
329.1320825806309
 30
0.0
 10
372.9843395387886
 20
329.1739277402393
 30
0.0
 10
373.1524149940185
 20
329.1952083810784
 30
0.0
 10
373.5162282223835
 20
329.2365399152093
 30
0.0
 10
373.7141542771354
 20
329.2567749501982
 30
0.0
 10
374.1270045086679
 20
329.2929124841981
 30
0.0
 10
374.3416331522857
 20
329.3088501624651
 30
0.0
 10
374.7872557947866
 20
329.3350030047909
 30
0.0
 10
375.0197296780154
 20
329.3452414274864
 30
0.0
 10
375.2558129683622
 20
329.3517465376751
 30
0.0
  0
LINE
  5
C3
330
1F
100
AcDbEntity
  8
0
  6
CONTINUOUS
 62
     7
100
AcDbLine
 10
371.6138812386
 20
374.0017465377
 30
0.0
 11
368.4242338738
 21
355.8316012256
 31
0.0
  0
LINE
  5
C4
330
1F
100
AcDbEntity
  8
0
  6
CONTINUOUS
 62
     7
100
AcDbLine
 10
396.5661407491
 20
351.5017465377
 30
0.0
 11
396.5661407491
 21
329.5417465377
 31
0.0
  0
LINE
  5
C5
330
1F
100
AcDbEntity
  8
0
  6
CONTINUOUS
 62
     7
100
AcDbLine
 10
396.5661407491
 20
373.4617465377
 30
0.0
 11
396.5661407491
 21
351.5017465377
 31
0.0
  0
LINE
  5
C6
330
1F
100
AcDbEntity
  8
0
  6
CONTINUOUS
 62
     7
100
AcDbLine
 10
368.3257530985
 20
355.8297222447
 30
0.0
 11
371.5154004601
 21
373.9191113374
 31
0.0
  0
LINE
  5
C7
330
1F
100
AcDbEntity
  8
0
  6
CONTINUOUS
 62
     7
100
AcDbLine
 10
367.5661407491
 20
329.1017465377
 30
0.0
 11
367.5661407491
 21
347.1473133614
 31
0.0
  0
LINE
  5
C8
330
1F
100
AcDbEntity
  8
0
  6
CONTINUOUS
 62
     7
100
AcDbLine
 10
391.5661407491
 20
266.5017465377
 30
0.0
 11
382.5661407491
 21
266.5017465377
 31
0.0
  0
SPLINE
  5
C9
330
1F
100
AcDbEntity
  8
0
  6
CONTINUOUS
 62
     7
100
AcDbSpline
210
0.0
220
0.0
230
1.0
 70
     8
 71
     3
 72
    10
 73
     6
 74
     0
 42
0.000000001
 43
0.00000001
 40
0.0
 40
0.0
 40
0.0
 40
0.0
 40
0.5
 40
0.5
 40
1.0
 40
1.0
 40
1.0
 40
1.0
 10
379.8027604944774
 20
328.6017465376751
 30
0.0
 10
379.7472007913416
 20
328.3882796867918
 30
0.0
 10
379.6172280596507
 20
328.1935892451055
 30
0.0
 10
379.2663518241538
 20
327.9257767257742
 30
0.0
 10
379.0451264895024
 20
327.851746537675
 30
0.0
 10
378.8241806406985
 20
327.851746537675
 30
0.0
  0
LINE
  5
CA
330
1F
100
AcDbEntity
  8
0
  6
CONTINUOUS
 62
     7
100
AcDbLine
 10
378.8241806407
 20
327.8517465377
 30
0.0
 11
372.9081008576
 21
327.8517465377
 31
0.0
  0
SPLINE
  5
CB
330
1F
100
AcDbEntity
  8
0
  6
CONTINUOUS
 62
     7
100
AcDbSpline
210
0.0
220
0.0
230
1.0
 70
     8
 71
     3
 72
    10
 73
     6
 74
     0
 42
0.000000001
 43
0.00000001
 40
0.0
 40
0.0
 40
0.0
 40
0.0
 40
0.5
 40
0.5
 40
1.0
 40
1.0
 40
1.0
 40
1.0
 10
372.9081008575989
 20
327.851746537675
 30
0.0
 10
372.6881713917338
 20
327.8517465376751
 30
0.0
 10
372.4667186041842
 20
327.9250633043002
 30
0.0
 10
372.1136270085919
 20
328.1947894508114
 30
0.0
 10
371.9852379990434
 20
328.3876753522702
 30
0.0
 10
371.9295210038201
 20
328.6017465376751
 30
0.0
  0
LINE
  5
CC
330
1F
100
AcDbEntity
  8
0
  6
CONTINUOUS
 62
     7
100
AcDbLine
 10
371.8978949126
 20
328.6017465377
 30
0.0
 11
371.9295210038
 21
328.6017465377
 31
0.0
  0
ARC
  5
CD
330
1F
100
AcDbEntity
  8
0
  6
CONTINUOUS
 62
     7
100
AcDbCircle
 10
372.8661407491
 20
328.8517465377
 30
0.0
 40
1.000000000000017
100
AcDbArc
 50
180.0
 51
194.4775121859
  0
ARC
  5
CE
330
1F
100
AcDbEntity
  8
0
  6
CONTINUOUS
 62
     7
100
AcDbCircle
 10
378.8661407491
 20
328.8517465377
 30
0.0
 40
1.0
100
AcDbArc
 50
345.5224878141
 51
0.0
  0
LINE
  5
CF
330
1F
100
AcDbEntity
  8
0
  6
CONTINUOUS
 62
     7
100
AcDbLine
 10
379.8027604945
 20
328.6017465377
 30
0.0
 11
379.8343865857
 21
328.6017465377
 31
0.0
  0
LINE
  5
D0
330
1F
100
AcDbEntity
  8
0
  6
CONTINUOUS
 62
     7
100
AcDbLine
 10
379.8661407491
 20
329.0017465377
 30
0.0
 11
379.8661407491
 21
328.8517465377
 31
0.0
  0
LINE
  5
D1
330
1F
100
AcDbEntity
  8
0
  6
CONTINUOUS
 62
     7
100
AcDbLine
 10
371.8661407491
 20
328.8517465377
 30
0.0
 11
371.8661407491
 21
329.0017465377
 31
0.0
  0
LINE
  5
D2
330
1F
100
AcDbEntity
  8
0
  6
CONTINUOUS
 62
     7
100
AcDbLine
 10
376.4764685299
 20
329.3517465377
 30
0.0
 11
375.2558129684
 21
329.3517465377
 31
0.0
  0
LINE
  5
D3
330
1F
100
AcDbEntity
  8
0
  6
CONTINUOUS
 62
     8
100
AcDbLine
 10
346.5661407491
 20
351.5017465377
 30
0.0
 11
346.5661407491
 21
311.5017465377
 31
0.0
  0
LINE
  5
D4
330
1F
100
AcDbEntity
  8
0
  6
CONTINUOUS
 62
     8
100
AcDbLine
 10
346.5661407491
 20
391.5017465377
 30
0.0
 11
346.5661407491
 21
351.5017465377
 31
0.0
  0
SPLINE
  5
D5
330
1F
100
AcDbEntity
  8
0
  6
CONTINUOUS
 62
     8
100
AcDbSpline
210
0.0
220
0.0
230
1.0
 70
     8
 71
     3
 72
    12
 73
     8
 74
     0
 42
0.000000001
 43
0.00000001
 40
0.0
 40
0.0
 40
0.0
 40
0.0
 40
0.2500000000000001
 40
0.2500000000000001
 40
0.5000000000000001
 40
0.5000000000000001
 40
1.0
 40
1.0
 40
1.0
 40
1.0
 10
368.4242338738396
 20
355.8316012255715
 30
0.0
 10
368.2987415375503
 20
355.1167215773926
 30
0.0
 10
368.1875565853437
 20
354.3919453490553
 30
0.0
 10
367.9970760781125
 20
352.9373900450547
 30
0.0
 10
367.9180383428596
 20
352.2104282739652
 30
0.0
 10
367.7287160192263
 20
350.0304765166955
 30
0.0
 10
367.6661407491487
 20
348.5783842295159
 30
0.0
 10
367.6661407491487
 20
347.1278739275561
 30
0.0
  0
ARC
  5
D6
330
1F
100
AcDbEntity
  8
0
  6
CONTINUOUS
 62
     8
100
AcDbCircle
 10
367.6420854781
 20
347.2710580715
 30
0.0
 40
0.1451907543160313
100
AcDbArc
 50
238.4616848465
 51
279.5367660724
  0
ARC
  5
D7
330
1F
100
AcDbEntity
  8
0
  6
CONTINUOUS
 62
     8
100
AcDbCircle
 10
368.3775378804
 20
355.6973054468
 30
0.0
 40
0.1421825305346861
100
AcDbArc
 50
70.8269224937
 51
111.3591815679
  0
LINE
  5
D8
330
1F
100
AcDbEntity
  8
0
  6
CONTINUOUS
 62
     8
100
AcDbLine
 10
361.2471323703
 20
328.9517465377
 30
0.0
 11
361.2471323703
 21
374.0517465377
 31
0.0
  0
LINE
  5
D9
330
1F
100
AcDbEntity
  8
0
  6
CONTINUOUS
 62
     8
100
AcDbLine
 10
361.7754290764
 20
329.1925052174
 30
0.0
 11
361.7754290764
 21
373.810987858
 31
0.0
  0
LINE
  5
DA
330
1F
100
AcDbEntity
  8
0
  6
CONTINUOUS
 62
     8
100
AcDbLine
 10
367.6661407491
 20
347.1278739276
 30
0.0
 11
367.6661407491
 21
329.0017465377
 31
0.0
  0
LINE
  5
DB
330
1F
100
AcDbEntity
  8
0
  6
CONTINUOUS
 62
     8
100
AcDbLine
 10
396.0261407491
 20
351.5017465377
 30
0.0
 11
396.0261407491
 21
374.0017465377
 31
0.0
  0
LINE
  5
DC
330
1F
100
AcDbEntity
  8
0
  6
CONTINUOUS
 62
     8
100
AcDbLine
 10
396.0261407491
 20
329.0017465377
 30
0.0
 11
396.0261407491
 21
351.5017465377
 31
0.0
  0
SPLINE
  5
DD
330
1F
100
AcDbEntity
  8
0
  6
CONTINUOUS
 62
     8
100
AcDbSpline
210
0.0
220
0.0
230
1.0
 70
     8
 71
     3
 72
    17
 73
    13
 74
     0
 42
0.000000001
 43
0.00000001
 40
0.0
 40
0.0
 40
0.0
 40
0.0
 40
0.1028973153067467
 40
0.2083045148159701
 40
0.3123756054504778
 40
0.4190580573123865
 40
0.5242984014142181
 40
0.6324575212518336
 40
0.7372835223932163
 40
0.8455143292736419
 40
0.9467985326513706
 40
1.0
 40
1.0
 40
1.0
 40
1.0
 10
387.0661407491487
 20
329.8426558148977
 30
0.0
 10
387.4069180946286
 20
329.8385344459879
 30
0.0
 10
388.0967850692805
 20
329.8301911792218
 30
0.0
 10
389.1068984171004
 20
329.764414891201
 30
0.0
 10
390.0794152650442
 20
329.665174432889
 30
0.0
 10
390.9778742277752
 20
329.5391119139571
 30
0.0
 10
391.78929077022
 20
329.3982789816293
 30
0.0
 10
392.4733437331315
 20
329.2597033741384
 30
0.0
 10
393.0196496227608
 20
329.1363208884179
 30
0.0
 10
393.3793618714119
 20
329.0490001048191
 30
0.0
 10
393.5598382618572
 20
329.0033538859453
 30
0.0
 10
393.5468949713554
 20
329.0066274084846
 30
0.0
 10
393.5424375867723
 20
329.0077547376516
 30
0.0
  0
SPLINE
  5
DE
330
1F
100
AcDbEntity
  8
0
  6
CONTINUOUS
 62
     8
100
AcDbSpline
210
0.0
220
0.0
230
1.0
 70
     8
 71
     3
 72
    17
 73
    13
 74
     0
 42
0.000000001
 43
0.00000001
 40
0.0
 40
0.0
 40
0.0
 40
0.0
 40
0.0363519169754189
 40
0.139535162672427
 40
0.239051261125407
 40
0.3415987994405233
 40
0.44546022798011
 40
0.552247715737499
 40
0.6611100810122719
 40
0.7730093774088449
 40
0.8848807683611953
 40
1.0
 40
1.0
 40
1.0
 40
1.0
 10
380.5860626317708
 20
329.0067953473102
 30
0.0
 10
380.5808063821315
 20
329.0054635649448
 30
0.0
 10
380.5606305094545
 20
329.0003515795402
 30
0.0
 10
380.7089927487491
 20
329.0380071467538
 30
0.0
 10
381.0253585368524
 20
329.115439899091
 30
0.0
 10
381.5103048784537
 20
329.2271292213752
 30
0.0
 10
382.147505261415
 20
329.3603938483348
 30
0.0
 10
382.926061039281
 20
329.5021903140617
 30
0.0
 10
383.833421201594
 20
329.6379089314466
 30
0.0
 10
384.8427024149016
 20
329.7493731140962
 30
0.0
 10
385.9328163821954
 20
329.8273362335847
 30
0.0
 10
386.6847795322529
 20
329.837500808668
 30
0.0
 10
387.0661407491487
 20
329.8426558148977
 30
0.0
  0
LINE
  5
DF
330
1F
100
AcDbEntity
  8
0
  6
CONTINUOUS
 62
     8
100
AcDbLine
 10
361.8462802567
 20
329.2740101768
 30
0.0
 11
361.8462802567
 21
373.7294828986
 31
0.0
  0
LINE
  5
E0
330
1F
100
AcDbEntity
  8
0
  6
CONTINUOUS
 62
     8
100
AcDbLine
 10
362.3410616447
 20
329.5139660557
 30
0.0
 11
362.3410616447
 21
373.4895270196
 31
0.0
  0
SPLINE
  5
E1
330
1F
100
AcDbEntity
  8
0
  6
CONTINUOUS
 62
     8
100
AcDbSpline
210
0.0
220
0.0
230
1.0
 70
     8
 71
     3
 72
    19
 73
    15
 74
     0
 42
0.000000001
 43
0.00000001
 40
0.0
 40
0.0
 40
0.0
 40
0.0
 40
0.0054749140202194
 40
0.1075277795230798
 40
0.2127001082287993
 40
0.2198136419331271
 40
0.3269374194899837
 40
0.4372838415877487
 40
0.5418738631804604
 40
0.6492944748538931
 40
0.7511461324047516
 40
0.8558333173385703
 40
0.9586553644575011
 40
1.0
 40
1.0
 40
1.0
 40
1.0
 10
387.0661407491487
 20
328.3987164333792
 30
0.0
 10
387.0517005856731
 20
328.3987014875043
 30
0.0
 10
386.7680945402167
 20
328.3984079492428
 30
0.0
 10
386.2065578980232
 20
328.3796644150942
 30
0.0
 10
385.6584301084311
 20
328.3289652507755
 30
0.0
 10
385.1168081592241
 20
328.2628460497846
 30
0.0
 10
384.5809542157214
 20
328.1804739120116
 30
0.0
 10
383.8876486097667
 20
328.0369963554883
 30
0.0
 10
383.2840741624092
 20
327.8847273760836
 30
0.0
 10
382.7977049971178
 20
327.7437417884539
 30
0.0
 10
382.421378123393
 20
327.623699241849
 30
0.0
 10
382.179382173506
 20
327.5415745539926
 30
0.0
 10
382.0631903352573
 20
327.500713053589
 30
0.0
 10
382.0785175510071
 20
327.5060966310461
 30
0.0
 10
382.082913144617
 20
327.5076405525942
 30
0.0
  0
SPLINE
  5
E2
330
1F
100
AcDbEntity
  8
0
  6
CONTINUOUS
 62
     8
100
AcDbSpline
210
0.0
220
0.0
230
1.0
 70
     8
 71
     3
 72
    17
 73
    13
 74
     0
 42
0.000000001
 43
0.00000001
 40
0.0
 40
0.0
 40
0.0
 40
0.0
 40
0.05202975893124
 40
0.1596739095881791
 40
0.2667461063527741
 40
0.377160279337465
 40
0.482797451846992
 40
0.5913583990607786
 40
0.6935263010582489
 40
0.7984571391968767
 40
0.8978076450496612
 40
1.0
 40
1.0
 40
1.0
 40
1.0
 10
392.0490787090434
 20
327.5077442852574
 30
0.0
 10
392.0525236845891
 20
327.5065348995504
 30
0.0
 10
392.0630959556339
 20
327.5028234208123
 30
0.0
 10
391.927748584453
 20
327.550339025715
 30
0.0
 10
391.6510207015058
 20
327.6435351988786
 30
0.0
 10
391.2380945328518
 20
327.7731786306768
 30
0.0
 10
390.7087021959799
 20
327.9222058046341
 30
0.0
 10
390.0926740460957
 20
328.0711392480595
 30
0.0
 10
389.3953966098869
 20
328.2074483482291
 30
0.0
 10
388.6541731002673
 20
328.3131738561186
 30
0.0
 10
387.868373084151
 20
328.3848741933419
 30
0.0
 10
387.3360535128953
 20
328.3940591824783
 30
0.0
 10
387.0661407491487
 20
328.3987164333792
 30
0.0
  0
LINE
  5
E3
330
1F
100
AcDbEntity
  8
0
  6
CONTINUOUS
 62
     8
100
AcDbLine
 10
382.0661407491
 20
267.0017465377
 30
0.0
 11
392.0661407491
 21
267.0017465377
 31
0.0
  0
LINE
  5
E4
330
1F
100
AcDbEntity
  8
0
  6
CONTINUOUS
 62
     8
100
AcDbLine
 10
371.8661407491
 20
328.8517465377
 30
0.0
 11
379.8661407491
 21
328.8517465377
 31
0.0
  0
LINE
  5
E5
330
1F
100
AcDbEntity
  8
0
  6
CONTINUOUS
 62
     7
100
AcDbLine
 10
250.8533279602
 20
187.5138444325
 30
0.0
 11
250.8533279602
 21
193.5138444325
 31
0.0
  0
LINE
  5
E6
330
1F
100
AcDbEntity
  8
0
  6
CONTINUOUS
 62
     7
100
AcDbLine
 10
170.8533279602
 20
193.5138444325
 30
0.0
 11
170.8533279602
 21
187.5138444325
 31
0.0
  0
ARC
  5
E7
330
1F
100
AcDbEntity
  8
0
  6
CONTINUOUS
 62
     7
100
AcDbCircle
 10
249.8533279602
 20
187.5138444325
 30
0.0
 40
1.0
100
AcDbArc
 50
270.0
 51
0.0
  0
ARC
  5
E8
330
1F
100
AcDbEntity
  8
0
  6
CONTINUOUS
 62
     7
100
AcDbCircle
 10
171.8533279602
 20
187.5138444325
 30
0.0
 40
1.000000000000028
100
AcDbArc
 50
180.0
 51
270.0
  0
LINE
  5
E9
330
1F
100
AcDbEntity
  8
0
  6
CONTINUOUS
 62
     7
100
AcDbLine
 10
188.3033279602
 20
186.5138444325
 30
0.0
 11
188.3033279602
 21
172.8328528114
 31
0.0
  0
LINE
  5
EA
330
1F
100
AcDbEntity
  8
0
  6
CONTINUOUS
 62
     7
100
AcDbLine
 10
233.4033279602
 20
172.8328528114
 30
0.0
 11
233.4033279602
 21
186.5138444325
 31
0.0
  0
ARC
  5
EB
330
1F
100
AcDbEntity
  8
0
  6
CONTINUOUS
 62
     7
100
AcDbCircle
 10
189.0033279602
 20
172.8328528114
 30
0.0
 40
0.6999999999999846
100
AcDbArc
 50
180.0
 51
229.0
  0
ARC
  5
EC
330
1F
100
AcDbEntity
  8
0
  6
CONTINUOUS
 62
     7
100
AcDbCircle
 10
232.7033279602
 20
172.8328528114
 30
0.0
 40
0.7000000000000033
100
AcDbArc
 50
311.0
 51
0.0
  0
LINE
  5
ED
330
1F
100
AcDbEntity
  8
0
  6
CONTINUOUS
 62
     7
100
AcDbLine
 10
188.3533279602
 20
166.2016115226
 30
0.0
 11
188.3533279602
 21
138.0538444325
 31
0.0
  0
LINE
  5
EE
330
1F
100
AcDbEntity
  8
0
  6
CONTINUOUS
 62
     7
100
AcDbLine
 10
233.3533279602
 20
138.0538444325
 30
0.0
 11
233.3533279602
 21
166.2015548895
 31
0.0
  0
ARC
  5
EF
330
1F
100
AcDbEntity
  8
0
  6
CONTINUOUS
 62
     7
100
AcDbCircle
 10
232.8133279602
 20
138.0538444325
 30
0.0
 40
0.5400000000000205
100
AcDbArc
 50
270.0
 51
0.0
  0
ARC
  5
F0
330
1F
100
AcDbEntity
  8
0
  6
CONTINUOUS
 62
     7
100
AcDbCircle
 10
188.8933279602
 20
138.0538444325
 30
0.0
 40
0.5400000000000205
100
AcDbArc
 50
180.0
 51
270.0
  0
LINE
  5
F1
330
1F
100
AcDbEntity
  8
0
  6
CONTINUOUS
 62
     7
100
AcDbLine
 10
188.5440866399
 20
172.3045561053
 30
0.0
 11
188.6255915993
 21
172.233704925
 31
0.0
  0
LINE
  5
F2
330
1F
100
AcDbEntity
  8
0
  6
CONTINUOUS
 62
     7
100
AcDbLine
 10
233.0810643211
 20
172.233704925
 30
0.0
 11
233.1625692805
 21
172.3045561053
 31
0.0
  0
ARC
  5
F3
330
1F
100
AcDbEntity
  8
0
  6
CONTINUOUS
 62
     7
100
AcDbCircle
 10
188.166350279
 20
171.7054082188
 30
0.0
 40
0.6999999999999985
100
AcDbArc
 50
2.7443153111
 51
49.0
  0
ARC
  5
F4
330
1F
100
AcDbEntity
  8
0
  6
CONTINUOUS
 62
     7
100
AcDbCircle
 10
233.5403056414
 20
171.7054082188
 30
0.0
 40
0.7000000000000033
100
AcDbArc
 50
131.0
 51
177.2556846889
  0
ARC
  5
F5
330
1F
100
AcDbEntity
  8
0
  6
CONTINUOUS
 62
     7
100
AcDbCircle
 10
210.8403165977
 20
172.7922621092
 30
0.0
 40
22.00000000000001
100
AcDbArc
 50
182.7443153111
 51
200.1520694857
  0
ARC
  5
F6
330
1F
100
AcDbEntity
  8
0
  6
CONTINUOUS
 62
     7
100
AcDbCircle
 10
210.8663393227
 20
172.7922621092
 30
0.0
 40
22.0
100
AcDbArc
 50
339.8214998056
 51
357.2556846889
  0
LINE
  5
F7
330
1F
100
AcDbEntity
  8
0
  6
CONTINUOUS
 62
     7
100
AcDbLine
 10
189.4046530448
 20
165.7298292333
 30
0.0
 11
189.3977413398
 21
165.7351066321
 31
0.0
  0
LINE
  5
F8
330
1F
100
AcDbEntity
  8
0
  6
CONTINUOUS
 62
     7
100
AcDbLine
 10
232.307547602
 20
165.7349536562
 30
0.0
 11
232.3009830746
 21
165.7297149203
 31
0.0
  0
LINE
  5
F9
330
1F
100
AcDbEntity
  8
0
  6
CONTINUOUS
 62
     7
100
AcDbLine
 10
250.8533279602
 20
193.5138444325
 30
0.0
 11
170.8533279602
 21
193.5138444325
 31
0.0
  0
LINE
  5
FA
330
1F
100
AcDbEntity
  8
0
  6
CONTINUOUS
 62
     7
100
AcDbLine
 10
249.8533279582
 20
186.5138444325
 30
0.0
 11
171.8533279602
 21
186.5138444325
 31
0.0
  0
SPLINE
  5
FB
330
1F
100
AcDbEntity
  8
0
  6
CONTINUOUS
 62
     7
100
AcDbSpline
210
0.0
220
0.0
230
1.0
 70
     8
 71
     3
 72
    50
 73
    46
 74
     0
 42
0.000000001
 43
0.00000001
 40
0.0
 40
0.0
 40
0.0
 40
0.0
 40
0.0625000000000001
 40
0.0625000000000001
 40
0.1250000000000001
 40
0.1250000000000001
 40
0.1562500000000001
 40
0.1562500000000001
 40
0.1875000000000001
 40
0.1875000000000001
 40
0.2499999999999999
 40
0.2499999999999999
 40
0.2812499999999998
 40
0.2812499999999998
 40
0.3124999999999998
 40
0.3124999999999998
 40
0.3749999999999997
 40
0.3749999999999997
 40
0.4374999999999997
 40
0.4374999999999997
 40
0.4999999999999996
 40
0.4999999999999996
 40
0.5624999999999994
 40
0.5624999999999994
 40
0.5937499999999996
 40
0.5937499999999996
 40
0.6249999999999996
 40
0.6249999999999996
 40
0.6874999999999994
 40
0.6874999999999994
 40
0.7187499999999996
 40
0.7187499999999996
 40
0.7499999999999996
 40
0.7499999999999996
 40
0.8124999999999996
 40
0.8124999999999996
 40
0.8437499999999997
 40
0.8437499999999997
 40
0.8749999999999997
 40
0.8749999999999997
 40
0.9374999999999998
 40
0.9374999999999998
 40
0.96875
 40
0.96875
 40
1.0
 40
1.0
 40
1.0
 40
1.0
 10
232.362896978839
 20
165.7488458355747
 30
0.0
 10
232.0825761195901
 20
165.5367374029611
 30
0.0
 10
231.7048625431167
 20
165.331112324331
 30
0.0
 10
230.7649372754838
 20
164.9340718608596
 30
0.0
 10
230.202266825454
 20
164.7423663535105
 30
0.0
 10
229.2133640117515
 20
164.4654591260749
 30
0.0
 10
228.8615491248141
 20
164.3755876851488
 30
0.0
 10
228.1214940004371
 20
164.202448233866
 30
0.0
 10
227.7321859795185
 20
164.1188918862787
 30
0.0
 10
226.507204966746
 20
163.8771403782822
 30
0.0
 10
225.6147038711806
 20
163.727826985832
 30
0.0
 10
224.1571239901742
 20
163.5224287791114
 30
0.0
 10
223.655166321034
 20
163.4576295675072
 30
0.0
 10
222.6285544790472
 20
163.3364226304423
 30
0.0
 10
222.1024749852678
 20
163.2798356792689
 30
0.0
 10
220.4866476330995
 20
163.121894255968
 30
0.0
 10
219.3595837804723
 20
163.0322734108483
 30
0.0
 10
217.0003399499534
 20
162.8860843949794
 30
0.0
 10
215.7979775399004
 20
162.8312303062902
 30
0.0
 10
213.3624046505832
 20
162.7577954110257
 30
0.0
 10
212.1271669314065
 20
162.7388729111642
 30
0.0
 10
209.6199784558967
 20
162.7384639495953
 30
0.0
 10
208.3777371549221
 20
162.7570045587857
 30
0.0
 10
206.5324926162876
 20
162.8123151015023
 30
0.0
 10
205.9181040033518
 20
162.8355427899951
 30
0.0
 10
204.7122400535229
 20
162.8906437365027
 30
0.0
 10
204.1195799657581
 20
162.9224981600215
 30
0.0
 10
202.3716193549878
 20
163.0306397513437
 30
0.0
 10
201.2464542641838
 20
163.1195537519304
 30
0.0
 10
199.6191552423011
 20
163.2782528961056
 30
0.0
 10
199.0844352162007
 20
163.335702759347
 30
0.0
 10
198.0528866167377
 20
163.4574369110634
 30
0.0
 10
197.5549809471564
 20
163.5217476351777
 30
0.0
 10
196.1131198771108
 20
163.7246735010146
 30
0.0
 10
195.2208849026811
 20
163.8732562201859
 30
0.0
 10
193.9869683422147
 20
164.1162572200305
 30
0.0
 10
193.5914105951636
 20
164.2010450248079
 30
0.0
 10
192.8474291748725
 20
164.3749863273423
 30
0.0
 10
192.4984834788812
 20
164.4641496495868
 30
0.0
 10
191.5188504631319
 20
164.7380339026393
 30
0.0
 10
190.954916308302
 20
164.9291062171523
 30
0.0
 10
190.2438958247352
 20
165.2285482285779
 30
0.0
 10
190.0289105626234
 20
165.3308328530695
 30
0.0
 10
189.648965078746
 20
165.5379723458346
 30
0.0
 10
189.4839245359261
 20
165.6427877112949
 30
0.0
 10
189.3437589415548
 20
165.7488458355747
 30
0.0
  0
ARC
  5
FC
330
1F
100
AcDbEntity
  8
0
  6
CONTINUOUS
 62
     7
100
AcDbCircle
 10
189.3478638732
 20
165.6555432969
 30
0.0
 40
0.0933927951620704
100
AcDbArc
 50
52.5736604378
 51
92.5191563688
  0
ARC
  5
FD
330
1F
100
AcDbEntity
  8
0
  6
CONTINUOUS
 62
     7
100
AcDbCircle
 10
232.3589051224
 20
165.6558965395
 30
0.0
 40
0.0931828842009461
100
AcDbArc
 50
128.1771209646
 51
157.1819591873
  0
SPLINE
  5
FE
330
1F
100
AcDbEntity
  8
0
  6
CONTINUOUS
 62
     7
100
AcDbSpline
210
0.0
220
0.0
230
1.0
 70
     8
 71
     3
 72
     9
 73
     5
 74
     0
 42
0.000000001
 43
0.00000001
 40
0.0
 40
0.0
 40
0.0
 40
0.0
 40
0.4078879712055095
 40
1.0
 40
1.0
 40
1.0
 40
1.0
 10
188.7738723876132
 20
165.6557513078481
 30
0.0
 10
188.6694071571641
 20
165.7535695919917
 30
0.0
 10
188.4132946021891
 20
165.9933861373401
 30
0.0
 10
188.4062263512731
 20
166.1241717739786
 30
0.0
 10
188.4020411548832
 20
166.2016115226258
 30
0.0
  0
SPLINE
  5
FF
330
1F
100
AcDbEntity
  8
0
  6
CONTINUOUS
 62
     7
100
AcDbSpline
210
0.0
220
0.0
230
1.0
 70
     8
 71
     3
 72
     9
 73
     5
 74
     0
 42
0.000000001
 43
0.00000001
 40
0.0
 40
0.0
 40
0.0
 40
0.0
 40
0.3105106846066102
 40
1.0
 40
1.0
 40
1.0
 40
1.0
 10
233.3049218510001
 20
166.2015548894614
 30
0.0
 10
233.3225237335955
 20
166.1851905222363
 30
0.0
 10
233.3792106157801
 20
166.1324890596574
 30
0.0
 10
233.2293976384316
 20
165.9881382452569
 30
0.0
 10
233.1261031912425
 20
165.8886099010595
 30
0.0
  0
LINE
  5
100
330
1F
100
AcDbEntity
  8
0
  6
CONTINUOUS
 62
     7
100
AcDbLine
 10
233.0247814541
 20
165.7665652142
 30
0.0
 11
232.9327835328
 21
165.6557513078
 31
0.0
  0
LINE
  5
101
330
1F
100
AcDbEntity
  8
0
  6
CONTINUOUS
 62
     7
100
AcDbLine
 10
232.8133279599
 20
137.5138444325
 30
0.0
 11
188.8933279602
 21
137.5138444325
 31
0.0
  0
ARC
  5
102
330
1F
100
AcDbEntity
  8
0
  6
CONTINUOUS
 62
     7
100
AcDbCircle
 10
189.3408260029
 20
165.6613980572
 30
0.0
 40
0.0929879469064169
100
AcDbArc
 50
25.2288417314
 51
49.9232195696
  0
ARC
  5
103
330
1F
100
AcDbEntity
  8
0
  6
CONTINUOUS
 62
     7
100
AcDbCircle
 10
188.8806954919
 20
166.4171957631
 30
0.0
 40
0.096648684032865
100
AcDbArc
 50
90.0314875221
 51
118.1472622596
  0
SPLINE
  5
104
330
1F
100
AcDbEntity
  8
0
  6
CONTINUOUS
 62
     7
100
AcDbSpline
210
0.0
220
0.0
230
1.0
 70
     8
 71
     3
 72
    12
 73
     8
 74
     0
 42
0.000000001
 43
0.00000001
 40
0.0
 40
0.0
 40
0.0
 40
0.0
 40
0.4999999999999999
 40
0.4999999999999999
 40
0.7499999999999999
 40
0.7499999999999999
 40
1.0
 40
1.0
 40
1.0
 40
1.0
 10
188.8806423775657
 20
166.5138444325389
 30
0.0
 10
188.5944419268914
 20
166.5138444325389
 30
0.0
 10
188.4544794734565
 20
166.4511334874242
 30
0.0
 10
188.4527627160451
 20
166.2614249183463
 30
0.0
 10
188.4871511917366
 20
166.1822279379898
 30
0.0
 10
188.6270047024709
 20
165.9913710850644
 30
0.0
 10
188.7324435254238
 20
165.879969209923
 30
0.0
 10
188.8720033012691
 20
165.7542320831494
 30
0.0
  0
LINE
  5
105
330
1F
100
AcDbEntity
  8
0
  6
CONTINUOUS
 62
     7
100
AcDbLine
 10
188.8806423776
 20
166.5138444325
 30
0.0
 11
189.2110295694
 21
166.5138444325
 31
0.0
  0
SPLINE
  5
106
330
1F
100
AcDbEntity
  8
0
  6
CONTINUOUS
 62
     7
100
AcDbSpline
210
0.0
220
0.0
230
1.0
 70
     8
 71
     3
 72
     8
 73
     4
 74
     0
 42
0.000000001
 43
0.00000001
 40
0.0
 40
0.0
 40
0.0
 40
0.0
 40
1.0
 40
1.0
 40
1.0
 40
1.0
 10
232.8957669777411
 20
166.2554076709967
 30
0.0
 10
232.8196279841649
 20
166.1309814022204
 30
0.0
 10
232.6426311730276
 20
165.9621013333832
 30
0.0
 10
232.3699954914194
 20
165.7542320831494
 30
0.0
  0
SPLINE
  5
107
330
1F
100
AcDbEntity
  8
0
  6
CONTINUOUS
 62
     7
100
AcDbSpline
210
0.0
220
0.0
230
1.0
 70
     8
 71
     3
 72
     8
 73
     4
 74
     0
 42
0.000000001
 43
0.00000001
 40
0.0
 40
0.0
 40
0.0
 40
0.0
 40
1.0
 40
1.0
 40
1.0
 40
1.0
 10
232.4956263510099
 20
166.5138444325389
 30
0.0
 10
232.7371808031458
 20
166.5138444325389
 30
0.0
 10
232.8782394975483
 20
166.470073503334
 30
0.0
 10
232.917448364247
 20
166.3806595166624
 30
0.0
  0
LINE
  5
108
330
1F
100
AcDbEntity
  8
0
  6
CONTINUOUS
 62
     7
100
AcDbLine
 10
232.495626351
 20
166.5138444325
 30
0.0
 11
232.8260135428
 21
166.5138444325
 31
0.0
  0
ARC
  5
109
330
1F
100
AcDbEntity
  8
0
  6
CONTINUOUS
 62
     7
100
AcDbCircle
 10
231.4458835109
 20
167.0999815886
 30
0.0
 40
1.634953417721411
100
AcDbArc
 50
302.1936062082
 51
325.8930743375
  0
SPLINE
  5
10A
330
1F
100
AcDbEntity
  8
0
  6
CONTINUOUS
 62
     7
100
AcDbSpline
210
0.0
220
0.0
230
1.0
 70
     8
 71
     3
 72
    12
 73
     8
 74
     0
 42
0.000000001
 43
0.00000001
 40
0.0
 40
0.0
 40
0.0
 40
0.0
 40
0.0000185692165596
 40
0.2871814349007196
 40
0.5743585844556909
 40
0.8615371551688765
 40
1.0
 40
1.0
 40
1.0
 40
1.0
 10
188.9070431421307
 20
166.1831993083837
 30
0.0
 10
188.9070443871011
 20
166.183197273747
 30
0.0
 10
188.9262984247657
 20
166.1517306863984
 30
0.0
 10
188.9772868993238
 20
166.0832662192085
 30
0.0
 10
189.0940332204266
 20
165.963218167781
 30
0.0
 10
189.2163072266473
 20
165.8529429896793
 30
0.0
 10
189.3122977546714
 20
165.7776042634221
 30
0.0
 10
189.3435238550969
 20
165.7530962762231
 30
0.0
  0
LWPOLYLINE
  5
10B
330
1F
100
AcDbEntity
  8
0
  6
CONTINUOUS
 62
     7
100
AcDbPolyline
 90
        4
 70
   128
 43
0.0
 10
188.8889795978
 20
166.2272752778
 10
188.9070394036
 20
166.1832054257
 10
188.9070431421
 20
166.1831993084
 10
188.9070431421
 20
166.1831993084
  0
SPLINE
  5
10C
330
1F
100
AcDbEntity
  8
0
  6
CONTINUOUS
 62
     7
100
AcDbSpline
210
0.0
220
0.0
230
1.0
 70
     8
 71
     3
 72
     9
 73
     5
 74
     0
 42
0.000000001
 43
0.00000001
 40
0.0
 40
0.0
 40
0.0
 40
0.0
 40
0.0000285825491032
 40
1.0
 40
1.0
 40
1.0
 40
1.0
 10
232.3982108655296
 20
166.4406092032314
 30
0.0
 10
232.3982069072272
 20
166.440609203222
 30
0.0
 10
232.2597202252351
 20
166.4406088745581
 30
0.0
 10
232.0532217939909
 20
166.4406090292547
 30
0.0
 10
231.8467292649982
 20
166.4406091839469
 30
0.0
  0
LINE
  5
10D
330
1F
100
AcDbEntity
  8
0
  6
CONTINUOUS
 62
     7
100
AcDbLine
 10
189.7863482105
 20
166.4406091865
 30
0.0
 11
189.3084450549
 21
166.4406092032
 31
0.0
  0
SPLINE
  5
10E
330
1F
100
AcDbEntity
  8
0
  6
CONTINUOUS
 62
     7
100
AcDbSpline
210
0.0
220
0.0
230
1.0
 70
    24
 71
     3
 72
     9
 73
     5
 74
     0
 42
0.000000001
 43
0.00000001
 40
0.0
 40
0.0
 40
0.0
 40
0.0
 40
0.2432710072803809
 40
1.0
 40
1.0
 40
1.0
 40
1.0
 10
189.2139992772243
 20
166.5138444325389
 30
0.0
 10
189.2461283284936
 20
166.513844432539
 30
0.0
 10
189.3781993534319
 20
166.513844432539
 30
0.0
 10
189.6015219528079
 20
166.5138444325389
 30
0.0
 10
189.7705166384853
 20
166.5138444325389
 30
0.0
  0
LINE
  5
10F
330
1F
100
AcDbEntity
  8
0
  6
CONTINUOUS
 62
     7
100
AcDbLine
 10
231.8691213546
 20
166.5138444325
 30
0.0
 11
232.4926566432
 21
166.5138444325
 31
0.0
  0
SPLINE
  5
110
330
1F
100
AcDbEntity
  8
0
  6
CONTINUOUS
 62
     7
100
AcDbSpline
210
0.0
220
0.0
230
1.0
 70
    24
 71
     3
 72
     8
 73
     4
 74
     0
 42
0.000000001
 43
0.00000001
 40
0.0
 40
0.0
 40
0.0
 40
0.0
 40
0.0000150272153671
 40
0.0000150272153671
 40
0.0000150272153671
 40
0.0000150272153671
 10
232.4926566431696
 20
166.5138444325389
 30
0.0
 10
232.4936480118587
 20
166.5138444325389
 30
0.0
 10
232.4946379146229
 20
166.5138444325389
 30
0.0
 10
232.4956263510099
 20
166.5138444325389
 30
0.0
  0
SPLINE
  5
111
330
1F
100
AcDbEntity
  8
0
  6
CONTINUOUS
 62
     7
100
AcDbSpline
210
0.0
220
0.0
230
1.0
 70
    24
 71
     3
 72
     8
 73
     4
 74
     0
 42
0.000000001
 43
0.00000001
 40
0.0
 40
0.0
 40
0.0
 40
0.0
 40
0.0000150272153671
 40
0.0000150272153671
 40
0.0000150272153671
 40
0.0000150272153671
 10
189.2110295693839
 20
166.5138444325389
 30
0.0
 10
189.2120180057709
 20
166.5138444325389
 30
0.0
 10
189.2130079085351
 20
166.5138444325389
 30
0.0
 10
189.2139992772243
 20
166.5138444325389
 30
0.0
  0
LINE
  5
112
330
1F
100
AcDbEntity
  8
0
  6
CONTINUOUS
 62
     8
100
AcDbLine
 10
250.8533279602
 20
187.5138444325
 30
0.0
 11
170.8533279602
 21
187.5138444325
 31
0.0
  0
ARC
  5
113
330
1F
100
AcDbEntity
  8
0
  6
CONTINUOUS
 62
     8
100
AcDbCircle
 10
232.3587895066
 20
165.6555588807
 30
0.0
 40
0.0933773381819609
100
AcDbArc
 50
87.4788659464
 51
127.9932933173
  0
ELLIPSE
  5
114
330
1F
100
AcDbEntity
  8
0
  6
CONTINUOUS
 62
     8
100
AcDbEllipse
 10
210.8533279602
 20
166.5143090863
 30
0.0
 11
22.40000000000001
 21
0.0
 31
0.0
210
0.0
220
0.0
230
1.0
 40
0.1763269807
 41
3.335238619882469
 42
6.089539340887063
  0
LINE
  5
115
330
1F
100
AcDbEntity
  8
0
  6
CONTINUOUS
 62
     8
100
AcDbLine
 10
189.336660429
 20
165.7542320831
 30
0.0
 11
188.8720033013
 21
165.7542320831
 31
0.0
  0
SPLINE
  5
116
330
1F
100
AcDbEntity
  8
0
  6
CONTINUOUS
 62
     8
100
AcDbSpline
210
0.0
220
0.0
230
1.0
 70
     8
 71
     3
 72
     8
 73
     4
 74
     0
 42
0.000000001
 43
0.00000001
 40
0.0
 40
0.0
 40
0.0
 40
0.0
 40
0.0000318200463661
 40
0.0000318200463661
 40
0.0000318200463661
 40
0.0000318200463661
 10
189.3437589415548
 20
165.7488458355747
 30
0.0
 10
189.3413864681649
 20
165.7506410006229
 30
0.0
 10
189.3390202956657
 20
165.7524364171183
 30
0.0
 10
189.3366604289744
 20
165.7542320831494
 30
0.0
  0
SPLINE
  5
117
330
1F
100
AcDbEntity
  8
0
  6
CONTINUOUS
 62
     8
100
AcDbSpline
210
0.0
220
0.0
230
1.0
 70
     8
 71
     3
 72
     8
 73
     4
 74
     0
 42
0.000000001
 43
0.00000001
 40
0.0
 40
0.0
 40
0.0
 40
0.0
 40
0.0000318200463661
 40
0.0000318200463661
 40
0.0000318200463661
 40
0.0000318200463661
 10
232.3699954914194
 20
165.7542320831494
 30
0.0
 10
232.3676356247282
 20
165.7524364171183
 30
0.0
 10
232.365269452229
 20
165.7506410006229
 30
0.0
 10
232.362896978839
 20
165.7488458355747
 30
0.0
  0
LINE
  5
118
330
1F
100
AcDbEntity
  8
0
  6
CONTINUOUS
 62
     8
100
AcDbLine
 10
232.8346526191
 20
165.7542320831
 30
0.0
 11
232.3699954914
 21
165.7542320831
 31
0.0
  0
LINE
  5
119
330
1F
100
AcDbEntity
  8
0
  6
CONTINUOUS
 62
     8
100
AcDbLine
 10
188.3033279602
 20
172.8328528114
 30
0.0
 11
233.4033279602
 21
172.8328528114
 31
0.0
  0
LINE
  5
11A
330
1F
100
AcDbEntity
  8
0
  6
CONTINUOUS
 62
     8
100
AcDbLine
 10
188.5440866399
 20
172.3045561053
 30
0.0
 11
233.1625692805
 21
172.3045561053
 31
0.0
  0
ELLIPSE
  5
11B
330
1F
100
AcDbEntity
  8
0
  6
CONTINUOUS
 62
     8
100
AcDbEllipse
 10
210.8533279602
 20
166.415828311
 30
0.0
 11
22.49999999999997
 21
0.0
 31
0.0
210
0.0
220
0.0
230
1.0
 40
0.1755433052
 41
3.335238619882469
 42
6.089539340887066
  0
LINE
  5
11C
330
1F
100
AcDbEntity
  8
0
  6
CONTINUOUS
 62
     8
100
AcDbLine
 10
188.3533279602
 20
138.0538444325
 30
0.0
 11
233.3533279602
 21
138.0538444325
 31
0.0
  0
ARC
  5
11D
330
1F
100
AcDbEntity
  8
0
  6
CONTINUOUS
 62
     8
100
AcDbCircle
 10
232.8305219949
 20
165.6519845982
 30
0.0
 40
0.1023308860028554
100
AcDbArc
 50
2.1094836339
 51
87.6866060631
  0
ARC
  5
11E
330
1F
100
AcDbEntity
  8
0
  6
CONTINUOUS
 62
     8
100
AcDbCircle
 10
188.8761339255
 20
165.6519845982
 30
0.0
 40
0.1023308860028826
100
AcDbArc
 50
92.3133939369
 51
177.8905163661
  0
LINE
  5
11F
330
1F
100
AcDbEntity
  8
0
  6
CONTINUOUS
 62
     8
100
AcDbLine
 10
188.6255915993
 20
172.233704925
 30
0.0
 11
233.0810643211
 21
172.233704925
 31
0.0
  0
LINE
  5
120
330
1F
100
AcDbEntity
  8
0
  6
CONTINUOUS
 62
     8
100
AcDbLine
 10
188.8655474783
 20
171.738923537
 30
0.0
 11
232.8411084421
 21
171.738923537
 31
0.0
  0
ARC
  5
121
330
1F
100
AcDbEntity
  8
0
  6
CONTINUOUS
 62
     8
100
AcDbCircle
 10
189.3407470726
 20
165.66087258
 30
0.0
 40
0.0934489030548776
100
AcDbArc
 50
52.452611875
 51
92.5064192143
  0
ARC
  5
122
330
1F
100
AcDbEntity
  8
0
  6
CONTINUOUS
 62
     8
100
AcDbCircle
 10
232.3659054473
 20
165.6608934072
 30
0.0
 40
0.0934282446154038
100
AcDbArc
 50
87.4909388163
 51
128.3073811275
  0
SPLINE
  5
123
330
1F
100
AcDbEntity
  8
0
  6
CONTINUOUS
 62
     8
100
AcDbSpline
210
0.0
220
0.0
230
1.0
 70
     8
 71
     3
 72
    12
 73
     8
 74
     0
 42
0.000000001
 43
0.00000001
 40
0.0
 40
0.0
 40
0.0
 40
0.0
 40
0.5
 40
0.5
 40
0.75
 40
0.75
 40
1.0
 40
1.0
 40
1.0
 40
1.0
 10
232.8346526191248
 20
165.7542320831494
 30
0.0
 10
233.113698771191
 20
166.0056402069124
 30
0.0
 10
233.2529376264106
 20
166.1954133975538
 30
0.0
 10
233.253521909324
 20
166.3861622724424
 30
0.0
 10
233.2187646343025
 20
166.434073281833
 30
0.0
 10
233.0765483898121
 20
166.4980349159162
 30
0.0
 10
232.9691057116005
 20
166.5138444325389
 30
0.0
 10
232.8260135428282
 20
166.5138444325389
 30
0.0
  0
SPLINE
  5
124
330
1F
100
AcDbEntity
  8
0
  6
CONTINUOUS
 62
     8
100
AcDbSpline
210
0.0
220
0.0
230
1.0
 70
     8
 71
     3
 72
     8
 73
     4
 74
     0
 42
0.000000001
 43
0.00000001
 40
0.0
 40
0.0
 40
0.0
 40
0.0
 40
1.0
 40
1.0
 40
1.0
 40
1.0
 10
188.7892075555551
 20
166.380659515313
 30
0.0
 10
188.8284164223144
 20
166.4700735028699
 30
0.0
 10
188.9694751160929
 20
166.5138444325389
 30
0.0
 10
189.2110295693839
 20
166.5138444325389
 30
0.0
  0
SPLINE
  5
125
330
1F
100
AcDbEntity
  8
0
  6
CONTINUOUS
 62
     8
100
AcDbSpline
210
0.0
220
0.0
230
1.0
 70
     8
 71
     3
 72
     8
 73
     4
 74
     0
 42
0.000000001
 43
0.00000001
 40
0.0
 40
0.0
 40
0.0
 40
0.0
 40
1.0
 40
1.0
 40
1.0
 40
1.0
 10
188.8108889424221
 20
166.2554076713736
 30
0.0
 10
188.7811942343909
 20
166.3039347046568
 30
0.0
 10
188.7739002825642
 20
166.3457517866187
 30
0.0
 10
188.7892075555551
 20
166.380659515313
 30
0.0
  0
SPLINE
  5
126
330
1F
100
AcDbEntity
  8
0
  6
CONTINUOUS
 62
     8
100
AcDbSpline
210
0.0
220
0.0
230
1.0
 70
     8
 71
     3
 72
     8
 73
     4
 74
     0
 42
0.000000001
 43
0.00000001
 40
0.0
 40
0.0
 40
0.0
 40
0.0
 40
1.0
 40
1.0
 40
1.0
 40
1.0
 10
189.3366604289744
 20
165.7542320831494
 30
0.0
 10
189.0640247472072
 20
165.9621013335045
 30
0.0
 10
188.8870279358453
 20
166.1309814026068
 30
0.0
 10
188.8108889424221
 20
166.2554076713736
 30
0.0
  0
SPLINE
  5
127
330
1F
100
AcDbEntity
  8
0
  6
CONTINUOUS
 62
     8
100
AcDbSpline
210
0.0
220
0.0
230
1.0
 70
     8
 71
     3
 72
     8
 73
     4
 74
     0
 42
0.000000001
 43
0.00000001
 40
0.0
 40
0.0
 40
0.0
 40
0.0
 40
1.0
 40
1.0
 40
1.0
 40
1.0
 10
232.917448364247
 20
166.3806595166624
 30
0.0
 10
232.9327556556778
 20
166.3457517462083
 30
0.0
 10
232.9254616996842
 20
166.3039347268594
 30
0.0
 10
232.8957669777411
 20
166.2554076709967
 30
0.0
  0
ARC
  5
128
330
1F
100
AcDbEntity
  8
0
  6
CONTINUOUS
 62
     8
100
AcDbCircle
 10
232.8949118702
 20
166.1564216753
 30
0.0
 40
0.0989896891706861
100
AcDbArc
 50
89.5050528776
 51
164.3054233967
  0
ARC
  5
129
330
1F
100
AcDbEntity
  8
0
  6
CONTINUOUS
 62
     8
100
AcDbCircle
 10
188.8117440497
 20
166.1564216751
 30
0.0
 40
0.0989896896967734
100
AcDbArc
 50
15.6945763782
 51
90.4949469622
  0
SPLINE
  5
12A
330
1F
100
AcDbEntity
  8
0
  6
CONTINUOUS
 62
     8
100
AcDbSpline
210
0.0
220
0.0
230
1.0
 70
     8
 71
     3
 72
     8
 73
     4
 74
     0
 42
0.000000001
 43
0.00000001
 40
0.0
 40
0.0
 40
0.0
 40
0.0
 40
1.0
 40
1.0
 40
1.0
 40
1.0
 10
232.8272951773046
 20
166.2509499696934
 30
0.0
 10
232.8308830029086
 20
166.2717058116493
 30
0.0
 10
232.8289080210533
 20
166.2907449064834
 30
0.0
 10
232.8213354223179
 20
166.3080655749669
 30
0.0
  0
ARC
  5
12B
330
1F
100
AcDbEntity
  8
0
  6
CONTINUOUS
 62
     8
100
AcDbCircle
 10
232.9176592988
 20
166.2804574563
 30
0.0
 40
0.1002022823680229
100
AcDbArc
 50
90.1206126943
 51
164.0067653464
  0
SPLINE
  5
12C
330
1F
100
AcDbEntity
  8
0
  6
CONTINUOUS
 62
     8
100
AcDbSpline
210
0.0
220
0.0
230
1.0
 70
     8
 71
     3
 72
     8
 73
     4
 74
     0
 42
0.000000001
 43
0.00000001
 40
0.0
 40
0.0
 40
0.0
 40
0.0
 40
1.0
 40
1.0
 40
1.0
 40
1.0
 10
188.8853204980759
 20
166.3080655749669
 30
0.0
 10
188.8777061907189
 20
166.2906495071054
 30
0.0
 10
188.875751260684
 20
166.2714870185393
 30
0.0
 10
188.8794221881277
 20
166.2505974349578
 30
0.0
  0
ARC
  5
12D
330
1F
100
AcDbEntity
  8
0
  6
CONTINUOUS
 62
     8
100
AcDbCircle
 10
188.7889966219
 20
166.2804574548
 30
0.0
 40
0.1002022825694828
100
AcDbArc
 50
15.9932363235
 51
89.8793877826
  0
LINE
  5
12E
330
1F
100
AcDbEntity
  8
0
  6
CONTINUOUS
 62
     8
100
AcDbLine
 10
232.7780515997
 20
166.1543887967
 30
0.0
 11
232.8213354223
 21
166.308065575
 31
0.0
  0
LINE
  5
12F
330
1F
100
AcDbEntity
  8
0
  6
CONTINUOUS
 62
     8
100
AcDbLine
 10
188.9286043364
 20
166.154388741
 30
0.0
 11
188.8853204977
 21
166.3080655763
 31
0.0
  0
SPLINE
  5
130
330
1F
100
AcDbEntity
  8
0
  6
CONTINUOUS
 62
     8
100
AcDbSpline
210
0.0
220
0.0
230
1.0
 70
     8
 71
     3
 72
     8
 73
     4
 74
     0
 42
0.000000001
 43
0.00000001
 40
0.0
 40
0.0
 40
0.0
 40
0.0
 40
1.0
 40
1.0
 40
1.0
 40
1.0
 10
189.3054867062837
 20
166.4406092411664
 30
0.0
 10
189.0648673044381
 20
166.4406128574864
 30
0.0
 10
188.9243481692813
 20
166.3970257356081
 30
0.0
 10
188.8853204977027
 20
166.308065576292
 30
0.0
  0
SPLINE
  5
131
330
1F
100
AcDbEntity
  8
0
  6
CONTINUOUS
 62
     8
100
AcDbSpline
210
0.0
220
0.0
230
1.0
 70
     8
 71
     3
 72
    11
 73
     7
 74
     0
 42
0.000000001
 43
0.00000001
 40
-0.00000006
 40
-0.00000006
 40
-0.00000006
 40
-0.00000006
 40
0.0
 40
0.0
 40
0.0
 40
0.0000149096833437
 40
0.0000149096833437
 40
0.0000149096833437
 40
0.0000149096833437
 10
189.3084450548643
 20
166.4406092032314
 30
0.0
 10
189.3084410965615
 20
166.4406092032673
 30
0.0
 10
189.3084371382788
 20
166.4406092033155
 30
0.0
 10
189.3084331800213
 20
166.4406092033576
 30
0.0
 10
189.3074495739106
 20
166.4406092138229
 30
0.0
 10
189.3064674158492
 20
166.4406092264271
 30
0.0
 10
189.3054867062837
 20
166.4406092411664
 30
0.0
  0
LINE
  5
132
330
1F
100
AcDbEntity
  8
0
  6
CONTINUOUS
 62
     8
100
AcDbLine
 10
189.5260749443
 20
165.6388083682
 30
0.0
 11
189.3084450549
 21
166.4406092032
 31
0.0
  0
SPLINE
  5
133
330
1F
100
AcDbEntity
  8
0
  6
CONTINUOUS
 62
     8
100
AcDbSpline
210
0.0
220
0.0
230
1.0
 70
     8
 71
     3
 72
    11
 73
     7
 74
     0
 42
0.000000001
 43
0.00000001
 40
0.0
 40
0.0
 40
0.0
 40
0.0
 40
0.0000149096833437
 40
0.0000149096833437
 40
0.0000149096833437
 40
0.0000149696833437
 40
0.0000149696833437
 40
0.0000149696833437
 40
0.0000149696833437
 10
232.4011692141101
 20
166.4406092411664
 30
0.0
 10
232.4001885045446
 20
166.4406092264271
 30
0.0
 10
232.3992063464833
 20
166.4406092138229
 30
0.0
 10
232.3982227403726
 20
166.4406092033576
 30
0.0
 10
232.398218782115
 20
166.4406092033155
 30
0.0
 10
232.3982148238323
 20
166.4406092032673
 30
0.0
 10
232.3982108655296
 20
166.4406092032314
 30
0.0
  0
SPLINE
  5
134
330
1F
100
AcDbEntity
  8
0
  6
CONTINUOUS
 62
     8
100
AcDbSpline
210
0.0
220
0.0
230
1.0
 70
     8
 71
     3
 72
     8
 73
     4
 74
     0
 42
0.000000001
 43
0.00000001
 40
0.0
 40
0.0
 40
0.0
 40
0.0
 40
1.0
 40
1.0
 40
1.0
 40
1.0
 10
232.8213354226912
 20
166.3080655762921
 30
0.0
 10
232.782308516498
 20
166.3970239909796
 30
0.0
 10
232.6417886160941
 20
166.4406128574864
 30
0.0
 10
232.4011692141101
 20
166.4406092411664
 30
0.0
  0
LINE
  5
135
330
1F
100
AcDbEntity
  8
0
  6
CONTINUOUS
 62
     8
100
AcDbLine
 10
232.1817366645
 20
165.643066202
 30
0.0
 11
232.3982108655
 21
166.4406092032
 31
0.0
  0
ARC
  5
136
330
1F
100
AcDbEntity
  8
0
  6
CONTINUOUS
 62
     8
100
AcDbCircle
 10
189.2103832306
 20
166.4154788359
 30
0.0
 40
0.0983677201155283
100
AcDbArc
 50
14.801679927
 51
89.6235273935
  0
ARC
  5
137
330
1F
100
AcDbEntity
  8
0
  6
CONTINUOUS
 62
     8
100
AcDbCircle
 10
232.4962726898
 20
166.4154788359
 30
0.0
 40
0.0983677201156202
100
AcDbArc
 50
90.3764726066
 51
165.198320073
  0
ARC
  5
138
330
1F
100
AcDbEntity
  8
0
  6
CONTINUOUS
 62
     8
100
AcDbCircle
 10
189.2133490196
 20
166.4154885454
 30
0.0
 40
0.0983580366755274
100
AcDbArc
 50
14.797297539
 51
89.6212074661
  0
ARC
  5
139
330
1F
100
AcDbEntity
  8
0
  6
CONTINUOUS
 62
     8
100
AcDbCircle
 10
232.4933069014
 20
166.4154885446
 30
0.0
 40
0.0983580374671412
100
AcDbArc
 50
90.3787928866
 51
165.2027021082
  0
ENDSEC
  0
SECTION
  2
OBJECTS
  0
DICTIONARY
  5
C
330
0
100
AcDbDictionary
  3
ACAD_GROUP
350
D
  3
ACAD_MLINESTYLE
350
17
  3
ACAD_SCALELIST
350
47
  0
DICTIONARY
  5
D
102
{ACAD_REACTORS
330
C
102
}
330
C
100
AcDbDictionary
  0
DICTIONARY
  5
17
102
{ACAD_REACTORS
330
C
102
}
330
C
100
AcDbDictionary
  3
STANDARD
350
18
  0
DICTIONARY
  5
47
102
{ACAD_REACTORS
330
C
102
}
330
C
100
AcDbDictionary
  0
MLINESTYLE
  5
18
102
{ACAD_REACTORS
330
17
102
}
330
17
100
AcDbMlineStyle
  2
Standard
 70
     0
  3

 62
   256
 51
90.0
 52
90.0
 71
     2
 49
0.5
 62
   256
  6
BYLAYER
 49
-0.5
 62
   256
  6
BYLAYER
  0
ENDSEC
  0
EOF
