  0
SECTION
  2
HEADER
  9
$ACADVER
  1
AC1015
  9
$ACADMAINTVER
 70
     6
  9
$DWGCODEPAGE
  3
ANSI_1252
  9
$INSBASE
 10
0.0
 20
0.0
 30
0.0
  9
$EXTMIN
 10
0.0
 20
0.0
 30
0.0
  9
$EXTMAX
 10
594.0
 20
841.0
 30
0.0
  9
$LIMMIN
 10
0.0
 20
0.0
  9
$LIMMAX
 10
594.0
 20
841.0
  9
$ORTHOMODE
 70
     0
  9
$REGENMODE
 70
     1
  9
$FILLMODE
 70
     1
  9
$QTEXTMODE
 70
     0
  9
$MIRRTEXT
 70
     1
  9
$LTSCALE
 40
1.0
  9
$ATTMODE
 70
     1
  9
$TEXTSIZE
 40
10.0
  9
$TRACEWID
 40
1.0
  9
$TEXTSTYLE
  7
Standard
  9
$CLAYER
  8
0
  9
$CELTYPE
  6
ByLayer
  9
$CECOLOR
 62
   256
  9
$CELTSCALE
 40
1.0
  9
$DISPSILH
 70
     0
  9
$DIMSCALE
 40
1.0
  9
$DIMASZ
 40
2.5
  9
$DIMEXO
 40
0.0
  9
$DIMDLI
 40
3.75
  9
$DIMRND
 40
0.0
  9
$DIMDLE
 40
0.0
  9
$DIMEXE
 40
1.0
  9
$DIMTP
 40
0.0
  9
$DIMTM
 40
0.0
  9
$DIMTXT
 40
3.5
  9
$DIMCEN
 40
2.5
  9
$DIMTSZ
 40
0.0
  9
$DIMTOL
 70
     0
  9
$DIMLIM
 70
     0
  9
$DIMTIH
 70
     1
  9
$DIMTOH
 70
     1
  9
$DIMSE1
 70
     0
  9
$DIMSE2
 70
     0
  9
$DIMTAD
 70
     1
  9
$DIMZIN
 70
     0
  9
$DIMBLK
  1

  9
$DIMASO
 70
     1
  9
$DIMSHO
 70
     1
  9
$DIMPOST
  1

  9
$DIMAPOST
  1

  9
$DIMALT
 70
     0
  9
$DIMALTD
 70
     3
  9
$DIMALTF
 40
0.0393700787
  9
$DIMLFAC
 40
1.0
  9
$DIMTOFL
 70
     1
  9
$DIMTVP
 40
0.0
  9
$DIMTIX
 70
     0
  9
$DIMSOXD
 70
     0
  9
$DIMSAH
 70
     0
  9
$DIMBLK1
  1

  9
$DIMBLK2
  1

  9
$DIMSTYLE
  2
ISO-25
  9
$DIMCLRD
 70
     0
  9
$DIMCLRE
 70
     0
  9
$DIMCLRT
 70
     0
  9
$DIMTFAC
 40
1.0
  9
$DIMGAP
 40
1.5
  9
$DIMJUST
 70
     0
  9
$DIMSD1
 70
     0
  9
$DIMSD2
 70
     0
  9
$DIMTOLJ
 70
     0
  9
$DIMTZIN
 70
     0
  9
$DIMALTZ
 70
     0
  9
$DIMALTTZ
 70
     0
  9
$DIMUPT
 70
     0
  9
$DIMDEC
 70
     2
  9
$DIMTDEC
 70
     2
  9
$DIMALTU
 70
     2
  9
$DIMALTTD
 70
     3
  9
$DIMTXSTY
  7
Standard
  9
$DIMAUNIT
 70
     0
  9
$DIMADEC
 70
     2
  9
$DIMALTRND
 40
0.0
  9
$DIMAZIN
 70
     0
  9
$DIMDSEP
 70
    44
  9
$DIMATFIT
 70
     3
  9
$DIMFRAC
 70
     0
  9
$DIMLDRBLK
  1

  9
$DIMLUNIT
 70
     2
  9
$DIMLWD
 70
    -2
  9
$DIMLWE
 70
    -2
  9
$DIMTMOVE
 70
     0
  9
$LUNITS
 70
     2
  9
$LUPREC
 70
     2
  9
$SKETCHINC
 40
1.0
  9
$FILLETRAD
 40
10.0
  9
$AUNITS
 70
     0
  9
$AUPREC
 70
     2
  9
$MENU
  1
.
  9
$ELEVATION
 40
0.0
  9
$PELEVATION
 40
0.0
  9
$THICKNESS
 40
0.0
  9
$LIMCHECK
 70
     0
  9
$CHAMFERA
 40
0.0
  9
$CHAMFERB
 40
0.0
  9
$CHAMFERC
 40
0.0
  9
$CHAMFERD
 40
0.0
  9
$SKPOLY
 70
     0
  9
$TDCREATE
 40
2459992.406264144
  9
$TDUCREATE
 40
2459992.364597477
  9
$TDUPDATE
 40
2459992.406265324
  9
$TDUUPDATE
 40
2459992.364598657
  9
$TDINDWG
 40
0.0000000116
  9
$TDUSRTIMER
 40
0.0000000116
  9
$USRTIMER
 70
     1
  9
$ANGBASE
 50
0.0
  9
$ANGDIR
 70
     0
  9
$PDMODE
 70
     0
  9
$PDSIZE
 40
-1.0
  9
$PLINEWID
 40
0.0
  9
$SPLFRAME
 70
     0
  9
$SPLINETYPE
 70
     6
  9
$SPLINESEGS
 70
     8
  9
$HANDSEED
  5
14B
  9
$SURFTAB1
 70
     6
  9
$SURFTAB2
 70
     6
  9
$SURFTYPE
 70
     6
  9
$SURFU
 70
     6
  9
$SURFV
 70
     6
  9
$UCSBASE
  2

  9
$UCSNAME
  2

  9
$UCSORG
 10
0.0
 20
0.0
 30
0.0
  9
$UCSXDIR
 10
1.0
 20
0.0
 30
0.0
  9
$UCSYDIR
 10
0.0
 20
1.0
 30
0.0
  9
$UCSORTHOREF
  2

  9
$UCSORTHOVIEW
 70
     0
  9
$UCSORGTOP
 10
0.0
 20
0.0
 30
0.0
  9
$UCSORGBOTTOM
 10
0.0
 20
0.0
 30
0.0
  9
$UCSORGLEFT
 10
0.0
 20
0.0
 30
0.0
  9
$UCSORGRIGHT
 10
0.0
 20
0.0
 30
0.0
  9
$UCSORGFRONT
 10
0.0
 20
0.0
 30
0.0
  9
$UCSORGBACK
 10
0.0
 20
0.0
 30
0.0
  9
$PUCSBASE
  2

  9
$PUCSNAME
  2

  9
$PUCSORG
 10
0.0
 20
0.0
 30
0.0
  9
$PUCSXDIR
 10
1.0
 20
0.0
 30
0.0
  9
$PUCSYDIR
 10
0.0
 20
1.0
 30
0.0
  9
$PUCSORTHOREF
  2

  9
$PUCSORTHOVIEW
 70
     0
  9
$PUCSORGTOP
 10
0.0
 20
0.0
 30
0.0
  9
$PUCSORGBOTTOM
 10
0.0
 20
0.0
 30
0.0
  9
$PUCSORGLEFT
 10
0.0
 20
0.0
 30
0.0
  9
$PUCSORGRIGHT
 10
0.0
 20
0.0
 30
0.0
  9
$PUCSORGFRONT
 10
0.0
 20
0.0
 30
0.0
  9
$PUCSORGBACK
 10
0.0
 20
0.0
 30
0.0
  9
$USERI1
 70
     0
  9
$USERI2
 70
     0
  9
$USERI3
 70
     0
  9
$USERI4
 70
     0
  9
$USERI5
 70
     0
  9
$USERR1
 40
0.0
  9
$USERR2
 40
0.0
  9
$USERR3
 40
0.0
  9
$USERR4
 40
0.0
  9
$USERR5
 40
0.0
  9
$WORLDVIEW
 70
     1
  9
$SHADEDGE
 70
     3
  9
$SHADEDIF
 70
    70
  9
$TILEMODE
 70
     1
  9
$MAXACTVP
 70
    64
  9
$PINSBASE
 10
0.0
 20
0.0
 30
0.0
  9
$PLIMCHECK
 70
     0
  9
$PEXTMIN
 10
1.0000000000E+20
 20
1.0000000000E+20
 30
1.0000000000E+20
  9
$PEXTMAX
 10
-1.0000000000E+20
 20
-1.0000000000E+20
 30
-1.0000000000E+20
  9
$PLIMMIN
 10
0.0
 20
0.0
  9
$PLIMMAX
 10
420.0
 20
297.0
  9
$UNITMODE
 70
     0
  9
$VISRETAIN
 70
     1
  9
$PLINEGEN
 70
     0
  9
$PSLTSCALE
 70
     1
  9
$TREEDEPTH
 70
  3020
  9
$CMLSTYLE
  2
Standard
  9
$CMLJUST
 70
     0
  9
$CMLSCALE
 40
20.0
  9
$PROXYGRAPHICS
 70
     1
  9
$MEASUREMENT
 70
     1
  9
$CELWEIGHT
370
    -1
  9
$ENDCAPS
280
     0
  9
$JOINSTYLE
280
     0
  9
$LWDISPLAY
290
     1
  9
$INSUNITS
 70
     4
  9
$HYPERLINKBASE
  1

  9
$STYLESHEET
  1

  9
$XEDIT
290
     1
  9
$CEPSNTYPE
380
     0
  9
$PSTYLEMODE
290
     1
  9
$FINGERPRINTGUID
  2
{fcfb742a-d6a4-4030-8b83-401313926a86}
  9
$VERSIONGUID
  2
{FAEB1C32-E019-11D5-929B-00C0DF256EC4}
  9
$EXTNAMES
290
     1
  9
$PSVPSCALE
 40
0.0
  9
$OLESTARTUP
290
     0
  0
ENDSEC
  0
SECTION
  2
CLASSES
  0
CLASS
  1
ACDBDICTIONARYWDFLT
  2
AcDbDictionaryWithDefault
  3
ObjectDBX Classes
 90
        0
280
     0
281
     0
  0
CLASS
  1
VISUALSTYLE
  2
AcDbVisualStyle
  3
ObjectDBX Classes
 90
     4095
280
     0
281
     0
  0
CLASS
  1
MATERIAL
  2
AcDbMaterial
  3
ObjectDBX Classes
 90
     1153
280
     0
281
     0
  0
CLASS
  1
SCALE
  2
AcDbScale
  3
ObjectDBX Classes
 90
     1153
280
     0
281
     0
  0
CLASS
  1
TABLESTYLE
  2
AcDbTableStyle
  3
ObjectDBX Classes
 90
     4095
280
     0
281
     0
  0
CLASS
  1
MLEADERSTYLE
  2
AcDbMLeaderStyle
  3
ACDB_MLEADERSTYLE_CLASS
 90
     4095
280
     0
281
     0
  0
CLASS
  1
SUN
  2
AcDbSun
  3
SCENEOE
 90
     1153
280
     0
281
     0
  0
CLASS
  1
ACDBPLACEHOLDER
  2
AcDbPlaceHolder
  3
ObjectDBX Classes
 90
        0
280
     0
281
     0
  0
CLASS
  1
LAYOUT
  2
AcDbLayout
  3
ObjectDBX Classes
 90
        0
280
     0
281
     0
  0
ENDSEC
  0
SECTION
  2
TABLES
  0
TABLE
  2
VPORT
  5
8
330
0
100
AcDbSymbolTable
 70
     1
  0
VPORT
  5
29
330
8
100
AcDbSymbolTableRecord
100
AcDbViewportTableRecord
  2
*Active
 70
     0
 10
0.0
 20
0.0
 11
1.0
 21
1.0
 12
297.0
 22
420.5
 13
0.0
 23
0.0
 14
10.0
 24
10.0
 15
10.0
 25
10.0
 16
0.0
 26
0.0
 36
1.0
 17
0.0
 27
0.0
 37
0.0
 40
841.0
 41
0.7063020214
 42
50.0
 43
0.0
 44
0.0
 50
0.0
 51
0.0
 71
     0
 72
  2000
 73
     1
 74
     3
 75
     0
 76
     0
 77
     0
 78
     0
281
     0
 65
     1
110
0.0
120
0.0
130
0.0
111
1.0
121
0.0
131
0.0
112
0.0
122
1.0
132
0.0
 79
     0
146
0.0
  0
ENDTAB
  0
TABLE
  2
LTYPE
  5
5
330
0
100
AcDbSymbolTable
 70
     6
  0
LTYPE
  5
14
330
5
100
AcDbSymbolTableRecord
100
AcDbLinetypeTableRecord
  2
ByBlock
 70
     0
  3

 72
    65
 73
     0
 40
0.0
  0
LTYPE
  5
15
330
5
100
AcDbSymbolTableRecord
100
AcDbLinetypeTableRecord
  2
ByLayer
 70
     0
  3

 72
    65
 73
     0
 40
0.0
  0
LTYPE
  5
16
330
5
100
AcDbSymbolTableRecord
100
AcDbLinetypeTableRecord
  2
Continuous
 70
     0
  3
Solid line
 72
    65
 73
     0
 40
0.0
  0
LTYPE
  5
6E
330
5
100
AcDbSymbolTableRecord
100
AcDbLinetypeTableRecord
  2
HIDDEN
 70
     0
  3
Hidden __ __ __ __ __ __ __ __ __ __ __ __ __ __
 72
    65
 73
     2
 40
1.905
 49
1.27
 74
     0
 49
-0.635
 74
     0
  0
LTYPE
  5
6F
330
5
100
AcDbSymbolTableRecord
100
AcDbLinetypeTableRecord
  2
PHANTOM
 70
     0
  3
Phantom ______  __  __  ______  __  __  ______
 72
    65
 73
     6
 40
12.7
 49
6.35
 74
     0
 49
-1.27
 74
     0
 49
1.27
 74
     0
 49
-1.27
 74
     0
 49
1.27
 74
     0
 49
-1.27
 74
     0
  0
LTYPE
  5
70
330
5
100
AcDbSymbolTableRecord
100
AcDbLinetypeTableRecord
  2
CENTER
 70
     0
  3
Center ____ _ ____ _ ____ _ ____ _ ____ _ ____
 72
    65
 73
     4
 40
10.16
 49
6.35
 74
     0
 49
-1.27
 74
     0
 49
1.27
 74
     0
 49
-1.27
 74
     0
  0
LTYPE
  5
71
330
5
100
AcDbSymbolTableRecord
100
AcDbLinetypeTableRecord
  2
CENTERX2
 70
     0
  3
Center (2x) ________  __  ________  __  _____
 72
    65
 73
     4
 40
20.32
 49
12.7
 74
     0
 49
-2.54
 74
     0
 49
2.54
 74
     0
 49
-2.54
 74
     0
  0
LTYPE
  5
72
330
5
100
AcDbSymbolTableRecord
100
AcDbLinetypeTableRecord
  2
DOT2
 70
     0
  3
Dot (.5x) ........................................
 72
    65
 73
     2
 40
0.635
 49
0.0
 74
     0
 49
-0.635
 74
     0
  0
ENDTAB
  0
TABLE
  2
LAYER
  5
2
330
0
100
AcDbSymbolTable
 70
     1
  0
LAYER
  5
10
330
2
100
AcDbSymbolTableRecord
100
AcDbLayerTableRecord
  2
0
 70
     0
 62
     7
  6
Continuous
370
    -3
390
F
  0
ENDTAB
  0
TABLE
  2
STYLE
  5
3
330
0
100
AcDbSymbolTable
 70
     3
  0
STYLE
  5
11
330
3
100
AcDbSymbolTableRecord
100
AcDbTextStyleTableRecord
  2
Standard
 70
     0
 40
0.0
 41
1.0
 50
0.0
 71
     0
 42
10.0
  3
txt
  4

  0
STYLE
  5
76
330
3
100
AcDbSymbolTableRecord
100
AcDbTextStyleTableRecord
  2
SLDTEXTSTYLE0
 70
     0
 40
0.0
 41
0.96
 50
0.0
 71
     0
 42
10.0
  3
ISOCP3
  4

  0
STYLE
  5
8D
330
3
100
AcDbSymbolTableRecord
100
AcDbTextStyleTableRecord
  2
SLDTEXTSTYLE1
 70
     0
 40
0.0
 41
0.605
 50
0.0
 71
     0
 42
10.0
  3
TXT
  4

  0
ENDTAB
  0
TABLE
  2
VIEW
  5
6
330
0
100
AcDbSymbolTable
 70
     0
  0
ENDTAB
  0
TABLE
  2
UCS
  5
7
330
0
100
AcDbSymbolTable
 70
     0
  0
ENDTAB
  0
TABLE
  2
APPID
  5
9
330
0
100
AcDbSymbolTable
 70
     1
  0
APPID
  5
12
330
9
100
AcDbSymbolTableRecord
100
AcDbRegAppTableRecord
  2
ACAD
 70
     0
  0
ENDTAB
  0
TABLE
  2
DIMSTYLE
  5
A
330
0
100
AcDbSymbolTable
 70
     2
100
AcDbDimStyleTable
  0
DIMSTYLE
105
27
330
A
100
AcDbSymbolTableRecord
100
AcDbDimStyleTableRecord
  2
ISO-25
 70
     0
 41
2.5
 42
0.625
 43
3.75
 44
1.25
 73
     0
 74
     0
 77
     1
 78
     8
140
2.5
141
2.5
143
0.0393700787
147
0.625
171
     3
172
     1
178
     0
271
     2
272
     2
274
     3
278
    44
283
     0
284
     8
340
11
  0
DIMSTYLE
105
77
102
{ACAD_REACTORS
330
75
330
82
102
}
330
A
100
AcDbSymbolTableRecord
100
AcDbDimStyleTableRecord
  2
SLDDIMSTYLE0
 70
     0
 41
2.5
 44
0.0
 45
0.000000001
 73
     0
 74
     0
 77
     1
 78
    12
 79
     3
140
6.0
147
1.5
173
     1
178
     0
271
     2
272
     2
276
     2
284
    12
340
76
  0
ENDTAB
  0
TABLE
  2
BLOCK_RECORD
  5
1
330
0
100
AcDbSymbolTable
 70
     3
  0
BLOCK_RECORD
  5
1F
330
1
100
AcDbSymbolTableRecord
100
AcDbBlockTableRecord
  2
*Model_Space
340
22
  0
BLOCK_RECORD
  5
1B
330
1
100
AcDbSymbolTableRecord
100
AcDbBlockTableRecord
  2
*Paper_Space
340
1E
  0
BLOCK_RECORD
  5
23
330
1
100
AcDbSymbolTableRecord
100
AcDbBlockTableRecord
  2
*Paper_Space0
340
26
  0
BLOCK_RECORD
  5
78
330
1
100
AcDbSymbolTableRecord
100
AcDbBlockTableRecord
  2
_D
340
0
  0
BLOCK_RECORD
  5
83
330
1
100
AcDbSymbolTableRecord
100
AcDbBlockTableRecord
  2
_D_1
340
0
  0
ENDTAB
  0
ENDSEC
  0
SECTION
  2
BLOCKS
  0
BLOCK
  5
20
330
1F
100
AcDbEntity
  8
0
100
AcDbBlockBegin
  2
*Model_Space
 70
     0
 10
0.0
 20
0.0
 30
0.0
  3
*Model_Space
  1

  0
ENDBLK
  5
21
330
1F
100
AcDbEntity
  8
0
100
AcDbBlockEnd
  0
BLOCK
  5
1C
330
1B
100
AcDbEntity
 67
     1
  8
0
100
AcDbBlockBegin
  2
*Paper_Space
 70
     0
 10
0.0
 20
0.0
 30
0.0
  3
*Paper_Space
  1

  0
ENDBLK
  5
1D
330
1B
100
AcDbEntity
 67
     1
  8
0
100
AcDbBlockEnd
  0
BLOCK
  5
24
330
23
100
AcDbEntity
  8
0
100
AcDbBlockBegin
  2
*Paper_Space0
 70
     0
 10
0.0
 20
0.0
 30
0.0
  3
*Paper_Space0
  1

  0
ENDBLK
  5
25
330
23
100
AcDbEntity
  8
0
100
AcDbBlockEnd
  0
BLOCK
  5
79
330
78
100
AcDbEntity
  8
0
100
AcDbBlockBegin
  2
_D
 70
     0
 10
0.0
 20
0.0
 30
0.0
  3
_D
  1

  0
SOLID
  5
7B
330
78
100
AcDbEntity
  8
0
  6
Continuous
 62
     7
370
    18
100
AcDbTrace
 10
42.7614395004
 20
152.0299240879
 30
0.0
 11
42.4614395004
 21
149.5299240879
 31
0.0
 12
43.0614395004
 22
149.5299240879
 32
0.0
 13
43.0614395004
 23
149.5299240879
 33
0.0
  0
SOLID
  5
7C
330
78
100
AcDbEntity
  8
0
  6
Continuous
 62
     7
370
    18
100
AcDbTrace
 10
42.7614395004
 20
52.0299240879
 30
0.0
 11
43.0614395004
 21
54.5299240879
 31
0.0
 12
42.4614395004
 22
54.5299240879
 32
0.0
 13
42.4614395004
 23
54.5299240879
 33
0.0
  0
LINE
  5
7D
330
78
100
AcDbEntity
  8
0
  6
Continuous
 62
     7
370
     0
100
AcDbLine
 10
56.6850079902
 20
152.0299240879
 30
0.0
 11
41.7614395004
 21
152.0299240879
 31
0.0
  0
LINE
  5
7E
330
78
100
AcDbEntity
  8
0
  6
Continuous
 62
     7
370
     0
100
AcDbLine
 10
56.6850079902
 20
52.0299240879
 30
0.0
 11
41.7614395004
 21
52.0299240879
 31
0.0
  0
LINE
  5
7F
330
78
100
AcDbEntity
  8
0
  6
Continuous
 62
     7
370
     0
100
AcDbLine
 10
42.7614395004
 20
152.0299240879
 30
0.0
 11
42.7614395004
 21
52.0299240879
 31
0.0
  0
MTEXT
  5
80
330
78
100
AcDbEntity
  8
0
  6
Continuous
 62
     7
370
    18
100
AcDbMText
 10
35.0270332946
 20
94.3680541463
 30
0.0
 40
6.0
 41
0.0
 71
     1
 72
     1
  1
100
  7
SLDTEXTSTYLE0
 11
-7.044195017643634E-15
 21
1.0
 31
0.0
 73
     1
 44
1.0
  0
MTEXT
  5
81
330
78
100
AcDbEntity
  8
0
  6
Continuous
 62
     7
370
    18
100
AcDbMText
 10
35.0270332946
 20
105.7430548466
 30
0.0
 40
6.0
 41
0.0
 71
     1
 72
     1
  1
mm
  7
SLDTEXTSTYLE0
 11
-7.044195017643634E-15
 21
1.0
 31
0.0
 73
     1
 44
1.0
  0
ENDBLK
  5
7A
330
78
100
AcDbEntity
  8
0
100
AcDbBlockEnd
  0
BLOCK
  5
84
330
83
100
AcDbEntity
  8
0
100
AcDbBlockBegin
  2
_D_1
 70
     0
 10
0.0
 20
0.0
 30
0.0
  3
_D_1
  1

  0
SOLID
  5
86
330
83
100
AcDbEntity
  8
0
  6
Continuous
 62
     7
370
    18
100
AcDbTrace
 10
56.6850079902
 20
38.4602342313
 30
0.0
 11
59.1850079902
 21
38.1602342313
 31
0.0
 12
59.1850079902
 22
38.7602342313
 32
0.0
 13
59.1850079902
 23
38.7602342313
 33
0.0
  0
SOLID
  5
87
330
83
100
AcDbEntity
  8
0
  6
Continuous
 62
     7
370
    18
100
AcDbTrace
 10
156.6850079902
 20
38.4602342313
 30
0.0
 11
154.1850079902
 21
38.7602342313
 31
0.0
 12
154.1850079902
 22
38.1602342313
 32
0.0
 13
154.1850079902
 23
38.1602342313
 33
0.0
  0
LINE
  5
88
330
83
100
AcDbEntity
  8
0
  6
Continuous
 62
     7
370
     0
100
AcDbLine
 10
56.6850079902
 20
52.0299240879
 30
0.0
 11
56.6850079902
 21
37.4602342313
 31
0.0
  0
LINE
  5
89
330
83
100
AcDbEntity
  8
0
  6
Continuous
 62
     7
370
     0
100
AcDbLine
 10
156.6850079902
 20
52.0299240879
 30
0.0
 11
156.6850079902
 21
37.4602342313
 31
0.0
  0
LINE
  5
8A
330
83
100
AcDbEntity
  8
0
  6
Continuous
 62
     7
370
     0
100
AcDbLine
 10
56.6850079902
 20
38.4602342313
 30
0.0
 11
156.6850079902
 21
38.4602342313
 31
0.0
  0
MTEXT
  5
8B
330
83
100
AcDbEntity
  8
0
  6
Continuous
 62
     7
370
    18
100
AcDbMText
 10
93.9626484861
 20
46.1946404371
 30
0.0
 40
6.0
 41
0.0
 71
     1
 72
     1
  1
100
  7
SLDTEXTSTYLE0
 73
     1
 44
1.0
  0
MTEXT
  5
8C
330
83
100
AcDbEntity
  8
0
  6
Continuous
 62
     7
370
    18
100
AcDbMText
 10
105.3376491864
 20
46.1946404371
 30
0.0
 40
6.0
 41
0.0
 71
     1
 72
     1
  1
mm
  7
SLDTEXTSTYLE0
 73
     1
 44
1.0
  0
ENDBLK
  5
85
330
83
100
AcDbEntity
  8
0
100
AcDbBlockEnd
  0
ENDSEC
  0
SECTION
  2
ENTITIES
  0
LINE
  5
73
330
1F
100
AcDbEntity
  8
0
  6
Continuous
 62
     7
370
    18
100
AcDbLine
 10
56.6850079902
 20
152.0299240879
 30
0.0
 11
56.6850079902
 21
52.0299240879
 31
0.0
  0
LINE
  5
74
330
1F
100
AcDbEntity
  8
0
  6
Continuous
 62
     7
370
    18
100
AcDbLine
 10
56.6850079902
 20
52.0299240879
 30
0.0
 11
156.6850079902
 21
52.0299240879
 31
0.0
  0
DIMENSION
  5
75
330
1F
100
AcDbEntity
  8
0
  6
Continuous
 62
     7
370
    18
100
AcDbDimension
  2
_D
 10
42.7614395004
 20
52.0299240879
 30
0.0
 11
42.7614395004
 21
105.4472211621
 31
0.0
 70
   160
  1
<>mm
 71
     2
 42
-1.0
  3
SLDDIMSTYLE0
100
AcDbAlignedDimension
 13
56.6850079902
 23
152.0299240879
 33
0.0
 14
56.6850079902
 24
52.0299240879
 34
0.0
 50
90.0
100
AcDbRotatedDimension
  0
DIMENSION
  5
82
330
1F
100
AcDbEntity
  8
0
  6
Continuous
 62
     7
370
    18
100
AcDbDimension
  2
_D_1
 10
156.6850079902
 20
38.4602342313
 30
0.0
 11
105.0418155019
 21
38.4602342313
 31
0.0
 70
   160
  1
<>mm
 71
     2
 42
-1.0
  3
SLDDIMSTYLE0
100
AcDbAlignedDimension
 13
56.6850079902
 23
52.0299240879
 33
0.0
 14
156.6850079902
 24
52.0299240879
 34
0.0
100
AcDbRotatedDimension
  0
MTEXT
  5
8E
330
1F
100
AcDbEntity
  8
0
  6
Continuous
 62
     7
370
     0
100
AcDbMText
 10
412.8252631579
 20
48.4342449499
 30
0.0
 40
10.0
 41
0.0
 71
     1
 72
     1
  1
KLUDI GmbH & Co KG
  7
SLDTEXTSTYLE1
 73
     1
 44
1.0
  0
MTEXT
  5
8F
330
1F
100
AcDbEntity
  8
0
  6
Continuous
 62
     7
370
     0
100
AcDbMText
 10
210.0873490389
 20
48.4342449499
 30
0.0
 40
10.0
 41
0.0
 71
     1
 72
     1
  1
34 755 .. 75
  7
SLDTEXTSTYLE1
 73
     1
 44
1.0
  0
SPLINE
  5
90
330
1F
100
AcDbEntity
  8
0
  6
Continuous
 62
     7
370
    25
100
AcDbSpline
210
0.0
220
0.0
230
1.0
 70
     8
 71
     3
 72
    18
 73
    14
 74
     0
 42
0.00000001
 43
0.00000001
 40
0.0
 40
0.0
 40
0.0
 40
0.0
 40
0.093349596165524
 40
0.1835319370071413
 40
0.2690703691463495
 40
0.3490472164389847
 40
0.4194613571141242
 40
0.4796976057660826
 40
0.5722240799241154
 40
0.6407501203123532
 40
0.7317855135141749
 40
0.8507899920334555
 40
0.9999999999999999
 40
0.9999999999999999
 40
0.9999999999999999
 40
0.9999999999999999
 10
199.8588787882551
 20
270.1410361041717
 30
0.0
 10
200.2699294365061
 20
270.1914083885659
 30
0.0
 10
201.0780842093215
 20
270.2904438778033
 30
0.0
 10
202.2280546371701
 20
270.631448588293
 30
0.0
 10
203.246136998543
 20
271.1495345025357
 30
0.0
 10
204.0513273218092
 20
271.8330492196437
 30
0.0
 10
204.6234120322105
 20
272.5788285904217
 30
0.0
 10
205.0875451870106
 20
273.4562850106989
 30
0.0
 10
205.4215264949815
 20
274.3828189333465
 30
0.0
 10
205.7016959958948
 20
275.4658972129848
 30
0.0
 10
205.9276844369601
 20
276.6812462321317
 30
0.0
 10
206.1905247255514
 20
278.2526907191097
 30
0.0
 10
206.3757641693933
 20
279.4278630550708
 30
0.0
 10
206.4788144529686
 20
280.0816214553282
 30
0.0
  0
SPLINE
  5
91
330
1F
100
AcDbEntity
  8
0
  6
Continuous
 62
     7
370
    25
100
AcDbSpline
210
0.0
220
0.0
230
1.0
 70
     8
 71
     3
 72
    18
 73
    14
 74
     0
 42
0.00000001
 43
0.00000001
 40
0.0
 40
0.0
 40
0.0
 40
0.0
 40
0.1492100079665438
 40
0.2682144864858236
 40
0.359249879687647
 40
0.4277759200758821
 40
0.5203023942339159
 40
0.5805386428858752
 40
0.6509527835610139
 40
0.73092963085365
 40
0.8164680629928588
 40
0.9066504038344754
 40
1.0
 40
1.0
 40
1.0
 40
1.0
 10
168.2628456248729
 20
280.0816214553282
 30
0.0
 10
168.3658959084482
 20
279.4278630550708
 30
0.0
 10
168.5511353522901
 20
278.2526907191097
 30
0.0
 10
168.8139756408814
 20
276.6812462321317
 30
0.0
 10
169.0399640819467
 20
275.4658972129848
 30
0.0
 10
169.32013358286
 20
274.3828189333465
 30
0.0
 10
169.6541148908309
 20
273.4562850106989
 30
0.0
 10
170.118248045631
 20
272.5788285904217
 30
0.0
 10
170.6903327560323
 20
271.8330492196437
 30
0.0
 10
171.4955230792986
 20
271.1495345025357
 30
0.0
 10
172.5136054406714
 20
270.631448588293
 30
0.0
 10
173.66357586852
 20
270.2904438778032
 30
0.0
 10
174.4717306413354
 20
270.191408388566
 30
0.0
 10
174.8827812895864
 20
270.1410361041717
 30
0.0
  0
SPLINE
  5
92
330
1F
100
AcDbEntity
  8
0
  6
Continuous
 62
     7
370
    25
100
AcDbSpline
210
0.0
220
0.0
230
1.0
 70
     8
 71
     3
 72
    11
 73
     7
 74
     0
 42
0.00000001
 43
0.00000001
 40
0.0
 40
0.0
 40
0.0
 40
0.0
 40
0.1798854402212705
 40
0.4066443233904385
 40
0.6800320939324453
 40
1.0
 40
1.0
 40
1.0
 40
1.0
 10
174.8827819731177
 20
270.1410472651342
 30
0.0
 10
175.6293208364393
 20
270.0708515149483
 30
0.0
 10
177.3169270739795
 20
269.9121688372168
 30
0.0
 10
180.1464152736011
 20
269.7297362645949
 30
0.0
 10
183.5629640635397
 20
269.5853140212959
 30
0.0
 10
186.0368078734674
 20
269.5669613460352
 30
0.0
 10
187.3708317229125
 20
269.5570646393794
 30
0.0
  0
SPLINE
  5
93
330
1F
100
AcDbEntity
  8
0
  6
Continuous
 62
     7
370
    25
100
AcDbSpline
210
0.0
220
0.0
230
1.0
 70
     8
 71
     3
 72
     9
 73
     5
 74
     0
 42
0.00000001
 43
0.00000001
 40
0.0
 40
0.0
 40
0.0
 40
0.0
 40
0.4995987379187916
 40
1.0
 40
1.0
 40
1.0
 40
1.0
 10
187.370830384402
 20
269.5570646393323
 30
0.0
 10
189.4542497571419
 20
269.5766763249431
 30
0.0
 10
193.624435177183
 20
269.6159311991496
 30
0.0
 10
197.7796189170929
 20
269.965914953
 30
0.0
 10
199.8588781047232
 20
270.1410472651347
 30
0.0
  0
SPLINE
  5
94
330
1F
100
AcDbEntity
  8
0
  6
Continuous
 62
     7
370
    25
100
AcDbSpline
210
0.0
220
0.0
230
1.0
 70
     8
 71
     3
 72
    18
 73
    14
 74
     0
 42
0.00000001
 43
0.00000001
 40
0.0
 40
0.0
 40
0.0
 40
0.0
 40
0.1088088543034053
 40
0.2040253913817803
 40
0.2855632126104178
 40
0.3533914034440528
 40
0.4075072590879258
 40
0.4527652754034654
 40
0.522555159830522
 40
0.6121718834592599
 40
0.7215858376190999
 40
0.8508131713625946
 40
1.0
 40
1.0
 40
1.0
 40
1.0
 10
164.3200204971969
 20
314.2766830134861
 30
0.0
 10
164.4207676424074
 20
313.0320139318341
 30
0.0
 10
164.6096766780164
 20
310.6981588595551
 30
0.0
 10
164.9049620810896
 20
307.4342111165296
 30
0.0
 10
165.1742053754656
 20
304.6402171225118
 30
0.0
 10
165.4110392108521
 20
302.3170087530069
 30
0.0
 10
165.6140061787233
 20
300.4088918153343
 30
0.0
 10
165.8263019079627
 20
298.4791408817445
 30
0.0
 10
166.0929329769141
 20
296.1455020179671
 30
0.0
 10
166.4608377599885
 20
293.0824008936669
 30
0.0
 10
166.9380515783808
 20
289.3455032612503
 30
0.0
 10
167.5374381472629
 20
284.9350681143147
 30
0.0
 10
168.0097567070871
 20
281.7749491907974
 30
0.0
 10
168.2628462318591
 20
280.0816153593395
 30
0.0
  0
SPLINE
  5
95
330
1F
100
AcDbEntity
  8
0
  6
Continuous
 62
     7
370
    25
100
AcDbSpline
210
0.0
220
0.0
230
1.0
 70
     8
 71
     3
 72
    18
 73
    14
 74
     0
 42
0.00000001
 43
0.00000001
 40
0.0
 40
0.0
 40
0.0
 40
0.0
 40
0.1089331577039082
 40
0.2040370406380004
 40
0.2853948895743878
 40
0.3530326266411402
 40
0.4069490218858499
 40
0.4521855877035688
 40
0.5220765685868701
 40
0.6118130782912831
 40
0.721418570146365
 40
0.8508660878105547
 40
1.0
 40
1.0
 40
1.0
 40
1.0
 10
206.4788138459824
 20
280.0816153593395
 30
0.0
 10
206.6646674654787
 20
281.317888951892
 30
0.0
 10
207.0127802285087
 20
283.6334888166178
 30
0.0
 10
207.468139123194
 20
286.8770281376342
 30
0.0
 10
207.8409983732506
 20
289.6534967245788
 30
0.0
 10
208.1379576947763
 20
291.963193811283
 30
0.0
 10
208.373634472333
 20
293.8627903793483
 30
0.0
 10
208.6054944716721
 20
295.7889037280348
 30
0.0
 10
208.876671045886
 20
298.1243232027982
 30
0.0
 10
209.2153467152712
 20
301.1955554432664
 30
0.0
 10
209.6011618888251
 20
304.9491245657218
 30
0.0
 10
210.0215934259886
 20
309.3843332821362
 30
0.0
 10
210.2821532395299
 20
312.570839936289
 30
0.0
 10
210.4216395806446
 20
314.2766830134861
 30
0.0
  0
SPLINE
  5
96
330
1F
100
AcDbEntity
  8
0
  6
Continuous
 62
     7
370
    25
100
AcDbSpline
210
0.0
220
0.0
230
1.0
 70
     8
 71
     3
 72
    17
 73
    13
 74
     0
 42
0.00000001
 43
0.00000001
 40
0.0
 40
0.0
 40
0.0
 40
0.0
 40
0.0484192314949565
 40
0.2166466046131748
 40
0.4097986873526631
 40
0.599607587709383
 40
0.7890303634642534
 40
0.856939077010057
 40
0.9210932088327329
 40
0.9563364087568271
 40
0.9925041037835886
 40
1.0
 40
1.0
 40
1.0
 40
1.0
 10
211.7530592566211
 20
338.8028477224232
 30
0.0
 10
211.7610876319002
 20
339.0557458196881
 30
0.0
 10
211.797009727131
 20
340.1873109518463
 30
0.0
 10
211.8540211962032
 20
342.3643420807726
 30
0.0
 10
211.9219400167254
 20
345.3000507187
 30
0.0
 10
211.9758493477055
 20
348.3446153349852
 30
0.0
 10
212.0061064191127
 20
350.7112393751231
 30
0.0
 10
212.0223799659011
 20
352.3729518415859
 30
0.0
 10
212.0299558872583
 20
353.2519143109922
 30
0.0
 10
212.0340924773473
 20
353.8917422759137
 30
0.0
 10
212.0360694867495
 20
354.2530724912354
 30
0.0
 10
212.0359839419785
 20
354.3694513829006
 30
0.0
 10
212.0359692561795
 20
354.3894305937
 30
0.0
  0
SPLINE
  5
97
330
1F
100
AcDbEntity
  8
0
  6
Continuous
 62
     7
370
    25
100
AcDbSpline
210
0.0
220
0.0
230
1.0
 70
     8
 71
     3
 72
    17
 73
    13
 74
     0
 42
0.00000001
 43
0.00000001
 40
0.0
 40
0.0
 40
0.0
 40
0.0
 40
0.0074957524318009
 40
0.0436627536979019
 40
0.0789052775947952
 40
0.1612097304072
 40
0.2495344087964717
 40
0.4004039138306592
 40
0.5902091733153776
 40
0.7833575510545238
 40
0.9515816972721945
 40
1.0
 40
1.0
 40
1.0
 40
1.0
 10
162.705690821662
 20
354.3894305937003
 30
0.0
 10
162.7056761625277
 20
354.3694498926084
 30
0.0
 10
162.7055907730788
 20
354.2530623199895
 30
0.0
 10
162.7075631581028
 20
353.8919905613388
 30
0.0
 10
162.7122823544938
 20
353.1648854195462
 30
0.0
 10
162.7218967208394
 20
352.0779351416506
 30
0.0
 10
162.7392346213472
 20
350.4108229524266
 30
0.0
 10
162.7694501091537
 20
348.1397863839435
 30
0.0
 10
162.8197174845384
 20
345.2999831799115
 30
0.0
 10
162.8876394998422
 20
342.3643582855104
 30
0.0
 10
162.9446503167553
 20
340.1873100618067
 30
0.0
 10
162.9805724397384
 20
339.0557456571186
 30
0.0
 10
162.9886008212198
 20
338.8028477224393
 30
0.0
  0
SPLINE
  5
98
330
1F
100
AcDbEntity
  8
0
  6
Continuous
 62
     7
370
    25
100
AcDbSpline
210
0.0
220
0.0
230
1.0
 70
     8
 71
     3
 72
     9
 73
     5
 74
     0
 42
0.00000001
 43
0.00000001
 40
0.0
 40
0.0
 40
0.0
 40
0.0
 40
0.6605611688938027
 40
1.0
 40
1.0
 40
1.0
 40
1.0
 10
212.0423986442738
 20
355.2548851592773
 30
0.0
 10
212.0421421226857
 20
355.4291615296408
 30
0.0
 10
212.0417537838003
 20
355.6929923125725
 30
0.0
 10
212.0317560772526
 20
355.6368773958478
 30
0.0
 10
212.0283624674283
 20
355.6178298141071
 30
0.0
  0
SPLINE
  5
99
330
1F
100
AcDbEntity
  8
0
  6
Continuous
 62
     7
370
    25
100
AcDbSpline
210
0.0
220
0.0
230
1.0
 70
     8
 71
     3
 72
     9
 73
     5
 74
     0
 42
0.00000001
 43
0.00000001
 40
0.0
 40
0.0
 40
0.0
 40
0.0
 40
0.3394388311033149
 40
1.0
 40
1.0
 40
1.0
 40
1.0
 10
162.7132976104134
 20
355.6178298141034
 30
0.0
 10
162.7099040005891
 20
355.6368773958442
 30
0.0
 10
162.6999062940413
 20
355.69299231257
 30
0.0
 10
162.6995179551559
 20
355.429161529639
 30
0.0
 10
162.6992614335678
 20
355.2548851592752
 30
0.0
  0
LINE
  5
9A
330
1F
100
AcDbEntity
  8
0
  6
Continuous
 62
     7
370
    25
100
AcDbLine
 10
206.4650617571
 20
280.0838858896
 30
0.0
 11
206.4838274206
 21
280.0816219029
 31
0.0
  0
SPLINE
  5
9B
330
1F
100
AcDbEntity
  8
0
  6
Continuous
 62
     7
370
    25
100
AcDbSpline
210
0.0
220
0.0
230
1.0
 70
     8
 71
     3
 72
     9
 73
     5
 74
     0
 42
0.00000001
 43
0.00000001
 40
0.0
 40
0.0
 40
0.0
 40
0.0
 40
0.4917192282308625
 40
1.0
 40
1.0
 40
1.0
 40
1.0
 10
211.86319430245
 20
342.9971712516369
 30
0.0
 10
211.7263377402725
 20
338.2847175175954
 30
0.0
 10
211.4480151644605
 20
328.7010903916108
 30
0.0
 10
210.7727429998781
 20
319.1371914039299
 30
0.0
 10
210.4295151429098
 20
314.2760454453494
 30
0.0
  0
LWPOLYLINE
  5
9C
330
1F
100
AcDbEntity
  8
0
  6
Continuous
 62
     7
370
    25
100
AcDbPolyline
 90
        3
 70
   128
 43
0.0
 10
210.4216258507
 20
314.276684106
 10
210.4229065483
 20
314.2765821691
 10
210.4295151429
 20
314.2760454453
  0
SPLINE
  5
9D
330
1F
100
AcDbEntity
  8
0
  6
Continuous
 62
     7
370
    25
100
AcDbSpline
210
0.0
220
0.0
230
1.0
 70
     8
 71
     3
 72
     9
 73
     5
 74
     0
 42
0.00000001
 43
0.00000001
 40
0.0
 40
0.0
 40
0.0
 40
0.0
 40
0.4917192282309856
 40
0.9999999999999999
 40
0.9999999999999999
 40
0.9999999999999999
 40
0.9999999999999999
 10
162.8784657753912
 20
342.9971712516439
 30
0.0
 10
163.0153223375688
 20
338.2847175176
 30
0.0
 10
163.2936449133808
 20
328.7010903916131
 30
0.0
 10
163.9689170779635
 20
319.1371914039299
 30
0.0
 10
164.3121449349317
 20
314.2760454453494
 30
0.0
  0
LINE
  5
9E
330
1F
100
AcDbEntity
  8
0
  6
Continuous
 62
     7
370
    25
100
AcDbLine
 10
164.3121449349
 20
314.2760454453
 30
0.0
 11
164.3657355627
 21
313.7234677047
 31
0.0
  0
LINE
  5
9F
330
1F
100
AcDbEntity
  8
0
  6
Continuous
 62
     7
370
    25
100
AcDbLine
 10
168.2069035469
 20
280.4620836692
 30
0.0
 11
168.2578570177
 21
280.0814624506
 31
0.0
  0
SPLINE
  5
A0
330
1F
100
AcDbEntity
  8
0
  6
Continuous
 62
     7
370
    25
100
AcDbSpline
210
0.0
220
0.0
230
1.0
 70
     8
 71
     3
 72
    12
 73
     8
 74
     0
 42
0.00000001
 43
0.00000001
 40
0.0
 40
0.0
 40
0.0
 40
0.0
 40
0.500000000000001
 40
0.500000000000001
 40
0.7500000000000004
 40
0.7500000000000004
 40
1.0
 40
1.0
 40
1.0
 40
1.0
 10
212.1208506116333
 20
354.5549228364213
 30
0.0
 10
212.2867840591852
 20
355.7194797930789
 30
0.0
 10
212.3667153045028
 20
356.8733947609124
 30
0.0
 10
212.3679949586004
 20
358.5881551680467
 30
0.0
 10
212.3485657422057
 20
359.1570411260245
 30
0.0
 10
212.2708453571081
 20
360.2891857362916
 30
0.0
 10
212.2128502736892
 20
360.8473690911628
 30
0.0
 10
212.1374135138878
 20
361.3953257029347
 30
0.0
  0
LINE
  5
A1
330
1F
100
AcDbEntity
  8
0
  6
Continuous
 62
     7
370
    25
100
AcDbLine
 10
162.6208094662
 20
354.5549228364
 30
0.0
 11
162.6546382933
 21
354.3251523471
 31
0.0
  0
LINE
  5
A2
330
1F
100
AcDbEntity
  8
0
  6
Continuous
 62
     7
370
    25
100
AcDbLine
 10
212.0582477252
 20
354.1404717145
 30
0.0
 11
212.1208506116
 21
354.5549228364
 31
0.0
  0
SPLINE
  5
A3
330
1F
100
AcDbEntity
  8
0
  6
Continuous
 62
     7
370
    25
100
AcDbSpline
210
0.0
220
0.0
230
1.0
 70
     8
 71
     3
 72
    12
 73
     8
 74
     0
 42
0.00000001
 43
0.00000001
 40
0.0
 40
0.0
 40
0.0
 40
0.0
 40
0.5
 40
0.5
 40
0.75
 40
0.75
 40
1.0
 40
1.0
 40
1.0
 40
1.0
 10
162.6042465639537
 20
361.3953257029347
 30
0.0
 10
162.4534497828939
 20
360.2999698918801
 30
0.0
 10
162.3742155013633
 20
359.1807711822034
 30
0.0
 10
162.3740196976987
 20
357.4662918992227
 30
0.0
 10
162.393789284243
 20
356.888819559102
 30
0.0
 10
162.4758586366593
 20
355.7215194534143
 30
0.0
 10
162.5378517472219
 20
355.1371381171818
 30
0.0
 10
162.6208094662082
 20
354.5549228364213
 30
0.0
  0
ELLIPSE
  5
A4
330
1F
100
AcDbEntity
  8
0
  6
Continuous
 62
     7
370
    25
100
AcDbEllipse
 10
187.3708300389
 20
357.985679404
 30
0.0
 11
0.0
 21
25.00036697029361
 31
0.0
210
0.0
220
0.0
230
1.0
 40
0.9999926607
 41
4.849199211576192
 42
7.717171402782995
  0
CIRCLE
  5
A5
330
1F
100
AcDbEntity
  8
0
  6
Continuous
 62
     7
370
    25
100
AcDbCircle
 10
187.3708300395
 20
343.0814624506
 30
0.0
 40
74.5
  0
SPLINE
  5
A6
330
1F
100
AcDbEntity
  8
0
  6
Continuous
 62
     8
370
    18
100
AcDbSpline
210
0.0
220
0.0
230
1.0
 70
     8
 71
     3
 72
     8
 73
     4
 74
     0
 42
0.00000001
 43
0.00000001
 40
0.0
 40
0.0
 40
0.0
 40
0.0
 40
1.0
 40
1.0
 40
1.0
 40
1.0
 10
163.4836278699661
 20
358.1355099182825
 30
0.0
 10
163.4835829889214
 20
358.117494211182
 30
0.0
 10
163.4835384205332
 20
358.0994784189598
 30
0.0
 10
163.4834945237677
 20
358.0814624505907
 30
0.0
  0
SPLINE
  5
A7
330
1F
100
AcDbEntity
  8
0
  6
Continuous
 62
     8
370
    18
100
AcDbSpline
210
0.0
220
0.0
230
1.0
 70
     8
 71
     3
 72
    22
 73
    18
 74
     0
 42
0.00000001
 43
0.00000001
 40
0.0
 40
0.0
 40
0.0
 40
0.0
 40
0.1249999999999999
 40
0.1249999999999999
 40
0.2499999999999999
 40
0.2499999999999999
 40
0.3749999999999998
 40
0.3749999999999998
 40
0.4999999999999997
 40
0.4999999999999997
 40
0.6249999999999996
 40
0.6249999999999996
 40
0.7499999999999998
 40
0.7499999999999998
 40
0.8749999999999999
 40
0.8749999999999999
 40
1.0
 40
1.0
 40
1.0
 40
1.0
 10
187.3708300389205
 20
381.9928112238823
 30
0.0
 10
185.8186655206404
 20
381.9929127717638
 30
0.0
 10
184.2639415766601
 20
381.8422942080783
 30
0.0
 10
181.1796663145033
 20
381.2305619805259
 30
0.0
 10
179.6751050025336
 20
380.7732127025162
 30
0.0
 10
176.8004495576178
 20
379.5835347041927
 30
0.0
 10
175.4095187255753
 20
378.8418777039717
 30
0.0
 10
172.7991320659025
 20
377.0974644741256
 30
0.0
 10
171.5968971265132
 20
376.1095472385334
 30
0.0
 10
169.3934827024803
 20
373.9080269013505
 30
0.0
 10
168.3848584146527
 20
372.6799317223357
 30
0.0
 10
166.6516646224041
 20
370.0868462760044
 30
0.0
 10
165.9177112078384
 20
368.7167986475589
 30
0.0
 10
164.7170609738977
 20
365.8283754161334
 30
0.0
 10
164.2564542585724
 20
364.3140583417899
 30
0.0
 10
163.6453821320969
 20
361.2663661336497
 30
0.0
 10
163.4875910516215
 20
359.717163546165
 30
0.0
 10
163.4836786329254
 20
358.14173538126
 30
0.0
  0
SPLINE
  5
A8
330
1F
100
AcDbEntity
  8
0
  6
Continuous
 62
     8
370
    18
100
AcDbSpline
210
0.0
220
0.0
230
1.0
 70
     8
 71
     3
 72
    47
 73
    43
 74
     0
 42
0.00000001
 43
0.00000001
 40
0.0
 40
0.0
 40
0.0
 40
0.0
 40
0.0129367756171577
 40
0.0264017104099083
 40
0.0403894262963741
 40
0.0548948429553959
 40
0.06991321773946
 40
0.0854401814155914
 40
0.1014717693264206
 40
0.1180044476553112
 40
0.1350351345932109
 40
0.1525612163415456
 40
0.1705805580452988
 40
0.189091509933391
 40
0.2080929091489741
 40
0.2275840779792625
 40
0.247564819441601
 40
0.2680354114477336
 40
0.2889966010495993
 40
0.3104496005649973
 40
0.33239608768759
 40
0.3548382120001486
 40
0.3777786106296405
 40
0.4012204361042873
 40
0.4251673997919262
 40
0.449623834610672
 40
0.4745947810001265
 40
0.5000861004149141
 40
0.5929949437369755
 40
0.6656254009329693
 40
0.7180082910758664
 40
0.7499681615341731
 40
0.7743614007945021
 40
0.7988480739527294
 40
0.8234422718697256
 40
0.8481590173699929
 40
0.8730143035057703
 40
0.8980251256445355
 40
0.9232095070150756
 40
0.9485865174125323
 40
0.9741762848447973
 40
1.0
 40
1.0
 40
1.0
 40
1.0
 10
211.2579814449161
 20
358.14173538126
 30
0.0
 10
211.2566370824192
 20
358.3033467787339
 30
0.0
 10
211.2538934722354
 20
358.6331675502548
 30
0.0
 10
211.2366044318293
 20
359.1374880051714
 30
0.0
 10
211.2082208490932
 20
359.6609094713332
 30
0.0
 10
211.166521014818
 20
360.2029214074058
 30
0.0
 10
211.1104932136001
 20
360.7629688574942
 30
0.0
 10
211.0387521693989
 20
361.3404455159221
 30
0.0
 10
210.9499916288504
 20
361.9346915940507
 30
0.0
 10
210.8428610155836
 20
362.5449901826018
 30
0.0
 10
210.7160048039715
 20
363.1705638951802
 30
0.0
 10
210.5680562160919
 20
363.8105712915258
 30
0.0
 10
210.3976439081655
 20
364.4641032239696
 30
0.0
 10
210.2033951582464
 20
365.1301790689997
 30
0.0
 10
209.9839401758363
 20
365.8077428567241
 30
0.0
 10
209.737916235119
 20
366.49565929653
 30
0.0
 10
209.4639719901323
 20
367.1927097012372
 30
0.0
 10
209.1607718675052
 20
367.8975878099996
 30
0.0
 10
208.8270005591319
 20
368.6088955129858
 30
0.0
 10
208.4613676106089
 20
369.3251384700072
 30
0.0
 10
208.0626120743621
 20
370.0447216555487
 30
0.0
 10
207.6295073363915
 20
370.7659447056373
 30
0.0
 10
207.1608656754656
 20
371.4869975465218
 30
0.0
 10
206.6555442394487
 20
372.2059544510627
 30
0.0
 10
206.1124459262109
 20
372.9207736674243
 30
0.0
 10
205.5305402529431
 20
373.6292750791321
 30
0.0
 10
204.908807569055
 20
374.3292019858841
 30
0.0
 10
203.6672040538395
 20
375.6203468930864
 30
0.0
 10
201.8536498066009
 20
377.1867210305196
 30
0.0
 10
199.5750604540238
 20
378.686625320645
 30
0.0
 10
197.8366650770643
 20
379.5990538322848
 30
0.0
 10
196.594106365887
 20
380.1491886124492
 30
0.0
 10
195.6535680452153
 20
380.5176128387812
 30
0.0
 10
194.7863835203938
 20
380.8191082547623
 30
0.0
 10
193.9043370401728
 20
381.0880615137721
 30
0.0
 10
193.0080488696378
 20
381.3237112679865
 30
0.0
 10
192.0981741499245
 20
381.5253916181177
 30
0.0
 10
191.1753580700898
 20
381.6923321407726
 30
0.0
 10
190.2402491217836
 20
381.8240649964645
 30
0.0
 10
189.2934930858389
 20
381.9189820174086
 30
0.0
 10
188.3357457379209
 20
381.9797573950308
 30
0.0
 10
187.6934428328595
 20
381.98844676772
 30
0.0
 10
187.3708300389208
 20
381.9928112237714
 30
0.0
  0
SPLINE
  5
A9
330
1F
100
AcDbEntity
  8
0
  6
Continuous
 62
     8
370
    18
100
AcDbSpline
210
0.0
220
0.0
230
1.0
 70
     8
 71
     3
 72
     8
 73
     4
 74
     0
 42
0.00000001
 43
0.00000001
 40
0.0
 40
0.0
 40
0.0
 40
0.0
 40
1.0
 40
1.0
 40
1.0
 40
1.0
 10
211.2581655540738
 20
358.0814624505907
 30
0.0
 10
211.258140486866
 20
358.0994829909645
 30
0.0
 10
211.2580960233923
 20
358.1174988202005
 30
0.0
 10
211.2580321831677
 20
358.1355099181612
 30
0.0
  0
SPLINE
  5
AA
330
1F
100
AcDbEntity
  8
0
  6
Continuous
 62
     8
370
    18
100
AcDbSpline
210
0.0
220
0.0
230
1.0
 70
     8
 71
     3
 72
     8
 73
     4
 74
     0
 42
0.00000001
 43
0.00000001
 40
0.0
 40
0.0
 40
0.0
 40
0.0
 40
1.0
 40
1.0
 40
1.0
 40
1.0
 10
174.9271348280338
 20
270.74802299218
 30
0.0
 10
179.0619076264855
 20
270.3031551599554
 30
0.0
 10
183.2214564539946
 20
270.1130683718306
 30
0.0
 10
187.3708300389208
 20
270.1127997371563
 30
0.0
  0
SPLINE
  5
AB
330
1F
100
AcDbEntity
  8
0
  6
Continuous
 62
     8
370
    18
100
AcDbSpline
210
0.0
220
0.0
230
1.0
 70
     8
 71
     3
 72
    16
 73
    12
 74
     0
 42
0.00000001
 43
0.00000001
 40
0.0
 40
0.0
 40
0.0
 40
0.0
 40
0.2500000000000016
 40
0.2500000000000016
 40
0.5000000000000032
 40
0.5000000000000032
 40
0.6250000000000023
 40
0.6250000000000023
 40
0.7500000000000014
 40
0.7500000000000014
 40
1.0
 40
1.0
 40
1.0
 40
1.0
 10
168.9986014166411
 20
280.1917622049977
 30
0.0
 10
169.1542914387258
 20
279.1847227655814
 30
0.0
 10
169.3169228970623
 20
278.1788107284889
 30
0.0
 10
169.6552398210665
 20
276.1684780210381
 30
0.0
 10
169.824171277134
 20
275.1556752001119
 30
0.0
 10
170.320920170148
 20
273.7064932755844
 30
0.0
 10
170.5309523104085
 20
273.2250790591141
 30
0.0
 10
171.1077976901785
 20
272.3564143094102
 30
0.0
 10
171.4924384614443
 20
271.9655159976071
 30
0.0
 10
172.8239987564765
 20
271.0908263325001
 30
0.0
 10
173.9103365624081
 20
270.8580667000713
 30
0.0
 10
174.9271340801012
 20
270.7480136121222
 30
0.0
  0
SPLINE
  5
AC
330
1F
100
AcDbEntity
  8
0
  6
Continuous
 62
     8
370
    18
100
AcDbSpline
210
0.0
220
0.0
230
1.0
 70
     8
 71
     3
 72
     8
 73
     4
 74
     0
 42
0.00000001
 43
0.00000001
 40
0.0
 40
0.0
 40
0.0
 40
0.0
 40
1.0
 40
1.0
 40
1.0
 40
1.0
 10
165.0554589731269
 20
314.334787959537
 30
0.0
 10
165.9462640309672
 20
302.9162769520537
 30
0.0
 10
167.2505660205315
 20
291.5196085747934
 30
0.0
 10
168.998626043841
 20
280.1915944598578
 30
0.0
  0
SPLINE
  5
AD
330
1F
100
AcDbEntity
  8
0
  6
Continuous
 62
     8
370
    18
100
AcDbSpline
210
0.0
220
0.0
230
1.0
 70
     8
 71
     3
 72
    10
 73
     6
 74
     0
 42
0.00000001
 43
0.00000001
 40
0.0
 40
0.0
 40
0.0
 40
0.0
 40
0.5
 40
0.5
 40
1.0
 40
1.0
 40
1.0
 40
1.0
 10
163.4834945492957
 20
358.0814624505907
 30
0.0
 10
163.4656497186562
 20
350.7843741328288
 30
0.0
 10
163.5838123554652
 20
343.4862851532801
 30
0.0
 10
164.098590560744
 20
328.9003681671642
 30
0.0
 10
164.4878174610108
 20
321.6109263177253
 30
0.0
 10
165.0554589731269
 20
314.334787959537
 30
0.0
  0
SPLINE
  5
AE
330
1F
100
AcDbEntity
  8
0
  6
Continuous
 62
     8
370
    18
100
AcDbSpline
210
0.0
220
0.0
230
1.0
 70
     8
 71
     3
 72
    22
 73
    18
 74
     0
 42
0.00000001
 43
0.00000001
 40
0.0
 40
0.0
 40
0.0
 40
0.0
 40
0.0496986198448278
 40
0.1018210881196828
 40
0.1563668303858145
 40
0.2133353501437022
 40
0.2727267394243049
 40
0.3345416275224399
 40
0.3987808881885745
 40
0.465445633923686
 40
0.5345372113559645
 40
0.6060571921078979
 40
0.6800073587772536
 40
0.7563894630318624
 40
0.835196531603062
 40
0.9164082746993194
 40
1.0
 40
1.0
 40
1.0
 40
1.0
 10
209.6862011047146
 20
314.334787959537
 30
0.0
 10
209.7416505190147
 20
315.0580414682814
 30
0.0
 10
209.855253667699
 20
316.5398222395917
 30
0.0
 10
210.0162854829247
 20
318.8163942770223
 30
0.0
 10
210.1741528711461
 20
321.1995335362406
 30
0.0
 10
210.3264597017898
 20
323.6893389789145
 30
0.0
 10
210.4721303114789
 20
326.2858118168668
 30
0.0
 10
210.6097373920241
 20
328.9889887242685
 30
0.0
 10
210.7379493059959
 20
331.7989011295267
 30
0.0
 10
210.855410927744
 20
334.7155804475454
 30
0.0
 10
210.9607812778688
 20
337.7390547573792
 30
0.0
 10
211.0527497436253
 20
340.8693490996183
 30
0.0
 10
211.1299695776019
 20
344.1064818941197
 30
0.0
 10
211.1913628386224
 20
347.4503334532291
 30
0.0
 10
211.2349019316191
 20
350.9004552300615
 30
0.0
 10
211.2604433131807
 20
354.4560068458102
 30
0.0
 10
211.2589320649053
 20
356.8613982275544
 30
0.0
 10
211.2581655285458
 20
358.0814624505907
 30
0.0
  0
SPLINE
  5
AF
330
1F
100
AcDbEntity
  8
0
  6
Continuous
 62
     8
370
    18
100
AcDbSpline
210
0.0
220
0.0
230
1.0
 70
     8
 71
     3
 72
    20
 73
    16
 74
     0
 42
0.00000001
 43
0.00000001
 40
0.0
 40
0.0
 40
0.0
 40
0.0
 40
0.0615753420527095
 40
0.1256564206383474
 40
0.192560982855521
 40
0.2613659331639464
 40
0.3331307585823004
 40
0.4074729040926838
 40
0.4843931544707135
 40
0.5638903824486821
 40
0.6459634861128867
 40
0.7306114334040081
 40
0.8178335760528375
 40
0.9076297681093835
 40
1.0
 40
1.0
 40
1.0
 40
1.0
 10
205.7430340340005
 20
280.1915944598578
 30
0.0
 10
205.8495676492809
 20
280.889119965414
 30
0.0
 10
206.0669701407254
 20
282.3125559612239
 30
0.0
 10
206.3862312088137
 20
284.4959789942289
 30
0.0
 10
206.7067201381298
 20
286.7629180546587
 30
0.0
 10
207.0276395955018
 20
289.1186971188455
 30
0.0
 10
207.3470196203846
 20
291.5606688544406
 30
0.0
 10
207.66468849851
 20
294.0966162690628
 30
0.0
 10
207.9785334555085
 20
296.7223029207244
 30
0.0
 10
208.2870267198447
 20
299.4378067535652
 30
0.0
 10
208.5885197384227
 20
302.2431790580377
 30
0.0
 10
208.8814222133798
 20
305.1384543628978
 30
0.0
 10
209.1636306530608
 20
308.1236949285939
 30
0.0
 10
209.4355136174808
 20
311.1987594915789
 30
0.0
 10
209.6018551318346
 20
313.2796440629346
 30
0.0
 10
209.6862011047146
 20
314.334787959537
 30
0.0
  0
SPLINE
  5
B0
330
1F
100
AcDbEntity
  8
0
  6
Continuous
 62
     8
370
    18
100
AcDbSpline
210
0.0
220
0.0
230
1.0
 70
     8
 71
     3
 72
    26
 73
    22
 74
     0
 42
0.00000001
 43
0.00000001
 40
0.0
 40
0.0
 40
0.0
 40
0.0
 40
0.0279689847455477
 40
0.05538674027648
 40
0.0822602376276432
 40
0.108585619270387
 40
0.1343519114958113
 40
0.1595454903757437
 40
0.1841551819039455
 40
0.2081750952651973
 40
0.231600315480598
 40
0.2544360892074452
 40
0.3162079573721234
 40
0.3822983675306989
 40
0.4386918842249249
 40
0.5072539864567945
 40
0.5660779740307206
 40
0.6441591034104137
 40
0.7434157848064293
 40
0.862563420839411
 40
0.9999999999999999
 40
0.9999999999999999
 40
0.9999999999999999
 40
0.9999999999999999
 10
199.8145259977402
 20
270.7480136121222
 30
0.0
 10
199.9294801122904
 20
270.7614614525588
 30
0.0
 10
200.1571227580361
 20
270.7880920954768
 30
0.0
 10
200.4934309838358
 20
270.841221192292
 30
0.0
 10
200.8211220131955
 20
270.904031501781
 30
0.0
 10
201.1395448008516
 20
270.977816026004
 30
0.0
 10
201.4479855324559
 20
271.0627589211704
 30
0.0
 10
201.7455512045814
 20
271.159347205815
 30
0.0
 10
202.0312434034837
 20
271.2679847262264
 30
0.0
 10
202.3039392366799
 20
271.3890364872243
 30
0.0
 10
202.5624228957253
 20
271.5228741282986
 30
0.0
 10
202.9451702128426
 20
271.7544782787301
 30
0.0
 10
203.4336909995713
 20
272.1496018753685
 30
0.0
 10
203.9190939983487
 20
272.7450599823247
 30
0.0
 10
204.3026275704999
 20
273.4393346459083
 30
0.0
 10
204.5849257419184
 20
274.1475979790762
 30
0.0
 10
204.8250288490795
 20
274.9640890842051
 30
0.0
 10
205.0369379290475
 20
275.91892268036
 30
0.0
 10
205.2476354381319
 20
277.12794374368
 30
0.0
 10
205.4902036861062
 20
278.5806288052526
 30
0.0
 10
205.6548614815119
 20
279.6297901816803
 30
0.0
 10
205.7430586612004
 20
280.1917622049977
 30
0.0
  0
SPLINE
  5
B1
330
1F
100
AcDbEntity
  8
0
  6
Continuous
 62
     8
370
    18
100
AcDbSpline
210
0.0
220
0.0
230
1.0
 70
     8
 71
     3
 72
    17
 73
    13
 74
     0
 42
0.00000001
 43
0.00000001
 40
0.0
 40
0.0
 40
0.0
 40
0.0
 40
0.0938446191407924
 40
0.1878934513635284
 40
0.2826456519926098
 40
0.3785824164454361
 40
0.4761509808380339
 40
0.5757490972016014
 40
0.6777102662694222
 40
0.7822901096404842
 40
0.8897054128079371
 40
0.9999999999999999
 40
0.9999999999999999
 40
0.9999999999999999
 40
0.9999999999999999
 10
187.3708300389208
 20
270.1127997371563
 30
0.0
 10
187.7608034392665
 20
270.1138038034543
 30
0.0
 10
188.5415988519584
 20
270.1158141209755
 30
0.0
 10
189.7160470411023
 20
270.1320041546135
 30
0.0
 10
190.898994632149
 20
270.1584099483292
 30
0.0
 10
192.0962538033385
 20
270.1967197302569
 30
0.0
 10
193.3131899724266
 20
270.2476977869625
 30
0.0
 10
194.5545169067198
 20
270.3126980627584
 30
0.0
 10
195.8241146368414
 20
270.3931681662501
 30
0.0
 10
197.1250201763715
 20
270.4909464536332
 30
0.0
 10
198.4591310178328
 20
270.6072675501798
 30
0.0
 10
199.3587612053224
 20
270.7006926524044
 30
0.0
 10
199.8145252498076
 20
270.7480229921801
 30
0.0
  0
SPLINE
  5
B2
330
1F
100
AcDbEntity
  8
0
  6
Continuous
 62
     8
370
    18
100
AcDbSpline
210
0.0
220
0.0
230
1.0
 70
     8
 71
     3
 72
    13
 73
     9
 74
     0
 42
0.00000001
 43
0.00000001
 40
0.0
 40
0.0
 40
0.0
 40
0.0
 40
0.1559252329451539
 40
0.3287988166796744
 40
0.5151571564010988
 40
0.7090703216611364
 40
0.9029834869212112
 40
1.0
 40
1.0
 40
1.0
 40
1.0
 10
199.8145259822388
 20
270.7480136104444
 30
0.0
 10
199.8196223084793
 20
270.6960238835502
 30
0.0
 10
199.8303689080234
 20
270.5863933871934
 30
0.0
 10
199.8442615745383
 20
270.4305294372305
 30
0.0
 10
199.8553993311635
 20
270.2903778462913
 30
0.0
 10
199.8613894982187
 20
270.1899924822504
 30
0.0
 10
199.8623860454639
 20
270.1400012280901
 30
0.0
 10
199.8592577345221
 20
270.1456361209973
 30
0.0
 10
199.8582145345944
 20
270.147515192478
 30
0.0
  0
SPLINE
  5
B3
330
1F
100
AcDbEntity
  8
0
  6
Continuous
 62
     8
370
    18
100
AcDbSpline
210
0.0
220
0.0
230
1.0
 70
     8
 71
     3
 72
    11
 73
     7
 74
     0
 42
0.00000001
 43
0.00000001
 40
0.0
 40
0.0
 40
0.0
 40
0.0
 40
0.2799103250787928
 40
0.5808030977061556
 40
0.8816958703470726
 40
1.0
 40
1.0
 40
1.0
 40
1.0
 10
205.7430585994665
 20
280.1917536524944
 30
0.0
 10
205.8454951423002
 20
280.1761805017301
 30
0.0
 10
206.0580470064709
 20
280.1438668162583
 30
0.0
 10
206.3086960450368
 20
280.1063045298945
 30
0.0
 10
206.4533052629019
 20
280.0850056468669
 30
0.0
 10
206.4624741493976
 20
280.0841323484685
 30
0.0
 10
206.4650617571085
 20
280.0838858895696
 30
0.0
  0
SPLINE
  5
B4
330
1F
100
AcDbEntity
  8
0
  6
Continuous
 62
     8
370
    18
100
AcDbSpline
210
0.0
220
0.0
230
1.0
 70
     8
 71
     3
 72
    13
 73
     9
 74
     0
 42
0.00000001
 43
0.00000001
 40
0.0
 40
0.0
 40
0.0
 40
0.0
 40
0.1559253082924449
 40
0.3287991456105819
 40
0.515157904152958
 40
0.7090715898312169
 40
0.902985275509308
 40
1.0
 40
1.0
 40
1.0
 40
1.0
 10
174.9271348280338
 20
270.74802299218
 30
0.0
 10
174.9220384767363
 20
270.6960332407228
 30
0.0
 10
174.9112918187966
 20
270.5864026358719
 30
0.0
 10
174.8973990832756
 20
270.4305385548577
 30
0.0
 10
174.8862612895552
 20
270.2903869600053
 30
0.0
 10
174.8802711609358
 20
270.1900020641827
 30
0.0
 10
174.8792746905016
 20
270.1400116331652
 30
0.0
 10
174.8824030673876
 20
270.1456471811265
 30
0.0
 10
174.8834462746203
 20
270.1475264445938
 30
0.0
  0
SPLINE
  5
B5
330
1F
100
AcDbEntity
  8
0
  6
Continuous
 62
     8
370
    18
100
AcDbSpline
210
0.0
220
0.0
230
1.0
 70
     8
 71
     3
 72
    14
 73
    10
 74
     0
 42
0.00000001
 43
0.00000001
 40
0.0
 40
0.0
 40
0.0
 40
0.0
 40
0.2500000000000234
 40
0.2500000000000234
 40
0.5000000000000469
 40
0.5000000000000469
 40
0.7500000000000234
 40
0.7500000000000234
 40
1.0
 40
1.0
 40
1.0
 40
1.0
 10
168.2578569368796
 20
280.0814624505767
 30
0.0
 10
168.2502675734974
 20
280.0799714597895
 30
0.0
 10
168.2594382194573
 20
280.0810179443261
 30
0.0
 10
168.3212788752105
 20
280.0897797531426
 30
0.0
 10
168.3742075846672
 20
280.097536396624
 30
0.0
 10
168.51686769561
 20
280.1187790459215
 30
0.0
 10
168.6061993663654
 20
280.1322055302662
 30
0.0
 10
168.7984399584963
 20
280.1612774144576
 30
0.0
 10
168.9007904949547
 20
280.1768368707948
 30
0.0
 10
168.9986014166411
 20
280.1917622049977
 30
0.0
  0
LWPOLYLINE
  5
B6
330
1F
100
AcDbEntity
  8
0
  6
Continuous
 62
     8
370
    18
100
AcDbPolyline
 90
        7
 70
   128
 43
0.0
 10
187.3708320606
 20
270.1127997373
 10
187.3708323967
 20
269.946425885
 10
187.3708324401
 20
269.8000497339
 10
187.3708321882
 20
269.6825936599
 10
187.3708316563
 20
269.6012172125
 10
187.3708308768
 20
269.5608807027
 10
187.3708303853
 20
269.5570607635
  0
SPLINE
  5
B7
330
1F
100
AcDbEntity
  8
0
  6
Continuous
 62
     8
370
    18
100
AcDbSpline
210
0.0
220
0.0
230
1.0
 70
     8
 71
     3
 72
    14
 73
    10
 74
     0
 42
0.00000001
 43
0.00000001
 40
0.0
 40
0.0
 40
0.0
 40
0.0
 40
0.250000000000047
 40
0.250000000000047
 40
0.5000000000000939
 40
0.5000000000000939
 40
0.750000000000047
 40
0.750000000000047
 40
1.0
 40
1.0
 40
1.0
 40
1.0
 10
162.7100041837755
 20
358.1303565578168
 30
0.0
 10
162.7110655227968
 20
358.1304035432868
 30
0.0
 10
162.7285076468568
 20
358.1304211815873
 30
0.0
 10
162.8024990921795
 20
358.1303766092821
 30
0.0
 10
162.859184994789
 20
358.130313943352
 30
0.0
 10
163.0047705978542
 20
358.1301121690599
 30
0.0
 10
163.0933854819482
 20
358.129973455439
 30
0.0
 10
163.2838150491135
 20
358.1296515535772
 30
0.0
 10
163.3852320246037
 20
358.1294691825686
 30
0.0
 10
163.4836123607862
 20
358.1292843759597
 30
0.0
  0
SPLINE
  5
B8
330
1F
100
AcDbEntity
  8
0
  6
Continuous
 62
     8
370
    18
100
AcDbSpline
210
0.0
220
0.0
230
1.0
 70
     8
 71
     3
 72
    22
 73
    18
 74
     0
 42
0.00000001
 43
0.00000001
 40
0.0
 40
0.0
 40
0.0
 40
0.0
 40
0.1250000000000001
 40
0.1250000000000001
 40
0.2500000000000002
 40
0.2500000000000002
 40
0.3750000000000003
 40
0.3750000000000003
 40
0.5000000000000002
 40
0.5000000000000002
 40
0.6250000000000001
 40
0.6250000000000001
 40
0.75
 40
0.75
 40
0.875
 40
0.875
 40
1.0
 40
1.0
 40
1.0
 40
1.0
 10
162.7101112126672
 20
358.1432248467412
 30
0.0
 10
162.7141775354745
 20
359.7702584897825
 30
0.0
 10
162.8776464844041
 20
361.369934800629
 30
0.0
 10
163.510331278067
 20
364.5162411118514
 30
0.0
 10
163.9871322292467
 20
366.0792000170861
 30
0.0
 10
165.2294304110904
 20
369.0595770727202
 30
0.0
 10
165.9886290233377
 20
370.4728136958144
 30
0.0
 10
167.7805648662919
 20
373.1468121223767
 30
0.0
 10
168.8229870492204
 20
374.4127771348035
 30
0.0
 10
171.0990721416253
 20
376.6815372893217
 30
0.0
 10
172.3404294647189
 20
377.6992816395473
 30
0.0
 10
175.0345565842857
 20
379.496091186483
 30
0.0
 10
176.4695404941396
 20
380.2598822776782
 30
0.0
 10
179.4344929357124
 20
381.4851717044084
 30
0.0
 10
180.9859637571125
 20
381.9562878136574
 30
0.0
 10
184.1664798715298
 20
382.5866760151515
 30
0.0
 10
185.7646904847287
 20
382.7420605075381
 30
0.0
 10
187.3708300389218
 20
382.742053993663
 30
0.0
  0
LWPOLYLINE
  5
B9
330
1F
100
AcDbEntity
  8
0
  6
Continuous
 62
     8
370
    18
100
AcDbPolyline
 90
        9
 70
   128
 43
0.0
 10
187.3706657518
 20
382.7420539924
 10
187.3707199852
 20
382.7269827196
 10
187.3707729068
 20
382.6855695227
 10
187.3708230625
 20
382.6189522729
 10
187.3708690741
 20
382.5289613492
 10
187.3709096775
 20
382.4180693471
 10
187.370943757
 20
382.2893231408
 10
187.3709703763
 20
382.146260168
 10
187.3709888039
 20
381.9928112344
  0
SPLINE
  5
BA
330
1F
100
AcDbEntity
  8
0
  6
Continuous
 62
     8
370
    18
100
AcDbSpline
210
0.0
220
0.0
230
1.0
 70
     8
 71
     3
 72
    22
 73
    18
 74
     0
 42
0.00000001
 43
0.00000001
 40
0.0
 40
0.0
 40
0.0
 40
0.0
 40
0.1250000000000001
 40
0.1250000000000001
 40
0.2500000000000002
 40
0.2500000000000002
 40
0.3750000000000002
 40
0.3750000000000002
 40
0.5000000000000003
 40
0.5000000000000003
 40
0.6250000000000004
 40
0.6250000000000004
 40
0.7500000000000002
 40
0.7500000000000002
 40
0.8750000000000001
 40
0.8750000000000001
 40
1.0
 40
1.0
 40
1.0
 40
1.0
 10
187.3708300389197
 20
382.742053993663
 30
0.0
 10
188.9822885665951
 20
382.742062519686
 30
0.0
 10
190.5937091831246
 20
382.5836148106737
 30
0.0
 10
193.7549020758705
 20
381.9558605688649
 30
0.0
 10
195.304596681908
 20
381.4865694582176
 30
0.0
 10
198.2829681239689
 20
380.2550902689138
 30
0.0
 10
199.7115717813849
 20
379.4929324458979
 30
0.0
 10
202.3930276525092
 20
377.7049018535632
 30
0.0
 10
203.6458139824748
 20
376.6790730143917
 30
0.0
 10
205.9276339967355
 20
374.4029847125474
 30
0.0
 10
206.9566116160043
 20
373.152781171706
 30
0.0
 10
208.7513842950552
 20
370.4758252301208
 30
0.0
 10
209.5171352562548
 20
369.0491386006959
 30
0.0
 10
210.7561064697495
 20
366.0738614770999
 30
0.0
 10
211.2292962792337
 20
364.525344084226
 30
0.0
 10
211.8650030772284
 20
361.3657203654148
 30
0.0
 10
212.0275044449136
 20
359.7546916704457
 30
0.0
 10
212.0315488651743
 20
358.1432248467412
 30
0.0
  0
SPLINE
  5
BB
330
1F
100
AcDbEntity
  8
0
  6
Continuous
 62
     8
370
    18
100
AcDbSpline
210
0.0
220
0.0
230
1.0
 70
     8
 71
     3
 72
    14
 73
    10
 74
     0
 42
0.00000001
 43
0.00000001
 40
0.0
 40
0.0
 40
0.0
 40
0.0
 40
0.25
 40
0.25
 40
0.5
 40
0.5
 40
0.75
 40
0.75
 40
1.0
 40
1.0
 40
1.0
 40
1.0
 10
211.2580444946489
 20
358.1292797929215
 30
0.0
 10
211.3564204061761
 20
358.1294655850596
 30
0.0
 10
211.4578323845905
 20
358.1296490020366
 30
0.0
 10
211.6482508101146
 20
358.1299729422776
 30
0.0
 10
211.7368595358557
 20
358.1301126445265
 30
0.0
 10
211.8824321202929
 20
358.130316136503
 30
0.0
 10
211.9391111707345
 20
358.1303795281058
 30
0.0
 10
212.013089314577
 20
358.1304251807218
 30
0.0
 10
212.0305250182072
 20
358.1304078977503
 30
0.0
 10
212.0315807099507
 20
358.13036109843
 30
0.0
  0
SPLINE
  5
BC
330
1F
100
AcDbEntity
  8
0
  6
Continuous
 62
     8
370
    18
100
AcDbSpline
210
0.0
220
0.0
230
1.0
 70
     8
 71
     3
 72
     9
 73
     5
 74
     0
 42
0.00000001
 43
0.00000001
 40
0.0
 40
0.0
 40
0.0
 40
0.0
 40
0.9686423543415243
 40
0.9999999999999999
 40
0.9999999999999999
 40
0.9999999999999999
 40
0.9999999999999999
 10
212.0317483243793
 20
358.0828134012826
 30
0.0
 10
212.0412429948655
 20
353.2104724072734
 30
0.0
 10
212.0510450342288
 20
348.1804001910721
 30
0.0
 10
211.8689057612331
 20
343.1547633896637
 30
0.0
 10
211.86319430245
 20
342.9971712516369
 30
0.0
  0
LWPOLYLINE
  5
BD
330
1F
100
AcDbEntity
  8
0
  6
Continuous
 62
     8
370
    18
100
AcDbPolyline
 90
        8
 70
   128
 43
0.0
 10
209.6862011047
 20
314.3347879595
 10
209.8433342819
 20
314.3223845223
 10
209.9901325406
 20
314.3107940471
 10
210.1218535082
 20
314.3003909684
 10
210.2342418893
 20
314.2915113618
 10
210.3236669351
 20
314.2844420862
 10
210.3872397358
 20
314.2794115171
 10
210.4216258507
 20
314.276684106
  0
LWPOLYLINE
  5
BE
330
1F
100
AcDbEntity
  8
0
  6
Continuous
 62
     8
370
    18
100
AcDbPolyline
 90
        9
 70
   128
 43
0.0
 10
211.258165552
 20
358.081463293
 10
211.4148313956
 20
358.0817556463
 10
211.5618318263
 20
358.0820254583
 10
211.6948033323
 20
358.0822647199
 10
211.8097988318
 20
358.0824663291
 10
211.9034048367
 20
358.0826243012
 10
211.9728427775
 20
358.0827339472
 10
212.0160514817
 20
358.0827920122
 10
212.0317483564
 20
358.0827967729
  0
LWPOLYLINE
  5
BF
330
1F
100
AcDbEntity
  8
0
  6
Continuous
 62
     8
370
    18
100
AcDbPolyline
 90
        9
 70
   128
 43
0.0
 10
165.0554589731
 20
314.3347879595
 10
164.898325796
 20
314.3223845223
 10
164.7515275372
 20
314.3107940471
 10
164.6198065696
 20
314.3003909684
 10
164.5074181885
 20
314.2915113618
 10
164.4179931428
 20
314.2844420862
 10
164.354420342
 20
314.2794115171
 10
164.3187535295
 20
314.2765821691
 10
164.3121449349
 20
314.2760454453
  0
SPLINE
  5
C0
330
1F
100
AcDbEntity
  8
0
  6
Continuous
 62
     8
370
    18
100
AcDbSpline
210
0.0
220
0.0
230
1.0
 70
     8
 71
     3
 72
     9
 73
     5
 74
     0
 42
0.00000001
 43
0.00000001
 40
0.0
 40
0.0
 40
0.0
 40
0.0
 40
0.9686423543419717
 40
1.0
 40
1.0
 40
1.0
 40
1.0
 10
162.7099117534623
 20
358.0828134012826
 30
0.0
 10
162.700417082976
 20
353.2104724072734
 30
0.0
 10
162.6906150436126
 20
348.1804001910744
 30
0.0
 10
162.8727543166082
 20
343.1547633896683
 30
0.0
 10
162.8784657753912
 20
342.9971712516439
 30
0.0
  0
LWPOLYLINE
  5
C1
330
1F
100
AcDbEntity
  8
0
  6
Continuous
 62
     8
370
    18
100
AcDbPolyline
 90
        9
 70
   128
 43
0.0
 10
163.4834945493
 20
358.0814624506
 10
163.3268287056
 20
358.081755645
 10
163.179828275
 20
358.0820267911
 10
163.0468567694
 20
358.0822678402
 10
162.9318612707
 20
358.0824716372
 10
162.838255267
 20
358.0826321327
 10
162.7688173278
 20
358.0827445624
 10
162.7256086257
 20
358.0828055891
 10
162.7099117535
 20
358.0828134013
  0
LINE
  5
C2
330
1F
100
AcDbEntity
  8
0
  6
Continuous
 62
     8
370
    18
100
AcDbLine
 10
212.0207887364
 20
355.2552240783
 30
0.0
 11
212.0625935325
 21
357.944240297
 31
0.0
  0
SPLINE
  5
C3
330
1F
100
AcDbEntity
  8
0
  6
Continuous
 62
     8
370
    18
100
AcDbSpline
210
0.0
220
0.0
230
1.0
 70
     8
 71
     3
 72
    12
 73
     8
 74
     0
 42
0.00000001
 43
0.00000001
 40
0.0
 40
0.0
 40
0.0
 40
0.0
 40
0.2051337860431139
 40
0.4076306900546958
 40
0.6075593083221704
 40
0.8049910100044684
 40
1.0
 40
1.0
 40
1.0
 40
1.0
 10
212.0315498932121
 20
358.1432227389947
 30
0.0
 10
212.0337124351541
 20
358.1377542109612
 30
0.0
 10
212.0380097207504
 20
358.1268874498154
 30
0.0
 10
212.0444134426881
 20
358.0969230597727
 30
0.0
 10
212.0506813009689
 20
358.056732192133
 30
0.0
 10
212.0567870436834
 20
358.0064463673389
 30
0.0
 10
212.0606682412325
 20
357.963419039306
 30
0.0
 10
212.0625968598239
 20
357.9420381887473
 30
0.0
  0
LINE
  5
C4
330
1F
100
AcDbEntity
  8
0
  6
Continuous
 62
     8
370
    18
100
AcDbLine
 10
162.7208713415
 20
355.2552240783
 30
0.0
 11
162.6790665453
 21
357.944240297
 31
0.0
  0
SPLINE
  5
C5
330
1F
100
AcDbEntity
  8
0
  6
Continuous
 62
     8
370
    18
100
AcDbSpline
210
0.0
220
0.0
230
1.0
 70
     8
 71
     3
 72
     8
 73
     4
 74
     0
 42
0.00000001
 43
0.00000001
 40
0.0710343064154344
 40
0.0710343064154344
 40
0.0710343064154344
 40
0.0710343064154344
 40
0.0720501795059834
 40
0.0720501795059834
 40
0.0720501795059834
 40
0.0720501795059834
 10
162.6790665453148
 20
357.9442402970229
 30
0.0
 10
162.6792401312913
 20
357.9462216162682
 30
0.0
 10
162.6794140482517
 20
357.9481838147531
 30
0.0
 10
162.6795882777179
 20
357.9501268694365
 30
0.0
  0
SPLINE
  5
C6
330
1F
100
AcDbEntity
  8
0
  6
Continuous
 62
     8
370
    18
100
AcDbSpline
210
0.0
220
0.0
230
1.0
 70
     8
 71
     3
 72
    65
 73
    61
 74
     0
 42
0.00000001
 43
0.00000001
 40
0.0
 40
0.0
 40
0.0
 40
0.0
 40
0.0312499999999998
 40
0.0312499999999998
 40
0.0468749999999997
 40
0.0468749999999997
 40
0.0624999999999996
 40
0.0624999999999996
 40
0.1249999999999989
 40
0.1249999999999989
 40
0.1406249999999988
 40
0.1406249999999988
 40
0.1562499999999987
 40
0.1562499999999987
 40
0.1874999999999986
 40
0.1874999999999986
 40
0.2499999999999984
 40
0.2499999999999984
 40
0.2812499999999984
 40
0.2812499999999984
 40
0.3124999999999984
 40
0.3124999999999984
 40
0.3437499999999984
 40
0.3437499999999984
 40
0.3749999999999984
 40
0.3749999999999984
 40
0.4374999999999985
 40
0.4374999999999985
 40
0.4687499999999986
 40
0.4687499999999986
 40
0.4999999999999986
 40
0.4999999999999986
 40
0.5624999999999987
 40
0.5624999999999987
 40
0.5937499999999987
 40
0.5937499999999987
 40
0.6249999999999988
 40
0.6249999999999988
 40
0.6874999999999989
 40
0.6874999999999989
 40
0.703124999999999
 40
0.703124999999999
 40
0.7187499999999991
 40
0.7187499999999991
 40
0.7499999999999993
 40
0.7499999999999993
 40
0.8124999999999997
 40
0.8124999999999997
 40
0.8281249999999999
 40
0.8281249999999999
 40
0.84375
 40
0.84375
 40
0.8749999999999999
 40
0.9062499999999999
 40
0.9062499999999999
 40
0.9218749999999999
 40
0.9218749999999999
 40
0.9374999999999999
 40
0.9374999999999999
 40
1.0
 40
1.0
 40
1.0
 40
1.0
 10
212.062596859824
 20
357.942038188748
 30
0.0
 10
212.067447818182
 20
358.7500763869932
 30
0.0
 10
212.0327535644135
 20
359.560188095324
 30
0.0
 10
211.9196882077493
 20
360.7785517170108
 30
0.0
 10
211.8716578354926
 20
361.1859239533817
 30
0.0
 10
211.7561464608701
 20
361.9929913888415
 30
0.0
 10
211.6886116494037
 20
362.3936631618345
 30
0.0
 10
211.3028928504047
 20
364.382959773167
 30
0.0
 10
210.8419523505031
 20
365.9298003950941
 30
0.0
 10
210.0747748118395
 20
367.8074278130735
 30
0.0
 10
209.9117029343659
 20
368.1801319213914
 30
0.0
 10
209.5659158914155
 20
368.9197886743976
 30
0.0
 10
209.3831866773033
 20
369.2865967228526
 30
0.0
 10
208.811655359281
 20
370.3661279733543
 30
0.0
 10
208.3976818948993
 20
371.0622010436278
 30
0.0
 10
207.0593798086548
 20
373.081353211113
 30
0.0
 10
206.0396156959776
 20
374.3360406370191
 30
0.0
 10
204.311434098087
 20
376.0758417613052
 30
0.0
 10
203.7085074137585
 20
376.6250864402984
 30
0.0
 10
202.4597942574657
 20
377.6554669355644
 30
0.0
 10
201.8125552309272
 20
378.1380667247004
 30
0.0
 10
200.4726800865596
 20
379.0386380745324
 30
0.0
 10
199.7800454553693
 20
379.456611632491
 30
0.0
 10
198.348410998137
 20
380.2265916641894
 30
0.0
 10
197.6058797882486
 20
380.5797276344729
 30
0.0
 10
195.3536567947824
 20
381.51697712519
 30
0.0
 10
193.8086842248933
 20
381.9875549157675
 30
0.0
 10
191.4266783918536
 20
382.4648806137037
 30
0.0
 10
190.6208520638006
 20
382.5857236641979
 30
0.0
 10
188.9908332739509
 20
382.7473173153361
 30
0.0
 10
188.17355899347
 20
382.7874655238344
 30
0.0
 10
185.7159970110103
 20
382.785826811902
 30
0.0
 10
184.1052807893582
 20
382.6232414098048
 30
0.0
 10
181.7289562214146
 20
382.1470628164744
 30
0.0
 10
180.9435220088831
 20
381.9493295535436
 30
0.0
 10
179.3862993004634
 20
381.4740399965942
 30
0.0
 10
178.6129448629147
 20
381.1953200892424
 30
0.0
 10
176.3642870500189
 20
380.256875869006
 30
0.0
 10
174.9426826563617
 20
379.4915625488811
 30
0.0
 10
173.2617124109644
 20
378.3615954138398
 30
0.0
 10
172.9303640577268
 20
378.1268568733216
 30
0.0
 10
172.2775172886625
 20
377.6395991027466
 30
0.0
 10
171.9551473629219
 20
377.3863320706482
 30
0.0
 10
171.0114067918141
 20
376.60618845944
 30
0.0
 10
170.41271470984
 20
376.058904164339
 30
0.0
 10
168.7052961728022
 20
374.3379119963168
 30
0.0
 10
167.6843754359201
 20
373.0858233692437
 30
0.0
 10
166.5589174757991
 20
371.3861561124356
 30
0.0
 10
166.3410397395488
 20
371.038689458896
 30
0.0
 10
165.9251741009881
 20
370.3374137264985
 30
0.0
 10
165.7266584947297
 20
369.9828822534883
 30
0.0
 10
165.1588693070259
 20
368.9078111960018
 30
0.0
 10
164.4757060647284
 20
367.4438329228215
 30
0.0
 10
163.9383816956186
 20
365.9195587432079
 30
0.0
 10
163.5909472926484
 20
364.753385121958
 30
0.0
 10
163.4844121827395
 20
364.3608257563091
 30
0.0
 10
163.2902499427294
 20
363.5678910487824
 30
0.0
 10
163.2026739266301
 20
363.1673971935653
 30
0.0
 10
162.8170018575048
 20
361.1677263499769
 30
0.0
 10
162.6693549019017
 20
359.5591805518103
 30
0.0
 10
162.6790632180175
 20
357.9420381887479
 30
0.0
  0
SPLINE
  5
C7
330
1F
100
AcDbEntity
  8
0
  6
Continuous
 62
     8
370
    18
100
AcDbSpline
210
0.0
220
0.0
230
1.0
 70
     8
 71
     3
 72
    12
 73
     8
 74
     0
 42
0.00000001
 43
0.00000001
 40
0.0
 40
0.0
 40
0.0
 40
0.0
 40
0.2864359366882298
 40
0.5306508577699558
 40
0.7672754307676222
 40
0.9966731207745925
 40
0.9999999999999999
 40
0.9999999999999999
 40
0.9999999999999999
 40
0.9999999999999999
 10
212.0625968598239
 20
357.9420381887472
 30
0.0
 10
212.0702882431454
 20
357.8203075743434
 30
0.0
 10
212.0845372902591
 20
357.5947895904718
 30
0.0
 10
212.0938220745444
 20
357.0075760553565
 30
0.0
 10
212.0606139217788
 20
356.2359308929351
 30
0.0
 10
212.0473760367182
 20
355.6790245778748
 30
0.0
 10
211.9931925935566
 20
355.2808219848657
 30
0.0
 10
211.9924180222596
 20
355.2751295393342
 30
0.0
  0
SPLINE
  5
C8
330
1F
100
AcDbEntity
  8
0
  6
Continuous
 62
     8
370
    18
100
AcDbSpline
210
0.0
220
0.0
230
1.0
 70
     8
 71
     3
 72
    11
 73
     7
 74
     0
 42
0.00000001
 43
0.00000001
 40
0.0
 40
0.0
 40
0.0
 40
0.0
 40
0.3148825345583178
 40
0.5829769349289952
 40
0.8426033902819663
 40
1.0
 40
1.0
 40
1.0
 40
1.0
 10
162.6790632180175
 20
357.9420381887472
 30
0.0
 10
162.6708882214098
 20
357.8211867689955
 30
0.0
 10
162.6557529441479
 20
357.5974411415423
 30
0.0
 10
162.6521527011531
 20
356.9921660149262
 30
0.0
 10
162.6641761486432
 20
356.3613083804786
 30
0.0
 10
162.7062364031931
 20
355.8313566325168
 30
0.0
 10
162.7221111641465
 20
355.6313374598863
 30
0.0
  0
ARC
  5
C9
330
1F
100
AcDbEntity
  8
0
  6
Continuous
 62
     8
370
    18
100
AcDbCircle
 10
187.3708300395
 20
343.0814624506
 30
0.0
 40
73.35275294427503
100
AcDbArc
 50
282.8538052982
 51
256.9932160292
  0
CIRCLE
  5
CA
330
1F
100
AcDbEntity
  8
0
  6
Continuous
 62
     8
370
    18
100
AcDbCircle
 10
187.3708300395
 20
343.0814624506
 30
0.0
 40
74.3419313045427
  0
LINE
  5
CB
330
1F
100
AcDbEntity
  8
0
  6
Continuous
 62
     7
370
    25
100
AcDbLine
 10
319.6953584173
 20
268.5814624506
 30
0.0
 11
325.7317583599
 21
268.739531146
 31
0.0
  0
LINE
  5
CC
330
1F
100
AcDbEntity
  8
0
  6
Continuous
 62
     7
370
    25
100
AcDbLine
 10
325.7317583599
 20
417.4233937551
 30
0.0
 11
319.6953584173
 21
417.5814624506
 31
0.0
  0
ARC
  5
CD
330
1F
100
AcDbEntity
  8
0
  6
Continuous
 62
     7
370
    25
100
AcDbCircle
 10
325.7055814116
 20
416.4237364302
 30
0.0
 40
0.999999999999589
100
AcDbArc
 50
0.6004114401
 51
88.5
  0
ARC
  5
CE
330
1F
100
AcDbEntity
  8
0
  6
Continuous
 62
     7
370
    25
100
AcDbCircle
 10
325.7055814116
 20
269.739188471
 30
0.0
 40
0.999999999999589
100
AcDbArc
 50
271.5
 51
359.3995885599
  0
ARC
  5
CF
330
1F
100
AcDbEntity
  8
0
  6
Continuous
 62
     7
370
    25
100
AcDbCircle
 10
-6672.9101324884
 20
343.0814624506
 30
0.0
 40
7000.000000000001
100
AcDbArc
 50
0.3226487737
 51
0.6004114401
  0
ARC
  5
D0
330
1F
100
AcDbEntity
  8
0
  6
Continuous
 62
     7
370
    25
100
AcDbCircle
 10
-6672.9101324884
 20
343.0814624506
 30
0.0
 40
7000.000000000001
100
AcDbArc
 50
359.3995885599
 51
359.9223309041
  0
LINE
  5
D1
330
1F
100
AcDbEntity
  8
0
  6
Continuous
 62
     7
370
    25
100
AcDbLine
 10
365.1953584172
 20
333.0814624506
 30
0.0
 11
371.7465477252
 21
333.150422338
 31
0.0
  0
LINE
  5
D2
330
1F
100
AcDbEntity
  8
0
  6
Continuous
 62
     7
370
    25
100
AcDbLine
 10
393.1764377146
 20
382.7869247738
 30
0.0
 11
374.2598856623
 21
382.9860463743
 31
0.0
  0
LINE
  5
D3
330
1F
100
AcDbEntity
  8
0
  6
Continuous
 62
     7
370
    25
100
AcDbLine
 10
397.4391618254
 20
382.7420539937
 30
0.0
 11
393.1764377146
 21
382.7869247738
 31
0.0
  0
LINE
  5
D4
330
1F
100
AcDbEntity
  8
0
  6
Continuous
 62
     7
370
    25
100
AcDbLine
 10
356.6953584172
 20
382.5814624506
 30
0.0
 11
326.9785941234
 21
382.5814624506
 31
0.0
  0
LINE
  5
D5
330
1F
100
AcDbEntity
  8
0
  6
Continuous
 62
     7
370
    25
100
AcDbLine
 10
327.0833977534
 20
333.5814624506
 30
0.0
 11
356.6953584172
 21
333.5814624506
 31
0.0
  0
ARC
  5
D6
330
1F
100
AcDbEntity
  8
0
  6
Continuous
 62
     7
370
    25
100
AcDbCircle
 10
356.6953584172
 20
358.0814624506
 30
0.0
 40
24.5
100
AcDbArc
 50
50.9728712834
 51
90.0
  0
ARC
  5
D7
330
1F
100
AcDbEntity
  8
0
  6
Continuous
 62
     7
370
    25
100
AcDbCircle
 10
356.6953584172
 20
358.0814624506
 30
0.0
 40
24.50000000000006
100
AcDbArc
 50
270.0
 51
290.3001908419
  0
SPLINE
  5
D8
330
1F
100
AcDbEntity
  8
0
  6
Continuous
 62
     7
370
    25
100
AcDbSpline
210
0.0
220
0.0
230
1.0
 70
     8
 71
     3
 72
    17
 73
    13
 74
     0
 42
0.00000001
 43
0.00000001
 40
0.0
 40
0.0
 40
0.0
 40
0.0
 40
0.0159490653025265
 40
0.0578401685765644
 40
0.2272229368722782
 40
0.3856445986603954
 40
0.5273558991997721
 40
0.6508245719855604
 40
0.7706725484146526
 40
0.8674873803025839
 40
0.9433205505253177
 40
1.0
 40
1.0
 40
1.0
 40
1.0
 10
398.4542083115038
 20
270.1561876462092
 30
0.0
 10
398.4770891854569
 20
270.2564373766758
 30
0.0
 10
398.5600679419871
 20
270.6199985760284
 30
0.0
 10
398.8653374577182
 20
272.1262811313708
 30
0.0
 10
399.225344952986
 20
274.5921048455608
 30
0.0
 10
399.4820194262054
 20
277.7530153956849
 30
0.0
 10
399.6427107806122
 20
280.6049370677576
 30
0.0
 10
399.757644582481
 20
283.1927156459154
 30
0.0
 10
399.8411232248402
 20
285.4732572298284
 30
0.0
 10
399.9048628761537
 20
287.4004888943848
 30
0.0
 10
399.9512113257989
 20
288.8988512208273
 30
0.0
 10
399.9717937791786
 20
289.6506236532603
 30
0.0
 10
399.9805974850374
 20
289.9721782923418
 30
0.0
  0
SPLINE
  5
D9
330
1F
100
AcDbEntity
  8
0
  6
Continuous
 62
     7
370
    25
100
AcDbSpline
210
0.0
220
0.0
230
1.0
 70
     8
 71
     3
 72
    15
 73
    11
 74
     0
 42
0.00000001
 43
0.00000001
 40
0.0
 40
0.0
 40
0.0
 40
0.0
 40
0.210872547804129
 40
0.3799405541620938
 40
0.53240113983277
 40
0.6636375135054147
 40
0.7496449153876095
 40
0.8314592689625121
 40
0.9150410066121063
 40
1.0
 40
1.0
 40
1.0
 40
1.0
 10
391.8539553504323
 20
291.566191745565
 30
0.0
 10
391.8738584606875
 20
290.7184711734263
 30
0.0
 10
391.9097189784202
 20
289.1910868490706
 30
0.0
 10
391.9697330676721
 20
287.1115631334275
 30
0.0
 10
392.0277667761873
 20
285.3125318699473
 30
0.0
 10
392.0828341524916
 20
283.7951451075068
 30
0.0
 10
392.1326550990672
 20
282.5500957310899
 30
0.0
 10
392.1743962806817
 20
281.5988611262633
 30
0.0
 10
392.2134125740668
 20
280.7969262399728
 30
0.0
 10
392.2404062421428
 20
280.3212460815964
 30
0.0
 10
392.2540133675744
 20
280.0814624567036
 30
0.0
  0
LINE
  5
DA
330
1F
100
AcDbEntity
  8
0
  6
Continuous
 62
     7
370
    25
100
AcDbLine
 10
395.3321920822
 20
271.3418778925
 30
0.0
 11
395.4729398403
 21
271.2099035889
 31
0.0
  0
ARC
  5
DB
330
1F
100
AcDbEntity
  8
0
  6
Continuous
 62
     7
370
    25
100
AcDbCircle
 10
412.1866066063
 20
289.7996905146
 30
0.0
 40
25.00000000000001
100
AcDbArc
 50
228.0450049942
 51
233.5245720942
  0
SPLINE
  5
DC
330
1F
100
AcDbEntity
  8
0
  6
Continuous
 62
     7
370
    25
100
AcDbSpline
210
0.0
220
0.0
230
1.0
 70
     8
 71
     3
 72
    11
 73
     7
 74
     0
 42
0.00000001
 43
0.00000001
 40
0.0
 40
0.0
 40
0.0
 40
0.0
 40
0.2415296537688839
 40
0.4941461456168501
 40
0.7502608220654888
 40
1.0
 40
1.0
 40
1.0
 40
1.0
 10
397.3243252049749
 20
269.705286143818
 30
0.0
 10
397.4030940211313
 20
269.6575974989922
 30
0.0
 10
397.5642473465764
 20
269.5600311767511
 30
0.0
 10
397.8901000166335
 20
269.5478115007238
 30
0.0
 10
398.2013955595262
 20
269.6794701609931
 30
0.0
 10
398.3212688321916
 20
269.8476382719534
 30
0.0
 10
398.3804500607469
 20
269.9306625791166
 30
0.0
  0
LINE
  5
DD
330
1F
100
AcDbEntity
  8
0
  6
Continuous
 62
     7
370
    25
100
AcDbLine
 10
371.6953584172
 20
333.158529962
 30
0.0
 11
371.6953584172
 21
333.0562523219
 31
0.0
  0
LINE
  5
DE
330
1F
100
AcDbEntity
  8
0
  6
Continuous
 62
     7
370
    25
100
AcDbLine
 10
371.6953584172
 20
333.0562523219
 30
0.0
 11
371.9139397842
 21
332.4557049519
 31
0.0
  0
LINE
  5
DF
330
1F
100
AcDbEntity
  8
0
  6
Continuous
 62
     7
370
    25
100
AcDbLine
 10
379.4767770503
 20
332.4557049519
 30
0.0
 11
379.6078903675
 21
332.8159358303
 31
0.0
  0
ARC
  5
E0
330
1F
100
AcDbEntity
  8
0
  6
Continuous
 62
     7
370
    25
100
AcDbCircle
 10
379.2888385262
 20
332.5241089806
 30
0.0
 40
0.2000000000000359
100
AcDbArc
 50
270.0
 51
340.0
  0
ARC
  5
E1
330
1F
100
AcDbEntity
  8
0
  6
Continuous
 62
     7
370
    25
100
AcDbCircle
 10
372.1018783083
 20
332.5241089806
 30
0.0
 40
0.1999999999999886
100
AcDbArc
 50
200.0
 51
270.0
  0
LINE
  5
E2
330
1F
100
AcDbEntity
  8
0
  6
Continuous
 62
     7
370
    25
100
AcDbLine
 10
372.1018783083
 20
332.3241089806
 30
0.0
 11
379.2888385262
 21
332.3241089806
 31
0.0
  0
LINE
  5
E3
330
1F
100
AcDbEntity
  8
0
  6
Continuous
 62
     7
370
    25
100
AcDbLine
 10
395.3321920337
 20
271.3418779379
 30
0.0
 11
395.4515774991
 21
271.2299343172
 31
0.0
  0
LINE
  5
E4
330
1F
100
AcDbEntity
  8
0
  6
Continuous
 62
     7
370
    25
100
AcDbLine
 10
319.6953584173
 20
417.5814624506
 30
0.0
 11
319.6953584173
 21
268.5814624506
 31
0.0
  0
SPLINE
  5
E5
330
1F
100
AcDbEntity
  8
0
  6
Continuous
 62
     7
370
    25
100
AcDbSpline
210
0.0
220
0.0
230
1.0
 70
     8
 71
     3
 72
    21
 73
    17
 74
     0
 42
0.00000001
 43
0.00000001
 40
0.0
 40
0.0
 40
0.0
 40
0.0
 40
0.0705693468006874
 40
0.1431852123673661
 40
0.2137545581573811
 40
0.2863704147139739
 40
0.356939848861124
 40
0.4295557990572976
 40
0.5001252688594736
 40
0.5727412616560125
 40
0.6433106631667718
 40
0.7159265900296626
 40
0.7864958492328383
 40
0.8591116305250702
 40
0.9296807357723891
 40
1.0
 40
1.0
 40
1.0
 40
1.0
 10
326.9937970974012
 20
375.4056814264056
 30
0.0
 10
326.9959536714981
 20
374.3992937476546
 30
0.0
 10
327.0003293605765
 20
372.3573330375343
 30
0.0
 10
327.0080064298971
 20
368.7747445664313
 30
0.0
 10
327.0163309068509
 20
364.8900318940558
 30
0.0
 10
327.0250124631809
 20
360.8386790420219
 30
0.0
 10
327.0339360890114
 20
356.6743562586595
 30
0.0
 10
327.0426954081647
 20
352.5867040483649
 30
0.0
 10
327.0511983595748
 20
348.618684302728
 30
0.0
 10
327.0590515149802
 20
344.9538965122071
 30
0.0
 10
327.0661745641528
 20
341.6298197008584
 30
0.0
 10
327.0722348859786
 20
338.8016777140884
 30
0.0
 10
327.0771806155291
 20
336.4936754513305
 30
0.0
 10
327.0807432659918
 20
334.8311077203808
 30
0.0
 10
327.083009424974
 20
333.7735679910659
 30
0.0
 10
327.0832683604131
 20
333.6527315574465
 30
0.0
 10
327.0833975985442
 20
333.5924204818362
 30
0.0
  0
SPLINE
  5
E6
330
1F
100
AcDbEntity
  8
0
  6
Continuous
 62
     7
370
    25
100
AcDbSpline
210
0.0
220
0.0
230
1.0
 70
     8
 71
     3
 72
    13
 73
     9
 74
     0
 42
0.00000001
 43
0.00000001
 40
0.0
 40
0.0
 40
0.0
 40
0.0
 40
0.0845512584349732
 40
0.3023462986071939
 40
0.5140031690101948
 40
0.7317980917002198
 40
0.8651546429010809
 40
1.0
 40
1.0
 40
1.0
 40
1.0
 10
326.9785941723226
 20
382.5002747222694
 30
0.0
 10
326.9785508604344
 20
382.5204866152378
 30
0.0
 10
326.9783959817334
 20
382.59276219268
 30
0.0
 10
326.9796889810233
 20
381.9893721240038
 30
0.0
 10
326.9824264723728
 20
380.7118961068876
 30
0.0
 10
326.9861074413868
 20
378.9941365026399
 30
0.0
 10
326.9900012179608
 20
377.1770672230225
 30
0.0
 10
326.9925271304206
 20
375.9983244507131
 30
0.0
 10
326.9937970974012
 20
375.4056814264056
 30
0.0
  0
SPLINE
  5
E7
330
1F
100
AcDbEntity
  8
0
  6
Continuous
 62
     7
370
    25
100
AcDbSpline
210
0.0
220
0.0
230
1.0
 70
     8
 71
     3
 72
    13
 73
     9
 74
     0
 42
0.00000001
 43
0.00000001
 40
0.0
 40
0.0
 40
0.0
 40
0.0
 40
0.1352021593029641
 40
0.3431987833071172
 40
0.4936747796571943
 40
0.705131760402571
 40
0.9166561450752571
 40
1.0
 40
1.0
 40
1.0
 40
1.0
 10
371.7464621670019
 20
333.1585503694555
 30
0.0
 10
371.7444115138057
 20
333.1582538090711
 30
0.0
 10
371.7392061111288
 20
333.1575010166333
 30
0.0
 10
372.1821640320846
 20
333.2309957912741
 30
0.0
 10
372.925430270083
 20
333.334840575255
 30
0.0
 10
373.9386568317929
 20
333.4440287172313
 30
0.0
 10
374.9927914160204
 20
333.5058291447291
 30
0.0
 10
375.6194227031145
 20
333.5140574327245
 30
0.0
 10
375.7965386487116
 20
333.5163831401046
 30
0.0
  0
LINE
  5
E8
330
1F
100
AcDbEntity
  8
0
  6
Continuous
 62
     7
370
    25
100
AcDbLine
 10
365.1953584172
 20
354.5549228364
 30
0.0
 11
365.1953584172
 21
333.0814624506
 31
0.0
  0
SPLINE
  5
E9
330
1F
100
AcDbEntity
  8
0
  6
Continuous
 62
     7
370
    25
100
AcDbSpline
210
0.0
220
0.0
230
1.0
 70
     8
 71
     3
 72
    12
 73
     8
 74
     0
 42
0.00000001
 43
0.00000001
 40
0.0
 40
0.0
 40
0.0
 40
0.0
 40
0.5
 40
0.5
 40
0.75
 40
0.75
 40
1.0
 40
1.0
 40
1.0
 40
1.0
 10
366.4015060015249
 20
361.3953257029347
 30
0.0
 10
366.0028290903705
 20
360.2999698918801
 30
0.0
 10
365.7030829800303
 20
359.1807711822034
 30
0.0
 10
365.3998854792264
 20
357.4662918992227
 30
0.0
 10
365.3233629859218
 20
356.888819559102
 30
0.0
 10
365.2208164032741
 20
355.7215194534143
 30
0.0
 10
365.195358417243
 20
355.1371381171818
 30
0.0
 10
365.195358417243
 20
354.5549228364213
 30
0.0
  0
LINE
  5
EA
330
1F
100
AcDbEntity
  8
0
  6
Continuous
 62
     7
370
    25
100
AcDbLine
 10
366.4015060015
 20
361.3953257029
 30
0.0
 11
374.2598856623
 21
382.9860463743
 31
0.0
  0
SPLINE
  5
EB
330
1F
100
AcDbEntity
  8
0
  6
Continuous
 62
     7
370
    25
100
AcDbSpline
210
0.0
220
0.0
230
1.0
 70
     8
 71
     3
 72
    20
 73
    16
 74
     0
 42
0.00000001
 43
0.00000001
 40
0.4390945062430414
 40
0.4390945062430414
 40
0.4390945062430414
 40
0.4390945062430414
 40
0.4391092342256455
 40
0.5
 40
0.529296875
 40
0.578125
 40
0.625
 40
0.673828125
 40
0.703125
 40
0.7299107142857143
 40
0.75
 40
0.80859375
 40
0.84375
 40
0.892578125
 40
0.9064085457165667
 40
0.9064085457165667
 40
0.9064085457165667
 40
0.9064085457165667
 10
391.3951465522719
 20
314.2760681801629
 30
0.0
 10
391.3951319635534
 20
314.2764300945171
 30
0.0
 10
391.3347946416219
 20
315.7730536040736
 30
0.0
 10
391.1980429482707
 20
317.8534275309005
 30
0.0
 10
390.725548957767
 20
320.7438910608703
 30
0.0
 10
390.104784070628
 20
323.0983385027312
 30
0.0
 10
389.128337185824
 20
325.477333129517
 30
0.0
 10
388.0757206277343
 20
327.2404866628156
 30
0.0
 10
387.0669968436303
 20
328.5234073957989
 30
0.0
 10
386.2747172239717
 20
329.35378177262
 30
0.0
 10
385.114142857884
 20
330.3881090307679
 30
0.0
 10
383.7540651858272
 20
331.2975645606497
 30
0.0
 10
381.9376918260294
 20
332.1536883104142
 30
0.0
 10
380.6396186507676
 20
332.5766980174711
 30
0.0
 10
379.7948410899359
 20
332.7754877912056
 30
0.0
 10
379.6078903674945
 20
332.8159358302685
 30
0.0
  0
SPLINE
  5
EC
330
1F
100
AcDbEntity
  8
0
  6
Continuous
 62
     7
370
    25
100
AcDbSpline
210
0.0
220
0.0
230
1.0
 70
     8
 71
     3
 72
    12
 73
     8
 74
     0
 42
0.00000001
 43
0.00000001
 40
0.0
 40
0.0
 40
0.0
 40
0.0
 40
0.4999999999999953
 40
0.4999999999999953
 40
0.7499999999999977
 40
0.7499999999999977
 40
1.0
 40
1.0
 40
1.0
 40
1.0
 10
379.6078903674944
 20
332.8159358302681
 30
0.0
 10
379.607910480338
 20
332.815991089854
 30
0.0
 10
379.5378240389437
 20
332.8323351068674
 30
0.0
 10
379.3356733345923
 20
332.8937137449413
 30
0.0
 10
379.2520267642654
 20
332.9204825356215
 30
0.0
 10
379.0566037468342
 20
332.9825814130011
 30
0.0
 10
378.9443237850963
 20
333.0179792685474
 30
0.0
 10
378.8166863002305
 20
333.0562523218679
 30
0.0
  0
SPLINE
  5
ED
330
1F
100
AcDbEntity
  8
0
  6
Continuous
 62
     7
370
    25
100
AcDbSpline
210
0.0
220
0.0
230
1.0
 70
     8
 71
     3
 72
    14
 73
    10
 74
     0
 42
0.00000001
 43
0.00000001
 40
0.0
 40
0.0
 40
0.0
 40
0.0
 40
0.25
 40
0.25
 40
0.5
 40
0.5
 40
0.75
 40
0.75
 40
1.0
 40
1.0
 40
1.0
 40
1.0
 10
378.8166863002306
 20
333.0562523218679
 30
0.0
 10
378.6348209869425
 20
333.1080028281407
 30
0.0
 10
378.4321659144923
 20
333.1621167503005
 30
0.0
 10
377.9862656593493
 20
333.2688898535526
 30
0.0
 10
377.7398095845281
 20
333.3223905814772
 30
0.0
 10
377.2239842239122
 20
333.4141778252031
 30
0.0
 10
376.9536124073601
 20
333.4525781413821
 30
0.0
 10
376.3855639509357
 20
333.5043102380851
 30
0.0
 10
376.0920810589711
 20
333.5181010714259
 30
0.0
 10
375.796415263116
 20
333.5161630012429
 30
0.0
  0
ARC
  5
EE
330
1F
100
AcDbEntity
  8
0
  6
Continuous
 62
     7
370
    25
100
AcDbCircle
 10
397.4289114067
 20
381.7682597394
 30
0.0
 40
0.9738482015587476
100
AcDbArc
 50
13.3313164978
 51
89.3969077917
  0
SPLINE
  5
EF
330
1F
100
AcDbEntity
  8
0
  6
Continuous
 62
     7
370
    25
100
AcDbSpline
210
0.0
220
0.0
230
1.0
 70
     8
 71
     3
 72
     9
 73
     5
 74
     0
 42
0.00000001
 43
0.00000001
 40
0.0378814472290426
 40
0.0378814472290426
 40
0.0378814472290426
 40
0.0378814472290426
 40
0.5
 40
1.0
 40
1.0
 40
1.0
 40
1.0
 10
398.3765173641314
 20
381.992811223678
 30
0.0
 10
399.0981195709222
 20
378.9476548635018
 30
0.0
 10
400.2181099970307
 20
371.824561830202
 30
0.0
 10
400.5420241457505
 20
363.0709538668952
 30
0.0
 10
400.495358417243
 20
358.0814624505906
 30
0.0
  0
LINE
  5
F0
330
1F
100
AcDbEntity
  8
0
  6
Continuous
 62
     7
370
    25
100
AcDbLine
 10
398.4497279259
 20
270.1127997738
 30
0.0
 11
398.5016851531
 21
270.3664742976
 31
0.0
  0
SPLINE
  5
F1
330
1F
100
AcDbEntity
  8
0
  6
Continuous
 62
     7
370
    25
100
AcDbSpline
210
0.0
220
0.0
230
1.0
 70
     8
 71
     3
 72
    11
 73
     7
 74
     0
 42
0.00000001
 43
0.00000001
 40
0.0
 40
0.0
 40
0.0
 40
0.0
 40
0.1554200989791521
 40
0.3240640059390916
 40
0.6617071307232535
 40
1.0
 40
1.0
 40
1.0
 40
1.0
 10
399.8880117943462
 20
286.9165274086676
 30
0.0
 10
399.9840852649747
 20
290.6023859535252
 30
0.0
 10
400.1844065487783
 20
298.2877116817734
 30
0.0
 10
400.3613081429152
 20
313.9848802631874
 30
0.0
 10
400.4825128683979
 20
334.0206527750386
 30
0.0
 10
400.4910738245507
 20
350.0560545407051
 30
0.0
 10
400.495358417243
 20
358.0814624505907
 30
0.0
  0
LINE
  5
F2
330
1F
100
AcDbEntity
  8
0
  6
Continuous
 62
     7
370
    25
100
AcDbLine
 10
392.2540133679
 20
280.0814624506
 30
0.0
 11
392.1236167095
 21
282.7913697563
 31
0.0
  0
SPLINE
  5
F3
330
1F
100
AcDbEntity
  8
0
  6
Continuous
 62
     7
370
    25
100
AcDbSpline
210
0.0
220
0.0
230
1.0
 70
     8
 71
     3
 72
    13
 73
     9
 74
     0
 42
0.00000001
 43
0.00000001
 40
0.0
 40
0.0
 40
0.0
 40
0.0
 40
0.0316051236546364
 40
0.2246451866584321
 40
0.4251453335040803
 40
0.6263905647149
 40
0.8206215533156005
 40
1.0
 40
1.0
 40
1.0
 40
1.0
 10
391.8790831675602
 20
290.5385014731192
 30
0.0
 10
391.8724179255045
 20
290.7885422239329
 30
0.0
 10
391.8250422353445
 20
292.5657999797501
 30
0.0
 10
391.7594213212444
 20
295.92988200177
 30
0.0
 10
391.6719201371982
 20
300.6363122991181
 30
0.0
 10
391.5849237192994
 20
305.3521792758402
 30
0.0
 10
391.516607865359
 20
309.9012504067822
 30
0.0
 10
391.4345462251837
 20
312.8569629116687
 30
0.0
 10
391.3951465522719
 20
314.2760681801629
 30
0.0
  0
SPLINE
  5
F4
330
1F
100
AcDbEntity
  8
0
  6
Continuous
 62
     7
370
    25
100
AcDbSpline
210
0.0
220
0.0
230
1.0
 70
     8
 71
     3
 72
    15
 73
    11
 74
     0
 42
0.00000001
 43
0.00000001
 40
0.0
 40
0.0
 40
0.0
 40
0.0
 40
0.1596803135640067
 40
0.3373126021622669
 40
0.4021156138311848
 40
0.4744494000002101
 40
0.5493735125032166
 40
0.6518591359088386
 40
0.797947086137925
 40
1.0
 40
1.0
 40
1.0
 40
1.0
 10
395.3377363184492
 20
271.3472575793274
 30
0.0
 10
394.9676811724755
 20
271.699084810769
 30
0.0
 10
394.1859676259155
 20
272.4422932645872
 30
0.0
 10
393.4996633914433
 20
273.5467174750552
 30
0.0
 10
393.1057654680141
 20
274.4702692675267
 30
0.0
 10
392.8853313624055
 20
275.110431262972
 30
0.0
 10
392.6784194861053
 20
275.8804612376674
 30
0.0
 10
392.5063440608029
 20
276.899241267467
 30
0.0
 10
392.3644597904031
 20
278.330025521108
 30
0.0
 10
392.2945793968696
 20
279.4382658814544
 30
0.0
 10
392.2540224310214
 20
280.081462981146
 30
0.0
  0
LINE
  5
F5
330
1F
100
AcDbEntity
  8
0
  6
Continuous
 62
     7
370
    25
100
AcDbLine
 10
397.32349705
 20
269.7174430179
 30
0.0
 11
397.3239008527
 21
269.6974523884
 31
0.0
  0
LWPOLYLINE
  5
F6
330
1F
100
AcDbEntity
  8
0
  6
Continuous
 62
     7
370
    25
100
AcDbPolyline
 90
        3
 70
   128
 43
0.0
 10
398.4497279174
 20
270.1127997373
 10
398.3888018857
 20
269.946425885
 10
398.3588261411
 20
269.8937129109
  0
ARC
  5
F7
330
1F
100
AcDbEntity
  8
0
  6
Continuous
 62
     7
370
    25
100
AcDbCircle
 10
397.7505431643
 20
270.274498418
 30
0.0
 40
0.7176390334726487
100
AcDbArc
 50
233.5224171003
 51
280.0440970174
  0
LINE
  5
F8
330
1F
100
AcDbEntity
  8
0
  6
Continuous
 62
     7
370
    25
100
AcDbLine
 10
371.6953584172
 20
333.0562523219
 30
0.0
 11
378.8166863002
 21
333.0562523219
 31
0.0
  0
LINE
  5
F9
330
1F
100
AcDbEntity
  8
0
  6
Continuous
 62
     8
370
    18
100
AcDbLine
 10
326.7055265057
 20
416.4342153949
 30
0.0
 11
326.7055265057
 21
269.7287095063
 31
0.0
  0
SPLINE
  5
FA
330
1F
100
AcDbEntity
  8
0
  6
Continuous
 62
     8
370
    18
100
AcDbSpline
210
0.0
220
0.0
230
1.0
 70
     8
 71
     3
 72
    21
 73
    17
 74
     0
 42
0.00000001
 43
0.00000001
 40
0.0720501795059836
 40
0.0720501795059836
 40
0.0720501795059836
 40
0.0720501795059836
 40
0.1208008169535429
 40
0.1830677501578646
 40
0.2457742046528725
 40
0.308237107019587
 40
0.3709140132231642
 40
0.4334994637597159
 40
0.4962741119030492
 40
0.5587824454554875
 40
0.6214836440578085
 40
0.6839217431186432
 40
0.746467756101804
 40
0.8071694746782317
 40
0.8712164847693663
 40
0.92308443219963
 40
0.92308443219963
 40
0.92308443219963
 40
0.92308443219963
 10
375.7964152801098
 20
333.5161655973156
 30
0.0
 10
375.7973067932905
 20
333.6523582450228
 30
0.0
 10
375.8015659683861
 20
334.0607194084383
 30
0.0
 10
375.827542815474
 20
335.0409165441584
 30
0.0
 10
375.9083361799491
 20
336.4943005342449
 30
0.0
 10
376.0848895777378
 20
338.3219582966916
 30
0.0
 10
376.4121320708377
 20
340.4819753229898
 30
0.0
 10
376.961511696333
 20
342.926332604296
 30
0.0
 10
377.8166022027801
 20
345.570045528276
 30
0.0
 10
379.0703581778487
 20
348.2985547615048
 30
0.0
 10
380.7956538003367
 20
350.9404374773667
 30
0.0
 10
383.015434381617
 20
353.3071927653399
 30
0.0
 10
385.6395120435691
 20
355.2132597486653
 30
0.0
 10
388.5895686122121
 20
356.6354375123816
 30
0.0
 10
391.5490366551659
 20
357.5056082977728
 30
0.0
 10
393.5430308197875
 20
357.8430790757903
 30
0.0
 10
394.4400406914473
 20
357.944240297023
 30
0.0
  0
SPLINE
  5
FB
330
1F
100
AcDbEntity
  8
0
  6
Continuous
 62
     8
370
    18
100
AcDbSpline
210
0.0
220
0.0
230
1.0
 70
     8
 71
     3
 72
     8
 73
     4
 74
     0
 42
0.00000001
 43
0.00000001
 40
0.0710343064154344
 40
0.0710343064154344
 40
0.0710343064154344
 40
0.0710343064154344
 40
0.0720501795059834
 40
0.0720501795059834
 40
0.0720501795059834
 40
0.0720501795059834
 10
394.4400406914473
 20
357.9442402970229
 30
0.0
 10
394.4576093101362
 20
357.9462216162682
 30
0.0
 10
394.4751797571578
 20
357.9481838147531
 30
0.0
 10
394.4927519905913
 20
357.9501268694365
 30
0.0
  0
SPLINE
  5
FC
330
1F
100
AcDbEntity
  8
0
  6
Continuous
 62
     8
370
    18
100
AcDbSpline
210
0.0
220
0.0
230
1.0
 70
     8
 71
     3
 72
    22
 73
    18
 74
     0
 42
0.00000001
 43
0.00000001
 40
0.0
 40
0.0
 40
0.0
 40
0.0
 40
0.1250000000000001
 40
0.1250000000000001
 40
0.2500000000000002
 40
0.2500000000000002
 40
0.3750000000000003
 40
0.3750000000000003
 40
0.5000000000000002
 40
0.5000000000000002
 40
0.6250000000000001
 40
0.6250000000000001
 40
0.75
 40
0.75
 40
0.875
 40
0.875
 40
1.0
 40
1.0
 40
1.0
 40
1.0
 10
397.4197224929367
 20
358.1432248467412
 30
0.0
 10
397.418909460169
 20
359.7702584897825
 30
0.0
 10
397.4190675148513
 20
361.369934800629
 30
0.0
 10
397.4196713502756
 20
364.5162411118514
 30
0.0
 10
397.4201582345553
 20
366.0792000170861
 30
0.0
 10
397.4212201142249
 20
369.0595770727202
 30
0.0
 10
397.4218163564043
 20
370.4728136958144
 30
0.0
 10
397.423464524835
 20
373.1468121223767
 30
0.0
 10
397.4245527263586
 20
374.4127771348035
 30
0.0
 10
397.427306740904
 20
376.6815372893217
 30
0.0
 10
397.4289830563056
 20
377.6992816395473
 30
0.0
 10
397.4324587968412
 20
379.496091186483
 30
0.0
 10
397.4342015673068
 20
380.2598822776782
 30
0.0
 10
397.4368332865261
 20
381.4851717044084
 30
0.0
 10
397.4376973939421
 20
381.9562878136574
 30
0.0
 10
397.4385674615678
 20
382.5866760151515
 30
0.0
 10
397.4385430072423
 20
382.7420605075381
 30
0.0
 10
397.439161825371
 20
382.742053993663
 30
0.0
  0
SPLINE
  5
FD
330
1F
100
AcDbEntity
  8
0
  6
Continuous
 62
     8
370
    18
100
AcDbSpline
210
0.0
220
0.0
230
1.0
 70
     8
 71
     3
 72
    10
 73
     6
 74
     0
 42
0.00000001
 43
0.00000001
 40
0.0
 40
0.0
 40
0.0
 40
0.0
 40
0.5
 40
0.5
 40
1.0
 40
1.0
 40
1.0
 40
1.0
 10
397.3966579490366
 20
314.2760454453494
 30
0.0
 10
397.4025758928234
 20
321.5640700553702
 30
0.0
 10
397.4118334145103
 20
328.8631275357379
 30
0.0
 10
397.4177116500874
 20
343.468288903106
 30
0.0
 10
397.4167655743437
 20
350.7767931228227
 30
0.0
 10
397.41974518995
 20
358.0828134012826
 30
0.0
  0
LINE
  5
FE
330
1F
100
AcDbEntity
  8
0
  6
Continuous
 62
     8
370
    18
100
AcDbLine
 10
395.4218468467
 20
314.2759961829
 30
0.0
 11
395.4218459623
 21
314.2760620638
 31
0.0
  0
SPLINE
  5
FF
330
1F
100
AcDbEntity
  8
0
  6
Continuous
 62
     8
370
    18
100
AcDbSpline
210
0.0
220
0.0
230
1.0
 70
     8
 71
     3
 72
    10
 73
     6
 74
     0
 42
0.00000001
 43
0.00000001
 40
0.0
 40
0.0
 40
0.0
 40
0.0
 40
0.5
 40
0.5
 40
1.0
 40
1.0
 40
1.0
 40
1.0
 10
398.3371152531866
 20
358.0814624505907
 30
0.0
 10
398.3374018737577
 20
350.7843741328288
 30
0.0
 10
398.3381341381892
 20
343.4862851532801
 30
0.0
 10
398.3392698734424
 20
328.9003681671642
 30
0.0
 10
398.3373951255941
 20
321.6109263177253
 30
0.0
 10
398.336888536525
 20
314.334787959537
 30
0.0
  0
ARC
  5
100
330
1F
100
AcDbEntity
  8
0
  6
Continuous
 62
     8
370
    18
100
AcDbCircle
 10
397.6189737061
 20
181.8968474766
 30
0.0
 40
176.1860785669548
100
AcDbArc
 50
89.7664594501
 51
90.0647892027
  0
SPLINE
  5
101
330
1F
100
AcDbEntity
  8
0
  6
Continuous
 62
     8
370
    18
100
AcDbSpline
210
0.0
220
0.0
230
1.0
 70
     8
 71
     3
 72
     8
 73
     4
 74
     0
 42
0.00000001
 43
0.00000001
 40
0.0
 40
0.0
 40
0.0
 40
0.0
 40
1.0
 40
1.0
 40
1.0
 40
1.0
 10
398.3371019063605
 20
358.1355099182825
 30
0.0
 10
398.3371090302381
 20
358.117494211182
 30
0.0
 10
398.3371141726914
 20
358.0994784189598
 30
0.0
 10
398.3371152485357
 20
358.0814624505907
 30
0.0
  0
SPLINE
  5
102
330
1F
100
AcDbEntity
  8
0
  6
Continuous
 62
     8
370
    18
100
AcDbSpline
210
0.0
220
0.0
230
1.0
 70
     8
 71
     3
 72
    22
 73
    18
 74
     0
 42
0.00000001
 43
0.00000001
 40
0.0
 40
0.0
 40
0.0
 40
0.0
 40
0.1249999999999999
 40
0.1249999999999999
 40
0.2499999999999999
 40
0.2499999999999999
 40
0.3749999999999998
 40
0.3749999999999998
 40
0.4999999999999997
 40
0.4999999999999997
 40
0.6249999999999996
 40
0.6249999999999996
 40
0.7499999999999998
 40
0.7499999999999998
 40
0.8749999999999999
 40
0.8749999999999999
 40
1.0
 40
1.0
 40
1.0
 40
1.0
 10
398.376517364577
 20
381.9928112238823
 30
0.0
 10
398.3759731584732
 20
381.9929127717638
 30
0.0
 10
398.3760105253626
 20
381.8422942080783
 30
0.0
 10
398.3748227898484
 20
381.2305619805259
 30
0.0
 10
398.3736235192347
 20
380.7732127025162
 30
0.0
 10
398.3698342887859
 20
379.5835347041927
 30
0.0
 10
398.3672574867443
 20
378.8418777039717
 30
0.0
 10
398.3616395406885
 20
377.0974644741256
 30
0.0
 10
398.3586765399814
 20
376.1095472385334
 30
0.0
 10
398.3531076597879
 20
373.9080269013505
 30
0.0
 10
398.3504777494084
 20
372.6799317223357
 30
0.0
 10
398.3458910209932
 20
370.0868462760044
 30
0.0
 10
398.3438908180431
 20
368.7167986475589
 30
0.0
 10
398.3403973410371
 20
365.8283754161334
 30
0.0
 10
398.3388944333736
 20
364.3140583417899
 30
0.0
 10
398.3368931377969
 20
361.2663661336497
 30
0.0
 10
398.3363382647903
 20
359.717163546165
 30
0.0
 10
398.3371053071466
 20
358.14173538126
 30
0.0
  0
LINE
  5
103
330
1F
100
AcDbEntity
  8
0
  6
Continuous
 62
     8
370
    18
100
AcDbLine
 10
356.6953584172
 20
382.5814624506
 30
0.0
 11
356.6953584172
 21
333.5814624506
 31
0.0
  0
SPLINE
  5
104
330
1F
100
AcDbEntity
  8
0
  6
Continuous
 62
     8
370
    18
100
AcDbSpline
210
0.0
220
0.0
230
1.0
 70
     8
 71
     3
 72
     8
 73
     4
 74
     0
 42
0.00000001
 43
0.00000001
 40
0.0
 40
0.0
 40
0.0
 40
0.0
 40
1.0
 40
1.0
 40
1.0
 40
1.0
 10
398.3488637795672
 20
270.74802299218
 30
0.0
 10
398.4529734604529
 20
270.3031551599554
 30
0.0
 10
398.4497635511547
 20
270.1130683718306
 30
0.0
 10
398.4497279173982
 20
270.1127997371563
 30
0.0
  0
SPLINE
  5
105
330
1F
100
AcDbEntity
  8
0
  6
Continuous
 62
     8
370
    18
100
AcDbSpline
210
0.0
220
0.0
230
1.0
 70
     8
 71
     3
 72
    16
 73
    12
 74
     0
 42
0.00000001
 43
0.00000001
 40
0.0
 40
0.0
 40
0.0
 40
0.0
 40
0.2500000000000016
 40
0.2500000000000016
 40
0.5000000000000032
 40
0.5000000000000032
 40
0.6250000000000023
 40
0.6250000000000023
 40
0.7500000000000014
 40
0.7500000000000014
 40
1.0
 40
1.0
 40
1.0
 40
1.0
 10
398.3115214585197
 20
280.1917622049977
 30
0.0
 10
398.3084172302082
 20
279.1847227655814
 30
0.0
 10
398.3050338790783
 20
278.1788107284889
 30
0.0
 10
398.2964398583811
 20
276.1684780210381
 30
0.0
 10
398.2910233209599
 20
275.1556752001119
 30
0.0
 10
398.2846100876084
 20
273.7064932755844
 30
0.0
 10
398.2827634932481
 20
273.2250790591141
 30
0.0
 10
398.2828718830309
 20
272.3564143094102
 30
0.0
 10
398.2854548961423
 20
271.9655159976071
 30
0.0
 10
398.3021828155013
 20
271.0908263325001
 30
0.0
 10
398.323339859753
 20
270.8580667000713
 30
0.0
 10
398.3488626163368
 20
270.7480136121222
 30
0.0
  0
SPLINE
  5
106
330
1F
100
AcDbEntity
  8
0
  6
Continuous
 62
     8
370
    18
100
AcDbSpline
210
0.0
220
0.0
230
1.0
 70
     8
 71
     3
 72
     8
 73
     4
 74
     0
 42
0.00000001
 43
0.00000001
 40
0.0
 40
0.0
 40
0.0
 40
0.0
 40
1.0
 40
1.0
 40
1.0
 40
1.0
 10
398.336888536525
 20
314.334787959537
 30
0.0
 10
398.3360935415439
 20
302.9162769520537
 30
0.0
 10
398.3469134704388
 20
291.5196085747934
 30
0.0
 10
398.3115207528092
 20
280.1915944598578
 30
0.0
  0
SPLINE
  5
107
330
1F
100
AcDbEntity
  8
0
  6
Continuous
 62
     8
370
    18
100
AcDbSpline
210
0.0
220
0.0
230
1.0
 70
     8
 71
     3
 72
     8
 73
     4
 74
     0
 42
0.00000001
 43
0.00000001
 40
0.0
 40
0.0
 40
0.0
 40
0.0
 40
1.0
 40
1.0
 40
1.0
 40
1.0
 10
397.3739002589489
 20
280.0814624505879
 30
0.0
 10
397.3956038295752
 20
291.4279527915941
 30
0.0
 10
397.3873719799645
 20
302.8402532673903
 30
0.0
 10
397.3966579490366
 20
314.2760454453494
 30
0.0
  0
SPLINE
  5
108
330
1F
100
AcDbEntity
  8
0
  6
Continuous
 62
     8
370
    18
100
AcDbSpline
210
0.0
220
0.0
230
1.0
 70
     8
 71
     3
 72
    16
 73
    12
 74
     0
 42
0.00000001
 43
0.00000001
 40
0.0
 40
0.0
 40
0.0
 40
0.0
 40
0.2500000000000002
 40
0.2500000000000002
 40
0.3750000000000001
 40
0.3750000000000001
 40
0.5
 40
0.5
 40
0.75
 40
0.75
 40
1.0
 40
1.0
 40
1.0
 40
1.0
 10
397.2454592436238
 20
270.2767441013212
 30
0.0
 10
397.2224872984839
 20
270.3826321638737
 30
0.0
 10
397.2046088149467
 20
270.6003907945275
 30
0.0
 10
397.2213224888831
 20
271.5190067154667
 30
0.0
 10
397.2370818026295
 20
271.9432556244902
 30
0.0
 10
397.2749283360042
 20
272.8984904567701
 30
0.0
 10
397.2945054731204
 20
273.4276090145602
 30
0.0
 10
397.3375693333369
 20
274.9866832287448
 30
0.0
 10
397.3512040683801
 20
276.0431556310061
 30
0.0
 10
397.3665736012258
 20
278.0586745303801
 30
0.0
 10
397.3720805076641
 20
279.0686756346226
 30
0.0
 10
397.3739012902866
 20
280.0814624505767
 30
0.0
  0
LINE
  5
109
330
1F
100
AcDbEntity
  8
0
  6
Continuous
 62
     8
370
    18
100
AcDbLine
 10
395.4729318049
 20
271.2079268432
 30
0.0
 11
395.3377363184
 21
271.3472575793
 31
0.0
  0
SPLINE
  5
10A
330
1F
100
AcDbEntity
  8
0
  6
Continuous
 62
     8
370
    18
100
AcDbSpline
210
0.0
220
0.0
230
1.0
 70
     8
 71
     3
 72
    10
 73
     6
 74
     0
 42
0.00000001
 43
0.00000001
 40
0.0
 40
0.0
 40
0.0
 40
0.0
 40
0.5660393334324844
 40
0.7664114998440448
 40
1.0
 40
1.0
 40
1.0
 40
1.0
 10
397.2454580943453
 20
270.2767588748612
 30
0.0
 10
397.2776833889907
 20
270.1040717263582
 30
0.0
 10
397.3213161101521
 20
269.8702550838195
 30
0.0
 10
397.3229008228064
 20
269.7392957483645
 30
0.0
 10
397.3232884184671
 20
269.7250897153819
 30
0.0
 10
397.323497050023
 20
269.717443017897
 30
0.0
  0
LINE
  5
10B
330
1F
100
AcDbEntity
  8
0
  6
Continuous
 62
     8
370
    18
100
AcDbLine
 10
371.9139397842
 20
332.4557049519
 30
0.0
 11
379.4767770503
 21
332.4557049519
 31
0.0
  0
LINE
  5
10C
330
1F
100
AcDbEntity
  8
0
  6
Continuous
 62
     7
370
    25
100
AcDbLine
 10
112.8708300395
 20
184.7623886183
 30
0.0
 11
113.028898735
 21
178.7259886757
 31
0.0
  0
LINE
  5
10D
330
1F
100
AcDbEntity
  8
0
  6
Continuous
 62
     7
370
    25
100
AcDbLine
 10
261.7127613441
 20
178.7259886757
 30
0.0
 11
261.8708300395
 21
184.7623886183
 31
0.0
  0
ARC
  5
10E
330
1F
100
AcDbEntity
  8
0
  6
Continuous
 62
     7
370
    25
100
AcDbCircle
 10
260.7131040191
 20
178.752165624
 30
0.0
 40
0.9999999999996079
100
AcDbArc
 50
270.6004114401
 51
358.5
  0
ARC
  5
10F
330
1F
100
AcDbEntity
  8
0
  6
Continuous
 62
     7
370
    25
100
AcDbCircle
 10
114.02855606
 20
178.752165624
 30
0.0
 40
0.9999999999996076
100
AcDbArc
 50
181.5
 51
269.3995885599
  0
ARC
  5
110
330
1F
100
AcDbEntity
  8
0
  6
Continuous
 62
     7
370
    25
100
AcDbCircle
 10
187.3708300395
 20
7177.367879524
 30
0.0
 40
7000.000000000002
100
AcDbArc
 50
269.3995885599
 51
269.8422954534
  0
ARC
  5
111
330
1F
100
AcDbEntity
  8
0
  6
Continuous
 62
     7
370
    25
100
AcDbCircle
 10
187.3708300395
 20
7177.367879524
 30
0.0
 40
7000.000000000002
100
AcDbArc
 50
270.1576919199
 51
270.6004114401
  0
LINE
  5
112
330
1F
100
AcDbEntity
  8
0
  6
Continuous
 62
     7
370
    25
100
AcDbLine
 10
162.3745417842
 20
138.9097728211
 30
0.0
 11
162.6786191955
 21
110.0224187421
 31
0.0
  0
LINE
  5
113
330
1F
100
AcDbEntity
  8
0
  6
Continuous
 62
     7
370
    25
100
AcDbLine
 10
212.0630409095
 20
110.0224213239
 30
0.0
 11
212.3670861448
 21
138.9067186734
 31
0.0
  0
LINE
  5
114
330
1F
100
AcDbEntity
  8
0
  6
Continuous
 62
     7
370
    25
100
AcDbLine
 10
162.6786191955
 20
110.0224187421
 30
0.0
 11
162.700404914
 21
107.9527754899
 31
0.0
  0
LINE
  5
115
330
1F
100
AcDbEntity
  8
0
  6
Continuous
 62
     7
370
    25
100
AcDbLine
 10
212.0412551639
 20
107.9527754899
 30
0.0
 11
212.0630409095
 21
110.0224213239
 31
0.0
  0
LINE
  5
116
330
1F
100
AcDbEntity
  8
0
  6
Continuous
 62
     7
370
    25
100
AcDbLine
 10
211.8708300389
 20
147.7623886183
 30
0.0
 11
211.8708300389
 21
177.4268205262
 31
0.0
  0
LINE
  5
117
330
1F
100
AcDbEntity
  8
0
  6
Continuous
 62
     7
370
    25
100
AcDbLine
 10
162.8708300389
 20
177.4268217583
 30
0.0
 11
162.8708300389
 21
147.7623886183
 31
0.0
  0
ARC
  5
118
330
1F
100
AcDbEntity
  8
0
  6
Continuous
 62
     7
370
    25
100
AcDbCircle
 10
187.3708300389
 20
147.7623886183
 30
0.0
 40
24.5
100
AcDbArc
 50
180.0
 51
201.1725893461
  0
ARC
  5
119
330
1F
100
AcDbEntity
  8
0
  6
Continuous
 62
     7
370
    25
100
AcDbCircle
 10
187.3708300389
 20
147.7623886183
 30
0.0
 40
24.5
100
AcDbArc
 50
338.8305771024
 51
0.0
  0
SPLINE
  5
11A
330
1F
100
AcDbEntity
  8
0
  6
Continuous
 62
     7
370
    25
100
AcDbSpline
210
0.0
220
0.0
230
1.0
 70
     8
 71
     3
 72
     9
 73
     5
 74
     0
 42
0.00000001
 43
0.00000001
 40
0.0
 40
0.0
 40
0.0
 40
0.0
 40
0.4883224550833045
 40
1.0
 40
1.0
 40
1.0
 40
1.0
 10
212.0177420149988
 20
107.0396609063345
 30
0.0
 10
212.0244366112012
 20
107.2560441011114
 30
0.0
 10
212.0381459873166
 20
107.6991594903882
 30
0.0
 10
212.0437179038694
 20
108.215345253706
 30
0.0
 10
212.0465689284515
 20
108.4794659178014
 30
0.0
  0
LINE
  5
11B
330
1F
100
AcDbEntity
  8
0
  6
Continuous
 62
     7
370
    25
100
AcDbLine
 10
212.0475361538
 20
108.5494695278
 30
0.0
 11
212.0479092653
 21
108.5764737348
 31
0.0
  0
LINE
  5
11C
330
1F
100
AcDbEntity
  8
0
  6
Continuous
 62
     7
370
    25
100
AcDbLine
 10
162.6937508126
 20
108.5764737348
 30
0.0
 11
162.6941239241
 21
108.5494695278
 31
0.0
  0
SPLINE
  5
11D
330
1F
100
AcDbEntity
  8
0
  6
Continuous
 62
     7
370
    25
100
AcDbSpline
210
0.0
220
0.0
230
1.0
 70
     8
 71
     3
 72
     9
 73
     5
 74
     0
 42
0.00000001
 43
0.00000001
 40
0.0
 40
0.0
 40
0.0
 40
0.0
 40
0.5116775449168032
 40
0.9999999999999999
 40
0.9999999999999999
 40
0.9999999999999999
 40
0.9999999999999999
 10
162.69509114939
 20
108.479465917799
 30
0.0
 10
162.6979421739722
 20
108.215345253704
 30
0.0
 10
162.7035140905249
 20
107.6991594903872
 30
0.0
 10
162.7172234666403
 20
107.256044101111
 30
0.0
 10
162.7239180628426
 20
107.0396609063346
 30
0.0
  0
SPLINE
  5
11E
330
1F
100
AcDbEntity
  8
0
  6
Continuous
 62
     7
370
    25
100
AcDbSpline
210
0.0
220
0.0
230
1.0
 70
     8
 71
     3
 72
    11
 73
     7
 74
     0
 42
0.00000001
 43
0.00000001
 40
0.0
 40
0.0
 40
0.0
 40
0.0
 40
0.2530170674615661
 40
0.5066844651498542
 40
0.759779431410008
 40
1.0
 40
1.0
 40
1.0
 40
1.0
 10
187.3708302905357
 20
103.9623886183306
 30
0.0
 10
189.3870519748524
 20
103.988613664666
 30
0.0
 10
193.4246776417326
 20
104.041131163621
 30
0.0
 10
199.4295287575334
 20
104.470318968308
 30
0.0
 10
205.3423175005175
 20
105.1211792877171
 30
0.0
 10
209.2150638255566
 20
105.778363319953
 30
0.0
 10
211.1009021146108
 20
106.0983798423193
 30
0.0
  0
LINE
  5
11F
330
1F
100
AcDbEntity
  8
0
  6
Continuous
 62
     7
370
    25
100
AcDbLine
 10
211.2502590202
 20
106.1222695435
 30
0.0
 11
211.4021372264
 21
106.1465625277
 31
0.0
  0
SPLINE
  5
120
330
1F
100
AcDbEntity
  8
0
  6
Continuous
 62
     7
370
    25
100
AcDbSpline
210
0.0
220
0.0
230
1.0
 70
     8
 71
     3
 72
    24
 73
    20
 74
     0
 42
0.00000001
 43
0.00000001
 40
0.0
 40
0.0
 40
0.0
 40
0.0
 40
0.0036836033574252
 40
0.0810977313726824
 40
0.174989398166917
 40
0.294817442552214
 40
0.4153652628566901
 40
0.5003863163532171
 40
0.5701306386155292
 40
0.6024754922325734
 40
0.6172712833804904
 40
0.6317338689128812
 40
0.6465315728605515
 40
0.6624189026220436
 40
0.7002102408031015
 40
0.7500641387887553
 40
0.8153667565325876
 40
0.8986763089353788
 40
1.0
 40
1.0
 40
1.0
 40
1.0
 10
170.2332789486182
 20
105.0692079500857
 30
0.0
 10
170.2581058375484
 20
105.0658689654979
 30
0.0
 10
170.8046913881395
 20
104.992358316039
 30
0.0
 10
171.8621052817757
 20
104.8662765686145
 30
0.0
 10
173.4655573200898
 20
104.6855663251209
 30
0.0
 10
175.1564908301098
 20
104.5198368499448
 30
0.0
 10
176.8107059106727
 20
104.3794257329053
 30
0.0
 10
178.3019205288945
 20
104.2713108311921
 30
0.0
 10
179.4399644518066
 20
104.1998938714048
 30
0.0
 10
180.2494759827393
 20
104.155289845808
 30
0.0
 10
180.6839454038297
 20
104.132926363501
 30
0.0
 10
180.9857756024265
 20
104.1180397945401
 30
0.0
 10
181.2696996115378
 20
104.1046073214196
 30
0.0
 10
181.6416185782533
 20
104.0877018949569
 30
0.0
 10
182.0457789603346
 20
104.0704855361833
 30
0.0
 10
182.4006006294299
 20
104.0562359846862
 30
0.0
 10
182.6589750282708
 20
104.0462690914298
 30
0.0
 10
182.8171424974887
 20
104.040285838132
 30
0.0
 10
182.830955000293
 20
104.0397651435994
 30
0.0
 10
182.8385350749355
 20
104.0394793949934
 30
0.0
  0
SPLINE
  5
121
330
1F
100
AcDbEntity
  8
0
  6
Continuous
 62
     7
370
    25
100
AcDbSpline
210
0.0
220
0.0
230
1.0
 70
     8
 71
     3
 72
     9
 73
     5
 74
     0
 42
0.00000001
 43
0.00000001
 40
0.0
 40
0.0
 40
0.0
 40
0.0
 40
0.7334902717607212
 40
0.9999999999999999
 40
0.9999999999999999
 40
0.9999999999999999
 40
0.9999999999999999
 10
163.3395228514708
 20
106.1465625277196
 30
0.0
 10
164.0304327215849
 20
106.0222296095394
 30
0.0
 10
164.9723809610013
 20
105.8527209971324
 30
0.0
 10
166.0167016692278
 20
105.6850306140417
 30
0.0
 10
166.2950232973719
 20
105.6403394956158
 30
0.0
  0
LINE
  5
122
330
1F
100
AcDbEntity
  8
0
  6
Continuous
 62
     7
370
    25
100
AcDbLine
 10
261.8708300395
 20
184.7623886183
 30
0.0
 11
112.8708300395
 21
184.7623886183
 31
0.0
  0
SPLINE
  5
123
330
1F
100
AcDbEntity
  8
0
  6
Continuous
 62
     7
370
    25
100
AcDbSpline
210
0.0
220
0.0
230
1.0
 70
     8
 71
     3
 72
    12
 73
     8
 74
     0
 42
0.00000001
 43
0.00000001
 40
0.0
 40
0.0
 40
0.0
 40
0.0
 40
0.2116959991175813
 40
0.4295312053345714
 40
0.6412272014203079
 40
0.8590623806085775
 40
1.0
 40
1.0
 40
1.0
 40
1.0
 10
170.0468167372053
 20
177.4639499381724
 30
0.0
 10
169.1333220574072
 20
177.4617933560039
 30
0.0
 10
167.2798412523094
 20
177.4574176505485
 30
0.0
 10
165.2023302112705
 20
177.4497407055977
 30
0.0
 10
163.7292088710983
 20
177.4414157617006
 30
0.0
 10
162.9438916024376
 20
177.4336937752631
 30
0.0
 10
162.9454995493116
 20
177.4287599322712
 30
0.0
 10
162.9461312031198
 20
177.4268217583392
 30
0.0
  0
SPLINE
  5
124
330
1F
100
AcDbEntity
  8
0
  6
Continuous
 62
     7
370
    25
100
AcDbSpline
210
0.0
220
0.0
230
1.0
 70
     8
 71
     3
 72
    22
 73
    18
 74
     0
 42
0.00000001
 43
0.00000001
 40
0.0
 40
0.0
 40
0.0
 40
0.0
 40
0.0515473978973734
 40
0.1221109850162715
 40
0.194720922737166
 40
0.2652844728486819
 40
0.3378943775754802
 40
0.408457802862671
 40
0.4810675812157505
 40
0.5516308485672082
 40
0.6242404625514488
 40
0.6948036080736393
 40
0.76741309173122
 40
0.8379762049241968
 40
0.9105856494150381
 40
0.9550446523261855
 40
1.0
 40
1.0
 40
1.0
 40
1.0
 10
211.7970457995751
 20
177.4268205261637
 30
0.0
 10
211.7916830893189
 20
177.4289478438594
 30
0.0
 10
211.7789793281506
 20
177.4339872613639
 30
0.0
 10
210.9484900958607
 20
177.4418741354613
 30
0.0
 10
209.463072422893
 20
177.4501125817214
 30
0.0
 10
207.3087328761089
 20
177.4577613174687
 30
0.0
 10
204.6170819907917
 20
177.464467046829
 30
0.0
 10
201.407309384856
 20
177.4701604224995
 30
0.0
 10
197.8303307144182
 20
177.4745778717996
 30
0.0
 10
193.9223874780188
 20
177.4776738821257
 30
0.0
 10
189.8646363458273
 20
177.479304986509
 30
0.0
 10
185.6987064805772
 20
177.4794548095265
 30
0.0
 10
181.6180515524662
 20
177.4781148023148
 30
0.0
 10
177.6626845320004
 20
177.4753048182303
 30
0.0
 10
174.4678306444152
 20
177.4716420524462
 30
0.0
 10
171.9300168959367
 20
177.4677453248859
 30
0.0
 10
170.6768688916138
 20
177.4652197403039
 30
0.0
 10
170.0468167372053
 20
177.4639499381724
 30
0.0
  0
SPLINE
  5
125
330
1F
100
AcDbEntity
  8
0
  6
Continuous
 62
     7
370
    25
100
AcDbSpline
210
0.0
220
0.0
230
1.0
 70
     8
 71
     3
 72
    12
 73
     8
 74
     0
 42
0.00000001
 43
0.00000001
 40
0.0
 40
0.0
 40
0.0
 40
0.0
 40
0.500000000000001
 40
0.500000000000001
 40
0.7500000000000004
 40
0.7500000000000004
 40
1.0
 40
1.0
 40
1.0
 40
1.0
 10
212.1208506116333
 20
139.2623886183305
 30
0.0
 10
212.2867840591852
 20
139.2623886183305
 30
0.0
 10
212.3667153045028
 20
139.1614311248827
 30
0.0
 10
212.3679949586004
 20
138.8600884360307
 30
0.0
 10
212.3485657422057
 20
138.734519306953
 30
0.0
 10
212.2708453571081
 20
138.431676432474
 30
0.0
 10
212.2128502736892
 20
138.2556809304031
 30
0.0
 10
212.1374135138878
 20
138.0562410340487
 30
0.0
  0
SPLINE
  5
126
330
1F
100
AcDbEntity
  8
0
  6
Continuous
 62
     7
370
    25
100
AcDbSpline
210
0.0
220
0.0
230
1.0
 70
     8
 71
     3
 72
    12
 73
     8
 74
     0
 42
0.00000001
 43
0.00000001
 40
0.0
 40
0.0
 40
0.0
 40
0.0
 40
0.5
 40
0.5
 40
0.75
 40
0.75
 40
1.0
 40
1.0
 40
1.0
 40
1.0
 10
162.6042465639537
 20
138.0562410340487
 30
0.0
 10
162.4534497828939
 20
138.4549179452031
 30
0.0
 10
162.3742155013633
 20
138.7546640555433
 30
0.0
 10
162.3740196976987
 20
139.0578615563472
 30
0.0
 10
162.393789284243
 20
139.1343840496517
 30
0.0
 10
162.4758586366593
 20
139.2369306322994
 30
0.0
 10
162.5378517472219
 20
139.2623886183305
 30
0.0
 10
162.6208094662082
 20
139.2623886183305
 30
0.0
  0
ELLIPSE
  5
127
330
1F
100
AcDbEntity
  8
0
  6
Continuous
 62
     7
370
    25
100
AcDbEllipse
 10
187.3708300389
 20
139.2972507962
 30
0.0
 11
25.0001834844735
 21
0.0
 31
0.0
210
0.0
220
0.0
230
1.0
 40
0.3639729056
 41
3.278402884781319
 42
6.146375075988137
  0
LINE
  5
128
330
1F
100
AcDbEntity
  8
0
  6
Continuous
 62
     7
370
    25
100
AcDbLine
 10
162.700579328
 20
107.9527773258
 30
0.0
 11
162.6941594974
 21
108.5688745325
 31
0.0
  0
LINE
  5
129
330
1F
100
AcDbEntity
  8
0
  6
Continuous
 62
     7
370
    25
100
AcDbLine
 10
212.0410807498
 20
107.9527773258
 30
0.0
 11
212.0475005804
 21
108.5688745325
 31
0.0
  0
LWPOLYLINE
  5
12A
330
1F
100
AcDbEntity
  8
0
  6
Continuous
 62
     7
370
    25
100
AcDbPolyline
 90
       27
 70
   128
 43
0.0
 10
165.1209084791
 20
138.056241034
 10
165.8672860642
 20
137.3135524894
 10
166.8250061277
 20
136.599789969
 10
167.9846559452
 20
135.9219685182
 10
169.3348381738
 20
135.2867499445
 10
170.8622828679
 20
134.7003773427
 10
172.5519778997
 20
134.1686137369
 10
174.3873165028
 20
133.6966854394
 10
176.3502604873
 20
133.2892306854
 10
178.421517524
 20
132.9502540474
 10
180.5807307547
 20
132.6830870767
 10
182.8066788648
 20
132.4903555606
 10
185.0774846514
 20
132.373953715
 10
187.3708300389
 20
132.3350255677
 10
189.6641754264
 20
132.373953715
 10
191.934981213
 20
132.4903555606
 10
194.1609293231
 20
132.6830870767
 10
196.3201425539
 20
132.9502540474
 10
198.3913995906
 20
133.2892306854
 10
200.354343575
 20
133.6966854394
 10
202.1896821781
 20
134.1686137369
 10
203.87937721
 20
134.7003773427
 10
205.406821904
 20
135.2867499445
 10
206.7570041326
 20
135.9219685182
 10
207.9166539502
 20
136.599789969
 10
208.8743740136
 20
137.3135524894
 10
209.6207515987
 20
138.056241034
  0
SPLINE
  5
12B
330
1F
100
AcDbEntity
  8
0
  6
Continuous
 62
     7
370
    25
100
AcDbSpline
210
0.0
220
0.0
230
1.0
 70
     8
 71
     3
 72
    14
 73
    10
 74
     0
 42
0.00000001
 43
0.00000001
 40
0.0
 40
0.0
 40
0.0
 40
0.0
 40
0.250000000000047
 40
0.250000000000047
 40
0.5000000000000939
 40
0.5000000000000939
 40
0.750000000000047
 40
0.750000000000047
 40
1.0
 40
1.0
 40
1.0
 40
1.0
 10
162.7100041837755
 20
107.0379916953172
 30
0.0
 10
162.7110655227968
 20
106.9379973387173
 30
0.0
 10
162.7285076468568
 20
106.8321169692847
 30
0.0
 10
162.8024990921795
 20
106.6262442027315
 30
0.0
 10
162.859184994789
 20
106.5266319140311
 30
0.0
 10
163.0047705978542
 20
106.3539956681782
 30
0.0
 10
163.0933854819482
 20
106.2813094479068
 30
0.0
 10
163.2838150491135
 20
106.1736302563033
 30
0.0
 10
163.3852320246037
 20
106.1385668215427
 30
0.0
 10
163.4836123607862
 20
106.1206426674722
 30
0.0
  0
SPLINE
  5
12C
330
1F
100
AcDbEntity
  8
0
  6
Continuous
 62
     7
370
    25
100
AcDbSpline
210
0.0
220
0.0
230
1.0
 70
     8
 71
     3
 72
    14
 73
    10
 74
     0
 42
0.00000001
 43
0.00000001
 40
0.0
 40
0.0
 40
0.0
 40
0.0
 40
0.25
 40
0.25
 40
0.5
 40
0.5
 40
0.75
 40
0.75
 40
1.0
 40
1.0
 40
1.0
 40
1.0
 10
211.2580444946489
 20
106.1206415161433
 30
0.0
 10
211.3564204061761
 20
106.1385683510287
 30
0.0
 10
211.4578323845905
 20
106.1736341711915
 30
0.0
 10
211.6482508101146
 20
106.2813169604416
 30
0.0
 10
211.7368595358557
 20
106.3540043819353
 30
0.0
 10
211.8824321202929
 20
106.526641089246
 30
0.0
 10
211.9391111707345
 20
106.6262526137095
 30
0.0
 10
212.013089314577
 20
106.8321215374945
 30
0.0
 10
212.0305250182072
 20
106.9379988273831
 30
0.0
 10
212.0315807099507
 20
107.0379892169683
 30
0.0
  0
SPLINE
  5
12D
330
1F
100
AcDbEntity
  8
0
  6
Continuous
 62
     7
370
    25
100
AcDbSpline
210
0.0
220
0.0
230
1.0
 70
     8
 71
     3
 72
     9
 73
     5
 74
     0
 42
0.00000001
 43
0.00000001
 40
0.0
 40
0.0
 40
0.0
 40
0.0
 40
0.6048259636150437
 40
1.0
 40
1.0
 40
1.0
 40
1.0
 10
165.1209084791286
 20
138.0562410340487
 30
0.0
 10
164.9412112959959
 20
138.2777065903998
 30
0.0
 10
164.6441056921647
 20
138.6438706932558
 30
0.0
 10
164.5733672530685
 20
138.8428043383026
 30
0.0
 10
164.5454132585633
 20
138.9214177497886
 30
0.0
  0
SPLINE
  5
12E
330
1F
100
AcDbEntity
  8
0
  6
Continuous
 62
     7
370
    25
100
AcDbSpline
210
0.0
220
0.0
230
1.0
 70
     8
 71
     3
 72
     9
 73
     5
 74
     0
 42
0.00000001
 43
0.00000001
 40
0.0
 40
0.0
 40
0.0
 40
0.0
 40
0.2052834748606127
 40
1.0
 40
1.0
 40
1.0
 40
1.0
 10
210.197835994284
 20
138.9227606081625
 30
0.0
 10
210.1907906852284
 20
138.8878205203494
 30
0.0
 10
210.1564707816886
 20
138.7176164265382
 30
0.0
 10
209.857972843172
 20
138.34910397166
 30
0.0
 10
209.6207515987129
 20
138.0562410340487
 30
0.0
  0
LINE
  5
12F
330
1F
100
AcDbEntity
  8
0
  6
Continuous
 62
     7
370
    25
100
AcDbLine
 10
187.3708300389
 20
103.9623886183
 30
0.0
 11
182.8405859784
 21
104.0767368976
 31
0.0
  0
LINE
  5
130
330
1F
100
AcDbEntity
  8
0
  6
Continuous
 62
     7
370
    25
100
AcDbLine
 10
170.2466425057
 20
105.1636503725
 30
0.0
 11
166.3064627422
 21
105.7211839046
 31
0.0
  0
SPLINE
  5
131
330
1F
100
AcDbEntity
  8
0
  6
Continuous
 62
     7
370
    25
100
AcDbSpline
210
0.0
220
0.0
230
1.0
 70
     8
 71
     3
 72
     9
 73
     5
 74
     0
 42
0.00000001
 43
0.00000001
 40
0.0313714002565766
 40
0.0313714002565766
 40
0.0313714002565766
 40
0.0313714002565766
 40
0.5
 40
1.0
 40
1.0
 40
1.0
 40
1.0
 10
211.2581841323622
 20
106.120635171808
 30
0.0
 10
207.4453193461727
 20
105.42597074475
 30
0.0
 10
199.5093726672468
 20
104.335294593275
 30
0.0
 10
191.506460925697
 20
103.9623886183306
 30
0.0
 10
187.3708300389208
 20
103.9623886183306
 30
0.0
  0
LINE
  5
132
330
1F
100
AcDbEntity
  8
0
  6
Continuous
 62
     7
370
    25
100
AcDbLine
 10
162.6208094662
 20
139.2623886183
 30
0.0
 11
164.3925794528
 21
139.2623886183
 31
0.0
  0
LINE
  5
133
330
1F
100
AcDbEntity
  8
0
  6
Continuous
 62
     7
370
    25
100
AcDbLine
 10
210.3490806251
 20
139.2623886183
 30
0.0
 11
212.1208506116
 21
139.2623886183
 31
0.0
  0
ARC
  5
134
330
1F
100
AcDbEntity
  8
0
  6
Continuous
 62
     7
370
    25
100
AcDbCircle
 10
211.0892159861
 20
107.0479517498
 30
0.0
 40
0.9425848869653558
100
AcDbArc
 50
280.3255353018
 51
359.3951772491
  0
ARC
  5
135
330
1F
100
AcDbEntity
  8
0
  6
Continuous
 62
     7
370
    25
100
AcDbCircle
 10
163.6524440757
 20
107.0479517033
 30
0.0
 40
0.9425848387375965
100
AcDbArc
 50
180.6048213552
 51
259.6744666015
  0
LINE
  5
136
330
1F
100
AcDbEntity
  8
0
  6
Continuous
 62
     8
370
    18
100
AcDbLine
 10
260.7235829838
 20
177.7522205299
 30
0.0
 11
114.0180770953
 21
177.7522205299
 31
0.0
  0
LINE
  5
137
330
1F
100
AcDbEntity
  8
0
  6
Continuous
 62
     8
370
    18
100
AcDbLine
 10
162.7101101846
 20
107.0381217044
 30
0.0
 11
162.700579328
 21
107.9527773258
 31
0.0
  0
LINE
  5
138
330
1F
100
AcDbEntity
  8
0
  6
Continuous
 62
     8
370
    18
100
AcDbLine
 10
212.0315498932
 20
107.0381217044
 30
0.0
 11
212.0410807498
 21
107.9527773258
 31
0.0
  0
SPLINE
  5
139
330
1F
100
AcDbEntity
  8
0
  6
Continuous
 62
     8
370
    18
100
AcDbSpline
210
0.0
220
0.0
230
1.0
 70
     8
 71
     3
 72
    22
 73
    18
 74
     0
 42
0.00000001
 43
0.00000001
 40
0.0
 40
0.0
 40
0.0
 40
0.0
 40
0.1250000000000001
 40
0.1250000000000001
 40
0.2500000000000002
 40
0.2500000000000002
 40
0.3750000000000002
 40
0.3750000000000002
 40
0.5000000000000003
 40
0.5000000000000003
 40
0.6250000000000004
 40
0.6250000000000004
 40
0.7500000000000002
 40
0.7500000000000002
 40
0.8750000000000001
 40
0.8750000000000001
 40
1.0
 40
1.0
 40
1.0
 40
1.0
 10
187.3708300389197
 20
107.0185852102026
 30
0.0
 10
188.9822885665951
 20
107.0193951823874
 30
0.0
 10
190.5937091831246
 20
107.0202051545721
 30
0.0
 10
193.7549020758705
 20
107.0218250989416
 30
0.0
 10
195.304596681908
 20
107.0226350711264
 30
0.0
 10
198.2829681239689
 20
107.0242550154958
 30
0.0
 10
199.7115717813849
 20
107.0250649876806
 30
0.0
 10
202.3930276525092
 20
107.0266849320502
 30
0.0
 10
203.6458139824748
 20
107.027494904235
 30
0.0
 10
205.9276339967355
 20
107.0291148486045
 30
0.0
 10
206.9566116160043
 20
107.0299248207893
 30
0.0
 10
208.7513842950552
 20
107.0315447651587
 30
0.0
 10
209.5171352562548
 20
107.0323547373436
 30
0.0
 10
210.7561064697495
 20
107.033974681713
 30
0.0
 10
211.2292962792337
 20
107.0347846538977
 30
0.0
 10
211.8650030772284
 20
107.0364045982672
 30
0.0
 10
212.0275044449136
 20
107.0372145704521
 30
0.0
 10
212.0315488651743
 20
107.0380245426368
 30
0.0
  0
SPLINE
  5
13A
330
1F
100
AcDbEntity
  8
0
  6
Continuous
 62
     8
370
    18
100
AcDbSpline
210
0.0
220
0.0
230
1.0
 70
     8
 71
     3
 72
    22
 73
    18
 74
     0
 42
0.00000001
 43
0.00000001
 40
0.0
 40
0.0
 40
0.0
 40
0.0
 40
0.1250000000000001
 40
0.1250000000000001
 40
0.2500000000000002
 40
0.2500000000000002
 40
0.3750000000000003
 40
0.3750000000000003
 40
0.5000000000000002
 40
0.5000000000000002
 40
0.6250000000000001
 40
0.6250000000000001
 40
0.75
 40
0.75
 40
0.875
 40
0.875
 40
1.0
 40
1.0
 40
1.0
 40
1.0
 10
162.7101112126672
 20
107.0380245426368
 30
0.0
 10
162.7141775354745
 20
107.0388375754045
 30
0.0
 10
162.8776464844041
 20
107.0386795207222
 30
0.0
 10
163.510331278067
 20
107.038075685298
 30
0.0
 10
163.9871322292467
 20
107.0375888010182
 30
0.0
 10
165.2294304110904
 20
107.0365269213487
 30
0.0
 10
165.9886290233377
 20
107.0359306791692
 30
0.0
 10
167.7805648662919
 20
107.0342825107385
 30
0.0
 10
168.8229870492204
 20
107.0331943092149
 30
0.0
 10
171.0990721416253
 20
107.0304402946695
 30
0.0
 10
172.3404294647189
 20
107.028763979268
 30
0.0
 10
175.0345565842857
 20
107.0252882387324
 30
0.0
 10
176.4695404941396
 20
107.0235454682667
 30
0.0
 10
179.4344929357124
 20
107.0209137490475
 30
0.0
 10
180.9859637571125
 20
107.0200496416314
 30
0.0
 10
184.1664798715298
 20
107.0191795740058
 30
0.0
 10
185.7646904847287
 20
107.0192040283312
 30
0.0
 10
187.3708300389218
 20
107.0185852102026
 30
0.0
  0
LINE
  5
13B
330
1F
100
AcDbEntity
  8
0
  6
Continuous
 62
     8
370
    18
100
AcDbLine
 10
212.1374135139
 20
138.056241034
 30
0.0
 11
209.6207515987
 21
138.056241034
 31
0.0
  0
LINE
  5
13C
330
1F
100
AcDbEntity
  8
0
  6
Continuous
 62
     8
370
    18
100
AcDbLine
 10
165.1209084791
 20
138.056241034
 30
0.0
 11
162.604246564
 21
138.056241034
 31
0.0
  0
LWPOLYLINE
  5
13D
330
1F
100
AcDbEntity
  8
0
  6
Continuous
 62
     8
370
    18
100
AcDbPolyline
 90
        9
 70
   128
 43
0.0
 10
187.3706657518
 20
107.0185851458
 10
187.3707199852
 20
106.8578661252
 10
187.3707729068
 20
106.7018446712
 10
187.3708230625
 20
106.5548076374
 10
187.3708690741
 20
106.4207950211
 10
187.3709096775
 20
106.3034889598
 10
187.370943757
 20
106.2061125612
 10
187.3709703763
 20
106.1313413442
 10
187.3709888039
 20
106.0812297267
  0
SPLINE
  5
13E
330
1F
100
AcDbEntity
  8
0
  6
Continuous
 62
     8
370
    18
100
AcDbSpline
210
0.0
220
0.0
230
1.0
 70
     8
 71
     3
 72
    22
 73
    18
 74
     0
 42
0.00000001
 43
0.00000001
 40
0.0
 40
0.0
 40
0.0
 40
0.0
 40
0.1249999999999999
 40
0.1249999999999999
 40
0.2499999999999999
 40
0.2499999999999999
 40
0.3749999999999998
 40
0.3749999999999998
 40
0.4999999999999997
 40
0.4999999999999997
 40
0.6249999999999996
 40
0.6249999999999996
 40
0.7499999999999998
 40
0.7499999999999998
 40
0.8749999999999999
 40
0.8749999999999999
 40
1.0
 40
1.0
 40
1.0
 40
1.0
 10
187.3708300389205
 20
106.0812296709966
 30
0.0
 10
185.8186655206404
 20
106.0817738771004
 30
0.0
 10
184.2639415766601
 20
106.081736510211
 30
0.0
 10
181.1796663145033
 20
106.0829242457252
 30
0.0
 10
179.6751050025336
 20
106.0841235163388
 30
0.0
 10
176.8004495576178
 20
106.0879127467876
 30
0.0
 10
175.4095187255753
 20
106.0904895488292
 30
0.0
 10
172.7991320659025
 20
106.096107494885
 30
0.0
 10
171.5968971265132
 20
106.0990704955921
 30
0.0
 10
169.3934827024803
 20
106.1046393757857
 30
0.0
 10
168.3848584146527
 20
106.1072692861651
 30
0.0
 10
166.6516646224041
 20
106.1118560145803
 30
0.0
 10
165.9177112078384
 20
106.1138562175304
 30
0.0
 10
164.7170609738977
 20
106.1173496945365
 30
0.0
 10
164.2564542585724
 20
106.1188526021999
 30
0.0
 10
163.6453821320969
 20
106.1208538977766
 30
0.0
 10
163.4875910516215
 20
106.1214087707832
 30
0.0
 10
163.4836786329254
 20
106.1206417284269
 30
0.0
  0
SPLINE
  5
13F
330
1F
100
AcDbEntity
  8
0
  6
Continuous
 62
     8
370
    18
100
AcDbSpline
210
0.0
220
0.0
230
1.0
 70
     8
 71
     3
 72
    47
 73
    43
 74
     0
 42
0.00000001
 43
0.00000001
 40
0.0
 40
0.0
 40
0.0
 40
0.0
 40
0.0129367756171577
 40
0.0264017104099083
 40
0.0403894262963741
 40
0.0548948429553959
 40
0.06991321773946
 40
0.0854401814155914
 40
0.1014717693264206
 40
0.1180044476553112
 40
0.1350351345932109
 40
0.1525612163415456
 40
0.1705805580452988
 40
0.189091509933391
 40
0.2080929091489741
 40
0.2275840779792625
 40
0.247564819441601
 40
0.2680354114477336
 40
0.2889966010495993
 40
0.3104496005649973
 40
0.33239608768759
 40
0.3548382120001486
 40
0.3777786106296405
 40
0.4012204361042873
 40
0.4251673997919262
 40
0.449623834610672
 40
0.4745947810001265
 40
0.5000861004149141
 40
0.5929949437369755
 40
0.6656254009329693
 40
0.7180082910758664
 40
0.7499681615341731
 40
0.7743614007945021
 40
0.7988480739527294
 40
0.8234422718697256
 40
0.8481590173699929
 40
0.8730143035057703
 40
0.8980251256445355
 40
0.9232095070150756
 40
0.9485865174125323
 40
0.9741762848447973
 40
1.0
 40
1.0
 40
1.0
 40
1.0
 10
211.2579814449161
 20
106.1206417284269
 30
0.0
 10
211.2566370824192
 20
106.1207126888033
 30
0.0
 10
211.2538934722354
 20
106.1208575065974
 30
0.0
 10
211.2366044318293
 20
106.1209813709333
 30
0.0
 10
211.2082208490932
 20
106.1210430034225
 30
0.0
 10
211.166521014818
 20
106.1210336832529
 30
0.0
 10
211.1104932136001
 20
106.1209547649065
 30
0.0
 10
211.0387521693989
 20
106.1208047530501
 30
0.0
 10
210.9499916288504
 20
106.1205829657941
 30
0.0
 10
210.8428610155836
 20
106.1202885052809
 30
0.0
 10
210.7160048039715
 20
106.1199205536065
 30
0.0
 10
210.5680562160919
 20
106.1194782963018
 30
0.0
 10
210.3976439081655
 20
106.118960951427
 30
0.0
 10
210.2033951582464
 20
106.1183677700344
 30
0.0
 10
209.9839401758363
 20
106.117698045742
 30
0.0
 10
209.737916235119
 20
106.1169511229463
 30
0.0
 10
209.4639719901323
 20
106.1161264066999
 30
0.0
 10
209.1607718675052
 20
106.1152233734904
 30
0.0
 10
208.8270005591319
 20
106.1142415833504
 30
0.0
 10
208.4613676106089
 20
106.113180692846
 30
0.0
 10
208.0626120743621
 20
106.112040470912
 30
0.0
 10
207.6295073363915
 20
106.1108208104387
 30
0.0
 10
207.1608656754656
 20
106.1095217634372
 30
0.0
 10
206.6555442394487
 20
106.1081434929207
 30
0.0
 10
206.1124459262109
 20
106.1066865540329
 30
0.0
 10
205.5305402529431
 20
106.1051509150672
 30
0.0
 10
204.908807569055
 20
106.1035398416593
 30
0.0
 10
203.6672040538395
 20
106.1003628065272
 30
0.0
 10
201.8536498066009
 20
106.0960666273132
 30
0.0
 10
199.5750604540238
 20
106.0913303164913
 30
0.0
 10
197.8366650770643
 20
106.0880869663498
 30
0.0
 10
196.594106365887
 20
106.086074439924
 30
0.0
 10
195.6535680452153
 20
106.0849516954908
 30
0.0
 10
194.7863835203938
 20
106.0840105762637
 30
0.0
 10
193.9043370401728
 20
106.083205300921
 30
0.0
 10
193.0080488696378
 20
106.082522728532
 30
0.0
 10
192.0981741499245
 20
106.081969413312
 30
0.0
 10
191.1753580700898
 20
106.0815467836898
 30
0.0
 10
190.2402491217836
 20
106.081256543705
 30
0.0
 10
189.2934930858389
 20
106.0811040455041
 30
0.0
 10
188.3357457379209
 20
106.0810790682569
 30
0.0
 10
187.6934428328595
 20
106.0811793183385
 30
0.0
 10
187.3708300389208
 20
106.0812296714643
 30
0.0
  0
LINE
  5
140
330
1F
100
AcDbEntity
  8
0
  6
Continuous
 62
     8
370
    18
100
AcDbLine
 10
205.9935672818
 20
147.7623886183
 30
0.0
 11
162.8708300389
 21
147.7623886183
 31
0.0
  0
LINE
  5
141
330
1F
100
AcDbEntity
  8
0
  6
Continuous
 62
     8
370
    18
100
AcDbLine
 10
211.8708300389
 20
147.7623886183
 30
0.0
 11
205.9935672818
 21
147.7623886183
 31
0.0
  0
SPLINE
  5
142
330
1F
100
AcDbEntity
  8
0
  6
Continuous
 62
     8
370
    18
100
AcDbSpline
210
0.0
220
0.0
230
1.0
 70
     8
 71
     3
 72
     8
 73
     4
 74
     0
 42
0.00000001
 43
0.00000001
 40
0.0
 40
0.0
 40
0.0
 40
0.0
 40
1.0
 40
1.0
 40
1.0
 40
1.0
 10
163.4836278699661
 20
106.120645129213
 30
0.0
 10
163.4835829889214
 20
106.1206380053355
 30
0.0
 10
163.4835384205332
 20
106.1206328628821
 30
0.0
 10
163.4834945237677
 20
106.1206317870379
 30
0.0
  0
SPLINE
  5
143
330
1F
100
AcDbEntity
  8
0
  6
Continuous
 62
     8
370
    18
100
AcDbSpline
210
0.0
220
0.0
230
1.0
 70
     8
 71
     3
 72
    10
 73
     6
 74
     0
 42
0.00000001
 43
0.00000001
 40
0.0
 40
0.0
 40
0.0
 40
0.0
 40
0.1734440035397012
 40
0.7048129569531095
 40
1.0
 40
1.0
 40
1.0
 40
1.0
 10
182.8405859783796
 20
104.0767368976251
 30
0.0
 10
182.109391244656
 20
104.092154718232
 30
0.0
 10
179.1380834342577
 20
104.1548070988847
 30
0.0
 10
174.9244684572015
 20
104.4572014356279
 30
0.0
 10
171.4776139152992
 20
104.9777481066875
 30
0.0
 10
170.2466425057466
 20
105.1636503725424
 30
0.0
  0
LINE
  5
144
330
1F
100
AcDbEntity
  8
0
  6
Continuous
 62
     8
370
    18
100
AcDbLine
 10
166.3064627422
 20
105.7211839046
 30
0.0
 11
163.4834759455
 21
106.1206351718
 31
0.0
  0
SPLINE
  5
145
330
1F
100
AcDbEntity
  8
0
  6
Continuous
 62
     8
370
    18
100
AcDbSpline
210
0.0
220
0.0
230
1.0
 70
     8
 71
     3
 72
     8
 73
     4
 74
     0
 42
0.00000001
 43
0.00000001
 40
0.0
 40
0.0
 40
0.0
 40
0.0
 40
1.0
 40
1.0
 40
1.0
 40
1.0
 10
211.2581655540738
 20
106.1206317870379
 30
0.0
 10
211.258140486866
 20
106.1206362957322
 30
0.0
 10
211.2580960233923
 20
106.1206407883124
 30
0.0
 10
211.2580321831677
 20
106.1206452648268
 30
0.0
  0
LINE
  5
146
330
1F
100
AcDbEntity
  8
0
  6
Continuous
 62
     8
370
    18
100
AcDbLine
 10
212.0317483244
 20
107.0380018456
 30
0.0
 11
211.9983703782
 21
107.0386709775
 31
0.0
  0
LINE
  5
147
330
1F
100
AcDbEntity
  8
0
  6
Continuous
 62
     8
370
    18
100
AcDbLine
 10
162.7099117535
 20
107.0380018456
 30
0.0
 11
162.7432896996
 21
107.0386709775
 31
0.0
  0
LINE
  5
148
330
1F
100
AcDbEntity
  8
0
  6
Continuous
 62
     8
370
    18
100
AcDbLine
 10
163.4981932123
 20
106.1205328591
 30
0.0
 11
163.4834945493
 21
106.1206317824
 31
0.0
  0
LINE
  5
149
330
1F
100
AcDbEntity
  8
0
  6
Continuous
 62
     8
370
    18
100
AcDbLine
 10
211.239222806
 20
106.1205042963
 30
0.0
 11
211.2581655285
 21
106.1206317824
 31
0.0
  0
ENDSEC
  0
SECTION
  2
OBJECTS
  0
DICTIONARY
  5
C
330
0
100
AcDbDictionary
281
     1
  3
ACAD_GROUP
350
D
  3
ACAD_LAYOUT
350
1A
  3
ACAD_MLINESTYLE
350
17
  3
ACAD_PLOTSETTINGS
350
19
  3
ACAD_PLOTSTYLENAME
350
E
  3
ACAD_SCALELIST
350
47
  3
DWGPROPS
350
14A
  0
DICTIONARY
  5
D
102
{ACAD_REACTORS
330
C
102
}
330
C
100
AcDbDictionary
281
     1
  0
DICTIONARY
  5
1A
102
{ACAD_REACTORS
330
C
102
}
330
C
100
AcDbDictionary
281
     1
  3
Layout1
350
1E
  3
Layout2
350
26
  3
Model
350
22
  0
DICTIONARY
  5
17
102
{ACAD_REACTORS
330
C
102
}
330
C
100
AcDbDictionary
281
     1
  3
Standard
350
18
  0
DICTIONARY
  5
19
102
{ACAD_REACTORS
330
C
102
}
330
C
100
AcDbDictionary
281
     1
  0
ACDBDICTIONARYWDFLT
  5
E
102
{ACAD_REACTORS
330
C
102
}
330
C
100
AcDbDictionary
281
     1
  3
Normal
350
F
100
AcDbDictionaryWithDefault
340
F
  0
DICTIONARY
  5
47
102
{ACAD_REACTORS
330
C
102
}
330
C
100
AcDbDictionary
281
     1
  3
A0
350
48
  3
A1
350
49
  3
A2
350
4A
  3
A3
350
4B
  3
A4
350
4C
  3
A5
350
4D
  3
A6
350
4E
  3
A7
350
4F
  3
A8
350
50
  3
A9
350
51
  3
B0
350
52
  3
B1
350
53
  3
B2
350
54
  3
B3
350
55
  3
B4
350
56
  3
B5
350
57
  3
B6
350
58
  3
B7
350
59
  3
B8
350
5A
  3
B9
350
5B
  3
C0
350
5C
  3
C1
350
5D
  3
C2
350
5E
  3
C3
350
5F
  3
C4
350
60
  3
C5
350
61
  3
C6
350
62
  3
C7
350
63
  3
C8
350
64
  3
C9
350
65
  3
D0
350
66
  3
D1
350
67
  3
D2
350
68
  0
XRECORD
  5
14A
102
{ACAD_REACTORS
330
C
102
}
330
C
100
AcDbXrecord
280
     1
  1
DWGPROPS COOKIE
  2

  3

  4

  6

  7

  8
estudent
  9

300
=
301
=
302
=
303
=
304
=
305
=
306
=
307
=
308
=
309
=
 40
0.0
 41
2459992.364597477
 42
2459992.364598657
  1

 90
        0
  0
LAYOUT
  5
1E
102
{ACAD_REACTORS
330
1A
102
}
330
1A
100
AcDbPlotSettings
  1

  2
none_device
  4

  6

 40
0.0
 41
0.0
 42
0.0
 43
0.0
 44
0.0
 45
0.0
 46
0.0
 47
0.0
 48
0.0
 49
0.0
140
0.0
141
0.0
142
1.0
143
1.0
 70
   688
 72
     1
 73
     0
 74
     5
  7

 75
    16
147
1.0
148
0.0
149
0.0
100
AcDbLayout
  1
Layout1
 70
     1
 71
     1
 10
0.0
 20
0.0
 11
420.0
 21
297.0
 12
0.0
 22
0.0
 32
0.0
 14
1.0000000000E+20
 24
1.0000000000E+20
 34
1.0000000000E+20
 15
-1.0000000000E+20
 25
-1.0000000000E+20
 35
-1.0000000000E+20
146
0.0
 13
0.0
 23
0.0
 33
0.0
 16
1.0
 26
0.0
 36
0.0
 17
0.0
 27
1.0
 37
0.0
 76
     0
330
1B
  0
LAYOUT
  5
26
102
{ACAD_REACTORS
330
1A
102
}
330
1A
100
AcDbPlotSettings
  1

  2
none_device
  4

  6

 40
0.0
 41
0.0
 42
0.0
 43
0.0
 44
0.0
 45
0.0
 46
0.0
 47
0.0
 48
0.0
 49
0.0
140
0.0
141
0.0
142
1.0
143
1.0
 70
   688
 72
     1
 73
     0
 74
     5
  7

 75
    16
147
1.0
148
0.0
149
0.0
100
AcDbLayout
  1
Layout2
 70
     1
 71
     2
 10
0.0
 20
0.0
 11
0.0
 21
0.0
 12
0.0
 22
0.0
 32
0.0
 14
0.0
 24
0.0
 34
0.0
 15
0.0
 25
0.0
 35
0.0
146
0.0
 13
0.0
 23
0.0
 33
0.0
 16
1.0
 26
0.0
 36
0.0
 17
0.0
 27
1.0
 37
0.0
 76
     0
330
23
  0
LAYOUT
  5
22
102
{ACAD_REACTORS
330
1A
102
}
330
1A
100
AcDbPlotSettings
  1

  2
none_device
  4
Letter_(8.50_x_11.00_Inches)
  6

 40
6.35
 41
6.35
 42
6.35000508
 43
6.35000508
 44
215.9
 45
279.4
 46
0.0
 47
0.0
 48
0.0
 49
0.0
140
0.0
141
0.0
142
1.0
143
1.0
 70
  1712
 72
     1
 73
     0
 74
     0
  7

 75
     0
147
1.0
148
0.0
149
0.0
100
AcDbLayout
  1
Model
 70
     1
 71
     0
 10
0.0
 20
0.0
 11
594.0
 21
841.0
 12
0.0
 22
0.0
 32
0.0
 14
0.0
 24
0.0
 34
0.0
 15
594.0
 25
841.0
 35
0.0
146
0.0
 13
0.0
 23
0.0
 33
0.0
 16
1.0
 26
0.0
 36
0.0
 17
0.0
 27
1.0
 37
0.0
 76
     0
330
1F
331
29
  0
MLINESTYLE
  5
18
102
{ACAD_REACTORS
330
17
102
}
330
17
100
AcDbMlineStyle
  2
Standard
 70
     0
  3

 62
   256
 51
90.0
 52
90.0
 71
     2
 49
0.5
 62
   256
  6
BYLAYER
 49
-0.5
 62
   256
  6
BYLAYER
  0
ACDBPLACEHOLDER
  5
F
102
{ACAD_REACTORS
330
E
102
}
330
E
  0
SCALE
  5
48
102
{ACAD_REACTORS
330
47
102
}
330
47
100
AcDbScale
 70
     0
300
1:1
140
1.0
141
1.0
290
     1
  0
SCALE
  5
49
102
{ACAD_REACTORS
330
47
102
}
330
47
100
AcDbScale
 70
     0
300
1:2
140
1.0
141
2.0
290
     0
  0
SCALE
  5
4A
102
{ACAD_REACTORS
330
47
102
}
330
47
100
AcDbScale
 70
     0
300
1:4
140
1.0
141
4.0
290
     0
  0
SCALE
  5
4B
102
{ACAD_REACTORS
330
47
102
}
330
47
100
AcDbScale
 70
     0
300
1:5
140
1.0
141
5.0
290
     0
  0
SCALE
  5
4C
102
{ACAD_REACTORS
330
47
102
}
330
47
100
AcDbScale
 70
     0
300
1:8
140
1.0
141
8.0
290
     0
  0
SCALE
  5
4D
102
{ACAD_REACTORS
330
47
102
}
330
47
100
AcDbScale
 70
     0
300
1:10
140
1.0
141
10.0
290
     0
  0
SCALE
  5
4E
102
{ACAD_REACTORS
330
47
102
}
330
47
100
AcDbScale
 70
     0
300
1:16
140
1.0
141
16.0
290
     0
  0
SCALE
  5
4F
102
{ACAD_REACTORS
330
47
102
}
330
47
100
AcDbScale
 70
     0
300
1:20
140
1.0
141
20.0
290
     0
  0
SCALE
  5
50
102
{ACAD_REACTORS
330
47
102
}
330
47
100
AcDbScale
 70
     0
300
1:30
140
1.0
141
30.0
290
     0
  0
SCALE
  5
51
102
{ACAD_REACTORS
330
47
102
}
330
47
100
AcDbScale
 70
     0
300
1:40
140
1.0
141
40.0
290
     0
  0
SCALE
  5
52
102
{ACAD_REACTORS
330
47
102
}
330
47
100
AcDbScale
 70
     0
300
1:50
140
1.0
141
50.0
290
     0
  0
SCALE
  5
53
102
{ACAD_REACTORS
330
47
102
}
330
47
100
AcDbScale
 70
     0
300
1:100
140
1.0
141
100.0
290
     0
  0
SCALE
  5
54
102
{ACAD_REACTORS
330
47
102
}
330
47
100
AcDbScale
 70
     0
300
2:1
140
2.0
141
1.0
290
     0
  0
SCALE
  5
55
102
{ACAD_REACTORS
330
47
102
}
330
47
100
AcDbScale
 70
     0
300
4:1
140
4.0
141
1.0
290
     0
  0
SCALE
  5
56
102
{ACAD_REACTORS
330
47
102
}
330
47
100
AcDbScale
 70
     0
300
8:1
140
8.0
141
1.0
290
     0
  0
SCALE
  5
57
102
{ACAD_REACTORS
330
47
102
}
330
47
100
AcDbScale
 70
     0
300
10:1
140
10.0
141
1.0
290
     0
  0
SCALE
  5
58
102
{ACAD_REACTORS
330
47
102
}
330
47
100
AcDbScale
 70
     0
300
100:1
140
100.0
141
1.0
290
     0
  0
SCALE
  5
59
102
{ACAD_REACTORS
330
47
102
}
330
47
100
AcDbScale
 70
     0
300
1/128" = 1'-0"
140
0.0078125
141
12.0
290
     0
  0
SCALE
  5
5A
102
{ACAD_REACTORS
330
47
102
}
330
47
100
AcDbScale
 70
     0
300
1/64" = 1'-0"
140
0.015625
141
12.0
290
     0
  0
SCALE
  5
5B
102
{ACAD_REACTORS
330
47
102
}
330
47
100
AcDbScale
 70
     0
300
1/32" = 1'-0"
140
0.03125
141
12.0
290
     0
  0
SCALE
  5
5C
102
{ACAD_REACTORS
330
47
102
}
330
47
100
AcDbScale
 70
     0
300
1/16" = 1'-0"
140
0.0625
141
12.0
290
     0
  0
SCALE
  5
5D
102
{ACAD_REACTORS
330
47
102
}
330
47
100
AcDbScale
 70
     0
300
3/32" = 1'-0"
140
0.09375
141
12.0
290
     0
  0
SCALE
  5
5E
102
{ACAD_REACTORS
330
47
102
}
330
47
100
AcDbScale
 70
     0
300
1/8" = 1'-0"
140
0.125
141
12.0
290
     0
  0
SCALE
  5
5F
102
{ACAD_REACTORS
330
47
102
}
330
47
100
AcDbScale
 70
     0
300
3/16" = 1'-0"
140
0.1875
141
12.0
290
     0
  0
SCALE
  5
60
102
{ACAD_REACTORS
330
47
102
}
330
47
100
AcDbScale
 70
     0
300
1/4" = 1'-0"
140
0.25
141
12.0
290
     0
  0
SCALE
  5
61
102
{ACAD_REACTORS
330
47
102
}
330
47
100
AcDbScale
 70
     0
300
3/8" = 1'-0"
140
0.375
141
12.0
290
     0
  0
SCALE
  5
62
102
{ACAD_REACTORS
330
47
102
}
330
47
100
AcDbScale
 70
     0
300
1/2" = 1'-0"
140
0.5
141
12.0
290
     0
  0
SCALE
  5
63
102
{ACAD_REACTORS
330
47
102
}
330
47
100
AcDbScale
 70
     0
300
3/4" = 1'-0"
140
0.75
141
12.0
290
     0
  0
SCALE
  5
64
102
{ACAD_REACTORS
330
47
102
}
330
47
100
AcDbScale
 70
     0
300
1" = 1'-0"
140
1.0
141
12.0
290
     0
  0
SCALE
  5
65
102
{ACAD_REACTORS
330
47
102
}
330
47
100
AcDbScale
 70
     0
300
1-1/2" = 1'-0"
140
1.5
141
12.0
290
     0
  0
SCALE
  5
66
102
{ACAD_REACTORS
330
47
102
}
330
47
100
AcDbScale
 70
     0
300
3" = 1'-0"
140
3.0
141
12.0
290
     0
  0
SCALE
  5
67
102
{ACAD_REACTORS
330
47
102
}
330
47
100
AcDbScale
 70
     0
300
6" = 1'-0"
140
6.0
141
12.0
290
     0
  0
SCALE
  5
68
102
{ACAD_REACTORS
330
47
102
}
330
47
100
AcDbScale
 70
     0
300
1'-0" = 1'-0"
140
12.0
141
12.0
290
     0
  0
ENDSEC
  0
EOF
