  0
SECTION
  2
HEADER
  9
$ACADVER
  1
AC1015
  9
$ACADMAINTVER
 70
     6
  9
$DWGCODEPAGE
  3
ANSI_1252
  9
$INSBASE
 10
0.0
 20
0.0
 30
0.0
  9
$EXTMIN
 10
0.0
 20
0.0
 30
0.0
  9
$EXTMAX
 10
594.0
 20
841.0
 30
0.0
  9
$LIMMIN
 10
0.0
 20
0.0
  9
$LIMMAX
 10
594.0
 20
841.0
  9
$ORTHOMODE
 70
     0
  9
$REGENMODE
 70
     1
  9
$FILLMODE
 70
     1
  9
$QTEXTMODE
 70
     0
  9
$MIRRTEXT
 70
     1
  9
$LTSCALE
 40
1.0
  9
$ATTMODE
 70
     1
  9
$TEXTSIZE
 40
10.0
  9
$TRACEWID
 40
1.0
  9
$TEXTSTYLE
  7
Standard
  9
$CLAYER
  8
0
  9
$CELTYPE
  6
ByLayer
  9
$CECOLOR
 62
   256
  9
$CELTSCALE
 40
1.0
  9
$DISPSILH
 70
     0
  9
$DIMSCALE
 40
1.0
  9
$DIMASZ
 40
2.5
  9
$DIMEXO
 40
0.0
  9
$DIMDLI
 40
3.75
  9
$DIMRND
 40
0.0
  9
$DIMDLE
 40
0.0
  9
$DIMEXE
 40
1.0
  9
$DIMTP
 40
0.0
  9
$DIMTM
 40
0.0
  9
$DIMTXT
 40
3.5
  9
$DIMCEN
 40
2.5
  9
$DIMTSZ
 40
0.0
  9
$DIMTOL
 70
     0
  9
$DIMLIM
 70
     0
  9
$DIMTIH
 70
     1
  9
$DIMTOH
 70
     1
  9
$DIMSE1
 70
     0
  9
$DIMSE2
 70
     0
  9
$DIMTAD
 70
     1
  9
$DIMZIN
 70
     0
  9
$DIMBLK
  1

  9
$DIMASO
 70
     1
  9
$DIMSHO
 70
     1
  9
$DIMPOST
  1

  9
$DIMAPOST
  1

  9
$DIMALT
 70
     0
  9
$DIMALTD
 70
     3
  9
$DIMALTF
 40
0.0393700787
  9
$DIMLFAC
 40
1.0
  9
$DIMTOFL
 70
     1
  9
$DIMTVP
 40
0.0
  9
$DIMTIX
 70
     0
  9
$DIMSOXD
 70
     0
  9
$DIMSAH
 70
     0
  9
$DIMBLK1
  1

  9
$DIMBLK2
  1

  9
$DIMSTYLE
  2
ISO-25
  9
$DIMCLRD
 70
     0
  9
$DIMCLRE
 70
     0
  9
$DIMCLRT
 70
     0
  9
$DIMTFAC
 40
1.0
  9
$DIMGAP
 40
1.5
  9
$DIMJUST
 70
     0
  9
$DIMSD1
 70
     0
  9
$DIMSD2
 70
     0
  9
$DIMTOLJ
 70
     0
  9
$DIMTZIN
 70
     0
  9
$DIMALTZ
 70
     0
  9
$DIMALTTZ
 70
     0
  9
$DIMUPT
 70
     0
  9
$DIMDEC
 70
     2
  9
$DIMTDEC
 70
     2
  9
$DIMALTU
 70
     2
  9
$DIMALTTD
 70
     3
  9
$DIMTXSTY
  7
Standard
  9
$DIMAUNIT
 70
     0
  9
$DIMADEC
 70
     2
  9
$DIMALTRND
 40
0.0
  9
$DIMAZIN
 70
     0
  9
$DIMDSEP
 70
    44
  9
$DIMATFIT
 70
     3
  9
$DIMFRAC
 70
     0
  9
$DIMLDRBLK
  1

  9
$DIMLUNIT
 70
     2
  9
$DIMLWD
 70
    -2
  9
$DIMLWE
 70
    -2
  9
$DIMTMOVE
 70
     0
  9
$LUNITS
 70
     2
  9
$LUPREC
 70
     2
  9
$SKETCHINC
 40
1.0
  9
$FILLETRAD
 40
10.0
  9
$AUNITS
 70
     0
  9
$AUPREC
 70
     2
  9
$MENU
  1
.
  9
$ELEVATION
 40
0.0
  9
$PELEVATION
 40
0.0
  9
$THICKNESS
 40
0.0
  9
$LIMCHECK
 70
     0
  9
$CHAMFERA
 40
0.0
  9
$CHAMFERB
 40
0.0
  9
$CHAMFERC
 40
0.0
  9
$CHAMFERD
 40
0.0
  9
$SKPOLY
 70
     0
  9
$TDCREATE
 40
2458738.402579502
  9
$TDUCREATE
 40
2458738.319246169
  9
$TDUPDATE
 40
2458738.402580046
  9
$TDUUPDATE
 40
2458738.319246713
  9
$TDINDWG
 40
0.0000000116
  9
$TDUSRTIMER
 40
0.0000000116
  9
$USRTIMER
 70
     1
  9
$ANGBASE
 50
0.0
  9
$ANGDIR
 70
     0
  9
$PDMODE
 70
     0
  9
$PDSIZE
 40
-1.0
  9
$PLINEWID
 40
0.0
  9
$SPLFRAME
 70
     0
  9
$SPLINETYPE
 70
     6
  9
$SPLINESEGS
 70
     8
  9
$HANDSEED
  5
1A8
  9
$SURFTAB1
 70
     6
  9
$SURFTAB2
 70
     6
  9
$SURFTYPE
 70
     6
  9
$SURFU
 70
     6
  9
$SURFV
 70
     6
  9
$UCSBASE
  2

  9
$UCSNAME
  2

  9
$UCSORG
 10
0.0
 20
0.0
 30
0.0
  9
$UCSXDIR
 10
1.0
 20
0.0
 30
0.0
  9
$UCSYDIR
 10
0.0
 20
1.0
 30
0.0
  9
$UCSORTHOREF
  2

  9
$UCSORTHOVIEW
 70
     0
  9
$UCSORGTOP
 10
0.0
 20
0.0
 30
0.0
  9
$UCSORGBOTTOM
 10
0.0
 20
0.0
 30
0.0
  9
$UCSORGLEFT
 10
0.0
 20
0.0
 30
0.0
  9
$UCSORGRIGHT
 10
0.0
 20
0.0
 30
0.0
  9
$UCSORGFRONT
 10
0.0
 20
0.0
 30
0.0
  9
$UCSORGBACK
 10
0.0
 20
0.0
 30
0.0
  9
$PUCSBASE
  2

  9
$PUCSNAME
  2

  9
$PUCSORG
 10
0.0
 20
0.0
 30
0.0
  9
$PUCSXDIR
 10
1.0
 20
0.0
 30
0.0
  9
$PUCSYDIR
 10
0.0
 20
1.0
 30
0.0
  9
$PUCSORTHOREF
  2

  9
$PUCSORTHOVIEW
 70
     0
  9
$PUCSORGTOP
 10
0.0
 20
0.0
 30
0.0
  9
$PUCSORGBOTTOM
 10
0.0
 20
0.0
 30
0.0
  9
$PUCSORGLEFT
 10
0.0
 20
0.0
 30
0.0
  9
$PUCSORGRIGHT
 10
0.0
 20
0.0
 30
0.0
  9
$PUCSORGFRONT
 10
0.0
 20
0.0
 30
0.0
  9
$PUCSORGBACK
 10
0.0
 20
0.0
 30
0.0
  9
$USERI1
 70
     0
  9
$USERI2
 70
     0
  9
$USERI3
 70
     0
  9
$USERI4
 70
     0
  9
$USERI5
 70
     0
  9
$USERR1
 40
0.0
  9
$USERR2
 40
0.0
  9
$USERR3
 40
0.0
  9
$USERR4
 40
0.0
  9
$USERR5
 40
0.0
  9
$WORLDVIEW
 70
     1
  9
$SHADEDGE
 70
     3
  9
$SHADEDIF
 70
    70
  9
$TILEMODE
 70
     1
  9
$MAXACTVP
 70
    64
  9
$PINSBASE
 10
0.0
 20
0.0
 30
0.0
  9
$PLIMCHECK
 70
     0
  9
$PEXTMIN
 10
1.0000000000E+20
 20
1.0000000000E+20
 30
1.0000000000E+20
  9
$PEXTMAX
 10
-1.0000000000E+20
 20
-1.0000000000E+20
 30
-1.0000000000E+20
  9
$PLIMMIN
 10
0.0
 20
0.0
  9
$PLIMMAX
 10
420.0
 20
297.0
  9
$UNITMODE
 70
     0
  9
$VISRETAIN
 70
     1
  9
$PLINEGEN
 70
     0
  9
$PSLTSCALE
 70
     1
  9
$TREEDEPTH
 70
  3020
  9
$CMLSTYLE
  2
Standard
  9
$CMLJUST
 70
     0
  9
$CMLSCALE
 40
20.0
  9
$PROXYGRAPHICS
 70
     1
  9
$MEASUREMENT
 70
     1
  9
$CELWEIGHT
370
    -1
  9
$ENDCAPS
280
     0
  9
$JOINSTYLE
280
     0
  9
$LWDISPLAY
290
     1
  9
$INSUNITS
 70
     4
  9
$HYPERLINKBASE
  1

  9
$STYLESHEET
  1

  9
$XEDIT
290
     1
  9
$CEPSNTYPE
380
     0
  9
$PSTYLEMODE
290
     1
  9
$FINGERPRINTGUID
  2
{8232235B-249A-409D-B46C-47839AEC3B77}
  9
$VERSIONGUID
  2
{FAEB1C32-E019-11D5-929B-00C0DF256EC4}
  9
$EXTNAMES
290
     1
  9
$PSVPSCALE
 40
0.0
  9
$OLESTARTUP
290
     0
  0
ENDSEC
  0
SECTION
  2
CLASSES
  0
CLASS
  1
ACDBDICTIONARYWDFLT
  2
AcDbDictionaryWithDefault
  3
ObjectDBX Classes
 90
        0
280
     0
281
     0
  0
CLASS
  1
VISUALSTYLE
  2
AcDbVisualStyle
  3
ObjectDBX Classes
 90
     4095
280
     0
281
     0
  0
CLASS
  1
MATERIAL
  2
AcDbMaterial
  3
ObjectDBX Classes
 90
     1153
280
     0
281
     0
  0
CLASS
  1
SCALE
  2
AcDbScale
  3
ObjectDBX Classes
 90
     1153
280
     0
281
     0
  0
CLASS
  1
TABLESTYLE
  2
AcDbTableStyle
  3
ObjectDBX Classes
 90
     4095
280
     0
281
     0
  0
CLASS
  1
MLEADERSTYLE
  2
AcDbMLeaderStyle
  3
ACDB_MLEADERSTYLE_CLASS
 90
     4095
280
     0
281
     0
  0
CLASS
  1
SUN
  2
AcDbSun
  3
SCENEOE
 90
     1153
280
     0
281
     0
  0
CLASS
  1
ACDBPLACEHOLDER
  2
AcDbPlaceHolder
  3
ObjectDBX Classes
 90
        0
280
     0
281
     0
  0
CLASS
  1
LAYOUT
  2
AcDbLayout
  3
ObjectDBX Classes
 90
        0
280
     0
281
     0
  0
ENDSEC
  0
SECTION
  2
TABLES
  0
TABLE
  2
VPORT
  5
8
330
0
100
AcDbSymbolTable
 70
     1
  0
VPORT
  5
29
330
8
100
AcDbSymbolTableRecord
100
AcDbViewportTableRecord
  2
*Active
 70
     0
 10
0.0
 20
0.0
 11
1.0
 21
1.0
 12
297.0
 22
420.5
 13
0.0
 23
0.0
 14
10.0
 24
10.0
 15
10.0
 25
10.0
 16
0.0
 26
0.0
 36
1.0
 17
0.0
 27
0.0
 37
0.0
 40
841.0
 41
0.7063020214
 42
50.0
 43
0.0
 44
0.0
 50
0.0
 51
0.0
 71
     0
 72
  2000
 73
     1
 74
     3
 75
     0
 76
     0
 77
     0
 78
     0
281
     0
 65
     1
110
0.0
120
0.0
130
0.0
111
1.0
121
0.0
131
0.0
112
0.0
122
1.0
132
0.0
 79
     0
146
0.0
  0
ENDTAB
  0
TABLE
  2
LTYPE
  5
5
330
0
100
AcDbSymbolTable
 70
     6
  0
LTYPE
  5
14
330
5
100
AcDbSymbolTableRecord
100
AcDbLinetypeTableRecord
  2
ByBlock
 70
     0
  3

 72
    65
 73
     0
 40
0.0
  0
LTYPE
  5
15
330
5
100
AcDbSymbolTableRecord
100
AcDbLinetypeTableRecord
  2
ByLayer
 70
     0
  3

 72
    65
 73
     0
 40
0.0
  0
LTYPE
  5
16
330
5
100
AcDbSymbolTableRecord
100
AcDbLinetypeTableRecord
  2
Continuous
 70
     0
  3
Solid line
 72
    65
 73
     0
 40
0.0
  0
LTYPE
  5
6E
330
5
100
AcDbSymbolTableRecord
100
AcDbLinetypeTableRecord
  2
HIDDEN
 70
     0
  3
Hidden __ __ __ __ __ __ __ __ __ __ __ __ __ __
 72
    65
 73
     2
 40
1.905
 49
1.27
 74
     0
 49
-0.635
 74
     0
  0
LTYPE
  5
6F
330
5
100
AcDbSymbolTableRecord
100
AcDbLinetypeTableRecord
  2
PHANTOM
 70
     0
  3
Phantom ______  __  __  ______  __  __  ______
 72
    65
 73
     6
 40
12.7
 49
6.35
 74
     0
 49
-1.27
 74
     0
 49
1.27
 74
     0
 49
-1.27
 74
     0
 49
1.27
 74
     0
 49
-1.27
 74
     0
  0
LTYPE
  5
70
330
5
100
AcDbSymbolTableRecord
100
AcDbLinetypeTableRecord
  2
CENTER
 70
     0
  3
Center ____ _ ____ _ ____ _ ____ _ ____ _ ____
 72
    65
 73
     4
 40
10.16
 49
6.35
 74
     0
 49
-1.27
 74
     0
 49
1.27
 74
     0
 49
-1.27
 74
     0
  0
LTYPE
  5
71
330
5
100
AcDbSymbolTableRecord
100
AcDbLinetypeTableRecord
  2
CENTERX2
 70
     0
  3
Center (2x) ________  __  ________  __  _____
 72
    65
 73
     4
 40
20.32
 49
12.7
 74
     0
 49
-2.54
 74
     0
 49
2.54
 74
     0
 49
-2.54
 74
     0
  0
LTYPE
  5
72
330
5
100
AcDbSymbolTableRecord
100
AcDbLinetypeTableRecord
  2
DOT2
 70
     0
  3
Dot (.5x) ........................................
 72
    65
 73
     2
 40
0.635
 49
0.0
 74
     0
 49
-0.635
 74
     0
  0
ENDTAB
  0
TABLE
  2
LAYER
  5
2
330
0
100
AcDbSymbolTable
 70
     1
  0
LAYER
  5
10
330
2
100
AcDbSymbolTableRecord
100
AcDbLayerTableRecord
  2
0
 70
     0
 62
     7
  6
Continuous
370
    -3
390
F
  0
ENDTAB
  0
TABLE
  2
STYLE
  5
3
330
0
100
AcDbSymbolTable
 70
     3
  0
STYLE
  5
11
330
3
100
AcDbSymbolTableRecord
100
AcDbTextStyleTableRecord
  2
Standard
 70
     0
 40
0.0
 41
1.0
 50
0.0
 71
     0
 42
10.0
  3
txt
  4

  0
STYLE
  5
76
330
3
100
AcDbSymbolTableRecord
100
AcDbTextStyleTableRecord
  2
SLDTEXTSTYLE0
 70
     0
 40
0.0
 41
0.96
 50
0.0
 71
     0
 42
10.0
  3
ISOCP3
  4

  0
STYLE
  5
8D
330
3
100
AcDbSymbolTableRecord
100
AcDbTextStyleTableRecord
  2
SLDTEXTSTYLE1
 70
     0
 40
0.0
 41
0.605
 50
0.0
 71
     0
 42
10.0
  3
TXT
  4

  0
ENDTAB
  0
TABLE
  2
VIEW
  5
6
330
0
100
AcDbSymbolTable
 70
     0
  0
ENDTAB
  0
TABLE
  2
UCS
  5
7
330
0
100
AcDbSymbolTable
 70
     0
  0
ENDTAB
  0
TABLE
  2
APPID
  5
9
330
0
100
AcDbSymbolTable
 70
     1
  0
APPID
  5
12
330
9
100
AcDbSymbolTableRecord
100
AcDbRegAppTableRecord
  2
ACAD
 70
     0
  0
ENDTAB
  0
TABLE
  2
DIMSTYLE
  5
A
330
0
100
AcDbSymbolTable
 70
     2
100
AcDbDimStyleTable
  0
DIMSTYLE
105
27
330
A
100
AcDbSymbolTableRecord
100
AcDbDimStyleTableRecord
  2
ISO-25
 70
     0
 41
2.5
 42
0.625
 43
3.75
 44
1.25
 73
     0
 74
     0
 77
     1
 78
     8
140
2.5
141
2.5
143
0.0393700787
147
0.625
171
     3
172
     1
178
     0
271
     2
272
     2
274
     3
278
    44
283
     0
284
     8
340
11
  0
DIMSTYLE
105
77
102
{ACAD_REACTORS
330
75
330
82
102
}
330
A
100
AcDbSymbolTableRecord
100
AcDbDimStyleTableRecord
  2
SLDDIMSTYLE0
 70
     0
 41
2.5
 44
0.0
 45
0.000000001
 73
     0
 74
     0
 77
     1
 78
    12
 79
     3
140
6.0
147
1.5
173
     1
178
     0
271
     2
272
     2
276
     2
284
    12
340
76
  0
ENDTAB
  0
TABLE
  2
BLOCK_RECORD
  5
1
330
0
100
AcDbSymbolTable
 70
     3
  0
BLOCK_RECORD
  5
1F
330
1
100
AcDbSymbolTableRecord
100
AcDbBlockTableRecord
  2
*Model_Space
340
22
  0
BLOCK_RECORD
  5
1B
330
1
100
AcDbSymbolTableRecord
100
AcDbBlockTableRecord
  2
*Paper_Space
340
1E
  0
BLOCK_RECORD
  5
23
330
1
100
AcDbSymbolTableRecord
100
AcDbBlockTableRecord
  2
*Paper_Space0
340
26
  0
BLOCK_RECORD
  5
78
330
1
100
AcDbSymbolTableRecord
100
AcDbBlockTableRecord
  2
_D
340
0
  0
BLOCK_RECORD
  5
83
330
1
100
AcDbSymbolTableRecord
100
AcDbBlockTableRecord
  2
_D_1
340
0
  0
ENDTAB
  0
ENDSEC
  0
SECTION
  2
BLOCKS
  0
BLOCK
  5
20
330
1F
100
AcDbEntity
  8
0
100
AcDbBlockBegin
  2
*Model_Space
 70
     0
 10
0.0
 20
0.0
 30
0.0
  3
*Model_Space
  1

  0
ENDBLK
  5
21
330
1F
100
AcDbEntity
  8
0
100
AcDbBlockEnd
  0
BLOCK
  5
1C
330
1B
100
AcDbEntity
 67
     1
  8
0
100
AcDbBlockBegin
  2
*Paper_Space
 70
     0
 10
0.0
 20
0.0
 30
0.0
  3
*Paper_Space
  1

  0
ENDBLK
  5
1D
330
1B
100
AcDbEntity
 67
     1
  8
0
100
AcDbBlockEnd
  0
BLOCK
  5
24
330
23
100
AcDbEntity
  8
0
100
AcDbBlockBegin
  2
*Paper_Space0
 70
     0
 10
0.0
 20
0.0
 30
0.0
  3
*Paper_Space0
  1

  0
ENDBLK
  5
25
330
23
100
AcDbEntity
  8
0
100
AcDbBlockEnd
  0
BLOCK
  5
79
330
78
100
AcDbEntity
  8
0
100
AcDbBlockBegin
  2
_D
 70
     0
 10
0.0
 20
0.0
 30
0.0
  3
_D
  1

  0
SOLID
  5
7B
330
78
100
AcDbEntity
  8
0
  6
Continuous
 62
     7
370
    18
100
AcDbTrace
 10
42.7614395004
 20
152.0299240879
 30
0.0
 11
42.4614395004
 21
149.5299240879
 31
0.0
 12
43.0614395004
 22
149.5299240879
 32
0.0
 13
43.0614395004
 23
149.5299240879
 33
0.0
  0
SOLID
  5
7C
330
78
100
AcDbEntity
  8
0
  6
Continuous
 62
     7
370
    18
100
AcDbTrace
 10
42.7614395004
 20
52.0299240879
 30
0.0
 11
43.0614395004
 21
54.5299240879
 31
0.0
 12
42.4614395004
 22
54.5299240879
 32
0.0
 13
42.4614395004
 23
54.5299240879
 33
0.0
  0
LINE
  5
7D
330
78
100
AcDbEntity
  8
0
  6
Continuous
 62
     7
370
    18
100
AcDbLine
 10
56.6850079902
 20
152.0299240879
 30
0.0
 11
41.7614395004
 21
152.0299240879
 31
0.0
  0
LINE
  5
7E
330
78
100
AcDbEntity
  8
0
  6
Continuous
 62
     7
370
    18
100
AcDbLine
 10
56.6850079902
 20
52.0299240879
 30
0.0
 11
41.7614395004
 21
52.0299240879
 31
0.0
  0
LINE
  5
7F
330
78
100
AcDbEntity
  8
0
  6
Continuous
 62
     7
370
    18
100
AcDbLine
 10
42.7614395004
 20
152.0299240879
 30
0.0
 11
42.7614395004
 21
52.0299240879
 31
0.0
  0
MTEXT
  5
80
330
78
100
AcDbEntity
  8
0
  6
Continuous
 62
     7
370
    18
100
AcDbMText
 10
35.0270332946
 20
94.3680541463
 30
0.0
 40
6.0
 41
0.0
 71
     1
 72
     1
  1
100
  7
SLDTEXTSTYLE0
 11
-7.044195017643634E-15
 21
1.0
 31
0.0
 73
     1
 44
1.0
  0
MTEXT
  5
81
330
78
100
AcDbEntity
  8
0
  6
Continuous
 62
     7
370
    18
100
AcDbMText
 10
35.0270332946
 20
105.7430548466
 30
0.0
 40
6.0
 41
0.0
 71
     1
 72
     1
  1
mm
  7
SLDTEXTSTYLE0
 11
-7.044195017643634E-15
 21
1.0
 31
0.0
 73
     1
 44
1.0
  0
ENDBLK
  5
7A
330
78
100
AcDbEntity
  8
0
100
AcDbBlockEnd
  0
BLOCK
  5
84
330
83
100
AcDbEntity
  8
0
100
AcDbBlockBegin
  2
_D_1
 70
     0
 10
0.0
 20
0.0
 30
0.0
  3
_D_1
  1

  0
SOLID
  5
86
330
83
100
AcDbEntity
  8
0
  6
Continuous
 62
     7
370
    18
100
AcDbTrace
 10
56.6850079902
 20
38.4602342313
 30
0.0
 11
59.1850079902
 21
38.1602342313
 31
0.0
 12
59.1850079902
 22
38.7602342313
 32
0.0
 13
59.1850079902
 23
38.7602342313
 33
0.0
  0
SOLID
  5
87
330
83
100
AcDbEntity
  8
0
  6
Continuous
 62
     7
370
    18
100
AcDbTrace
 10
156.6850079902
 20
38.4602342313
 30
0.0
 11
154.1850079902
 21
38.7602342313
 31
0.0
 12
154.1850079902
 22
38.1602342313
 32
0.0
 13
154.1850079902
 23
38.1602342313
 33
0.0
  0
LINE
  5
88
330
83
100
AcDbEntity
  8
0
  6
Continuous
 62
     7
370
    18
100
AcDbLine
 10
56.6850079902
 20
52.0299240879
 30
0.0
 11
56.6850079902
 21
37.4602342313
 31
0.0
  0
LINE
  5
89
330
83
100
AcDbEntity
  8
0
  6
Continuous
 62
     7
370
    18
100
AcDbLine
 10
156.6850079902
 20
52.0299240879
 30
0.0
 11
156.6850079902
 21
37.4602342313
 31
0.0
  0
LINE
  5
8A
330
83
100
AcDbEntity
  8
0
  6
Continuous
 62
     7
370
    18
100
AcDbLine
 10
56.6850079902
 20
38.4602342313
 30
0.0
 11
156.6850079902
 21
38.4602342313
 31
0.0
  0
MTEXT
  5
8B
330
83
100
AcDbEntity
  8
0
  6
Continuous
 62
     7
370
    18
100
AcDbMText
 10
93.9626484861
 20
46.1946404371
 30
0.0
 40
6.0
 41
0.0
 71
     1
 72
     1
  1
100
  7
SLDTEXTSTYLE0
 73
     1
 44
1.0
  0
MTEXT
  5
8C
330
83
100
AcDbEntity
  8
0
  6
Continuous
 62
     7
370
    18
100
AcDbMText
 10
105.3376491864
 20
46.1946404371
 30
0.0
 40
6.0
 41
0.0
 71
     1
 72
     1
  1
mm
  7
SLDTEXTSTYLE0
 73
     1
 44
1.0
  0
ENDBLK
  5
85
330
83
100
AcDbEntity
  8
0
100
AcDbBlockEnd
  0
ENDSEC
  0
SECTION
  2
ENTITIES
  0
LINE
  5
73
330
1F
100
AcDbEntity
  8
0
  6
Continuous
 62
     7
370
    18
100
AcDbLine
 10
56.6850079902
 20
152.0299240879
 30
0.0
 11
56.6850079902
 21
52.0299240879
 31
0.0
  0
LINE
  5
74
330
1F
100
AcDbEntity
  8
0
  6
Continuous
 62
     7
370
    18
100
AcDbLine
 10
56.6850079902
 20
52.0299240879
 30
0.0
 11
156.6850079902
 21
52.0299240879
 31
0.0
  0
DIMENSION
  5
75
330
1F
100
AcDbEntity
  8
0
  6
Continuous
 62
     7
370
    18
100
AcDbDimension
  2
_D
 10
42.7614395004
 20
52.0299240879
 30
0.0
 11
42.7614395004
 21
105.4472211621
 31
0.0
 70
   160
  1
<>mm
 71
     2
 42
-1.0
  3
SLDDIMSTYLE0
100
AcDbAlignedDimension
 13
56.6850079902
 23
152.0299240879
 33
0.0
 14
56.6850079902
 24
52.0299240879
 34
0.0
 50
90.0
100
AcDbRotatedDimension
  0
DIMENSION
  5
82
330
1F
100
AcDbEntity
  8
0
  6
Continuous
 62
     7
370
    18
100
AcDbDimension
  2
_D_1
 10
156.6850079902
 20
38.4602342313
 30
0.0
 11
105.0418155019
 21
38.4602342313
 31
0.0
 70
   160
  1
<>mm
 71
     2
 42
-1.0
  3
SLDDIMSTYLE0
100
AcDbAlignedDimension
 13
56.6850079902
 23
52.0299240879
 33
0.0
 14
156.6850079902
 24
52.0299240879
 34
0.0
100
AcDbRotatedDimension
  0
MTEXT
  5
8E
330
1F
100
AcDbEntity
  8
0
  6
Continuous
 62
     7
370
     0
100
AcDbMText
 10
412.8252631579
 20
48.4342449499
 30
0.0
 40
10.0
 41
0.0
 71
     1
 72
     1
  1
KLUDI GmbH & Co KG
  7
SLDTEXTSTYLE1
 73
     1
 44
1.0
  0
MTEXT
  5
8F
330
1F
100
AcDbEntity
  8
0
  6
Continuous
 62
     7
370
     0
100
AcDbMText
 10
210.0873490389
 20
48.4342449499
 30
0.0
 40
10.0
 41
0.0
 71
     1
 72
     1
  1
38 282 05 76
  7
SLDTEXTSTYLE1
 73
     1
 44
1.0
  0
SPLINE
  5
90
330
1F
100
AcDbEntity
  8
0
  6
Continuous
 62
     7
370
    25
100
AcDbSpline
210
0.0
220
0.0
230
1.0
 70
     8
 71
     3
 72
    20
 73
    16
 74
     0
 42
0.000000001
 43
0.00000001
 40
0.0
 40
0.0
 40
0.0
 40
0.0
 40
0.0634370330556723
 40
0.1420690198357368
 40
0.2210203195906041
 40
0.3012181669387234
 40
0.3830623905095814
 40
0.4663564237077633
 40
0.5505288500158981
 40
0.6349380836431873
 40
0.7191417019470365
 40
0.8030291023525423
 40
0.8866241723200601
 40
0.970024119318749
 40
1.0
 40
1.0
 40
1.0
 40
1.0
 10
171.4772898566733
 20
482.2473460315534
 30
0.0
 10
171.4782235455032
 20
481.9292384768792
 30
0.0
 10
171.4803145678999
 20
481.2168276607043
 30
0.0
 10
171.7603645548096
 20
480.1283956153141
 30
0.0
 10
172.2541373620792
 20
479.0099652572604
 30
0.0
 10
172.9669624875849
 20
477.9501856028372
 30
0.0
 10
173.8835555824684
 20
476.9607137133557
 30
0.0
 10
174.9961844563868
 20
476.0568260302568
 30
0.0
 10
176.2861514458515
 20
475.2557548491703
 30
0.0
 10
177.7283736545039
 20
474.5731198012252
 30
0.0
 10
179.293871456428
 20
474.020798050808
 30
0.0
 10
180.9535187688381
 20
473.6059560888863
 30
0.0
 10
182.6787730982971
 20
473.3353941300155
 30
0.0
 10
184.0665289117298
 20
473.2325372021466
 30
0.0
 10
184.867884490707
 20
473.2251664862622
 30
0.0
 10
185.0797580418001
 20
473.2232177137204
 30
0.0
  0
SPLINE
  5
91
330
1F
100
AcDbEntity
  8
0
  6
Continuous
 62
     7
370
    25
100
AcDbSpline
210
0.0
220
0.0
230
1.0
 70
     8
 71
     3
 72
    20
 73
    16
 74
     0
 42
0.000000001
 43
0.00000001
 40
0.0
 40
0.0
 40
0.0
 40
0.0
 40
0.0450422989483274
 40
0.1297089253484741
 40
0.2145927002201192
 40
0.2997952194384429
 40
0.3854459688938607
 40
0.4716343705287435
 40
0.5583616097763582
 40
0.6454633802873344
 40
0.7323244820884444
 40
0.8181220046759129
 40
0.902095132900662
 40
0.9840216401122055
 40
1.0
 40
1.0
 40
1.0
 40
1.0
 10
185.0797580418001
 20
473.2232177137204
 30
0.0
 10
185.3932361281823
 20
473.227386160756
 30
0.0
 10
186.2959632680996
 20
473.239390094791
 30
0.0
 10
187.7801563082395
 20
473.3720551385401
 30
0.0
 10
189.4948772667551
 20
473.6667154591502
 30
0.0
 10
191.1401637473313
 20
474.1054653595888
 30
0.0
 10
192.689583805591
 20
474.6816683732338
 30
0.0
 10
194.1177634520819
 20
475.3909723353619
 30
0.0
 10
195.3991818691788
 20
476.226883531026
 30
0.0
 10
196.5076247646163
 20
477.1801569104472
 30
0.0
 10
197.4138277460073
 20
478.2362040470475
 30
0.0
 10
198.1009602190401
 20
479.3730828297589
 30
0.0
 10
198.5244091238461
 20
480.5614231681994
 30
0.0
 10
198.7128608513924
 20
481.4540416764821
 30
0.0
 10
198.6865244108446
 20
481.9362049197879
 30
0.0
 10
198.6822262269269
 20
482.01489536751
 30
0.0
  0
LINE
  5
92
330
1F
100
AcDbEntity
  8
0
  6
Continuous
 62
     7
370
    25
100
AcDbLine
 10
198.7020168316
 20
482.1311244248
 30
0.0
 11
198.7020168316
 21
486.8224719046
 31
0.0
  0
LINE
  5
93
330
1F
100
AcDbEntity
  8
0
  6
Continuous
 62
     7
370
    25
100
AcDbLine
 10
171.457499252
 20
486.8224719046
 30
0.0
 11
171.457499252
 21
482.1311244248
 31
0.0
  0
LINE
  5
94
330
1F
100
AcDbEntity
  8
0
  6
Continuous
 62
     7
370
    25
100
AcDbLine
 10
194.329758161
 20
480.8777207016
 30
0.0
 11
194.329758161
 21
481.0772099971
 31
0.0
  0
LINE
  5
95
330
1F
100
AcDbEntity
  8
0
  6
Continuous
 62
     7
370
    25
100
AcDbLine
 10
175.8297579226
 20
481.0772099971
 30
0.0
 11
175.8297579226
 21
480.8777207016
 31
0.0
  0
LINE
  5
96
330
1F
100
AcDbEntity
  8
0
  6
Continuous
 62
     7
370
    25
100
AcDbLine
 10
192.429758129
 20
480.2787461757
 30
0.0
 11
192.429758129
 21
481.4938092111
 31
0.0
  0
LINE
  5
97
330
1F
100
AcDbEntity
  8
0
  6
Continuous
 62
     7
370
    25
100
AcDbLine
 10
177.7297579546
 20
481.4938092111
 30
0.0
 11
177.7297579546
 21
480.2787461757
 31
0.0
  0
SPLINE
  5
98
330
1F
100
AcDbEntity
  8
0
  6
Continuous
 62
     7
370
    25
100
AcDbSpline
210
0.0
220
0.0
230
1.0
 70
     8
 71
     3
 72
    16
 73
    12
 74
     0
 42
0.000000001
 43
0.00000001
 40
0.0
 40
0.0
 40
0.0
 40
0.0
 40
0.126096490950783
 40
0.2378473056896384
 40
0.3382619468353848
 40
0.4298957813483143
 40
0.5419353009764856
 40
0.6456598146236944
 40
0.7432559019113578
 40
0.8798846900766626
 40
1.0
 40
1.0
 40
1.0
 40
1.0
 10
198.7024927374731
 20
486.8224719046422
 30
0.0
 10
198.7024859673965
 20
487.7707819437846
 30
0.0
 10
198.7024731974577
 20
489.5595152072385
 30
0.0
 10
198.7025106804738
 20
491.9179342413594
 30
0.0
 10
198.7026086845247
 20
493.8641564868783
 30
0.0
 10
198.7025959944902
 20
495.5992292032618
 30
0.0
 10
198.7019318975657
 20
497.0797360256982
 30
0.0
 10
198.6994264188629
 20
498.2527994480454
 30
0.0
 10
198.6918127888632
 20
499.166674165415
 30
0.0
 10
198.6778596637507
 20
499.7566509110626
 30
0.0
 10
198.6456459566322
 20
499.8296820440011
 30
0.0
 10
198.6305750769387
 20
499.8638489722081
 30
0.0
  0
SPLINE
  5
99
330
1F
100
AcDbEntity
  8
0
  6
Continuous
 62
     7
370
    25
100
AcDbSpline
210
0.0
220
0.0
230
1.0
 70
     8
 71
     3
 72
    15
 73
    11
 74
     0
 42
0.000000001
 43
0.00000001
 40
0.0
 40
0.0
 40
0.0
 40
0.0
 40
0.1206863875456303
 40
0.2354049808217356
 40
0.3573496101369266
 40
0.4885483088863959
 40
0.5957641112440705
 40
0.7138685623019168
 40
0.8469389479125399
 40
1.0
 40
1.0
 40
1.0
 40
1.0
 10
171.6504227232943
 20
498.9123651264974
 30
0.0
 10
171.6215170034185
 20
498.896732987357
 30
0.0
 10
171.5651349161642
 20
498.8662416992394
 30
0.0
 10
171.5235173025506
 20
498.3316095077827
 30
0.0
 10
171.4925355048525
 20
497.4418395314455
 30
0.0
 10
171.4756986479464
 20
496.1265718060707
 30
0.0
 10
171.4657497457893
 20
494.4470148463417
 30
0.0
 10
171.4603010864435
 20
492.4437815437466
 30
0.0
 10
171.4574178976885
 20
489.8933289461333
 30
0.0
 10
171.4571608495647
 20
487.8926828497573
 30
0.0
 10
171.4570233461271
 20
486.8224719046422
 30
0.0
  0
LINE
  5
9A
330
1F
100
AcDbEntity
  8
0
  6
Continuous
 62
     7
370
    25
100
AcDbLine
 10
209.0797582504
 20
380.6186743985
 30
0.0
 11
209.0797582504
 21
534.9307143568
 31
0.0
  0
LINE
  5
9B
330
1F
100
AcDbEntity
  8
0
  6
Continuous
 62
     7
370
    25
100
AcDbLine
 10
161.0797578332
 20
534.9307143568
 30
0.0
 11
161.0797578332
 21
380.6186743985
 31
0.0
  0
LINE
  5
9C
330
1F
100
AcDbEntity
  8
0
  6
Continuous
 62
     7
370
    25
100
AcDbLine
 10
209.0797582504
 20
538.719856131
 30
0.0
 11
209.0797582504
 21
563.9307135223
 31
0.0
  0
LINE
  5
9D
330
1F
100
AcDbEntity
  8
0
  6
Continuous
 62
     7
370
    25
100
AcDbLine
 10
161.0797578332
 20
563.9307135223
 30
0.0
 11
161.0797578332
 21
538.7233877062
 31
0.0
  0
ARC
  5
9E
330
1F
100
AcDbEntity
  8
0
  6
Continuous
 62
     7
370
    25
100
AcDbCircle
 10
161.3797580418
 20
380.6186744776
 30
0.0
 40
0.3000000000000114
100
AcDbArc
 50
180.0
 51
270.0
  0
ARC
  5
9F
330
1F
100
AcDbEntity
  8
0
  6
Continuous
 62
     7
370
    25
100
AcDbCircle
 10
208.7797580418
 20
380.6186744776
 30
0.0
 40
0.3000000000000114
100
AcDbArc
 50
270.0
 51
0.0
  0
ARC
  5
A0
330
1F
100
AcDbEntity
  8
0
  6
Continuous
 62
     7
370
    25
100
AcDbCircle
 10
208.5797580418
 20
534.9307069985
 30
0.0
 40
0.5
100
AcDbArc
 50
0.0
 51
90.0
  0
ARC
  5
A1
330
1F
100
AcDbEntity
  8
0
  6
Continuous
 62
     7
370
    25
100
AcDbCircle
 10
161.5797580418
 20
534.9307069985
 30
0.0
 40
0.5
100
AcDbArc
 50
90.0
 51
180.0
  0
ARC
  5
A2
330
1F
100
AcDbEntity
  8
0
  6
Continuous
 62
     7
370
    25
100
AcDbCircle
 10
162.5797580418
 20
563.9307069985
 30
0.0
 40
1.5
100
AcDbArc
 50
90.0
 51
180.0
  0
ARC
  5
A3
330
1F
100
AcDbEntity
  8
0
  6
Continuous
 62
     7
370
    25
100
AcDbCircle
 10
207.5797580418
 20
563.9307069985
 30
0.0
 40
1.5
100
AcDbArc
 50
0.0
 51
90.0
  0
ARC
  5
A4
330
1F
100
AcDbEntity
  8
0
  6
Continuous
 62
     7
370
    25
100
AcDbCircle
 10
208.6767238388
 20
535.6307069985
 30
0.0
 40
0.2000000000000171
100
AcDbArc
 50
0.0
 51
26.6421673927
  0
ARC
  5
A5
330
1F
100
AcDbEntity
  8
0
  6
Continuous
 62
     7
370
    25
100
AcDbCircle
 10
161.4827922448
 20
535.6307069985
 30
0.0
 40
0.2000000000000171
100
AcDbArc
 50
153.3578326073
 51
180.0
  0
ARC
  5
A6
330
1F
100
AcDbEntity
  8
0
  6
Continuous
 62
     7
370
    25
100
AcDbCircle
 10
208.6767238388
 20
535.6307069985
 30
0.0
 40
0.2000000000000455
100
AcDbArc
 50
270.0
 51
0.0
  0
ARC
  5
A7
330
1F
100
AcDbEntity
  8
0
  6
Continuous
 62
     7
370
    25
100
AcDbCircle
 10
161.4827922448
 20
535.6307069985
 30
0.0
 40
0.2000000000000455
100
AcDbArc
 50
180.0
 51
270.0
  0
ARC
  5
A8
330
1F
100
AcDbEntity
  8
0
  6
Continuous
 62
     7
370
    25
100
AcDbCircle
 10
185.0797580418
 20
523.792497456
 30
0.0
 40
26.59999999999999
100
AcDbArc
 50
146.6118111875
 51
153.3578326073
  0
ARC
  5
A9
330
1F
100
AcDbEntity
  8
0
  6
Continuous
 62
     7
370
    25
100
AcDbCircle
 10
185.0797580418
 20
523.792497456
 30
0.0
 40
26.60000000000002
100
AcDbArc
 50
26.6421673927
 51
33.3881888125
  0
ELLIPSE
  5
AA
330
1F
100
AcDbEntity
  8
0
  6
Continuous
 62
     7
370
    25
100
AcDbEllipse
 10
185.0797580418
 20
482.1311208663
 30
0.0
 11
13.62225840003612
 21
0.0
 31
0.0
210
0.0
220
0.0
230
1.0
 40
0.6243407052
 41
3.129725682882206
 42
3.141592653589786
  0
ELLIPSE
  5
AB
330
1F
100
AcDbEntity
  8
0
  6
Continuous
 62
     7
370
    25
100
AcDbEllipse
 10
185.0797580418
 20
482.1311208663
 30
0.0
 11
13.62225840003612
 21
0.0
 31
0.0
210
0.0
220
0.0
230
1.0
 40
0.6243407052
 41
6.271318336472022
 42
6.283185307179586
  0
LWPOLYLINE
  5
AC
330
1F
100
AcDbEntity
  8
0
  6
Continuous
 62
     7
370
    25
100
AcDbPolyline
 90
       38
 70
   128
 43
0.0
 10
185.0797580418
 20
485.8009600519
 10
183.4953753141
 20
485.719808328
 10
181.9565724444
 20
485.4786777376
 10
180.5076179889
 20
485.0845047711
 10
179.1901956175
 20
484.5486366628
 10
178.0422050369
 20
483.8864812135
 10
177.0966723424
 20
483.1170970081
 10
176.3807982069
 20
482.2626122712
 10
175.9151778978
 20
481.3476064681
 10
175.7132056963
 20
480.3984025
 10
175.7806911927
 20
479.4423141955
 10
176.1156944421
 20
478.5068341969
 10
176.7085781184
 20
477.6188889026
 10
177.5422850487
 20
476.8040189027
 10
178.5928313483
 20
476.0856562733
 10
179.8299942029
 20
475.484483826
 10
181.2181838185
 20
475.0177794575
 10
182.7174636864
 20
474.6989840149
 10
184.2847025118
 20
474.5372542619
 10
185.8748135718
 20
474.5372542619
 10
187.4420523972
 20
474.6989840149
 10
188.9413322651
 20
475.0177794575
 10
190.3295218807
 20
475.484483826
 10
191.5666847353
 20
476.0856562733
 10
192.6172310349
 20
476.8040189027
 10
193.4509379652
 20
477.6188889026
 10
194.0438216415
 20
478.5068341969
 10
194.3788248909
 20
479.4423141955
 10
194.4463103873
 20
480.3984025
 10
194.2443381858
 20
481.3476064681
 10
193.7787178767
 20
482.2626122712
 10
193.0628437412
 20
483.1170970081
 10
192.1173110467
 20
483.8864812135
 10
190.9693204661
 20
484.5486366628
 10
189.6518980947
 20
485.0845047711
 10
188.2029436392
 20
485.4786777376
 10
186.6641407695
 20
485.719808328
 10
185.0797580418
 20
485.8009600519
  0
ELLIPSE
  5
AD
330
1F
100
AcDbEntity
  8
0
  6
Continuous
 62
     7
370
    25
100
AcDbEllipse
 10
185.0797580418
 20
481.4938068019
 30
0.0
 11
9.375
 21
0.0
 31
0.0
210
0.0
220
0.0
230
1.0
 40
0.6805603963
 41
6.119704000808456
 42
6.171923662756856
  0
ELLIPSE
  5
AE
330
1F
100
AcDbEntity
  8
0
  6
Continuous
 62
     7
370
    25
100
AcDbEllipse
 10
185.0797580418
 20
481.4938068019
 30
0.0
 11
9.375
 21
0.0
 31
0.0
210
0.0
220
0.0
230
1.0
 40
0.6805603963
 41
4.935743633841846
 42
5.392237536386534
  0
ELLIPSE
  5
AF
330
1F
100
AcDbEntity
  8
0
  6
Continuous
 62
     7
370
    25
100
AcDbEllipse
 10
185.0797580418
 20
481.4938068019
 30
0.0
 11
9.375
 21
0.0
 31
0.0
210
0.0
220
0.0
230
1.0
 40
0.6805603963
 41
4.225138450508368
 42
4.712388980384693
  0
ELLIPSE
  5
B0
330
1F
100
AcDbEntity
  8
0
  6
Continuous
 62
     7
370
    25
100
AcDbEllipse
 10
185.0797580418
 20
481.4938068019
 30
0.0
 11
9.375
 21
0.0
 31
0.0
210
0.0
220
0.0
230
1.0
 40
0.6805603963
 41
3.895528665435823
 42
3.940236810773156
  0
ELLIPSE
  5
B1
330
1F
100
AcDbEntity
  8
0
  6
Continuous
 62
     7
370
    25
100
AcDbEllipse
 10
185.0797580418
 20
481.4938068019
 30
0.0
 11
9.375
 21
0.0
 31
0.0
210
0.0
220
0.0
230
1.0
 40
0.6805603963
 41
3.252854298012565
 42
3.305073959960964
  0
ARC
  5
B2
330
1F
100
AcDbEntity
  8
0
  6
Continuous
 62
     7
370
    25
100
AcDbCircle
 10
187.8909702332
 20
482.4271302797
 30
0.0
 40
7.307702325976724
100
AcDbArc
 50
300.6875060712
 51
313.5070245863
  0
LINE
  5
B3
330
1F
100
AcDbEntity
  8
0
  6
Continuous
 62
     7
370
    25
100
AcDbLine
 10
192.9219104213
 20
477.9255622505
 30
0.0
 11
192.9219104213
 21
477.1269270657
 31
0.0
  0
ARC
  5
B4
330
1F
100
AcDbEntity
  8
0
  6
Continuous
 62
     7
370
    25
100
AcDbCircle
 10
189.8929625565
 20
481.2476443738
 30
0.0
 40
4.495637307570241
100
AcDbArc
 50
312.3573665055
 51
344.9339877368
  0
LINE
  5
B5
330
1F
100
AcDbEntity
  8
0
  6
Continuous
 62
     7
370
    25
100
AcDbLine
 10
194.329758161
 20
480.8777207016
 30
0.0
 11
194.329758161
 21
480.0790855168
 31
0.0
  0
ARC
  5
B6
330
1F
100
AcDbEntity
  8
0
  6
Continuous
 62
     7
370
    25
100
AcDbCircle
 10
190.8451847192
 20
480.0679163012
 30
0.0
 40
3.484591342325487
100
AcDbArc
 50
0.1836513802
 51
21.213599081
  0
LINE
  5
B7
330
1F
100
AcDbEntity
  8
0
  6
Continuous
 62
     7
370
    25
100
AcDbLine
 10
194.0936529872
 20
481.7097568392
 30
0.0
 11
194.0936529872
 21
481.3288012027
 31
0.0
  0
LINE
  5
B8
330
1F
100
AcDbEntity
  8
0
  6
Continuous
 62
     7
370
    25
100
AcDbLine
 10
191.6204956223
 20
484.2009478687
 30
0.0
 11
191.6204956223
 21
484.0153986095
 31
0.0
  0
ARC
  5
B9
330
1F
100
AcDbEntity
  8
0
  6
Continuous
 62
     7
370
    25
100
AcDbCircle
 10
186.4928150637
 20
475.4078465353
 30
0.0
 40
10.01913472418411
100
AcDbArc
 50
59.2169480884
 51
69.6001645493
  0
LINE
  5
BA
330
1F
100
AcDbEntity
  8
0
  6
Continuous
 62
     7
370
    25
100
AcDbLine
 10
189.9851783973
 20
484.9669718622
 30
0.0
 11
189.9851783973
 21
484.7986110925
 31
0.0
  0
LINE
  5
BB
330
1F
100
AcDbEntity
  8
0
  6
Continuous
 62
     7
370
    25
100
AcDbLine
 10
185.0797580418
 20
485.8009600519
 30
0.0
 11
185.0797580418
 21
485.6458762168
 31
0.0
  0
ARC
  5
BC
330
1F
100
AcDbEntity
  8
0
  6
Continuous
 62
     7
370
    25
100
AcDbCircle
 10
185.0731005318
 20
470.4987425681
 30
0.0
 40
15.1471351117264
100
AcDbArc
 50
89.9748172024
 51
97.8543074589
  0
LINE
  5
BD
330
1F
100
AcDbEntity
  8
0
  6
Continuous
 62
     7
370
    25
100
AcDbLine
 10
183.0031750587
 20
485.6608146309
 30
0.0
 11
183.0031750587
 21
485.5037787436
 31
0.0
  0
LINE
  5
BE
330
1F
100
AcDbEntity
  8
0
  6
Continuous
 62
     7
370
    25
100
AcDbLine
 10
178.5390204613
 20
484.2009478687
 30
0.0
 11
178.5390204613
 21
484.0153986095
 31
0.0
  0
ARC
  5
BF
330
1F
100
AcDbEntity
  8
0
  6
Continuous
 62
     7
370
    25
100
AcDbCircle
 10
182.2685147793
 20
477.7311219661
 30
0.0
 40
7.307616629203521
100
AcDbArc
 50
120.6876215396
 51
133.5073264771
  0
LINE
  5
C0
330
1F
100
AcDbEntity
  8
0
  6
Continuous
 62
     7
370
    25
100
AcDbLine
 10
177.2376056623
 20
483.250618863
 30
0.0
 11
177.2376056623
 21
483.0312365173
 31
0.0
  0
LINE
  5
C1
330
1F
100
AcDbEntity
  8
0
  6
Continuous
 62
     7
370
    25
100
AcDbLine
 10
175.8374636856
 20
481.104888904
 30
0.0
 11
175.8297579226
 21
480.8777207016
 31
0.0
  0
LINE
  5
C2
330
1F
100
AcDbEntity
  8
0
  6
Continuous
 62
     7
370
    25
100
AcDbLine
 10
175.8297579226
 20
480.8777207016
 30
0.0
 11
175.8297579226
 21
480.0790855168
 31
0.0
  0
ARC
  5
C3
330
1F
100
AcDbEntity
  8
0
  6
Continuous
 62
     7
370
    25
100
AcDbCircle
 10
179.3143840238
 20
480.090257164
 30
0.0
 40
3.484644009192627
100
AcDbArc
 50
180.1836885855
 51
201.2134372545
  0
ARC
  5
C4
330
1F
100
AcDbEntity
  8
0
  6
Continuous
 62
     7
370
    25
100
AcDbCircle
 10
181.6600244763
 20
482.4102698128
 30
0.0
 40
6.296754709158566
100
AcDbArc
 50
214.0799438265
 51
240.2871949934
  0
LINE
  5
C5
330
1F
100
AcDbEntity
  8
0
  6
Continuous
 62
     7
370
    25
100
AcDbLine
 10
178.5390204613
 20
476.9414076089
 30
0.0
 11
178.5390204613
 21
476.1427724241
 31
0.0
  0
ARC
  5
C6
330
1F
100
AcDbEntity
  8
0
  6
Continuous
 62
     7
370
    25
100
AcDbCircle
 10
183.6664010955
 20
484.7496982678
 30
0.0
 40
10.01844322470286
100
AcDbArc
 50
239.2165887658
 51
249.6005238719
  0
ARC
  5
C7
330
1F
100
AcDbEntity
  8
0
  6
Continuous
 62
     7
370
    25
100
AcDbCircle
 10
186.2729311493
 20
486.0651696012
 30
0.0
 40
10.57960233334316
100
AcDbArc
 50
290.7107312247
 51
296.0753888647
  0
LINE
  5
C8
330
1F
100
AcDbEntity
  8
0
  6
Continuous
 62
     7
370
    25
100
AcDbLine
 10
185.0797580418
 20
485.6458762168
 30
0.0
 11
185.0797580418
 21
485.0440555691
 31
0.0
  0
ARC
  5
C9
330
1F
100
AcDbEntity
  8
0
  6
Continuous
 62
     7
370
    25
100
AcDbCircle
 10
185.0736948039
 20
471.5353685289
 30
0.0
 40
13.50868840089745
100
AcDbArc
 50
89.974283369
 51
97.8543079107
  0
LINE
  5
CA
330
1F
100
AcDbEntity
  8
0
  6
Continuous
 62
     7
370
    25
100
AcDbLine
 10
183.2276704817
 20
484.9173286437
 30
0.0
 11
183.0031750587
 21
485.5037787436
 31
0.0
  0
LINE
  5
CB
330
1F
100
AcDbEntity
  8
0
  6
Continuous
 62
     7
370
    25
100
AcDbLine
 10
189.4018309985
 20
485.0360014914
 30
0.0
 11
189.503130955
 21
485.1334625362
 31
0.0
  0
ARC
  5
CC
330
1F
100
AcDbEntity
  8
0
  6
Continuous
 62
     7
370
    25
100
AcDbCircle
 10
185.1650369743
 20
473.391247198
 30
0.0
 40
12.39155866537084
100
AcDbArc
 50
70.0067343068
 51
90.3943137111
  0
LINE
  5
CD
330
1F
100
AcDbEntity
  8
0
  6
Continuous
 62
     7
370
    25
100
AcDbLine
 10
179.0747544591
 20
484.4916173695
 30
0.0
 11
179.3168377925
 21
484.3459287165
 31
0.0
  0
ARC
  5
CE
330
1F
100
AcDbEntity
  8
0
  6
Continuous
 62
     7
370
    25
100
AcDbCircle
 10
184.4947843454
 20
475.3393295503
 30
0.0
 40
10.38893445190451
100
AcDbArc
 50
98.2548697341
 51
119.8948476577
  0
LINE
  5
CF
330
1F
100
AcDbEntity
  8
0
  6
Continuous
 62
     7
370
    25
100
AcDbLine
 10
189.4548628342
 20
484.2883878826
 30
0.0
 11
189.9851783973
 21
484.7986110925
 31
0.0
  0
LINE
  5
D0
330
1F
100
AcDbEntity
  8
0
  6
Continuous
 62
     7
370
    25
100
AcDbLine
 10
189.4548628342
 20
484.8873698591
 30
0.0
 11
189.4548628342
 21
484.2883878826
 31
0.0
  0
LINE
  5
D1
330
1F
100
AcDbEntity
  8
0
  6
Continuous
 62
     7
370
    25
100
AcDbLine
 10
189.4018309985
 20
484.8363482832
 30
0.0
 11
189.4548628342
 21
484.8873698591
 31
0.0
  0
LINE
  5
D2
330
1F
100
AcDbEntity
  8
0
  6
Continuous
 62
     7
370
    25
100
AcDbLine
 10
189.4018309985
 20
485.0360014914
 30
0.0
 11
189.4018309985
 21
484.8363482832
 31
0.0
  0
ARC
  5
D3
330
1F
100
AcDbEntity
  8
0
  6
Continuous
 62
     7
370
    25
100
AcDbCircle
 10
186.3403102241
 20
475.9133335235
 30
0.0
 40
8.93543359214039
100
AcDbArc
 50
59.2167671985
 51
69.6006141451
  0
LINE
  5
D4
330
1F
100
AcDbEntity
  8
0
  6
Continuous
 62
     7
370
    25
100
AcDbLine
 10
191.6204956223
 20
484.0153986095
 30
0.0
 11
190.9133889575
 21
483.5898512482
 31
0.0
  0
LINE
  5
D5
330
1F
100
AcDbEntity
  8
0
  6
Continuous
 62
     7
370
    25
100
AcDbLine
 10
180.7576850851
 20
476.7009922742
 30
0.0
 11
180.7576850851
 21
476.5197792529
 31
0.0
  0
ARC
  5
D6
330
1F
100
AcDbEntity
  8
0
  6
Continuous
 62
     7
370
    25
100
AcDbCircle
 10
183.8341770214
 20
484.7926396849
 30
0.0
 40
8.82638217853821
100
AcDbArc
 50
239.2162225672
 51
249.6009569346
  0
LINE
  5
D7
330
1F
100
AcDbEntity
  8
0
  6
Continuous
 62
     7
370
    25
100
AcDbLine
 10
179.3168377925
 20
477.2098520278
 30
0.0
 11
179.3168377925
 21
477.409505236
 31
0.0
  0
ARC
  5
D8
330
1F
100
AcDbEntity
  8
0
  6
Continuous
 62
     7
370
    25
100
AcDbCircle
 10
181.6965955503
 20
481.7867236401
 30
0.0
 40
4.982297456209555
100
AcDbArc
 50
203.7940506104
 51
241.4684474052
  0
LINE
  5
D9
330
1F
100
AcDbEntity
  8
0
  6
Continuous
 62
     7
370
    25
100
AcDbLine
 10
177.1377855775
 20
479.7766142963
 30
0.0
 11
177.1377855775
 21
479.5769536375
 31
0.0
  0
ARC
  5
DA
330
1F
100
AcDbEntity
  8
0
  6
Continuous
 62
     7
370
    25
100
AcDbCircle
 10
179.9999862842
 20
480.6879019743
 30
0.0
 40
3.070244142193487
100
AcDbArc
 50
180.1836668618
 51
201.213463928
  0
LINE
  5
DB
330
1F
100
AcDbEntity
  8
0
  6
Continuous
 62
     7
370
    25
100
AcDbLine
 10
176.9297579166
 20
480.6780600427
 30
0.0
 11
176.9297579166
 21
480.8777207016
 31
0.0
  0
ARC
  5
DC
330
1F
100
AcDbEntity
  8
0
  6
Continuous
 62
     7
370
    25
100
AcDbCircle
 10
180.2877964823
 20
480.8139419352
 30
0.0
 40
3.358644181721893
100
AcDbArc
 50
142.0402387135
 51
178.9119199312
  0
LINE
  5
DD
330
1F
100
AcDbEntity
  8
0
  6
Continuous
 62
     7
370
    25
100
AcDbLine
 10
179.3168377925
 20
484.1462755083
 30
0.0
 11
179.3168377925
 21
484.3459287165
 31
0.0
  0
ARC
  5
DE
330
1F
100
AcDbEntity
  8
0
  6
Continuous
 62
     7
370
    25
100
AcDbCircle
 10
188.7105850469
 20
480.1273125326
 30
0.0
 40
4.691913660717191
100
AcDbArc
 50
23.2420659601
 51
54.0082577066
  0
LINE
  5
DF
330
1F
100
AcDbEntity
  8
0
  6
Continuous
 62
     7
370
    25
100
AcDbLine
 10
193.0217305061
 20
481.9788196563
 30
0.0
 11
193.0217305061
 21
481.779166448
 31
0.0
  0
LWPOLYLINE
  5
E0
330
1F
100
AcDbEntity
  8
0
  6
Continuous
 62
     7
370
    25
100
AcDbPolyline
 90
        3
 70
   128
 43
0.0
 10
193.229758167
 20
480.6780600427
 10
193.2264938813
 20
480.8168643593
 10
193.2232258704
 20
480.8743977426
  0
ARC
  5
E1
330
1F
100
AcDbEntity
  8
0
  6
Continuous
 62
     7
370
    25
100
AcDbCircle
 10
189.9939337743
 20
480.6179774888
 30
0.0
 40
3.242824825408745
100
AcDbArc
 50
15.4762435919
 51
20.982295784
  0
ARC
  5
E2
330
1F
100
AcDbEntity
  8
0
  6
Continuous
 62
     7
370
    25
100
AcDbCircle
 10
189.5653606444
 20
481.0344662249
 30
0.0
 40
3.671684714371626
100
AcDbArc
 50
311.3135321781
 51
355.9929282284
  0
LINE
  5
E3
330
1F
100
AcDbEntity
  8
0
  6
Continuous
 62
     7
370
    25
100
AcDbLine
 10
191.9893300955
 20
478.2766336082
 30
0.0
 11
191.9893300955
 21
478.0769729494
 31
0.0
  0
ARC
  5
E4
330
1F
100
AcDbEntity
  8
0
  6
Continuous
 62
     7
370
    25
100
AcDbCircle
 10
187.5567603582
 20
482.7467479024
 30
0.0
 40
6.438514781177888
100
AcDbArc
 50
300.6873726465
 51
313.507221724
  0
LINE
  5
E5
330
1F
100
AcDbEntity
  8
0
  6
Continuous
 62
     7
370
    25
100
AcDbLine
 10
190.8426782911
 20
477.2098520278
 30
0.0
 11
190.8426782911
 21
477.409505236
 31
0.0
  0
ARC
  5
E6
330
1F
100
AcDbEntity
  8
0
  6
Continuous
 62
     7
370
    25
100
AcDbCircle
 10
186.4244535835
 20
484.8036099365
 30
0.0
 40
8.61356452854323
100
AcDbArc
 50
292.2129326617
 51
300.8597284956
  0
ELLIPSE
  5
E7
330
1F
100
AcDbEntity
  8
0
  6
Continuous
 62
     7
370
    25
100
AcDbEllipse
 10
185.0797580418
 20
481.4938068019
 30
0.0
 11
8.150000000000006
 21
0.0
 31
0.0
210
0.0
220
0.0
230
1.0
 40
0.6805603963
 41
5.564338594462662
 42
6.189636205526419
  0
ELLIPSE
  5
E8
330
1F
100
AcDbEntity
  8
0
  6
Continuous
 62
     7
370
    25
100
AcDbEllipse
 10
185.0797580418
 20
481.4938068019
 30
0.0
 11
8.150000000000006
 21
0.0
 31
0.0
210
0.0
220
0.0
230
1.0
 40
0.6805603963
 41
3.200574915264523
 42
3.860439366306754
  0
ELLIPSE
  5
E9
330
1F
100
AcDbEntity
  8
0
  6
Continuous
 62
     7
370
    25
100
AcDbEllipse
 10
185.0797580418
 20
481.4938068019
 30
0.0
 11
7.349999999999993
 21
0.0
 31
0.0
210
0.0
220
0.0
230
1.0
 40
0.6805603963
 41
2.886424755447288
 42
3.141592653589793
  0
ELLIPSE
  5
EA
330
1F
100
AcDbEntity
  8
0
  6
Continuous
 62
     7
370
    25
100
AcDbEllipse
 10
185.0797580418
 20
481.4938068019
 30
0.0
 11
7.349999999999993
 21
0.0
 31
0.0
210
0.0
220
0.0
230
1.0
 40
0.6805603963
 41
0.0
 42
0.4902519450448598
  0
LWPOLYLINE
  5
EB
330
1F
100
AcDbEntity
  8
0
  6
Continuous
 62
     7
370
    25
100
AcDbPolyline
 90
       34
 70
   128
 43
0.0
 10
185.0797580418
 20
475.8554035305
 10
183.6887614199
 20
475.9353408097
 10
182.3480389875
 20
476.1722543715
 10
181.1060481568
 20
476.5575909494
 10
180.0076775116
 20
477.0774179577
 10
179.0926246767
 20
477.7129524826
 10
178.3939627793
 20
478.4412243842
 10
177.9369432342
 20
479.2359033107
 10
177.7380830471
 20
480.0682747244
 10
177.8045706314
 20
480.9082531809
 10
178.1340022434
 20
481.7254775642
 10
178.7144713898
 20
482.4904137729
 10
179.5249986325
 20
483.1754127024
 10
180.5362896857
 20
483.755723524
 10
181.711793165
 20
484.2103654026
 10
183.0090237644
 20
484.522909808
 10
184.3810961445
 20
484.6820542096
 10
185.7784199391
 20
484.6820542096
 10
187.1504923192
 20
484.522909808
 10
188.4477229186
 20
484.2103654026
 10
189.6232263979
 20
483.755723524
 10
190.6345174511
 20
483.1754127024
 10
191.4450446938
 20
482.4904137729
 10
192.0255138402
 20
481.7254775642
 10
192.3549454522
 20
480.9082531809
 10
192.4214330365
 20
480.0682747244
 10
192.2225728494
 20
479.2359033107
 10
191.7655533043
 20
478.4412243842
 10
191.0668914069
 20
477.7129524826
 10
190.151838572
 20
477.0774179577
 10
189.0534679268
 20
476.5575909494
 10
187.8114770961
 20
476.1722543715
 10
186.4707546637
 20
475.9353408097
 10
185.0797580418
 20
475.8554035305
  0
LWPOLYLINE
  5
EC
330
1F
100
AcDbEntity
  8
0
  6
Continuous
 62
     7
370
    25
100
AcDbPolyline
 90
       16
 70
   128
 43
0.0
 10
178.3738364328
 20
480.1734396695
 10
178.5513516378
 20
479.3503293275
 10
179.004824241
 20
478.5664537429
 10
179.715085761
 20
477.8549679993
 10
180.6521136177
 20
477.245927739
 10
181.7762995933
 20
476.765089619
 10
183.0401234192
 20
476.4327788233
 10
184.3901634428
 20
476.2630322455
 10
185.7693526408
 20
476.2630322455
 10
187.1193926644
 20
476.4327788233
 10
188.3832164903
 20
476.765089619
 10
189.5074024659
 20
477.245927739
 10
190.4444303226
 20
477.8549679993
 10
191.1546918426
 20
478.5664537429
 10
191.6081644458
 20
479.3503293275
 10
191.7856796508
 20
480.1734396695
  0
LWPOLYLINE
  5
ED
330
1F
100
AcDbEntity
  8
0
  6
Continuous
 62
     7
370
    25
100
AcDbPolyline
 90
       17
 70
   128
 43
0.0
 10
191.7856796508
 20
480.1734396695
 10
191.6872220908
 20
480.9757628917
 10
191.3263671894
 20
481.7504072069
 10
190.7174461384
 20
482.4666091679
 10
189.8846402627
 20
483.0959224581
 10
188.8610215255
 20
483.6133652805
 10
187.6872407601
 20
483.9983814834
 10
186.4099110107
 20
484.2356824755
 10
185.0797580418
 20
484.3158432721
 10
183.7496050729
 20
484.2356824755
 10
182.4722753235
 20
483.9983814834
 10
181.2984945581
 20
483.6133652805
 10
180.2748758209
 20
483.0959224581
 10
179.4420699452
 20
482.4666091679
 10
178.8331488942
 20
481.7504072069
 10
178.4722939928
 20
480.9757628917
 10
178.3738364328
 20
480.1734396695
  0
LWPOLYLINE
  5
EE
330
1F
100
AcDbEntity
  8
0
  6
Continuous
 62
     7
370
    25
100
AcDbPolyline
 90
       15
 70
   128
 43
0.0
 10
191.6705206831
 20
479.5266324161
 10
191.3263671894
 20
478.9838203667
 10
190.7174461384
 20
478.4435415148
 10
189.8846402627
 20
477.9688054203
 10
188.8610215255
 20
477.5784620522
 10
187.6872407601
 20
477.2880235194
 10
186.4099110107
 20
477.1090084194
 10
185.0797580418
 20
477.0485395073
 10
183.7496050729
 20
477.1090084194
 10
182.4722753235
 20
477.2880235194
 10
181.2984945581
 20
477.5784620522
 10
180.2748758209
 20
477.9688054203
 10
179.4420699452
 20
478.4435415148
 10
178.8331488942
 20
478.9838203667
 10
178.4889954005
 20
479.5266324161
  0
LWPOLYLINE
  5
EF
330
1F
100
AcDbEntity
  8
0
  6
Continuous
 62
     7
370
    25
100
AcDbPolyline
 90
       16
 70
   128
 43
0.0
 10
178.3738364328
 20
480.1734396695
 10
178.5513516378
 20
480.7943710564
 10
179.004824241
 20
481.3856938361
 10
179.715085761
 20
481.9224187611
 10
180.6521136177
 20
482.3818588137
 10
181.7762995933
 20
482.74459033
 10
183.0401234192
 20
482.9952800154
 10
184.3901634428
 20
483.1233256935
 10
185.7693526408
 20
483.1233256935
 10
187.1193926644
 20
482.9952800154
 10
188.3832164903
 20
482.74459033
 10
189.5074024659
 20
482.3818588137
 10
190.4444303226
 20
481.9224187611
 10
191.1546918426
 20
481.3856938361
 10
191.6081644458
 20
480.7943710564
 10
191.7856796508
 20
480.1734396695
  0
ARC
  5
F0
330
1F
100
AcDbEntity
  8
0
  6
Continuous
 62
     7
370
    25
100
AcDbCircle
 10
182.5727141033
 20
477.9845549646
 30
0.0
 40
6.518092308578414
100
AcDbArc
 50
120.6879489699
 51
133.5066549915
  0
LINE
  5
F1
330
1F
100
AcDbEntity
  8
0
  6
Continuous
 62
     7
370
    25
100
AcDbLine
 10
178.0854062971
 20
482.7120908974
 30
0.0
 11
177.2376056623
 21
483.0312365173
 31
0.0
  0
LINE
  5
F2
330
1F
100
AcDbEntity
  8
0
  6
Continuous
 62
     7
370
    25
100
AcDbLine
 10
178.5390204613
 20
484.0153986095
 30
0.0
 11
179.2461271261
 21
483.5898512482
 31
0.0
  0
LINE
  5
F3
330
1F
100
AcDbEntity
  8
0
  6
Continuous
 62
     7
370
    25
100
AcDbLine
 10
179.2461271261
 20
483.5898512482
 30
0.0
 11
179.2461271261
 21
484.1888257741
 31
0.0
  0
LINE
  5
F4
330
1F
100
AcDbEntity
  8
0
  6
Continuous
 62
     7
370
    25
100
AcDbLine
 10
179.2461271261
 20
484.1888257741
 30
0.0
 11
179.3168377925
 21
484.1462755083
 31
0.0
  0
LINE
  5
F5
330
1F
100
AcDbEntity
  8
0
  6
Continuous
 62
     7
370
    25
100
AcDbLine
 10
186.9396747651
 20
475.9993710994
 30
0.0
 11
187.1563410249
 21
475.3593066214
 31
0.0
  0
LINE
  5
F6
330
1F
100
AcDbEntity
  8
0
  6
Continuous
 62
     7
370
    25
100
AcDbLine
 10
180.7046532494
 20
476.169244337
 30
0.0
 11
182.3605734252
 21
476.169244337
 31
0.0
  0
LINE
  5
F7
330
1F
100
AcDbEntity
  8
0
  6
Continuous
 62
     7
370
    25
100
AcDbLine
 10
187.7989426584
 20
476.169244337
 30
0.0
 11
190.0144079563
 21
476.169244337
 31
0.0
  0
LINE
  5
F8
330
1F
100
AcDbEntity
  8
0
  6
Continuous
 62
     7
370
    25
100
AcDbLine
 10
193.0217305061
 20
481.9788196563
 30
0.0
 11
193.8835093614
 21
482.0983046173
 31
0.0
  0
LINE
  5
F9
330
1F
100
AcDbEntity
  8
0
  6
Continuous
 62
     7
370
    25
100
AcDbLine
 10
175.8297579226
 20
480.8777207016
 30
0.0
 11
176.9297579166
 21
480.8777207016
 31
0.0
  0
LINE
  5
FA
330
1F
100
AcDbEntity
  8
0
  6
Continuous
 62
     7
370
    25
100
AcDbLine
 10
193.1191775811
 20
481.1936998247
 30
0.0
 11
194.0936529872
 21
481.3288012027
 31
0.0
  0
LINE
  5
FB
330
1F
100
AcDbEntity
  8
0
  6
Continuous
 62
     7
370
    25
100
AcDbLine
 10
193.1191775811
 20
481.7926743506
 30
0.0
 11
193.1191775811
 21
481.1936998247
 31
0.0
  0
LINE
  5
FC
330
1F
100
AcDbEntity
  8
0
  6
Continuous
 62
     7
370
    25
100
AcDbLine
 10
193.0217305061
 20
481.779166448
 30
0.0
 11
193.1191775811
 21
481.7926743506
 31
0.0
  0
ARC
  5
FD
330
1F
100
AcDbEntity
  8
0
  6
Continuous
 62
     7
370
    25
100
AcDbCircle
 10
190.2218886242
 20
480.0691252624
 30
0.0
 40
3.107885333458336
100
AcDbArc
 50
0.1836237357
 51
21.2135825723
  0
LINE
  5
FE
330
1F
100
AcDbEntity
  8
0
  6
Continuous
 62
     7
370
    25
100
AcDbLine
 10
194.329758161
 20
480.0790855168
 30
0.0
 11
193.3297579971
 21
480.0790855168
 31
0.0
  0
LINE
  5
FF
330
1F
100
AcDbEntity
  8
0
  6
Continuous
 62
     7
370
    25
100
AcDbLine
 10
193.2695023578
 20
480.6780600427
 30
0.0
 11
193.229758167
 21
480.6780600427
 31
0.0
  0
ARC
  5
100
330
1F
100
AcDbEntity
  8
0
  6
Continuous
 62
     7
370
    25
100
AcDbCircle
 10
179.9375830623
 20
480.0890373834
 30
0.0
 40
3.107840909696161
100
AcDbArc
 50
180.1834717232
 51
201.2137345848
  0
LINE
  5
101
330
1F
100
AcDbEntity
  8
0
  6
Continuous
 62
     7
370
    25
100
AcDbLine
 10
177.0403385025
 20
478.9644712089
 30
0.0
 11
176.0658630964
 21
478.8293623804
 31
0.0
  0
LINE
  5
102
330
1F
100
AcDbEntity
  8
0
  6
Continuous
 62
     7
370
    25
100
AcDbLine
 10
175.8297579226
 20
480.0790855168
 30
0.0
 11
176.8297580865
 21
480.0790855168
 31
0.0
  0
ARC
  5
103
330
1F
100
AcDbEntity
  8
0
  6
Continuous
 62
     7
370
    25
100
AcDbCircle
 10
179.9376097105
 20
480.6880169439
 30
0.0
 40
3.107867573866738
100
AcDbArc
 50
180.1835629651
 51
201.2136433429
  0
LINE
  5
104
330
1F
100
AcDbEntity
  8
0
  6
Continuous
 62
     7
370
    25
100
AcDbLine
 10
177.0403385025
 20
479.5634457349
 30
0.0
 11
177.0403385025
 21
478.9644712089
 31
0.0
  0
LINE
  5
105
330
1F
100
AcDbEntity
  8
0
  6
Continuous
 62
     7
370
    25
100
AcDbLine
 10
176.8297580865
 20
480.0790855168
 30
0.0
 11
176.8297580865
 21
480.6780600427
 31
0.0
  0
LINE
  5
106
330
1F
100
AcDbEntity
  8
0
  6
Continuous
 62
     7
370
    25
100
AcDbLine
 10
176.8297580865
 20
480.6780600427
 30
0.0
 11
176.9297579166
 21
480.6780600427
 31
0.0
  0
LINE
  5
107
330
1F
100
AcDbEntity
  8
0
  6
Continuous
 62
     7
370
    25
100
AcDbLine
 10
177.1377855775
 20
479.5769536375
 30
0.0
 11
177.0403385025
 21
479.5634457349
 31
0.0
  0
LINE
  5
108
330
1F
100
AcDbEntity
  8
0
  6
Continuous
 62
     7
370
    25
100
AcDbLine
 10
191.9893300955
 20
478.2766336082
 30
0.0
 11
192.9219104213
 21
477.9255622505
 31
0.0
  0
LINE
  5
109
330
1F
100
AcDbEntity
  8
0
  6
Continuous
 62
     7
370
    25
100
AcDbLine
 10
178.5390204613
 20
476.9414076089
 30
0.0
 11
179.3168377925
 21
477.409505236
 31
0.0
  0
LINE
  5
10A
330
1F
100
AcDbEntity
  8
0
  6
Continuous
 62
     7
370
    25
100
AcDbLine
 10
192.0741097865
 20
477.4460801362
 30
0.0
 11
192.9219104213
 21
477.1269270657
 31
0.0
  0
LINE
  5
10B
330
1F
100
AcDbEntity
  8
0
  6
Continuous
 62
     7
370
    25
100
AcDbLine
 10
192.0741097865
 20
478.0450546621
 30
0.0
 11
192.0741097865
 21
477.4460801362
 31
0.0
  0
LINE
  5
10C
330
1F
100
AcDbEntity
  8
0
  6
Continuous
 62
     7
370
    25
100
AcDbLine
 10
191.9893300955
 20
478.0769729494
 30
0.0
 11
192.0741097865
 21
478.0450546621
 31
0.0
  0
ARC
  5
10D
330
1F
100
AcDbEntity
  8
0
  6
Continuous
 62
     7
370
    25
100
AcDbCircle
 10
187.5868019803
 20
482.7725905949
 30
0.0
 40
6.518092308578483
100
AcDbArc
 50
300.6879489699
 51
313.5066549915
  0
ARC
  5
10E
330
1F
100
AcDbEntity
  8
0
  6
Continuous
 62
     7
370
    25
100
AcDbCircle
 10
187.5870743717
 20
482.1732558678
 30
0.0
 40
6.517643532091826
100
AcDbArc
 50
300.6875057996
 51
313.5070981619
  0
LINE
  5
10F
330
1F
100
AcDbEntity
  8
0
  6
Continuous
 62
     7
370
    25
100
AcDbLine
 10
190.9133889575
 20
476.5683197855
 30
0.0
 11
190.9133889575
 21
477.1672943114
 31
0.0
  0
LINE
  5
110
330
1F
100
AcDbEntity
  8
0
  6
Continuous
 62
     7
370
    25
100
AcDbLine
 10
191.6204956223
 20
476.1427724241
 30
0.0
 11
190.9133889575
 21
476.5683197855
 31
0.0
  0
LINE
  5
111
330
1F
100
AcDbEntity
  8
0
  6
Continuous
 62
     7
370
    25
100
AcDbLine
 10
190.9133889575
 20
477.1672943114
 30
0.0
 11
190.8426782911
 21
477.2098520278
 31
0.0
  0
ARC
  5
112
330
1F
100
AcDbEntity
  8
0
  6
Continuous
 62
     7
370
    25
100
AcDbCircle
 10
183.8191497182
 20
484.2446309627
 30
0.0
 40
8.935227412735285
100
AcDbArc
 50
239.2163986312
 51
249.6005065637
  0
LINE
  5
113
330
1F
100
AcDbEntity
  8
0
  6
Continuous
 62
     7
370
    25
100
AcDbLine
 10
180.7046532494
 20
475.8697757005
 30
0.0
 11
180.1743376863
 21
475.3595599412
 31
0.0
  0
LINE
  5
114
330
1F
100
AcDbEntity
  8
0
  6
Continuous
 62
     7
370
    25
100
AcDbLine
 10
178.5390204613
 20
476.1427724241
 30
0.0
 11
179.2461271261
 21
476.5683197855
 31
0.0
  0
LINE
  5
115
330
1F
100
AcDbEntity
  8
0
  6
Continuous
 62
     7
370
    25
100
AcDbLine
 10
179.2461271261
 20
476.5683197855
 30
0.0
 11
179.2461271261
 21
477.1672943114
 31
0.0
  0
LINE
  5
116
330
1F
100
AcDbEntity
  8
0
  6
Continuous
 62
     7
370
    25
100
AcDbLine
 10
179.2461271261
 20
477.1672943114
 30
0.0
 11
179.3168377925
 21
477.2098520278
 31
0.0
  0
ARC
  5
117
330
1F
100
AcDbEntity
  8
0
  6
Continuous
 62
     7
370
    25
100
AcDbCircle
 10
183.8192058595
 20
484.8438120361
 30
0.0
 40
8.9354335921404
100
AcDbArc
 50
239.2167671985
 51
249.6006141451
  0
LINE
  5
118
330
1F
100
AcDbEntity
  8
0
  6
Continuous
 62
     7
370
    25
100
AcDbLine
 10
180.7046532494
 20
476.468757677
 30
0.0
 11
180.7046532494
 21
475.8697757005
 31
0.0
  0
LINE
  5
119
330
1F
100
AcDbEntity
  8
0
  6
Continuous
 62
     7
370
    25
100
AcDbLine
 10
180.7576850851
 20
476.5197792529
 30
0.0
 11
180.7046532494
 21
476.468757677
 31
0.0
  0
ARC
  5
11A
330
1F
100
AcDbEntity
  8
0
  6
Continuous
 62
     7
370
    25
100
AcDbCircle
 10
185.0857074586
 20
488.6236717169
 30
0.0
 40
13.50956501291145
100
AcDbArc
 50
269.9747677675
 51
277.854282343
  0
LINE
  5
11B
330
1F
100
AcDbEntity
  8
0
  6
Continuous
 62
     7
370
    25
100
AcDbLine
 10
186.9318456019
 20
475.2408423899
 30
0.0
 11
187.1563410249
 21
474.6543848394
 31
0.0
  0
ARC
  5
11C
330
1F
100
AcDbEntity
  8
0
  6
Continuous
 62
     7
370
    25
100
AcDbCircle
 10
185.0864101561
 20
489.6602941201
 30
0.0
 40
15.14800076389177
100
AcDbArc
 50
269.9748390502
 51
277.8538763837
  0
LINE
  5
11D
330
1F
100
AcDbEntity
  8
0
  6
Continuous
 62
     7
370
    25
100
AcDbLine
 10
185.0797580418
 20
474.5122948169
 30
0.0
 11
185.0797580418
 21
475.114108014
 31
0.0
  0
LINE
  5
11E
330
1F
100
AcDbEntity
  8
0
  6
Continuous
 62
     7
370
    25
100
AcDbLine
 10
187.1563410249
 20
475.3593066214
 30
0.0
 11
187.1563410249
 21
474.6543848394
 31
0.0
  0
LINE
  5
11F
330
1F
100
AcDbEntity
  8
0
  6
Continuous
 62
     7
370
    25
100
AcDbLine
 10
186.9318456019
 20
475.8398169159
 30
0.0
 11
186.9318456019
 21
475.2408423899
 31
0.0
  0
LINE
  5
120
330
1F
100
AcDbEntity
  8
0
  6
Continuous
 62
     7
370
    25
100
AcDbLine
 10
186.9093960712
 20
475.8984604358
 30
0.0
 11
186.9318456019
 21
475.8398169159
 31
0.0
  0
LINE
  5
121
330
1F
100
AcDbEntity
  8
0
  6
Continuous
 62
     7
370
    25
100
AcDbLine
 10
186.9093960712
 20
475.9946399807
 30
0.0
 11
186.9093960712
 21
475.8984604358
 31
0.0
  0
ARC
  5
122
330
1F
100
AcDbEntity
  8
0
  6
Continuous
 62
     7
370
    25
100
AcDbCircle
 10
185.0858212797
 20
489.2217770307
 30
0.0
 40
13.50868840089744
100
AcDbArc
 50
269.974283369
 51
277.8543079107
  0
LINE
  5
123
330
1F
100
AcDbEntity
  8
0
  6
Continuous
 62
     7
370
    25
100
AcDbLine
 10
185.0797580418
 20
475.114108014
 30
0.0
 11
185.0797580418
 21
475.7130899905
 31
0.0
  0
ARC
  5
124
330
1F
100
AcDbEntity
  8
0
  6
Continuous
 62
     7
370
    25
100
AcDbCircle
 10
185.0857708531
 20
489.1177433072
 30
0.0
 40
13.34447633182516
100
AcDbArc
 50
269.9741834212
 51
277.8544866098
  0
LINE
  5
125
330
1F
100
AcDbEntity
  8
0
  6
Continuous
 62
     7
370
    25
100
AcDbLine
 10
185.0797580418
 20
475.7130899905
 30
0.0
 11
185.0797580418
 21
475.77326833
 31
0.0
  0
LINE
  5
126
330
1F
100
AcDbEntity
  8
0
  6
Continuous
 62
     7
370
    25
100
AcDbLine
 10
185.0797580418
 20
475.77326833
 30
0.0
 11
185.0797580418
 21
475.8554035305
 31
0.0
  0
CIRCLE
  5
127
330
1F
100
AcDbEntity
  8
0
  6
Continuous
 62
     7
370
    25
100
AcDbCircle
 10
185.0797580418
 20
545.4307069985
 30
0.0
 40
4.000000000000028
  0
SPLINE
  5
128
330
1F
100
AcDbEntity
  8
0
  6
Continuous
 62
     7
370
    25
100
AcDbSpline
210
0.0
220
0.0
230
1.0
 70
    24
 71
     3
 72
    10
 73
     6
 74
     0
 42
0.000000001
 43
0.00000001
 40
0.0
 40
0.0
 40
0.0
 40
0.0
 40
0.5
 40
0.5
 40
1.0
 40
1.0
 40
1.0
 40
1.0
 10
182.9328415020054
 20
565.4307069985058
 30
0.0
 10
183.648482082902
 20
565.4307069985058
 30
0.0
 10
184.3641226081391
 20
565.4307069985059
 30
0.0
 10
185.7954030412147
 20
565.4307069985059
 30
0.0
 10
186.5110429480162
 20
565.4307069985058
 30
0.0
 10
187.2266828001609
 20
565.4307069985058
 30
0.0
  0
SPLINE
  5
129
330
1F
100
AcDbEntity
  8
0
  6
Continuous
 62
     7
370
    25
100
AcDbSpline
210
0.0
220
0.0
230
1.0
 70
     8
 71
     3
 72
    10
 73
     6
 74
     0
 42
0.000000001
 43
0.00000001
 40
0.0
 40
0.0
 40
0.0
 40
0.0
 40
0.0467136600164003
 40
0.5192229518187039
 40
1.0
 40
1.0
 40
1.0
 40
1.0
 10
161.0932806369673
 20
538.7233877061674
 30
0.0
 10
161.0888532840895
 20
538.7077365774434
 30
0.0
 10
161.039643198022
 20
538.5337740737025
 30
0.0
 10
161.2089014540805
 20
538.4504245800449
 30
0.0
 10
161.5431028194236
 20
538.4373220716991
 30
0.0
 10
161.7116527494798
 20
538.430713999159
 30
0.0
  0
SPLINE
  5
12A
330
1F
100
AcDbEntity
  8
0
  6
Continuous
 62
     7
370
    25
100
AcDbSpline
210
0.0
220
0.0
230
1.0
 70
     8
 71
     3
 72
     9
 73
     5
 74
     0
 42
0.000000001
 43
0.00000001
 40
0.0
 40
0.0
 40
0.0
 40
0.0
 40
0.5155671814944137
 40
1.0
 40
1.0
 40
1.0
 40
1.0
 10
208.4478633341203
 20
538.430713999159
 30
0.0
 10
208.6380100383838
 20
538.4271252478655
 30
0.0
 10
209.0068207600289
 20
538.4201644648246
 30
0.0
 10
209.0494370698063
 20
538.6220541444408
 30
0.0
 10
209.0700818088661
 20
538.7198561309644
 30
0.0
  0
LINE
  5
12B
330
1F
100
AcDbEntity
  8
0
  6
Continuous
 62
     7
370
    25
100
AcDbLine
 10
161.7116527495
 20
538.4307139992
 30
0.0
 11
208.4478633341
 21
538.4307139992
 31
0.0
  0
LINE
  5
12C
330
1F
100
AcDbEntity
  8
0
  6
Continuous
 62
     7
370
    25
100
AcDbLine
 10
185.0797580418
 20
380.3186744424
 30
0.0
 11
161.3797573236
 21
380.3186744424
 31
0.0
  0
LINE
  5
12D
330
1F
100
AcDbEntity
  8
0
  6
Continuous
 62
     7
370
    25
100
AcDbLine
 10
208.77975876
 20
380.3186744424
 30
0.0
 11
185.0797580418
 21
380.3186744424
 31
0.0
  0
LINE
  5
12E
330
1F
100
AcDbEntity
  8
0
  6
Continuous
 62
     7
370
    25
100
AcDbLine
 10
187.2266917352
 20
565.4307091116
 30
0.0
 11
207.5797589359
 21
565.4307091116
 31
0.0
  0
LINE
  5
12F
330
1F
100
AcDbEntity
  8
0
  6
Continuous
 62
     7
370
    25
100
AcDbLine
 10
162.5797571477
 20
565.4307091116
 30
0.0
 11
182.9328345929
 21
565.4307091116
 31
0.0
  0
LINE
  5
130
330
1F
100
AcDbEntity
  8
0
  6
Continuous
 62
     7
370
    25
100
AcDbLine
 10
208.676724681
 20
535.4307079195
 30
0.0
 11
161.4827914026
 21
535.4307079195
 31
0.0
  0
ELLIPSE
  5
131
330
1F
100
AcDbEntity
  8
0
  6
Continuous
 62
     8
370
    18
100
AcDbEllipse
 10
185.0797580418
 20
482.1311208663
 30
0.0
 11
13.62225840003612
 21
0.0
 31
0.0
210
0.0
220
0.0
230
1.0
 40
0.6243407052
 41
1.570796326794878
 42
3.129725682882206
  0
ELLIPSE
  5
132
330
1F
100
AcDbEntity
  8
0
  6
Continuous
 62
     8
370
    18
100
AcDbEllipse
 10
185.0797580418
 20
482.1311208663
 30
0.0
 11
13.62225840003612
 21
0.0
 31
0.0
210
0.0
220
0.0
230
1.0
 40
0.6243407052
 41
0.0
 42
1.570796326794897
  0
CIRCLE
  5
133
330
1F
100
AcDbEntity
  8
0
  6
Continuous
 62
     8
370
    18
100
AcDbCircle
 10
185.0797580418
 20
557.4307069985
 30
0.0
 40
4.328080324853772
  0
SPLINE
  5
134
330
1F
100
AcDbEntity
  8
0
  6
Continuous
 62
     8
370
    18
100
AcDbSpline
210
0.0
220
0.0
230
1.0
 70
     8
 71
     3
 72
    31
 73
    27
 74
     0
 42
0.000000001
 43
0.00000001
 40
0.0
 40
0.0
 40
0.0
 40
0.0
 40
0.0146058334363521
 40
0.114943607388382
 40
0.2153503676045726
 40
0.250996504620744
 40
0.2878238216944198
 40
0.3258986853575894
 40
0.3418745044034401
 40
0.3587958789427299
 40
0.3766654153823137
 40
0.3954851744211402
 40
0.4152575290010435
 40
0.4359832431477458
 40
0.437061713278742
 40
0.4451192384426772
 40
0.467113539909867
 40
0.4889195541913264
 40
0.5164380386923166
 40
0.5496678095128831
 40
0.6165692212538879
 40
0.6768142122867588
 40
0.7304418025175912
 40
0.7775070741711856
 40
0.8917116714659863
 40
1.0
 40
1.0
 40
1.0
 40
1.0
 10
198.6637357485305
 20
499.715940046198
 30
0.0
 10
198.6986998477045
 20
499.8317895867114
 30
0.0
 10
198.9738570104688
 20
500.7434913501833
 30
0.0
 10
199.0480155332251
 20
502.6165520062654
 30
0.0
 10
198.8890348111927
 20
504.6180411452659
 30
0.0
 10
198.5738250606537
 20
506.0316271161369
 30
0.0
 10
198.3184354414344
 20
506.9123437453634
 30
0.0
 10
198.0626794395555
 20
507.6136163383503
 30
0.0
 10
197.8391982369177
 20
508.1465870293603
 30
0.0
 10
197.6690626210072
 20
508.5215720120022
 30
0.0
 10
197.4781741692582
 20
508.9104332244036
 30
0.0
 10
197.2648825327328
 20
509.3119548543575
 30
0.0
 10
197.0276805985267
 20
509.7245865945287
 30
0.0
 10
196.8517177165355
 20
510.0072365900741
 30
0.0
 10
196.7220651728545
 20
510.2070763472875
 30
0.0
 10
196.5855388311892
 20
510.4138887742898
 30
0.0
 10
196.3491892885682
 20
510.7526102419658
 30
0.0
 10
196.0070024131138
 20
511.2057023526883
 30
0.0
 10
195.5889212667616
 20
511.7130868054547
 30
0.0
 10
194.9028870698113
 20
512.4624228220864
 30
0.0
 10
193.9586028367836
 20
513.3311300060035
 30
0.0
 10
192.7842244714113
 20
514.194081021851
 30
0.0
 10
191.6579990551751
 20
514.8615178358979
 30
0.0
 10
190.0659777570592
 20
515.6197190636212
 30
0.0
 10
187.896277511268
 20
516.3288658114623
 30
0.0
 10
186.0018060164343
 20
516.438235448204
 30
0.0
 10
185.0797580418001
 20
516.4914661525556
 30
0.0
  0
ARC
  5
135
330
1F
100
AcDbEntity
  8
0
  6
Continuous
 62
     8
370
    18
100
AcDbCircle
 10
185.0648752624
 20
502.5960279291
 30
0.0
 40
13.89544619363181
100
AcDbArc
 50
89.9386330891
 51
195.5325278386
  0
SPLINE
  5
136
330
1F
100
AcDbEntity
  8
0
  6
Continuous
 62
     8
370
    18
100
AcDbSpline
210
0.0
220
0.0
230
1.0
 70
     8
 71
     3
 72
    16
 73
    12
 74
     0
 42
0.000000001
 43
0.00000001
 40
0.0
 40
0.0
 40
0.0
 40
0.0
 40
0.2499999999999998
 40
0.2499999999999998
 40
0.4999999999999998
 40
0.4999999999999998
 40
0.7499999999999997
 40
0.7499999999999997
 40
0.8749999999999999
 40
0.8749999999999999
 40
1.0
 40
1.0
 40
1.0
 40
1.0
 10
187.3678326383564
 20
563.9310695810443
 30
0.0
 10
186.9909345132638
 20
563.981569951257
 30
0.0
 10
186.6094005128638
 20
564.0225453266247
 30
0.0
 10
185.8483750933451
 20
564.0781669288177
 30
0.0
 10
185.4668948311532
 20
564.093088925591
 30
0.0
 10
184.7016029593382
 20
564.0933111531264
 30
0.0
 10
184.3168283988657
 20
564.0785724742934
 30
0.0
 10
183.7429020772843
 20
564.0367542151687
 30
0.0
 10
183.5520603142847
 20
564.0195712177995
 30
0.0
 10
183.1711672793955
 20
563.9794224075213
 30
0.0
 10
182.9798169975777
 20
563.9562832899844
 30
0.0
 10
182.7913719094168
 20
563.9310149044609
 30
0.0
  0
SPLINE
  5
137
330
1F
100
AcDbEntity
  8
0
  6
Continuous
 62
     8
370
    18
100
AcDbSpline
210
0.0
220
0.0
230
1.0
 70
     8
 71
     3
 72
    47
 73
    43
 74
     0
 42
0.000000001
 43
0.00000001
 40
0.0
 40
0.0
 40
0.0
 40
0.0
 40
0.0039700704854761
 40
0.007959725298296
 40
0.0426571651295164
 40
0.0776946988046185
 40
0.1128141254573253
 40
0.1480912809529853
 40
0.1838279286960412
 40
0.2196133344379555
 40
0.2550269256577488
 40
0.2909602608925869
 40
0.3264844935631345
 40
0.3613266161778605
 40
0.3962443256588273
 40
0.4308301387524191
 40
0.4656625633434522
 40
0.5002981821745135
 40
0.5349216884633483
 40
0.5697709274705892
 40
0.6043501737550557
 40
0.639285126820605
 40
0.6740964105088231
 40
0.7096212646042636
 40
0.7455517883643898
 40
0.7809924410352292
 40
0.794970760543147
 40
0.8088258535133624
 40
0.8226344250745887
 40
0.8364739535194815
 40
0.8504214006773785
 40
0.8642725198623477
 40
0.8779499691093525
 40
0.8915483313274705
 40
0.9051435675534537
 40
0.9188116901150198
 40
0.9325460856727184
 40
0.9461104911605649
 40
0.9595536248019306
 40
0.9729552017344859
 40
0.9863956761831513
 40
1.0
 40
1.0
 40
1.0
 40
1.0
 10
187.3688997777676
 20
563.9310667391428
 30
0.0
 10
187.4152963701155
 20
563.9125854067909
 30
0.0
 10
187.5083184288464
 20
563.8755315738156
 30
0.0
 10
188.00062907181
 20
563.6628594666577
 30
0.0
 10
188.8111166940137
 20
563.201855709185
 30
0.0
 10
189.799101235491
 20
562.3255901341066
 30
0.0
 10
190.6076576087781
 20
561.2722251832673
 30
0.0
 10
191.2004724730447
 20
560.0702614602155
 30
0.0
 10
191.5689467750309
 20
558.768175590877
 30
0.0
 10
191.6872724068105
 20
557.4148011894838
 30
0.0
 10
191.5593605368089
 20
556.0597503058834
 30
0.0
 10
191.1790828076525
 20
554.7606164139488
 30
0.0
 10
190.583969559611
 20
553.5577960488329
 30
0.0
 10
189.7736736624144
 20
552.5078082736476
 30
0.0
 10
188.7845933830536
 20
551.6417828697209
 30
0.0
 10
187.6368974294516
 20
550.9940259890998
 30
0.0
 10
186.3811830079869
 20
550.5863390756211
 30
0.0
 10
185.0632164755415
 20
550.4550875860267
 30
0.0
 10
183.7458098227429
 20
550.5932552114464
 30
0.0
 10
182.4923655825528
 20
551.0074140403377
 30
0.0
 10
181.3478212823223
 20
551.6611402131231
 30
0.0
 10
180.3632929214236
 20
552.5318994534967
 30
0.0
 10
179.5582237834595
 20
553.5857071623213
 30
0.0
 10
178.9688004202309
 20
554.7910675496973
 30
0.0
 10
178.5942961734096
 20
556.0919944419707
 30
0.0
 10
178.4968666438883
 20
557.172861959137
 30
0.0
 10
178.5262729764121
 20
557.9719188294347
 30
0.0
 10
178.5826408232854
 20
558.4951218673792
 30
0.0
 10
178.6764421618667
 20
559.0106825098846
 30
0.0
 10
178.8076471150975
 20
559.5186335125445
 30
0.0
 10
178.9753672276854
 20
560.0155449331749
 30
0.0
 10
179.1766726251665
 20
560.496853234435
 30
0.0
 10
179.410133127824
 20
560.9577629749147
 30
0.0
 10
179.6753536372117
 20
561.3966975395829
 30
0.0
 10
179.972606281576
 20
561.8138693579888
 30
0.0
 10
180.3014976989812
 20
562.2083793094295
 30
0.0
 10
180.6583557284579
 20
562.5771585659904
 30
0.0
 10
181.0402045190237
 20
562.9159774055897
 30
0.0
 10
181.4442739592296
 20
563.221735411761
 30
0.0
 10
181.8706345788831
 20
563.4933208695497
 30
0.0
 10
182.3184294069608
 20
563.7342223281951
 30
0.0
 10
182.6324949675773
 20
563.8651489497772
 30
0.0
 10
182.7904791220309
 20
563.931008866304
 30
0.0
  0
LINE
  5
138
330
1F
100
AcDbEntity
  8
0
  6
Continuous
 62
     8
370
    18
100
AcDbLine
 10
185.0797580418
 20
380.6186743985
 30
0.0
 11
209.0797582504
 21
380.6186743985
 31
0.0
  0
LINE
  5
139
330
1F
100
AcDbEntity
  8
0
  6
Continuous
 62
     8
370
    18
100
AcDbLine
 10
161.0797578332
 20
380.6186743985
 30
0.0
 11
185.0797580418
 21
380.6186743985
 31
0.0
  0
LINE
  5
13A
330
1F
100
AcDbEntity
  8
0
  6
Continuous
 62
     8
370
    18
100
AcDbLine
 10
182.7905357213
 20
563.9307135223
 30
0.0
 11
161.0797578332
 21
563.9307135223
 31
0.0
  0
LINE
  5
13B
330
1F
100
AcDbEntity
  8
0
  6
Continuous
 62
     8
370
    18
100
AcDbLine
 10
209.0797582504
 20
563.9307135223
 30
0.0
 11
187.3688311179
 21
563.9307135223
 31
0.0
  0
LINE
  5
13C
330
1F
100
AcDbEntity
  8
0
  6
Continuous
 62
     7
370
    25
100
AcDbLine
 10
361.2413712229
 20
549.3756466984
 30
0.0
 11
361.2413712229
 21
550.5015784382
 31
0.0
  0
LINE
  5
13D
330
1F
100
AcDbEntity
  8
0
  6
Continuous
 62
     7
370
    25
100
AcDbLine
 10
361.2413712229
 20
538.4307139992
 30
0.0
 11
361.2413712229
 21
541.4450847982
 31
0.0
  0
LINE
  5
13E
330
1F
100
AcDbEntity
  8
0
  6
Continuous
 62
     7
370
    25
100
AcDbLine
 10
313.2413708057
 20
563.9307135223
 30
0.0
 11
313.2413708057
 21
545.0864964603
 31
0.0
  0
ARC
  5
13F
330
1F
100
AcDbEntity
  8
0
  6
Continuous
 62
     7
370
    25
100
AcDbCircle
 10
314.7413710143
 20
563.9307069985
 30
0.0
 40
1.5
100
AcDbArc
 50
90.0
 51
180.0
  0
ARC
  5
140
330
1F
100
AcDbEntity
  8
0
  6
Continuous
 62
     7
370
    25
100
AcDbCircle
 10
360.7413710143
 20
534.9307069985
 30
0.0
 40
0.5
100
AcDbArc
 50
0.0
 51
90.0
  0
ARC
  5
141
330
1F
100
AcDbEntity
  8
0
  6
Continuous
 62
     7
370
    25
100
AcDbCircle
 10
313.7413710143
 20
534.9307069985
 30
0.0
 40
0.4999999999999432
100
AcDbArc
 50
90.0
 51
180.0
  0
ARC
  5
142
330
1F
100
AcDbEntity
  8
0
  6
Continuous
 62
     7
370
    25
100
AcDbCircle
 10
313.5413710143
 20
380.6186744776
 30
0.0
 40
0.3000000000000114
100
AcDbArc
 50
180.0
 51
270.0
  0
ARC
  5
143
330
1F
100
AcDbEntity
  8
0
  6
Continuous
 62
     7
370
    25
100
AcDbCircle
 10
360.9413710143
 20
380.6186744776
 30
0.0
 40
0.3000000000000114
100
AcDbArc
 50
270.0
 51
0.0
  0
LINE
  5
144
330
1F
100
AcDbEntity
  8
0
  6
Continuous
 62
     7
370
    25
100
AcDbLine
 10
361.2413712229
 20
521.4498573421
 30
0.0
 11
361.2413712229
 21
534.9307143568
 31
0.0
  0
LINE
  5
145
330
1F
100
AcDbEntity
  8
0
  6
Continuous
 62
     7
370
    25
100
AcDbLine
 10
361.2413712229
 20
380.6186743985
 30
0.0
 11
361.2413712229
 21
483.7351450204
 31
0.0
  0
LINE
  5
146
330
1F
100
AcDbEntity
  8
0
  6
Continuous
 62
     7
370
    25
100
AcDbLine
 10
313.2413708057
 20
534.9307143568
 30
0.0
 11
313.2413708057
 21
380.6186743985
 31
0.0
  0
ARC
  5
147
330
1F
100
AcDbEntity
  8
0
  6
Continuous
 62
     7
370
    25
100
AcDbCircle
 10
360.8383368113
 20
535.6307069985
 30
0.0
 40
0.2000000000000455
100
AcDbArc
 50
270.0
 51
0.0
  0
ARC
  5
148
330
1F
100
AcDbEntity
  8
0
  6
Continuous
 62
     7
370
    25
100
AcDbCircle
 10
313.6444052172
 20
535.6307069985
 30
0.0
 40
0.2000000000000455
100
AcDbArc
 50
180.0
 51
270.0
  0
ARC
  5
149
330
1F
100
AcDbEntity
  8
0
  6
Continuous
 62
     7
370
    25
100
AcDbCircle
 10
360.8383368113
 20
535.6307069985
 30
0.0
 40
0.2000000000000455
100
AcDbArc
 50
0.0
 51
26.6421673927
  0
ARC
  5
14A
330
1F
100
AcDbEntity
  8
0
  6
Continuous
 62
     7
370
    25
100
AcDbCircle
 10
313.6444052172
 20
535.6307069985
 30
0.0
 40
0.2000000000000487
100
AcDbArc
 50
153.3578326073
 51
180.0
  0
ARC
  5
14B
330
1F
100
AcDbEntity
  8
0
  6
Continuous
 62
     7
370
    25
100
AcDbCircle
 10
337.2413710143
 20
523.792497456
 30
0.0
 40
26.59999999999999
100
AcDbArc
 50
132.4746682198
 51
153.3578326073
  0
ARC
  5
14C
330
1F
100
AcDbEntity
  8
0
  6
Continuous
 62
     7
370
    25
100
AcDbCircle
 10
337.2413710143
 20
523.792497456
 30
0.0
 40
26.59999999999999
100
AcDbArc
 50
26.6421673927
 51
33.3881888125
  0
SPLINE
  5
14D
330
1F
100
AcDbEntity
  8
0
  6
Continuous
 62
     7
370
    25
100
AcDbSpline
210
0.0
220
0.0
230
1.0
 70
     8
 71
     3
 72
    23
 73
    19
 74
     0
 42
0.000000001
 43
0.00000001
 40
0.0
 40
0.0
 40
0.0
 40
0.0
 40
0.0850576675645133
 40
0.1524428571582223
 40
0.2047715864135853
 40
0.2514931228586225
 40
0.3006417428220013
 40
0.4021714175406079
 40
0.5044654787296997
 40
0.5805242337659053
 40
0.6561907641613994
 40
0.7258475628735285
 40
0.7582652393021497
 40
0.7893279092503808
 40
0.8236606143889748
 40
0.8689376414072882
 40
0.9268535165178536
 40
1.0
 40
1.0
 40
1.0
 40
1.0
 10
417.4948230768884
 20
488.8726332663365
 30
0.0
 10
418.7875982589449
 20
488.8744294919672
 30
0.0
 10
421.1045480185472
 20
488.8776487404497
 30
0.0
 10
424.2167021233892
 20
488.8427776766026
 30
0.0
 10
426.7457113055866
 20
488.7858053862161
 30
0.0
 10
428.9968215107362
 20
488.7064168147035
 30
0.0
 10
431.9932874753118
 20
488.554661483723
 30
0.0
 10
435.8271264807399
 20
488.2446876858123
 30
0.0
 10
440.0411149580195
 20
487.6278242277431
 30
0.0
 10
443.8028983088481
 20
486.7393615872887
 30
0.0
 10
446.9959290462029
 20
485.659848588492
 30
0.0
 10
449.4569871220153
 20
484.5342168919607
 30
0.0
 10
451.2325207613697
 20
483.5625064312234
 30
0.0
 10
452.5055139079294
 20
482.7938716910096
 30
0.0
 10
453.9090744061673
 20
481.8659321617808
 30
0.0
 10
455.5983100027895
 20
480.6336886264245
 30
0.0
 10
457.6865900042178
 20
478.9512190281356
 30
0.0
 10
459.1589678143743
 20
477.6089261215449
 30
0.0
 10
459.9807083989824
 20
476.8597864984342
 30
0.0
  0
SPLINE
  5
14E
330
1F
100
AcDbEntity
  8
0
  6
Continuous
 62
     7
370
    25
100
AcDbSpline
210
0.0
220
0.0
230
1.0
 70
     8
 71
     3
 72
    30
 73
    26
 74
     0
 42
0.000000001
 43
0.00000001
 40
0.0
 40
0.0
 40
0.0
 40
0.0
 40
0.047164523178014
 40
0.0858008599227795
 40
0.1168351765154282
 40
0.1466032794214136
 40
0.1657898603994442
 40
0.1811349025435738
 40
0.1987126489931274
 40
0.2184632613948768
 40
0.2403409330373735
 40
0.2643251862507512
 40
0.3430590789896908
 40
0.4209086159286628
 40
0.5004734814280638
 40
0.5902393969315907
 40
0.6784429778756244
 40
0.7629765664510516
 40
0.7895223869684891
 40
0.8148340004276278
 40
0.8387768062260879
 40
0.8650683687323688
 40
0.9000450279334942
 40
0.9446432293632817
 40
1.0
 40
1.0
 40
1.0
 40
1.0
 10
478.5614207770074
 20
496.7851647614308
 30
0.0
 10
477.7962881322523
 20
497.4911752198146
 30
0.0
 10
476.4043724623492
 20
498.7755368620424
 30
0.0
 10
474.4622308569335
 20
500.4726685768966
 30
0.0
 10
472.7796263173323
 20
501.8822647187309
 30
0.0
 10
471.4007361592082
 20
502.9852511215169
 30
0.0
 10
470.2744517976245
 20
503.8489656784004
 30
0.0
 10
469.3508255984843
 20
504.5345020895188
 30
0.0
 10
468.4063159910315
 20
505.2125835735901
 30
0.0
 10
467.3302576633743
 20
505.9543149311265
 30
0.0
 10
466.1193202048306
 20
506.7490278850477
 30
0.0
 10
463.7806778623382
 20
508.1964761901957
 30
0.0
 10
460.2583743508989
 20
510.0783964174075
 30
0.0
 10
455.4187552937253
 20
512.0389287178461
 30
0.0
 10
450.1756635776732
 20
513.5763010420047
 30
0.0
 10
444.5943735727997
 20
514.6879569635961
 30
0.0
 10
438.84464015281
 20
515.427963234402
 30
0.0
 10
434.4590510754152
 20
515.782599235242
 30
0.0
 10
431.4537371991141
 20
515.9598910542601
 30
0.0
 10
429.7826548058968
 20
516.0430229840296
 30
0.0
 10
428.1165880598755
 20
516.1127012528392
 30
0.0
 10
426.2368446369816
 20
516.177592655276
 30
0.0
 10
423.9008645066685
 20
516.2391354947358
 30
0.0
 10
420.9229540666937
 20
516.292069300546
 30
0.0
 10
418.7166898695231
 20
516.3051241798731
 30
0.0
 10
417.4948230768884
 20
516.3123541950056
 30
0.0
  0
ARC
  5
14F
330
1F
100
AcDbEntity
  8
0
  6
Continuous
 62
     7
370
    25
100
AcDbCircle
 10
472.8833198661
 20
481.8760137222
 30
0.0
 40
7.000000000000069
100
AcDbArc
 50
10.398450401
 51
18.250659153
  0
SPLINE
  5
150
330
1F
100
AcDbEntity
  8
0
  6
Continuous
 62
     7
370
    25
100
AcDbSpline
210
0.0
220
0.0
230
1.0
 70
     8
 71
     3
 72
    13
 73
     9
 74
     0
 42
0.000000001
 43
0.00000001
 40
0.0
 40
0.0
 40
0.0
 40
0.0
 40
0.2394823331271997
 40
0.3683761462814298
 40
0.4999985742941367
 40
0.6316232724075266
 40
0.760518669510871
 40
1.0
 40
1.0
 40
1.0
 40
1.0
 10
361.2413712228978
 20
550.4998797057935
 30
0.0
 10
361.2743904699863
 20
550.8111668488963
 30
0.0
 10
361.3251812854787
 20
551.2899944795853
 30
0.0
 10
361.6334148740381
 20
551.8661934393898
 30
0.0
 10
361.9524265022874
 20
552.2627769035606
 30
0.0
 10
362.348455382021
 20
552.5824803179903
 30
0.0
 10
362.9241196544291
 20
552.8917184305394
 30
0.0
 10
363.4028577019019
 20
552.9433493952962
 30
0.0
 10
363.7140848125661
 20
552.976914632208
 30
0.0
  0
SPLINE
  5
151
330
1F
100
AcDbEntity
  8
0
  6
Continuous
 62
     7
370
    25
100
AcDbSpline
210
0.0
220
0.0
230
1.0
 70
     8
 71
     3
 72
    13
 73
     9
 74
     0
 42
0.000000001
 43
0.00000001
 40
0.0
 40
0.0
 40
0.0
 40
0.0
 40
0.2602922580821875
 40
0.4003889414352692
 40
0.543449467277789
 40
0.6865134146702103
 40
0.8266083759887576
 40
1.0
 40
1.0
 40
1.0
 40
1.0
 10
363.714082949921
 20
561.8845009683439
 30
0.0
 10
363.402831866289
 20
561.9180582168793
 30
0.0
 10
362.9240566126024
 20
561.9696769293129
 30
0.0
 10
362.3485815005743
 20
562.2789743094579
 30
0.0
 10
361.9519451991343
 20
562.5984781810052
 30
0.0
 10
361.6351645569298
 20
562.9957591942051
 30
0.0
 10
361.3674715078823
 20
563.4771252280178
 30
0.0
 10
361.3235895380659
 20
563.8507587695691
 30
0.0
 10
361.2993181134904
 20
564.0574180959532
 30
0.0
  0
LINE
  5
152
330
1F
100
AcDbEntity
  8
0
  6
Continuous
 62
     7
370
    25
100
AcDbLine
 10
363.7137793388
 20
552.9769146322
 30
0.0
 11
435.7439920689
 21
553.102620828
 31
0.0
  0
LINE
  5
153
330
1F
100
AcDbEntity
  8
0
  6
Continuous
 62
     7
370
    25
100
AcDbLine
 10
435.7439920689
 20
561.7587947725
 30
0.0
 11
363.7138259049
 21
561.8845009683
 31
0.0
  0
ARC
  5
154
330
1F
100
AcDbEntity
  8
0
  6
Continuous
 62
     7
370
    25
100
AcDbCircle
 10
435.7413710143
 20
560.258789608
 30
0.0
 40
1.500000000000057
100
AcDbArc
 50
0.0
 51
89.9
  0
ARC
  5
155
330
1F
100
AcDbEntity
  8
0
  6
Continuous
 62
     7
370
    25
100
AcDbCircle
 10
435.7413710143
 20
554.602624389
 30
0.0
 40
1.500000000000069
100
AcDbArc
 50
270.1
 51
0.0
  0
LINE
  5
156
330
1F
100
AcDbEntity
  8
0
  6
Continuous
 62
     7
370
    25
100
AcDbLine
 10
361.2390764441
 20
541.4307051777
 30
0.0
 11
361.5913715597
 21
541.4307051777
 31
0.0
  0
LINE
  5
157
330
1F
100
AcDbEntity
  8
0
  6
Continuous
 62
     7
370
    25
100
AcDbLine
 10
361.5913715597
 20
549.430706489
 30
0.0
 11
361.2322684761
 21
549.430706489
 31
0.0
  0
LINE
  5
158
330
1F
100
AcDbEntity
  8
0
  6
Continuous
 62
     7
370
    25
100
AcDbLine
 10
361.5913715597
 20
541.4307051777
 30
0.0
 11
362.1919181581
 21
541.6492903112
 31
0.0
  0
LINE
  5
159
330
1F
100
AcDbEntity
  8
0
  6
Continuous
 62
     7
370
    25
100
AcDbLine
 10
362.1919181581
 20
549.2121213554
 30
0.0
 11
361.5913715597
 21
549.430706489
 31
0.0
  0
ARC
  5
15A
330
1F
100
AcDbEntity
  8
0
  6
Continuous
 62
     7
370
    25
100
AcDbCircle
 10
362.1235143555
 20
549.0241871074
 30
0.0
 40
0.2000000000000455
100
AcDbArc
 50
0.0
 51
70.0
  0
ARC
  5
15B
330
1F
100
AcDbEntity
  8
0
  6
Continuous
 62
     7
370
    25
100
AcDbCircle
 10
362.1235143555
 20
541.8372268896
 30
0.0
 40
0.2000000000000455
100
AcDbArc
 50
290.0
 51
0.0
  0
LINE
  5
15C
330
1F
100
AcDbEntity
  8
0
  6
Continuous
 62
     7
370
    25
100
AcDbLine
 10
362.3235140379
 20
541.8372237562
 30
0.0
 11
362.3235140379
 21
549.0241879104
 31
0.0
  0
ARC
  5
15D
330
1F
100
AcDbEntity
  8
0
  6
Continuous
 62
     7
370
    25
100
AcDbCircle
 10
359.7642999595
 20
563.930735226
 30
0.0
 40
1.499966103984546
100
AcDbArc
 50
4.3234650483
 51
91.1836122228
  0
SPLINE
  5
15E
330
1F
100
AcDbEntity
  8
0
  6
Continuous
 62
     7
370
    25
100
AcDbSpline
210
0.0
220
0.0
230
1.0
 70
     8
 71
     3
 72
    14
 73
    10
 74
     0
 42
0.000000001
 43
0.00000001
 40
0.0
 40
0.0
 40
0.0
 40
0.0
 40
0.25
 40
0.25
 40
0.5
 40
0.5
 40
0.75
 40
0.75
 40
1.0
 40
1.0
 40
1.0
 40
1.0
 10
331.9693648787299
 20
539.8927636963284
 30
0.0
 10
332.8340675589081
 20
539.6529604198048
 30
0.0
 10
333.7067233374463
 20
539.4131658546029
 30
0.0
 10
335.4851873390299
 20
538.9999271301527
 30
0.0
 10
336.3840774591487
 20
538.8273423674185
 30
0.0
 10
338.2035074558896
 20
538.5807997585101
 30
0.0
 10
339.1135759537268
 20
538.5082642501992
 30
0.0
 10
340.9206149191935
 20
538.4328705994373
 30
0.0
 10
341.8195996542511
 20
538.4307069985058
 30
0.0
 10
342.7123542095778
 20
538.4307069985058
 30
0.0
  0
LWPOLYLINE
  5
15F
330
1F
100
AcDbEntity
  8
0
  6
Continuous
 62
     7
370
    25
100
AcDbPolyline
 90
       14
 70
   128
 43
0.0
 10
331.9693648639
 20
539.8927563309
 10
329.5718849088
 20
540.5576461433
 10
327.2569550584
 20
541.199632871
 10
325.0494942452
 20
541.8118172764
 10
322.973260508
 20
542.3875981449
 10
321.0506018634
 20
542.9208063959
 10
319.3022132303
 20
543.40567528
 10
317.7469138439
 20
543.8370042919
 10
316.4014451589
 20
544.2101293682
 10
315.2802873786
 20
544.5210569977
 10
314.3955067183
 20
544.7664195179
 10
313.756630608
 20
544.9436092256
 10
313.3705340709
 20
545.0506740688
 10
313.2413708057
 20
545.0864964603
  0
LINE
  5
160
330
1F
100
AcDbEntity
  8
0
  6
Continuous
 62
     7
370
    25
100
AcDbLine
 10
342.7123542327
 20
538.4307139992
 30
0.0
 11
361.2413712229
 21
538.4307139992
 31
0.0
  0
SPLINE
  5
161
330
1F
100
AcDbEntity
  8
0
  6
Continuous
 62
     7
370
    25
100
AcDbSpline
210
0.0
220
0.0
230
1.0
 70
     8
 71
     3
 72
    11
 73
     7
 74
     0
 42
0.000000001
 43
0.00000001
 40
0.0
 40
0.0
 40
0.0
 40
0.0
 40
0.2800170363048095
 40
0.559980983414935
 40
0.8406126978352706
 40
1.0
 40
1.0
 40
1.0
 40
1.0
 10
360.9483939047302
 20
546.8530142186949
 30
0.0
 10
360.9795314013057
 20
547.2593464464077
 30
0.0
 10
361.0418004910138
 20
548.0719338641966
 30
0.0
 10
361.1605870992944
 20
548.9294858139895
 30
0.0
 10
361.2364327852351
 20
549.4023193468619
 30
0.0
 10
361.2333716996721
 20
549.3827391852999
 30
0.0
 10
361.2322628881181
 20
549.3756466983625
 30
0.0
  0
SPLINE
  5
162
330
1F
100
AcDbEntity
  8
0
  6
Continuous
 62
     7
370
    25
100
AcDbSpline
210
0.0
220
0.0
230
1.0
 70
     8
 71
     3
 72
    14
 73
    10
 74
     0
 42
0.000000001
 43
0.00000001
 40
0.0
 40
0.0
 40
0.0
 40
0.0
 40
0.0118900542338548
 40
0.1839938005627975
 40
0.3562047581088191
 40
0.530481312406989
 40
0.7056487633334974
 40
0.8790731611514654
 40
1.0
 40
1.0
 40
1.0
 40
1.0
 10
361.2390280153001
 20
541.4450847982237
 30
0.0
 10
361.2398018871428
 20
541.4403337251781
 30
0.0
 10
361.2517772422326
 20
541.3668127832879
 30
0.0
 10
361.2055284008398
 20
541.6425358556565
 30
0.0
 10
361.1097813258829
 20
542.2801046965066
 30
0.0
 10
360.9897316564178
 20
543.3208723174488
 30
0.0
 10
360.9084406741209
 20
544.5886425235891
 30
0.0
 10
360.8977820435344
 20
545.8277490819406
 30
0.0
 10
360.9336559911646
 20
546.5544622861963
 30
0.0
 10
360.9483939047302
 20
546.8530142186949
 30
0.0
  0
LINE
  5
163
330
1F
100
AcDbEntity
  8
0
  6
Continuous
 62
     7
370
    25
100
AcDbLine
 10
314.7413701202
 20
565.4307091116
 30
0.0
 11
359.6387084957
 21
565.4307091116
 31
0.0
  0
LINE
  5
164
330
1F
100
AcDbEntity
  8
0
  6
Continuous
 62
     7
370
    25
100
AcDbLine
 10
360.9413717325
 20
380.3186744424
 30
0.0
 11
313.541370296
 21
380.3186744424
 31
0.0
  0
LINE
  5
165
330
1F
100
AcDbEntity
  8
0
  6
Continuous
 62
     7
370
    25
100
AcDbLine
 10
360.8383376534
 20
535.4307079195
 30
0.0
 11
313.6444043751
 21
535.4307079195
 31
0.0
  0
ARC
  5
166
330
1F
100
AcDbEntity
  8
0
  6
Continuous
 62
     7
370
    25
100
AcDbCircle
 10
366.1997800867
 20
521.4498524094
 30
0.0
 40
4.958409072396731
100
AcDbArc
 50
180.0
 51
269.8
  0
ARC
  5
167
330
1F
100
AcDbEntity
  8
0
  6
Continuous
 62
     7
370
    25
100
AcDbCircle
 10
366.1997800867
 20
483.7351425025
 30
0.0
 40
4.958409072396591
100
AcDbArc
 50
90.2
 51
180.0
  0
LINE
  5
168
330
1F
100
AcDbEntity
  8
0
  6
Continuous
 62
     7
370
    25
100
AcDbLine
 10
417.4948230769
 20
488.8726332663
 30
0.0
 11
366.1824714776
 21
488.6935213088
 31
0.0
  0
LINE
  5
169
330
1F
100
AcDbEntity
  8
0
  6
Continuous
 62
     7
370
    25
100
AcDbLine
 10
366.1824714776
 20
516.4914661526
 30
0.0
 11
417.4948230769
 21
516.312354195
 31
0.0
  0
LINE
  5
16A
330
1F
100
AcDbEntity
  8
0
  6
Continuous
 62
     7
370
    25
100
AcDbLine
 10
478.561420777
 20
496.7851647614
 30
0.0
 11
485.1555422332
 21
490.6360515832
 31
0.0
  0
LINE
  5
16B
330
1F
100
AcDbEntity
  8
0
  6
Continuous
 62
     7
370
    25
100
AcDbLine
 10
463.4483054663
 20
473.6261898159
 30
0.0
 11
459.980708399
 21
476.8597864984
 31
0.0
  0
ARC
  5
16C
330
1F
100
AcDbEntity
  8
0
  6
Continuous
 62
     7
370
    25
100
AcDbCircle
 10
484.1325397261
 20
489.5390207304
 30
0.0
 40
1.500000000000117
100
AcDbArc
 50
307.0
 51
47.0
  0
LWPOLYLINE
  5
16D
330
1F
100
AcDbEntity
  8
0
  6
Continuous
 62
     7
370
    25
100
AcDbPolyline
 90
       22
 70
   128
 43
0.0
 10
485.03526006
 20
488.3410641431
 10
484.9254683043
 20
488.2583254455
 10
484.5985219266
 20
488.0119570969
 10
484.0617224957
 20
487.6074576258
 10
483.3270803477
 20
487.0538645862
 10
482.411001661
 20
486.3635459422
 10
481.3339308287
 20
485.5519169449
 10
480.1199481274
 20
484.637119758
 10
478.7961736705
 20
483.6395764231
 10
477.3921713616
 20
482.5815790771
 10
475.939293244
 20
481.4867609619
 10
474.470008948
 20
480.3795748829
 10
473.0171308305
 20
479.2847567676
 10
471.6131136204
 20
478.2267594217
 10
470.2893391635
 20
477.2292160868
 10
469.0753564622
 20
476.3144188999
 10
467.9983005311
 20
475.5027899026
 10
467.0822069432
 20
474.8124712585
 10
466.3475647952
 20
474.258878219
 10
465.8107802655
 20
473.8543787478
 10
465.4838338877
 20
473.6080103992
 10
465.3740272309
 20
473.5252642511
  0
ARC
  5
16E
330
1F
100
AcDbEntity
  8
0
  6
Continuous
 62
     7
370
    25
100
AcDbCircle
 10
464.4713094187
 20
474.7232210023
 30
0.0
 40
1.500000000000145
100
AcDbArc
 50
227.0
 51
307.0
  0
LINE
  5
16F
330
1F
100
AcDbEntity
  8
0
  6
Continuous
 62
     7
370
    25
100
AcDbLine
 10
480.4402485873
 20
484.8784738659
 30
0.0
 11
480.5004194762
 21
484.7986110925
 31
0.0
  0
LINE
  5
170
330
1F
100
AcDbEntity
  8
0
  6
Continuous
 62
     7
370
    25
100
AcDbLine
 10
481.564600804
 20
485.7257389902
 30
0.0
 11
481.6247865941
 21
485.6458762168
 31
0.0
  0
LWPOLYLINE
  5
171
330
1F
100
AcDbEntity
  8
0
  6
Continuous
 62
     7
370
    25
100
AcDbPolyline
 90
        9
 70
   128
 43
0.0
 10
481.6247865941
 20
485.6458762168
 10
481.621821263
 20
485.6436410426
 10
481.6129550721
 20
485.6369578718
 10
481.5981731202
 20
485.6258192538
 10
481.5774903084
 20
485.6102326392
 10
481.5509364392
 20
485.5902203797
 10
481.5185115124
 20
485.5657973765
 10
481.4802751328
 20
485.5369785308
 10
481.4362273003
 20
485.5037787436
  0
LINE
  5
172
330
1F
100
AcDbEntity
  8
0
  6
Continuous
 62
     7
370
    25
100
AcDbLine
 10
481.3760415103
 20
485.583641517
 30
0.0
 11
481.4362273003
 21
485.5037787436
 31
0.0
  0
LINE
  5
173
330
1F
100
AcDbEntity
  8
0
  6
Continuous
 62
     7
370
    25
100
AcDbLine
 10
479.400892594
 20
484.0952613829
 30
0.0
 11
479.4610634829
 21
484.0153986095
 31
0.0
  0
LWPOLYLINE
  5
174
330
1F
100
AcDbEntity
  8
0
  6
Continuous
 62
     7
370
    25
100
AcDbPolyline
 90
        9
 70
   128
 43
0.0
 10
479.4610634829
 20
484.0153986095
 10
479.3111578013
 20
483.9024254559
 10
479.1571692015
 20
483.7863901137
 10
478.9992466952
 20
483.6673894404
 10
478.8375094916
 20
483.545512843
 10
478.6720768
 20
483.4208571791
 10
478.5031125333
 20
483.2935267567
 10
478.3307209994
 20
483.1636184334
 10
478.1550512101
 20
483.0312365173
  0
LINE
  5
175
330
1F
100
AcDbEntity
  8
0
  6
Continuous
 62
     7
370
    25
100
AcDbLine
 10
478.09486542
 20
483.1111067413
 30
0.0
 11
478.1550512101
 21
483.0312365173
 31
0.0
  0
LWPOLYLINE
  5
176
330
1F
100
AcDbEntity
  8
0
  6
Continuous
 62
     7
370
    25
100
AcDbPolyline
 90
        9
 70
   128
 43
0.0
 10
474.2374018218
 20
480.0790855168
 10
474.0283385302
 20
479.9215504407
 10
473.8194540526
 20
479.7641345738
 10
473.6108974005
 20
479.6069794773
 10
473.402847388
 20
479.4501969098
 10
473.1954530265
 20
479.2939209818
 10
472.9889080312
 20
479.1382783531
 10
472.7833614136
 20
478.9833807825
 10
472.5789770867
 20
478.8293623804
  0
LINE
  5
177
330
1F
100
AcDbEntity
  8
0
  6
Continuous
 62
     7
370
    25
100
AcDbLine
 10
472.5187912966
 20
478.9092251538
 30
0.0
 11
472.5789770867
 21
478.8293623804
 31
0.0
  0
LINE
  5
178
330
1F
100
AcDbEntity
  8
0
  6
Continuous
 62
     7
370
    25
100
AcDbLine
 10
468.9535543706
 20
476.2226351975
 30
0.0
 11
469.0137401606
 21
476.1427724241
 31
0.0
  0
LWPOLYLINE
  5
179
330
1F
100
AcDbEntity
  8
0
  6
Continuous
 62
     7
370
    25
100
AcDbPolyline
 90
        9
 70
   128
 43
0.0
 10
469.0137401606
 20
476.1427724241
 10
468.8680068042
 20
476.0329508661
 10
468.7265649821
 20
475.9263703107
 10
468.5895488049
 20
475.8231201648
 10
468.4570625807
 20
475.7232823848
 10
468.3291957165
 20
475.6269240259
 10
468.2060525204
 20
475.5341419457
 10
468.0877522017
 20
475.4449957489
 10
467.9743841674
 20
475.3595599412
  0
LINE
  5
17A
330
1F
100
AcDbEntity
  8
0
  6
Continuous
 62
     7
370
    25
100
AcDbLine
 10
467.9141983773
 20
475.4394227146
 30
0.0
 11
467.9743841674
 21
475.3595599412
 31
0.0
  0
LINE
  5
17B
330
1F
100
AcDbEntity
  8
0
  6
Continuous
 62
     7
370
    25
100
AcDbLine
 10
474.1772160317
 20
480.1589482902
 30
0.0
 11
474.2374018218
 21
480.0790855168
 31
0.0
  0
LINE
  5
17C
330
1F
100
AcDbEntity
  8
0
  6
Continuous
 62
     7
370
    25
100
AcDbLine
 10
477.7315155055
 20
482.7120908974
 30
0.0
 11
478.1550512101
 21
483.0312365173
 31
0.0
  0
LINE
  5
17D
330
1F
100
AcDbEntity
  8
0
  6
Continuous
 62
     7
370
    25
100
AcDbLine
 10
477.6713297154
 20
482.7919536709
 30
0.0
 11
477.7315155055
 21
482.7120908974
 31
0.0
  0
LWPOLYLINE
  5
17E
330
1F
100
AcDbEntity
  8
0
  6
Continuous
 62
     7
370
    25
100
AcDbPolyline
 90
        9
 70
   128
 43
0.0
 10
474.7168764855
 20
480.5656009792
 10
475.1658484723
 20
480.7943710564
 10
476.3263956095
 20
481.3856938361
 10
477.3797735955
 20
481.9224187611
 10
478.2814726617
 20
482.3818588137
 10
478.9933756377
 20
482.74459033
 10
479.485382178
 20
482.9952800154
 10
479.7366902615
 20
483.1233256935
 10
479.7683552291
 20
483.1394636511
  0
LINE
  5
17F
330
1F
100
AcDbEntity
  8
0
  6
Continuous
 62
     7
370
    25
100
AcDbLine
 10
469.5784643676
 20
476.5683197855
 30
0.0
 11
469.5182785775
 21
476.6481825589
 31
0.0
  0
LINE
  5
180
330
1F
100
AcDbEntity
  8
0
  6
Continuous
 62
     7
370
    25
100
AcDbLine
 10
469.0137401606
 20
476.1427724241
 30
0.0
 11
469.5784643676
 21
476.5683197855
 31
0.0
  0
LINE
  5
181
330
1F
100
AcDbEntity
  8
0
  6
Continuous
 62
     7
370
    25
100
AcDbLine
 10
437.2413725044
 20
560.2587842821
 30
0.0
 11
437.2413725044
 21
554.6026313185
 31
0.0
  0
LINE
  5
182
330
1F
100
AcDbEntity
  8
0
  6
Continuous
 62
     7
370
    25
100
AcDbLine
 10
361.5913715597
 20
546.8530142187
 30
0.0
 11
361.5913715597
 21
549.430706489
 31
0.0
  0
LINE
  5
183
330
1F
100
AcDbEntity
  8
0
  6
Continuous
 62
     7
370
    25
100
AcDbLine
 10
361.5913715597
 20
541.4307051777
 30
0.0
 11
361.5913715597
 21
546.8530142187
 31
0.0
  0
LINE
  5
184
330
1F
100
AcDbEntity
  8
0
  6
Continuous
 62
     7
370
    25
100
AcDbLine
 10
480.5977836634
 20
484.9971914171
 30
0.0
 11
480.6579694535
 21
484.9173286437
 31
0.0
  0
LINE
  5
185
330
1F
100
AcDbEntity
  8
0
  6
Continuous
 62
     7
370
    25
100
AcDbLine
 10
480.6579694535
 20
484.9173286437
 30
0.0
 11
481.4362273003
 21
485.5037787436
 31
0.0
  0
LINE
  5
186
330
1F
100
AcDbEntity
  8
0
  6
Continuous
 62
     7
370
    25
100
AcDbLine
 10
466.7898461606
 20
474.5921575903
 30
0.0
 11
466.8500319506
 21
474.5122948169
 31
0.0
  0
LINE
  5
187
330
1F
100
AcDbEntity
  8
0
  6
Continuous
 62
     7
370
    25
100
AcDbLine
 10
467.6486596848
 20
475.114108014
 30
0.0
 11
467.5884738948
 21
475.1939707874
 31
0.0
  0
LINE
  5
188
330
1F
100
AcDbEntity
  8
0
  6
Continuous
 62
     7
370
    25
100
AcDbLine
 10
466.8500319506
 20
474.5122948169
 30
0.0
 11
467.6486596848
 21
475.114108014
 31
0.0
  0
LINE
  5
189
330
1F
100
AcDbEntity
  8
0
  6
Continuous
 62
     7
370
    25
100
AcDbLine
 10
467.7566633012
 20
475.3207051634
 30
0.0
 11
467.8168341901
 21
475.2408423899
 31
0.0
  0
LWPOLYLINE
  5
18A
330
1F
100
AcDbEntity
  8
0
  6
Continuous
 62
     7
370
    25
100
AcDbPolyline
 90
        9
 70
   128
 43
0.0
 10
467.6486596848
 20
475.114108014
 10
467.6512971904
 20
475.116097319
 10
467.6592097069
 20
475.1220652341
 10
467.6723972346
 20
475.131996858
 10
467.6908448722
 20
475.1458921908
 10
467.7145228173
 20
475.1637437819
 10
467.74343107
 20
475.1855292796
 10
467.7775547291
 20
475.2112337827
 10
467.8168341901
 20
475.2408423899
  0
LINE
  5
18B
330
1F
100
AcDbEntity
  8
0
  6
Continuous
 62
     7
370
    25
100
AcDbLine
 10
479.8233405139
 20
484.2883878826
 30
0.0
 11
480.5004194762
 21
484.7986110925
 31
0.0
  0
LINE
  5
18C
330
1F
100
AcDbEntity
  8
0
  6
Continuous
 62
     7
370
    25
100
AcDbLine
 10
479.7631547238
 20
484.368250656
 30
0.0
 11
479.8233405139
 21
484.2883878826
 31
0.0
  0
LWPOLYLINE
  5
18D
330
1F
100
AcDbEntity
  8
0
  6
Continuous
 62
     7
370
    25
100
AcDbPolyline
 90
        4
 70
   128
 43
0.0
 10
479.5311883475
 20
484.0682381271
 10
479.6167061116
 20
484.1326856493
 10
479.722221234
 20
484.2121907948
 10
479.8233405139
 20
484.2883878826
  0
LINE
  5
18E
330
1F
100
AcDbEntity
  8
0
  6
Continuous
 62
     7
370
    25
100
AcDbLine
 10
470.683102348
 20
477.5259429096
 30
0.0
 11
470.7432881381
 21
477.4460801362
 31
0.0
  0
LWPOLYLINE
  5
18F
330
1F
100
AcDbEntity
  8
0
  6
Continuous
 62
     7
370
    25
100
AcDbPolyline
 90
        9
 70
   128
 43
0.0
 10
469.5784643676
 20
476.5683197855
 10
469.7121724869
 20
476.6690739869
 10
469.8495015885
 20
476.7725625514
 10
469.9903622653
 20
476.8787035226
 10
470.1346055056
 20
476.9874074935
 10
470.2821419026
 20
477.0985850571
 10
470.4328522469
 20
477.2121542572
 10
470.5866173293
 20
477.3280107855
 10
470.7432881381
 20
477.4460801362
  0
SPLINE
  5
190
330
1F
100
AcDbEntity
  8
0
  6
Continuous
 62
     8
370
    18
100
AcDbSpline
210
0.0
220
0.0
230
1.0
 70
     8
 71
     3
 72
    23
 73
    19
 74
     0
 42
0.000000001
 43
0.00000001
 40
0.0
 40
0.0
 40
0.0
 40
0.0
 40
0.0008788690774479
 40
0.0701455659158794
 40
0.13986370376631
 40
0.2090415905854861
 40
0.2789316762535177
 40
0.3485740614678408
 40
0.4196432671229509
 40
0.4915248290636544
 40
0.562426513321986
 40
0.6340048360663526
 40
0.7055599620175934
 40
0.776152529205063
 40
0.8464368473823713
 40
0.9163273346080133
 40
0.9855524145263777
 40
1.0
 40
1.0
 40
1.0
 40
1.0
 10
361.2409260507072
 20
550.5015784381696
 30
0.0
 10
361.241074308962
 20
550.5010106351235
 30
0.0
 10
361.2529073105497
 20
550.455692319775
 30
0.0
 10
361.2105736719363
 20
550.6140018986304
 30
0.0
 10
361.1131974012262
 20
551.0018933522782
 30
0.0
 10
360.9572806430091
 20
551.6626251613623
 30
0.0
 10
360.7793847060818
 20
552.5315012886333
 30
0.0
 10
360.6011930343003
 20
553.5858361723476
 30
0.0
 10
360.4521044569881
 20
554.7909740984329
 30
0.0
 10
360.3488907620635
 20
556.0922292798716
 30
0.0
 10
360.3137815149448
 20
557.44810015274
 30
0.0
 10
360.3495666862692
 20
558.801547808941
 30
0.0
 10
360.4527950483293
 20
560.1022055040498
 30
0.0
 10
360.6041289566959
 20
561.3017208584663
 30
0.0
 10
360.7834981176817
 20
562.350480641998
 30
0.0
 10
360.96166823508
 20
563.2186386926319
 30
0.0
 10
361.0752255619193
 20
563.6989847726512
 30
0.0
 10
361.1235882694083
 20
563.8968470728299
 30
0.0
 10
361.1319389577354
 20
563.9310115455457
 30
0.0
  0
SPLINE
  5
191
330
1F
100
AcDbEntity
  8
0
  6
Continuous
 62
     8
370
    18
100
AcDbSpline
210
0.0
220
0.0
230
1.0
 70
     8
 71
     3
 72
    14
 73
    10
 74
     0
 42
0.000000001
 43
0.00000001
 40
0.0
 40
0.0
 40
0.0
 40
0.0
 40
0.25
 40
0.25
 40
0.5
 40
0.5
 40
0.75
 40
0.75
 40
1.0
 40
1.0
 40
1.0
 40
1.0
 10
359.6386412799571
 20
565.4307069980609
 30
0.0
 10
359.8340750368585
 20
565.4307022168925
 30
0.0
 10
360.0294309968953
 20
565.3916678536095
 30
0.0
 10
360.3905503230627
 20
565.2414218133538
 30
0.0
 10
360.5561716858228
 20
565.1302692178052
 30
0.0
 10
360.8325813359405
 20
564.8526537837287
 30
0.0
 10
360.9432609304116
 20
564.6863001122388
 30
0.0
 10
361.0928920239691
 20
564.3235676822555
 30
0.0
 10
361.1317846834473
 20
564.127331561455
 30
0.0
 10
361.1318242065973
 20
563.9310103479677
 30
0.0
  0
LINE
  5
192
330
1F
100
AcDbEntity
  8
0
  6
Continuous
 62
     8
370
    18
100
AcDbLine
 10
313.2413708057
 20
380.6186743985
 30
0.0
 11
361.2413712229
 21
380.6186743985
 31
0.0
  0
SPLINE
  5
193
330
1F
100
AcDbEntity
  8
0
  6
Continuous
 62
     8
370
    18
100
AcDbSpline
210
0.0
220
0.0
230
1.0
 70
     8
 71
     3
 72
    51
 73
    47
 74
     0
 42
0.000000001
 43
0.00000001
 40
0.0
 40
0.0
 40
0.0
 40
0.0
 40
0.0064481236269583
 40
0.0128865905689032
 40
0.0193189808653557
 40
0.0257488847059177
 40
0.0321798964444856
 40
0.0386156085786837
 40
0.0450596057448088
 40
0.0515154587783024
 40
0.0579867188884792
 40
0.0644769119940559
 40
0.0709895332629909
 40
0.0775280418963459
 40
0.0840958561914871
 40
0.0906963489150479
 40
0.0973328430108461
 40
0.1040086076625544
 40
0.1107268547254605
 40
0.1396099723023932
 40
0.1687003391313578
 40
0.1982280827363043
 40
0.2284133339390112
 40
0.292915289956678
 40
0.3563561245998269
 40
0.4050711963747763
 40
0.4525789242280397
 40
0.5000728860776713
 40
0.5476629704320302
 40
0.5952793311671546
 40
0.6441236652252801
 40
0.7075121910286731
 40
0.7719665068052061
 40
0.8019981161467983
 40
0.8313824877144703
 40
0.8603366484024949
 40
0.8890873639680457
 40
0.9017628260649256
 40
0.9142965034830547
 40
0.9267106640532249
 40
0.939028223814602
 40
0.9512726411974683
 40
0.9634677967257487
 40
0.9756378609161735
 40
0.987807153794184
 40
1.0
 40
1.0
 40
1.0
 40
1.0
 10
361.2413710142816
 20
483.7351425025073
 30
0.0
 10
361.2408093482976
 20
483.7359926598806
 30
0.0
 10
361.2396868574784
 20
483.7376917014347
 30
0.0
 10
361.230623489628
 20
483.751389535551
 30
0.0
 10
361.2162021306271
 20
483.7732544864318
 30
0.0
 10
361.1959319913897
 20
483.8040834261421
 30
0.0
 10
361.1699954929161
 20
483.8436630556803
 30
0.0
 10
361.1383964448736
 20
483.8920504474477
 30
0.0
 10
361.1011880719929
 20
483.9492301966044
 30
0.0
 10
361.0584118726113
 20
484.0152062928339
 30
0.0
 10
361.0101139773593
 20
484.0899774843806
 30
0.0
 10
360.9563407162271
 20
484.1735438908514
 30
0.0
 10
360.8971397787117
 20
484.2659052392219
 30
0.0
 10
360.8325598272032
 20
484.3670613071163
 30
0.0
 10
360.7626506907695
 20
484.4770119372944
 30
0.0
 10
360.6874627844061
 20
484.5957565498965
 30
0.0
 10
360.6070490619201
 20
484.723296113144
 30
0.0
 10
360.5214575379748
 20
484.8596257103036
 30
0.0
 10
360.3312361937946
 20
485.1640210820232
 30
0.0
 10
360.0022632500749
 20
485.6950846335507
 30
0.0
 10
359.4914978205858
 20
486.5483149917595
 30
0.0
 10
358.9238458961226
 20
487.5418848728177
 30
0.0
 10
358.085835443482
 20
489.0922071449053
 30
0.0
 10
356.9711526361747
 20
491.3528942495941
 30
0.0
 10
355.8535015247113
 20
494.2646330886988
 30
0.0
 10
355.0656700138049
 20
497.1234945816162
 30
0.0
 10
354.6121078080374
 20
499.8365039976397
 30
0.0
 10
354.4619612100804
 20
502.5983556111439
 30
0.0
 10
354.6132886103995
 20
505.3622667954439
 30
0.0
 10
355.0697635910903
 20
508.0809479260197
 30
0.0
 10
355.860613398987
 20
510.9416336341051
 30
0.0
 10
356.9798384465341
 20
513.8514600592392
 30
0.0
 10
358.0928467399499
 20
516.1062572561127
 30
0.0
 10
358.9281777359856
 20
517.6507694460362
 30
0.0
 10
359.4928459200563
 20
518.6388331396928
 30
0.0
 10
360.0011808501215
 20
519.4879917358694
 30
0.0
 10
360.3592870390762
 20
520.0662944597186
 30
0.0
 10
360.5971981029168
 20
520.4463436409919
 30
0.0
 10
360.7464905004665
 20
520.682762902431
 30
0.0
 10
360.8769090980728
 20
520.8876786971903
 30
0.0
 10
360.9881288639653
 20
521.0610824698074
 30
0.0
 10
361.0797750978742
 20
521.2029180398432
 30
0.0
 10
361.1516655684807
 20
521.313385678317
 30
0.0
 10
361.2029863653639
 20
521.3917180005132
 30
0.0
 10
361.235346014575
 20
521.4407643609131
 30
0.0
 10
361.2393613870247
 20
521.4468211080259
 30
0.0
 10
361.2413710142816
 20
521.4498524094154
 30
0.0
  0
LWPOLYLINE
  5
194
330
1F
100
AcDbEntity
  8
0
  6
Continuous
 62
     8
370
    18
100
AcDbPolyline
 90
        5
 70
   128
 43
0.0
 10
361.2157356377
 20
564.0414887546
 10
361.2419821705
 20
564.0760892509
 10
361.1319557215
 20
563.9310264467
 10
361.1319501336
 20
563.9310115455
 10
361.1319501336
 20
563.9310115455
  0
SPLINE
  5
195
330
1F
100
AcDbEntity
  8
0
  6
Continuous
 62
     7
370
    25
100
AcDbSpline
210
0.0
220
0.0
230
1.0
 70
     8
 71
     3
 72
    15
 73
    11
 74
     0
 42
0.000000001
 43
0.00000001
 40
0.0
 40
0.0
 40
0.0
 40
0.0
 40
0.0854968294457007
 40
0.1737352403381267
 40
0.2676066174669237
 40
0.3717339388071332
 40
0.4920532733018035
 40
0.6344161307260981
 40
0.803023132874615
 40
0.9999999999999999
 40
0.9999999999999999
 40
0.9999999999999999
 40
0.9999999999999999
 10
189.5345970851193
 20
271.5865705721085
 30
0.0
 10
189.5452465880968
 20
271.770529028779
 30
0.0
 10
189.5668870860108
 20
272.1443448403017
 30
0.0
 10
189.7290496806895
 20
272.6765661852785
 30
0.0
 10
189.9544793348481
 20
273.1516975900438
 30
0.0
 10
190.1979085623578
 20
273.539002501728
 30
0.0
 10
190.3829879144895
 20
273.817582548185
 30
0.0
 10
190.4268465249391
 20
273.9761820040909
 30
0.0
 10
190.2631033656935
 20
274.016022335609
 30
0.0
 10
189.9252629628692
 20
273.9532095566087
 30
0.0
 10
189.7432342965911
 20
273.9193659834568
 30
0.0
  0
SPLINE
  5
196
330
1F
100
AcDbEntity
  8
0
  6
Continuous
 62
     7
370
    25
100
AcDbSpline
210
0.0
220
0.0
230
1.0
 70
     8
 71
     3
 72
    15
 73
    11
 74
     0
 42
0.000000001
 43
0.00000001
 40
0.0
 40
0.0
 40
0.0
 40
0.0
 40
0.1485099352220998
 40
0.2851187728174735
 40
0.4109977045083003
 40
0.5288714050119129
 40
0.643120372249796
 40
0.7584585513397691
 40
0.8776320171637481
 40
1.0
 40
1.0
 40
1.0
 40
1.0
 10
180.3934392382215
 20
273.9239015243952
 30
0.0
 10
180.221223530986
 20
273.9589822656006
 30
0.0
 10
179.8905929167213
 20
274.0263324928231
 30
0.0
 10
179.6504021910062
 20
274.0603617805463
 30
0.0
 10
179.6102936190843
 20
274.0039281511079
 30
0.0
 10
179.7516231377134
 20
273.822851800459
 30
0.0
 10
180.0168085936778
 20
273.4873648400676
 30
0.0
 10
180.3165713954008
 20
272.9848661698513
 30
0.0
 10
180.5685596788524
 20
272.3360603644576
 30
0.0
 10
180.6059679541177
 20
271.8385935924215
 30
0.0
 10
180.6249194641422
 20
271.5865705721085
 30
0.0
  0
LINE
  5
197
330
1F
100
AcDbEntity
  8
0
  6
Continuous
 62
     7
370
    25
100
AcDbLine
 10
180.6249189985
 20
271.5865724348
 30
0.0
 11
180.7516775888
 21
198.9593018405
 31
0.0
  0
LINE
  5
198
330
1F
100
AcDbEntity
  8
0
  6
Continuous
 62
     7
370
    25
100
AcDbLine
 10
189.4078384948
 20
198.9593018405
 30
0.0
 11
189.5347721738
 21
271.6868889146
 31
0.0
  0
ARC
  5
199
330
1F
100
AcDbEntity
  8
0
  6
Continuous
 62
     7
370
    25
100
AcDbCircle
 10
187.9078406513
 20
198.9619228952
 30
0.0
 40
1.5
100
AcDbArc
 50
270.0
 51
359.9
  0
ARC
  5
19A
330
1F
100
AcDbEntity
  8
0
  6
Continuous
 62
     7
370
    25
100
AcDbCircle
 10
182.2516754323
 20
198.9619228952
 30
0.0
 40
1.5
100
AcDbArc
 50
180.1
 51
270.0
  0
SPLINE
  5
19B
330
1F
100
AcDbEntity
  8
0
  6
Continuous
 62
     7
370
    25
100
AcDbSpline
210
0.0
220
0.0
230
1.0
 70
     8
 71
     3
 72
    11
 73
     7
 74
     0
 42
0.000000001
 43
0.00000001
 40
0.0
 40
0.0
 40
0.0
 40
0.0
 40
0.2474847865464594
 40
0.4999999976330706
 40
0.7525153033861732
 40
1.0
 40
1.0
 40
1.0
 40
1.0
 10
168.4148693320165
 20
280.1910952292387
 30
0.0
 10
168.8183938402625
 20
279.7547572720129
 30
0.0
 10
169.6336449754267
 20
278.8732122662589
 30
0.0
 10
170.4900915360247
 20
277.2713320885014
 30
0.0
 10
171.0541715522245
 20
275.5446782304905
 30
0.0
 10
171.1266460171688
 20
274.3461357683329
 30
0.0
 10
171.162518658937
 20
273.7528939358895
 30
0.0
  0
SPLINE
  5
19C
330
1F
100
AcDbEntity
  8
0
  6
Continuous
 62
     7
370
    25
100
AcDbSpline
210
0.0
220
0.0
230
1.0
 70
     8
 71
     3
 72
    11
 73
     7
 74
     0
 42
0.000000001
 43
0.00000001
 40
0.0
 40
0.0
 40
0.0
 40
0.0
 40
0.2474845598040389
 40
0.4999997025274144
 40
0.7525150114005416
 40
1.0
 40
1.0
 40
1.0
 40
1.0
 10
198.9969974246631
 20
273.7528939358895
 30
0.0
 10
199.0328696999044
 20
274.3461358921463
 30
0.0
 10
199.1053434209471
 20
275.5446785482622
 30
0.0
 10
199.669423495332
 20
277.2713309954482
 30
0.0
 10
200.5258670961474
 20
278.8732093521631
 30
0.0
 10
201.3411146267821
 20
279.7547512601556
 30
0.0
 10
201.7446374383579
 20
280.1910877786581
 30
0.0
  0
LINE
  5
19D
330
1F
100
AcDbEntity
  8
0
  6
Continuous
 62
     7
370
    25
100
AcDbLine
 10
171.1621684816
 20
273.8531135581
 30
0.0
 11
171.3600335506
 21
217.1693478338
 31
0.0
  0
LINE
  5
19E
330
1F
100
AcDbEntity
  8
0
  6
Continuous
 62
     7
370
    25
100
AcDbLine
 10
198.799482533
 20
217.1693478338
 30
0.0
 11
198.9973466706
 21
273.852893766
 31
0.0
  0
SPLINE
  5
19F
330
1F
100
AcDbEntity
  8
0
  6
Continuous
 62
     7
370
    25
100
AcDbSpline
210
0.0
220
0.0
230
1.0
 70
     8
 71
     3
 72
    18
 73
    14
 74
     0
 42
0.000000001
 43
0.00000001
 40
0.0
 40
0.0
 40
0.0
 40
0.0
 40
0.1200779997594675
 40
0.2275882967911179
 40
0.3240900059132716
 40
0.4112229178985936
 40
0.4907351056659552
 40
0.5645023517275385
 40
0.6687360034015438
 40
0.7715928411928819
 40
0.8428361160942125
 40
0.9184015651394369
 40
1.0
 40
1.0
 40
1.0
 40
1.0
 10
171.3594170150171
 20
217.2084708325569
 30
0.0
 10
171.3671049972005
 20
214.9711415077965
 30
0.0
 10
171.38167631563
 20
210.7306480668413
 30
0.0
 10
171.4006694762566
 20
204.6944603327981
 30
0.0
 10
171.4162567817436
 20
199.2803158574567
 30
0.0
 10
171.4286932920091
 20
194.406426176245
 30
0.0
 10
171.4383423545391
 20
189.9912068128913
 30
0.0
 10
171.4466483871533
 20
185.3369248352093
 30
0.0
 10
171.4528169397648
 20
180.4193567363731
 30
0.0
 10
171.4557487059564
 20
175.8595481590665
 30
0.0
 10
171.4567946916719
 20
172.04028044126
 30
0.0
 10
171.4570437888807
 20
168.7180794001098
 30
0.0
 10
171.4570303325591
 20
166.5551855714538
 30
0.0
 10
171.4570233461271
 20
165.4322255961602
 30
0.0
  0
SPLINE
  5
1A0
330
1F
100
AcDbEntity
  8
0
  6
Continuous
 62
     7
370
    25
100
AcDbSpline
210
0.0
220
0.0
230
1.0
 70
     8
 71
     3
 72
    18
 73
    14
 74
     0
 42
0.000000001
 43
0.00000001
 40
0.0
 40
0.0
 40
0.0
 40
0.0
 40
0.0815984343483184
 40
0.157163882919171
 40
0.2284071573732629
 40
0.331263994518904
 40
0.4354976455385692
 40
0.5092648911370692
 40
0.5887770784052829
 40
0.6759100053060504
 40
0.7724117046375968
 40
0.8799220009943375
 40
1.0
 40
1.0
 40
1.0
 40
1.0
 10
198.7024927374731
 20
165.4322255961602
 30
0.0
 10
198.7024857510412
 20
166.5551855714891
 30
0.0
 10
198.7024722947198
 20
168.718079400213
 30
0.0
 10
198.7027213919274
 20
172.0402804408915
 30
0.0
 10
198.703767377648
 20
175.8595481606052
 30
0.0
 10
198.706699143812
 20
180.4193567276532
 30
0.0
 10
198.7128676965237
 20
185.3369248637985
 30
0.0
 10
198.7211737288599
 20
189.9912067379971
 30
0.0
 10
198.7308227930714
 20
194.4064267802557
 30
0.0
 10
198.743259299239
 20
199.2803148808009
 30
0.0
 10
198.7588466087423
 20
204.6944608259133
 30
0.0
 10
198.7778397677148
 20
210.7306479712281
 30
0.0
 10
198.7924110863115
 20
214.9711414747734
 30
0.0
 10
198.8000990685831
 20
217.2084708325569
 30
0.0
  0
LINE
  5
1A1
330
1F
100
AcDbEntity
  8
0
  6
Continuous
 62
     7
370
    25
100
AcDbLine
 10
198.7020168316
 20
160.4013700597
 30
0.0
 11
198.7020168316
 21
165.4322255962
 31
0.0
  0
LINE
  5
1A2
330
1F
100
AcDbEntity
  8
0
  6
Continuous
 62
     7
370
    25
100
AcDbLine
 10
171.457499252
 20
165.4322255962
 30
0.0
 11
171.457499252
 21
160.4013700597
 31
0.0
  0
SPLINE
  5
1A3
330
1F
100
AcDbEntity
  8
0
  6
Continuous
 62
     7
370
    25
100
AcDbSpline
210
0.0
220
0.0
230
1.0
 70
     8
 71
     3
 72
    20
 73
    16
 74
     0
 42
0.000000001
 43
0.00000001
 40
0.0
 40
0.0
 40
0.0
 40
0.0
 40
0.0332931398464927
 40
0.1170374881437245
 40
0.2007453093158295
 40
0.2845913894400195
 40
0.3686892590609547
 40
0.453066169855554
 40
0.5376755582452184
 40
0.622430447500469
 40
0.7072223841407569
 40
0.7919819057885084
 40
0.8766923521271801
 40
0.9613730144284505
 40
1.0
 40
1.0
 40
1.0
 40
1.0
 10
171.4897043865929
 20
160.1165492646401
 30
0.0
 10
171.4886159005028
 20
159.9199247612876
 30
0.0
 10
171.4847894762465
 20
159.2287181617901
 30
0.0
 10
171.7211398810077
 20
158.0541181896784
 30
0.0
 10
172.1889957111039
 20
156.6260813615663
 30
0.0
 10
172.8890746744575
 20
155.2646871231846
 30
0.0
 10
173.7915473154552
 20
153.9910689119278
 30
0.0
 10
174.8870147673842
 20
152.82602797025
 30
0.0
 10
176.1562599779134
 20
151.7892415508421
 30
0.0
 10
177.578083546814
 20
150.8985325103282
 30
0.0
 10
179.1277265864414
 20
150.169625844763
 30
0.0
 10
180.7782625033147
 20
149.6139141913661
 30
0.0
 10
182.5012540991437
 20
149.2435597036411
 30
0.0
 10
183.948070386866
 20
149.0877155021016
 30
0.0
 10
184.809811571494
 20
149.0747973173093
 30
0.0
 10
185.0797580418003
 20
149.0707506053154
 30
0.0
  0
SPLINE
  5
1A4
330
1F
100
AcDbEntity
  8
0
  6
Continuous
 62
     7
370
    25
100
AcDbSpline
210
0.0
220
0.0
230
1.0
 70
     8
 71
     3
 72
    20
 73
    16
 74
     0
 42
0.000000001
 43
0.00000001
 40
0.0
 40
0.0
 40
0.0
 40
0.0
 40
0.0448214171559949
 40
0.1275815889254915
 40
0.2104920914577646
 40
0.2935585450739422
 40
0.3768072874706605
 40
0.4602313035856491
 40
0.5437793851712834
 40
0.6273320163361319
 40
0.7107309120903395
 40
0.7938328609649326
 40
0.8765395820843565
 40
0.9588378591590103
 40
1.0
 40
1.0
 40
1.0
 40
1.0
 10
185.0797580418001
 20
149.0707506053154
 30
0.0
 10
185.4004398020729
 20
149.0764008340527
 30
0.0
 10
186.3132420093891
 20
149.0924838855453
 30
0.0
 10
187.809693720469
 20
149.2685043709323
 30
0.0
 10
189.5307459760465
 20
149.6555795442292
 30
0.0
 10
191.1789810425682
 20
150.2293057806043
 30
0.0
 10
192.7259986561222
 20
150.9779466498738
 30
0.0
 10
194.144891838851
 20
151.8912776719057
 30
0.0
 10
195.4098469580298
 20
152.9546645513967
 30
0.0
 10
196.4973901920481
 20
154.1502160872276
 30
0.0
 10
197.3856091957888
 20
155.4564153272987
 30
0.0
 10
198.0621056236656
 20
156.8488863034889
 30
0.0
 10
198.4995173111614
 20
158.3010667895594
 30
0.0
 10
198.7083017396276
 20
159.5410109415193
 30
0.0
 10
198.6810030610433
 20
160.2871814543969
 30
0.0
 10
198.6719015848647
 20
160.5359573476021
 30
0.0
  0
SPLINE
  5
1A5
330
1F
100
AcDbEntity
  8
0
  6
Continuous
 62
     7
370
    25
100
AcDbSpline
210
0.0
220
0.0
230
1.0
 70
     8
 71
     3
 72
    16
 73
    12
 74
     0
 42
0.000000001
 43
0.00000001
 40
0.0
 40
0.0
 40
0.0
 40
0.0
 40
0.2499999999999998
 40
0.2499999999999998
 40
0.4999999999999998
 40
0.4999999999999998
 40
0.7499999999999997
 40
0.7499999999999997
 40
0.8749999999999999
 40
0.8749999999999999
 40
1.0
 40
1.0
 40
1.0
 40
1.0
 10
187.3678326383564
 20
273.5713366853529
 30
0.0
 10
186.9909345132638
 20
273.5354424589528
 30
0.0
 10
186.6094005128638
 20
273.5037634768276
 30
0.0
 10
185.8483750933451
 20
273.4598819227447
 30
0.0
 10
185.4668948311532
 20
273.4474272816632
 30
0.0
 10
184.7016029593382
 20
273.4472654954071
 30
0.0
 10
184.3168283988657
 20
273.4595799647174
 30
0.0
 10
183.7429020772843
 20
273.4925542275288
 30
0.0
 10
183.5520603142847
 20
273.5059159879054
 30
0.0
 10
183.1711672793955
 20
273.5362659904034
 30
0.0
 10
182.9798169975777
 20
273.5533809254293
 30
0.0
 10
182.7913719094168
 20
273.5713441471832
 30
0.0
  0
ARC
  5
1A6
330
1F
100
AcDbEntity
  8
0
  6
Continuous
 62
     7
370
    25
100
AcDbCircle
 10
185.0797580418
 20
297.4619228952
 30
0.0
 40
24.0
100
AcDbArc
 50
275.4730792506
 51
264.5265628847
  0
LINE
  5
1A7
330
1F
100
AcDbEntity
  8
0
  6
Continuous
 62
     7
370
    25
100
AcDbLine
 10
187.9078405772
 20
197.461921405
 30
0.0
 11
182.2516755064
 21
197.461921405
 31
0.0
  0
ENDSEC
  0
SECTION
  2
OBJECTS
  0
DICTIONARY
  5
C
330
0
100
AcDbDictionary
281
     1
  3
ACAD_GROUP
350
D
  3
ACAD_LAYOUT
350
1A
  3
ACAD_MLINESTYLE
350
17
  3
ACAD_PLOTSETTINGS
350
19
  3
ACAD_PLOTSTYLENAME
350
E
  3
ACAD_SCALELIST
350
47
  0
DICTIONARY
  5
D
102
{ACAD_REACTORS
330
C
102
}
330
C
100
AcDbDictionary
281
     1
  0
DICTIONARY
  5
1A
102
{ACAD_REACTORS
330
C
102
}
330
C
100
AcDbDictionary
281
     1
  3
Layout1
350
1E
  3
Layout2
350
26
  3
Model
350
22
  0
DICTIONARY
  5
17
102
{ACAD_REACTORS
330
C
102
}
330
C
100
AcDbDictionary
281
     1
  3
Standard
350
18
  0
DICTIONARY
  5
19
102
{ACAD_REACTORS
330
C
102
}
330
C
100
AcDbDictionary
281
     1
  0
ACDBDICTIONARYWDFLT
  5
E
102
{ACAD_REACTORS
330
C
102
}
330
C
100
AcDbDictionary
281
     1
  3
Normal
350
F
100
AcDbDictionaryWithDefault
340
F
  0
DICTIONARY
  5
47
102
{ACAD_REACTORS
330
C
102
}
330
C
100
AcDbDictionary
281
     1
  3
A0
350
48
  3
A1
350
49
  3
A2
350
4A
  3
A3
350
4B
  3
A4
350
4C
  3
A5
350
4D
  3
A6
350
4E
  3
A7
350
4F
  3
A8
350
50
  3
A9
350
51
  3
B0
350
52
  3
B1
350
53
  3
B2
350
54
  3
B3
350
55
  3
B4
350
56
  3
B5
350
57
  3
B6
350
58
  3
B7
350
59
  3
B8
350
5A
  3
B9
350
5B
  3
C0
350
5C
  3
C1
350
5D
  3
C2
350
5E
  3
C3
350
5F
  3
C4
350
60
  3
C5
350
61
  3
C6
350
62
  3
C7
350
63
  3
C8
350
64
  3
C9
350
65
  3
D0
350
66
  3
D1
350
67
  3
D2
350
68
  0
LAYOUT
  5
1E
102
{ACAD_REACTORS
330
1A
102
}
330
1A
100
AcDbPlotSettings
  1

  2
none_device
  4

  6

 40
0.0
 41
0.0
 42
0.0
 43
0.0
 44
0.0
 45
0.0
 46
0.0
 47
0.0
 48
0.0
 49
0.0
140
0.0
141
0.0
142
1.0
143
1.0
 70
   688
 72
     1
 73
     0
 74
     5
  7

 75
    16
147
1.0
148
0.0
149
0.0
100
AcDbLayout
  1
Layout1
 70
     1
 71
     1
 10
0.0
 20
0.0
 11
420.0
 21
297.0
 12
0.0
 22
0.0
 32
0.0
 14
1.0000000000E+20
 24
1.0000000000E+20
 34
1.0000000000E+20
 15
-1.0000000000E+20
 25
-1.0000000000E+20
 35
-1.0000000000E+20
146
0.0
 13
0.0
 23
0.0
 33
0.0
 16
1.0
 26
0.0
 36
0.0
 17
0.0
 27
1.0
 37
0.0
 76
     0
330
1B
  0
LAYOUT
  5
26
102
{ACAD_REACTORS
330
1A
102
}
330
1A
100
AcDbPlotSettings
  1

  2
none_device
  4

  6

 40
0.0
 41
0.0
 42
0.0
 43
0.0
 44
0.0
 45
0.0
 46
0.0
 47
0.0
 48
0.0
 49
0.0
140
0.0
141
0.0
142
1.0
143
1.0
 70
   688
 72
     1
 73
     0
 74
     5
  7

 75
    16
147
1.0
148
0.0
149
0.0
100
AcDbLayout
  1
Layout2
 70
     1
 71
     2
 10
0.0
 20
0.0
 11
0.0
 21
0.0
 12
0.0
 22
0.0
 32
0.0
 14
0.0
 24
0.0
 34
0.0
 15
0.0
 25
0.0
 35
0.0
146
0.0
 13
0.0
 23
0.0
 33
0.0
 16
1.0
 26
0.0
 36
0.0
 17
0.0
 27
1.0
 37
0.0
 76
     0
330
23
  0
LAYOUT
  5
22
102
{ACAD_REACTORS
330
1A
102
}
330
1A
100
AcDbPlotSettings
  1

  2
none_device
  4
Letter_(8.50_x_11.00_Inches)
  6

 40
6.35
 41
6.35
 42
6.35000508
 43
6.35000508
 44
215.9
 45
279.4
 46
0.0
 47
0.0
 48
0.0
 49
0.0
140
0.0
141
0.0
142
1.0
143
1.0
 70
  1712
 72
     1
 73
     0
 74
     0
  7

 75
     0
147
1.0
148
0.0
149
0.0
100
AcDbLayout
  1
Model
 70
     1
 71
     0
 10
0.0
 20
0.0
 11
594.0
 21
841.0
 12
0.0
 22
0.0
 32
0.0
 14
0.0
 24
0.0
 34
0.0
 15
594.0
 25
841.0
 35
0.0
146
0.0
 13
0.0
 23
0.0
 33
0.0
 16
1.0
 26
0.0
 36
0.0
 17
0.0
 27
1.0
 37
0.0
 76
     0
330
1F
331
29
  0
MLINESTYLE
  5
18
102
{ACAD_REACTORS
330
17
102
}
330
17
100
AcDbMlineStyle
  2
Standard
 70
     0
  3

 62
   256
 51
90.0
 52
90.0
 71
     2
 49
0.5
 62
   256
  6
BYLAYER
 49
-0.5
 62
   256
  6
BYLAYER
  0
ACDBPLACEHOLDER
  5
F
102
{ACAD_REACTORS
330
E
102
}
330
E
  0
SCALE
  5
48
102
{ACAD_REACTORS
330
47
102
}
330
47
100
AcDbScale
 70
     0
300
1:1
140
1.0
141
1.0
290
     1
  0
SCALE
  5
49
102
{ACAD_REACTORS
330
47
102
}
330
47
100
AcDbScale
 70
     0
300
1:2
140
1.0
141
2.0
290
     0
  0
SCALE
  5
4A
102
{ACAD_REACTORS
330
47
102
}
330
47
100
AcDbScale
 70
     0
300
1:4
140
1.0
141
4.0
290
     0
  0
SCALE
  5
4B
102
{ACAD_REACTORS
330
47
102
}
330
47
100
AcDbScale
 70
     0
300
1:5
140
1.0
141
5.0
290
     0
  0
SCALE
  5
4C
102
{ACAD_REACTORS
330
47
102
}
330
47
100
AcDbScale
 70
     0
300
1:8
140
1.0
141
8.0
290
     0
  0
SCALE
  5
4D
102
{ACAD_REACTORS
330
47
102
}
330
47
100
AcDbScale
 70
     0
300
1:10
140
1.0
141
10.0
290
     0
  0
SCALE
  5
4E
102
{ACAD_REACTORS
330
47
102
}
330
47
100
AcDbScale
 70
     0
300
1:16
140
1.0
141
16.0
290
     0
  0
SCALE
  5
4F
102
{ACAD_REACTORS
330
47
102
}
330
47
100
AcDbScale
 70
     0
300
1:20
140
1.0
141
20.0
290
     0
  0
SCALE
  5
50
102
{ACAD_REACTORS
330
47
102
}
330
47
100
AcDbScale
 70
     0
300
1:30
140
1.0
141
30.0
290
     0
  0
SCALE
  5
51
102
{ACAD_REACTORS
330
47
102
}
330
47
100
AcDbScale
 70
     0
300
1:40
140
1.0
141
40.0
290
     0
  0
SCALE
  5
52
102
{ACAD_REACTORS
330
47
102
}
330
47
100
AcDbScale
 70
     0
300
1:50
140
1.0
141
50.0
290
     0
  0
SCALE
  5
53
102
{ACAD_REACTORS
330
47
102
}
330
47
100
AcDbScale
 70
     0
300
1:100
140
1.0
141
100.0
290
     0
  0
SCALE
  5
54
102
{ACAD_REACTORS
330
47
102
}
330
47
100
AcDbScale
 70
     0
300
2:1
140
2.0
141
1.0
290
     0
  0
SCALE
  5
55
102
{ACAD_REACTORS
330
47
102
}
330
47
100
AcDbScale
 70
     0
300
4:1
140
4.0
141
1.0
290
     0
  0
SCALE
  5
56
102
{ACAD_REACTORS
330
47
102
}
330
47
100
AcDbScale
 70
     0
300
8:1
140
8.0
141
1.0
290
     0
  0
SCALE
  5
57
102
{ACAD_REACTORS
330
47
102
}
330
47
100
AcDbScale
 70
     0
300
10:1
140
10.0
141
1.0
290
     0
  0
SCALE
  5
58
102
{ACAD_REACTORS
330
47
102
}
330
47
100
AcDbScale
 70
     0
300
100:1
140
100.0
141
1.0
290
     0
  0
SCALE
  5
59
102
{ACAD_REACTORS
330
47
102
}
330
47
100
AcDbScale
 70
     0
300
1/128" = 1'-0"
140
0.0078125
141
12.0
290
     0
  0
SCALE
  5
5A
102
{ACAD_REACTORS
330
47
102
}
330
47
100
AcDbScale
 70
     0
300
1/64" = 1'-0"
140
0.015625
141
12.0
290
     0
  0
SCALE
  5
5B
102
{ACAD_REACTORS
330
47
102
}
330
47
100
AcDbScale
 70
     0
300
1/32" = 1'-0"
140
0.03125
141
12.0
290
     0
  0
SCALE
  5
5C
102
{ACAD_REACTORS
330
47
102
}
330
47
100
AcDbScale
 70
     0
300
1/16" = 1'-0"
140
0.0625
141
12.0
290
     0
  0
SCALE
  5
5D
102
{ACAD_REACTORS
330
47
102
}
330
47
100
AcDbScale
 70
     0
300
3/32" = 1'-0"
140
0.09375
141
12.0
290
     0
  0
SCALE
  5
5E
102
{ACAD_REACTORS
330
47
102
}
330
47
100
AcDbScale
 70
     0
300
1/8" = 1'-0"
140
0.125
141
12.0
290
     0
  0
SCALE
  5
5F
102
{ACAD_REACTORS
330
47
102
}
330
47
100
AcDbScale
 70
     0
300
3/16" = 1'-0"
140
0.1875
141
12.0
290
     0
  0
SCALE
  5
60
102
{ACAD_REACTORS
330
47
102
}
330
47
100
AcDbScale
 70
     0
300
1/4" = 1'-0"
140
0.25
141
12.0
290
     0
  0
SCALE
  5
61
102
{ACAD_REACTORS
330
47
102
}
330
47
100
AcDbScale
 70
     0
300
3/8" = 1'-0"
140
0.375
141
12.0
290
     0
  0
SCALE
  5
62
102
{ACAD_REACTORS
330
47
102
}
330
47
100
AcDbScale
 70
     0
300
1/2" = 1'-0"
140
0.5
141
12.0
290
     0
  0
SCALE
  5
63
102
{ACAD_REACTORS
330
47
102
}
330
47
100
AcDbScale
 70
     0
300
3/4" = 1'-0"
140
0.75
141
12.0
290
     0
  0
SCALE
  5
64
102
{ACAD_REACTORS
330
47
102
}
330
47
100
AcDbScale
 70
     0
300
1" = 1'-0"
140
1.0
141
12.0
290
     0
  0
SCALE
  5
65
102
{ACAD_REACTORS
330
47
102
}
330
47
100
AcDbScale
 70
     0
300
1-1/2" = 1'-0"
140
1.5
141
12.0
290
     0
  0
SCALE
  5
66
102
{ACAD_REACTORS
330
47
102
}
330
47
100
AcDbScale
 70
     0
300
3" = 1'-0"
140
3.0
141
12.0
290
     0
  0
SCALE
  5
67
102
{ACAD_REACTORS
330
47
102
}
330
47
100
AcDbScale
 70
     0
300
6" = 1'-0"
140
6.0
141
12.0
290
     0
  0
SCALE
  5
68
102
{ACAD_REACTORS
330
47
102
}
330
47
100
AcDbScale
 70
     0
300
1'-0" = 1'-0"
140
12.0
141
12.0
290
     0
  0
ENDSEC
  0
EOF
