  0
SECTION
  2
HEADER
  9
$ACADVER
  1
AC1015
  9
$ACADMAINTVER
 70
     6
  9
$DWGCODEPAGE
  3
ANSI_1252
  9
$INSBASE
 10
0.0
 20
0.0
 30
0.0
  9
$EXTMIN
 10
0.0
 20
0.0
 30
0.0
  9
$EXTMAX
 10
594.0
 20
841.0
 30
0.0
  9
$LIMMIN
 10
0.0
 20
0.0
  9
$LIMMAX
 10
594.0
 20
841.0
  9
$ORTHOMODE
 70
     0
  9
$REGENMODE
 70
     1
  9
$FILLMODE
 70
     1
  9
$QTEXTMODE
 70
     0
  9
$MIRRTEXT
 70
     1
  9
$LTSCALE
 40
1.0
  9
$ATTMODE
 70
     1
  9
$TEXTSIZE
 40
10.0
  9
$TRACEWID
 40
1.0
  9
$TEXTSTYLE
  7
Standard
  9
$CLAYER
  8
0
  9
$CELTYPE
  6
ByLayer
  9
$CECOLOR
 62
   256
  9
$CELTSCALE
 40
1.0
  9
$DISPSILH
 70
     0
  9
$DIMSCALE
 40
1.0
  9
$DIMASZ
 40
2.5
  9
$DIMEXO
 40
0.0
  9
$DIMDLI
 40
3.75
  9
$DIMRND
 40
0.0
  9
$DIMDLE
 40
0.0
  9
$DIMEXE
 40
1.0
  9
$DIMTP
 40
0.0
  9
$DIMTM
 40
0.0
  9
$DIMTXT
 40
3.5
  9
$DIMCEN
 40
2.5
  9
$DIMTSZ
 40
0.0
  9
$DIMTOL
 70
     0
  9
$DIMLIM
 70
     0
  9
$DIMTIH
 70
     1
  9
$DIMTOH
 70
     1
  9
$DIMSE1
 70
     0
  9
$DIMSE2
 70
     0
  9
$DIMTAD
 70
     1
  9
$DIMZIN
 70
     0
  9
$DIMBLK
  1

  9
$DIMASO
 70
     1
  9
$DIMSHO
 70
     1
  9
$DIMPOST
  1

  9
$DIMAPOST
  1

  9
$DIMALT
 70
     0
  9
$DIMALTD
 70
     3
  9
$DIMALTF
 40
0.0393700787
  9
$DIMLFAC
 40
1.0
  9
$DIMTOFL
 70
     1
  9
$DIMTVP
 40
0.0
  9
$DIMTIX
 70
     0
  9
$DIMSOXD
 70
     0
  9
$DIMSAH
 70
     0
  9
$DIMBLK1
  1

  9
$DIMBLK2
  1

  9
$DIMSTYLE
  2
ISO-25
  9
$DIMCLRD
 70
     0
  9
$DIMCLRE
 70
     0
  9
$DIMCLRT
 70
     0
  9
$DIMTFAC
 40
1.0
  9
$DIMGAP
 40
1.5
  9
$DIMJUST
 70
     0
  9
$DIMSD1
 70
     0
  9
$DIMSD2
 70
     0
  9
$DIMTOLJ
 70
     0
  9
$DIMTZIN
 70
     0
  9
$DIMALTZ
 70
     0
  9
$DIMALTTZ
 70
     0
  9
$DIMUPT
 70
     0
  9
$DIMDEC
 70
     2
  9
$DIMTDEC
 70
     2
  9
$DIMALTU
 70
     2
  9
$DIMALTTD
 70
     3
  9
$DIMTXSTY
  7
Standard
  9
$DIMAUNIT
 70
     0
  9
$DIMADEC
 70
     2
  9
$DIMALTRND
 40
0.0
  9
$DIMAZIN
 70
     0
  9
$DIMDSEP
 70
    44
  9
$DIMATFIT
 70
     3
  9
$DIMFRAC
 70
     0
  9
$DIMLDRBLK
  1

  9
$DIMLUNIT
 70
     2
  9
$DIMLWD
 70
    -2
  9
$DIMLWE
 70
    -2
  9
$DIMTMOVE
 70
     0
  9
$LUNITS
 70
     2
  9
$LUPREC
 70
     2
  9
$SKETCHINC
 40
1.0
  9
$FILLETRAD
 40
10.0
  9
$AUNITS
 70
     0
  9
$AUPREC
 70
     2
  9
$MENU
  1
.
  9
$ELEVATION
 40
0.0
  9
$PELEVATION
 40
0.0
  9
$THICKNESS
 40
0.0
  9
$LIMCHECK
 70
     0
  9
$CHAMFERA
 40
0.0
  9
$CHAMFERB
 40
0.0
  9
$CHAMFERC
 40
0.0
  9
$CHAMFERD
 40
0.0
  9
$SKPOLY
 70
     0
  9
$TDCREATE
 40
2458010.637462593
  9
$TDUCREATE
 40
2458010.554129259
  9
$TDUPDATE
 40
2458010.637464583
  9
$TDUUPDATE
 40
2458010.55413125
  9
$TDINDWG
 40
0.0000000116
  9
$TDUSRTIMER
 40
0.0000000116
  9
$USRTIMER
 70
     1
  9
$ANGBASE
 50
0.0
  9
$ANGDIR
 70
     0
  9
$PDMODE
 70
     0
  9
$PDSIZE
 40
-1.0
  9
$PLINEWID
 40
0.0
  9
$SPLFRAME
 70
     0
  9
$SPLINETYPE
 70
     6
  9
$SPLINESEGS
 70
     8
  9
$HANDSEED
  5
23F
  9
$SURFTAB1
 70
     6
  9
$SURFTAB2
 70
     6
  9
$SURFTYPE
 70
     6
  9
$SURFU
 70
     6
  9
$SURFV
 70
     6
  9
$UCSBASE
  2

  9
$UCSNAME
  2

  9
$UCSORG
 10
0.0
 20
0.0
 30
0.0
  9
$UCSXDIR
 10
1.0
 20
0.0
 30
0.0
  9
$UCSYDIR
 10
0.0
 20
1.0
 30
0.0
  9
$UCSORTHOREF
  2

  9
$UCSORTHOVIEW
 70
     0
  9
$UCSORGTOP
 10
0.0
 20
0.0
 30
0.0
  9
$UCSORGBOTTOM
 10
0.0
 20
0.0
 30
0.0
  9
$UCSORGLEFT
 10
0.0
 20
0.0
 30
0.0
  9
$UCSORGRIGHT
 10
0.0
 20
0.0
 30
0.0
  9
$UCSORGFRONT
 10
0.0
 20
0.0
 30
0.0
  9
$UCSORGBACK
 10
0.0
 20
0.0
 30
0.0
  9
$PUCSBASE
  2

  9
$PUCSNAME
  2

  9
$PUCSORG
 10
0.0
 20
0.0
 30
0.0
  9
$PUCSXDIR
 10
1.0
 20
0.0
 30
0.0
  9
$PUCSYDIR
 10
0.0
 20
1.0
 30
0.0
  9
$PUCSORTHOREF
  2

  9
$PUCSORTHOVIEW
 70
     0
  9
$PUCSORGTOP
 10
0.0
 20
0.0
 30
0.0
  9
$PUCSORGBOTTOM
 10
0.0
 20
0.0
 30
0.0
  9
$PUCSORGLEFT
 10
0.0
 20
0.0
 30
0.0
  9
$PUCSORGRIGHT
 10
0.0
 20
0.0
 30
0.0
  9
$PUCSORGFRONT
 10
0.0
 20
0.0
 30
0.0
  9
$PUCSORGBACK
 10
0.0
 20
0.0
 30
0.0
  9
$USERI1
 70
     0
  9
$USERI2
 70
     0
  9
$USERI3
 70
     0
  9
$USERI4
 70
     0
  9
$USERI5
 70
     0
  9
$USERR1
 40
0.0
  9
$USERR2
 40
0.0
  9
$USERR3
 40
0.0
  9
$USERR4
 40
0.0
  9
$USERR5
 40
0.0
  9
$WORLDVIEW
 70
     1
  9
$SHADEDGE
 70
     3
  9
$SHADEDIF
 70
    70
  9
$TILEMODE
 70
     1
  9
$MAXACTVP
 70
    64
  9
$PINSBASE
 10
0.0
 20
0.0
 30
0.0
  9
$PLIMCHECK
 70
     0
  9
$PEXTMIN
 10
1.0000000000E+20
 20
1.0000000000E+20
 30
1.0000000000E+20
  9
$PEXTMAX
 10
-1.0000000000E+20
 20
-1.0000000000E+20
 30
-1.0000000000E+20
  9
$PLIMMIN
 10
0.0
 20
0.0
  9
$PLIMMAX
 10
420.0
 20
297.0
  9
$UNITMODE
 70
     0
  9
$VISRETAIN
 70
     1
  9
$PLINEGEN
 70
     0
  9
$PSLTSCALE
 70
     1
  9
$TREEDEPTH
 70
  3020
  9
$CMLSTYLE
  2
Standard
  9
$CMLJUST
 70
     0
  9
$CMLSCALE
 40
20.0
  9
$PROXYGRAPHICS
 70
     1
  9
$MEASUREMENT
 70
     1
  9
$CELWEIGHT
370
    -1
  9
$ENDCAPS
280
     0
  9
$JOINSTYLE
280
     0
  9
$LWDISPLAY
290
     1
  9
$INSUNITS
 70
     4
  9
$HYPERLINKBASE
  1

  9
$STYLESHEET
  1

  9
$XEDIT
290
     1
  9
$CEPSNTYPE
380
     0
  9
$PSTYLEMODE
290
     1
  9
$FINGERPRINTGUID
  2
{0ADE91E9-4EB0-42B4-8A54-E17979274AA6}
  9
$VERSIONGUID
  2
{FAEB1C32-E019-11D5-929B-00C0DF256EC4}
  9
$EXTNAMES
290
     1
  9
$PSVPSCALE
 40
0.0
  9
$OLESTARTUP
290
     0
  0
ENDSEC
  0
SECTION
  2
CLASSES
  0
CLASS
  1
ACDBDICTIONARYWDFLT
  2
AcDbDictionaryWithDefault
  3
ObjectDBX Classes
 90
        0
280
     0
281
     0
  0
CLASS
  1
VISUALSTYLE
  2
AcDbVisualStyle
  3
ObjectDBX Classes
 90
     4095
280
     0
281
     0
  0
CLASS
  1
MATERIAL
  2
AcDbMaterial
  3
ObjectDBX Classes
 90
     1153
280
     0
281
     0
  0
CLASS
  1
SCALE
  2
AcDbScale
  3
ObjectDBX Classes
 90
     1153
280
     0
281
     0
  0
CLASS
  1
TABLESTYLE
  2
AcDbTableStyle
  3
ObjectDBX Classes
 90
     4095
280
     0
281
     0
  0
CLASS
  1
MLEADERSTYLE
  2
AcDbMLeaderStyle
  3
ACDB_MLEADERSTYLE_CLASS
 90
     4095
280
     0
281
     0
  0
CLASS
  1
SUN
  2
AcDbSun
  3
SCENEOE
 90
     1153
280
     0
281
     0
  0
CLASS
  1
ACDBPLACEHOLDER
  2
AcDbPlaceHolder
  3
ObjectDBX Classes
 90
        0
280
     0
281
     0
  0
CLASS
  1
LAYOUT
  2
AcDbLayout
  3
ObjectDBX Classes
 90
        0
280
     0
281
     0
  0
ENDSEC
  0
SECTION
  2
TABLES
  0
TABLE
  2
VPORT
  5
8
330
0
100
AcDbSymbolTable
 70
     1
  0
VPORT
  5
29
330
8
100
AcDbSymbolTableRecord
100
AcDbViewportTableRecord
  2
*Active
 70
     0
 10
0.0
 20
0.0
 11
1.0
 21
1.0
 12
297.0
 22
420.5
 13
0.0
 23
0.0
 14
10.0
 24
10.0
 15
10.0
 25
10.0
 16
0.0
 26
0.0
 36
1.0
 17
0.0
 27
0.0
 37
0.0
 40
841.0
 41
0.7063020214
 42
50.0
 43
0.0
 44
0.0
 50
0.0
 51
0.0
 71
     0
 72
  2000
 73
     1
 74
     3
 75
     0
 76
     0
 77
     0
 78
     0
281
     0
 65
     1
110
0.0
120
0.0
130
0.0
111
1.0
121
0.0
131
0.0
112
0.0
122
1.0
132
0.0
 79
     0
146
0.0
  0
ENDTAB
  0
TABLE
  2
LTYPE
  5
5
330
0
100
AcDbSymbolTable
 70
     6
  0
LTYPE
  5
14
330
5
100
AcDbSymbolTableRecord
100
AcDbLinetypeTableRecord
  2
ByBlock
 70
     0
  3

 72
    65
 73
     0
 40
0.0
  0
LTYPE
  5
15
330
5
100
AcDbSymbolTableRecord
100
AcDbLinetypeTableRecord
  2
ByLayer
 70
     0
  3

 72
    65
 73
     0
 40
0.0
  0
LTYPE
  5
16
330
5
100
AcDbSymbolTableRecord
100
AcDbLinetypeTableRecord
  2
Continuous
 70
     0
  3
Solid line
 72
    65
 73
     0
 40
0.0
  0
LTYPE
  5
6E
330
5
100
AcDbSymbolTableRecord
100
AcDbLinetypeTableRecord
  2
HIDDEN
 70
     0
  3
Hidden __ __ __ __ __ __ __ __ __ __ __ __ __ __
 72
    65
 73
     2
 40
1.905
 49
1.27
 74
     0
 49
-0.635
 74
     0
  0
LTYPE
  5
6F
330
5
100
AcDbSymbolTableRecord
100
AcDbLinetypeTableRecord
  2
PHANTOM
 70
     0
  3
Phantom ______  __  __  ______  __  __  ______
 72
    65
 73
     6
 40
12.7
 49
6.35
 74
     0
 49
-1.27
 74
     0
 49
1.27
 74
     0
 49
-1.27
 74
     0
 49
1.27
 74
     0
 49
-1.27
 74
     0
  0
LTYPE
  5
70
330
5
100
AcDbSymbolTableRecord
100
AcDbLinetypeTableRecord
  2
CENTER
 70
     0
  3
Center ____ _ ____ _ ____ _ ____ _ ____ _ ____
 72
    65
 73
     4
 40
10.16
 49
6.35
 74
     0
 49
-1.27
 74
     0
 49
1.27
 74
     0
 49
-1.27
 74
     0
  0
LTYPE
  5
71
330
5
100
AcDbSymbolTableRecord
100
AcDbLinetypeTableRecord
  2
CENTERX2
 70
     0
  3
Center (2x) ________  __  ________  __  _____
 72
    65
 73
     4
 40
20.32
 49
12.7
 74
     0
 49
-2.54
 74
     0
 49
2.54
 74
     0
 49
-2.54
 74
     0
  0
LTYPE
  5
72
330
5
100
AcDbSymbolTableRecord
100
AcDbLinetypeTableRecord
  2
DOT2
 70
     0
  3
Dot (.5x) ........................................
 72
    65
 73
     2
 40
0.635
 49
0.0
 74
     0
 49
-0.635
 74
     0
  0
ENDTAB
  0
TABLE
  2
LAYER
  5
2
330
0
100
AcDbSymbolTable
 70
     1
  0
LAYER
  5
10
330
2
100
AcDbSymbolTableRecord
100
AcDbLayerTableRecord
  2
0
 70
     0
 62
     7
  6
Continuous
370
    -3
390
F
  0
ENDTAB
  0
TABLE
  2
STYLE
  5
3
330
0
100
AcDbSymbolTable
 70
     3
  0
STYLE
  5
11
330
3
100
AcDbSymbolTableRecord
100
AcDbTextStyleTableRecord
  2
Standard
 70
     0
 40
0.0
 41
1.0
 50
0.0
 71
     0
 42
10.0
  3
txt
  4

  0
STYLE
  5
76
330
3
100
AcDbSymbolTableRecord
100
AcDbTextStyleTableRecord
  2
SLDTEXTSTYLE0
 70
     0
 40
0.0
 41
0.96
 50
0.0
 71
     0
 42
10.0
  3
ISOCP3
  4

  0
STYLE
  5
8D
330
3
100
AcDbSymbolTableRecord
100
AcDbTextStyleTableRecord
  2
SLDTEXTSTYLE1
 70
     0
 40
0.0
 41
0.605
 50
0.0
 71
     0
 42
10.0
  3
TXT
  4

  0
ENDTAB
  0
TABLE
  2
VIEW
  5
6
330
0
100
AcDbSymbolTable
 70
     0
  0
ENDTAB
  0
TABLE
  2
UCS
  5
7
330
0
100
AcDbSymbolTable
 70
     0
  0
ENDTAB
  0
TABLE
  2
APPID
  5
9
330
0
100
AcDbSymbolTable
 70
     1
  0
APPID
  5
12
330
9
100
AcDbSymbolTableRecord
100
AcDbRegAppTableRecord
  2
ACAD
 70
     0
  0
ENDTAB
  0
TABLE
  2
DIMSTYLE
  5
A
330
0
100
AcDbSymbolTable
 70
     2
100
AcDbDimStyleTable
  0
DIMSTYLE
105
27
330
A
100
AcDbSymbolTableRecord
100
AcDbDimStyleTableRecord
  2
ISO-25
 70
     0
 41
2.5
 42
0.625
 43
3.75
 44
1.25
 73
     0
 74
     0
 77
     1
 78
     8
140
2.5
141
2.5
143
0.0393700787
147
0.625
171
     3
172
     1
178
     0
271
     2
272
     2
274
     3
278
    44
283
     0
284
     8
340
11
  0
DIMSTYLE
105
77
102
{ACAD_REACTORS
330
75
330
82
102
}
330
A
100
AcDbSymbolTableRecord
100
AcDbDimStyleTableRecord
  2
SLDDIMSTYLE0
 70
     0
 41
2.5
 44
0.0
 45
0.000000001
 73
     0
 74
     0
 77
     1
 78
    12
 79
     3
140
6.0
147
1.5
173
     1
178
     0
271
     2
272
     2
276
     2
284
    12
340
76
  0
ENDTAB
  0
TABLE
  2
BLOCK_RECORD
  5
1
330
0
100
AcDbSymbolTable
 70
     3
  0
BLOCK_RECORD
  5
1F
330
1
100
AcDbSymbolTableRecord
100
AcDbBlockTableRecord
  2
*Model_Space
340
22
  0
BLOCK_RECORD
  5
1B
330
1
100
AcDbSymbolTableRecord
100
AcDbBlockTableRecord
  2
*Paper_Space
340
1E
  0
BLOCK_RECORD
  5
23
330
1
100
AcDbSymbolTableRecord
100
AcDbBlockTableRecord
  2
*Paper_Space0
340
26
  0
BLOCK_RECORD
  5
78
330
1
100
AcDbSymbolTableRecord
100
AcDbBlockTableRecord
  2
_D
340
0
  0
BLOCK_RECORD
  5
83
330
1
100
AcDbSymbolTableRecord
100
AcDbBlockTableRecord
  2
_D_1
340
0
  0
ENDTAB
  0
ENDSEC
  0
SECTION
  2
BLOCKS
  0
BLOCK
  5
20
330
1F
100
AcDbEntity
  8
0
100
AcDbBlockBegin
  2
*Model_Space
 70
     0
 10
0.0
 20
0.0
 30
0.0
  3
*Model_Space
  1

  0
ENDBLK
  5
21
330
1F
100
AcDbEntity
  8
0
100
AcDbBlockEnd
  0
BLOCK
  5
1C
330
1B
100
AcDbEntity
 67
     1
  8
0
100
AcDbBlockBegin
  2
*Paper_Space
 70
     0
 10
0.0
 20
0.0
 30
0.0
  3
*Paper_Space
  1

  0
ENDBLK
  5
1D
330
1B
100
AcDbEntity
 67
     1
  8
0
100
AcDbBlockEnd
  0
BLOCK
  5
24
330
23
100
AcDbEntity
  8
0
100
AcDbBlockBegin
  2
*Paper_Space0
 70
     0
 10
0.0
 20
0.0
 30
0.0
  3
*Paper_Space0
  1

  0
ENDBLK
  5
25
330
23
100
AcDbEntity
  8
0
100
AcDbBlockEnd
  0
BLOCK
  5
79
330
78
100
AcDbEntity
  8
0
100
AcDbBlockBegin
  2
_D
 70
     0
 10
0.0
 20
0.0
 30
0.0
  3
_D
  1

  0
SOLID
  5
7B
330
78
100
AcDbEntity
  8
0
  6
Continuous
 62
     7
370
    18
100
AcDbTrace
 10
42.7614395004
 20
152.0299240879
 30
0.0
 11
42.4614395004
 21
149.5299240879
 31
0.0
 12
43.0614395004
 22
149.5299240879
 32
0.0
 13
43.0614395004
 23
149.5299240879
 33
0.0
  0
SOLID
  5
7C
330
78
100
AcDbEntity
  8
0
  6
Continuous
 62
     7
370
    18
100
AcDbTrace
 10
42.7614395004
 20
52.0299240879
 30
0.0
 11
43.0614395004
 21
54.5299240879
 31
0.0
 12
42.4614395004
 22
54.5299240879
 32
0.0
 13
42.4614395004
 23
54.5299240879
 33
0.0
  0
LINE
  5
7D
330
78
100
AcDbEntity
  8
0
  6
Continuous
 62
     7
370
    18
100
AcDbLine
 10
56.6850079902
 20
152.0299240879
 30
0.0
 11
41.7614395004
 21
152.0299240879
 31
0.0
  0
LINE
  5
7E
330
78
100
AcDbEntity
  8
0
  6
Continuous
 62
     7
370
    18
100
AcDbLine
 10
56.6850079902
 20
52.0299240879
 30
0.0
 11
41.7614395004
 21
52.0299240879
 31
0.0
  0
LINE
  5
7F
330
78
100
AcDbEntity
  8
0
  6
Continuous
 62
     7
370
    18
100
AcDbLine
 10
42.7614395004
 20
152.0299240879
 30
0.0
 11
42.7614395004
 21
52.0299240879
 31
0.0
  0
MTEXT
  5
80
330
78
100
AcDbEntity
  8
0
  6
Continuous
 62
     7
370
    18
100
AcDbMText
 10
35.0270332946
 20
94.3680541463
 30
0.0
 40
6.0
 41
0.0
 71
     1
 72
     1
  1
100
  7
SLDTEXTSTYLE0
 11
-7.044195017643634E-15
 21
1.0
 31
0.0
 73
     1
 44
1.0
  0
MTEXT
  5
81
330
78
100
AcDbEntity
  8
0
  6
Continuous
 62
     7
370
    18
100
AcDbMText
 10
35.0270332946
 20
105.7430548466
 30
0.0
 40
6.0
 41
0.0
 71
     1
 72
     1
  1
mm
  7
SLDTEXTSTYLE0
 11
-7.044195017643634E-15
 21
1.0
 31
0.0
 73
     1
 44
1.0
  0
ENDBLK
  5
7A
330
78
100
AcDbEntity
  8
0
100
AcDbBlockEnd
  0
BLOCK
  5
84
330
83
100
AcDbEntity
  8
0
100
AcDbBlockBegin
  2
_D_1
 70
     0
 10
0.0
 20
0.0
 30
0.0
  3
_D_1
  1

  0
SOLID
  5
86
330
83
100
AcDbEntity
  8
0
  6
Continuous
 62
     7
370
    18
100
AcDbTrace
 10
56.6850079902
 20
38.4602342313
 30
0.0
 11
59.1850079902
 21
38.1602342313
 31
0.0
 12
59.1850079902
 22
38.7602342313
 32
0.0
 13
59.1850079902
 23
38.7602342313
 33
0.0
  0
SOLID
  5
87
330
83
100
AcDbEntity
  8
0
  6
Continuous
 62
     7
370
    18
100
AcDbTrace
 10
156.6850079902
 20
38.4602342313
 30
0.0
 11
154.1850079902
 21
38.7602342313
 31
0.0
 12
154.1850079902
 22
38.1602342313
 32
0.0
 13
154.1850079902
 23
38.1602342313
 33
0.0
  0
LINE
  5
88
330
83
100
AcDbEntity
  8
0
  6
Continuous
 62
     7
370
    18
100
AcDbLine
 10
56.6850079902
 20
52.0299240879
 30
0.0
 11
56.6850079902
 21
37.4602342313
 31
0.0
  0
LINE
  5
89
330
83
100
AcDbEntity
  8
0
  6
Continuous
 62
     7
370
    18
100
AcDbLine
 10
156.6850079902
 20
52.0299240879
 30
0.0
 11
156.6850079902
 21
37.4602342313
 31
0.0
  0
LINE
  5
8A
330
83
100
AcDbEntity
  8
0
  6
Continuous
 62
     7
370
    18
100
AcDbLine
 10
56.6850079902
 20
38.4602342313
 30
0.0
 11
156.6850079902
 21
38.4602342313
 31
0.0
  0
MTEXT
  5
8B
330
83
100
AcDbEntity
  8
0
  6
Continuous
 62
     7
370
    18
100
AcDbMText
 10
93.9626484861
 20
46.1946404371
 30
0.0
 40
6.0
 41
0.0
 71
     1
 72
     1
  1
100
  7
SLDTEXTSTYLE0
 73
     1
 44
1.0
  0
MTEXT
  5
8C
330
83
100
AcDbEntity
  8
0
  6
Continuous
 62
     7
370
    18
100
AcDbMText
 10
105.3376491864
 20
46.1946404371
 30
0.0
 40
6.0
 41
0.0
 71
     1
 72
     1
  1
mm
  7
SLDTEXTSTYLE0
 73
     1
 44
1.0
  0
ENDBLK
  5
85
330
83
100
AcDbEntity
  8
0
100
AcDbBlockEnd
  0
ENDSEC
  0
SECTION
  2
ENTITIES
  0
LINE
  5
73
330
1F
100
AcDbEntity
  8
0
  6
Continuous
 62
     7
370
    18
100
AcDbLine
 10
56.6850079902
 20
152.0299240879
 30
0.0
 11
56.6850079902
 21
52.0299240879
 31
0.0
  0
LINE
  5
74
330
1F
100
AcDbEntity
  8
0
  6
Continuous
 62
     7
370
    18
100
AcDbLine
 10
56.6850079902
 20
52.0299240879
 30
0.0
 11
156.6850079902
 21
52.0299240879
 31
0.0
  0
DIMENSION
  5
75
330
1F
100
AcDbEntity
  8
0
  6
Continuous
 62
     7
370
    18
100
AcDbDimension
  2
_D
 10
42.7614395004
 20
52.0299240879
 30
0.0
 11
42.7614395004
 21
105.4472211621
 31
0.0
 70
   160
  1
<>mm
 71
     2
 42
-1.0
  3
SLDDIMSTYLE0
100
AcDbAlignedDimension
 13
56.6850079902
 23
152.0299240879
 33
0.0
 14
56.6850079902
 24
52.0299240879
 34
0.0
 50
90.0
100
AcDbRotatedDimension
  0
DIMENSION
  5
82
330
1F
100
AcDbEntity
  8
0
  6
Continuous
 62
     7
370
    18
100
AcDbDimension
  2
_D_1
 10
156.6850079902
 20
38.4602342313
 30
0.0
 11
105.0418155019
 21
38.4602342313
 31
0.0
 70
   160
  1
<>mm
 71
     2
 42
-1.0
  3
SLDDIMSTYLE0
100
AcDbAlignedDimension
 13
56.6850079902
 23
52.0299240879
 33
0.0
 14
156.6850079902
 24
52.0299240879
 34
0.0
100
AcDbRotatedDimension
  0
MTEXT
  5
8E
330
1F
100
AcDbEntity
  8
0
  6
Continuous
 62
     7
370
     0
100
AcDbMText
 10
412.8252631579
 20
48.4342449499
 30
0.0
 40
10.0
 41
0.0
 71
     1
 72
     1
  1
KLUDI GmbH & Co KG
  7
SLDTEXTSTYLE1
 73
     1
 44
1.0
  0
MTEXT
  5
8F
330
1F
100
AcDbEntity
  8
0
  6
Continuous
 62
     7
370
     0
100
AcDbMText
 10
210.0873490389
 20
48.4342449499
 30
0.0
 40
10.0
 41
0.0
 71
     1
 72
     1
  1
37 028 05 65
  7
SLDTEXTSTYLE1
 73
     1
 44
1.0
  0
LINE
  5
90
330
1F
100
AcDbEntity
  8
0
  6
Continuous
 62
     7
370
    25
100
AcDbLine
 10
361.1848760197
 20
389.1767903061
 30
0.0
 11
361.2667429993
 21
389.5619331689
 31
0.0
  0
LINE
  5
91
330
1F
100
AcDbEntity
  8
0
  6
Continuous
 62
     7
370
    25
100
AcDbLine
 10
357.8600283513
 20
373.5346018167
 30
0.0
 11
359.5336001167
 21
381.4081444235
 31
0.0
  0
LINE
  5
92
330
1F
100
AcDbEntity
  8
0
  6
Continuous
 62
     7
370
    25
100
AcDbLine
 10
319.5511154631
 20
414.553117642
 30
0.0
 11
314.4537969934
 21
390.5721201392
 31
0.0
  0
ARC
  5
93
330
1F
100
AcDbEntity
  8
0
  6
Continuous
 62
     7
370
    25
100
AcDbCircle
 10
320.5292631206
 20
414.345207736
 30
0.0
 40
1.00000000000004
100
AcDbArc
 50
87.5757610567
 51
168.0
  0
ARC
  5
94
330
1F
100
AcDbEntity
  8
0
  6
Continuous
 62
     7
370
    25
100
AcDbCircle
 10
312.7622448239
 20
377.8042595964
 30
0.0
 40
0.9999999999999847
100
AcDbArc
 50
78.0
 51
168.0
  0
LINE
  5
95
330
1F
100
AcDbEntity
  8
0
  6
Continuous
 62
     7
370
    25
100
AcDbLine
 10
339.0787333051
 20
285.1755588146
 30
0.0
 11
347.8355962584
 21
326.3733505102
 31
0.0
  0
LINE
  5
96
330
1F
100
AcDbEntity
  8
0
  6
Continuous
 62
     7
370
    25
100
AcDbLine
 10
311.7840972996
 20
378.0121697874
 30
0.0
 11
292.0510653207
 21
285.1755588146
 31
0.0
  0
ARC
  5
97
330
1F
100
AcDbEntity
  8
0
  6
Continuous
 62
     7
370
    25
100
AcDbCircle
 10
314.9353092095
 20
282.2135681501
 30
0.0
 40
133.2500000000005
100
AcDbArc
 50
78.0000455765
 51
87.5757610567
  0
SPLINE
  5
98
330
1F
100
AcDbEntity
  8
0
  6
Continuous
 62
     7
370
    25
100
AcDbSpline
210
0.0
220
0.0
230
1.0
 70
     8
 71
     3
 72
    13
 73
     9
 74
     0
 42
0.000000001
 43
0.00000001
 40
0.0
 40
0.0
 40
0.0
 40
0.0
 40
0.1239202968824511
 40
0.2643134813708359
 40
0.4196019713902734
 40
0.5930247023712963
 40
0.7866050700857299
 40
0.9999999999999999
 40
0.9999999999999999
 40
0.9999999999999999
 40
0.9999999999999999
 10
406.8061146686107
 20
407.6792492361486
 30
0.0
 10
406.0595342090569
 20
407.7099614022667
 30
0.0
 10
404.4671293702007
 20
407.7754683430289
 30
0.0
 10
401.8659253648595
 20
407.8128799418599
 30
0.0
 10
398.9496877460555
 20
407.8375411832468
 30
0.0
 10
395.7017955584598
 20
407.8637450180134
 30
0.0
 10
392.1052906333967
 20
407.9035303504209
 30
0.0
 10
389.5999682332668
 20
407.9329031568903
 30
0.0
 10
388.2863182375461
 20
407.9483046026647
 30
0.0
  0
SPLINE
  5
99
330
1F
100
AcDbEntity
  8
0
  6
Continuous
 62
     7
370
    25
100
AcDbSpline
210
0.0
220
0.0
230
1.0
 70
     8
 71
     3
 72
    11
 73
     7
 74
     0
 42
0.000000001
 43
0.00000001
 40
0.0
 40
0.0
 40
0.0
 40
0.0
 40
0.2260237118396655
 40
0.4595361680244618
 40
0.714012656312248
 40
1.0
 40
1.0
 40
1.0
 40
1.0
 10
379.1195113012821
 20
408.0455272288739
 30
0.0
 10
378.5144220707131
 20
408.0498545853224
 30
0.0
 10
377.2841954539333
 20
408.0586526746194
 30
0.0
 10
375.179005275009
 20
408.0736903152795
 30
0.0
 10
372.9197123149843
 20
408.0985717232886
 30
0.0
 10
371.4225057864004
 20
408.1233549366821
 30
0.0
 10
370.630256439212
 20
408.13646901564
 30
0.0
  0
SPLINE
  5
9A
330
1F
100
AcDbEntity
  8
0
  6
Continuous
 62
     7
370
    25
100
AcDbSpline
210
0.0
220
0.0
230
1.0
 70
     8
 71
     3
 72
     9
 73
     5
 74
     0
 42
0.000000001
 43
0.00000001
 40
0.0
 40
0.0
 40
0.0
 40
0.0
 40
0.4999363213761565
 40
1.0
 40
1.0
 40
1.0
 40
1.0
 10
343.7504187027246
 20
412.3115955682218
 30
0.0
 10
343.565020972534
 20
412.3508794102156
 30
0.0
 10
343.1941782826485
 20
412.4294571016414
 30
0.0
 10
342.8203541948905
 20
412.4917656129156
 30
0.0
 10
342.6334183464081
 20
412.5229238362729
 30
0.0
  0
ARC
  5
9B
330
1F
100
AcDbEntity
  8
0
  6
Continuous
 62
     7
370
    25
100
AcDbCircle
 10
334.3854478855
 20
373.7192761988
 30
0.0
 40
21.64486082191337
100
AcDbArc
 50
138.7065692532
 51
158.9531540197
  0
ARC
  5
9C
330
1F
100
AcDbEntity
  8
0
  6
Continuous
 62
     7
370
    25
100
AcDbCircle
 10
334.3854478855
 20
373.7192761988
 30
0.0
 40
21.64486082191338
100
AcDbArc
 50
357.0468459803
 51
0.5412014533
  0
LINE
  5
9D
330
1F
100
AcDbEntity
  8
0
  6
Continuous
 62
     7
370
    25
100
AcDbLine
 10
313.735973396
 20
379.9804269166
 30
0.0
 11
313.4592303109
 21
378.6784528585
 31
0.0
  0
LINE
  5
9E
330
1F
100
AcDbEntity
  8
0
  6
Continuous
 62
     7
370
    25
100
AcDbLine
 10
355.5633682559
 20
369.9442713352
 30
0.0
 11
355.7963218341
 21
371.0402219387
 31
0.0
  0
ARC
  5
9F
330
1F
100
AcDbEntity
  8
0
  6
Continuous
 62
     7
370
    25
100
AcDbCircle
 10
346.0148442356
 20
373.1193394582
 30
0.0
 40
10.00000000000003
100
AcDbArc
 50
348.0
 51
357.0468459803
  0
ARC
  5
A0
330
1F
100
AcDbEntity
  8
0
  6
Continuous
 62
     7
370
    25
100
AcDbCircle
 10
323.5174494188
 20
377.901308347
 30
0.0
 40
9.99999999999997
100
AcDbArc
 50
158.9531540197
 51
168.0
  0
LINE
  5
A1
330
1F
100
AcDbEntity
  8
0
  6
Continuous
 62
     7
370
    25
100
AcDbLine
 10
440.2974430273
 20
355.3735657425
 30
0.0
 11
438.0861107061
 21
359.2036931606
 31
0.0
  0
LINE
  5
A2
330
1F
100
AcDbEntity
  8
0
  6
Continuous
 62
     7
370
    25
100
AcDbLine
 10
417.3015016863
 20
347.2036911936
 30
0.0
 11
419.5128265569
 21
343.3735637756
 31
0.0
  0
LINE
  5
A3
330
1F
100
AcDbEntity
  8
0
  6
Continuous
 62
     7
370
    25
100
AcDbLine
 10
419.5128265569
 20
343.3735637756
 30
0.0
 11
420.6675249884
 21
343.3735637756
 31
0.0
  0
LINE
  5
A4
330
1F
100
AcDbEntity
  8
0
  6
Continuous
 62
     7
370
    25
100
AcDbLine
 10
439.7200826356
 20
354.373563716
 30
0.0
 11
440.2974430273
 21
355.3735657425
 31
0.0
  0
ARC
  5
A5
330
1F
100
AcDbEntity
  8
0
  6
Continuous
 62
     7
370
    25
100
AcDbCircle
 10
374.9608081949
 20
386.6511672581
 30
0.0
 40
13.99999999999999
100
AcDbArc
 50
91.2
 51
168.1540407454
  0
ARC
  5
A6
330
1F
100
AcDbEntity
  8
0
  6
Continuous
 62
     7
370
    25
100
AcDbCircle
 10
422.2696751189
 20
344.2985644883
 30
0.0
 40
0.1999999999999983
100
AcDbArc
 50
210.0
 51
300.0
  0
ARC
  5
A7
330
1F
100
AcDbEntity
  8
0
  6
Continuous
 62
     7
370
    25
100
AcDbCircle
 10
438.1179400082
 20
353.4485644883
 30
0.0
 40
0.1999999999999983
100
AcDbArc
 50
300.0
 51
30.0
  0
LINE
  5
A8
330
1F
100
AcDbEntity
  8
0
  6
Continuous
 62
     7
370
    25
100
AcDbLine
 10
359.5150183687
 20
381.3615484925
 30
0.0
 11
359.8656724939
 21
381.2870128842
 31
0.0
  0
LINE
  5
A9
330
1F
100
AcDbEntity
  8
0
  6
Continuous
 62
     7
370
    25
100
AcDbLine
 10
361.5289661834
 20
389.1121937724
 30
0.0
 11
361.1852597246
 21
389.1852541657
 31
0.0
  0
LINE
  5
AA
330
1F
100
AcDbEntity
  8
0
  6
Continuous
 62
     7
370
    25
100
AcDbLine
 10
359.8656724939
 20
381.2870128842
 30
0.0
 11
360.4985434363
 21
381.3759579153
 31
0.0
  0
LINE
  5
AB
330
1F
100
AcDbEntity
  8
0
  6
Continuous
 62
     7
370
    25
100
AcDbLine
 10
362.0709437678
 20
388.7735276313
 30
0.0
 11
361.5289661834
 21
389.1121937724
 31
0.0
  0
ARC
  5
AC
330
1F
100
AcDbEntity
  8
0
  6
Continuous
 62
     7
370
    25
100
AcDbCircle
 10
361.9649608571
 20
388.6039182754
 30
0.0
 40
0.2000000000000289
100
AcDbArc
 50
348.0
 51
58.0
  0
ARC
  5
AD
330
1F
100
AcDbEntity
  8
0
  6
Continuous
 62
     7
370
    25
100
AcDbCircle
 10
360.4707078064
 20
381.5740103818
 30
0.0
 40
0.2000000000000943
100
AcDbArc
 50
278.0
 51
348.0
  0
LWPOLYLINE
  5
AE
330
1F
100
AcDbEntity
  8
0
  6
Continuous
 62
     7
370
    25
100
AcDbPolyline
 90
       14
 70
   128
 43
0.0
 10
360.6663379619
 20
381.5324275585
 10
360.6880489538
 20
381.6345675679
 10
360.7519153307
 20
381.9350420328
 10
360.8542304287
 20
382.4164016934
 10
360.9890486846
 20
383.050662169
 10
361.1485283623
 20
383.8009654375
 10
361.32340839
 20
384.6237032504
 10
361.5035187254
 20
385.4710652323
 10
361.6783987532
 20
386.2938030453
 10
361.8378784308
 20
387.0441063137
 10
361.9726966867
 20
387.6783593388
 10
362.0750117848
 20
388.1597189994
 10
362.138881887
 20
388.4602009149
 10
362.1605891535
 20
388.5623334737
  0
ARC
  5
AF
330
1F
100
AcDbEntity
  8
0
  6
Continuous
 62
     7
370
    25
100
AcDbCircle
 10
372.2892845345
 20
321.1755588146
 30
0.0
 40
25.0
100
AcDbArc
 50
90.0
 51
168.0473178824
  0
LWPOLYLINE
  5
B0
330
1F
100
AcDbEntity
  8
0
  6
Continuous
 62
     7
370
    25
100
AcDbPolyline
 90
       19
 70
   128
 43
0.0
 10
357.8600283513
 20
373.5346018167
 10
357.8340444515
 20
373.5401226969
 10
357.6265495071
 20
373.5842301341
 10
357.2134706924
 20
373.6720277758
 10
356.5986301551
 20
373.8027184101
 10
355.787697787
 20
373.9750875922
 10
354.7881614218
 20
374.1875483485
 10
353.6092597792
 20
374.4381262751
 10
352.2618669817
 20
374.7245265933
 10
350.7584329495
 20
375.0440894456
 10
349.1128381143
 20
375.3938718529
 10
347.3402742097
 20
375.7706402631
 10
345.4571120242
 20
376.1709227057
 10
343.4807393501
 20
376.5910162421
 10
341.4294045219
 20
377.0270391198
 10
339.3220525036
 20
377.4749680252
 10
337.1781386236
 20
377.9306753369
 10
335.0174609373
 20
378.3899365755
 10
332.8599720994
 20
378.8485272618
  0
SPLINE
  5
B1
330
1F
100
AcDbEntity
  8
0
  6
Continuous
 62
     7
370
    25
100
AcDbSpline
210
0.0
220
0.0
230
1.0
 70
     8
 71
     3
 72
    10
 73
     6
 74
     0
 42
0.000000001
 43
0.00000001
 40
0.0
 40
0.0
 40
0.0
 40
0.0
 40
0.4999999999999996
 40
0.4999999999999996
 40
1.0
 40
1.0
 40
1.0
 40
1.0
 10
328.4719944247955
 20
380.7564737147605
 30
0.0
 10
329.1204048204385
 20
380.3024518678779
 30
0.0
 10
329.8095481143828
 20
379.9145003233932
 30
0.0
 10
331.2732692586581
 20
379.273538942265
 30
0.0
 10
332.0544660757569
 20
379.0197424734281
 30
0.0
 10
332.8599713711949
 20
378.8485270374229
 30
0.0
  0
LWPOLYLINE
  5
B2
330
1F
100
AcDbEntity
  8
0
  6
Continuous
 62
     7
370
    25
100
AcDbPolyline
 90
       15
 70
   128
 43
0.0
 10
328.4719945664
 20
380.756471941
 10
326.7032649169
 20
381.9949521513
 10
325.0049683998
 20
383.1841095181
 10
323.3916606555
 20
384.3137590976
 10
321.8771662364
 20
385.3742225857
 10
320.4744673135
 20
386.3564028235
 10
319.1955844673
 20
387.2518881054
 10
318.0514786659
 20
388.052996883
 10
317.0519553392
 20
388.7528746219
 10
316.2055806756
 20
389.3455087038
 10
315.5196087469
 20
389.8258327337
 10
314.9999184975
 20
390.1897265406
 10
314.6509639487
 20
390.4340608807
 10
314.4757357809
 20
390.556757042
 10
314.4537969934
 20
390.5721201392
  0
SPLINE
  5
B3
330
1F
100
AcDbEntity
  8
0
  6
Continuous
 62
     7
370
    25
100
AcDbSpline
210
0.0
220
0.0
230
1.0
 70
     8
 71
     3
 72
    12
 73
     8
 74
     0
 42
0.000000001
 43
0.00000001
 40
0.0
 40
0.0
 40
0.0
 40
0.0
 40
0.2126209089539557
 40
0.425163558534383
 40
0.6397376494753718
 40
0.8556820935482315
 40
1.0
 40
1.0
 40
1.0
 40
1.0
 10
360.0121322820217
 20
385.3452472777784
 30
0.0
 10
359.9271543622253
 20
384.9076021148849
 30
0.0
 10
359.7572298004538
 20
384.0324728731438
 30
0.0
 10
359.6170259262788
 20
382.8425473219113
 30
0.0
 10
359.5474872717486
 20
381.937471437762
 30
0.0
 10
359.5251614770119
 20
381.4119548776956
 30
0.0
 10
359.5252392231936
 20
381.4105003375905
 30
0.0
 10
359.5252703676254
 20
381.4099176617086
 30
0.0
  0
SPLINE
  5
B4
330
1F
100
AcDbEntity
  8
0
  6
Continuous
 62
     7
370
    25
100
AcDbSpline
210
0.0
220
0.0
230
1.0
 70
     8
 71
     3
 72
    12
 73
     8
 74
     0
 42
0.000000001
 43
0.00000001
 40
0.0
 40
0.0
 40
0.0
 40
0.0
 40
0.2035382487039849
 40
0.415182836147234
 40
0.6294792323547552
 40
0.8453365045863784
 40
1.0
 40
1.0
 40
1.0
 40
1.0
 10
361.1834902117283
 20
389.1770883293569
 30
0.0
 10
361.1694949051969
 20
389.1426664222398
 30
0.0
 10
361.1409468996234
 20
389.072451683175
 30
0.0
 10
360.9020053727659
 20
388.4558372419068
 30
0.0
 10
360.577685665494
 20
387.5155521610639
 30
0.0
 10
360.2544210629889
 20
386.4173645993458
 30
0.0
 10
360.0834848194066
 20
385.6609791534468
 30
0.0
 10
360.0121322820217
 20
385.3452472777784
 30
0.0
  0
LWPOLYLINE
  5
B5
330
1F
100
AcDbEntity
  8
0
  6
Continuous
 62
     7
370
    25
100
AcDbPolyline
 90
       22
 70
   128
 43
0.0
 10
312.9701565054
 20
378.7824108096
 10
312.9952214226
 20
378.7770761939
 10
313.1953908164
 20
378.7345333786
 10
313.5938652126
 20
378.6498351784
 10
314.1869340475
 20
378.5237713547
 10
314.9690740834
 20
378.3575265499
 10
315.9330015337
 20
378.1526355834
 10
317.0697394094
 20
377.9110132547
 10
318.3687018032
 20
377.6349096389
 10
319.8177917661
 20
377.3268951865
 10
321.4035146671
 20
376.9898383708
 10
323.1111025239
 20
376.6268833371
 10
324.9246530036
 20
376.2413977476
 10
326.8272779683
 20
375.8369876833
 10
328.8012580747
 20
375.4174007864
 10
330.8282099465
 20
374.9865635128
 10
332.8892566065
 20
374.5484693737
 10
334.9652062902
 20
374.1072161885
 10
337.0367247412
 20
373.6669017764
 10
339.0845205436
 20
373.2316239567
 10
341.0895239363
 20
372.8054507466
 10
343.0330619017
 20
372.3923384042
  0
LINE
  5
B6
330
1F
100
AcDbEntity
  8
0
  6
Continuous
 62
     7
370
    25
100
AcDbLine
 10
292.0510653207
 20
285.1755588146
 30
0.0
 11
339.0787333051
 21
285.1755588146
 31
0.0
  0
SPLINE
  5
B7
330
1F
100
AcDbEntity
  8
0
  6
Continuous
 62
     7
370
    25
100
AcDbSpline
210
0.0
220
0.0
230
1.0
 70
     8
 71
     3
 72
    21
 73
    17
 74
     0
 42
0.000000001
 43
0.00000001
 40
0.0
 40
0.0
 40
0.0
 40
0.0
 40
0.0668556257432813
 40
0.1483843000674802
 40
0.2264299485007955
 40
0.3078561121476033
 40
0.3913336146438465
 40
0.4748824424626549
 40
0.5582648084658541
 40
0.8151903247893177
 40
0.8486982674412579
 40
0.8827515082844085
 40
0.9167059363022654
 40
0.9492883039137164
 40
0.9780702755348936
 40
1.0
 40
1.0
 40
1.0
 40
1.0
 10
343.7459204146892
 20
412.2927605004728
 30
0.0
 10
345.2530309827052
 20
411.9579349996131
 30
0.0
 10
348.5980231845296
 20
411.2147986212238
 30
0.0
 10
353.6089690127426
 20
409.6980797439953
 30
0.0
 10
359.1108920674141
 20
408.7916493800112
 30
0.0
 10
364.6991629694301
 20
408.2719264854377
 30
0.0
 10
370.4361107673892
 20
408.1247836764773
 30
0.0
 10
376.2168800461323
 20
408.0676053235092
 30
0.0
 10
386.0029482522323
 20
407.9878766598528
 30
0.0
 10
394.6329928190941
 20
407.8790261574507
 30
0.0
 10
402.124627956201
 20
407.8128460042741
 30
0.0
 10
404.4681237801228
 20
407.7715255072072
 30
0.0
 10
406.7895344807613
 20
407.6927070875379
 30
0.0
 10
408.9857474393722
 20
407.5459249009167
 30
0.0
 10
410.9009214983941
 20
407.3688726163596
 30
0.0
 10
412.0640381355955
 20
407.2342937865834
 30
0.0
 10
412.5670153448612
 20
407.1760966272771
 30
0.0
  0
LWPOLYLINE
  5
B8
330
1F
100
AcDbEntity
  8
0
  6
Continuous
 62
     7
370
    25
100
AcDbPolyline
 90
        9
 70
   128
 43
0.0
 10
343.0330619017
 20
372.3923384042
 10
343.9810458372
 20
372.190837452
 10
344.9370447347
 20
371.9876377674
 10
345.9006506751
 20
371.7828138562
 10
346.8714538763
 20
371.576462576
 10
347.8490408311
 20
371.3686733337
 10
348.8330017576
 20
371.1595280858
 10
349.8229119728
 20
370.9491162391
 10
350.8183505187
 20
370.7375272007
  0
SPLINE
  5
B9
330
1F
100
AcDbEntity
  8
0
  6
Continuous
 62
     7
370
    25
100
AcDbSpline
210
0.0
220
0.0
230
1.0
 70
     8
 71
     3
 72
    10
 73
     6
 74
     0
 42
0.000000001
 43
0.00000001
 40
0.0
 40
0.0
 40
0.0
 40
0.0
 40
0.5
 40
0.5
 40
1.0
 40
1.0
 40
1.0
 40
1.0
 10
350.8183512146408
 20
370.7375250663026
 30
0.0
 10
352.7782826459536
 20
370.3209287801538
 30
0.0
 10
354.7650510073706
 20
370.0010127144816
 30
0.0
 10
358.7913987296516
 20
369.5612298694722
 30
0.0
 10
360.830978014632
 20
369.441307958449
 30
0.0
 10
362.8975275600273
 20
369.4276847920578
 30
0.0
  0
LWPOLYLINE
  5
BA
330
1F
100
AcDbEntity
  8
0
  6
Continuous
 62
     7
370
    25
100
AcDbPolyline
 90
       10
 70
   128
 43
0.0
 10
415.5207235167
 20
346.1755595
 10
415.6142581055
 20
346.2295575829
 10
415.8941242645
 20
346.3911420496
 10
416.3581687758
 20
346.6590574773
 10
417.0028153608
 20
347.0312475057
 10
417.8230944822
 20
347.5048324855
 10
418.8126656959
 20
348.0761616321
 10
419.963907058
 20
348.7408279272
 10
421.2679225752
 20
349.4937090965
 10
422.7146763155
 20
350.3289862366
  0
LINE
  5
BB
330
1F
100
AcDbEntity
  8
0
  6
Continuous
 62
     7
370
    25
100
AcDbLine
 10
415.5207235167
 20
346.1755595
 30
0.0
 11
372.1933472703
 21
346.1755595
 31
0.0
  0
ARC
  5
BC
330
1F
100
AcDbEntity
  8
0
  6
Continuous
 62
     7
370
    25
100
AcDbCircle
 10
363.2930526637
 20
429.4263811103
 30
0.0
 40
59.99999999999995
100
AcDbArc
 50
269.6222986122
 51
270.0
  0
LINE
  5
BD
330
1F
100
AcDbEntity
  8
0
  6
Continuous
 62
     7
370
    25
100
AcDbLine
 10
439.7146735141
 20
368.4263794513
 30
0.0
 11
439.7146735141
 21
363.1755604239
 31
0.0
  0
LINE
  5
BE
330
1F
100
AcDbEntity
  8
0
  6
Continuous
 62
     7
370
    25
100
AcDbLine
 10
425.7146749446
 20
369.4263814779
 30
0.0
 11
438.7146714876
 21
369.4263814779
 31
0.0
  0
ARC
  5
BF
330
1F
100
AcDbEntity
  8
0
  6
Continuous
 62
     7
370
    25
100
AcDbCircle
 10
438.7146735141
 20
368.4263811103
 30
0.0
 40
1.000000000000057
100
AcDbArc
 50
0.0
 51
90.0
  0
LINE
  5
C0
330
1F
100
AcDbEntity
  8
0
  6
Continuous
 62
     7
370
    25
100
AcDbLine
 10
363.2930513272
 20
369.4263814779
 30
0.0
 11
425.7146749446
 21
369.4263814779
 31
0.0
  0
ARC
  5
C1
330
1F
100
AcDbEntity
  8
0
  6
Continuous
 62
     7
370
    25
100
AcDbCircle
 10
422.7146735141
 20
363.1755588146
 30
0.0
 40
17.00000000000006
100
AcDbArc
 50
349.1228991592
 51
0.0
  0
SPLINE
  5
C2
330
1F
100
AcDbEntity
  8
0
  6
Continuous
 62
     7
370
    25
100
AcDbSpline
210
0.0
220
0.0
230
1.0
 70
    24
 71
     3
 72
    32
 73
    28
 74
     0
 42
0.000000001
 43
0.00000001
 40
0.0
 40
0.0
 40
0.0
 40
0.0
 40
0.125
 40
0.125
 40
0.1875000000000004
 40
0.1875000000000004
 40
0.2500000000000008
 40
0.2500000000000008
 40
0.3125000000000012
 40
0.3125000000000012
 40
0.3750000000000017
 40
0.3750000000000017
 40
0.5000000000000019
 40
0.5000000000000019
 40
0.5625000000000016
 40
0.5625000000000016
 40
0.6250000000000012
 40
0.6250000000000012
 40
0.6875000000000009
 40
0.6875000000000009
 40
0.7500000000000007
 40
0.7500000000000007
 40
0.8750000000000004
 40
0.8750000000000004
 40
0.9375000000000002
 40
0.9375000000000002
 40
1.0
 40
1.0
 40
1.0
 40
1.0
 10
422.7146735141307
 20
350.3289871234253
 30
0.0
 10
423.5562768861735
 20
350.8148870568251
 30
0.0
 10
424.4316042303481
 20
351.3202575346134
 30
0.0
 10
425.7877698359332
 20
352.1032401120637
 30
0.0
 10
426.2485477874164
 20
352.3692703863891
 30
0.0
 10
427.1782554506701
 20
352.9060373560363
 30
0.0
 10
427.6425033393415
 20
353.1740709995315
 30
0.0
 10
428.5698451863479
 20
353.7094720645314
 30
0.0
 10
429.0329390088124
 20
353.9768394075913
 30
0.0
 10
429.9579521621324
 20
354.5108960006646
 30
0.0
 10
430.4221239092579
 20
354.7788856838177
 30
0.0
 10
431.7967534225121
 20
355.572528403331
 30
0.0
 10
432.6766770103354
 20
356.0805525236272
 30
0.0
 10
433.9370387232829
 20
356.8082226978737
 30
0.0
 10
434.3471467508059
 20
357.0449986779609
 30
0.0
 10
435.1451415862761
 20
357.5057212110315
 30
0.0
 10
435.5254163478888
 20
357.7252729470146
 30
0.0
 10
436.2402036840661
 20
358.13795560797
 30
0.0
 10
436.576115804696
 20
358.3318945612397
 30
0.0
 10
437.2033918337061
 20
358.6940525454448
 30
0.0
 10
437.4956300707716
 20
358.8627763702822
 30
0.0
 10
438.2940910757025
 20
359.3237680464164
 30
0.0
 10
438.701518749871
 20
359.5589965237729
 30
0.0
 10
439.1227373059244
 20
359.802187170498
 30
0.0
 10
439.2305783646415
 20
359.864449234778
 30
0.0
 10
439.3731737967167
 20
359.9467767458719
 30
0.0
 10
439.4092550711438
 20
359.9676082793751
 30
0.0
 10
439.4092550711438
 20
359.9676082793751
 30
0.0
  0
LWPOLYLINE
  5
C3
330
1F
100
AcDbEntity
  8
0
  6
Continuous
 62
     7
370
    25
100
AcDbPolyline
 90
        9
 70
   128
 43
0.0
 10
408.2834306905
 20
401.3522459956
 10
408.1892777035
 20
401.3502790423
 10
407.9104397247
 20
401.3444377871
 10
407.4576306889
 20
401.334953198
 10
406.8482551525
 20
401.3221829029
 10
406.1057302902
 20
401.3066335411
 10
405.2585843751
 20
401.2888862582
 10
404.3393764446
 20
401.2696339579
 10
403.3834297011
 20
401.2496067973
  0
ARC
  5
C4
330
1F
100
AcDbEntity
  8
0
  6
Continuous
 62
     7
370
    25
100
AcDbCircle
 10
408.1724377291
 20
406.6510854614
 30
0.0
 40
5.300000000000018
100
AcDbArc
 50
271.2
 51
353.3158759227
  0
SPLINE
  5
C5
330
1F
100
AcDbEntity
  8
0
  6
Continuous
 62
     7
370
    25
100
AcDbSpline
210
0.0
220
0.0
230
1.0
 70
    24
 71
     3
 72
     8
 73
     4
 74
     0
 42
0.000000001
 43
0.00000001
 40
0.0
 40
0.0
 40
0.0
 40
0.0
 40
1.0
 40
1.0
 40
1.0
 40
1.0
 10
373.322494176766
 20
400.619920576473
 30
0.0
 10
383.3428069693308
 20
400.8298162079179
 30
0.0
 10
393.3631197618955
 20
401.0397118393628
 30
0.0
 10
403.3834325544602
 20
401.2496074708077
 30
0.0
  0
LWPOLYLINE
  5
C6
330
1F
100
AcDbEntity
  8
0
  6
Continuous
 62
     7
370
    25
100
AcDbPolyline
 90
       10
 70
   128
 43
0.0
 10
440.2974430273
 20
355.3735657425
 10
440.2732733438
 20
355.3596108051
 10
440.0805864284
 20
355.2483661862
 10
439.6987888763
 20
355.0279333086
 10
439.1349885414
 20
354.7024248929
 10
438.3996609399
 20
354.27788336
 10
437.5064629862
 20
353.7621988745
 10
436.4720020244
 20
353.1649454327
 10
435.3155005524
 20
352.4972393008
 10
434.0584460447
 20
351.7714782448
  0
LINE
  5
C7
330
1F
100
AcDbEntity
  8
0
  6
Continuous
 62
     7
370
    25
100
AcDbLine
 10
434.0584460447
 20
351.7714782448
 30
0.0
 11
432.3471221874
 21
354.7355799766
 31
0.0
  0
LWPOLYLINE
  5
C8
330
1F
100
AcDbEntity
  8
0
  6
Continuous
 62
     7
370
    25
100
AcDbPolyline
 90
        9
 70
   128
 43
0.0
 10
424.0404922316
 20
349.9397530051
 10
425.0398460577
 20
350.5167259665
 10
426.0724890778
 20
351.1129214259
 10
427.1275210927
 20
351.7220436426
 10
428.1938109348
 20
352.3376627655
 10
429.2600933263
 20
352.9532893391
 10
430.3151253412
 20
353.5624115558
 10
431.3477683613
 20
354.1586070152
 10
432.3471221874
 20
354.7355799766
  0
LINE
  5
C9
330
1F
100
AcDbEntity
  8
0
  6
Continuous
 62
     7
370
    25
100
AcDbLine
 10
424.0404922316
 20
349.9397530051
 30
0.0
 11
425.7518235395
 21
346.975647548
 31
0.0
  0
LWPOLYLINE
  5
CA
330
1F
100
AcDbEntity
  8
0
  6
Continuous
 62
     7
370
    25
100
AcDbPolyline
 90
       10
 70
   128
 43
0.0
 10
425.7518235395
 20
346.975647548
 10
424.4947690318
 20
346.2498902173
 10
423.3382601092
 20
345.5821803601
 10
422.3037991474
 20
344.9849343689
 10
421.4106011937
 20
344.4692461582
 10
420.6752735922
 20
344.0447008999
 10
420.1114732573
 20
343.7191924842
 10
419.7296831558
 20
343.4987670572
 10
419.5369962404
 20
343.387518713
 10
419.5128265569
 20
343.3735637756
  0
LWPOLYLINE
  5
CB
330
1F
100
AcDbEntity
  8
0
  6
Continuous
 62
     7
370
    25
100
AcDbPolyline
 90
       13
 70
   128
 43
0.0
 10
430.1938075373
 20
348.8735674711
 10
428.8966465542
 20
348.1246500106
 10
427.623647804
 20
347.3896837624
 10
426.3985264847
 20
346.6823591681
 10
425.2441037247
 20
346.0158525796
 10
424.1818893502
 20
345.4025803895
 10
423.231657202
 20
344.8539680632
 10
422.4111247609
 20
344.3802303465
 10
421.735565717
 20
343.9901961775
 10
421.217564101
 20
343.6911298724
 10
420.8667758653
 20
343.48860074
 10
420.6897351692
 20
343.3863862248
 10
420.6675249884
 20
343.3735637756
  0
SPLINE
  5
CC
330
1F
100
AcDbEntity
  8
0
  6
Continuous
 62
     7
370
    25
100
AcDbSpline
210
0.0
220
0.0
230
1.0
 70
     8
 71
     3
 72
     8
 73
     4
 74
     0
 42
0.000000001
 43
0.00000001
 40
0.0
 40
0.0
 40
0.0
 40
0.0
 40
1.0
 40
1.0
 40
1.0
 40
1.0
 10
425.7518204974954
 20
346.9756487266098
 30
0.0
 10
427.3031966843026
 20
347.4501592182436
 30
0.0
 10
428.7921289225661
 20
348.0643049475773
 30
0.0
 10
430.1938075635493
 20
348.8735644882663
 30
0.0
  0
LWPOLYLINE
  5
CD
330
1F
100
AcDbEntity
  8
0
  6
Continuous
 62
     7
370
    25
100
AcDbPolyline
 90
       13
 70
   128
 43
0.0
 10
439.7200826356
 20
354.373563716
 10
439.6978799055
 20
354.3607412668
 10
439.5208392093
 20
354.2585267516
 10
439.1700509737
 20
354.0559976192
 10
438.6520493577
 20
353.756931314
 10
437.9764903138
 20
353.3669008704
 10
437.1559578726
 20
352.8931631537
 10
436.2057257245
 20
352.344547102
 10
435.1435113499
 20
351.7312749119
 10
433.9890885899
 20
351.0647683235
 10
432.7639672706
 20
350.3574474545
 10
431.4909685204
 20
349.6224774809
 10
430.1938075373
 20
348.8735674711
  0
SPLINE
  5
CE
330
1F
100
AcDbEntity
  8
0
  6
Continuous
 62
     7
370
    25
100
AcDbSpline
210
0.0
220
0.0
230
1.0
 70
     8
 71
     3
 72
    10
 73
     6
 74
     0
 42
0.000000001
 43
0.00000001
 40
0.0
 40
0.0
 40
0.0
 40
0.0
 40
0.5
 40
0.5
 40
1.0
 40
1.0
 40
1.0
 40
1.0
 10
430.1938075635493
 20
348.8735644882663
 30
0.0
 10
430.8930146951308
 20
349.2772519139041
 30
0.0
 10
431.5739337240817
 20
349.7315378336088
 30
0.0
 10
432.8613219097222
 20
350.7046552703086
 30
0.0
 10
433.4723770538811
 20
351.2250974515704
 30
0.0
 10
434.0584443604135
 20
351.7714802499226
 30
0.0
  0
LWPOLYLINE
  5
CF
330
1F
100
AcDbEntity
  8
0
  6
Continuous
 62
     7
370
    25
100
AcDbPolyline
 90
       12
 70
   128
 43
0.0
 10
430.2938092301
 20
348.7003563734
 10
429.1127804468
 20
348.0184941383
 10
427.9581267188
 20
347.3518534394
 10
426.8556568573
 20
346.7153428884
 10
425.8299875805
 20
346.1231707426
 10
424.904029424
 20
345.588569233
 10
424.0984726498
 20
345.1234816404
 10
423.4313104103
 20
344.7382940741
 10
422.9174438665
 20
344.4416119547
 10
422.5683469126
 20
344.2400625737
 10
422.3918352077
 20
344.1381535323
 10
422.369677181
 20
344.1253608854
  0
LWPOLYLINE
  5
D0
330
1F
100
AcDbEntity
  8
0
  6
Continuous
 62
     7
370
    25
100
AcDbPolyline
 90
       12
 70
   128
 43
0.0
 10
438.2179412792
 20
353.2753630372
 10
438.1957832525
 20
353.2625703903
 10
438.019264097
 20
353.1606538983
 10
437.6701745937
 20
352.9591082426
 10
437.1563080499
 20
352.6624261232
 10
436.4891458104
 20
352.2772385569
 10
435.6835890362
 20
351.8121509643
 10
434.7576308796
 20
351.2775494547
 10
433.7319616029
 20
350.6853773089
 10
432.6294842908
 20
350.0488667579
 10
431.4748380134
 20
349.382226059
 10
430.2938092301
 20
348.7003563734
  0
SPLINE
  5
D1
330
1F
100
AcDbEntity
  8
0
  6
Continuous
 62
     7
370
    25
100
AcDbSpline
210
0.0
220
0.0
230
1.0
 70
     8
 71
     3
 72
    12
 73
     8
 74
     0
 42
0.000000001
 43
0.00000001
 40
0.0
 40
0.0
 40
0.0
 40
0.0
 40
0.2500000000000042
 40
0.2500000000000042
 40
0.5000000000000083
 40
0.5000000000000083
 40
1.0
 40
1.0
 40
1.0
 40
1.0
 10
412.5670182534694
 20
407.1760937038885
 30
0.0
 10
412.6971631888816
 20
407.1603496872285
 30
0.0
 10
412.8217527579951
 20
407.1195099301293
 30
0.0
 10
413.0488314902578
 20
406.992425184666
 30
0.0
 10
413.1495597444514
 20
406.9065663943939
 30
0.0
 10
413.3911331031926
 20
406.6023102058988
 30
0.0
 10
413.4695074984011
 20
406.3351833056166
 30
0.0
 10
413.440986743814
 20
406.0745516121348
 30
0.0
  0
SPLINE
  5
D2
330
1F
100
AcDbEntity
  8
0
  6
Continuous
 62
     7
370
    25
100
AcDbSpline
210
0.0
220
0.0
230
1.0
 70
     8
 71
     3
 72
     8
 73
     4
 74
     0
 42
0.000000001
 43
0.00000001
 40
0.0
 40
0.0
 40
0.0
 40
0.0
 40
1.0
 40
1.0
 40
1.0
 40
1.0
 10
413.4409867438141
 20
406.0745516121348
 30
0.0
 10
413.4409726642784
 20
406.0744229488762
 30
0.0
 10
413.4398196302926
 20
406.063255255817
 30
0.0
 10
413.4364133077414
 20
406.0341891108984
 30
0.0
  0
LWPOLYLINE
  5
D3
330
1F
100
AcDbEntity
  8
0
  6
Continuous
 62
     7
370
    25
100
AcDbPolyline
 90
        8
 70
   128
 43
0.0
 10
360.6973212013
 20
385.1996033283
 10
360.8891103218
 20
386.1019058915
 10
361.0705617616
 20
386.9555710645
 10
361.2318929086
 20
387.7145691605
 10
361.3644014845
 20
388.3379815908
 10
361.4609498332
 20
388.7922062369
 10
361.5163299987
 20
389.0527530404
 10
361.5289661834
 20
389.1121937724
  0
LWPOLYLINE
  5
D4
330
1F
100
AcDbEntity
  8
0
  6
Continuous
 62
     7
370
    25
100
AcDbPolyline
 90
        8
 70
   128
 43
0.0
 10
359.8656724939
 20
381.2870128842
 10
359.8783086786
 20
381.3464536162
 10
359.9336888442
 20
381.6070004197
 10
360.0302371929
 20
382.0612250657
 10
360.1627457688
 20
382.684637496
 10
360.3240769157
 20
383.443635592
 10
360.5055283556
 20
384.2973007651
 10
360.6973212013
 20
385.1996033283
  0
SPLINE
  5
D5
330
1F
100
AcDbEntity
  8
0
  6
Continuous
 62
     8
370
    18
100
AcDbSpline
210
0.0
220
0.0
230
1.0
 70
     8
 71
     3
 72
    10
 73
     6
 74
     0
 42
0.000000001
 43
0.00000001
 40
0.0
 40
0.0
 40
0.0
 40
0.0
 40
0.5
 40
0.5
 40
1.0
 40
1.0
 40
1.0
 40
1.0
 10
342.7702988290033
 20
410.6258316907679
 30
0.0
 10
343.9199331377812
 20
410.3819795789389
 30
0.0
 10
345.052830588362
 20
410.1410433843593
 30
0.0
 10
347.2866626673059
 20
409.6662796026304
 30
0.0
 10
348.3875269455955
 20
409.4320902153604
 30
0.0
 10
349.4716831059304
 20
409.2014228290751
 30
0.0
  0
SPLINE
  5
D6
330
1F
100
AcDbEntity
  8
0
  6
Continuous
 62
     8
370
    18
100
AcDbSpline
210
0.0
220
0.0
230
1.0
 70
     8
 71
     3
 72
    10
 73
     6
 74
     0
 42
0.000000001
 43
0.00000001
 40
0.0
 40
0.0
 40
0.0
 40
0.0
 40
0.5
 40
0.5
 40
1.0
 40
1.0
 40
1.0
 40
1.0
 10
349.5378782432348
 20
408.1792742975279
 30
0.0
 10
348.4130023443495
 20
408.4186585202008
 30
0.0
 10
347.270860969814
 20
408.6616047227741
 30
0.0
 10
344.9532711109333
 20
409.1541386076079
 30
0.0
 10
343.7778981678836
 20
409.4040816913986
 30
0.0
 10
342.5851539611246
 20
409.6570890500594
 30
0.0
  0
LWPOLYLINE
  5
D7
330
1F
100
AcDbEntity
  8
0
  6
Continuous
 62
     8
370
    18
100
AcDbPolyline
 90
       18
 70
   128
 43
0.0
 10
342.0485105166
 20
409.7711487503
 10
339.9099964449
 20
410.225701222
 10
337.7908501575
 20
410.6761484237
 10
335.7102624873
 20
411.1183850856
 10
333.68707409
 20
411.5484325977
 10
331.739607806
 20
411.9623719545
 10
329.8855000908
 20
412.3564778657
 10
328.1415436218
 20
412.7271740528
 10
326.5235299045
 20
413.0710928531
 10
325.0461132998
 20
413.3851199241
 10
323.7226731876
 20
413.6664240451
 10
322.5651947582
 20
413.9124571176
 10
321.5841600472
 20
414.1209839673
 10
320.788453872
 20
414.2901121469
 10
320.1852818752
 20
414.4183217378
 10
319.7801067295
 20
414.5044504495
 10
319.5765973801
 20
414.5477085205
 10
319.5511154631
 20
414.553117642
  0
SPLINE
  5
D8
330
1F
100
AcDbEntity
  8
0
  6
Continuous
 62
     8
370
    18
100
AcDbSpline
210
0.0
220
0.0
230
1.0
 70
     8
 71
     3
 72
     8
 73
     4
 74
     0
 42
0.000000001
 43
0.00000001
 40
0.0
 40
0.0
 40
0.0
 40
0.0
 40
0.0005486704212852
 40
0.0005486704212852
 40
0.0005486704212852
 40
0.0005486704212852
 10
342.5851539611246
 20
409.6570890500594
 30
0.0
 10
342.4062955215835
 20
409.6950288707737
 30
0.0
 10
342.2273598300109
 20
409.7329188464437
 30
0.0
 10
342.0485102794596
 20
409.7711502698243
 30
0.0
  0
SPLINE
  5
D9
330
1F
100
AcDbEntity
  8
0
  6
Continuous
 62
     8
370
    18
100
AcDbSpline
210
0.0
220
0.0
230
1.0
 70
     8
 71
     3
 72
     8
 73
     4
 74
     0
 42
0.000000001
 43
0.00000001
 40
0.0
 40
0.0
 40
0.0
 40
0.0
 40
1.0
 40
1.0
 40
1.0
 40
1.0
 10
353.6747549141892
 20
407.3103490162979
 30
0.0
 10
352.3611648605061
 20
407.5805564989445
 30
0.0
 10
350.9825512337883
 20
407.8718342312921
 30
0.0
 10
349.5378782432348
 20
408.1792742975279
 30
0.0
  0
SPLINE
  5
DA
330
1F
100
AcDbEntity
  8
0
  6
Continuous
 62
     8
370
    18
100
AcDbSpline
210
0.0
220
0.0
230
1.0
 70
     8
 71
     3
 72
     8
 73
     4
 74
     0
 42
0.000000001
 43
0.00000001
 40
0.0
 40
0.0
 40
0.0
 40
0.0
 40
1.0
 40
1.0
 40
1.0
 40
1.0
 10
354.5714216531427
 20
407.1271586036598
 30
0.0
 10
354.2768808337328
 20
407.1866480960545
 30
0.0
 10
353.9780437741093
 20
407.2479620340548
 30
0.0
 10
353.6747549141892
 20
407.3103490162979
 30
0.0
  0
SPLINE
  5
DB
330
1F
100
AcDbEntity
  8
0
  6
Continuous
 62
     8
370
    18
100
AcDbSpline
210
0.0
220
0.0
230
1.0
 70
     8
 71
     3
 72
     8
 73
     4
 74
     0
 42
0.000000001
 43
0.00000001
 40
0.0
 40
0.0
 40
0.0
 40
0.0
 40
0.0006235855658959
 40
0.0006235855658959
 40
0.0006235855658959
 40
0.0006235855658959
 10
355.0748518127047
 20
407.0265996952353
 30
0.0
 10
354.9085359381796
 20
407.0593613560009
 30
0.0
 10
354.7407107035584
 20
407.0929666716302
 30
0.0
 10
354.5714216531427
 20
407.1271586036598
 30
0.0
  0
SPLINE
  5
DC
330
1F
100
AcDbEntity
  8
0
  6
Continuous
 62
     8
370
    18
100
AcDbSpline
210
0.0
220
0.0
230
1.0
 70
     8
 71
     3
 72
    11
 73
     7
 74
     0
 42
0.000000001
 43
0.00000001
 40
-0.00000006
 40
-0.00000006
 40
-0.00000006
 40
-0.00000006
 40
0.0
 40
0.0
 40
0.0
 40
0.0005282950640932
 40
0.0005282950640932
 40
0.0005282950640932
 40
0.0005282950640932
 10
342.2535251530045
 20
410.7356694152728
 30
0.0
 10
342.2535447108863
 20
410.7356652332565
 30
0.0
 10
342.2535642687671
 20
410.7356610512357
 30
0.0
 10
342.2535838266498
 20
410.735656869224
 30
0.0
 10
342.425789375176
 20
410.6988346002377
 30
0.0
 10
342.5980818862403
 20
410.6623611026556
 30
0.0
 10
342.7702988290033
 20
410.6258316907679
 30
0.0
  0
LWPOLYLINE
  5
DD
330
1F
100
AcDbEntity
  8
0
  6
Continuous
 62
     8
370
    18
100
AcDbPolyline
 90
       17
 70
   128
 43
0.0
 10
320.5715614172
 20
415.3443096967
 10
320.6759659374
 20
415.3221218677
 10
320.9881741354
 20
415.2557520957
 10
321.505179702
 20
415.1458709331
 10
322.2220028552
 20
414.9935065599
 10
323.1317406321
 20
414.8001341911
 10
324.2256311501
 20
414.5676164718
 10
325.493140685
 20
414.2982034774
 10
326.9220614607
 20
413.9944731088
 10
328.498633186
 20
413.6593608947
 10
330.2076715777
 20
413.2961003871
 10
332.0327173719
 20
412.9081635566
 10
333.9561965117
 20
412.4993203969
 10
335.9595831285
 20
412.0734899135
 10
338.0235839436
 20
411.6347699256
 10
340.1283208082
 20
411.1873923631
 10
342.2535244176
 20
410.7356636615
  0
LWPOLYLINE
  5
DE
330
1F
100
AcDbEntity
  8
0
  6
Continuous
 62
     8
370
    18
100
AcDbPolyline
 90
       22
 70
   128
 43
0.0
 10
343.2134981999
 20
371.3316439481
 10
341.2308186094
 20
371.753078589
 10
339.1864649752
 20
372.1876188012
 10
337.098581324
 20
372.6314126344
 10
334.9856953869
 20
373.0805187316
 10
332.8665602753
 20
373.5309584828
 10
330.7599812547
 20
373.9787234755
 10
328.6846564884
 20
374.4198500009
 10
326.6590028802
 20
374.850411603
 10
324.7009977499
 20
375.2666010352
 10
322.8280177141
 20
375.6647153588
 10
321.0566854837
 20
376.0412229987
 10
319.4027217837
 20
376.3927860947
 10
317.8808051894
 20
376.7162754031
 10
316.5044424391
 20
377.0088299008
 10
315.2858485269
 20
377.2678493352
 10
314.2358382907
 20
377.4910389276
 10
313.3637303986
 20
377.6764093728
 10
312.6772647525
 20
377.8223215433
 10
312.1825338608
 20
377.9274790378
 10
311.8839278618
 20
377.9909505339
 10
311.7840972996
 20
378.0121697874
  0
LWPOLYLINE
  5
DF
330
1F
100
AcDbEntity
  8
0
  6
Continuous
 62
     8
370
    18
100
AcDbPolyline
 90
        3
 70
   128
 43
0.0
 10
347.8355962584
 20
326.3733505102
 10
347.8302467415
 20
326.3722217472
 10
347.7874655077
 20
326.3631879182
  0
SPLINE
  5
E0
330
1F
100
AcDbEntity
  8
0
  6
Continuous
 62
     8
370
    18
100
AcDbSpline
210
0.0
220
0.0
230
1.0
 70
     8
 71
     3
 72
     8
 73
     4
 74
     0
 42
0.000000001
 43
0.00000001
 40
0.0
 40
0.0
 40
0.0
 40
0.0
 40
1.0
 40
1.0
 40
1.0
 40
1.0
 10
412.0761643214992
 20
407.1308576846689
 30
0.0
 10
412.1876009081994
 20
407.1310727654269
 30
0.0
 10
412.2794554236892
 20
407.1315502091382
 30
0.0
 10
412.3512269507119
 20
407.1326587844294
 30
0.0
  0
SPLINE
  5
E1
330
1F
100
AcDbEntity
  8
0
  6
Continuous
 62
     8
370
    18
100
AcDbSpline
210
0.0
220
0.0
230
1.0
 70
     8
 71
     3
 72
     8
 73
     4
 74
     0
 42
0.000000001
 43
0.00000001
 40
0.0
 40
0.0
 40
0.0
 40
0.0
 40
1.0
 40
1.0
 40
1.0
 40
1.0
 10
411.7160710028237
 20
407.130778495384
 30
0.0
 10
411.8523457214205
 20
407.1306695870965
 30
0.0
 10
411.9726086583989
 20
407.1306578146694
 30
0.0
 10
412.0761643214992
 20
407.1308576846689
 30
0.0
  0
SPLINE
  5
E2
330
1F
100
AcDbEntity
  8
0
  6
Continuous
 62
     8
370
    18
100
AcDbSpline
210
0.0
220
0.0
230
1.0
 70
     8
 71
     3
 72
     8
 73
     4
 74
     0
 42
0.000000001
 43
0.00000001
 40
0.0
 40
0.0
 40
0.0
 40
0.0
 40
1.0
 40
1.0
 40
1.0
 40
1.0
 10
411.1486428909446
 20
407.1317954115106
 30
0.0
 10
411.3609400181952
 20
407.1312695452995
 30
0.0
 10
411.5502858805398
 20
407.1309109878517
 30
0.0
 10
411.7160710028236
 20
407.130778495384
 30
0.0
  0
SPLINE
  5
E3
330
1F
100
AcDbEntity
  8
0
  6
Continuous
 62
     8
370
    18
100
AcDbSpline
210
0.0
220
0.0
230
1.0
 70
     8
 71
     3
 72
    12
 73
     8
 74
     0
 42
0.000000001
 43
0.00000001
 40
0.0
 40
0.0
 40
0.0
 40
0.0
 40
0.2500000000000015
 40
0.2500000000000015
 40
0.500000000000003
 40
0.500000000000003
 40
1.0
 40
1.0
 40
1.0
 40
1.0
 10
407.4415092706768
 20
407.1412789825287
 30
0.0
 10
407.8235202021879
 20
407.1405884404098
 30
0.0
 10
408.1887833676411
 20
407.1398142513834
 30
0.0
 10
408.8866039025968
 20
407.1381020934467
 30
0.0
 10
409.2205801887671
 20
407.1371653819023
 30
0.0
 10
410.1619060216025
 20
407.1345299208499
 30
0.0
 10
410.7002040997501
 20
407.1329062075495
 30
0.0
 10
411.1486428909446
 20
407.1317954115106
 30
0.0
  0
SPLINE
  5
E4
330
1F
100
AcDbEntity
  8
0
  6
Continuous
 62
     8
370
    18
100
AcDbSpline
210
0.0
220
0.0
230
1.0
 70
     8
 71
     3
 72
    10
 73
     6
 74
     0
 42
0.000000001
 43
0.00000001
 40
0.0
 40
0.0
 40
0.0
 40
0.0
 40
0.5
 40
0.5
 40
1.0
 40
1.0
 40
1.0
 40
1.0
 10
403.635996155384
 20
407.1456723477263
 30
0.0
 10
404.2984381202593
 20
407.1450379598525
 30
0.0
 10
404.9510495125157
 20
407.1446405642898
 30
0.0
 10
406.2336746280391
 20
407.1432381127149
 30
0.0
 10
406.8500980013579
 20
407.1423480472006
 30
0.0
 10
407.4415092706768
 20
407.1412789825287
 30
0.0
  0
SPLINE
  5
E5
330
1F
100
AcDbEntity
  8
0
  6
Continuous
 62
     8
370
    18
100
AcDbSpline
210
0.0
220
0.0
230
1.0
 70
     8
 71
     3
 72
    11
 73
     7
 74
     0
 42
0.000000001
 43
0.00000001
 40
0.0
 40
0.0
 40
0.0
 40
0.0
 40
0.0001770074196939
 40
0.0001770074196939
 40
0.0001770074196939
 40
0.0003528678349735
 40
0.0003528678349735
 40
0.0003528678349735
 40
0.0003528678349735
 10
403.2832377244746
 20
407.1461814020883
 30
0.0
 10
403.3422396078404
 20
407.1460565665228
 30
0.0
 10
403.4012420093719
 20
407.1459572288704
 30
0.0
 10
403.4602287457215
 20
407.1458749874219
 30
0.0
 10
403.5188332953199
 20
407.1457932788321
 30
0.0
 10
403.5774276743863
 20
407.1457284358609
 30
0.0
 10
403.635996155384
 20
407.1456723477263
 30
0.0
  0
SPLINE
  5
E6
330
1F
100
AcDbEntity
  8
0
  6
Continuous
 62
     8
370
    18
100
AcDbSpline
210
0.0
220
0.0
230
1.0
 70
     8
 71
     3
 72
    11
 73
     7
 74
     0
 42
0.000000001
 43
0.00000001
 40
0.0
 40
0.0
 40
0.0
 40
0.0
 40
0.0002203474018664
 40
0.0002203474018664
 40
0.0002203474018664
 40
0.0004271838458319
 40
0.0004271838458319
 40
0.0004271838458319
 40
0.0004271838458319
 10
402.8560573809744
 20
407.1467613607313
 30
0.0
 10
402.9295059981135
 20
407.1467002409218
 30
0.0
 10
403.0029545911205
 20
407.146628065187
 30
0.0
 10
403.0764031306574
 20
407.1465311052437
 30
0.0
 10
403.1453480518964
 20
407.1464400905591
 30
0.0
 10
403.2142929345334
 20
407.1463272747511
 30
0.0
 10
403.2832377244746
 20
407.1461814020883
 30
0.0
  0
SPLINE
  5
E7
330
1F
100
AcDbEntity
  8
0
  6
Continuous
 62
     8
370
    18
100
AcDbSpline
210
0.0
220
0.0
230
1.0
 70
     8
 71
     3
 72
    14
 73
    10
 74
     0
 42
0.000000001
 43
0.00000001
 40
0.0
 40
0.0
 40
0.0
 40
0.0
 40
0.25
 40
0.25
 40
0.5
 40
0.5
 40
0.75
 40
0.75
 40
1.0
 40
1.0
 40
1.0
 40
1.0
 10
369.1309851803888
 20
407.1817202788298
 30
0.0
 10
371.9414007461712
 20
407.176727898935
 30
0.0
 10
374.7518296682535
 20
407.1752863266761
 30
0.0
 10
380.3726805141675
 20
407.1695701866565
 30
0.0
 10
383.183105214184
 20
407.1664927484342
 30
0.0
 10
388.8039534627245
 20
407.1606345787396
 30
0.0
 10
391.6143767495027
 20
407.1575267632533
 30
0.0
 10
397.2352219081781
 20
407.1518155392822
 30
0.0
 10
400.045646358676
 20
407.1491000267662
 30
0.0
 10
402.8560573809744
 20
407.1467613607313
 30
0.0
  0
SPLINE
  5
E8
330
1F
100
AcDbEntity
  8
0
  6
Continuous
 62
     8
370
    18
100
AcDbSpline
210
0.0
220
0.0
230
1.0
 70
     8
 71
     3
 72
    11
 73
     7
 74
     0
 42
0.000000001
 43
0.00000001
 40
0.0
 40
0.0
 40
0.0
 40
0.0
 40
0.0009584443937322
 40
0.0009584443937322
 40
0.0009584443937322
 40
0.0019066625549322
 40
0.0019066625549322
 40
0.0019066625549322
 40
0.0019066625549322
 10
367.2243426446051
 20
407.186569068073
 30
0.0
 10
367.5438186905503
 20
407.1854496511831
 30
0.0
 10
367.8632961714854
 20
407.1845134945162
 30
0.0
 10
368.182774410144
 20
407.1837180505303
 30
0.0
 10
368.4988439610217
 20
407.1829310935706
 30
0.0
 10
368.8149143638373
 20
407.1822817422693
 30
0.0
 10
369.1309851803887
 20
407.1817202788298
 30
0.0
  0
SPLINE
  5
E9
330
1F
100
AcDbEntity
  8
0
  6
Continuous
 62
     8
370
    18
100
AcDbSpline
210
0.0
220
0.0
230
1.0
 70
     8
 71
     3
 72
    11
 73
     7
 74
     0
 42
0.000000001
 43
0.00000001
 40
0.0
 40
0.0
 40
0.0
 40
0.0
 40
0.0010528996751524
 40
0.0010528996751524
 40
0.0010528996751524
 40
0.0018300050798694
 40
0.0018300050798694
 40
0.0018300050798694
 40
0.0018300050798694
 10
365.3943884723226
 20
407.1956641563595
 30
0.0
 10
365.7453396155017
 20
407.1932343963624
 30
0.0
 10
366.0962953647136
 20
407.1913165119691
 30
0.0
 10
366.4472530591524
 20
407.1896984326426
 30
0.0
 10
366.7062817625188
 20
407.1885041890158
 30
0.0
 10
366.9653117925149
 20
407.1874766901452
 30
0.0
 10
367.2243426446051
 20
407.186569068073
 30
0.0
  0
SPLINE
  5
EA
330
1F
100
AcDbEntity
  8
0
  6
Continuous
 62
     8
370
    18
100
AcDbSpline
210
0.0
220
0.0
230
1.0
 70
     8
 71
     3
 72
    16
 73
    12
 74
     0
 42
0.000000001
 43
0.00000001
 40
0.0
 40
0.0
 40
0.0
 40
0.0
 40
0.1250000000000006
 40
0.1250000000000006
 40
0.2500000000000013
 40
0.2500000000000013
 40
0.5000000000000009
 40
0.5000000000000009
 40
0.7500000000000004
 40
0.7500000000000004
 40
1.0
 40
1.0
 40
1.0
 40
1.0
 10
354.8119911359581
 20
408.0871846120129
 30
0.0
 10
355.192904629207
 20
408.0119959028968
 30
0.0
 10
355.5797716935857
 20
407.9336413440819
 30
0.0
 10
356.3727946309942
 20
407.7896479910907
 30
0.0
 10
356.7798381685919
 20
407.7222183945266
 30
0.0
 10
358.0334366642397
 20
407.5359266628302
 30
0.0
 10
358.9016920496571
 20
407.4346183635249
 30
0.0
 10
360.7026219742548
 20
407.2873659741274
 30
0.0
 10
361.6235130746512
 20
407.2440110588996
 30
0.0
 10
363.5001512296923
 20
407.2008261300122
 30
0.0
 10
364.4448331965283
 20
407.2022388345043
 30
0.0
 10
365.3943884783448
 20
407.1956639828115
 30
0.0
  0
SPLINE
  5
EB
330
1F
100
AcDbEntity
  8
0
  6
Continuous
 62
     8
370
    18
100
AcDbSpline
210
0.0
220
0.0
230
1.0
 70
     8
 71
     3
 72
     8
 73
     4
 74
     0
 42
0.000000001
 43
0.00000001
 40
0.0
 40
0.0
 40
0.0
 40
0.0
 40
0.0006029791127592
 40
0.0006029791127592
 40
0.0006029791127592
 40
0.0006029791127592
 10
354.3231090627838
 20
408.185333244827
 30
0.0
 10
354.4875374866375
 20
408.1519259203184
 30
0.0
 10
354.6506735932641
 20
408.1190271642629
 30
0.0
 10
354.8119911358665
 20
408.0871846120659
 30
0.0
  0
SPLINE
  5
EC
330
1F
100
AcDbEntity
  8
0
  6
Continuous
 62
     8
370
    18
100
AcDbSpline
210
0.0
220
0.0
230
1.0
 70
     8
 71
     3
 72
     8
 73
     4
 74
     0
 42
0.000000001
 43
0.00000001
 40
0.0
 40
0.0
 40
0.0
 40
0.0
 40
1.0
 40
1.0
 40
1.0
 40
1.0
 10
353.4571562903542
 20
408.3633404226487
 30
0.0
 10
353.7499145297629
 20
408.302777526594
 30
0.0
 10
354.0386068523471
 20
408.2431362538489
 30
0.0
 10
354.3231090627838
 20
408.185333244827
 30
0.0
  0
SPLINE
  5
ED
330
1F
100
AcDbEntity
  8
0
  6
Continuous
 62
     8
370
    18
100
AcDbSpline
210
0.0
220
0.0
230
1.0
 70
     8
 71
     3
 72
     8
 73
     4
 74
     0
 42
0.000000001
 43
0.00000001
 40
0.0
 40
0.0
 40
0.0
 40
0.0
 40
1.0
 40
1.0
 40
1.0
 40
1.0
 10
349.4716831059304
 20
409.2014228290751
 30
0.0
 10
350.8619477888196
 20
408.9056271380306
 30
0.0
 10
352.1884323731886
 20
408.6258013353551
 30
0.0
 10
353.4571562903542
 20
408.3633404226487
 30
0.0
  0
SPLINE
  5
EE
330
1F
100
AcDbEntity
  8
0
  6
Continuous
 62
     8
370
    18
100
AcDbSpline
210
0.0
220
0.0
230
1.0
 70
     8
 71
     3
 72
     8
 73
     4
 74
     0
 42
0.000000001
 43
0.00000001
 40
0.0
 40
0.0
 40
0.0
 40
0.0
 40
1.0
 40
1.0
 40
1.0
 40
1.0
 10
412.5404789353571
 20
407.1457518292614
 30
0.0
 10
412.556061972673
 20
407.1681418439104
 30
0.0
 10
412.5674411415479
 20
407.1759366979804
 30
0.0
 10
412.5670182534694
 20
407.1760937038885
 30
0.0
  0
SPLINE
  5
EF
330
1F
100
AcDbEntity
  8
0
  6
Continuous
 62
     8
370
    18
100
AcDbSpline
210
0.0
220
0.0
230
1.0
 70
     8
 71
     3
 72
     8
 73
     4
 74
     0
 42
0.000000001
 43
0.00000001
 40
0.0
 40
0.0
 40
0.0
 40
0.0
 40
1.0
 40
1.0
 40
1.0
 40
1.0
 10
412.3512269507118
 20
407.1326587844295
 30
0.0
 10
412.4716740391173
 20
407.1345191972093
 30
0.0
 10
412.5351750231342
 20
407.1381310638125
 30
0.0
 10
412.5404789353572
 20
407.1457518292613
 30
0.0
  0
LWPOLYLINE
  5
F0
330
1F
100
AcDbEntity
  8
0
  6
Continuous
 62
     8
370
    18
100
AcDbPolyline
 90
        9
 70
   128
 43
0.0
 10
350.8461337338
 20
369.7092800231
 10
349.8702119837
 20
369.9167190881
 10
348.899710531
 20
370.1230033131
 10
347.9350466082
 20
370.3280507417
 10
346.976626272
 20
370.5317645164
 10
346.0248593042
 20
370.7340701313
 10
345.0801480362
 20
370.9348781796
 10
344.1428947995
 20
371.1340992542
 10
343.2134981999
 20
371.3316439481
  0
SPLINE
  5
F1
330
1F
100
AcDbEntity
  8
0
  6
Continuous
 62
     8
370
    18
100
AcDbSpline
210
0.0
220
0.0
230
1.0
 70
     8
 71
     3
 72
    10
 73
     6
 74
     0
 42
0.000000001
 43
0.00000001
 40
0.0
 40
0.0
 40
0.0
 40
0.0
 40
0.5
 40
0.5
 40
1.0
 40
1.0
 40
1.0
 40
1.0
 10
362.890935474966
 20
368.4277065200866
 30
0.0
 10
360.8312889309291
 20
368.4331620874995
 30
0.0
 10
358.7979819169925
 20
368.5465155759182
 30
0.0
 10
354.7830555670494
 20
368.9767414535971
 30
0.0
 10
352.8014356237824
 20
369.2936668679289
 30
0.0
 10
350.8461348827932
 20
369.7092788704645
 30
0.0
  0
ARC
  5
F2
330
1F
100
AcDbEntity
  8
0
  6
Continuous
 62
     8
370
    18
100
AcDbCircle
 10
372.2133415349
 20
321.2125437517
 30
0.0
 40
24.96302375560253
100
AcDbArc
 50
90.0458913596
 51
168.0925778653
  0
SPLINE
  5
F3
330
1F
100
AcDbEntity
  8
0
  6
Continuous
 62
     8
370
    18
100
AcDbSpline
210
0.0
220
0.0
230
1.0
 70
     8
 71
     3
 72
    20
 73
    16
 74
     0
 42
0.000000001
 43
0.00000001
 40
0.0
 40
0.0
 40
0.0
 40
0.0
 40
0.0312499999999994
 40
0.0312499999999994
 40
0.0624999999999988
 40
0.0624999999999988
 40
0.1249999999999978
 40
0.1249999999999978
 40
0.2499999999999982
 40
0.2499999999999982
 40
0.4999999999999988
 40
0.4999999999999988
 40
0.7499999999999993
 40
0.7499999999999993
 40
1.0
 40
1.0
 40
1.0
 40
1.0
 10
362.9407113096625
 20
406.1450283078117
 30
0.0
 10
362.8558663502718
 20
406.1441899507738
 30
0.0
 10
362.7711831862442
 20
406.1463427096717
 30
0.0
 10
362.6019187362061
 20
406.1484423700855
 30
0.0
 10
362.5173660300635
 20
406.1497547736724
 30
0.0
 10
362.2642318112846
 20
406.1544772239197
 30
0.0
 10
362.0960920610862
 20
406.1586817978732
 30
0.0
 10
361.5935237862196
 20
406.1743875376911
 30
0.0
 10
361.2609522592184
 20
406.189072243133
 30
0.0
 10
360.2707309711883
 20
406.2461389510251
 30
0.0
 10
359.6189450943951
 20
406.3025812499544
 30
0.0
 10
358.3531792885794
 20
406.4455425909948
 30
0.0
 10
357.7357179987811
 20
406.5322030878711
 30
0.0
 10
356.5407821484574
 20
406.7295675118735
 30
0.0
 10
355.9651853780234
 20
406.8414120311932
 30
0.0
 10
355.4113361006923
 20
406.9567582770804
 30
0.0
  0
SPLINE
  5
F4
330
1F
100
AcDbEntity
  8
0
  6
Continuous
 62
     8
370
    18
100
AcDbSpline
210
0.0
220
0.0
230
1.0
 70
     8
 71
     3
 72
    14
 73
    10
 74
     0
 42
0.000000001
 43
0.00000001
 40
-0.00000006
 40
-0.00000006
 40
-0.00000006
 40
-0.00000006
 40
0.0
 40
0.0
 40
0.0
 40
0.0004124398872286
 40
0.0004124398872286
 40
0.0004124398872286
 40
0.0004124998872286
 40
0.0004124998872286
 40
0.0004124998872286
 40
0.0004124998872286
 10
355.4113361006923
 20
406.9567582770804
 30
0.0
 10
355.4113198857951
 20
406.9567616611502
 30
0.0
 10
355.4113036708837
 20
406.9567650452352
 30
0.0
 10
355.4112874560064
 20
406.9567684293065
 30
0.0
 10
355.299826420073
 20
406.9800305295775
 30
0.0
 10
355.1892066947412
 20
407.0031014806896
 30
0.0
 10
355.0794157837587
 20
407.025700392916
 30
0.0
 10
355.0793998118441
 20
407.0257036805095
 30
0.0
 10
355.0793838399643
 20
407.0257069680833
 30
0.0
 10
355.0793678680672
 20
407.0257102556672
 30
0.0
  0
SPLINE
  5
F5
330
1F
100
AcDbEntity
  8
0
  6
Continuous
 62
     8
370
    18
100
AcDbSpline
210
0.0
220
0.0
230
1.0
 70
     8
 71
     3
 72
     8
 73
     4
 74
     0
 42
0.000000001
 43
0.00000001
 40
0.0
 40
0.0
 40
0.0
 40
0.0
 40
1.0
 40
1.0
 40
1.0
 40
1.0
 10
365.3857909024757
 20
406.186654366176
 30
0.0
 10
364.7702952708214
 20
406.1649180931634
 30
0.0
 10
364.1548910088976
 20
406.1450153143447
 30
0.0
 10
363.541613172089
 20
406.138316234651
 30
0.0
  0
SPLINE
  5
F6
330
1F
100
AcDbEntity
  8
0
  6
Continuous
 62
     8
370
    18
100
AcDbSpline
210
0.0
220
0.0
230
1.0
 70
     8
 71
     3
 72
    16
 73
    12
 74
     0
 42
0.000000001
 43
0.00000001
 40
0.0
 40
0.0
 40
0.0
 40
0.0
 40
0.0624999999999925
 40
0.0624999999999925
 40
0.124999999999985
 40
0.124999999999985
 40
0.2499999999999672
 40
0.2499999999999672
 40
0.4999999999999668
 40
0.4999999999999668
 40
1.0
 40
1.0
 40
1.0
 40
1.0
 10
363.541613172089
 20
406.138316234651
 30
0.0
 10
363.5290069520799
 20
406.1381976832948
 30
0.0
 10
363.5165619137302
 20
406.1401779843964
 30
0.0
 10
363.491502787139
 20
406.1414242374849
 30
0.0
 10
363.4789709433753
 20
406.1418562453053
 30
0.0
 10
363.4413742878669
 20
406.1428691075581
 30
0.0
 10
363.4163091038045
 20
406.1432056873307
 30
0.0
 10
363.3411279471025
 20
406.1440603163551
 30
0.0
 10
363.2910251661023
 20
406.1443628466192
 30
0.0
 10
363.1407845346034
 20
406.1452105403111
 30
0.0
 10
363.0406890648237
 20
406.1460513730699
 30
0.0
 10
362.9407113096625
 20
406.1450283078117
 30
0.0
  0
ARC
  5
F7
330
1F
100
AcDbEntity
  8
0
  6
Continuous
 62
     8
370
    18
100
AcDbCircle
 10
363.2930526637
 20
429.4263811103
 30
0.0
 40
61.0
100
AcDbArc
 50
269.6222986122
 51
270.0
  0
LINE
  5
F8
330
1F
100
AcDbEntity
  8
0
  6
Continuous
 62
     8
370
    18
100
AcDbLine
 10
425.7146749446
 20
368.4263794513
 30
0.0
 11
363.2930513272
 21
368.4263794513
 31
0.0
  0
LINE
  5
F9
330
1F
100
AcDbEntity
  8
0
  6
Continuous
 62
     8
370
    18
100
AcDbLine
 10
439.7146735141
 20
368.4263794513
 30
0.0
 11
425.7146749446
 21
368.4263794513
 31
0.0
  0
SPLINE
  5
FA
330
1F
100
AcDbEntity
  8
0
  6
Continuous
 62
     8
370
    18
100
AcDbSpline
210
0.0
220
0.0
230
1.0
 70
     8
 71
     3
 72
    10
 73
     6
 74
     0
 42
0.000000001
 43
0.00000001
 40
0.0
 40
0.0
 40
0.0
 40
0.0
 40
0.5
 40
0.5
 40
1.0
 40
1.0
 40
1.0
 40
1.0
 10
407.8507210279934
 20
406.0401978213978
 30
0.0
 10
407.2010741428065
 20
406.0431035381807
 30
0.0
 10
406.5240716849282
 20
406.0458401967288
 30
0.0
 10
405.1154170365204
 20
406.0510067726262
 30
0.0
 10
404.3987457256517
 20
406.0532598458604
 30
0.0
 10
403.671320738802
 20
406.055864188733
 30
0.0
  0
SPLINE
  5
FB
330
1F
100
AcDbEntity
  8
0
  6
Continuous
 62
     8
370
    18
100
AcDbSpline
210
0.0
220
0.0
230
1.0
 70
     8
 71
     3
 72
    11
 73
     7
 74
     0
 42
0.000000001
 43
0.00000001
 40
0.0
 40
0.0
 40
0.0
 40
0.0
 40
0.0001935723934575
 40
0.0001935723934575
 40
0.0001935723934575
 40
0.0003887088693232
 40
0.0003887088693232
 40
0.0003887088693232
 40
0.0003887088693232
 10
403.671320738802
 20
406.055864188733
 30
0.0
 10
403.6068499065237
 20
406.056095008619
 30
0.0
 10
403.5423514026918
 20
406.0563368572272
 30
0.0
 10
403.477842731063
 20
406.0565994431025
 30
0.0
 10
403.4128128674495
 20
406.0568641505167
 30
0.0
 10
403.3477667438384
 20
406.0571499588314
 30
0.0
 10
403.2827222557338
 20
406.0574669184943
 30
0.0
  0
SPLINE
  5
FC
330
1F
100
AcDbEntity
  8
0
  6
Continuous
 62
     8
370
    18
100
AcDbSpline
210
0.0
220
0.0
230
1.0
 70
     8
 71
     3
 72
    12
 73
     8
 74
     0
 42
0.000000001
 43
0.00000001
 40
0.0
 40
0.0
 40
0.0
 40
0.0
 40
0.5
 40
0.5
 40
0.75
 40
0.75
 40
1.0
 40
1.0
 40
1.0
 40
1.0
 10
411.9261019096879
 20
406.0184956869965
 30
0.0
 10
411.4332804523149
 20
406.0210435188981
 30
0.0
 10
410.8414290915376
 20
406.0245018293107
 30
0.0
 10
409.8063310578749
 20
406.0303281898574
 30
0.0
 10
409.43916080689
 20
406.0323877717067
 30
0.0
 10
408.6720707584607
 20
406.0363822535887
 30
0.0
 10
408.2705859780096
 20
406.0383198648345
 30
0.0
 10
407.8507210279934
 20
406.0401978213978
 30
0.0
  0
SPLINE
  5
FD
330
1F
100
AcDbEntity
  8
0
  6
Continuous
 62
     8
370
    18
100
AcDbSpline
210
0.0
220
0.0
230
1.0
 70
     8
 71
     3
 72
     8
 73
     4
 74
     0
 42
0.000000001
 43
0.00000001
 40
0.0
 40
0.0
 40
0.0
 40
0.0
 40
1.0
 40
1.0
 40
1.0
 40
1.0
 10
412.5497312383012
 20
406.0157977603725
 30
0.0
 10
412.3679413897905
 20
406.0163425450099
 30
0.0
 10
412.1596230520501
 20
406.0172884087676
 30
0.0
 10
411.9261019096879
 20
406.0184956869965
 30
0.0
  0
SPLINE
  5
FE
330
1F
100
AcDbEntity
  8
0
  6
Continuous
 62
     8
370
    18
100
AcDbSpline
210
0.0
220
0.0
230
1.0
 70
     8
 71
     3
 72
     8
 73
     4
 74
     0
 42
0.000000001
 43
0.00000001
 40
0.0
 40
0.0
 40
0.0
 40
0.0
 40
1.0
 40
1.0
 40
1.0
 40
1.0
 10
412.9429744187598
 20
406.0152251930673
 30
0.0
 10
412.8304411018585
 20
406.0151177382737
 30
0.0
 10
412.6991741725236
 20
406.0153499124019
 30
0.0
 10
412.5497312383012
 20
406.0157977603725
 30
0.0
  0
SPLINE
  5
FF
330
1F
100
AcDbEntity
  8
0
  6
Continuous
 62
     8
370
    18
100
AcDbSpline
210
0.0
220
0.0
230
1.0
 70
     8
 71
     3
 72
     8
 73
     4
 74
     0
 42
0.000000001
 43
0.00000001
 40
0.0
 40
0.0
 40
0.0
 40
0.0
 40
1.0
 40
1.0
 40
1.0
 40
1.0
 10
413.240359557107
 20
406.0172505591316
 30
0.0
 10
413.1634569952384
 20
406.0158661422676
 30
0.0
 10
413.0641804870673
 20
406.0153409292191
 30
0.0
 10
412.9429744187598
 20
406.0152251930673
 30
0.0
  0
SPLINE
  5
100
330
1F
100
AcDbEntity
  8
0
  6
Continuous
 62
     8
370
    18
100
AcDbSpline
210
0.0
220
0.0
230
1.0
 70
     8
 71
     3
 72
     8
 73
     4
 74
     0
 42
0.000000001
 43
0.00000001
 40
0.0
 40
0.0
 40
0.0
 40
0.0
 40
1.0
 40
1.0
 40
1.0
 40
1.0
 10
413.4364133077414
 20
406.0341891108984
 30
0.0
 10
413.4352562149263
 20
406.0243156397457
 30
0.0
 10
413.3697001103478
 20
406.019578976271
 30
0.0
 10
413.2403595571069
 20
406.0172505591316
 30
0.0
  0
SPLINE
  5
101
330
1F
100
AcDbEntity
  8
0
  6
Continuous
 62
     8
370
    18
100
AcDbSpline
210
0.0
220
0.0
230
1.0
 70
     8
 71
     3
 72
    11
 73
     7
 74
     0
 42
0.000000001
 43
0.00000001
 40
0.0
 40
0.0
 40
0.0
 40
0.0
 40
0.0007783289192958
 40
0.0007783289192958
 40
0.0007783289192958
 40
0.001833702282576
 40
0.001833702282576
 40
0.001833702282576
 40
0.001833702282576
 10
367.220423752549
 20
406.1705912046877
 30
0.0
 10
366.9609865127501
 20
406.1723132393449
 30
0.0
 10
366.7015503765129
 20
406.1742177680686
 30
0.0
 10
366.4421162894582
 20
406.1763625082694
 30
0.0
 10
366.0903374737598
 20
406.1792706618447
 30
0.0
 10
365.7385616038557
 20
406.1826131147799
 30
0.0
 10
365.3867938914144
 20
406.1866462285685
 30
0.0
  0
SPLINE
  5
102
330
1F
100
AcDbEntity
  8
0
  6
Continuous
 62
     8
370
    18
100
AcDbSpline
210
0.0
220
0.0
230
1.0
 70
     8
 71
     3
 72
    11
 73
     7
 74
     0
 42
0.000000001
 43
0.00000001
 40
0.0
 40
0.0
 40
0.0
 40
0.0
 40
0.0009490249335429
 40
0.0009490249335429
 40
0.0009490249335429
 40
0.001908610829177
 40
0.001908610829177
 40
0.001908610829177
 40
0.001908610829177
 10
369.1290086010999
 20
406.1607562096365
 30
0.0
 10
368.8126694205611
 20
406.1620010691159
 30
0.0
 10
368.4963307508656
 20
406.1633932032732
 30
0.0
 10
368.1799932039926
 20
406.1649997397324
 30
0.0
 10
367.8601354126881
 20
406.1666241539336
 30
0.0
 10
367.5402786186258
 20
406.1684681433835
 30
0.0
 10
367.220423752549
 20
406.1705912046877
 30
0.0
  0
SPLINE
  5
103
330
1F
100
AcDbEntity
  8
0
  6
Continuous
 62
     8
370
    18
100
AcDbSpline
210
0.0
220
0.0
230
1.0
 70
     8
 71
     3
 72
    12
 73
     8
 74
     0
 42
0.000000001
 43
0.00000001
 40
0.0
 40
0.0
 40
0.0
 40
0.0
 40
0.5000000000000006
 40
0.5000000000000006
 40
0.7500000000000002
 40
0.7500000000000002
 40
1.0
 40
1.0
 40
1.0
 40
1.0
 10
402.8567347753361
 20
406.0603018577524
 30
0.0
 10
397.2355281035746
 20
406.0936307716636
 30
0.0
 10
391.6142264820093
 20
406.1110450080733
 30
0.0
 10
383.1822699817625
 20
406.1297528498878
 30
0.0
 10
380.3716156099254
 20
406.135018041042
 30
0.0
 10
374.7503074612584
 20
406.1458044554156
 30
0.0
 10
371.9396500804215
 20
406.1496957596389
 30
0.0
 10
369.1290086010999
 20
406.1607562096364
 30
0.0
  0
SPLINE
  5
104
330
1F
100
AcDbEntity
  8
0
  6
Continuous
 62
     8
370
    18
100
AcDbSpline
210
0.0
220
0.0
230
1.0
 70
     8
 71
     3
 72
    14
 73
    10
 74
     0
 42
0.000000001
 43
0.00000001
 40
-0.00000006
 40
-0.00000006
 40
-0.00000006
 40
-0.00000006
 40
0.0
 40
0.0
 40
0.0
 40
0.000206030210505
 40
0.000206030210505
 40
0.000206030210505
 40
0.0004259382814683
 40
0.0004259382814683
 40
0.0004259382814683
 40
0.0004259382814683
 10
403.2827222557338
 20
406.0574669184943
 30
0.0
 10
403.2827022563923
 20
406.0574670718137
 30
0.0
 10
403.282682257051
 20
406.0574672251369
 30
0.0
 10
403.2826622577094
 20
406.0574673784526
 30
0.0
 10
403.2139877821095
 20
406.0579938397858
 30
0.0
 10
403.1453129539285
 20
406.0584772287945
 30
0.0
 10
403.07663793349
 20
406.0589313202998
 30
0.0
 10
403.0033370714868
 20
406.0594159986961
 30
0.0
 10
402.9300359735688
 20
406.0598672447826
 30
0.0
 10
402.8567347753361
 20
406.0603018577524
 30
0.0
  0
LWPOLYLINE
  5
105
330
1F
100
AcDbEntity
  8
0
  6
Continuous
 62
     8
370
    18
100
AcDbPolyline
 90
       16
 70
   128
 43
0.0
 10
360.4985434363
 20
381.3759579153
 10
360.4998733649
 20
381.382216403
 10
360.5315718601
 20
381.5313472243
 10
360.6038722942
 20
381.8715034814
 10
360.7128817389
 20
382.3843418451
 10
360.8527179608
 20
383.0422281118
 10
361.015848423
 20
383.8096826168
 10
361.1934702644
 20
384.6453397365
 10
361.3760169396
 20
385.5041458102
 10
361.5536387811
 20
386.3398029299
 10
361.7167692432
 20
387.1072574349
 10
361.8566054652
 20
387.7651437016
 10
361.9656149099
 20
388.2779820652
 10
362.037915344
 20
388.6181383224
 10
362.0696138392
 20
388.7672691436
 10
362.0709437678
 20
388.7735276313
  0
LINE
  5
106
330
1F
100
AcDbEntity
  8
0
  6
Continuous
 62
     7
370
    25
100
AcDbLine
 10
154.0743206618
 20
352.3376627655
 30
0.0
 11
154.0743206618
 21
353.2036884518
 31
0.0
  0
LINE
  5
107
330
1F
100
AcDbEntity
  8
0
  6
Continuous
 62
     7
370
    25
100
AcDbLine
 10
130.0743204532
 20
353.2036884518
 30
0.0
 11
130.0743204532
 21
352.3376627655
 31
0.0
  0
SPLINE
  5
108
330
1F
100
AcDbEntity
  8
0
  6
Continuous
 62
     7
370
    25
100
AcDbSpline
210
0.0
220
0.0
230
1.0
 70
     8
 71
     3
 72
    11
 73
     7
 74
     0
 42
0.000000001
 43
0.00000001
 40
0.0
 40
0.0
 40
0.0
 40
0.0
 40
0.0104014123780005
 40
0.3585667839377815
 40
0.7791484475856465
 40
0.9999999999999999
 40
0.9999999999999999
 40
0.9999999999999999
 40
0.9999999999999999
 10
157.1431831447054
 20
406.9672419519841
 30
0.0
 10
157.1437197173274
 20
406.9668717204356
 30
0.0
 10
157.1622169283252
 20
406.9541087675947
 30
0.0
 10
157.0859595181675
 20
407.0047751042422
 30
0.0
 10
156.921691540032
 20
407.1203471842308
 30
0.0
 10
156.7148599962881
 20
407.1299218779108
 30
0.0
 10
156.6436459300686
 20
407.1332185359418
 30
0.0
  0
SPLINE
  5
109
330
1F
100
AcDbEntity
  8
0
  6
Continuous
 62
     7
370
    25
100
AcDbSpline
210
0.0
220
0.0
230
1.0
 70
     8
 71
     3
 72
    11
 73
     7
 74
     0
 42
0.000000001
 43
0.00000001
 40
0.0
 40
0.0
 40
0.0
 40
0.0
 40
0.1703758606783271
 40
0.5703664215188758
 40
0.9537145960446706
 40
1.0
 40
1.0
 40
1.0
 40
1.0
 10
127.5042408136297
 20
407.1342765183866
 30
0.0
 10
127.4488511181903
 20
407.1339673447234
 30
0.0
 10
127.263423310219
 20
407.132932325589
 30
0.0
 10
127.0812716057031
 20
407.0174800721589
 30
0.0
 10
126.9875302567593
 20
406.9549868205667
 30
0.0
 10
127.0086529619426
 20
406.9694870553499
 30
0.0
 10
127.0109285590816
 20
406.9710491986692
 30
0.0
  0
LINE
  5
10A
330
1F
100
AcDbEntity
  8
0
  6
Continuous
 62
     7
370
    25
100
AcDbLine
 10
165.0743206022
 20
378.3165707083
 30
0.0
 11
165.0743206022
 21
409.7711487503
 31
0.0
  0
LINE
  5
10B
330
1F
100
AcDbEntity
  8
0
  6
Continuous
 62
     7
370
    25
100
AcDbLine
 10
119.0743205128
 20
409.7711487503
 30
0.0
 11
119.0743205128
 21
378.3165707083
 31
0.0
  0
LINE
  5
10C
330
1F
100
AcDbEntity
  8
0
  6
Continuous
 62
     7
370
    25
100
AcDbLine
 10
138.0743203675
 20
385.3452472778
 30
0.0
 11
138.0743203675
 21
385.1996033283
 31
0.0
  0
LINE
  5
10D
330
1F
100
AcDbEntity
  8
0
  6
Continuous
 62
     7
370
    25
100
AcDbLine
 10
146.0743207475
 20
385.1996033283
 30
0.0
 11
146.0743207475
 21
385.343377182
 31
0.0
  0
SPLINE
  5
10E
330
1F
100
AcDbEntity
  8
0
  6
Continuous
 62
     7
370
    25
100
AcDbSpline
210
0.0
220
0.0
230
1.0
 70
     8
 71
     3
 72
     9
 73
     5
 74
     0
 42
0.000000001
 43
0.00000001
 40
0.0
 40
0.0
 40
0.0
 40
0.0
 40
0.7861134532074779
 40
1.0
 40
1.0
 40
1.0
 40
1.0
 10
120.6574720320869
 20
376.6279413195073
 30
0.0
 10
120.6150561927965
 20
376.3353294358196
 30
0.0
 10
120.5610998088708
 20
375.9631034136165
 30
0.0
 10
120.5828865744781
 20
375.5889255313054
 30
0.0
 10
120.5875464705396
 20
375.5088939161718
 30
0.0
  0
SPLINE
  5
10F
330
1F
100
AcDbEntity
  8
0
  6
Continuous
 62
     7
370
    25
100
AcDbSpline
210
0.0
220
0.0
230
1.0
 70
     8
 71
     3
 72
     9
 73
     5
 74
     0
 42
0.000000001
 43
0.00000001
 40
0.0
 40
0.0
 40
0.0
 40
0.0
 40
0.6269977999421302
 40
1.0
 40
1.0
 40
1.0
 40
1.0
 10
163.5506042269636
 20
375.5115761251867
 30
0.0
 10
163.5602812217112
 20
375.7476875469429
 30
0.0
 10
163.5757150792916
 20
376.1242621087324
 30
0.0
 10
163.5169186885535
 20
376.4954918706918
 30
0.0
 10
163.4949875054527
 20
376.6339613886296
 30
0.0
  0
LINE
  5
110
330
1F
100
AcDbEntity
  8
0
  6
Continuous
 62
     7
370
    25
100
AcDbLine
 10
120.5743198273
 20
375.5103244276
 30
0.0
 11
120.5743198273
 21
373.719279358
 31
0.0
  0
LINE
  5
111
330
1F
100
AcDbEntity
  8
0
  6
Continuous
 62
     7
370
    25
100
AcDbLine
 10
163.5743212876
 20
373.719279358
 30
0.0
 11
163.5743212876
 21
375.5103244276
 31
0.0
  0
LINE
  5
112
330
1F
100
AcDbEntity
  8
0
  6
Continuous
 62
     7
370
    25
100
AcDbLine
 10
165.0743206022
 20
285.1755588146
 30
0.0
 11
165.0743206022
 21
373.2302008958
 31
0.0
  0
LINE
  5
113
330
1F
100
AcDbEntity
  8
0
  6
Continuous
 62
     7
370
    25
100
AcDbLine
 10
119.0743205128
 20
373.2302008958
 30
0.0
 11
119.0743205128
 21
285.1755588146
 31
0.0
  0
SPLINE
  5
114
330
1F
100
AcDbEntity
  8
0
  6
Continuous
 62
     7
370
    25
100
AcDbSpline
210
0.0
220
0.0
230
1.0
 70
     8
 71
     3
 72
    12
 73
     8
 74
     0
 42
0.000000001
 43
0.00000001
 40
0.0
 40
0.0
 40
0.0
 40
0.0
 40
0.1873289067032252
 40
0.4497992440866408
 40
0.674740168658837
 40
0.8799248123692218
 40
0.9999999999999999
 40
0.9999999999999999
 40
0.9999999999999999
 40
0.9999999999999999
 10
120.574319827335
 20
375.4411979408681
 30
0.0
 10
120.4157004374345
 20
375.3393054536505
 30
0.0
 10
120.034836197471
 20
375.0946493323121
 30
0.0
 10
119.6039037359047
 20
374.6571700747335
 30
0.0
 10
119.2634312274334
 20
374.1291926254112
 30
0.0
 10
119.0811313617734
 20
373.6354626505199
 30
0.0
 10
119.0941634627164
 20
373.3265199542594
 30
0.0
 10
119.0989744839836
 20
373.2124685140073
 30
0.0
  0
SPLINE
  5
115
330
1F
100
AcDbEntity
  8
0
  6
Continuous
 62
     7
370
    25
100
AcDbSpline
210
0.0
220
0.0
230
1.0
 70
     8
 71
     3
 72
    13
 73
     9
 74
     0
 42
0.000000001
 43
0.00000001
 40
0.0
 40
0.0
 40
0.0
 40
0.0
 40
0.0601333191129267
 40
0.2692151343767575
 40
0.4800518101600122
 40
0.710706947195935
 40
0.9764632222108625
 40
0.9999999999999999
 40
0.9999999999999999
 40
0.9999999999999999
 40
0.9999999999999999
 10
165.056804287212
 20
373.2071562500417
 30
0.0
 10
165.0624548779562
 20
373.2642358728843
 30
0.0
 10
165.0877524096565
 20
373.5197796971802
 30
0.0
 10
164.9521263342441
 20
373.9697837515092
 30
0.0
 10
164.672285139001
 20
374.4965561714484
 30
0.0
 10
164.2273685222066
 20
374.9763485020937
 30
0.0
 10
163.864123614961
 20
375.2917413950942
 30
0.0
 10
163.5961255157423
 20
375.4436366510344
 30
0.0
 10
163.5743212876488
 20
375.4559947939336
 30
0.0
  0
SPLINE
  5
116
330
1F
100
AcDbEntity
  8
0
  6
Continuous
 62
     7
370
    25
100
AcDbSpline
210
0.0
220
0.0
230
1.0
 70
     8
 71
     3
 72
    15
 73
    11
 74
     0
 42
0.000000001
 43
0.00000001
 40
0.0
 40
0.0
 40
0.0
 40
0.0
 40
0.0741017698038164
 40
0.2204740366486738
 40
0.3688235225490412
 40
0.5201903588430371
 40
0.6754088392421248
 40
0.7947445679403006
 40
0.9004662191280249
 40
1.0
 40
1.0
 40
1.0
 40
1.0
 10
123.9913162765671
 20
413.4097217412412
 30
0.0
 10
123.7765188455975
 20
413.3495852253079
 30
0.0
 10
123.1374348292101
 20
413.1706618277574
 30
0.0
 10
122.2295163469211
 20
412.8404710724652
 30
0.0
 10
121.259173931581
 20
412.4155030281361
 30
0.0
 10
120.4386667005976
 20
411.9401917648321
 30
0.0
 10
119.8148055666922
 20
411.4357823661091
 30
0.0
 10
119.3865100822364
 20
410.8971973446329
 30
0.0
 10
119.1244704703788
 20
410.3491642009624
 30
0.0
 10
119.0906977816606
 20
409.9599089188869
 30
0.0
 10
119.0743205127884
 20
409.7711487503469
 30
0.0
  0
SPLINE
  5
117
330
1F
100
AcDbEntity
  8
0
  6
Continuous
 62
     7
370
    25
100
AcDbSpline
210
0.0
220
0.0
230
1.0
 70
     8
 71
     3
 72
    15
 73
    11
 74
     0
 42
0.000000001
 43
0.00000001
 40
0.0
 40
0.0
 40
0.0
 40
0.0
 40
0.0872312058817522
 40
0.2031088964107408
 40
0.3245310411227295
 40
0.4618761450516909
 40
0.6198176697726124
 40
0.7892560478042208
 40
0.9565953384625182
 40
1.0
 40
1.0
 40
1.0
 40
1.0
 10
165.0743206021953
 20
409.7711487503469
 30
0.0
 10
165.0639489361332
 20
409.9211158649097
 30
0.0
 10
165.0397995778097
 20
410.2702988760679
 30
0.0
 10
164.8289507747919
 20
410.7820358717359
 30
0.0
 10
164.4708388822108
 20
411.2825939627492
 30
0.0
 10
163.9576283202383
 20
411.755198466049
 30
0.0
 10
163.2622500731289
 20
412.2170873764874
 30
0.0
 10
162.3549831347079
 20
412.6595595333033
 30
0.0
 10
161.5679083882138
 20
412.9795575017031
 30
0.0
 10
161.0430026804774
 20
413.1400263585676
 30
0.0
 10
160.9348935065437
 20
413.1730764003217
 30
0.0
  0
SPLINE
  5
118
330
1F
100
AcDbEntity
  8
0
  6
Continuous
 62
     7
370
    25
100
AcDbSpline
210
0.0
220
0.0
230
1.0
 70
     8
 71
     3
 72
    34
 73
    30
 74
     0
 42
0.000000001
 43
0.00000001
 40
0.0
 40
0.0
 40
0.0
 40
0.0
 40
0.1249999999999991
 40
0.1249999999999991
 40
0.1562499999999989
 40
0.1562499999999989
 40
0.1874999999999987
 40
0.1874999999999987
 40
0.2499999999999989
 40
0.2499999999999989
 40
0.3124999999999992
 40
0.3124999999999992
 40
0.3749999999999994
 40
0.3749999999999994
 40
0.4374999999999996
 40
0.4374999999999996
 40
0.4999999999999998
 40
0.4999999999999998
 40
0.5625
 40
0.5625
 40
0.6250000000000002
 40
0.6250000000000002
 40
0.7499999999999999
 40
0.7499999999999999
 40
0.8749999999999996
 40
0.8749999999999996
 40
0.9374999999999998
 40
0.9374999999999998
 40
1.0
 40
1.0
 40
1.0
 40
1.0
 10
145.0743205574916
 20
359.9676082793751
 30
0.0
 10
146.1586321004686
 20
359.9676082793752
 30
0.0
 10
147.2148825666142
 20
359.8860691005178
 30
0.0
 10
148.5010843986676
 20
359.6850255036057
 30
0.0
 10
148.7573989755588
 20
359.6395649174814
 30
0.0
 10
149.2584067694127
 20
359.539931131623
 30
0.0
 10
149.5039424591936
 20
359.485661089744
 30
0.0
 10
150.2260658425865
 20
359.3098688140106
 30
0.0
 10
150.6882361623964
 20
359.175423867572
 30
0.0
 10
151.5745775448123
 20
358.8724741323129
 30
0.0
 10
152.0009386048251
 20
358.7026643073698
 30
0.0
 10
152.7917045933014
 20
358.3389391023825
 30
0.0
 10
153.1589659660144
 20
358.1443147840906
 30
0.0
 10
153.8397635413412
 20
357.7306854285144
 30
0.0
 10
154.15488270143
 20
357.5103252252943
 30
0.0
 10
154.7235412396784
 20
357.0517793266424
 30
0.0
 10
154.9757115965431
 20
356.8151590604199
 30
0.0
 10
155.4206734857601
 20
356.328352302939
 30
0.0
 10
155.6134437007681
 20
356.0781609413264
 30
0.0
 10
155.9418894844842
 20
355.5647338571458
 30
0.0
 10
156.0765799341605
 20
355.3024810724506
 30
0.0
 10
156.3914370855997
 20
354.5139098855916
 30
0.0
 10
156.4877260403044
 20
353.9800265706186
 30
0.0
 10
156.4597939493954
 20
352.8995050372836
 30
0.0
 10
156.3361165037178
 20
352.3690810928184
 30
0.0
 10
155.9806723194305
 20
351.5886810738936
 30
0.0
 10
155.8334695779867
 20
351.3311229158661
 30
0.0
 10
155.4758665582633
 20
350.8216729474488
 30
0.0
 10
155.2664970805936
 20
350.5716003600443
 30
0.0
 10
155.0264573095265
 20
350.3289871234255
 30
0.0
  0
ARC
  5
119
330
1F
100
AcDbEntity
  8
0
  6
Continuous
 62
     7
370
    25
100
AcDbCircle
 10
145.0743205575
 20
360.1755588146
 30
0.0
 40
14.0
100
AcDbArc
 50
305.5941965928
 51
315.3054934191
  0
ARC
  5
11A
330
1F
100
AcDbEntity
  8
0
  6
Continuous
 62
     7
370
    25
100
AcDbCircle
 10
139.0743205575
 20
360.1755588146
 30
0.0
 40
14.00000000000003
100
AcDbArc
 50
224.6945065809
 51
235.0106394456
  0
SPLINE
  5
11B
330
1F
100
AcDbEntity
  8
0
  6
Continuous
 62
     7
370
    25
100
AcDbSpline
210
0.0
220
0.0
230
1.0
 70
     8
 71
     3
 72
    32
 73
    28
 74
     0
 42
0.000000001
 43
0.00000001
 40
0.0
 40
0.0
 40
0.0
 40
0.0
 40
0.125
 40
0.125
 40
0.1875000000000004
 40
0.1875000000000004
 40
0.2500000000000008
 40
0.2500000000000008
 40
0.3125000000000012
 40
0.3125000000000012
 40
0.3750000000000017
 40
0.3750000000000017
 40
0.5000000000000019
 40
0.5000000000000019
 40
0.5625000000000016
 40
0.5625000000000016
 40
0.6250000000000012
 40
0.6250000000000012
 40
0.6875000000000009
 40
0.6875000000000009
 40
0.7500000000000007
 40
0.7500000000000007
 40
0.8750000000000004
 40
0.8750000000000004
 40
0.9375000000000002
 40
0.9375000000000002
 40
1.0
 40
1.0
 40
1.0
 40
1.0
 10
129.1221838054568
 20
350.3289871234253
 30
0.0
 10
128.6414379467382
 20
350.8148870568251
 30
0.0
 10
128.291247766675
 20
351.3202575346134
 30
0.0
 10
127.9331043678791
 20
352.1032401120637
 30
0.0
 10
127.8417577479225
 20
352.3692703863891
 30
0.0
 10
127.7158038013528
 20
352.9060373560363
 30
0.0
 10
127.6816123383053
 20
353.1740709995315
 30
0.0
 10
127.6680472349548
 20
353.7094720645314
 30
0.0
 10
127.6886800492141
 20
353.9768394075913
 30
0.0
 10
127.7857402701774
 20
354.5108960006646
 30
0.0
 10
127.8627150923225
 20
354.7788856838177
 30
0.0
 10
128.1804652723889
 20
355.572528403331
 30
0.0
 10
128.5026724838369
 20
356.0805525236272
 30
0.0
 10
129.1659985145824
 20
356.8082226978737
 30
0.0
 10
129.4173877536
 20
357.0449986779609
 30
0.0
 10
129.9873690380022
 20
357.5057212110315
 30
0.0
 10
130.3008722650534
 20
357.7252729470146
 30
0.0
 10
130.9783307584887
 20
358.13795560797
 30
0.0
 10
131.3432531551863
 20
358.3318945612397
 30
0.0
 10
132.1274170336953
 20
358.6940525454448
 30
0.0
 10
132.5480529222398
 20
358.8627763702822
 30
0.0
 10
133.8898612069737
 20
359.3237680464164
 30
0.0
 10
134.8506524590724
 20
359.5589965237729
 30
0.0
 10
136.3925991448311
 20
359.802187170498
 30
0.0
 10
136.9249997751938
 20
359.864449234778
 30
0.0
 10
137.9920307010871
 20
359.9467767458719
 30
0.0
 10
138.5305911763331
 20
359.9676082793751
 30
0.0
 10
139.0743205574916
 20
359.9676082793751
 30
0.0
  0
LINE
  5
11C
330
1F
100
AcDbEntity
  8
0
  6
Continuous
 62
     7
370
    25
100
AcDbLine
 10
139.0743205314
 20
359.9676086398
 30
0.0
 11
145.0743205836
 21
359.9676086398
 31
0.0
  0
LWPOLYLINE
  5
11D
330
1F
100
AcDbEntity
  8
0
  6
Continuous
 62
     7
370
    25
100
AcDbPolyline
 90
       13
 70
   128
 43
0.0
 10
142.0743205575
 20
359.2036931606
 10
143.6406348124
 20
359.1523586603
 10
145.180149096
 20
358.999249229
 10
146.6665217643
 20
358.7469651194
 10
148.0743206096
 20
358.3998425694
 10
149.3794579049
 20
357.9638122411
 10
150.5596014661
 20
357.4463321658
 10
151.5945606855
 20
356.8562610836
 10
152.4666250674
 20
356.2036945315
 10
153.160874824
 20
355.499793479
 10
153.665430936
 20
354.756605515
 10
153.9716591118
 20
353.9868487807
 10
154.0743206618
 20
353.2036884518
  0
LWPOLYLINE
  5
11E
330
1F
100
AcDbEntity
  8
0
  6
Continuous
 62
     7
370
    25
100
AcDbPolyline
 90
       13
 70
   128
 43
0.0
 10
130.0743204532
 20
353.2036884518
 10
130.1769820032
 20
353.9868487807
 10
130.483210179
 20
354.756605515
 10
130.987766291
 20
355.499793479
 10
131.6820160476
 20
356.2036945315
 10
132.5540804295
 20
356.8562610836
 10
133.5890396488
 20
357.4463321658
 10
134.7691832101
 20
357.9638122411
 10
136.0743205053
 20
358.3998425694
 10
137.4821193507
 20
358.7469651194
 10
138.968492019
 20
358.999249229
 10
140.5080063026
 20
359.1523586603
 10
142.0743205575
 20
359.2036931606
  0
LINE
  5
11F
330
1F
100
AcDbEntity
  8
0
  6
Continuous
 62
     7
370
    25
100
AcDbLine
 10
125.0743196336
 20
360.1755617948
 30
0.0
 11
125.0743196336
 21
363.1755604239
 31
0.0
  0
ARC
  5
120
330
1F
100
AcDbEntity
  8
0
  6
Continuous
 62
     7
370
    25
100
AcDbCircle
 10
139.0743205575
 20
360.1755588146
 30
0.0
 40
14.0
100
AcDbArc
 50
180.0
 51
224.6945065809
  0
LINE
  5
121
330
1F
100
AcDbEntity
  8
0
  6
Continuous
 62
     7
370
    25
100
AcDbLine
 10
153.0743204979
 20
351.7714782448
 30
0.0
 11
153.0743204979
 21
354.7355799766
 31
0.0
  0
LWPOLYLINE
  5
122
330
1F
100
AcDbEntity
  8
0
  6
Continuous
 62
     7
370
    25
100
AcDbPolyline
 90
       18
 70
   128
 43
0.0
 10
153.0743204979
 20
351.7714782448
 10
152.3198365224
 20
352.4972393008
 10
151.3749464405
 20
353.1649454327
 10
150.2572094081
 20
353.7621988745
 10
148.987398575
 20
354.27788336
 10
147.5891117928
 20
354.7024248929
 10
146.0883362209
 20
355.0279333086
 10
144.5129626421
 20
355.2483661862
 10
142.8922682874
 20
355.3596108051
 10
141.2563728275
 20
355.3596108051
 10
139.6356784729
 20
355.2483661862
 10
138.0603048941
 20
355.0279333086
 10
136.5595293222
 20
354.7024248929
 10
135.16124254
 20
354.27788336
 10
133.8914317069
 20
353.7621988745
 10
132.7736946744
 20
353.1649454327
 10
131.8288045926
 20
352.4972393008
 10
131.0743206171
 20
351.7714782448
  0
LINE
  5
123
330
1F
100
AcDbEntity
  8
0
  6
Continuous
 62
     7
370
    25
100
AcDbLine
 10
131.0743206171
 20
351.7714782448
 30
0.0
 11
131.0743206171
 21
354.7355799766
 31
0.0
  0
ARC
  5
124
330
1F
100
AcDbEntity
  8
0
  6
Continuous
 62
     7
370
    25
100
AcDbCircle
 10
133.5124794338
 20
352.3376664908
 30
0.0
 40
3.41973792868066
100
AcDbArc
 50
135.4767989883
 51
224.5232010117
  0
LWPOLYLINE
  5
125
330
1F
100
AcDbEntity
  8
0
  6
Continuous
 62
     7
370
    25
100
AcDbPolyline
 90
       18
 70
   128
 43
0.0
 10
131.0743206171
 20
346.975647548
 10
131.8288045926
 20
346.2498902173
 10
132.7736946744
 20
345.5821803601
 10
133.8914317069
 20
344.9849343689
 10
135.16124254
 20
344.4692461582
 10
136.5595293222
 20
344.0447008999
 10
138.0603048941
 20
343.7191924842
 10
139.6356784729
 20
343.4987670572
 10
141.2563728275
 20
343.387518713
 10
142.8922682874
 20
343.387518713
 10
144.5129626421
 20
343.4987670572
 10
146.0883362209
 20
343.7191924842
 10
147.5891117928
 20
344.0447008999
 10
148.987398575
 20
344.4692461582
 10
150.2572094081
 20
344.9849343689
 10
151.3749464405
 20
345.5821803601
 10
152.3198365224
 20
346.2498902173
 10
153.0743204979
 20
346.975647548
  0
ARC
  5
126
330
1F
100
AcDbEntity
  8
0
  6
Continuous
 62
     7
370
    25
100
AcDbCircle
 10
150.6361616811
 20
352.3376664908
 30
0.0
 40
3.41973792868066
100
AcDbArc
 50
315.4767989883
 51
44.5232010117
  0
SPLINE
  5
127
330
1F
100
AcDbEntity
  8
0
  6
Continuous
 62
     7
370
    25
100
AcDbSpline
210
0.0
220
0.0
230
1.0
 70
    24
 71
     3
 72
    10
 73
     6
 74
     0
 42
0.000000001
 43
0.00000001
 40
0.0
 40
0.0
 40
0.0
 40
0.0
 40
0.5
 40
0.5
 40
1.0
 40
1.0
 40
1.0
 40
1.0
 10
153.0743205574916
 20
348.8735644882664
 30
0.0
 10
153.0743205574916
 20
349.2772519139043
 30
0.0
 10
153.0743205574916
 20
349.7315378336089
 30
0.0
 10
153.0743205574916
 20
350.7046552703087
 30
0.0
 10
153.0743205574916
 20
351.2250974515704
 30
0.0
 10
153.0743205574916
 20
351.7714802499227
 30
0.0
  0
LWPOLYLINE
  5
128
330
1F
100
AcDbEntity
  8
0
  6
Continuous
 62
     7
370
    25
100
AcDbPolyline
 90
       24
 70
   128
 43
0.0
 10
153.0743204979
 20
348.8735674711
 10
152.9718657015
 20
349.6224774809
 10
152.6664105234
 20
350.3574474545
 10
152.1636444134
 20
351.0647683235
 10
151.4729336826
 20
351.7312749119
 10
150.6071445522
 20
352.344547102
 10
149.5824052011
 20
352.8931631537
 10
148.4178040167
 20
353.3669008704
 10
147.1350361583
 20
353.756931314
 10
145.7579963365
 20
354.0559976192
 10
144.3123366674
 20
354.2585267516
 10
142.8249870999
 20
354.3607412668
 10
141.323654015
 20
354.3607412668
 10
139.8363044476
 20
354.2585267516
 10
138.3906447785
 20
354.0559976192
 10
137.0136049566
 20
353.756931314
 10
135.7308370983
 20
353.3669008704
 10
134.5662359139
 20
352.8931631537
 10
133.5414965627
 20
352.344547102
 10
132.6757074324
 20
351.7312749119
 10
131.9849967016
 20
351.0647683235
 10
131.4822305916
 20
350.3574474545
 10
131.1767754135
 20
349.6224774809
 10
131.0743206171
 20
348.8735674711
  0
SPLINE
  5
129
330
1F
100
AcDbEntity
  8
0
  6
Continuous
 62
     7
370
    25
100
AcDbSpline
210
0.0
220
0.0
230
1.0
 70
    24
 71
     3
 72
    10
 73
     6
 74
     0
 42
0.000000001
 43
0.00000001
 40
0.0
 40
0.0
 40
0.0
 40
0.0
 40
0.5
 40
0.5
 40
1.0
 40
1.0
 40
1.0
 40
1.0
 10
131.0743205574916
 20
348.8735644882663
 30
0.0
 10
131.0743205574916
 20
349.2772519139041
 30
0.0
 10
131.0743205574916
 20
349.7315378336088
 30
0.0
 10
131.0743205574916
 20
350.7046552703086
 30
0.0
 10
131.0743205574916
 20
351.2250974515704
 30
0.0
 10
131.0743205574916
 20
351.7714802499226
 30
0.0
  0
LINE
  5
12A
330
1F
100
AcDbEntity
  8
0
  6
Continuous
 62
     7
370
    25
100
AcDbLine
 10
159.0743214814
 20
363.1755604239
 30
0.0
 11
159.0743214814
 21
360.1755617948
 31
0.0
  0
ARC
  5
12B
330
1F
100
AcDbEntity
  8
0
  6
Continuous
 62
     7
370
    25
100
AcDbCircle
 10
145.0743205575
 20
360.1755588146
 30
0.0
 40
14.00000000000004
100
AcDbArc
 50
315.3054934191
 51
0.0
  0
LWPOLYLINE
  5
12C
330
1F
100
AcDbEntity
  8
0
  6
Continuous
 62
     7
370
    25
100
AcDbPolyline
 90
       24
 70
   128
 43
0.0
 10
131.0743206171
 20
348.8735674711
 10
131.1767754135
 20
348.1246500106
 10
131.4822305916
 20
347.3896837624
 10
131.9849967016
 20
346.6823591681
 10
132.6757074324
 20
346.0158525796
 10
133.5414965627
 20
345.4025803895
 10
134.5662359139
 20
344.8539680632
 10
135.7308370983
 20
344.3802303465
 10
137.0136049566
 20
343.9901961775
 10
138.3906447785
 20
343.6911298724
 10
139.8363044476
 20
343.48860074
 10
141.323654015
 20
343.3863862248
 10
142.8249870999
 20
343.3863862248
 10
144.3123366674
 20
343.48860074
 10
145.7579963365
 20
343.6911298724
 10
147.1350361583
 20
343.9901961775
 10
148.4178040167
 20
344.3802303465
 10
149.5824052011
 20
344.8539680632
 10
150.6071445522
 20
345.4025803895
 10
151.4729336826
 20
346.0158525796
 10
152.1636444134
 20
346.6823591681
 10
152.6664105234
 20
347.3896837624
 10
152.9718657015
 20
348.1246500106
 10
153.0743204979
 20
348.8735674711
  0
LWPOLYLINE
  5
12D
330
1F
100
AcDbEntity
  8
0
  6
Continuous
 62
     7
370
    25
100
AcDbPolyline
 90
       27
 70
   128
 43
0.0
 10
149.6255896976
 20
346.1167185398
 10
150.1716581164
 20
346.5360632928
 10
150.7779900906
 20
347.165596375
 10
151.1898963702
 20
347.8332801552
 10
151.3981764195
 20
348.5242022963
 10
151.3981764195
 20
349.2229251953
 10
151.1898963702
 20
349.9138473363
 10
150.7779900906
 20
350.5815311165
 10
150.1716581164
 20
351.2110679241
 10
149.3844451373
 20
351.7883761616
 10
148.433935455
 20
352.3005812259
 10
147.3413632242
 20
352.7362315746
 10
146.1311332872
 20
353.0855967493
 10
144.8302814727
 20
353.3408685418
 10
143.4678657436
 20
353.4963472577
 10
142.0743205575
 20
353.5485609265
 10
140.6807753713
 20
353.4963472577
 10
139.3183596423
 20
353.3408685418
 10
138.0175078278
 20
353.0855967493
 10
136.8072778908
 20
352.7362315746
 10
135.71470566
 20
352.3005812259
 10
134.7641959777
 20
351.7883761616
 10
133.9769829986
 20
351.2110679241
 10
133.3706510244
 20
350.5815311165
 10
132.9587447447
 20
349.9138473363
 10
132.7504646955
 20
349.2229251953
 10
132.7243206082
 20
348.8732768984
  0
LINE
  5
12E
330
1F
100
AcDbEntity
  8
0
  6
Continuous
 62
     7
370
    25
100
AcDbLine
 10
145.0743205836
 20
369.4263814779
 30
0.0
 11
158.0743213175
 21
369.4263814779
 31
0.0
  0
ARC
  5
12F
330
1F
100
AcDbEntity
  8
0
  6
Continuous
 62
     7
370
    25
100
AcDbCircle
 10
158.0743205575
 20
368.4263811103
 30
0.0
 40
1.0
100
AcDbArc
 50
0.0
 51
90.0
  0
LINE
  5
130
330
1F
100
AcDbEntity
  8
0
  6
Continuous
 62
     7
370
    25
100
AcDbLine
 10
159.0743214814
 20
368.4263794513
 30
0.0
 11
159.0743214814
 21
363.1755604239
 31
0.0
  0
LINE
  5
131
330
1F
100
AcDbEntity
  8
0
  6
Continuous
 62
     7
370
    25
100
AcDbLine
 10
139.0743205314
 20
369.4263814779
 30
0.0
 11
145.0743205836
 21
369.4263814779
 31
0.0
  0
LINE
  5
132
330
1F
100
AcDbEntity
  8
0
  6
Continuous
 62
     7
370
    25
100
AcDbLine
 10
125.0743196336
 20
363.1755604239
 30
0.0
 11
125.0743196336
 21
368.4263794513
 31
0.0
  0
LINE
  5
133
330
1F
100
AcDbEntity
  8
0
  6
Continuous
 62
     7
370
    25
100
AcDbLine
 10
126.0743197975
 20
369.4263814779
 30
0.0
 11
139.0743205314
 21
369.4263814779
 31
0.0
  0
ARC
  5
134
330
1F
100
AcDbEntity
  8
0
  6
Continuous
 62
     7
370
    25
100
AcDbCircle
 10
126.0743205575
 20
368.4263811103
 30
0.0
 40
1.000000000000057
100
AcDbArc
 50
90.0
 51
180.0
  0
LWPOLYLINE
  5
135
330
1F
100
AcDbEntity
  8
0
  6
Continuous
 62
     7
370
    25
100
AcDbPolyline
 90
       20
 70
   128
 43
0.0
 10
133.3091138852
 20
347.3875715228
 10
133.3308295337
 20
347.3518534394
 10
133.830455224
 20
346.7153428884
 10
134.5142359836
 20
346.1231707426
 10
135.3668957939
 20
345.588569233
 10
136.3693886427
 20
345.1234816404
 10
137.499320413
 20
344.7382940741
 10
138.7314501674
 20
344.4416119547
 10
140.0382540645
 20
344.2400625737
 10
141.3905402054
 20
344.1381535323
 10
142.7581009096
 20
344.1381535323
 10
144.1103870505
 20
344.2400625737
 10
145.4171909475
 20
344.4416119547
 10
146.649320702
 20
344.7382940741
 10
147.7792524723
 20
345.1234816404
 10
148.7817453211
 20
345.588569233
 10
149.6344051314
 20
346.1231707426
 10
150.318185891
 20
346.7153428884
 10
150.8178115813
 20
347.3518534394
 10
151.109814736
 20
347.9788421483
  0
LWPOLYLINE
  5
136
330
1F
100
AcDbEntity
  8
0
  6
Continuous
 62
     7
370
    25
100
AcDbPolyline
 90
       21
 70
   128
 43
0.0
 10
151.0581356464
 20
349.5683415623
 10
150.8178115813
 20
350.0488667579
 10
150.318185891
 20
350.6853773089
 10
149.6344051314
 20
351.2775494547
 10
148.7817453211
 20
351.8121509643
 10
147.7792524723
 20
352.2772385569
 10
146.649320702
 20
352.6624261232
 10
145.4171909475
 20
352.9591082426
 10
144.1103870505
 20
353.1606538983
 10
142.7581009096
 20
353.2625703903
 10
141.3905402054
 20
353.2625703903
 10
140.0382540645
 20
353.1606538983
 10
138.7314501674
 20
352.9591082426
 10
137.499320413
 20
352.6624261232
 10
136.3693886427
 20
352.2772385569
 10
135.3668957939
 20
351.8121509643
 10
134.5142359836
 20
351.2775494547
 10
133.830455224
 20
350.6853773089
 10
133.3308295337
 20
350.0488667579
 10
133.0265189511
 20
349.382226059
 10
132.9901824696
 20
349.2482944222
  0
LWPOLYLINE
  5
137
330
1F
100
AcDbEntity
  8
0
  6
Continuous
 62
     7
370
    25
100
AcDbPolyline
 90
       42
 70
   128
 43
0.0
 10
133.2993564186
 20
348.7003563734
 10
133.40219492
 20
348.0306162329
 10
133.7083010925
 20
347.3765670152
 10
134.210500027
 20
346.7535457404
 10
134.8970193406
 20
346.1761592718
 10
135.7517690388
 20
345.6579378636
 10
136.7547140447
 20
345.2110259624
 10
137.8823463795
 20
344.8459028097
 10
139.1082344101
 20
344.5711253972
 10
140.4036453217
 20
344.3931310268
 10
141.7382154371
 20
344.3160957487
 10
143.0806634938
 20
344.3418263288
 10
144.3995238272
 20
344.4697155447
 10
145.6638833964
 20
344.6967645379
 10
146.8441063529
 20
345.0176573189
 10
147.912529855
 20
345.4248688014
 10
148.844110406
 20
345.908858517
 10
149.617013148
 20
346.4582755061
 10
150.2131215287
 20
347.0602451654
 10
150.6184629155
 20
347.7006598206
 10
150.8235373525
 20
348.3644991012
 10
150.8235373525
 20
349.0362210961
 10
150.6184629155
 20
349.7000603767
 10
150.2131215287
 20
350.3404750319
 10
149.617013148
 20
350.9424446912
 10
148.844110406
 20
351.4918654056
 10
147.912529855
 20
351.9758476706
 10
146.8441063529
 20
352.3830591531
 10
145.6638833964
 20
352.7039556594
 10
144.3995238272
 20
352.9310046525
 10
143.0806634938
 20
353.0588938685
 10
141.7382154371
 20
353.0846207233
 10
140.4036453217
 20
353.0075891705
 10
139.1082344101
 20
352.8295948
 10
137.8823463795
 20
352.5548173876
 10
136.7547140447
 20
352.1896942349
 10
135.7517690388
 20
351.7427786084
 10
134.8970193406
 20
351.2245609255
 10
134.210500027
 20
350.6471707316
 10
133.7083010925
 20
350.0241531821
 10
133.40219492
 20
349.3701039644
 10
133.2993564186
 20
348.7003563734
  0
LWPOLYLINE
  5
138
330
1F
100
AcDbEntity
  8
0
  6
Continuous
 62
     7
370
    25
100
AcDbPolyline
 90
       11
 70
   128
 43
0.0
 10
142.0743205575
 20
344.4644815119
 10
143.4204068258
 20
344.5161550136
 10
144.7349419808
 20
344.6699610742
 10
145.9871144956
 20
344.9222973378
 10
147.1475745542
 20
345.2672480436
 10
148.1891214838
 20
345.6967255862
 10
149.0873429915
 20
346.2006679566
 10
149.8211846677
 20
346.767258534
 10
150.3734468473
 20
347.3832203837
 10
150.731184612
 20
348.0341180058
 10
150.8005262343
 20
348.238479981
  0
LWPOLYLINE
  5
139
330
1F
100
AcDbEntity
  8
0
  6
Continuous
 62
     7
370
    25
100
AcDbPolyline
 90
       11
 70
   128
 43
0.0
 10
133.3481148807
 20
348.238479981
 10
133.417456503
 20
348.0341180058
 10
133.7751942677
 20
347.3832203837
 10
134.3274564473
 20
346.767258534
 10
135.0612981235
 20
346.2006679566
 10
135.9595196312
 20
345.6967255862
 10
137.0010665608
 20
345.2672480436
 10
138.1615266194
 20
344.9222973378
 10
139.4136991342
 20
344.6699610742
 10
140.7282342892
 20
344.5161550136
 10
142.0743205575
 20
344.4644815119
  0
SPLINE
  5
13A
330
1F
100
AcDbEntity
  8
0
  6
Continuous
 62
     7
370
    25
100
AcDbSpline
210
0.0
220
0.0
230
1.0
 70
    24
 71
     3
 72
     8
 73
     4
 74
     0
 42
0.000000001
 43
0.00000001
 40
0.0
 40
0.0
 40
0.0
 40
0.0
 40
1.0
 40
1.0
 40
1.0
 40
1.0
 10
131.0743205574916
 20
346.9756487266098
 30
0.0
 10
131.0743205574916
 20
347.4501592182436
 30
0.0
 10
131.0743205574916
 20
348.0643049475773
 30
0.0
 10
131.0743205574916
 20
348.8735644882663
 30
0.0
  0
SPLINE
  5
13B
330
1F
100
AcDbEntity
  8
0
  6
Continuous
 62
     7
370
    25
100
AcDbSpline
210
0.0
220
0.0
230
1.0
 70
    24
 71
     3
 72
     8
 73
     4
 74
     0
 42
0.000000001
 43
0.00000001
 40
0.0
 40
0.0
 40
0.0
 40
0.0
 40
1.0
 40
1.0
 40
1.0
 40
1.0
 10
153.0743205574916
 20
346.9756487266099
 30
0.0
 10
153.0743205574916
 20
347.4501592182437
 30
0.0
 10
153.0743205574916
 20
348.0643049475773
 30
0.0
 10
153.0743205574916
 20
348.8735644882664
 30
0.0
  0
LINE
  5
13C
330
1F
100
AcDbEntity
  8
0
  6
Continuous
 62
     7
370
    25
100
AcDbLine
 10
156.7002926943
 20
407.1832491847
 30
0.0
 11
156.6978535605
 21
407.1817218156
 31
0.0
  0
LINE
  5
13D
330
1F
100
AcDbEntity
  8
0
  6
Continuous
 62
     7
370
    25
100
AcDbLine
 10
156.6965115247
 20
407.1807755919
 30
0.0
 11
156.6827959371
 21
407.1710898371
 31
0.0
  0
LWPOLYLINE
  5
13E
330
1F
100
AcDbEntity
  8
0
  6
Continuous
 62
     7
370
    25
100
AcDbPolyline
 90
        3
 70
   128
 43
0.0
 10
127.4658451778
 20
407.1710898371
 10
127.4765134779
 20
407.1635647507
 10
127.4912777347
 20
407.1543707343
  0
LINE
  5
13F
330
1F
100
AcDbEntity
  8
0
  6
Continuous
 62
     7
370
    25
100
AcDbLine
 10
127.4964931411
 20
407.1523441763
 30
0.0
 11
127.503543253
 21
407.1495949121
 31
0.0
  0
LINE
  5
140
330
1F
100
AcDbEntity
  8
0
  6
Continuous
 62
     7
370
    25
100
AcDbLine
 10
127.4483502833
 20
407.1832491847
 30
0.0
 11
127.4507875545
 21
407.1817218156
 31
0.0
  0
ARC
  5
141
330
1F
100
AcDbEntity
  8
0
  6
Continuous
 62
     7
370
    25
100
AcDbCircle
 10
156.5480075791
 20
406.1501255537
 30
0.0
 40
0.9997490935714115
100
AcDbArc
 50
354.6820602577
 51
18.1299587251
  0
LWPOLYLINE
  5
142
330
1F
100
AcDbEntity
  8
0
  6
Continuous
 62
     7
370
    25
100
AcDbPolyline
 90
        3
 70
   128
 43
0.0
 10
126.6433755858
 20
406.4384891482
 10
126.606302428
 20
406.2540202232
 10
126.6051876349
 20
406.0574664565
  0
SPLINE
  5
143
330
1F
100
AcDbEntity
  8
0
  6
Continuous
 62
     7
370
    25
100
AcDbSpline
210
0.0
220
0.0
230
1.0
 70
     8
 71
     3
 72
     9
 73
     5
 74
     0
 42
0.000000001
 43
0.00000001
 40
0.0
 40
0.0
 40
0.0
 40
0.0
 40
0.0277436509443757
 40
1.0
 40
1.0
 40
1.0
 40
1.0
 10
157.5603057620693
 20
406.1229645104825
 30
0.0
 10
157.5603358057667
 20
406.1231488737214
 30
0.0
 10
157.561418709292
 20
406.1297941144383
 30
0.0
 10
157.5615608365308
 20
406.1341699912289
 30
0.0
 10
157.5616990206409
 20
406.1384244652211
 30
0.0
  0
LINE
  5
144
330
1F
100
AcDbEntity
  8
0
  6
Continuous
 62
     7
370
    25
100
AcDbLine
 10
157.5618461696
 20
406.1401082964
 30
0.0
 11
157.5633726073
 21
406.1575650068
 31
0.0
  0
SPLINE
  5
145
330
1F
100
AcDbEntity
  8
0
  6
Continuous
 62
     7
370
    25
100
AcDbSpline
210
0.0
220
0.0
230
1.0
 70
     8
 71
     3
 72
    11
 73
     7
 74
     0
 42
0.000000001
 43
0.00000001
 40
0.0
 40
0.0
 40
0.0
 40
0.0
 40
0.0007783289192958
 40
0.0007783289192958
 40
0.0007783289192958
 40
0.001833702282576
 40
0.001833702282576
 40
0.001833702282576
 40
0.001833702282576
 10
157.5643000035886
 20
406.1705912046878
 30
0.0
 10
157.5643974325136
 20
406.172313239345
 30
0.0
 10
157.5644984178335
 20
406.1742177680687
 30
0.0
 10
157.5646025993572
 20
406.1763625082696
 30
0.0
 10
157.564743863959
 20
406.1792706618449
 30
0.0
 10
157.5648911370498
 20
406.1826131147802
 30
0.0
 10
157.5650426759684
 20
406.1866462285686
 30
0.0
  0
SPLINE
  5
146
330
1F
100
AcDbEntity
  8
0
  6
Continuous
 62
     7
370
    25
100
AcDbSpline
210
0.0
220
0.0
230
1.0
 70
     8
 71
     3
 72
    11
 73
     7
 74
     0
 42
0.000000001
 43
0.00000001
 40
0.0
 40
0.0
 40
0.0
 40
0.0
 40
0.0007783289192958
 40
0.0007783289192958
 40
0.0007783289192958
 40
0.001833702282576
 40
0.001833702282576
 40
0.001833702282576
 40
0.001833702282576
 10
126.5843411113943
 20
406.1705912046877
 30
0.0
 10
126.5842436824693
 20
406.1723132393449
 30
0.0
 10
126.5841426971493
 20
406.1742177680686
 30
0.0
 10
126.5840385156257
 20
406.1763625082694
 30
0.0
 10
126.5838972510239
 20
406.1792706618447
 30
0.0
 10
126.5837499779332
 20
406.1826131147799
 30
0.0
 10
126.5835984390145
 20
406.1866462285685
 30
0.0
  0
SPLINE
  5
147
330
1F
100
AcDbEntity
  8
0
  6
Continuous
 62
     7
370
    25
100
AcDbSpline
210
0.0
220
0.0
230
1.0
 70
     8
 71
     3
 72
     9
 73
     5
 74
     0
 42
0.000000001
 43
0.00000001
 40
0.0
 40
0.0
 40
0.0
 40
0.0
 40
0.0907587038339299
 40
0.9999999999999999
 40
0.9999999999999999
 40
0.9999999999999999
 40
0.9999999999999999
 10
126.5885570076872
 20
406.1215861530721
 30
0.0
 10
126.5884505838569
 20
406.122236076889
 30
0.0
 10
126.5872779819376
 20
406.129397085029
 30
0.0
 10
126.587102054675
 20
406.1341214379066
 30
0.0
 10
126.5869420943428
 20
406.1384170146405
 30
0.0
  0
ARC
  5
148
330
1F
100
AcDbEntity
  8
0
  6
Continuous
 62
     7
370
    25
100
AcDbCircle
 10
156.564073405
 20
406.1906492385
 30
0.0
 40
1.00006098974489
100
AcDbArc
 50
43.0389169173
 51
82.3123835844
  0
LWPOLYLINE
  5
149
330
1F
100
AcDbEntity
  8
0
  6
Continuous
 62
     7
370
    25
100
AcDbPolyline
 90
        3
 70
   128
 43
0.0
 10
157.5451959846
 20
406.3842340203
 10
157.5523625118
 20
406.3434718938
 10
157.5636520041
 20
406.1607538553
  0
ARC
  5
14A
330
1F
100
AcDbEntity
  8
0
  6
Continuous
 62
     7
370
    25
100
AcDbCircle
 10
127.5844161413
 20
406.1909982303
 30
0.0
 40
0.9996948643163941
100
AcDbArc
 50
97.681683283
 51
129.5573155505
  0
LWPOLYLINE
  5
14B
330
1F
100
AcDbEntity
  8
0
  6
Continuous
 62
     7
370
    25
100
AcDbPolyline
 90
        3
 70
   128
 43
0.0
 10
126.6031443132
 20
406.3826992007
 10
126.5962786032
 20
406.3434718938
 10
126.5849891109
 20
406.1607538553
  0
LWPOLYLINE
  5
14C
330
1F
100
AcDbEntity
  8
0
  6
Continuous
 62
     7
370
    25
100
AcDbPolyline
 90
       34
 70
   128
 43
0.0
 10
165.0743206022
 20
378.3165707083
 10
164.9993081567
 20
377.9306753369
 10
164.7153162388
 20
377.4749680252
 10
164.2222628919
 20
377.0270391198
 10
163.5247004209
 20
376.5910162421
 10
162.6290698526
 20
376.1709227057
 10
161.5436394689
 20
375.7706402631
 10
160.278434026
 20
375.3938718529
 10
158.8451360343
 20
375.0440894456
 10
157.2569777248
 20
374.7245265933
 10
155.5286274282
 20
374.4381262751
 10
153.6760424254
 20
374.1875483485
 10
151.7163292495
 20
373.9750875922
 10
149.6675834981
 20
373.8027184101
 10
147.5487231267
 20
373.6720277758
 10
145.3793135928
 20
373.5842301341
 10
143.1793862478
 20
373.5401226969
 10
140.9692548671
 20
373.5401226969
 10
138.7693275222
 20
373.5842301341
 10
136.5999179883
 20
373.6720277758
 10
134.4810576168
 20
373.8027184101
 10
132.4323118655
 20
373.9750875922
 10
130.4725986896
 20
374.1875483485
 10
128.6200136868
 20
374.4381262751
 10
126.8916633902
 20
374.7245265933
 10
125.3035050807
 20
375.0440894456
 10
123.870207089
 20
375.3938718529
 10
122.6050016461
 20
375.7706402631
 10
121.5195712624
 20
376.1709227057
 10
120.6239406941
 20
376.5910162421
 10
119.9263782231
 20
377.0270391198
 10
119.4333248762
 20
377.4749680252
 10
119.1493329582
 20
377.9306753369
 10
119.0743205128
 20
378.3165707083
  0
ARC
  5
14D
330
1F
100
AcDbEntity
  8
0
  6
Continuous
 62
     7
370
    25
100
AcDbCircle
 10
142.0486169907
 20
385.2748313799
 30
0.0
 40
3.974920382566832
100
AcDbArc
 50
0.9537188361
 51
178.9849495286
  0
SPLINE
  5
14E
330
1F
100
AcDbEntity
  8
0
  6
Continuous
 62
     7
370
    25
100
AcDbSpline
210
0.0
220
0.0
230
1.0
 70
     8
 71
     3
 72
    30
 73
    26
 74
     0
 42
0.000000001
 43
0.00000001
 40
0.0
 40
0.0
 40
0.0
 40
0.0
 40
0.1250000000000003
 40
0.1250000000000003
 40
0.1875000000000002
 40
0.1875000000000002
 40
0.2500000000000001
 40
0.2500000000000001
 40
0.375
 40
0.375
 40
0.4374999999999999
 40
0.4374999999999999
 40
0.4999999999999999
 40
0.4999999999999999
 40
0.6249999999999999
 40
0.6249999999999999
 40
0.6875
 40
0.6875
 40
0.75
 40
0.75
 40
0.8749999999999998
 40
0.8749999999999998
 40
0.9375
 40
0.9375
 40
1.0
 40
1.0
 40
1.0
 40
1.0
 10
128.1322493929016
 20
370.7375250663028
 30
0.0
 10
129.1094262471374
 20
370.5678470497996
 30
0.0
 10
130.1430156431525
 20
370.434426136191
 30
0.0
 10
131.774589019208
 20
370.2723993719416
 30
0.0
 10
132.3320592157181
 20
370.2248206245022
 30
0.0
 10
133.4745962148608
 20
370.1406200089185
 30
0.0
 10
134.0614621187465
 20
370.1039057560342
 30
0.0
 10
135.852960436667
 20
370.0086476153853
 30
0.0
 10
137.0684729785104
 20
369.965548626477
 30
0.0
 10
138.9224679201587
 20
369.9229329502389
 30
0.0
 10
139.5456165689853
 20
369.9124785847896
 30
0.0
 10
140.8023872612069
 20
369.8985284628023
 30
0.0
 10
141.4389866814867
 20
369.8950376240725
 30
0.0
 10
143.3419874058326
 20
369.8950266675338
 30
0.0
 10
144.5942711169399
 20
369.9085218520939
 30
0.0
 10
146.448919742425
 20
369.9509829020184
 30
0.0
 10
147.0631507819867
 20
369.9689109640146
 30
0.0
 10
148.2835082941423
 20
370.0135316056025
 30
0.0
 10
148.8925359981637
 20
370.0403973076805
 30
0.0
 10
150.6783515274782
 20
370.1353128442099
 30
0.0
 10
151.8173821150061
 20
370.2173412091658
 30
0.0
 10
153.4507777001077
 20
370.3792160555951
 30
0.0
 10
153.9826462571275
 20
370.4397038969927
 30
0.0
 10
155.0206748063014
 20
370.5763329722362
 30
0.0
 10
155.5278184880064
 20
370.6526886961873
 30
0.0
 10
156.0163917220815
 20
370.7375250663029
 30
0.0
  0
LINE
  5
14F
330
1F
100
AcDbEntity
  8
0
  6
Continuous
 62
     7
370
    25
100
AcDbLine
 10
159.0743214814
 20
368.4277056547
 30
0.0
 11
159.0743214814
 21
368.4263794513
 31
0.0
  0
LINE
  5
150
330
1F
100
AcDbEntity
  8
0
  6
Continuous
 62
     7
370
    25
100
AcDbLine
 10
125.0743196336
 20
368.4263794513
 30
0.0
 11
125.0743196336
 21
368.4277056547
 31
0.0
  0
LWPOLYLINE
  5
151
330
1F
100
AcDbEntity
  8
0
  6
Continuous
 62
     7
370
    25
100
AcDbPolyline
 90
       28
 70
   128
 43
0.0
 10
145.8557391064
 20
385.074739048
 10
145.7538105072
 20
384.2217444272
 10
145.4535197457
 20
383.4147273393
 10
144.9710553037
 20
382.6972066255
 10
144.332427158
 20
382.1078582497
 10
143.5720639759
 20
381.6784589382
 10
142.7309569893
 20
381.4321501942
 10
141.8544506208
 20
381.382216403
 10
140.9897975148
 20
381.5313472243
 10
140.183611283
 20
381.8715034814
 10
139.4793536504
 20
382.3843418451
 10
138.9149914952
 20
383.0422281118
 10
138.5209493795
 20
383.8096826168
 10
138.3184705386
 20
384.6453397365
 10
138.3184705386
 20
385.5041458102
 10
138.5209493795
 20
386.3398029299
 10
138.9149914952
 20
387.1072574349
 10
139.4793536504
 20
387.7651437016
 10
140.183611283
 20
388.2779820652
 10
140.9897975148
 20
388.6181383224
 10
141.8544506208
 20
388.7672691436
 10
142.7309569893
 20
388.7173353525
 10
143.5720639759
 20
388.4710266085
 10
144.332427158
 20
388.041627297
 10
144.9710553037
 20
387.4522789212
 10
145.4535197457
 20
386.7347507568
 10
145.7538105072
 20
385.9277411194
 10
145.8557391064
 20
385.074739048
  0
LWPOLYLINE
  5
152
330
1F
100
AcDbEntity
  8
0
  6
Continuous
 62
     7
370
    25
100
AcDbPolyline
 90
       27
 70
   128
 43
0.0
 10
145.6440026862
 20
385.0476785393
 10
145.5402743062
 20
385.8832909556
 10
145.2351171514
 20
386.6703404875
 10
144.7462661648
 20
387.3630880208
 10
144.1021311087
 20
387.921270618
 10
143.340147309
 20
388.3124484511
 10
142.5045981935
 20
388.5138972493
 10
141.6440429214
 20
388.5138972493
 10
140.808493806
 20
388.3124484511
 10
140.0465100063
 20
387.921270618
 10
139.4023749502
 20
387.3630880208
 10
138.9135239636
 20
386.6703404875
 10
138.6083668088
 20
385.8832909556
 10
138.5046384288
 20
385.0476785393
 10
138.6083668088
 20
384.2120661231
 10
138.9135239636
 20
383.4250165911
 10
139.4023749502
 20
382.7322690578
 10
140.0465100063
 20
382.1740864606
 10
140.808493806
 20
381.782901177
 10
141.6440429214
 20
381.5814598294
 10
142.5045981935
 20
381.5814598294
 10
143.340147309
 20
381.782901177
 10
144.1021311087
 20
382.1740864606
 10
144.7462661648
 20
382.7322690578
 10
145.2351171514
 20
383.4250165911
 10
145.5402743062
 20
384.2120661231
 10
145.6440026862
 20
385.0476785393
  0
LWPOLYLINE
  5
153
330
1F
100
AcDbEntity
  8
0
  6
Continuous
 62
     7
370
    25
100
AcDbPolyline
 90
       28
 70
   128
 43
0.0
 10
138.0743203675
 20
385.1996033283
 10
138.1821409789
 20
386.1019058915
 10
138.4997899634
 20
386.9555710645
 10
139.01014286
 20
387.7145691605
 10
139.6856863042
 20
388.3379815908
 10
140.4900015089
 20
388.7922062369
 10
141.3797278413
 20
389.0527530404
 10
142.306899875
 20
389.1055776568
 10
143.2215334838
 20
388.9478265138
 10
144.0743206525
 20
388.5880081745
 10
144.8192872097
 20
388.0455165
 10
145.4162717322
 20
387.3496099205
 10
145.8330909712
 20
386.5377872081
 10
146.0472742086
 20
385.6538279744
 10
146.0472742086
 20
384.7453786822
 10
145.8330909712
 20
383.8614194484
 10
145.4162717322
 20
383.049596736
 10
144.8192872097
 20
382.3536901565
 10
144.0743206525
 20
381.8111984821
 10
143.2215334838
 20
381.4513801427
 10
142.306899875
 20
381.2936289998
 10
141.3797278413
 20
381.3464536162
 10
140.4900015089
 20
381.6070004197
 10
139.6856863042
 20
382.0612250657
 10
139.01014286
 20
382.684637496
 10
138.4997899634
 20
383.443635592
 10
138.1821409789
 20
384.2973007651
 10
138.0743203675
 20
385.1996033283
  0
LWPOLYLINE
  5
154
330
1F
100
AcDbEntity
  8
0
  6
Continuous
 62
     7
370
    25
100
AcDbPolyline
 90
       12
 70
   128
 43
0.0
 10
156.0163917942
 20
370.7375272007
 10
157.5802863566
 20
371.0372566076
 10
158.9958929447
 20
371.3673098774
 10
160.2496747849
 20
371.7245354147
 10
161.3296420304
 20
372.1055059524
 10
162.2254644511
 20
372.5066005083
 10
162.9285776047
 20
372.9239596816
 10
163.4322536168
 20
373.3536048623
 10
163.7316794125
 20
373.7914233299
 10
163.8239921061
 20
374.2332278581
 10
163.7083050785
 20
374.6747939678
 10
163.5743212876
 20
374.8920156451
  0
LWPOLYLINE
  5
155
330
1F
100
AcDbEntity
  8
0
  6
Continuous
 62
     7
370
    25
100
AcDbPolyline
 90
       12
 70
   128
 43
0.0
 10
120.5743198273
 20
374.8920156451
 10
120.4403360365
 20
374.6747939678
 10
120.3246490089
 20
374.2332278581
 10
120.4169617025
 20
373.7914233299
 10
120.7163874982
 20
373.3536048623
 10
121.2200635103
 20
372.9239596816
 10
121.9231766639
 20
372.5066005083
 10
122.8189990846
 20
372.1055059524
 10
123.8989663301
 20
371.7245354147
 10
125.1527481703
 20
371.3673098774
 10
126.5683547584
 20
371.0372566076
 10
128.1322493208
 20
370.7375272007
  0
LWPOLYLINE
  5
156
330
1F
100
AcDbEntity
  8
0
  6
Continuous
 62
     7
370
    25
100
AcDbPolyline
 90
        3
 70
   128
 43
0.0
 10
120.5743198273
 20
374.4029371829
 10
120.4290521321
 20
374.1625143977
 10
120.3561444757
 20
373.9638148637
  0
LWPOLYLINE
  5
157
330
1F
100
AcDbEntity
  8
0
  6
Continuous
 62
     7
370
    25
100
AcDbPolyline
 90
        3
 70
   128
 43
0.0
 10
163.7924966393
 20
373.9638148637
 10
163.7195889828
 20
374.1625143977
 10
163.5743212876
 20
374.4029371829
  0
LINE
  5
158
330
1F
100
AcDbEntity
  8
0
  6
Continuous
 62
     7
370
    25
100
AcDbLine
 10
120.5743198273
 20
373.719279358
 30
0.0
 11
120.6036229608
 21
373.4859793277
 31
0.0
  0
LINE
  5
159
330
1F
100
AcDbEntity
  8
0
  6
Continuous
 62
     7
370
    25
100
AcDbLine
 10
163.5450181542
 20
373.4859793277
 30
0.0
 11
163.5743212876
 21
373.719279358
 31
0.0
  0
LINE
  5
15A
330
1F
100
AcDbEntity
  8
0
  6
Continuous
 62
     7
370
    25
100
AcDbLine
 10
119.0743205128
 20
285.1755588146
 30
0.0
 11
165.0743206022
 21
285.1755588146
 31
0.0
  0
LWPOLYLINE
  5
15B
330
1F
100
AcDbEntity
  8
0
  6
Continuous
 62
     7
370
    25
100
AcDbPolyline
 90
       22
 70
   128
 43
0.0
 10
160.7509144572
 20
413.2178543897
 10
160.5049689291
 20
413.2961003871
 10
159.2091415999
 20
413.6593608947
 10
157.7482988117
 20
413.9944731088
 10
156.1365053979
 20
414.2982034774
 10
154.3892855746
 20
414.5676164718
 10
152.5234664781
 20
414.8001341911
 10
150.5570161147
 20
414.9935065599
 10
148.508872929
 20
415.1458709331
 10
146.3987614018
 20
415.2557520957
 10
144.2470029918
 20
415.3221218677
 10
142.0743205575
 20
415.3443096967
 10
139.9016381232
 20
415.3221218677
 10
137.7498797131
 20
415.2557520957
 10
135.639768186
 20
415.1458709331
 10
133.5916250003
 20
414.9935065599
 10
131.6251746369
 20
414.8001341911
 10
129.7593555404
 20
414.5676164718
 10
128.0121357171
 20
414.2982034774
 10
126.4003423033
 20
413.9944731088
 10
124.9394995151
 20
413.6593608947
 10
124.1214518426
 20
413.4388535114
  0
LWPOLYLINE
  5
15C
330
1F
100
AcDbEntity
  8
0
  6
Continuous
 62
     8
370
    18
100
AcDbPolyline
 90
        3
 70
   128
 43
0.0
 10
132.9243202684
 20
348.7003563734
 10
133.0265189511
 20
348.0184941383
 10
133.3091138852
 20
347.3875715228
  0
ARC
  5
15D
330
1F
100
AcDbEntity
  8
0
  6
Continuous
 62
     8
370
    18
100
AcDbCircle
 10
148.8576369635
 20
348.7012073474
 30
0.0
 40
2.365188406814781
100
AcDbArc
 50
342.216836899
 51
21.5075445305
  0
LINE
  5
15E
330
1F
100
AcDbEntity
  8
0
  6
Continuous
 62
     8
370
    18
100
AcDbLine
 10
132.9901824696
 20
349.2482944222
 30
0.0
 11
132.9243202684
 21
348.7003563734
 31
0.0
  0
SPLINE
  5
15F
330
1F
100
AcDbEntity
  8
0
  6
Continuous
 62
     8
370
    18
100
AcDbSpline
210
0.0
220
0.0
230
1.0
 70
     8
 71
     3
 72
     8
 73
     4
 74
     0
 42
0.000000001
 43
0.00000001
 40
0.0
 40
0.0
 40
0.0
 40
0.0
 40
1.0
 40
1.0
 40
1.0
 40
1.0
 10
142.0743205574909
 20
406.0745516121348
 30
0.0
 10
143.8383746027258
 20
406.0744229488762
 30
0.0
 10
145.6024399158557
 20
406.063255255817
 30
0.0
 10
147.3662539423211
 20
406.0341891108985
 30
0.0
  0
SPLINE
  5
160
330
1F
100
AcDbEntity
  8
0
  6
Continuous
 62
     8
370
    18
100
AcDbSpline
210
0.0
220
0.0
230
1.0
 70
     8
 71
     3
 72
     8
 73
     4
 74
     0
 42
0.000000001
 43
0.00000001
 40
0.0
 40
0.0
 40
0.0
 40
0.0
 40
1.0
 40
1.0
 40
1.0
 40
1.0
 10
147.379711604106
 20
407.1457518292614
 30
0.0
 10
145.6113845470094
 20
407.1681418439105
 30
0.0
 10
143.8428576612866
 20
407.1759366979805
 30
0.0
 10
142.0743205574914
 20
407.1760937038885
 30
0.0
  0
SPLINE
  5
161
330
1F
100
AcDbEntity
  8
0
  6
Continuous
 62
     8
370
    18
100
AcDbSpline
210
0.0
220
0.0
230
1.0
 70
     8
 71
     3
 72
     8
 73
     4
 74
     0
 42
0.000000001
 43
0.00000001
 40
0.0
 40
0.0
 40
0.0
 40
0.0
 40
1.0
 40
1.0
 40
1.0
 40
1.0
 10
136.7689295108769
 20
407.1457518292614
 30
0.0
 10
138.5372565679734
 20
407.1681418439104
 30
0.0
 10
140.3057834536963
 20
407.1759366979804
 30
0.0
 10
142.0743205574914
 20
407.1760937038885
 30
0.0
  0
SPLINE
  5
162
330
1F
100
AcDbEntity
  8
0
  6
Continuous
 62
     8
370
    18
100
AcDbSpline
210
0.0
220
0.0
230
1.0
 70
     8
 71
     3
 72
     8
 73
     4
 74
     0
 42
0.000000001
 43
0.00000001
 40
0.0
 40
0.0
 40
0.0
 40
0.0
 40
1.0
 40
1.0
 40
1.0
 40
1.0
 10
142.0743205574919
 20
406.0745516121348
 30
0.0
 10
140.3102665122574
 20
406.0744229488762
 30
0.0
 10
138.5462011991269
 20
406.063255255817
 30
0.0
 10
136.7823871726617
 20
406.0341891108984
 30
0.0
  0
SPLINE
  5
163
330
1F
100
AcDbEntity
  8
0
  6
Continuous
 62
     8
370
    18
100
AcDbSpline
210
0.0
220
0.0
230
1.0
 70
     8
 71
     3
 72
     8
 73
     4
 74
     0
 42
0.000000001
 43
0.00000001
 40
0.0
 40
0.0
 40
0.0
 40
0.0
 40
1.0
 40
1.0
 40
1.0
 40
1.0
 10
147.3662539423211
 20
406.0341891108985
 30
0.0
 10
148.0302066933306
 20
406.0243156397458
 30
0.0
 10
148.6925291213598
 20
406.019578976271
 30
0.0
 10
149.3438349086337
 20
406.0172505591316
 30
0.0
  0
SPLINE
  5
164
330
1F
100
AcDbEntity
  8
0
  6
Continuous
 62
     8
370
    18
100
AcDbSpline
210
0.0
220
0.0
230
1.0
 70
     8
 71
     3
 72
     8
 73
     4
 74
     0
 42
0.000000001
 43
0.00000001
 40
0.0
 40
0.0
 40
0.0
 40
0.0
 40
1.0
 40
1.0
 40
1.0
 40
1.0
 10
149.3438349086337
 20
406.0172505591316
 30
0.0
 10
149.7310845557563
 20
406.0158661422676
 30
0.0
 10
150.1135497111945
 20
406.0153409292191
 30
0.0
 10
150.4892988972722
 20
406.0152251930674
 30
0.0
  0
SPLINE
  5
165
330
1F
100
AcDbEntity
  8
0
  6
Continuous
 62
     8
370
    18
100
AcDbSpline
210
0.0
220
0.0
230
1.0
 70
     8
 71
     3
 72
     8
 73
     4
 74
     0
 42
0.000000001
 43
0.00000001
 40
0.0
 40
0.0
 40
0.0
 40
0.0
 40
1.0
 40
1.0
 40
1.0
 40
1.0
 10
150.4892988972721
 20
406.0152251930673
 30
0.0
 10
150.8381618116689
 20
406.0151177382738
 30
0.0
 10
151.1807016714851
 20
406.015349912402
 30
0.0
 10
151.5154190846604
 20
406.0157977603725
 30
0.0
  0
SPLINE
  5
166
330
1F
100
AcDbEntity
  8
0
  6
Continuous
 62
     8
370
    18
100
AcDbSpline
210
0.0
220
0.0
230
1.0
 70
     8
 71
     3
 72
     8
 73
     4
 74
     0
 42
0.000000001
 43
0.00000001
 40
0.0
 40
0.0
 40
0.0
 40
0.0
 40
1.0
 40
1.0
 40
1.0
 40
1.0
 10
151.5154190846604
 20
406.0157977603725
 30
0.0
 10
151.9225860621536
 20
406.0163425450099
 30
0.0
 10
152.3173793805682
 20
406.0172884087677
 30
0.0
 10
152.6972468339162
 20
406.0184956869966
 30
0.0
  0
SPLINE
  5
167
330
1F
100
AcDbEntity
  8
0
  6
Continuous
 62
     8
370
    18
100
AcDbSpline
210
0.0
220
0.0
230
1.0
 70
     8
 71
     3
 72
    12
 73
     8
 74
     0
 42
0.000000001
 43
0.00000001
 40
0.0
 40
0.0
 40
0.0
 40
0.0
 40
0.5
 40
0.5
 40
0.75
 40
0.75
 40
1.0
 40
1.0
 40
1.0
 40
1.0
 10
152.6972468339162
 20
406.0184956869966
 30
0.0
 10
153.4989165674312
 20
406.0210435188983
 30
0.0
 10
154.2172554402218
 20
406.0245018293109
 30
0.0
 10
155.1708006621256
 20
406.0303281898575
 30
0.0
 10
155.4647083536159
 20
406.0323877717068
 30
0.0
 10
155.9966281014777
 20
406.0363822535889
 30
0.0
 10
156.2361186602597
 20
406.0383198648347
 30
0.0
 10
156.4484900827268
 20
406.040197821398
 30
0.0
  0
SPLINE
  5
168
330
1F
100
AcDbEntity
  8
0
  6
Continuous
 62
     8
370
    18
100
AcDbSpline
210
0.0
220
0.0
230
1.0
 70
     8
 71
     3
 72
    10
 73
     6
 74
     0
 42
0.000000001
 43
0.00000001
 40
0.0
 40
0.0
 40
0.0
 40
0.0
 40
0.5
 40
0.5
 40
1.0
 40
1.0
 40
1.0
 40
1.0
 10
156.4484900827268
 20
406.040197821398
 30
0.0
 10
156.7770872497519
 20
406.0431035381807
 30
0.0
 10
157.0329187246126
 20
406.0458401967289
 30
0.0
 10
157.399213314178
 20
406.0510067726263
 30
0.0
 10
157.5056516378188
 20
406.0532598458605
 30
0.0
 10
157.5351217010024
 20
406.0558641887332
 30
0.0
  0
SPLINE
  5
169
330
1F
100
AcDbEntity
  8
0
  6
Continuous
 62
     8
370
    18
100
AcDbSpline
210
0.0
220
0.0
230
1.0
 70
     8
 71
     3
 72
    11
 73
     7
 74
     0
 42
0.000000001
 43
0.00000001
 40
0.0
 40
0.0
 40
0.0
 40
0.0
 40
0.0001935723934575
 40
0.0001935723934575
 40
0.0001935723934575
 40
0.0003887088693232
 40
0.0003887088693232
 40
0.0003887088693232
 40
0.0003887088693232
 10
157.5351217010024
 20
406.0558641887332
 30
0.0
 10
157.5377335984971
 20
406.0560950086192
 30
0.0
 10
157.5397332425665
 20
406.0563368572273
 30
0.0
 10
157.5411209868975
 20
406.0565994431026
 30
0.0
 10
157.5425199433835
 20
406.0568641505168
 30
0.0
 10
157.5432971997493
 20
406.0571499588315
 30
0.0
 10
157.5434534515732
 20
406.0574669184944
 30
0.0
  0
ARC
  5
16A
330
1F
100
AcDbEntity
  8
0
  6
Continuous
 62
     8
370
    18
100
AcDbCircle
 10
152.2667580508
 20
406.5491613303
 30
0.0
 40
5.29955455700761
100
AcDbArc
 50
269.9945484283
 51
354.6764173095
  0
ELLIPSE
  5
16B
330
1F
100
AcDbEntity
  8
0
  6
Continuous
 62
     8
370
    18
100
AcDbEllipse
 10
147.3662539423
 20
401.2496074708
 30
0.0
 11
4.900000000000006
 21
0.0
 31
0.0
210
0.0
220
0.0
230
1.0
 40
0.0209470139
 41
0.0
 42
1.570796326794897
  0
SPLINE
  5
16C
330
1F
100
AcDbEntity
  8
0
  6
Continuous
 62
     8
370
    18
100
AcDbSpline
210
0.0
220
0.0
230
1.0
 70
     8
 71
     3
 72
     8
 73
     4
 74
     0
 42
0.000000001
 43
0.00000001
 40
0.0
 40
0.0
 40
0.0
 40
0.0
 40
1.0
 40
1.0
 40
1.0
 40
1.0
 10
149.1713123082909
 20
407.1326587844295
 30
0.0
 10
148.5815471225225
 20
407.1345191972094
 30
0.0
 10
147.9815873040667
 20
407.1381310638125
 30
0.0
 10
147.379711604106
 20
407.1457518292614
 30
0.0
  0
ELLIPSE
  5
16D
330
1F
100
AcDbEntity
  8
0
  6
Continuous
 62
     8
370
    18
100
AcDbEllipse
 10
136.7823871727
 20
401.2496074708
 30
0.0
 11
4.900000000000034
 21
5.684341886080801E-14
 31
0.0
210
0.0
220
0.0
230
1.0
 40
0.0209470139
 41
1.570796326794896
 42
3.141592653590465
  0
ARC
  5
16E
330
1F
100
AcDbEntity
  8
0
  6
Continuous
 62
     8
370
    18
100
AcDbCircle
 10
131.8818830642
 20
406.5491613303
 30
0.0
 40
5.29955455700761
100
AcDbArc
 50
185.3235826905
 51
270.0054515717
  0
SPLINE
  5
16F
330
1F
100
AcDbEntity
  8
0
  6
Continuous
 62
     8
370
    18
100
AcDbSpline
210
0.0
220
0.0
230
1.0
 70
     8
 71
     3
 72
    11
 73
     7
 74
     0
 42
0.000000001
 43
0.00000001
 40
0.0
 40
0.0
 40
0.0
 40
0.0
 40
0.0001935723934575
 40
0.0001935723934575
 40
0.0001935723934575
 40
0.0003887088693232
 40
0.0003887088693232
 40
0.0003887088693232
 40
0.0003887088693232
 10
126.6135194139805
 20
406.055864188733
 30
0.0
 10
126.6109075164858
 20
406.056095008619
 30
0.0
 10
126.6089078724164
 20
406.0563368572272
 30
0.0
 10
126.6075201280854
 20
406.0565994431025
 30
0.0
 10
126.6061211715994
 20
406.0568641505167
 30
0.0
 10
126.6053439152336
 20
406.0571499588314
 30
0.0
 10
126.6051876634097
 20
406.0574669184943
 30
0.0
  0
SPLINE
  5
170
330
1F
100
AcDbEntity
  8
0
  6
Continuous
 62
     8
370
    18
100
AcDbSpline
210
0.0
220
0.0
230
1.0
 70
     8
 71
     3
 72
    10
 73
     6
 74
     0
 42
0.000000001
 43
0.00000001
 40
0.0
 40
0.0
 40
0.0
 40
0.0
 40
0.5
 40
0.5
 40
1.0
 40
1.0
 40
1.0
 40
1.0
 10
127.700151032256
 20
406.0401978213978
 30
0.0
 10
127.371553865231
 20
406.0431035381807
 30
0.0
 10
127.1157223903703
 20
406.0458401967288
 30
0.0
 10
126.7494278008049
 20
406.0510067726262
 30
0.0
 10
126.6429894771641
 20
406.0532598458604
 30
0.0
 10
126.6135194139805
 20
406.055864188733
 30
0.0
  0
SPLINE
  5
171
330
1F
100
AcDbEntity
  8
0
  6
Continuous
 62
     8
370
    18
100
AcDbSpline
210
0.0
220
0.0
230
1.0
 70
     8
 71
     3
 72
    12
 73
     8
 74
     0
 42
0.000000001
 43
0.00000001
 40
0.0
 40
0.0
 40
0.0
 40
0.0
 40
0.5
 40
0.5
 40
0.75
 40
0.75
 40
1.0
 40
1.0
 40
1.0
 40
1.0
 10
131.4513942810667
 20
406.0184956869965
 30
0.0
 10
130.6497245475517
 20
406.0210435188981
 30
0.0
 10
129.9313856747611
 20
406.0245018293107
 30
0.0
 10
128.9778404528573
 20
406.0303281898574
 30
0.0
 10
128.6839327613669
 20
406.0323877717067
 30
0.0
 10
128.1520130135052
 20
406.0363822535887
 30
0.0
 10
127.9125224547232
 20
406.0383198648345
 30
0.0
 10
127.700151032256
 20
406.0401978213978
 30
0.0
  0
SPLINE
  5
172
330
1F
100
AcDbEntity
  8
0
  6
Continuous
 62
     8
370
    18
100
AcDbSpline
210
0.0
220
0.0
230
1.0
 70
     8
 71
     3
 72
     8
 73
     4
 74
     0
 42
0.000000001
 43
0.00000001
 40
0.0
 40
0.0
 40
0.0
 40
0.0
 40
1.0
 40
1.0
 40
1.0
 40
1.0
 10
132.6332220303225
 20
406.0157977603725
 30
0.0
 10
132.2260550528293
 20
406.0163425450099
 30
0.0
 10
131.8312617344147
 20
406.0172884087676
 30
0.0
 10
131.4513942810667
 20
406.0184956869965
 30
0.0
  0
SPLINE
  5
173
330
1F
100
AcDbEntity
  8
0
  6
Continuous
 62
     8
370
    18
100
AcDbSpline
210
0.0
220
0.0
230
1.0
 70
     8
 71
     3
 72
     8
 73
     4
 74
     0
 42
0.000000001
 43
0.00000001
 40
0.0
 40
0.0
 40
0.0
 40
0.0
 40
1.0
 40
1.0
 40
1.0
 40
1.0
 10
133.6593422177107
 20
406.0152251930673
 30
0.0
 10
133.310479303314
 20
406.0151177382737
 30
0.0
 10
132.9679394434978
 20
406.0153499124019
 30
0.0
 10
132.6332220303225
 20
406.0157977603725
 30
0.0
  0
SPLINE
  5
174
330
1F
100
AcDbEntity
  8
0
  6
Continuous
 62
     8
370
    18
100
AcDbSpline
210
0.0
220
0.0
230
1.0
 70
     8
 71
     3
 72
     8
 73
     4
 74
     0
 42
0.000000001
 43
0.00000001
 40
0.0
 40
0.0
 40
0.0
 40
0.0
 40
1.0
 40
1.0
 40
1.0
 40
1.0
 10
134.8048062063492
 20
406.0172505591316
 30
0.0
 10
134.4175565592266
 20
406.0158661422676
 30
0.0
 10
134.0350914037884
 20
406.0153409292191
 30
0.0
 10
133.6593422177107
 20
406.0152251930673
 30
0.0
  0
SPLINE
  5
175
330
1F
100
AcDbEntity
  8
0
  6
Continuous
 62
     8
370
    18
100
AcDbSpline
210
0.0
220
0.0
230
1.0
 70
     8
 71
     3
 72
     8
 73
     4
 74
     0
 42
0.000000001
 43
0.00000001
 40
0.0
 40
0.0
 40
0.0
 40
0.0
 40
1.0
 40
1.0
 40
1.0
 40
1.0
 10
136.7823871726617
 20
406.0341891108984
 30
0.0
 10
136.1184344216523
 20
406.0243156397457
 30
0.0
 10
135.4561119936231
 20
406.019578976271
 30
0.0
 10
134.8048062063492
 20
406.0172505591316
 30
0.0
  0
SPLINE
  5
176
330
1F
100
AcDbEntity
  8
0
  6
Continuous
 62
     8
370
    18
100
AcDbSpline
210
0.0
220
0.0
230
1.0
 70
     8
 71
     3
 72
     8
 73
     4
 74
     0
 42
0.000000001
 43
0.00000001
 40
0.0
 40
0.0
 40
0.0
 40
0.0
 40
1.0
 40
1.0
 40
1.0
 40
1.0
 10
134.977328806692
 20
407.1326587844295
 30
0.0
 10
135.5670939924605
 20
407.1345191972093
 30
0.0
 10
136.1670538109163
 20
407.1381310638125
 30
0.0
 10
136.7689295108769
 20
407.1457518292613
 30
0.0
  0
LINE
  5
177
330
1F
100
AcDbEntity
  8
0
  6
Continuous
 62
     8
370
    18
100
AcDbLine
 10
147.3662537513
 20
401.3522459956
 30
0.0
 11
136.7823873637
 21
401.3522459956
 31
0.0
  0
SPLINE
  5
178
330
1F
100
AcDbEntity
  8
0
  6
Continuous
 62
     8
370
    18
100
AcDbSpline
210
0.0
220
0.0
230
1.0
 70
     8
 71
     3
 72
     8
 73
     4
 74
     0
 42
0.000000001
 43
0.00000001
 40
0.0
 40
0.0
 40
0.0
 40
0.0
 40
1.0
 40
1.0
 40
1.0
 40
1.0
 10
150.2106908123681
 20
407.1308576846689
 30
0.0
 10
149.8697584386275
 20
407.1310727654271
 30
0.0
 10
149.5227392172151
 20
407.1315502091383
 30
0.0
 10
149.1713123082909
 20
407.1326587844295
 30
0.0
  0
SPLINE
  5
179
330
1F
100
AcDbEntity
  8
0
  6
Continuous
 62
     8
370
    18
100
AcDbSpline
210
0.0
220
0.0
230
1.0
 70
     8
 71
     3
 72
     8
 73
     4
 74
     0
 42
0.000000001
 43
0.00000001
 40
0.0
 40
0.0
 40
0.0
 40
0.0
 40
1.0
 40
1.0
 40
1.0
 40
1.0
 10
133.9379503026148
 20
407.1308576846689
 30
0.0
 10
134.2788826763554
 20
407.1310727654269
 30
0.0
 10
134.6259018977678
 20
407.1315502091382
 30
0.0
 10
134.977328806692
 20
407.1326587844294
 30
0.0
  0
SPLINE
  5
17A
330
1F
100
AcDbEntity
  8
0
  6
Continuous
 62
     8
370
    18
100
AcDbSpline
210
0.0
220
0.0
230
1.0
 70
     8
 71
     3
 72
    11
 73
     7
 74
     0
 42
0.000000001
 43
0.00000001
 40
-0.00000006
 40
-0.00000006
 40
-0.00000006
 40
-0.00000006
 40
0.0
 40
0.0
 40
0.0
 40
0.0005282950640932
 40
0.0005282950640932
 40
0.0005282950640932
 40
0.0005282950640932
 10
164.2406729996851
 20
410.7356694152729
 30
0.0
 10
164.2406730007947
 20
410.7356652332567
 30
0.0
 10
164.2406730019316
 20
410.7356610512359
 30
0.0
 10
164.2406730030137
 20
410.7356568692242
 30
0.0
 10
164.2406825303691
 20
410.6988346002379
 30
0.0
 10
164.2385614491423
 20
410.6623611026557
 30
0.0
 10
164.2343713155217
 20
410.6258316907682
 30
0.0
  0
SPLINE
  5
17B
330
1F
100
AcDbEntity
  8
0
  6
Continuous
 62
     8
370
    18
100
AcDbSpline
210
0.0
220
0.0
230
1.0
 70
     8
 71
     3
 72
    10
 73
     6
 74
     0
 42
0.000000001
 43
0.00000001
 40
0.0
 40
0.0
 40
0.0
 40
0.0
 40
0.5
 40
0.5
 40
1.0
 40
1.0
 40
1.0
 40
1.0
 10
164.2343713155217
 20
410.6258316907682
 30
0.0
 10
164.206400075925
 20
410.3819795789393
 30
0.0
 10
164.0859693823212
 20
410.1410433843596
 30
0.0
 10
163.6667920008818
 20
409.6662796026305
 30
0.0
 10
163.3680802165271
 20
409.4320902153605
 30
0.0
 10
162.9763758191542
 20
409.2014228290753
 30
0.0
  0
SPLINE
  5
17C
330
1F
100
AcDbEntity
  8
0
  6
Continuous
 62
     8
370
    18
100
AcDbSpline
210
0.0
220
0.0
230
1.0
 70
     8
 71
     3
 72
     8
 73
     4
 74
     0
 42
0.000000001
 43
0.00000001
 40
0.0
 40
0.0
 40
0.0
 40
0.0
 40
1.0
 40
1.0
 40
1.0
 40
1.0
 10
162.9763758191543
 20
409.2014228290753
 30
0.0
 10
162.4740747579935
 20
408.9056271380307
 30
0.0
 10
161.8319962486211
 20
408.6258013353547
 30
0.0
 10
161.0620616128984
 20
408.3633404226488
 30
0.0
  0
SPLINE
  5
17D
330
1F
100
AcDbEntity
  8
0
  6
Continuous
 62
     8
370
    18
100
AcDbSpline
210
0.0
220
0.0
230
1.0
 70
     8
 71
     3
 72
     8
 73
     4
 74
     0
 42
0.000000001
 43
0.00000001
 40
0.0
 40
0.0
 40
0.0
 40
0.0
 40
1.0
 40
1.0
 40
1.0
 40
1.0
 10
161.0620616128984
 20
408.3633404226488
 30
0.0
 10
160.884399077051
 20
408.3027775265941
 30
0.0
 10
160.700078414902
 20
408.2431362538491
 30
0.0
 10
160.508610485055
 20
408.1853332448271
 30
0.0
  0
SPLINE
  5
17E
330
1F
100
AcDbEntity
  8
0
  6
Continuous
 62
     8
370
    18
100
AcDbSpline
210
0.0
220
0.0
230
1.0
 70
     8
 71
     3
 72
     8
 73
     4
 74
     0
 42
0.000000001
 43
0.00000001
 40
0.0
 40
0.0
 40
0.0
 40
0.0
 40
0.0006029791127588
 40
0.0006029791127588
 40
0.0006029791127588
 40
0.0006029791127588
 10
160.5086104850549
 20
408.1853332448271
 30
0.0
 10
160.3979513450962
 20
408.1519259203185
 30
0.0
 10
160.2851645000569
 20
408.1190271642629
 30
0.0
 10
160.1695751256462
 20
408.087184612066
 30
0.0
  0
SPLINE
  5
17F
330
1F
100
AcDbEntity
  8
0
  6
Continuous
 62
     8
370
    18
100
AcDbSpline
210
0.0
220
0.0
230
1.0
 70
     8
 71
     3
 72
    16
 73
    12
 74
     0
 42
0.000000001
 43
0.00000001
 40
0.0
 40
0.0
 40
0.0
 40
0.0
 40
0.1249999999999993
 40
0.1249999999999993
 40
0.2499999999999987
 40
0.2499999999999987
 40
0.4999999999999991
 40
0.4999999999999991
 40
0.7499999999999996
 40
0.7499999999999996
 40
1.0
 40
1.0
 40
1.0
 40
1.0
 10
160.1695751257886
 20
408.0871846120131
 30
0.0
 10
159.8966379627847
 20
408.0119959028973
 30
0.0
 10
159.634221674708
 20
407.9336413440813
 30
0.0
 10
159.1368596283372
 20
407.7896479910899
 30
0.0
 10
158.9038622966953
 20
407.7222183945265
 30
0.0
 10
158.252667118851
 20
407.5359266628293
 30
0.0
 10
157.8876264724506
 20
407.434618363525
 30
0.0
 10
157.298909094844
 20
407.2873659741272
 30
0.0
 10
157.080241145384
 20
407.2440110589
 30
0.0
 10
156.7893987466658
 20
407.2008261300119
 30
0.0
 10
156.721146276614
 20
407.2022388345043
 30
0.0
 10
156.7151519154038
 20
407.1956639828116
 30
0.0
  0
SPLINE
  5
180
330
1F
100
AcDbEntity
  8
0
  6
Continuous
 62
     8
370
    18
100
AcDbSpline
210
0.0
220
0.0
230
1.0
 70
     8
 71
     3
 72
    11
 73
     7
 74
     0
 42
0.000000001
 43
0.00000001
 40
0.0
 40
0.0
 40
0.0
 40
0.0
 40
0.0010528996751524
 40
0.0010528996751524
 40
0.0010528996751524
 40
0.0018300050798694
 40
0.0018300050798694
 40
0.0018300050798694
 40
0.0018300050798694
 10
156.7151507710832
 20
407.1956641563596
 30
0.0
 10
156.712933459268
 20
407.1932343963625
 30
0.0
 10
156.7108605682079
 20
407.1913165119692
 30
0.0
 10
156.7089622432866
 20
407.1896984326427
 30
0.0
 10
156.7075611609034
 20
407.1885041890159
 30
0.0
 10
156.7062546858838
 20
407.1874766901453
 30
0.0
 10
156.705049569754
 20
407.1865690680731
 30
0.0
  0
SPLINE
  5
181
330
1F
100
AcDbEntity
  8
0
  6
Continuous
 62
     8
370
    18
100
AcDbSpline
210
0.0
220
0.0
230
1.0
 70
     8
 71
     3
 72
     9
 73
     5
 74
     0
 42
0.000000001
 43
0.00000001
 40
0.0
 40
0.0
 40
0.0
 40
0.0
 40
0.8116846787812061
 40
1.0
 40
1.0
 40
1.0
 40
1.0
 10
156.7050498900581
 20
407.1865721435964
 30
0.0
 10
156.7036061427903
 20
407.1855086153162
 30
0.0
 10
156.7018274381953
 20
407.1841983426104
 30
0.0
 10
156.7005359090692
 20
407.1833996001021
 30
0.0
 10
156.700292694347
 20
407.1832491846502
 30
0.0
  0
SPLINE
  5
182
330
1F
100
AcDbEntity
  8
0
  6
Continuous
 62
     8
370
    18
100
AcDbSpline
210
0.0
220
0.0
230
1.0
 70
     8
 71
     3
 72
    10
 73
     6
 74
     0
 42
0.000000001
 43
0.00000001
 40
0.0
 40
0.0
 40
0.0
 40
0.0
 40
0.2931701274137094
 40
0.6588594378644795
 40
0.9999999999999999
 40
0.9999999999999999
 40
0.9999999999999999
 40
0.9999999999999999
 10
156.6827959371377
 20
407.171089837116
 30
0.0
 10
156.6792308982261
 20
407.1685863702722
 30
0.0
 10
156.6712189648345
 20
407.162960173729
 30
0.0
 10
156.6592642263485
 20
407.1543082986645
 30
0.0
 10
156.6448091397073
 20
407.1492196496268
 30
0.0
 10
156.6378326145578
 20
407.146763691467
 30
0.0
  0
SPLINE
  5
183
330
1F
100
AcDbEntity
  8
0
  6
Continuous
 62
     8
370
    18
100
AcDbSpline
210
0.0
220
0.0
230
1.0
 70
     8
 71
     3
 72
    11
 73
     7
 74
     0
 42
0.000000001
 43
0.00000001
 40
0.0
 40
0.0
 40
0.0
 40
0.0
 40
0.0002203474018664
 40
0.0002203474018664
 40
0.0002203474018664
 40
0.0004271838458319
 40
0.0004271838458319
 40
0.0004271838458319
 40
0.0004271838458319
 10
156.6378329527223
 20
407.1467613607314
 30
0.0
 10
156.6375642827865
 20
407.1467002409219
 30
0.0
 10
156.6372904521459
 20
407.1466280651871
 30
0.0
 10
156.6370113151212
 20
407.1465311052438
 30
0.0
 10
156.6367492938433
 20
407.1464400905592
 30
0.0
 10
156.6364826368923
 20
407.1463272747512
 30
0.0
 10
156.6362110404754
 20
407.1461814020884
 30
0.0
  0
SPLINE
  5
184
330
1F
100
AcDbEntity
  8
0
  6
Continuous
 62
     8
370
    18
100
AcDbSpline
210
0.0
220
0.0
230
1.0
 70
     8
 71
     3
 72
    11
 73
     7
 74
     0
 42
0.000000001
 43
0.00000001
 40
0.0
 40
0.0
 40
0.0
 40
0.0
 40
0.0001770074196939
 40
0.0001770074196939
 40
0.0001770074196939
 40
0.0003528678349735
 40
0.0003528678349735
 40
0.0003528678349735
 40
0.0003528678349735
 10
156.6362110404754
 20
407.1461814020884
 30
0.0
 10
156.6359786124685
 20
407.1460565665229
 30
0.0
 10
156.6351813963043
 20
407.1459572288705
 30
0.0
 10
156.6338212424286
 20
407.145874987422
 30
0.0
 10
156.6324699012594
 20
407.1457932788322
 30
0.0
 10
156.6305627731422
 20
407.1457284358611
 30
0.0
 10
156.6281018951256
 20
407.1456723477264
 30
0.0
  0
SPLINE
  5
185
330
1F
100
AcDbEntity
  8
0
  6
Continuous
 62
     8
370
    18
100
AcDbSpline
210
0.0
220
0.0
230
1.0
 70
     8
 71
     3
 72
    10
 73
     6
 74
     0
 42
0.000000001
 43
0.00000001
 40
0.0
 40
0.0
 40
0.0
 40
0.0
 40
0.5
 40
0.5
 40
1.0
 40
1.0
 40
1.0
 40
1.0
 10
156.6281018951256
 20
407.1456723477264
 30
0.0
 10
156.6002680015213
 20
407.1450379598525
 30
0.0
 10
156.5026399189089
 20
407.1446405642899
 30
0.0
 10
156.1679749945743
 20
407.1432381127149
 30
0.0
 10
155.9345897153712
 20
407.1423480472006
 30
0.0
 10
155.6348253648761
 20
407.1412789825288
 30
0.0
  0
SPLINE
  5
186
330
1F
100
AcDbEntity
  8
0
  6
Continuous
 62
     8
370
    18
100
AcDbSpline
210
0.0
220
0.0
230
1.0
 70
     8
 71
     3
 72
    12
 73
     8
 74
     0
 42
0.000000001
 43
0.00000001
 40
0.0
 40
0.0
 40
0.0
 40
0.0
 40
0.2500000000000002
 40
0.2500000000000002
 40
0.5000000000000003
 40
0.5000000000000003
 40
1.0
 40
1.0
 40
1.0
 40
1.0
 10
155.6348253648761
 20
407.1412789825288
 30
0.0
 10
155.4411982483372
 20
407.1405884404097
 30
0.0
 10
155.2229083852498
 20
407.1398142513835
 30
0.0
 10
154.738166132298
 20
407.1381020934468
 30
0.0
 10
154.4703665365172
 20
407.1371653819022
 30
0.0
 10
153.60144877741
 20
407.1345299208502
 30
0.0
 10
152.9471779096648
 20
407.1329062075496
 30
0.0
 10
152.2174039361598
 20
407.1317954115107
 30
0.0
  0
SPLINE
  5
187
330
1F
100
AcDbEntity
  8
0
  6
Continuous
 62
     8
370
    18
100
AcDbSpline
210
0.0
220
0.0
230
1.0
 70
     8
 71
     3
 72
     8
 73
     4
 74
     0
 42
0.000000001
 43
0.00000001
 40
0.0
 40
0.0
 40
0.0
 40
0.0
 40
1.0
 40
1.0
 40
1.0
 40
1.0
 10
152.2174039361603
 20
407.1317954115106
 30
0.0
 10
151.8719188417404
 20
407.1312695452996
 30
0.0
 10
151.5128626607235
 20
407.1309109878518
 30
0.0
 10
151.1428070611723
 20
407.130778495384
 30
0.0
  0
SPLINE
  5
188
330
1F
100
AcDbEntity
  8
0
  6
Continuous
 62
     8
370
    18
100
AcDbSpline
210
0.0
220
0.0
230
1.0
 70
     8
 71
     3
 72
     8
 73
     4
 74
     0
 42
0.000000001
 43
0.00000001
 40
0.0
 40
0.0
 40
0.0
 40
0.0
 40
1.0
 40
1.0
 40
1.0
 40
1.0
 10
151.1428070611723
 20
407.130778495384
 30
0.0
 10
150.8386228135189
 20
407.1306695870965
 30
0.0
 10
150.5275120564536
 20
407.1306578146695
 30
0.0
 10
150.2106908123681
 20
407.130857684669
 30
0.0
  0
SPLINE
  5
189
330
1F
100
AcDbEntity
  8
0
  6
Continuous
 62
     8
370
    18
100
AcDbSpline
210
0.0
220
0.0
230
1.0
 70
     8
 71
     3
 72
     8
 73
     4
 74
     0
 42
0.000000001
 43
0.00000001
 40
0.0
 40
0.0
 40
0.0
 40
0.0
 40
1.0
 40
1.0
 40
1.0
 40
1.0
 10
133.0058340538106
 20
407.130778495384
 30
0.0
 10
133.3100183014641
 20
407.1306695870965
 30
0.0
 10
133.6211290585294
 20
407.1306578146694
 30
0.0
 10
133.9379503026148
 20
407.1308576846689
 30
0.0
  0
SPLINE
  5
18A
330
1F
100
AcDbEntity
  8
0
  6
Continuous
 62
     8
370
    18
100
AcDbSpline
210
0.0
220
0.0
230
1.0
 70
     8
 71
     3
 72
     8
 73
     4
 74
     0
 42
0.000000001
 43
0.00000001
 40
0.0
 40
0.0
 40
0.0
 40
0.0
 40
1.0
 40
1.0
 40
1.0
 40
1.0
 10
131.9312371788226
 20
407.1317954115106
 30
0.0
 10
132.2767222732425
 20
407.1312695452995
 30
0.0
 10
132.6357784542594
 20
407.1309109878517
 30
0.0
 10
133.0058340538106
 20
407.130778495384
 30
0.0
  0
SPLINE
  5
18B
330
1F
100
AcDbEntity
  8
0
  6
Continuous
 62
     8
370
    18
100
AcDbSpline
210
0.0
220
0.0
230
1.0
 70
     8
 71
     3
 72
    12
 73
     8
 74
     0
 42
0.000000001
 43
0.00000001
 40
0.0
 40
0.0
 40
0.0
 40
0.0
 40
0.2500000000000015
 40
0.2500000000000015
 40
0.500000000000003
 40
0.500000000000003
 40
1.0
 40
1.0
 40
1.0
 40
1.0
 10
128.5138157501068
 20
407.1412789825287
 30
0.0
 10
128.7074428666455
 20
407.1405884404098
 30
0.0
 10
128.9257327297331
 20
407.1398142513834
 30
0.0
 10
129.4104749826847
 20
407.1381020934467
 30
0.0
 10
129.6782745784661
 20
407.1371653819023
 30
0.0
 10
130.5471923375723
 20
407.1345299208499
 30
0.0
 10
131.201463205318
 20
407.1329062075495
 30
0.0
 10
131.9312371788231
 20
407.1317954115106
 30
0.0
  0
SPLINE
  5
18C
330
1F
100
AcDbEntity
  8
0
  6
Continuous
 62
     8
370
    18
100
AcDbSpline
210
0.0
220
0.0
230
1.0
 70
     8
 71
     3
 72
    10
 73
     6
 74
     0
 42
0.000000001
 43
0.00000001
 40
0.0
 40
0.0
 40
0.0
 40
0.0
 40
0.5
 40
0.5
 40
1.0
 40
1.0
 40
1.0
 40
1.0
 10
127.5205392198573
 20
407.1456723477263
 30
0.0
 10
127.5483731134616
 20
407.1450379598525
 30
0.0
 10
127.6460011960739
 20
407.1446405642898
 30
0.0
 10
127.9806661204086
 20
407.1432381127149
 30
0.0
 10
128.2140513996082
 20
407.1423480472006
 30
0.0
 10
128.5138157501068
 20
407.1412789825287
 30
0.0
  0
SPLINE
  5
18D
330
1F
100
AcDbEntity
  8
0
  6
Continuous
 62
     8
370
    18
100
AcDbSpline
210
0.0
220
0.0
230
1.0
 70
     8
 71
     3
 72
    11
 73
     7
 74
     0
 42
0.000000001
 43
0.00000001
 40
0.0
 40
0.0
 40
0.0
 40
0.0
 40
0.0001770074196939
 40
0.0001770074196939
 40
0.0001770074196939
 40
0.0003528678349735
 40
0.0003528678349735
 40
0.0003528678349735
 40
0.0003528678349735
 10
127.5124300745075
 20
407.1461814020883
 30
0.0
 10
127.5126625025144
 20
407.1460565665228
 30
0.0
 10
127.5134597186786
 20
407.1459572288704
 30
0.0
 10
127.5148198725543
 20
407.1458749874219
 30
0.0
 10
127.5161712137235
 20
407.1457932788321
 30
0.0
 10
127.5180783418406
 20
407.1457284358609
 30
0.0
 10
127.5205392198573
 20
407.1456723477263
 30
0.0
  0
SPLINE
  5
18E
330
1F
100
AcDbEntity
  8
0
  6
Continuous
 62
     8
370
    18
100
AcDbSpline
210
0.0
220
0.0
230
1.0
 70
     8
 71
     3
 72
    11
 73
     7
 74
     0
 42
0.000000001
 43
0.00000001
 40
0.0
 40
0.0
 40
0.0
 40
0.0
 40
0.0002203474018664
 40
0.0002203474018664
 40
0.0002203474018664
 40
0.0004271838458319
 40
0.0004271838458319
 40
0.0004271838458319
 40
0.0004271838458319
 10
127.5108081622606
 20
407.1467613607313
 30
0.0
 10
127.5110768321964
 20
407.1467002409218
 30
0.0
 10
127.5113506628369
 20
407.146628065187
 30
0.0
 10
127.5116297998618
 20
407.1465311052437
 30
0.0
 10
127.5118918211396
 20
407.1464400905591
 30
0.0
 10
127.5121584780906
 20
407.1463272747511
 30
0.0
 10
127.5124300745075
 20
407.1461814020883
 30
0.0
  0
LINE
  5
18F
330
1F
100
AcDbEntity
  8
0
  6
Continuous
 62
     8
370
    18
100
AcDbLine
 10
127.503543253
 20
407.1495949121
 30
0.0
 11
127.5108085004
 21
407.1467636915
 31
0.0
  0
SPLINE
  5
190
330
1F
100
AcDbEntity
  8
0
  6
Continuous
 62
     8
370
    18
100
AcDbSpline
210
0.0
220
0.0
230
1.0
 70
     8
 71
     3
 72
     9
 73
     5
 74
     0
 42
0.000000001
 43
0.00000001
 40
0.0
 40
0.0
 40
0.0
 40
0.0
 40
0.8113979734970355
 40
1.0
 40
1.0
 40
1.0
 40
1.0
 10
127.4435912249256
 20
407.1865721435964
 30
0.0
 10
127.4450346661058
 20
407.185508142587
 30
0.0
 10
127.4468136219663
 20
407.1841968242891
 30
0.0
 10
127.448106452772
 20
407.1833995518482
 30
0.0
 10
127.4483502832819
 20
407.1832491846502
 30
0.0
  0
SPLINE
  5
191
330
1F
100
AcDbEntity
  8
0
  6
Continuous
 62
     8
370
    18
100
AcDbSpline
210
0.0
220
0.0
230
1.0
 70
     8
 71
     3
 72
    11
 73
     7
 74
     0
 42
0.000000001
 43
0.00000001
 40
0.0
 40
0.0
 40
0.0
 40
0.0
 40
0.0010528996751524
 40
0.0010528996751524
 40
0.0010528996751524
 40
0.0018300050798694
 40
0.0018300050798694
 40
0.0018300050798694
 40
0.0018300050798694
 10
127.4334903438997
 20
407.1956641563595
 30
0.0
 10
127.4357076557149
 20
407.1932343963624
 30
0.0
 10
127.437780546775
 20
407.1913165119691
 30
0.0
 10
127.4396788716963
 20
407.1896984326426
 30
0.0
 10
127.4410799540795
 20
407.1885041890158
 30
0.0
 10
127.442386429099
 20
407.1874766901452
 30
0.0
 10
127.4435915452289
 20
407.186569068073
 30
0.0
  0
SPLINE
  5
192
330
1F
100
AcDbEntity
  8
0
  6
Continuous
 62
     8
370
    18
100
AcDbSpline
210
0.0
220
0.0
230
1.0
 70
     8
 71
     3
 72
    16
 73
    12
 74
     0
 42
0.000000001
 43
0.00000001
 40
0.0
 40
0.0
 40
0.0
 40
0.0
 40
0.1250000000000006
 40
0.1250000000000006
 40
0.2500000000000013
 40
0.2500000000000013
 40
0.5000000000000009
 40
0.5000000000000009
 40
0.7500000000000004
 40
0.7500000000000004
 40
1.0
 40
1.0
 40
1.0
 40
1.0
 10
123.9790659891943
 20
408.0871846120129
 30
0.0
 10
124.2520031521969
 20
408.0119959028968
 30
0.0
 10
124.5144194402712
 20
407.9336413440819
 30
0.0
 10
125.0117814866444
 20
407.7896479910907
 30
0.0
 10
125.2447788182843
 20
407.7222183945266
 30
0.0
 10
125.8959739961316
 20
407.5359266628302
 30
0.0
 10
126.2610146425313
 20
407.4346183635249
 30
0.0
 10
126.8497320201374
 20
407.2873659741274
 30
0.0
 10
127.068399969598
 20
407.2440110588996
 30
0.0
 10
127.3592423683173
 20
407.2008261300122
 30
0.0
 10
127.4274948383688
 20
407.2022388345043
 30
0.0
 10
127.4334891995791
 20
407.1956639828115
 30
0.0
  0
SPLINE
  5
193
330
1F
100
AcDbEntity
  8
0
  6
Continuous
 62
     8
370
    18
100
AcDbSpline
210
0.0
220
0.0
230
1.0
 70
     8
 71
     3
 72
     8
 73
     4
 74
     0
 42
0.000000001
 43
0.00000001
 40
0.0
 40
0.0
 40
0.0
 40
0.0
 40
0.0006029791127592
 40
0.0006029791127592
 40
0.0006029791127592
 40
0.0006029791127592
 10
123.640030629928
 20
408.185333244827
 30
0.0
 10
123.7506897698866
 20
408.1519259203184
 30
0.0
 10
123.8634766149267
 20
408.1190271642629
 30
0.0
 10
123.9790659893366
 20
408.0871846120659
 30
0.0
  0
SPLINE
  5
194
330
1F
100
AcDbEntity
  8
0
  6
Continuous
 62
     8
370
    18
100
AcDbSpline
210
0.0
220
0.0
230
1.0
 70
     8
 71
     3
 72
     8
 73
     4
 74
     0
 42
0.000000001
 43
0.00000001
 40
0.0
 40
0.0
 40
0.0
 40
0.0
 40
1.0
 40
1.0
 40
1.0
 40
1.0
 10
123.0865795020845
 20
408.3633404226487
 30
0.0
 10
123.2642420379319
 20
408.302777526594
 30
0.0
 10
123.448562700081
 20
408.2431362538489
 30
0.0
 10
123.6400306299279
 20
408.185333244827
 30
0.0
  0
SPLINE
  5
195
330
1F
100
AcDbEntity
  8
0
  6
Continuous
 62
     8
370
    18
100
AcDbSpline
210
0.0
220
0.0
230
1.0
 70
     8
 71
     3
 72
     8
 73
     4
 74
     0
 42
0.000000001
 43
0.00000001
 40
0.0
 40
0.0
 40
0.0
 40
0.0
 40
1.0
 40
1.0
 40
1.0
 40
1.0
 10
121.1722652958286
 20
409.2014228290751
 30
0.0
 10
121.6745663569895
 20
408.9056271380306
 30
0.0
 10
122.3166448663627
 20
408.6258013353551
 30
0.0
 10
123.0865795020845
 20
408.3633404226487
 30
0.0
  0
SPLINE
  5
196
330
1F
100
AcDbEntity
  8
0
  6
Continuous
 62
     8
370
    18
100
AcDbSpline
210
0.0
220
0.0
230
1.0
 70
     8
 71
     3
 72
    10
 73
     6
 74
     0
 42
0.000000001
 43
0.00000001
 40
0.0
 40
0.0
 40
0.0
 40
0.0
 40
0.5
 40
0.5
 40
1.0
 40
1.0
 40
1.0
 40
1.0
 10
119.9142697994612
 20
410.6258316907679
 30
0.0
 10
119.9422410390578
 20
410.3819795789389
 30
0.0
 10
120.0626717326616
 20
410.1410433843593
 30
0.0
 10
120.4818491141009
 20
409.6662796026304
 30
0.0
 10
120.7805608984557
 20
409.4320902153604
 30
0.0
 10
121.1722652958286
 20
409.2014228290751
 30
0.0
  0
SPLINE
  5
197
330
1F
100
AcDbEntity
  8
0
  6
Continuous
 62
     8
370
    18
100
AcDbSpline
210
0.0
220
0.0
230
1.0
 70
     8
 71
     3
 72
    11
 73
     7
 74
     0
 42
0.000000001
 43
0.00000001
 40
-0.00000006
 40
-0.00000006
 40
-0.00000006
 40
-0.00000006
 40
0.0
 40
0.0
 40
0.0
 40
0.0005282950640932
 40
0.0005282950640932
 40
0.0005282950640932
 40
0.0005282950640932
 10
119.9079681152977
 20
410.7356694152728
 30
0.0
 10
119.9079681141607
 20
410.7356652332565
 30
0.0
 10
119.9079681130512
 20
410.7356610512357
 30
0.0
 10
119.9079681119692
 20
410.735656869224
 30
0.0
 10
119.9079585846137
 20
410.6988346002377
 30
0.0
 10
119.9100796658406
 20
410.6623611026556
 30
0.0
 10
119.9142697994612
 20
410.6258316907679
 30
0.0
  0
ELLIPSE
  5
198
330
1F
100
AcDbEntity
  8
0
  6
Continuous
 62
     8
370
    18
100
AcDbEllipse
 10
142.0743205575
 20
399.8521987918
 30
0.0
 11
37.00000000000003
 21
1.705302565824241E-13
 31
0.0
210
0.0
220
0.0
230
1.0
 40
0.0215107577
 41
1.303915415074068
 42
1.837677238515714
  0
ARC
  5
199
330
1F
100
AcDbEntity
  8
0
  6
Continuous
 62
     8
370
    18
100
AcDbCircle
 10
156.5397188425
 20
406.1497676022
 30
0.0
 40
0.9998224648229633
100
AcDbArc
 50
354.6108551348
 51
84.9284901373
  0
ARC
  5
19A
330
1F
100
AcDbEntity
  8
0
  6
Continuous
 62
     8
370
    18
100
AcDbCircle
 10
127.6089222725
 20
406.1497676022
 30
0.0
 40
0.9998224648229774
100
AcDbArc
 50
95.0715098627
 51
185.3891448652
  0
ARC
  5
19B
330
1F
100
AcDbEntity
  8
0
  6
Continuous
 62
     8
370
    18
100
AcDbCircle
 10
156.5477518129
 20
406.1501038461
 30
0.0
 40
0.9999989183725377
100
AcDbArc
 50
18.1265806919
 51
84.9250125833
  0
ARC
  5
19C
330
1F
100
AcDbEntity
  8
0
  6
Continuous
 62
     8
370
    18
100
AcDbCircle
 10
127.6008427617
 20
406.1501604593
 30
0.0
 40
0.9999384109781007
100
AcDbArc
 50
95.0726180891
 51
163.2410138651
  0
SPLINE
  5
19D
330
1F
100
AcDbEntity
  8
0
  6
Continuous
 62
     8
370
    18
100
AcDbSpline
210
0.0
220
0.0
230
1.0
 70
     8
 71
     3
 72
    14
 73
    10
 74
     0
 42
0.000000001
 43
0.00000001
 40
-0.00000006
 40
-0.00000006
 40
-0.00000006
 40
-0.00000006
 40
0.0
 40
0.0
 40
0.0
 40
0.000206030210505
 40
0.000206030210505
 40
0.000206030210505
 40
0.0004259382814683
 40
0.0004259382814683
 40
0.0004259382814683
 40
0.0004259382814683
 10
157.5434534515732
 20
406.0574669184944
 30
0.0
 10
157.5434535048138
 20
406.0574670718175
 30
0.0
 10
157.5434535580542
 20
406.057467225137
 30
0.0
 10
157.5434536112938
 20
406.0574673784527
 30
0.0
 10
157.5436364277316
 20
406.0579938397859
 30
0.0
 10
157.5438130687097
 20
406.0584772287946
 30
0.0
 10
157.5439849726799
 20
406.0589313202999
 30
0.0
 10
157.5441684558316
 20
406.0594159986962
 30
0.0
 10
157.5443465376476
 20
406.0598672447827
 30
0.0
 10
157.5445208902878
 20
406.0603018577526
 30
0.0
  0
SPLINE
  5
19E
330
1F
100
AcDbEntity
  8
0
  6
Continuous
 62
     8
370
    18
100
AcDbSpline
210
0.0
220
0.0
230
1.0
 70
     8
 71
     3
 72
     9
 73
     5
 74
     0
 42
0.000000001
 43
0.00000001
 40
0.0
 40
0.0
 40
0.0
 40
0.0
 40
0.4882437005862795
 40
0.9999999999999999
 40
0.9999999999999999
 40
0.9999999999999999
 40
0.9999999999999999
 10
157.5445207757521
 20
406.0603051276624
 30
0.0
 10
157.5491259683345
 20
406.0742696155266
 30
0.0
 10
157.5585581280875
 20
406.1028710861601
 30
0.0
 10
157.5597141569941
 20
406.1161625302441
 30
0.0
 10
157.5603057620693
 20
406.1229645104825
 30
0.0
  0
LINE
  5
19F
330
1F
100
AcDbEntity
  8
0
  6
Continuous
 62
     8
370
    18
100
AcDbLine
 10
157.5616990206
 20
406.1384244652
 30
0.0
 11
157.5618461696
 21
406.1401082964
 31
0.0
  0
SPLINE
  5
1A0
330
1F
100
AcDbEntity
  8
0
  6
Continuous
 62
     8
370
    18
100
AcDbSpline
210
0.0
220
0.0
230
1.0
 70
     8
 71
     3
 72
    11
 73
     7
 74
     0
 42
0.000000001
 43
0.00000001
 40
0.0
 40
0.0
 40
0.0
 40
0.0
 40
0.0009490249335429
 40
0.0009490249335429
 40
0.0009490249335429
 40
0.001908610829177
 40
0.001908610829177
 40
0.001908610829177
 40
0.001908610829177
 10
157.5636516744711
 20
406.1607562096366
 30
0.0
 10
157.5637477730174
 20
406.1620010691161
 30
0.0
 10
157.5638492282741
 20
406.1633932032733
 30
0.0
 10
157.5639566198728
 20
406.1649997397325
 30
0.0
 10
157.5640652065389
 20
406.1666241539337
 30
0.0
 10
157.56417988546
 20
406.1684681433838
 30
0.0
 10
157.5643000035886
 20
406.1705912046878
 30
0.0
  0
SPLINE
  5
1A1
330
1F
100
AcDbEntity
  8
0
  6
Continuous
 62
     8
370
    18
100
AcDbSpline
210
0.0
220
0.0
230
1.0
 70
     8
 71
     3
 72
    45
 73
    41
 74
     0
 42
0.000000001
 43
0.00000001
 40
0.0
 40
0.0
 40
0.0
 40
0.0
 40
0.1249999999999852
 40
0.1249999999999852
 40
0.1874999999999772
 40
0.1874999999999772
 40
0.2187499999999739
 40
0.2187499999999739
 40
0.2265624999999733
 40
0.2265624999999733
 40
0.2343749999999728
 40
0.2343749999999728
 40
0.2499999999999724
 40
0.2499999999999724
 40
0.3749999999999708
 40
0.3749999999999708
 40
0.4999999999999691
 40
0.4999999999999691
 40
0.5624999999999672
 40
0.5624999999999672
 40
0.6249999999999654
 40
0.6249999999999654
 40
0.6874999999999636
 40
0.6874999999999636
 40
0.7499999999999617
 40
0.7499999999999617
 40
0.8124999999999598
 40
0.8124999999999598
 40
0.8749999999999579
 40
0.8749999999999579
 40
0.906249999999959
 40
0.906249999999959
 40
0.921874999999961
 40
0.921874999999961
 40
0.9257812499999608
 40
0.9257812499999608
 40
0.9296874999999606
 40
0.9296874999999606
 40
0.9374999999999601
 40
1.0
 40
1.0
 40
1.0
 40
1.0
 10
151.8321106879826
 20
400.619920576473
 30
0.0
 10
152.0777229748398
 20
400.6151172511084
 30
0.0
 10
152.3256962776847
 20
400.6272024643126
 30
0.0
 10
152.6964676806669
 20
400.6706701182985
 30
0.0
 10
152.8198595105296
 20
400.6893757308002
 30
0.0
 10
153.0042193500931
 20
400.7237042452947
 30
0.0
 10
153.0655505315848
 20
400.7361922772177
 30
0.0
 10
153.1420277813031
 20
400.7531050220893
 30
0.0
 10
153.1578860307438
 20
400.7566853933554
 30
0.0
 10
153.1872379174854
 20
400.7634324882666
 30
0.0
 10
153.1926870202819
 20
400.7647334780436
 30
0.0
 10
153.2843664357896
 20
400.7862784285758
 30
0.0
 10
153.3454537753809
 20
400.8017144232206
 30
0.0
 10
153.8846962864604
 20
400.9474983315623
 30
0.0
 10
154.3136713702258
 20
401.1295838094658
 30
0.0
 10
155.0919639139494
 20
401.5692669681083
 30
0.0
 10
155.4414275522768
 20
401.827784321722
 30
0.0
 10
155.90052838109
 20
402.25072093689
 30
0.0
 10
156.0430434244629
 20
402.397600368977
 30
0.0
 10
156.3120153084083
 20
402.7066348716683
 30
0.0
 10
156.4376961058835
 20
402.8681473712847
 30
0.0
 10
156.670666935369
 20
403.2038216773183
 30
0.0
 10
156.7780566029239
 20
403.3779631061236
 30
0.0
 10
156.9759624805272
 20
403.7429433676957
 30
0.0
 10
157.06599537961
 20
403.9330600290181
 30
0.0
 10
157.2256716854575
 20
404.3267615895196
 30
0.0
 10
157.2952840885564
 20
404.5306913709651
 30
0.0
 10
157.4118394460601
 20
404.9514768283463
 30
0.0
 10
157.4587897470136
 20
405.1671806555298
 30
0.0
 10
157.5105859127943
 20
405.4904016681712
 30
0.0
 10
157.5247329968004
 20
405.5980654774053
 30
0.0
 10
157.5411327643639
 20
405.758503553254
 30
0.0
 10
157.5458471024218
 20
405.811886204533
 30
0.0
 10
157.550819076157
 20
405.8784663711101
 30
0.0
 10
157.55172784064
 20
405.8911245183323
 30
0.0
 10
157.5536224189903
 20
405.9191967638097
 30
0.0
 10
157.5547186371225
 20
405.9364766580822
 30
0.0
 10
157.5555690122862
 20
405.950271690125
 30
0.0
 10
157.5604701101941
 20
406.0329320229213
 30
0.0
 10
157.5635936929461
 20
406.1146474347124
 30
0.0
 10
157.5650491786683
 20
406.1869026075583
 30
0.0
  0
SPLINE
  5
1A2
330
1F
100
AcDbEntity
  8
0
  6
Continuous
 62
     8
370
    18
100
AcDbSpline
210
0.0
220
0.0
230
1.0
 70
     8
 71
     3
 72
    37
 73
    33
 74
     0
 42
0.000000001
 43
0.00000001
 40
0.0
 40
0.0
 40
0.0
 40
0.0
 40
0.013876052161472
 40
0.0261463400039603
 40
0.0368501117257966
 40
0.046056162582296
 40
0.0634114536622157
 40
0.0806193258132833
 40
0.0982842355454533
 40
0.1169647143399987
 40
0.1371332907802273
 40
0.1591649854809431
 40
0.1880747290176029
 40
0.2220391232394071
 40
0.2612676667944683
 40
0.3058848296563493
 40
0.3709850976520795
 40
0.4737034782284619
 40
0.5477839586628709
 40
0.6156692747625204
 40
0.6773212004688798
 40
0.7327441442654106
 40
0.781980395540827
 40
0.8251075758509373
 40
0.8519515995340984
 40
0.8693597896878431
 40
0.8770138579390728
 40
0.8880642232050194
 40
0.907070409445326
 40
0.9208996080154384
 40
0.9633576152249026
 40
1.0
 40
1.0
 40
1.0
 40
1.0
 10
126.5836033503467
 20
406.1864032074348
 30
0.0
 10
126.5848260244697
 20
406.1405693726578
 30
0.0
 10
126.5871298824374
 20
406.0542056855066
 30
0.0
 10
126.5942131612367
 20
405.9256559167521
 30
0.0
 10
126.6029786033083
 20
405.808260821355
 30
0.0
 10
126.6165327155849
 20
405.6644493500453
 30
0.0
 10
126.6382842188528
 20
405.4851268024647
 30
0.0
 10
126.6732925207067
 20
405.2660734900675
 30
0.0
 10
126.7176657264244
 20
405.0438806505931
 30
0.0
 10
126.7717342946334
 20
404.8198404431091
 30
0.0
 10
126.8358831706664
 20
404.59449022923
 30
0.0
 10
126.9159000230994
 20
404.3520759982952
 30
0.0
 10
127.0161453762328
 20
404.0903193853446
 30
0.0
 10
127.1429041923485
 20
403.8054712075368
 30
0.0
 10
127.2972185058766
 20
403.5062368661357
 30
0.0
 10
127.5037500156028
 20
403.1604955384532
 30
0.0
 10
127.8155494538709
 20
402.7197689118143
 30
0.0
 10
128.2165977644069
 20
402.2693044698642
 30
0.0
 10
128.6732411941322
 20
401.863595322807
 30
0.0
 10
129.0930213420328
 20
401.5568926634871
 30
0.0
 10
129.5052408867547
 20
401.3089105955588
 30
0.0
 10
129.9019280821877
 20
401.1127310647486
 30
0.0
 10
130.276276893042
 20
400.9614653376506
 30
0.0
 10
130.5971462825253
 20
400.8566747121209
 30
0.0
 10
130.8437393968138
 20
400.7905063278713
 30
0.0
 10
131.0021344364686
 20
400.7536538943166
 30
0.0
 10
131.1232974016501
 20
400.7279860297194
 30
0.0
 10
131.2483898030629
 20
400.7038065003421
 30
0.0
 10
131.3949112570519
 20
400.6795543486961
 30
0.0
 10
131.6454337406146
 20
400.6459048649867
 30
0.0
 10
131.952486751082
 20
400.6194550682961
 30
0.0
 10
132.2012797926075
 20
400.6197732037365
 30
0.0
 10
132.3165304270003
 20
400.619920576473
 30
0.0
  0
SPLINE
  5
1A3
330
1F
100
AcDbEntity
  8
0
  6
Continuous
 62
     8
370
    18
100
AcDbSpline
210
0.0
220
0.0
230
1.0
 70
     8
 71
     3
 72
    11
 73
     7
 74
     0
 42
0.000000001
 43
0.00000001
 40
0.0
 40
0.0
 40
0.0
 40
0.0
 40
0.0009490249335429
 40
0.0009490249335429
 40
0.0009490249335429
 40
0.001908610829177
 40
0.001908610829177
 40
0.001908610829177
 40
0.001908610829177
 10
126.5849894405118
 20
406.1607562096365
 30
0.0
 10
126.5848933419655
 20
406.1620010691159
 30
0.0
 10
126.5847918867088
 20
406.1633932032732
 30
0.0
 10
126.5846844951101
 20
406.1649997397324
 30
0.0
 10
126.5845759084441
 20
406.1666241539336
 30
0.0
 10
126.5844612295229
 20
406.1684681433835
 30
0.0
 10
126.5843411113943
 20
406.1705912046877
 30
0.0
  0
SPLINE
  5
1A4
330
1F
100
AcDbEntity
  8
0
  6
Continuous
 62
     8
370
    18
100
AcDbSpline
210
0.0
220
0.0
230
1.0
 70
     8
 71
     3
 72
     9
 73
     5
 74
     0
 42
0.000000001
 43
0.00000001
 40
0.0
 40
0.0
 40
0.0
 40
0.0
 40
0.5027535068007363
 40
1.0
 40
1.0
 40
1.0
 40
1.0
 10
126.6041203392316
 20
406.0603051276624
 30
0.0
 10
126.5994956599882
 20
406.0743058907104
 30
0.0
 10
126.5902969588735
 20
406.1021540565781
 30
0.0
 10
126.5891348581812
 20
406.1151326119344
 30
0.0
 10
126.5885570076872
 20
406.1215861530721
 30
0.0
  0
LINE
  5
1A5
330
1F
100
AcDbEntity
  8
0
  6
Continuous
 62
     8
370
    18
100
AcDbLine
 10
126.5869420943
 20
406.1384170146
 30
0.0
 11
126.5867930827
 21
406.1401231976
 31
0.0
  0
SPLINE
  5
1A6
330
1F
100
AcDbEntity
  8
0
  6
Continuous
 62
     8
370
    18
100
AcDbSpline
210
0.0
220
0.0
230
1.0
 70
     8
 71
     3
 72
    14
 73
    10
 74
     0
 42
0.000000001
 43
0.00000001
 40
-0.00000006
 40
-0.00000006
 40
-0.00000006
 40
-0.00000006
 40
0.0
 40
0.0
 40
0.0
 40
0.000206030210505
 40
0.000206030210505
 40
0.000206030210505
 40
0.0004259382814683
 40
0.0004259382814683
 40
0.0004259382814683
 40
0.0004259382814683
 10
126.6051876634097
 20
406.0574669184943
 30
0.0
 10
126.6051876101693
 20
406.0574670718137
 30
0.0
 10
126.6051875569287
 20
406.0574672251369
 30
0.0
 10
126.605187503689
 20
406.0574673784526
 30
0.0
 10
126.6050046872513
 20
406.0579938397858
 30
0.0
 10
126.6048280462732
 20
406.0584772287945
 30
0.0
 10
126.604656142303
 20
406.0589313202998
 30
0.0
 10
126.6044726591513
 20
406.0594159986961
 30
0.0
 10
126.6042945773353
 20
406.0598672447826
 30
0.0
 10
126.6041202246951
 20
406.0603018577524
 30
0.0
  0
ARC
  5
1A7
330
1F
100
AcDbEntity
  8
0
  6
Continuous
 62
     8
370
    18
100
AcDbCircle
 10
156.5486125298
 20
406.1507453922
 30
0.0
 40
1.000006337935192
100
AcDbArc
 50
354.8110972895
 51
84.8812917885
  0
ARC
  5
1A8
330
1F
100
AcDbEntity
  8
0
  6
Continuous
 62
     8
370
    18
100
AcDbCircle
 10
127.6000285852
 20
406.1507453922
 30
0.0
 40
1.000006337935164
100
AcDbArc
 50
95.1187082115
 51
185.1889027105
  0
SPLINE
  5
1A9
330
1F
100
AcDbEntity
  8
0
  6
Continuous
 62
     8
370
    18
100
AcDbSpline
210
0.0
220
0.0
230
1.0
 70
     8
 71
     3
 72
     8
 73
     4
 74
     0
 42
0.000000001
 43
0.00000001
 40
0.0
 40
0.0
 40
0.0
 40
0.0
 40
1.0
 40
1.0
 40
1.0
 40
1.0
 10
157.5650441729749
 20
406.1866543661761
 30
0.0
 10
157.5647231209196
 20
406.1649183167777
 30
0.0
 10
157.5898997351614
 20
406.1450159681795
 30
0.0
 10
157.6460509095328
 20
406.1383162346511
 30
0.0
  0
SPLINE
  5
1AA
330
1F
100
AcDbEntity
  8
0
  6
Continuous
 62
     8
370
    18
100
AcDbSpline
210
0.0
220
0.0
230
1.0
 70
     8
 71
     3
 72
    10
 73
     6
 74
     0
 42
0.000000001
 43
0.00000001
 40
0.0
 40
0.0
 40
0.0
 40
0.0
 40
0.5
 40
0.5
 40
1.0
 40
1.0
 40
1.0
 40
1.0
 10
157.6460509095328
 20
406.1383162346511
 30
0.0
 10
157.655980573892
 20
406.1465445623177
 30
0.0
 10
157.6659894734238
 20
406.1440802820554
 30
0.0
 10
157.6880862105137
 20
406.1452105403114
 30
0.0
 10
157.6999988496931
 20
406.146050775528
 30
0.0
 10
157.7125526253529
 20
406.1450283078119
 30
0.0
  0
SPLINE
  5
1AB
330
1F
100
AcDbEntity
  8
0
  6
Continuous
 62
     8
370
    18
100
AcDbSpline
210
0.0
220
0.0
230
1.0
 70
     8
 71
     3
 72
    16
 73
    12
 74
     0
 42
0.000000001
 43
0.00000001
 40
0.0
 40
0.0
 40
0.0
 40
0.0
 40
0.2499999999999999
 40
0.2499999999999999
 40
0.4999999999999998
 40
0.4999999999999998
 40
0.7499999999999997
 40
0.7499999999999997
 40
0.8749999999999998
 40
0.8749999999999998
 40
1.0
 40
1.0
 40
1.0
 40
1.0
 10
157.7125526253529
 20
406.1450283078119
 30
0.0
 10
157.7987133977544
 20
406.1492543240826
 30
0.0
 10
157.9242953488996
 20
406.170050007169
 30
0.0
 10
158.2548417508743
 20
406.2461389510252
 30
0.0
 10
158.4607792146964
 20
406.3025812499541
 30
0.0
 10
158.9463915424621
 20
406.4455425909949
 30
0.0
 10
159.2270939824963
 20
406.5322030878724
 30
0.0
 10
159.7009839874431
 20
406.6802264058731
 30
0.0
 10
159.8674290398493
 20
406.732743357779
 30
0.0
 10
160.2170682229943
 20
406.8422519858017
 30
0.0
 10
160.4002651909611
 20
406.9022817765998
 30
0.0
 10
160.5918673804882
 20
406.9567582770806
 30
0.0
  0
SPLINE
  5
1AC
330
1F
100
AcDbEntity
  8
0
  6
Continuous
 62
     8
370
    18
100
AcDbSpline
210
0.0
220
0.0
230
1.0
 70
     8
 71
     3
 72
    14
 73
    10
 74
     0
 42
0.000000001
 43
0.00000001
 40
-0.00000006
 40
-0.00000006
 40
-0.00000006
 40
-0.00000006
 40
0.0
 40
0.0
 40
0.0
 40
0.0004124398872286
 40
0.0004124398872286
 40
0.0004124398872286
 40
0.0004124998872286
 40
0.0004124998872286
 40
0.0004124998872286
 40
0.0004124998872286
 10
160.5918673804882
 20
406.9567582770806
 30
0.0
 10
160.5918785887261
 20
406.9567616611599
 30
0.0
 10
160.5918897969911
 20
406.9567650452353
 30
0.0
 10
160.5919010052834
 20
406.9567684293066
 30
0.0
 10
160.6689467853349
 20
406.9800305295777
 30
0.0
 10
160.7472834609176
 20
407.0031014806897
 30
0.0
 10
160.8268823622664
 20
407.0257003929161
 30
0.0
 10
160.826893941976
 20
407.0257036805097
 30
0.0
 10
160.8269055217123
 20
407.0257069680875
 30
0.0
 10
160.8269171014754
 20
407.0257102556673
 30
0.0
  0
SPLINE
  5
1AD
330
1F
100
AcDbEntity
  8
0
  6
Continuous
 62
     8
370
    18
100
AcDbSpline
210
0.0
220
0.0
230
1.0
 70
     8
 71
     3
 72
    14
 73
    10
 74
     0
 42
0.000000001
 43
0.00000001
 40
-0.00000006
 40
-0.00000006
 40
-0.00000006
 40
-0.00000006
 40
0.0
 40
0.0
 40
0.0
 40
0.0004124398872286
 40
0.0004124398872286
 40
0.0004124398872286
 40
0.0004124998872286
 40
0.0004124998872286
 40
0.0004124998872286
 40
0.0004124998872286
 10
123.5567737344947
 20
406.9567582770804
 30
0.0
 10
123.5567625262305
 20
406.9567616611502
 30
0.0
 10
123.5567513179918
 20
406.9567650452352
 30
0.0
 10
123.5567401096995
 20
406.9567684293065
 30
0.0
 10
123.479694329648
 20
406.9800305295775
 30
0.0
 10
123.4013576540653
 20
407.0031014806896
 30
0.0
 10
123.3217587527164
 20
407.025700392916
 30
0.0
 10
123.3217471730069
 20
407.0257036805095
 30
0.0
 10
123.3217355932438
 20
407.0257069680833
 30
0.0
 10
123.3217240135075
 20
407.0257102556672
 30
0.0
  0
SPLINE
  5
1AE
330
1F
100
AcDbEntity
  8
0
  6
Continuous
 62
     8
370
    18
100
AcDbSpline
210
0.0
220
0.0
230
1.0
 70
     8
 71
     3
 72
    20
 73
    16
 74
     0
 42
0.000000001
 43
0.00000001
 40
0.0
 40
0.0
 40
0.0
 40
0.0
 40
0.0312499999999994
 40
0.0312499999999994
 40
0.0624999999999988
 40
0.0624999999999988
 40
0.1249999999999978
 40
0.1249999999999978
 40
0.2499999999999982
 40
0.2499999999999982
 40
0.4999999999999988
 40
0.4999999999999988
 40
0.7499999999999993
 40
0.7499999999999993
 40
1.0
 40
1.0
 40
1.0
 40
1.0
 10
126.4360884896299
 20
406.1450283078117
 30
0.0
 10
126.4255859346308
 20
406.1441899507738
 30
0.0
 10
126.4139314385035
 20
406.1463427096717
 30
0.0
 10
126.3899166333804
 20
406.1484423700855
 30
0.0
 10
126.3772865487076
 20
406.1497547736724
 30
0.0
 10
126.3375616564176
 20
406.1544772239197
 30
0.0
 10
126.308620152632
 20
406.1586817978732
 30
0.0
 10
126.2143967029359
 20
406.1743875376911
 30
0.0
 10
126.1417091655896
 20
406.189072243133
 30
0.0
 10
125.8937993641086
 20
406.2461389510251
 30
0.0
 10
125.6878619002865
 20
406.3025812499544
 30
0.0
 10
125.2022495725208
 20
406.4455425909948
 30
0.0
 10
124.9215471324867
 20
406.5322030878711
 30
0.0
 10
124.2896937925576
 20
406.7295675118735
 30
0.0
 10
123.9410746878901
 20
406.8414120311932
 30
0.0
 10
123.5567737344947
 20
406.9567582770804
 30
0.0
  0
SPLINE
  5
1AF
330
1F
100
AcDbEntity
  8
0
  6
Continuous
 62
     8
370
    18
100
AcDbSpline
210
0.0
220
0.0
230
1.0
 70
     8
 71
     3
 72
    16
 73
    12
 74
     0
 42
0.000000001
 43
0.00000001
 40
0.0
 40
0.0
 40
0.0
 40
0.0
 40
0.0624999999999925
 40
0.0624999999999925
 40
0.124999999999985
 40
0.124999999999985
 40
0.2499999999999672
 40
0.2499999999999672
 40
0.4999999999999668
 40
0.4999999999999668
 40
1.0
 40
1.0
 40
1.0
 40
1.0
 10
126.5025902054501
 20
406.138316234651
 30
0.0
 10
126.5015437529118
 20
406.1381976832948
 30
0.0
 10
126.5001038533252
 20
406.1401779843964
 30
0.0
 10
126.4976251134802
 20
406.1414242374849
 30
0.0
 10
126.4963870682974
 20
406.1418562453053
 30
0.0
 10
126.4926545238235
 20
406.1428691075581
 30
0.0
 10
126.4901387446521
 20
406.1432056873307
 30
0.0
 10
126.4824456821666
 20
406.1440603163551
 30
0.0
 10
126.4771274572866
 20
406.1443628466192
 30
0.0
 10
126.4605549044692
 20
406.1452105403111
 30
0.0
 10
126.4486419890307
 20
406.1460513730699
 30
0.0
 10
126.4360884896299
 20
406.1450283078117
 30
0.0
  0
SPLINE
  5
1B0
330
1F
100
AcDbEntity
  8
0
  6
Continuous
 62
     8
370
    18
100
AcDbSpline
210
0.0
220
0.0
230
1.0
 70
     8
 71
     3
 72
     8
 73
     4
 74
     0
 42
0.000000001
 43
0.00000001
 40
0.0
 40
0.0
 40
0.0
 40
0.0
 40
1.0
 40
1.0
 40
1.0
 40
1.0
 10
126.583596942008
 20
406.186654366176
 30
0.0
 10
126.5839171995259
 20
406.1649180931634
 30
0.0
 10
126.5587405209073
 20
406.1450153143447
 30
0.0
 10
126.5025902054501
 20
406.138316234651
 30
0.0
  0
SPLINE
  5
1B1
330
1F
100
AcDbEntity
  8
0
  6
Continuous
 62
     8
370
    18
100
AcDbSpline
210
0.0
220
0.0
230
1.0
 70
     8
 71
     3
 72
     8
 73
     4
 74
     0
 42
0.000000001
 43
0.00000001
 40
0.0
 40
0.0
 40
0.0
 40
0.0
 40
0.0006235855658959
 40
0.0006235855658959
 40
0.0006235855658959
 40
0.0006235855658959
 10
160.830184510468
 20
407.0265996952355
 30
0.0
 10
160.9504851935626
 20
407.0593613560011
 30
0.0
 10
161.0685026420089
 20
407.0929666716303
 30
0.0
 10
161.1841688863571
 20
407.1271586036599
 30
0.0
  0
SPLINE
  5
1B2
330
1F
100
AcDbEntity
  8
0
  6
Continuous
 62
     8
370
    18
100
AcDbSpline
210
0.0
220
0.0
230
1.0
 70
     8
 71
     3
 72
     8
 73
     4
 74
     0
 42
0.000000001
 43
0.00000001
 40
0.0
 40
0.0
 40
0.0
 40
0.0
 40
1.0
 40
1.0
 40
1.0
 40
1.0
 10
161.1841688863571
 20
407.1271586036599
 30
0.0
 10
161.3854130324181
 20
407.1866480960545
 30
0.0
 10
161.579465766756
 20
407.2479620340549
 30
0.0
 10
161.7663239355255
 20
407.3103490162981
 30
0.0
  0
SPLINE
  5
1B3
330
1F
100
AcDbEntity
  8
0
  6
Continuous
 62
     8
370
    18
100
AcDbSpline
210
0.0
220
0.0
230
1.0
 70
     8
 71
     3
 72
     8
 73
     4
 74
     0
 42
0.000000001
 43
0.00000001
 40
0.0
 40
0.0
 40
0.0
 40
0.0
 40
1.0
 40
1.0
 40
1.0
 40
1.0
 10
161.7663239355255
 20
407.3103490162981
 30
0.0
 10
162.5756350061983
 20
407.5805564989447
 30
0.0
 10
163.2410163657252
 20
407.8718342312924
 30
0.0
 10
163.7624578310854
 20
408.179274297528
 30
0.0
  0
SPLINE
  5
1B4
330
1F
100
AcDbEntity
  8
0
  6
Continuous
 62
     8
370
    18
100
AcDbSpline
210
0.0
220
0.0
230
1.0
 70
     8
 71
     3
 72
    10
 73
     6
 74
     0
 42
0.000000001
 43
0.00000001
 40
0.0
 40
0.0
 40
0.0
 40
0.0
 40
0.5
 40
0.5
 40
1.0
 40
1.0
 40
1.0
 40
1.0
 10
163.7624578310854
 20
408.179274297528
 30
0.0
 10
164.1684714693956
 20
408.4186585202009
 30
0.0
 10
164.478488576368
 20
408.6616047227742
 30
0.0
 10
164.9135947078854
 20
409.1541386076082
 30
0.0
 10
165.0386837325637
 20
409.4040816913987
 30
0.0
 10
165.0677762263868
 20
409.6570890500596
 30
0.0
  0
SPLINE
  5
1B5
330
1F
100
AcDbEntity
  8
0
  6
Continuous
 62
     8
370
    18
100
AcDbSpline
210
0.0
220
0.0
230
1.0
 70
     8
 71
     3
 72
     8
 73
     4
 74
     0
 42
0.000000001
 43
0.00000001
 40
0.0
 40
0.0
 40
0.0
 40
0.0
 40
0.0005486704211255
 40
0.0005486704211255
 40
0.0005486704211255
 40
0.0005486704211255
 10
165.0677762263868
 20
409.6570890500596
 30
0.0
 10
165.072138803055
 20
409.6950288707739
 30
0.0
 10
165.074320557494
 20
409.7329188464438
 30
0.0
 10
165.0743205574914
 20
409.7711502698245
 30
0.0
  0
SPLINE
  5
1B6
330
1F
100
AcDbEntity
  8
0
  6
Continuous
 62
     8
370
    18
100
AcDbSpline
210
0.0
220
0.0
230
1.0
 70
     8
 71
     3
 72
     8
 73
     4
 74
     0
 42
0.000000001
 43
0.00000001
 40
0.0
 40
0.0
 40
0.0
 40
0.0
 40
0.0005486704212852
 40
0.0005486704212852
 40
0.0005486704212852
 40
0.0005486704212852
 10
119.0808648885961
 20
409.6570890500594
 30
0.0
 10
119.0765023119279
 20
409.6950288707737
 30
0.0
 10
119.0743205574889
 20
409.7329188464437
 30
0.0
 10
119.0743205574914
 20
409.7711502698243
 30
0.0
  0
SPLINE
  5
1B7
330
1F
100
AcDbEntity
  8
0
  6
Continuous
 62
     8
370
    18
100
AcDbSpline
210
0.0
220
0.0
230
1.0
 70
     8
 71
     3
 72
    10
 73
     6
 74
     0
 42
0.000000001
 43
0.00000001
 40
0.0
 40
0.0
 40
0.0
 40
0.0
 40
0.5
 40
0.5
 40
1.0
 40
1.0
 40
1.0
 40
1.0
 10
120.3861832838975
 20
408.1792742975279
 30
0.0
 10
119.9801696455873
 20
408.4186585202008
 30
0.0
 10
119.6701525386149
 20
408.6616047227741
 30
0.0
 10
119.2350464070975
 20
409.1541386076079
 30
0.0
 10
119.1099573824192
 20
409.4040816913986
 30
0.0
 10
119.0808648885961
 20
409.6570890500594
 30
0.0
  0
SPLINE
  5
1B8
330
1F
100
AcDbEntity
  8
0
  6
Continuous
 62
     8
370
    18
100
AcDbSpline
210
0.0
220
0.0
230
1.0
 70
     8
 71
     3
 72
     8
 73
     4
 74
     0
 42
0.000000001
 43
0.00000001
 40
0.0
 40
0.0
 40
0.0
 40
0.0
 40
1.0
 40
1.0
 40
1.0
 40
1.0
 10
122.3823171794574
 20
407.3103490162979
 30
0.0
 10
121.5730061087846
 20
407.5805564989445
 30
0.0
 10
120.9076247492577
 20
407.8718342312921
 30
0.0
 10
120.3861832838975
 20
408.1792742975279
 30
0.0
  0
SPLINE
  5
1B9
330
1F
100
AcDbEntity
  8
0
  6
Continuous
 62
     8
370
    18
100
AcDbSpline
210
0.0
220
0.0
230
1.0
 70
     8
 71
     3
 72
     8
 73
     4
 74
     0
 42
0.000000001
 43
0.00000001
 40
0.0
 40
0.0
 40
0.0
 40
0.0
 40
1.0
 40
1.0
 40
1.0
 40
1.0
 10
122.9644722286258
 20
407.1271586036598
 30
0.0
 10
122.7632280825648
 20
407.1866480960545
 30
0.0
 10
122.5691753482269
 20
407.2479620340548
 30
0.0
 10
122.3823171794573
 20
407.3103490162979
 30
0.0
  0
SPLINE
  5
1BA
330
1F
100
AcDbEntity
  8
0
  6
Continuous
 62
     8
370
    18
100
AcDbSpline
210
0.0
220
0.0
230
1.0
 70
     8
 71
     3
 72
     8
 73
     4
 74
     0
 42
0.000000001
 43
0.00000001
 40
0.0
 40
0.0
 40
0.0
 40
0.0
 40
0.0006235855658959
 40
0.0006235855658959
 40
0.0006235855658959
 40
0.0006235855658959
 10
123.3184566045149
 20
407.0265996952353
 30
0.0
 10
123.1981559214203
 20
407.0593613560009
 30
0.0
 10
123.080138472974
 20
407.0929666716302
 30
0.0
 10
122.9644722286258
 20
407.1271586036598
 30
0.0
  0
SPLINE
  5
1BB
330
1F
100
AcDbEntity
  8
0
  6
Continuous
 62
     8
370
    18
100
AcDbSpline
210
0.0
220
0.0
230
1.0
 70
     8
 71
     3
 72
    10
 73
     6
 74
     0
 42
0.000000001
 43
0.00000001
 40
0.0
 40
0.0
 40
0.0
 40
0.0
 40
0.5
 40
0.5
 40
1.0
 40
1.0
 40
1.0
 40
1.0
 10
158.0743205574915
 20
369.427684792058
 30
0.0
 10
158.0743205574915
 20
369.4413079584492
 30
0.0
 10
158.1984578610701
 20
369.5612298694724
 30
0.0
 10
158.696960226464
 20
370.0010127144817
 30
0.0
 10
159.0712778430583
 20
370.320928780154
 30
0.0
 10
159.5770449556704
 20
370.7375250663029
 30
0.0
  0
LINE
  5
1BC
330
1F
100
AcDbEntity
  8
0
  6
Continuous
 62
     8
370
    18
100
AcDbLine
 10
158.0743213175
 20
369.4263814779
 30
0.0
 11
158.0743213175
 21
369.4276853295
 31
0.0
  0
LINE
  5
1BD
330
1F
100
AcDbEntity
  8
0
  6
Continuous
 62
     8
370
    18
100
AcDbLine
 10
126.0743197975
 20
369.4276853295
 30
0.0
 11
126.0743197975
 21
369.4263814779
 31
0.0
  0
SPLINE
  5
1BE
330
1F
100
AcDbEntity
  8
0
  6
Continuous
 62
     8
370
    18
100
AcDbSpline
210
0.0
220
0.0
230
1.0
 70
     8
 71
     3
 72
    10
 73
     6
 74
     0
 42
0.000000001
 43
0.00000001
 40
0.0
 40
0.0
 40
0.0
 40
0.0
 40
0.5
 40
0.5
 40
1.0
 40
1.0
 40
1.0
 40
1.0
 10
124.5715961593129
 20
370.7375250663026
 30
0.0
 10
125.077363271925
 20
370.3209287801538
 30
0.0
 10
125.451680888519
 20
370.0010127144816
 30
0.0
 10
125.950183253913
 20
369.5612298694722
 30
0.0
 10
126.0743205574916
 20
369.441307958449
 30
0.0
 10
126.0743205574916
 20
369.4276847920578
 30
0.0
  0
ARC
  5
1BF
330
1F
100
AcDbEntity
  8
0
  6
Continuous
 62
     8
370
    18
100
AcDbCircle
 10
158.0743260337
 20
368.4276898817
 30
0.0
 40
0.9999954478050569
100
AcDbArc
 50
0.0009037292
 51
90.0002702214
  0
ARC
  5
1C0
330
1F
100
AcDbEntity
  8
0
  6
Continuous
 62
     8
370
    18
100
AcDbCircle
 10
126.0743150813
 20
368.4276898817
 30
0.0
 40
0.999995447805069
100
AcDbArc
 50
89.9997297786
 51
179.9990962708
  0
SPLINE
  5
1C1
330
1F
100
AcDbEntity
  8
0
  6
Continuous
 62
     8
370
    18
100
AcDbSpline
210
0.0
220
0.0
230
1.0
 70
     8
 71
     3
 72
    10
 73
     6
 74
     0
 42
0.000000001
 43
0.00000001
 40
0.0
 40
0.0
 40
0.0
 40
0.0
 40
0.5
 40
0.5
 40
1.0
 40
1.0
 40
1.0
 40
1.0
 10
160.5475797713924
 20
369.7092788704649
 30
0.0
 10
160.0512792990396
 20
369.2936668679293
 30
0.0
 10
159.6843080978625
 20
368.9767414535972
 30
0.0
 10
159.1958031817545
 20
368.5465155759182
 30
0.0
 10
159.0743205574915
 20
368.4331620874996
 30
0.0
 10
159.0743205574915
 20
368.4277065200867
 30
0.0
  0
SPLINE
  5
1C2
330
1F
100
AcDbEntity
  8
0
  6
Continuous
 62
     8
370
    18
100
AcDbSpline
210
0.0
220
0.0
230
1.0
 70
     8
 71
     3
 72
    10
 73
     6
 74
     0
 42
0.000000001
 43
0.00000001
 40
0.0
 40
0.0
 40
0.0
 40
0.0
 40
0.5
 40
0.5
 40
1.0
 40
1.0
 40
1.0
 40
1.0
 10
125.0743205574916
 20
368.4277065200866
 30
0.0
 10
125.0743205574916
 20
368.4331620874995
 30
0.0
 10
124.9528379332285
 20
368.5465155759182
 30
0.0
 10
124.4643330171207
 20
368.9767414535971
 30
0.0
 10
124.0973618159436
 20
369.2936668679289
 30
0.0
 10
123.6010613435909
 20
369.7092788704645
 30
0.0
  0
ARC
  5
1C3
330
1F
100
AcDbEntity
  8
0
  6
Continuous
 62
     8
370
    18
100
AcDbCircle
 10
168.4829229305
 20
359.767600756
 30
0.0
 40
12.720324035434
100
AcDbArc
 50
114.6187636408
 51
128.5964938154
  0
ARC
  5
1C4
330
1F
100
AcDbEntity
  8
0
  6
Continuous
 62
     8
370
    18
100
AcDbCircle
 10
115.6657181845
 20
359.767600756
 30
0.0
 40
12.72032403543399
100
AcDbArc
 50
51.4035061846
 51
65.3812363592
  0
LWPOLYLINE
  5
1C5
330
1F
100
AcDbEntity
  8
0
  6
Continuous
 62
     8
370
    18
100
AcDbPolyline
 90
        6
 70
   128
 43
0.0
 10
120.9647321133
 20
371.3316439481
 10
120.1991067258
 20
371.753078589
 10
119.6276229797
 20
372.1876188012
 10
119.2553491322
 20
372.6314126344
 10
119.0855913786
 20
373.0805187316
 10
119.0743205128
 20
373.2302008958
  0
ARC
  5
1C6
330
1F
100
AcDbEntity
  8
0
  6
Continuous
 62
     8
370
    18
100
AcDbCircle
 10
162.510992542
 20
373.8921024789
 30
0.0
 40
2.647407118258077
100
AcDbArc
 50
284.7249685879
 51
345.5213746026
  0
ARC
  5
1C7
330
1F
100
AcDbEntity
  8
0
  6
Continuous
 62
     8
370
    18
100
AcDbCircle
 10
116.4776738066
 20
360.5972176203
 30
0.0
 40
12.97449211659038
100
AcDbArc
 50
51.403386206
 51
65.3813790126
  0
ARC
  5
1C8
330
1F
100
AcDbEntity
  8
0
  6
Continuous
 62
     8
370
    18
100
AcDbCircle
 10
167.6709673084
 20
360.5972176203
 30
0.0
 40
12.97449211659028
100
AcDbArc
 50
114.6186209874
 51
128.596613794
  0
LWPOLYLINE
  5
1C9
330
1F
100
AcDbEntity
  8
0
  6
Continuous
 62
     8
370
    18
100
AcDbPolyline
 90
        8
 70
   128
 43
0.0
 10
162.2661017803
 20
372.3923384042
 10
163.0140022365
 20
372.8054507466
 10
163.5668986467
 20
373.2316239567
 10
163.9196407972
 20
373.6669017764
 10
164.0689429817
 20
374.1072161885
 10
164.0134138045
 20
374.5484693737
 10
163.7535748062
 20
374.9865635128
 10
163.5743212876
 20
375.1779838295
  0
LWPOLYLINE
  5
1CA
330
1F
100
AcDbEntity
  8
0
  6
Continuous
 62
     8
370
    18
100
AcDbPolyline
 90
        8
 70
   128
 43
0.0
 10
120.5743198273
 20
375.1779838295
 10
120.3950663088
 20
374.9865635128
 10
120.1352273104
 20
374.5484693737
 10
120.0796981332
 20
374.1072161885
 10
120.2290003178
 20
373.6669017764
 10
120.5817424683
 20
373.2316239567
 10
121.1346388785
 20
372.8054507466
 10
121.8825393347
 20
372.3923384042
  0
LWPOLYLINE
  5
1CB
330
1F
100
AcDbEntity
  8
0
  6
Continuous
 62
     8
370
    18
100
AcDbPolyline
 90
        7
 70
   128
 43
0.0
 10
164.2406714139
 20
410.7356636615
 10
164.1339343963
 20
411.1873923631
 10
163.8147515235
 20
411.6347699256
 10
163.2861961601
 20
412.0734899135
 10
162.5533589152
 20
412.4993203969
 10
161.6232973514
 20
412.9081635566
 10
160.7509144572
 20
413.2178543897
  0
LWPOLYLINE
  5
1CC
330
1F
100
AcDbEntity
  8
0
  6
Continuous
 62
     8
370
    18
100
AcDbPolyline
 90
        8
 70
   128
 43
0.0
 10
124.1214518426
 20
413.4388535114
 10
123.6436721859
 20
413.2961003871
 10
122.5253437636
 20
412.9081635566
 10
121.5952821998
 20
412.4993203969
 10
120.8624449549
 20
412.0734899135
 10
120.3338895915
 20
411.6347699256
 10
120.0147067187
 20
411.1873923631
 10
119.9079697011
 20
410.7356636615
  0
LINE
  5
1CD
330
1F
100
AcDbEntity
  8
0
  6
Continuous
 62
     7
370
    25
100
AcDbLine
 10
119.0743205128
 20
196.8243353433
 30
0.0
 11
119.0743205128
 21
190.1384581245
 31
0.0
  0
LINE
  5
1CE
330
1F
100
AcDbEntity
  8
0
  6
Continuous
 62
     7
370
    25
100
AcDbLine
 10
165.0743206022
 20
190.1384581245
 30
0.0
 11
165.0743206022
 21
196.8243353433
 31
0.0
  0
SPLINE
  5
1CF
330
1F
100
AcDbEntity
  8
0
  6
Continuous
 62
     7
370
    25
100
AcDbSpline
210
0.0
220
0.0
230
1.0
 70
     8
 71
     3
 72
     9
 73
     5
 74
     0
 42
0.000000001
 43
0.00000001
 40
0.0
 40
0.0
 40
0.0
 40
0.0
 40
0.8394945949979639
 40
1.0
 40
1.0
 40
1.0
 40
1.0
 10
160.7088484791685
 20
176.9168254352313
 30
0.0
 10
160.7390485898008
 20
176.9655461752882
 30
0.0
 10
160.7750227471238
 20
177.0235819748599
 30
0.0
 10
160.8153137334829
 20
177.0789001421783
 30
0.0
 10
160.8217806545664
 20
177.0877790070277
 30
0.0
  0
LINE
  5
1D0
330
1F
100
AcDbEntity
  8
0
  6
Continuous
 62
     7
370
    25
100
AcDbLine
 10
123.318007308
 20
177.0825486994
 30
0.0
 11
123.4362815497
 21
176.9155364848
 31
0.0
  0
LINE
  5
1D1
330
1F
100
AcDbEntity
  8
0
  6
Continuous
 62
     7
370
    25
100
AcDbLine
 10
160.8035285947
 20
177.0993311322
 30
0.0
 11
161.1709837792
 21
177.6008185364
 31
0.0
  0
SPLINE
  5
1D2
330
1F
100
AcDbEntity
  8
0
  6
Continuous
 62
     7
370
    25
100
AcDbSpline
210
0.0
220
0.0
230
1.0
 70
     8
 71
     3
 72
     9
 73
     5
 74
     0
 42
0.000000001
 43
0.00000001
 40
0.0
 40
0.0
 40
0.0
 40
0.0
 40
0.6947178086064818
 40
1.0
 40
1.0
 40
1.0
 40
1.0
 10
122.97160373904
 20
177.5970001137953
 30
0.0
 10
123.0509777549214
 20
177.4772001651381
 30
0.0
 10
123.1652313624987
 20
177.3047561207029
 30
0.0
 10
123.293236573952
 20
177.1410547326968
 30
0.0
 10
123.3323142854143
 20
177.0910796142321
 30
0.0
  0
SPLINE
  5
1D3
330
1F
100
AcDbEntity
  8
0
  6
Continuous
 62
     7
370
    25
100
AcDbSpline
210
0.0
220
0.0
230
1.0
 70
     8
 71
     3
 72
     9
 73
     5
 74
     0
 42
0.000000001
 43
0.00000001
 40
0.0
 40
0.0
 40
0.0
 40
0.0
 40
0.4843814036863231
 40
1.0
 40
1.0
 40
1.0
 40
1.0
 10
150.4848153320719
 20
119.2585479832392
 30
0.0
 10
150.6566711521173
 20
119.3049402315368
 30
0.0
 10
151.0114655739045
 20
119.4007165101974
 30
0.0
 10
151.3397469826106
 20
119.5660689158488
 30
0.0
 10
151.5090149817634
 20
119.6513276911479
 30
0.0
  0
SPLINE
  5
1D4
330
1F
100
AcDbEntity
  8
0
  6
Continuous
 62
     7
370
    25
100
AcDbSpline
210
0.0
220
0.0
230
1.0
 70
     8
 71
     3
 72
     9
 73
     5
 74
     0
 42
0.000000001
 43
0.00000001
 40
0.0
 40
0.0
 40
0.0
 40
0.0
 40
0.5317383951838304
 40
1.0
 40
1.0
 40
1.0
 40
1.0
 10
132.6398030845095
 20
119.6517300225001
 30
0.0
 10
132.8144079150044
 20
119.5638517107001
 30
0.0
 10
133.1427739537867
 20
119.3985856464175
 30
0.0
 10
133.4975187161105
 20
119.3027930367587
 30
0.0
 10
133.6636320678163
 20
119.2579370356303
 30
0.0
  0
LINE
  5
1D5
330
1F
100
AcDbEntity
  8
0
  6
Continuous
 62
     7
370
    25
100
AcDbLine
 10
119.0743205128
 20
216.6220688625
 30
0.0
 11
119.0743205128
 21
197.9054760552
 31
0.0
  0
LINE
  5
1D6
330
1F
100
AcDbEntity
  8
0
  6
Continuous
 62
     7
370
    25
100
AcDbLine
 10
165.0743206022
 20
197.9054760552
 30
0.0
 11
165.0743206022
 21
216.6220688625
 31
0.0
  0
LWPOLYLINE
  5
1D7
330
1F
100
AcDbEntity
  8
0
  6
Continuous
 62
     7
370
    25
100
AcDbPolyline
 90
       34
 70
   128
 43
0.0
 10
119.0743205128
 20
190.1384581245
 10
119.178466591
 20
192.2769721962
 10
119.4899604646
 20
194.3961184836
 10
120.0059820888
 20
196.4767061538
 10
120.721858087
 20
198.4998945511
 10
121.6311045913
 20
200.4473608351
 10
122.7254887102
 20
202.3014685503
 10
123.9950993089
 20
204.0454250193
 10
125.4284382788
 20
205.6634387366
 10
127.0125239147
 20
207.1408553413
 10
128.7330119861
 20
208.4642954535
 10
130.5743205351
 20
209.6217738829
 10
132.5197751624
 20
210.6028085939
 10
134.5517575731
 20
211.3985147691
 10
136.6518648332
 20
212.0016867659
 10
138.8010793356
 20
212.4068619116
 10
140.9799364386
 20
212.610371261
 10
143.1687046764
 20
212.610371261
 10
145.3475617794
 20
212.4068619116
 10
147.4967762818
 20
212.0016867659
 10
149.5968835419
 20
211.3985147691
 10
151.6288659526
 20
210.6028085939
 10
153.5743205798
 20
209.6217738829
 10
155.4156291289
 20
208.4642954535
 10
157.1361172003
 20
207.14085441
 10
158.7202028362
 20
205.6634378052
 10
160.1535418061
 20
204.0454250193
 10
161.4231524048
 20
202.3014685503
 10
162.5175365237
 20
200.4473608351
 10
163.426783028
 20
198.4998945511
 10
164.1426590262
 20
196.4767061538
 10
164.6586806504
 20
194.3961184836
 10
164.970174524
 20
192.2769721962
 10
165.0743206022
 20
190.1384581245
  0
SPLINE
  5
1D8
330
1F
100
AcDbEntity
  8
0
  6
Continuous
 62
     7
370
    25
100
AcDbSpline
210
0.0
220
0.0
230
1.0
 70
     8
 71
     3
 72
    10
 73
     6
 74
     0
 42
0.000000001
 43
0.00000001
 40
0.0
 40
0.0
 40
0.0
 40
0.0
 40
0.5000000000000004
 40
0.5000000000000004
 40
1.0
 40
1.0
 40
1.0
 40
1.0
 10
164.9315668316727
 20
199.3269972699205
 30
0.0
 10
164.8393343463186
 20
200.1329591499693
 30
0.0
 10
164.7045921060673
 20
200.9003533630414
 30
0.0
 10
164.3582940870415
 20
202.3649390035552
 30
0.0
 10
164.1447388478099
 20
203.0661092852299
 30
0.0
 10
163.9026502393202
 20
203.7149742163199
 30
0.0
  0
LWPOLYLINE
  5
1D9
330
1F
100
AcDbEntity
  8
0
  6
Continuous
 62
     7
370
    25
100
AcDbPolyline
 90
        3
 70
   128
 43
0.0
 10
164.931567478
 20
199.3269965417
 10
165.0716141788
 20
197.1695077039
 10
165.0743206022
 20
196.8243353433
  0
LWPOLYLINE
  5
1DA
330
1F
100
AcDbEntity
  8
0
  6
Continuous
 62
     7
370
    25
100
AcDbPolyline
 90
        3
 70
   128
 43
0.0
 10
119.0743205128
 20
196.8243353433
 10
119.0770269362
 20
197.1695077039
 10
119.217073637
 20
199.3269965417
  0
SPLINE
  5
1DB
330
1F
100
AcDbEntity
  8
0
  6
Continuous
 62
     7
370
    25
100
AcDbSpline
210
0.0
220
0.0
230
1.0
 70
     8
 71
     3
 72
    10
 73
     6
 74
     0
 42
0.000000001
 43
0.00000001
 40
0.0
 40
0.0
 40
0.0
 40
0.0
 40
0.4999999999999996
 40
0.4999999999999996
 40
1.0
 40
1.0
 40
1.0
 40
1.0
 10
120.2459908756628
 20
203.7149742163198
 30
0.0
 10
120.0040718523189
 20
203.0665638206769
 30
0.0
 10
119.7938548921765
 20
202.3774205267326
 30
0.0
 10
119.4466577437128
 20
200.9136993824573
 30
0.0
 10
119.3092545181369
 20
200.1325025653585
 30
0.0
 10
119.2170742833103
 20
199.3269972699205
 30
0.0
  0
ELLIPSE
  5
1DC
330
1F
100
AcDbEntity
  8
0
  6
Continuous
 62
     7
370
    25
100
AcDbEllipse
 10
142.0743205575
 20
197.2656021925
 30
0.0
 11
23.0
 21
-2.273736754432321E-13
 31
0.0
210
0.0
220
0.0
230
1.0
 40
0.889894324
 41
0.3205641247985057
 42
2.821028528791311
  0
SPLINE
  5
1DD
330
1F
100
AcDbEntity
  8
0
  6
Continuous
 62
     7
370
    25
100
AcDbSpline
210
0.0
220
0.0
230
1.0
 70
     8
 71
     3
 72
     8
 73
     4
 74
     0
 42
0.000000001
 43
0.00000001
 40
0.0
 40
0.0
 40
0.0
 40
0.0
 40
1.0
 40
1.0
 40
1.0
 40
1.0
 10
161.1841688863571
 20
177.6155469879726
 30
0.0
 10
161.3854130324181
 20
177.9100878073826
 30
0.0
 10
161.579465766756
 20
178.208924867006
 30
0.0
 10
161.7663239355255
 20
178.5122137269262
 30
0.0
  0
SPLINE
  5
1DE
330
1F
100
AcDbEntity
  8
0
  6
Continuous
 62
     7
370
    25
100
AcDbSpline
210
0.0
220
0.0
230
1.0
 70
     8
 71
     3
 72
     8
 73
     4
 74
     0
 42
0.000000001
 43
0.00000001
 40
0.0
 40
0.0
 40
0.0
 40
0.0
 40
1.0
 40
1.0
 40
1.0
 40
1.0
 10
161.7663239355255
 20
178.5122137269262
 30
0.0
 10
162.5756350061983
 20
179.8258037806092
 30
0.0
 10
163.2410163657252
 20
181.204417407327
 30
0.0
 10
163.7624578310854
 20
182.6490903978805
 30
0.0
  0
SPLINE
  5
1DF
330
1F
100
AcDbEntity
  8
0
  6
Continuous
 62
     7
370
    25
100
AcDbSpline
210
0.0
220
0.0
230
1.0
 70
     8
 71
     3
 72
    10
 73
     6
 74
     0
 42
0.000000001
 43
0.00000001
 40
0.0
 40
0.0
 40
0.0
 40
0.0
 40
0.5
 40
0.5
 40
1.0
 40
1.0
 40
1.0
 40
1.0
 10
163.7624578310854
 20
182.6490903978805
 30
0.0
 10
164.1684714693956
 20
183.7739662967659
 30
0.0
 10
164.478488576368
 20
184.9161076713014
 30
0.0
 10
164.9135947078854
 20
187.233697530182
 30
0.0
 10
165.0386837325637
 20
188.4090704732318
 30
0.0
 10
165.0677762263868
 20
189.6018146799908
 30
0.0
  0
SPLINE
  5
1E0
330
1F
100
AcDbEntity
  8
0
  6
Continuous
 62
     7
370
    25
100
AcDbSpline
210
0.0
220
0.0
230
1.0
 70
     8
 71
     3
 72
     8
 73
     4
 74
     0
 42
0.000000001
 43
0.00000001
 40
0.0
 40
0.0
 40
0.0
 40
0.0
 40
0.0005486704211255
 40
0.0005486704211255
 40
0.0005486704211255
 40
0.0005486704211255
 10
165.0677762263868
 20
189.6018146799908
 30
0.0
 10
165.072138803055
 20
189.7806731195319
 30
0.0
 10
165.074320557494
 20
189.9596088111045
 30
0.0
 10
165.0743205574914
 20
190.1384583616558
 30
0.0
  0
SPLINE
  5
1E1
330
1F
100
AcDbEntity
  8
0
  6
Continuous
 62
     7
370
    25
100
AcDbSpline
210
0.0
220
0.0
230
1.0
 70
     8
 71
     3
 72
     8
 73
     4
 74
     0
 42
0.000000001
 43
0.00000001
 40
0.0
 40
0.0
 40
0.0
 40
0.0
 40
0.0005486704212852
 40
0.0005486704212852
 40
0.0005486704212852
 40
0.0005486704212852
 10
119.0808648885961
 20
189.6018146799908
 30
0.0
 10
119.0765023119279
 20
189.7806731195319
 30
0.0
 10
119.0743205574889
 20
189.9596088111045
 30
0.0
 10
119.0743205574914
 20
190.1384583616558
 30
0.0
  0
SPLINE
  5
1E2
330
1F
100
AcDbEntity
  8
0
  6
Continuous
 62
     7
370
    25
100
AcDbSpline
210
0.0
220
0.0
230
1.0
 70
     8
 71
     3
 72
    10
 73
     6
 74
     0
 42
0.000000001
 43
0.00000001
 40
0.0
 40
0.0
 40
0.0
 40
0.0
 40
0.5
 40
0.5
 40
1.0
 40
1.0
 40
1.0
 40
1.0
 10
120.3861832838975
 20
182.6490903978805
 30
0.0
 10
119.9801696455873
 20
183.7739662967659
 30
0.0
 10
119.6701525386149
 20
184.9161076713014
 30
0.0
 10
119.2350464070975
 20
187.2336975301821
 30
0.0
 10
119.1099573824192
 20
188.4090704732318
 30
0.0
 10
119.0808648885961
 20
189.6018146799908
 30
0.0
  0
SPLINE
  5
1E3
330
1F
100
AcDbEntity
  8
0
  6
Continuous
 62
     7
370
    25
100
AcDbSpline
210
0.0
220
0.0
230
1.0
 70
     8
 71
     3
 72
     8
 73
     4
 74
     0
 42
0.000000001
 43
0.00000001
 40
0.0
 40
0.0
 40
0.0
 40
0.0
 40
1.0
 40
1.0
 40
1.0
 40
1.0
 10
122.3823171794574
 20
178.5122137269262
 30
0.0
 10
121.5730061087846
 20
179.8258037806092
 30
0.0
 10
120.9076247492577
 20
181.204417407327
 30
0.0
 10
120.3861832838975
 20
182.6490903978805
 30
0.0
  0
SPLINE
  5
1E4
330
1F
100
AcDbEntity
  8
0
  6
Continuous
 62
     7
370
    25
100
AcDbSpline
210
0.0
220
0.0
230
1.0
 70
     8
 71
     3
 72
     8
 73
     4
 74
     0
 42
0.000000001
 43
0.00000001
 40
0.0
 40
0.0
 40
0.0
 40
0.0
 40
1.0
 40
1.0
 40
1.0
 40
1.0
 10
122.9644722286258
 20
177.6155469879726
 30
0.0
 10
122.7632280825648
 20
177.9100878073826
 30
0.0
 10
122.5691753482269
 20
178.208924867006
 30
0.0
 10
122.3823171794573
 20
178.5122137269262
 30
0.0
  0
SPLINE
  5
1E5
330
1F
100
AcDbEntity
  8
0
  6
Continuous
 62
     7
370
    25
100
AcDbSpline
210
0.0
220
0.0
230
1.0
 70
     8
 71
     3
 72
     8
 73
     4
 74
     0
 42
0.000000001
 43
0.00000001
 40
0.0
 40
0.0
 40
0.0
 40
0.0
 40
1.0
 40
1.0
 40
1.0
 40
1.0
 10
157.5650441729749
 20
166.8011777386397
 30
0.0
 10
157.5647231209196
 20
167.4166733777776
 30
0.0
 10
157.5898997351614
 20
168.0320777180006
 30
0.0
 10
157.6460509095328
 20
168.6453554690264
 30
0.0
  0
SPLINE
  5
1E6
330
1F
100
AcDbEntity
  8
0
  6
Continuous
 62
     7
370
    25
100
AcDbSpline
210
0.0
220
0.0
230
1.0
 70
     8
 71
     3
 72
    16
 73
    12
 74
     0
 42
0.000000001
 43
0.00000001
 40
0.0
 40
0.0
 40
0.0
 40
0.0
 40
0.2499999999999999
 40
0.2499999999999999
 40
0.4999999999999998
 40
0.4999999999999998
 40
0.7499999999999997
 40
0.7499999999999997
 40
0.8749999999999998
 40
0.8749999999999998
 40
1.0
 40
1.0
 40
1.0
 40
1.0
 10
157.7125526253529
 20
169.2462573314529
 30
0.0
 10
157.7987133977544
 20
169.9246770746356
 30
0.0
 10
157.9242953488996
 20
170.5959426192203
 30
0.0
 10
158.2548417508743
 20
171.9162376699271
 30
0.0
 10
158.4607792146964
 20
172.5680235467204
 30
0.0
 10
158.9463915424621
 20
173.8337893525361
 30
0.0
 10
159.2270939824963
 20
174.4512506423342
 30
0.0
 10
159.7009839874431
 20
175.3474525300772
 30
0.0
 10
159.8674290398493
 20
175.6405663397308
 30
0.0
 10
160.2170682229943
 20
176.2160271664977
 30
0.0
 10
160.4002651909611
 20
176.4977033528098
 30
0.0
 10
160.5918673804882
 20
176.7756325404231
 30
0.0
  0
SPLINE
  5
1E7
330
1F
100
AcDbEntity
  8
0
  6
Continuous
 62
     7
370
    25
100
AcDbSpline
210
0.0
220
0.0
230
1.0
 70
     8
 71
     3
 72
    10
 73
     6
 74
     0
 42
0.000000001
 43
0.00000001
 40
0.0
 40
0.0
 40
0.0
 40
0.0
 40
0.5
 40
0.5
 40
1.0
 40
1.0
 40
1.0
 40
1.0
 10
157.6460509095328
 20
168.6453554690264
 30
0.0
 10
157.655980573892
 20
168.7452948752982
 30
0.0
 10
157.6659894734238
 20
168.8458632645135
 30
0.0
 10
157.6880862105137
 20
169.0461841065119
 30
0.0
 10
157.6999988496931
 20
169.146279604869
 30
0.0
 10
157.7125526253529
 20
169.2462573314529
 30
0.0
  0
SPLINE
  5
1E8
330
1F
100
AcDbEntity
  8
0
  6
Continuous
 62
     7
370
    25
100
AcDbSpline
210
0.0
220
0.0
230
1.0
 70
     8
 71
     3
 72
    20
 73
    16
 74
     0
 42
0.000000001
 43
0.00000001
 40
0.0
 40
0.0
 40
0.0
 40
0.0
 40
0.0312499999999994
 40
0.0312499999999994
 40
0.0624999999999988
 40
0.0624999999999988
 40
0.1249999999999978
 40
0.1249999999999978
 40
0.2499999999999982
 40
0.2499999999999982
 40
0.4999999999999988
 40
0.4999999999999988
 40
0.7499999999999993
 40
0.7499999999999993
 40
1.0
 40
1.0
 40
1.0
 40
1.0
 10
126.4360884896299
 20
169.2462573314529
 30
0.0
 10
126.4255859346308
 20
169.3311022908435
 30
0.0
 10
126.4139314385035
 20
169.4157854548712
 30
0.0
 10
126.3899166333804
 20
169.5850499049093
 30
0.0
 10
126.3772865487076
 20
169.6696026110519
 30
0.0
 10
126.3375616564176
 20
169.9227368298307
 30
0.0
 10
126.308620152632
 20
170.0908765800292
 30
0.0
 10
126.2143967029359
 20
170.5934448548958
 30
0.0
 10
126.1417091655896
 20
170.926016381897
 30
0.0
 10
125.8937993641086
 20
171.9162376699271
 30
0.0
 10
125.6878619002865
 20
172.5680235467202
 30
0.0
 10
125.2022495725208
 20
173.833789352536
 30
0.0
 10
124.9215471324867
 20
174.4512506423343
 30
0.0
 10
124.2896937925576
 20
175.646186492658
 30
0.0
 10
123.9410746878901
 20
176.221783263092
 30
0.0
 10
123.5567737344947
 20
176.7756325404231
 30
0.0
  0
SPLINE
  5
1E9
330
1F
100
AcDbEntity
  8
0
  6
Continuous
 62
     7
370
    25
100
AcDbSpline
210
0.0
220
0.0
230
1.0
 70
     8
 71
     3
 72
     8
 73
     4
 74
     0
 42
0.000000001
 43
0.00000001
 40
0.0
 40
0.0
 40
0.0
 40
0.0
 40
1.0
 40
1.0
 40
1.0
 40
1.0
 10
126.583596942008
 20
166.8011777386397
 30
0.0
 10
126.5839171995259
 20
167.4166733702941
 30
0.0
 10
126.5587405209073
 20
168.0320776322178
 30
0.0
 10
126.5025902054501
 20
168.6453554690264
 30
0.0
  0
SPLINE
  5
1EA
330
1F
100
AcDbEntity
  8
0
  6
Continuous
 62
     7
370
    25
100
AcDbSpline
210
0.0
220
0.0
230
1.0
 70
     8
 71
     3
 72
    16
 73
    12
 74
     0
 42
0.000000001
 43
0.00000001
 40
0.0
 40
0.0
 40
0.0
 40
0.0
 40
0.0624999999999925
 40
0.0624999999999925
 40
0.124999999999985
 40
0.124999999999985
 40
0.2499999999999672
 40
0.2499999999999672
 40
0.4999999999999668
 40
0.4999999999999668
 40
1.0
 40
1.0
 40
1.0
 40
1.0
 10
126.5025902054501
 20
168.6453554690264
 30
0.0
 10
126.5015437529118
 20
168.6579616890354
 30
0.0
 10
126.5001038533252
 20
168.6704067273851
 30
0.0
 10
126.4976251134802
 20
168.6954658539764
 30
0.0
 10
126.4963870682974
 20
168.7079976977401
 30
0.0
 10
126.4926545238235
 20
168.7455943532484
 30
0.0
 10
126.4901387446521
 20
168.7706595373109
 30
0.0
 10
126.4824456821666
 20
168.8458406940129
 30
0.0
 10
126.4771274572866
 20
168.8959434750132
 30
0.0
 10
126.4605549044692
 20
169.0461841065119
 30
0.0
 10
126.4486419890307
 20
169.1462795762917
 30
0.0
 10
126.4360884896299
 20
169.2462573314529
 30
0.0
  0
SPLINE
  5
1EB
330
1F
100
AcDbEntity
  8
0
  6
Continuous
 62
     7
370
    25
100
AcDbSpline
210
0.0
220
0.0
230
1.0
 70
     8
 71
     3
 72
    12
 73
     8
 74
     0
 42
0.000000001
 43
0.00000001
 40
0.0
 40
0.0
 40
0.0
 40
0.0
 40
0.5
 40
0.5
 40
0.75
 40
0.75
 40
1.0
 40
1.0
 40
1.0
 40
1.0
 10
152.6972468339162
 20
120.2608667314274
 30
0.0
 10
153.4989165674312
 20
120.7536881888005
 30
0.0
 10
154.2172554402218
 20
121.3455395495777
 30
0.0
 10
155.1708006621256
 20
122.3806375832405
 30
0.0
 10
155.4647083536159
 20
122.7478078342254
 30
0.0
 10
155.9966281014777
 20
123.5148978826547
 30
0.0
 10
156.2361186602597
 20
123.9163826631058
 30
0.0
 10
156.4484900827268
 20
124.336247613122
 30
0.0
  0
SPLINE
  5
1EC
330
1F
100
AcDbEntity
  8
0
  6
Continuous
 62
     7
370
    25
100
AcDbSpline
210
0.0
220
0.0
230
1.0
 70
     8
 71
     3
 72
    12
 73
     8
 74
     0
 42
0.000000001
 43
0.00000001
 40
0.0
 40
0.0
 40
0.0
 40
0.0
 40
0.5
 40
0.5
 40
0.75
 40
0.75
 40
1.0
 40
1.0
 40
1.0
 40
1.0
 10
131.4513942810667
 20
120.2608667314274
 30
0.0
 10
130.6497245475517
 20
120.7536881888005
 30
0.0
 10
129.9313856747611
 20
121.3455395495777
 30
0.0
 10
128.9778404528573
 20
122.3806375832405
 30
0.0
 10
128.6839327613669
 20
122.7478078342254
 30
0.0
 10
128.1520130135052
 20
123.5148978826547
 30
0.0
 10
127.9125224547232
 20
123.9163826631058
 30
0.0
 10
127.700151032256
 20
124.336247613122
 30
0.0
  0
SPLINE
  5
1ED
330
1F
100
AcDbEntity
  8
0
  6
Continuous
 62
     7
370
    25
100
AcDbSpline
210
0.0
220
0.0
230
1.0
 70
     8
 71
     3
 72
    11
 73
     7
 74
     0
 42
0.000000001
 43
0.00000001
 40
0.0
 40
0.0
 40
0.0
 40
0.0
 40
0.0007783289192958
 40
0.0007783289192958
 40
0.0007783289192958
 40
0.001833702282576
 40
0.001833702282576
 40
0.001833702282576
 40
0.001833702282576
 10
126.5843411113943
 20
164.9665448885663
 30
0.0
 10
126.5842436824693
 20
165.2259821283652
 30
0.0
 10
126.5841426971493
 20
165.4854182646025
 30
0.0
 10
126.5840385156257
 20
165.7448523516572
 30
0.0
 10
126.5838972510239
 20
166.0966311673556
 30
0.0
 10
126.5837499779332
 20
166.4484070372597
 30
0.0
 10
126.5835984390145
 20
166.8001747497009
 30
0.0
  0
SPLINE
  5
1EE
330
1F
100
AcDbEntity
  8
0
  6
Continuous
 62
     7
370
    25
100
AcDbSpline
210
0.0
220
0.0
230
1.0
 70
     8
 71
     3
 72
    11
 73
     7
 74
     0
 42
0.000000001
 43
0.00000001
 40
0.0
 40
0.0
 40
0.0
 40
0.0
 40
0.0007783289192958
 40
0.0007783289192958
 40
0.0007783289192958
 40
0.001833702282576
 40
0.001833702282576
 40
0.001833702282576
 40
0.001833702282576
 10
157.5643000035886
 20
164.9665448885663
 30
0.0
 10
157.5643974325136
 20
165.2259821283652
 30
0.0
 10
157.5644984178335
 20
165.4854182646025
 30
0.0
 10
157.5646025993572
 20
165.7448523516572
 30
0.0
 10
157.564743863959
 20
166.0966311673556
 30
0.0
 10
157.5648911370498
 20
166.4484070372597
 30
0.0
 10
157.5650426759684
 20
166.8001747497009
 30
0.0
  0
SPLINE
  5
1EF
330
1F
100
AcDbEntity
  8
0
  6
Continuous
 62
     7
370
    25
100
AcDbSpline
210
0.0
220
0.0
230
1.0
 70
     8
 71
     3
 72
    10
 73
     6
 74
     0
 42
0.000000001
 43
0.00000001
 40
0.0
 40
0.0
 40
0.0
 40
0.0
 40
0.5
 40
0.5
 40
1.0
 40
1.0
 40
1.0
 40
1.0
 10
127.700151032256
 20
124.336247613122
 30
0.0
 10
127.371553865231
 20
124.9858944983089
 30
0.0
 10
127.1157223903703
 20
125.6628969561871
 30
0.0
 10
126.7494278008049
 20
127.071551604595
 30
0.0
 10
126.6429894771641
 20
127.7882229154636
 30
0.0
 10
126.6135194139805
 20
128.5156479023134
 30
0.0
  0
SPLINE
  5
1F0
330
1F
100
AcDbEntity
  8
0
  6
Continuous
 62
     7
370
    25
100
AcDbSpline
210
0.0
220
0.0
230
1.0
 70
     8
 71
     3
 72
    10
 73
     6
 74
     0
 42
0.000000001
 43
0.00000001
 40
0.0
 40
0.0
 40
0.0
 40
0.0
 40
0.5
 40
0.5
 40
1.0
 40
1.0
 40
1.0
 40
1.0
 10
156.4484900827268
 20
124.336247613122
 30
0.0
 10
156.7770872497519
 20
124.9858944983089
 30
0.0
 10
157.0329187246126
 20
125.6628969561871
 30
0.0
 10
157.399213314178
 20
127.071551604595
 30
0.0
 10
157.5056516378188
 20
127.7882229154636
 30
0.0
 10
157.5351217010024
 20
128.5156479023134
 30
0.0
  0
SPLINE
  5
1F1
330
1F
100
AcDbEntity
  8
0
  6
Continuous
 62
     7
370
    25
100
AcDbSpline
210
0.0
220
0.0
230
1.0
 70
     8
 71
     3
 72
     8
 73
     4
 74
     0
 42
0.000000001
 43
0.00000001
 40
0.0
 40
0.0
 40
0.0
 40
0.0
 40
1.0
 40
1.0
 40
1.0
 40
1.0
 10
142.0743205574909
 20
118.7459818973013
 30
0.0
 10
143.8383746027258
 20
118.7459959768369
 30
0.0
 10
145.6024399158557
 20
118.7471490108227
 30
0.0
 10
147.3662539423211
 20
118.750555333374
 30
0.0
  0
SPLINE
  5
1F2
330
1F
100
AcDbEntity
  8
0
  6
Continuous
 62
     7
370
    25
100
AcDbSpline
210
0.0
220
0.0
230
1.0
 70
     8
 71
     3
 72
     8
 73
     4
 74
     0
 42
0.000000001
 43
0.00000001
 40
0.0
 40
0.0
 40
0.0
 40
0.0
 40
1.0
 40
1.0
 40
1.0
 40
1.0
 10
142.0743205574919
 20
118.7459818973013
 30
0.0
 10
140.3102665122574
 20
118.7459959768369
 30
0.0
 10
138.5462011991269
 20
118.7471490108227
 30
0.0
 10
136.7823871726617
 20
118.750555333374
 30
0.0
  0
SPLINE
  5
1F3
330
1F
100
AcDbEntity
  8
0
  6
Continuous
 62
     7
370
    25
100
AcDbSpline
210
0.0
220
0.0
230
1.0
 70
     8
 71
     3
 72
    12
 73
     8
 74
     0
 42
0.000000001
 43
0.00000001
 40
0.0
 40
0.0
 40
0.0
 40
0.0
 40
0.5000000000000002
 40
0.5000000000000002
 40
0.7499999999999998
 40
0.7499999999999998
 40
1.0
 40
1.0
 40
1.0
 40
1.0
 10
157.5445208902878
 20
129.3302338657793
 30
0.0
 10
157.5578913705552
 20
134.9514405375407
 30
0.0
 10
157.5590384696518
 20
140.5727421591061
 30
0.0
 10
157.5610741951618
 20
149.0046986593528
 30
0.0
 10
157.5614345647352
 20
151.81535303119
 30
0.0
 10
157.5623087657435
 20
157.436661179857
 30
0.0
 10
157.5627978486509
 20
160.2473185606939
 30
0.0
 10
157.5636516744711
 20
163.0579600400155
 30
0.0
  0
SPLINE
  5
1F4
330
1F
100
AcDbEntity
  8
0
  6
Continuous
 62
     7
370
    25
100
AcDbSpline
210
0.0
220
0.0
230
1.0
 70
     8
 71
     3
 72
    12
 73
     8
 74
     0
 42
0.000000001
 43
0.00000001
 40
0.0
 40
0.0
 40
0.0
 40
0.0
 40
0.5000000000000006
 40
0.5000000000000006
 40
0.7500000000000002
 40
0.7500000000000002
 40
1.0
 40
1.0
 40
1.0
 40
1.0
 10
126.6041202246951
 20
129.3302338657793
 30
0.0
 10
126.5907497444277
 20
134.9514405375408
 30
0.0
 10
126.5896026453311
 20
140.5727421591061
 30
0.0
 10
126.5875669198211
 20
149.0046986593528
 30
0.0
 10
126.5872065502477
 20
151.81535303119
 30
0.0
 10
126.5863323492394
 20
157.4366611798569
 30
0.0
 10
126.585843266332
 20
160.2473185606939
 30
0.0
 10
126.5849894405118
 20
163.0579600400155
 30
0.0
  0
SPLINE
  5
1F5
330
1F
100
AcDbEntity
  8
0
  6
Continuous
 62
     7
370
    25
100
AcDbSpline
210
0.0
220
0.0
230
1.0
 70
     8
 71
     3
 72
     8
 73
     4
 74
     0
 42
0.000000001
 43
0.00000001
 40
0.0
 40
0.0
 40
0.0
 40
0.0
 40
1.0
 40
1.0
 40
1.0
 40
1.0
 10
147.3662539423211
 20
118.750555333374
 30
0.0
 10
148.0302066933306
 20
118.751712426189
 30
0.0
 10
148.6925291213598
 20
118.8172685307676
 30
0.0
 10
149.3438349086337
 20
118.9466090840084
 30
0.0
  0
SPLINE
  5
1F6
330
1F
100
AcDbEntity
  8
0
  6
Continuous
 62
     7
370
    25
100
AcDbSpline
210
0.0
220
0.0
230
1.0
 70
     8
 71
     3
 72
     8
 73
     4
 74
     0
 42
0.000000001
 43
0.00000001
 40
0.0
 40
0.0
 40
0.0
 40
0.0
 40
1.0
 40
1.0
 40
1.0
 40
1.0
 10
136.7823871726617
 20
118.750555333374
 30
0.0
 10
136.1184344216523
 20
118.751712426189
 30
0.0
 10
135.4561119936231
 20
118.8172685307676
 30
0.0
 10
134.8048062063492
 20
118.9466090840084
 30
0.0
  0
SPLINE
  5
1F7
330
1F
100
AcDbEntity
  8
0
  6
Continuous
 62
     7
370
    25
100
AcDbSpline
210
0.0
220
0.0
230
1.0
 70
     8
 71
     3
 72
    11
 73
     7
 74
     0
 42
0.000000001
 43
0.00000001
 40
0.0
 40
0.0
 40
0.0
 40
0.0
 40
0.0009490249335429
 40
0.0009490249335429
 40
0.0009490249335429
 40
0.001908610829177
 40
0.001908610829177
 40
0.001908610829177
 40
0.001908610829177
 10
157.5636516744711
 20
163.0579600400155
 30
0.0
 10
157.5637477730174
 20
163.3742992205543
 30
0.0
 10
157.5638492282741
 20
163.6906378902497
 30
0.0
 10
157.5639566198728
 20
164.0069754371228
 30
0.0
 10
157.5640652065389
 20
164.3268332284272
 30
0.0
 10
157.56417988546
 20
164.6466900224895
 30
0.0
 10
157.5643000035886
 20
164.9665448885663
 30
0.0
  0
SPLINE
  5
1F8
330
1F
100
AcDbEntity
  8
0
  6
Continuous
 62
     7
370
    25
100
AcDbSpline
210
0.0
220
0.0
230
1.0
 70
     8
 71
     3
 72
    11
 73
     7
 74
     0
 42
0.000000001
 43
0.00000001
 40
0.0
 40
0.0
 40
0.0
 40
0.0
 40
0.0009490249335429
 40
0.0009490249335429
 40
0.0009490249335429
 40
0.001908610829177
 40
0.001908610829177
 40
0.001908610829177
 40
0.001908610829177
 10
126.5849894405118
 20
163.0579600400155
 30
0.0
 10
126.5848933419655
 20
163.3742992205543
 30
0.0
 10
126.5847918867088
 20
163.6906378902497
 30
0.0
 10
126.5846844951101
 20
164.0069754371228
 30
0.0
 10
126.5845759084441
 20
164.3268332284272
 30
0.0
 10
126.5844612295229
 20
164.6466900224895
 30
0.0
 10
126.5843411113943
 20
164.9665448885663
 30
0.0
  0
SPLINE
  5
1F9
330
1F
100
AcDbEntity
  8
0
  6
Continuous
 62
     7
370
    25
100
AcDbSpline
210
0.0
220
0.0
230
1.0
 70
     8
 71
     3
 72
     8
 73
     4
 74
     0
 42
0.000000001
 43
0.00000001
 40
0.0
 40
0.0
 40
0.0
 40
0.0
 40
1.0
 40
1.0
 40
1.0
 40
1.0
 10
132.6332220303225
 20
119.6372374028142
 30
0.0
 10
132.2260550528293
 20
119.8190272513248
 30
0.0
 10
131.8312617344147
 20
120.0273455890653
 30
0.0
 10
131.4513942810667
 20
120.2608667314274
 30
0.0
  0
SPLINE
  5
1FA
330
1F
100
AcDbEntity
  8
0
  6
Continuous
 62
     7
370
    25
100
AcDbSpline
210
0.0
220
0.0
230
1.0
 70
     8
 71
     3
 72
     8
 73
     4
 74
     0
 42
0.000000001
 43
0.00000001
 40
0.0
 40
0.0
 40
0.0
 40
0.0
 40
1.0
 40
1.0
 40
1.0
 40
1.0
 10
151.5154190846604
 20
119.6372374028142
 30
0.0
 10
151.9225860621536
 20
119.8190272513249
 30
0.0
 10
152.3173793805682
 20
120.0273455890653
 30
0.0
 10
152.6972468339162
 20
120.2608667314274
 30
0.0
  0
SPLINE
  5
1FB
330
1F
100
AcDbEntity
  8
0
  6
Continuous
 62
     7
370
    25
100
AcDbSpline
210
0.0
220
0.0
230
1.0
 70
     8
 71
     3
 72
     8
 73
     4
 74
     0
 42
0.000000001
 43
0.00000001
 40
0.0
 40
0.0
 40
0.0
 40
0.0
 40
1.0
 40
1.0
 40
1.0
 40
1.0
 10
149.3438349086337
 20
118.9466090840084
 30
0.0
 10
149.7310845557563
 20
119.023511645877
 30
0.0
 10
150.1135497111945
 20
119.1227881540481
 30
0.0
 10
150.4892988972722
 20
119.2439942223555
 30
0.0
  0
SPLINE
  5
1FC
330
1F
100
AcDbEntity
  8
0
  6
Continuous
 62
     7
370
    25
100
AcDbSpline
210
0.0
220
0.0
230
1.0
 70
     8
 71
     3
 72
     8
 73
     4
 74
     0
 42
0.000000001
 43
0.00000001
 40
0.0
 40
0.0
 40
0.0
 40
0.0
 40
1.0
 40
1.0
 40
1.0
 40
1.0
 10
134.8048062063492
 20
118.9466090840084
 30
0.0
 10
134.4175565592266
 20
119.023511645877
 30
0.0
 10
134.0350914037884
 20
119.1227881540481
 30
0.0
 10
133.6593422177107
 20
119.2439942223555
 30
0.0
  0
SPLINE
  5
1FD
330
1F
100
AcDbEntity
  8
0
  6
Continuous
 62
     7
370
    25
100
AcDbSpline
210
0.0
220
0.0
230
1.0
 70
     8
 71
     3
 72
    11
 73
     7
 74
     0
 42
0.000000001
 43
0.00000001
 40
0.0
 40
0.0
 40
0.0
 40
0.0
 40
0.0001935723934575
 40
0.0001935723934575
 40
0.0001935723934575
 40
0.0003887088693232
 40
0.0003887088693232
 40
0.0003887088693232
 40
0.0003887088693232
 10
157.5351217010024
 20
128.5156479023134
 30
0.0
 10
157.5377335984971
 20
128.5801187345916
 30
0.0
 10
157.5397332425665
 20
128.6446172384235
 30
0.0
 10
157.5411209868975
 20
128.7091259100524
 30
0.0
 10
157.5425199433835
 20
128.7741557736659
 30
0.0
 10
157.5432971997493
 20
128.8392018972769
 30
0.0
 10
157.5434534515732
 20
128.9042463853816
 30
0.0
  0
SPLINE
  5
1FE
330
1F
100
AcDbEntity
  8
0
  6
Continuous
 62
     7
370
    25
100
AcDbSpline
210
0.0
220
0.0
230
1.0
 70
     8
 71
     3
 72
    11
 73
     7
 74
     0
 42
0.000000001
 43
0.00000001
 40
0.0
 40
0.0
 40
0.0
 40
0.0
 40
0.0001935723934575
 40
0.0001935723934575
 40
0.0001935723934575
 40
0.0003887088693232
 40
0.0003887088693232
 40
0.0003887088693232
 40
0.0003887088693232
 10
126.6135194139805
 20
128.5156479023134
 30
0.0
 10
126.6109075164858
 20
128.5801187345916
 30
0.0
 10
126.6089078724164
 20
128.6446172384235
 30
0.0
 10
126.6075201280854
 20
128.7091259100524
 30
0.0
 10
126.6061211715994
 20
128.7741557736659
 30
0.0
 10
126.6053439152336
 20
128.8392018972769
 30
0.0
 10
126.6051876634097
 20
128.9042463853816
 30
0.0
  0
SPLINE
  5
1FF
330
1F
100
AcDbEntity
  8
0
  6
Continuous
 62
     7
370
    25
100
AcDbSpline
210
0.0
220
0.0
230
1.0
 70
     8
 71
     3
 72
    14
 73
    10
 74
     0
 42
0.000000001
 43
0.00000001
 40
-0.00000006
 40
-0.00000006
 40
-0.00000006
 40
-0.00000006
 40
0.0
 40
0.0
 40
0.0
 40
0.000206030210505
 40
0.000206030210505
 40
0.000206030210505
 40
0.0004259382814683
 40
0.0004259382814683
 40
0.0004259382814683
 40
0.0004259382814683
 10
157.5434534515732
 20
128.9042463853816
 30
0.0
 10
157.5434535048138
 20
128.904266384723
 30
0.0
 10
157.5434535580542
 20
128.9042863840644
 30
0.0
 10
157.5434536112938
 20
128.904306383406
 30
0.0
 10
157.5436364277316
 20
128.9729808590058
 30
0.0
 10
157.5438130687097
 20
129.0416556871869
 30
0.0
 10
157.5439849726799
 20
129.1103307076254
 30
0.0
 10
157.5441684558316
 20
129.1836315696286
 30
0.0
 10
157.5443465376476
 20
129.2569326675466
 30
0.0
 10
157.5445208902878
 20
129.3302338657793
 30
0.0
  0
SPLINE
  5
200
330
1F
100
AcDbEntity
  8
0
  6
Continuous
 62
     7
370
    25
100
AcDbSpline
210
0.0
220
0.0
230
1.0
 70
     8
 71
     3
 72
    14
 73
    10
 74
     0
 42
0.000000001
 43
0.00000001
 40
-0.00000006
 40
-0.00000006
 40
-0.00000006
 40
-0.00000006
 40
0.0
 40
0.0
 40
0.0
 40
0.000206030210505
 40
0.000206030210505
 40
0.000206030210505
 40
0.0004259382814683
 40
0.0004259382814683
 40
0.0004259382814683
 40
0.0004259382814683
 10
126.6051876634097
 20
128.9042463853816
 30
0.0
 10
126.6051876101693
 20
128.904266384723
 30
0.0
 10
126.6051875569287
 20
128.9042863840644
 30
0.0
 10
126.605187503689
 20
128.904306383406
 30
0.0
 10
126.6050046872513
 20
128.9729808590058
 30
0.0
 10
126.6048280462732
 20
129.0416556871869
 30
0.0
 10
126.604656142303
 20
129.1103307076254
 30
0.0
 10
126.6044726591513
 20
129.1836315696286
 30
0.0
 10
126.6042945773353
 20
129.2569326675466
 30
0.0
 10
126.6041202246951
 20
129.3302338657793
 30
0.0
  0
ARC
  5
201
330
1F
100
AcDbEntity
  8
0
  6
Continuous
 62
     7
370
    25
100
AcDbCircle
 10
142.0234025955
 20
197.118806024
 30
0.0
 40
21.71294786456001
100
AcDbArc
 50
89.8656383731
 51
135.1445932251
  0
ARC
  5
202
330
1F
100
AcDbEntity
  8
0
  6
Continuous
 62
     7
370
    25
100
AcDbCircle
 10
142.1208144351
 20
197.108128036
 30
0.0
 40
21.7236159040212
100
AcDbArc
 50
44.867141257
 51
90.1226271447
  0
LWPOLYLINE
  5
203
330
1F
100
AcDbEntity
  8
0
  6
Continuous
 62
     7
370
    25
100
AcDbPolyline
 90
       35
 70
   128
 43
0.0
 10
119.0809608427
 20
197.3649066306
 10
119.1198547361
 20
199.3204083658
 10
119.3578355936
 20
201.4269873864
 10
119.7974217115
 20
203.5023121528
 10
120.4347145734
 20
205.5279657609
 10
121.2640536008
 20
207.4859708912
 10
122.2780813453
 20
209.358950927
 10
123.4677993683
 20
211.1302831574
 10
124.8226464716
 20
212.7842468574
 10
126.330599281
 20
214.3061634517
 10
127.9782756222
 20
215.682526202
 10
129.7510527996
 20
216.9011201142
 10
131.6331979809
 20
217.9511303505
 10
133.6080060331
 20
218.8232382425
 10
135.6579508623
 20
219.5097038887
 10
137.7648409446
 20
220.0044347803
 10
139.909976487
 20
220.3030407793
 10
142.0743205575
 20
220.4028713416
 10
144.238664628
 20
220.3030407793
 10
146.3838001703
 20
220.0044347803
 10
148.4906902527
 20
219.5097038887
 10
150.5406350819
 20
218.8232382425
 10
152.5154431341
 20
217.9511303505
 10
154.3975883154
 20
216.9011201142
 10
156.1703654928
 20
215.682526202
 10
157.818041834
 20
214.3061634517
 10
159.3259946433
 20
212.7842468574
 10
160.6808417467
 20
211.1302831574
 10
161.8705597696
 20
209.358950927
 10
162.8845875142
 20
207.4859708912
 10
163.7139265416
 20
205.5279657609
 10
164.3512194035
 20
203.5023121528
 10
164.7908055214
 20
201.4269873864
 10
165.0287863789
 20
199.3204083658
 10
165.0676802722
 20
197.3649066306
  0
ARC
  5
204
330
1F
100
AcDbEntity
  8
0
  6
Continuous
 62
     7
370
    25
100
AcDbCircle
 10
142.0743205575
 20
196.9453183685
 30
0.0
 40
22.03989394307229
100
AcDbArc
 50
40.9347183813
 51
139.0652816187
  0
ELLIPSE
  5
205
330
1F
100
AcDbEntity
  8
0
  6
Continuous
 62
     7
370
    25
100
AcDbEllipse
 10
142.0743205575
 20
216.6220688803
 30
0.0
 11
0.0
 21
23.5138336818957
 31
0.0
210
-3.707179490922264E-15
220
0.0
230
1.0
 40
0.9781476007
 41
0.0
 42
1.570796326794879
  0
ELLIPSE
  5
206
330
1F
100
AcDbEntity
  8
0
  6
Continuous
 62
     7
370
    25
100
AcDbEllipse
 10
142.0743205575
 20
216.6220688803
 30
0.0
 11
0.0
 21
23.5138336818957
 31
0.0
210
-3.707179490922264E-15
220
0.0
230
1.0
 40
0.9781476007
 41
4.712388980384688
 42
6.283185307179586
  0
SPLINE
  5
207
330
1F
100
AcDbEntity
  8
0
  6
Continuous
 62
     7
370
    25
100
AcDbSpline
210
0.0
220
0.0
230
1.0
 70
     8
 71
     3
 72
     9
 73
     5
 74
     0
 42
0.000000001
 43
0.00000001
 40
0.0
 40
0.0
 40
0.0
 40
0.0
 40
0.4299222691506744
 40
1.0
 40
1.0
 40
1.0
 40
1.0
 10
159.3816970465351
 20
174.7343641138773
 30
0.0
 10
159.3002349437006
 20
173.959068932911
 30
0.0
 10
159.1107539405521
 20
172.1557308957863
 30
0.0
 10
159.0875497013782
 20
170.334357189047
 30
0.0
 10
159.0743214813639
 20
169.2960325992804
 30
0.0
  0
SPLINE
  5
208
330
1F
100
AcDbEntity
  8
0
  6
Continuous
 62
     7
370
    25
100
AcDbSpline
210
0.0
220
0.0
230
1.0
 70
     8
 71
     3
 72
     9
 73
     5
 74
     0
 42
0.000000001
 43
0.00000001
 40
0.0
 40
0.0
 40
0.0
 40
0.0
 40
0.5532646452688986
 40
1.0
 40
1.0
 40
1.0
 40
1.0
 10
125.0743196336199
 20
169.2960325992804
 30
0.0
 10
125.0615147428658
 20
170.3017138467568
 30
0.0
 10
125.0383705010214
 20
172.1194357201427
 30
0.0
 10
124.8535203864459
 20
173.9201010375741
 30
0.0
 10
124.7709413049389
 20
174.7245218969088
 30
0.0
  0
LINE
  5
209
330
1F
100
AcDbEntity
  8
0
  6
Continuous
 62
     7
370
    25
100
AcDbLine
 10
159.0743214814
 20
169.2960325993
 30
0.0
 11
159.0743214814
 21
168.8939173139
 31
0.0
  0
LINE
  5
20A
330
1F
100
AcDbEntity
  8
0
  6
Continuous
 62
     7
370
    25
100
AcDbLine
 10
125.0743196336
 20
168.8939173139
 30
0.0
 11
125.0743196336
 21
169.2960325993
 31
0.0
  0
LINE
  5
20B
330
1F
100
AcDbEntity
  8
0
  6
Continuous
 62
     7
370
    25
100
AcDbLine
 10
159.0743214814
 20
168.8939173139
 30
0.0
 11
159.0743214814
 21
106.4722936965
 31
0.0
  0
LINE
  5
20C
330
1F
100
AcDbEntity
  8
0
  6
Continuous
 62
     7
370
    25
100
AcDbLine
 10
125.0743196336
 20
106.4722936965
 30
0.0
 11
125.0743196336
 21
168.8939173139
 31
0.0
  0
ARC
  5
20D
330
1F
100
AcDbEntity
  8
0
  6
Continuous
 62
     7
370
    25
100
AcDbCircle
 10
145.0743205575
 20
106.472295127
 30
0.0
 40
14.00000000000003
100
AcDbArc
 50
270.0
 51
0.0
  0
ARC
  5
20E
330
1F
100
AcDbEntity
  8
0
  6
Continuous
 62
     7
370
    25
100
AcDbCircle
 10
139.0743205575
 20
106.472295127
 30
0.0
 40
14.0
100
AcDbArc
 50
180.0
 51
270.0
  0
LINE
  5
20F
330
1F
100
AcDbEntity
  8
0
  6
Continuous
 62
     7
370
    25
100
AcDbLine
 10
145.0743205836
 20
92.472295127
 30
0.0
 11
139.0743205314
 21
92.472295127
 31
0.0
  0
ARC
  5
210
330
1F
100
AcDbEntity
  8
0
  6
Continuous
 62
     7
370
    25
100
AcDbCircle
 10
142.0743205575
 20
105.5954973512
 30
0.0
 40
13.7080720202828
100
AcDbArc
 50
252.5847796569
 51
287.4152203431
  0
ARC
  5
211
330
1F
100
AcDbEntity
  8
0
  6
Continuous
 62
     8
370
    18
100
AcDbCircle
 10
142.0743205575
 20
189.5392855166
 30
0.0
 40
22.1698550147783
100
AcDbArc
 50
1.0187175458
 51
178.9812824542
  0
SPLINE
  5
212
330
1F
100
AcDbEntity
  8
0
  6
Continuous
 62
     8
370
    18
100
AcDbSpline
210
0.0
220
0.0
230
1.0
 70
     8
 71
     3
 72
     8
 73
     4
 74
     0
 42
0.000000001
 43
0.00000001
 40
0.0
 40
0.0
 40
0.0
 40
0.0
 40
1.0
 40
1.0
 40
1.0
 40
1.0
 10
147.379711604106
 20
119.6464897057583
 30
0.0
 10
145.6113845470094
 20
119.6309066684429
 30
0.0
 10
143.8428576612866
 20
119.6195274995679
 30
0.0
 10
142.0743205574914
 20
119.619950387646
 30
0.0
  0
SPLINE
  5
213
330
1F
100
AcDbEntity
  8
0
  6
Continuous
 62
     8
370
    18
100
AcDbSpline
210
0.0
220
0.0
230
1.0
 70
     8
 71
     3
 72
    11
 73
     7
 74
     0
 42
0.000000001
 43
0.00000001
 40
-0.00000006
 40
-0.00000006
 40
-0.00000006
 40
-0.00000006
 40
0.0
 40
0.0
 40
0.0
 40
0.0005282950640932
 40
0.0005282950640932
 40
0.0005282950640932
 40
0.0005282950640932
 10
164.2406729996851
 20
189.9334434881109
 30
0.0
 10
164.2406730007947
 20
189.9334239302291
 30
0.0
 10
164.2406730019316
 20
189.9334043723483
 30
0.0
 10
164.2406730030137
 20
189.9333848144656
 30
0.0
 10
164.2406825303691
 20
189.7611792659394
 30
0.0
 10
164.2385614491423
 20
189.5888867548751
 30
0.0
 10
164.2343713155217
 20
189.4166698121121
 30
0.0
  0
SPLINE
  5
214
330
1F
100
AcDbEntity
  8
0
  6
Continuous
 62
     8
370
    18
100
AcDbSpline
210
0.0
220
0.0
230
1.0
 70
     8
 71
     3
 72
    10
 73
     6
 74
     0
 42
0.000000001
 43
0.00000001
 40
0.0
 40
0.0
 40
0.0
 40
0.0
 40
0.5
 40
0.5
 40
1.0
 40
1.0
 40
1.0
 40
1.0
 10
164.2343713155217
 20
189.4166698121121
 30
0.0
 10
164.206400075925
 20
188.2670355033341
 30
0.0
 10
164.0859693823212
 20
187.1341380527534
 30
0.0
 10
163.6667920008818
 20
184.9003059738095
 30
0.0
 10
163.3680802165271
 20
183.7994416955199
 30
0.0
 10
162.9763758191542
 20
182.715285535185
 30
0.0
  0
SPLINE
  5
215
330
1F
100
AcDbEntity
  8
0
  6
Continuous
 62
     8
370
    18
100
AcDbSpline
210
0.0
220
0.0
230
1.0
 70
     8
 71
     3
 72
     8
 73
     4
 74
     0
 42
0.000000001
 43
0.00000001
 40
0.0
 40
0.0
 40
0.0
 40
0.0
 40
1.0
 40
1.0
 40
1.0
 40
1.0
 10
162.9763758191543
 20
182.715285535185
 30
0.0
 10
162.4740747579935
 20
181.3250208522958
 30
0.0
 10
161.8319962486211
 20
179.9985362679265
 30
0.0
 10
161.0620616128984
 20
178.7298123507612
 30
0.0
  0
SPLINE
  5
216
330
1F
100
AcDbEntity
  8
0
  6
Continuous
 62
     8
370
    18
100
AcDbSpline
210
0.0
220
0.0
230
1.0
 70
     8
 71
     3
 72
     8
 73
     4
 74
     0
 42
0.000000001
 43
0.00000001
 40
0.0
 40
0.0
 40
0.0
 40
0.0
 40
1.0
 40
1.0
 40
1.0
 40
1.0
 10
161.0620616128984
 20
178.7298123507612
 30
0.0
 10
160.884399077051
 20
178.4370541113525
 30
0.0
 10
160.700078414902
 20
178.1483617887683
 30
0.0
 10
160.508610485055
 20
177.8638595783316
 30
0.0
  0
SPLINE
  5
217
330
1F
100
AcDbEntity
  8
0
  6
Continuous
 62
     8
370
    18
100
AcDbSpline
210
0.0
220
0.0
230
1.0
 70
     8
 71
     3
 72
     8
 73
     4
 74
     0
 42
0.000000001
 43
0.00000001
 40
0.0
 40
0.0
 40
0.0
 40
0.0
 40
0.0006029791127588
 40
0.0006029791127588
 40
0.0006029791127588
 40
0.0006029791127588
 10
160.5086104850549
 20
177.8638595783316
 30
0.0
 10
160.3979513450962
 20
177.6994311544779
 30
0.0
 10
160.2851645000569
 20
177.5362950478509
 30
0.0
 10
160.1695751256462
 20
177.3749775052488
 30
0.0
  0
SPLINE
  5
218
330
1F
100
AcDbEntity
  8
0
  6
Continuous
 62
     8
370
    18
100
AcDbSpline
210
0.0
220
0.0
230
1.0
 70
     8
 71
     3
 72
    16
 73
    12
 74
     0
 42
0.000000001
 43
0.00000001
 40
0.0
 40
0.0
 40
0.0
 40
0.0
 40
0.1249999999999993
 40
0.1249999999999993
 40
0.2499999999999987
 40
0.2499999999999987
 40
0.4999999999999991
 40
0.4999999999999991
 40
0.7499999999999996
 40
0.7499999999999996
 40
1.0
 40
1.0
 40
1.0
 40
1.0
 10
160.1695751257886
 20
177.3749775051573
 30
0.0
 10
159.8966379627847
 20
176.9940640119095
 30
0.0
 10
159.634221674708
 20
176.6071969475256
 30
0.0
 10
159.1368596283372
 20
175.8141740101163
 30
0.0
 10
158.9038622966953
 20
175.40713047252
 30
0.0
 10
158.252667118851
 20
174.1535319768714
 30
0.0
 10
157.8876264724506
 20
173.2852765914547
 30
0.0
 10
157.298909094844
 20
171.4843466668579
 30
0.0
 10
157.080241145384
 20
170.5634555664619
 30
0.0
 10
156.7893987466658
 20
168.6868174114219
 30
0.0
 10
156.721146276614
 20
167.7421354445865
 30
0.0
 10
156.7151519154038
 20
166.7925801627706
 30
0.0
  0
SPLINE
  5
219
330
1F
100
AcDbEntity
  8
0
  6
Continuous
 62
     8
370
    18
100
AcDbSpline
210
0.0
220
0.0
230
1.0
 70
     8
 71
     3
 72
    11
 73
     7
 74
     0
 42
0.000000001
 43
0.00000001
 40
0.0
 40
0.0
 40
0.0
 40
0.0
 40
0.0010528996751524
 40
0.0010528996751524
 40
0.0010528996751524
 40
0.0018300050798694
 40
0.0018300050798694
 40
0.0018300050798694
 40
0.0018300050798694
 10
156.7151507710832
 20
166.7925801687928
 30
0.0
 10
156.712933459268
 20
166.4416290256137
 30
0.0
 10
156.7108605682079
 20
166.0906732764018
 30
0.0
 10
156.7089622432866
 20
165.739715581963
 30
0.0
 10
156.7075611609034
 20
165.4806868785967
 30
0.0
 10
156.7062546858838
 20
165.2216568486005
 30
0.0
 10
156.705049569754
 20
164.9626259965103
 30
0.0
  0
SPLINE
  5
21A
330
1F
100
AcDbEntity
  8
0
  6
Continuous
 62
     8
370
    18
100
AcDbSpline
210
0.0
220
0.0
230
1.0
 70
     8
 71
     3
 72
    11
 73
     7
 74
     0
 42
0.000000001
 43
0.00000001
 40
0.0
 40
0.0
 40
0.0
 40
0.0
 40
0.0009584443937322
 40
0.0009584443937322
 40
0.0009584443937322
 40
0.0019066625549322
 40
0.0019066625549322
 40
0.0019066625549322
 40
0.0019066625549322
 10
156.705049569754
 20
164.9626259965103
 30
0.0
 10
156.7035632381724
 20
164.6431499505651
 30
0.0
 10
156.7022349831707
 20
164.32367246963
 30
0.0
 10
156.7010397840374
 20
164.0041942309714
 30
0.0
 10
156.6998573371364
 20
163.6881246800937
 30
0.0
 10
156.6988036397899
 20
163.3720542772781
 30
0.0
 10
156.6978538202037
 20
163.0559834607267
 30
0.0
  0
SPLINE
  5
21B
330
1F
100
AcDbEntity
  8
0
  6
Continuous
 62
     8
370
    18
100
AcDbSpline
210
0.0
220
0.0
230
1.0
 70
     8
 71
     3
 72
    14
 73
    10
 74
     0
 42
0.000000001
 43
0.00000001
 40
0.0
 40
0.0
 40
0.0
 40
0.0
 40
0.25
 40
0.25
 40
0.5
 40
0.5
 40
0.75
 40
0.75
 40
1.0
 40
1.0
 40
1.0
 40
1.0
 10
156.6978538202037
 20
163.0559834607266
 30
0.0
 10
156.6894082832859
 20
160.2455678949441
 30
0.0
 10
156.6872120755129
 20
157.4351389728618
 30
0.0
 10
156.6802316577156
 20
151.8142881269479
 30
0.0
 10
156.6764223693066
 20
149.0038634269313
 30
0.0
 10
156.6678395046653
 20
143.3830151783909
 30
0.0
 10
156.6631644601935
 20
140.5725918916126
 30
0.0
 10
156.6526645697142
 20
134.9517467329373
 30
0.0
 10
156.6481132408806
 20
132.1413222824394
 30
0.0
 10
156.6378329527223
 20
129.330911260141
 30
0.0
  0
SPLINE
  5
21C
330
1F
100
AcDbEntity
  8
0
  6
Continuous
 62
     8
370
    18
100
AcDbSpline
210
0.0
220
0.0
230
1.0
 70
     8
 71
     3
 72
    11
 73
     7
 74
     0
 42
0.000000001
 43
0.00000001
 40
0.0
 40
0.0
 40
0.0
 40
0.0
 40
0.0002203474018664
 40
0.0002203474018664
 40
0.0002203474018664
 40
0.0004271838458319
 40
0.0004271838458319
 40
0.0004271838458319
 40
0.0004271838458319
 10
156.6378329527223
 20
129.3309112601409
 30
0.0
 10
156.6375642827865
 20
129.2574626430019
 30
0.0
 10
156.6372904521459
 20
129.1840140499949
 30
0.0
 10
156.6370113151212
 20
129.110565510458
 30
0.0
 10
156.6367492938433
 20
129.041620589219
 30
0.0
 10
156.6364826368923
 20
128.972675706582
 30
0.0
 10
156.6362110404754
 20
128.9037309166408
 30
0.0
  0
SPLINE
  5
21D
330
1F
100
AcDbEntity
  8
0
  6
Continuous
 62
     8
370
    18
100
AcDbSpline
210
0.0
220
0.0
230
1.0
 70
     8
 71
     3
 72
    11
 73
     7
 74
     0
 42
0.000000001
 43
0.00000001
 40
0.0
 40
0.0
 40
0.0
 40
0.0
 40
0.0001770074196939
 40
0.0001770074196939
 40
0.0001770074196939
 40
0.0003528678349735
 40
0.0003528678349735
 40
0.0003528678349735
 40
0.0003528678349735
 10
156.6362110404754
 20
128.9037309166408
 30
0.0
 10
156.6359786124685
 20
128.8447290332749
 30
0.0
 10
156.6351813963043
 20
128.7857266317435
 30
0.0
 10
156.6338212424286
 20
128.7267398953938
 30
0.0
 10
156.6324699012594
 20
128.6681353457955
 30
0.0
 10
156.6305627731422
 20
128.6095409667291
 30
0.0
 10
156.6281018951256
 20
128.5509724857314
 30
0.0
  0
SPLINE
  5
21E
330
1F
100
AcDbEntity
  8
0
  6
Continuous
 62
     8
370
    18
100
AcDbSpline
210
0.0
220
0.0
230
1.0
 70
     8
 71
     3
 72
    10
 73
     6
 74
     0
 42
0.000000001
 43
0.00000001
 40
0.0
 40
0.0
 40
0.0
 40
0.0
 40
0.5
 40
0.5
 40
1.0
 40
1.0
 40
1.0
 40
1.0
 10
156.6281018951256
 20
128.5509724857314
 30
0.0
 10
156.6002680015213
 20
127.888530520856
 30
0.0
 10
156.5026399189089
 20
127.2359191285998
 30
0.0
 10
156.1679749945743
 20
125.9532940130764
 30
0.0
 10
155.9345897153712
 20
125.3368706397587
 30
0.0
 10
155.6348253648761
 20
124.7454593704385
 30
0.0
  0
SPLINE
  5
21F
330
1F
100
AcDbEntity
  8
0
  6
Continuous
 62
     8
370
    18
100
AcDbSpline
210
0.0
220
0.0
230
1.0
 70
     8
 71
     3
 72
    12
 73
     8
 74
     0
 42
0.000000001
 43
0.00000001
 40
0.0
 40
0.0
 40
0.0
 40
0.0
 40
0.2500000000000002
 40
0.2500000000000002
 40
0.5000000000000003
 40
0.5000000000000003
 40
1.0
 40
1.0
 40
1.0
 40
1.0
 10
155.6348253648761
 20
124.7454593704387
 30
0.0
 10
155.4411982483372
 20
124.3634484389275
 30
0.0
 10
155.2229083852498
 20
123.9981852734741
 30
0.0
 10
154.738166132298
 20
123.3003647385183
 30
0.0
 10
154.4703665365172
 20
122.9663884523472
 30
0.0
 10
153.60144877741
 20
122.0250626195133
 30
0.0
 10
152.9471779096648
 20
121.4867645413653
 30
0.0
 10
152.2174039361598
 20
121.0383257501708
 30
0.0
  0
SPLINE
  5
220
330
1F
100
AcDbEntity
  8
0
  6
Continuous
 62
     8
370
    18
100
AcDbSpline
210
0.0
220
0.0
230
1.0
 70
     8
 71
     3
 72
     8
 73
     4
 74
     0
 42
0.000000001
 43
0.00000001
 40
0.0
 40
0.0
 40
0.0
 40
0.0
 40
1.0
 40
1.0
 40
1.0
 40
1.0
 10
152.2174039361603
 20
121.0383257501708
 30
0.0
 10
151.8719188417404
 20
120.8260286229201
 30
0.0
 10
151.5128626607235
 20
120.6366827605757
 30
0.0
 10
151.1428070611723
 20
120.4708976382917
 30
0.0
  0
SPLINE
  5
221
330
1F
100
AcDbEntity
  8
0
  6
Continuous
 62
     8
370
    18
100
AcDbSpline
210
0.0
220
0.0
230
1.0
 70
     8
 71
     3
 72
     8
 73
     4
 74
     0
 42
0.000000001
 43
0.00000001
 40
0.0
 40
0.0
 40
0.0
 40
0.0
 40
1.0
 40
1.0
 40
1.0
 40
1.0
 10
151.1428070611723
 20
120.4708976382917
 30
0.0
 10
150.8386228135189
 20
120.3346229196947
 30
0.0
 10
150.5275120564536
 20
120.2143599827161
 30
0.0
 10
150.2106908123681
 20
120.1108043196162
 30
0.0
  0
SPLINE
  5
222
330
1F
100
AcDbEntity
  8
0
  6
Continuous
 62
     8
370
    18
100
AcDbSpline
210
0.0
220
0.0
230
1.0
 70
     8
 71
     3
 72
     8
 73
     4
 74
     0
 42
0.000000001
 43
0.00000001
 40
0.0
 40
0.0
 40
0.0
 40
0.0
 40
1.0
 40
1.0
 40
1.0
 40
1.0
 10
150.2106908123681
 20
120.1108043196162
 30
0.0
 10
149.8697584386275
 20
119.9993677329159
 30
0.0
 10
149.5227392172151
 20
119.9075132174262
 30
0.0
 10
149.1713123082909
 20
119.8357416904034
 30
0.0
  0
SPLINE
  5
223
330
1F
100
AcDbEntity
  8
0
  6
Continuous
 62
     8
370
    18
100
AcDbSpline
210
0.0
220
0.0
230
1.0
 70
     8
 71
     3
 72
     8
 73
     4
 74
     0
 42
0.000000001
 43
0.00000001
 40
0.0
 40
0.0
 40
0.0
 40
0.0
 40
1.0
 40
1.0
 40
1.0
 40
1.0
 10
149.1713123082909
 20
119.8357416904036
 30
0.0
 10
148.5815471225225
 20
119.7152946019974
 30
0.0
 10
147.9815873040667
 20
119.6517936179811
 30
0.0
 10
147.379711604106
 20
119.6464897057582
 30
0.0
  0
SPLINE
  5
224
330
1F
100
AcDbEntity
  8
0
  6
Continuous
 62
     8
370
    18
100
AcDbSpline
210
0.0
220
0.0
230
1.0
 70
     8
 71
     3
 72
     8
 73
     4
 74
     0
 42
0.000000001
 43
0.00000001
 40
0.0
 40
0.0
 40
0.0
 40
0.0
 40
1.0
 40
1.0
 40
1.0
 40
1.0
 10
133.9379503026148
 20
120.1108043196162
 30
0.0
 10
134.2788826763554
 20
119.9993677329159
 30
0.0
 10
134.6259018977678
 20
119.9075132174262
 30
0.0
 10
134.977328806692
 20
119.8357416904034
 30
0.0
  0
SPLINE
  5
225
330
1F
100
AcDbEntity
  8
0
  6
Continuous
 62
     8
370
    18
100
AcDbSpline
210
0.0
220
0.0
230
1.0
 70
     8
 71
     3
 72
     8
 73
     4
 74
     0
 42
0.000000001
 43
0.00000001
 40
0.0
 40
0.0
 40
0.0
 40
0.0
 40
1.0
 40
1.0
 40
1.0
 40
1.0
 10
133.0058340538106
 20
120.4708976382917
 30
0.0
 10
133.3100183014641
 20
120.3346229196949
 30
0.0
 10
133.6211290585294
 20
120.2143599827165
 30
0.0
 10
133.9379503026148
 20
120.1108043196162
 30
0.0
  0
SPLINE
  5
226
330
1F
100
AcDbEntity
  8
0
  6
Continuous
 62
     8
370
    18
100
AcDbSpline
210
0.0
220
0.0
230
1.0
 70
     8
 71
     3
 72
     8
 73
     4
 74
     0
 42
0.000000001
 43
0.00000001
 40
0.0
 40
0.0
 40
0.0
 40
0.0
 40
1.0
 40
1.0
 40
1.0
 40
1.0
 10
131.9312371788226
 20
121.0383257501708
 30
0.0
 10
132.2767222732425
 20
120.8260286229201
 30
0.0
 10
132.6357784542594
 20
120.6366827605756
 30
0.0
 10
133.0058340538106
 20
120.4708976382917
 30
0.0
  0
SPLINE
  5
227
330
1F
100
AcDbEntity
  8
0
  6
Continuous
 62
     8
370
    18
100
AcDbSpline
210
0.0
220
0.0
230
1.0
 70
     8
 71
     3
 72
    12
 73
     8
 74
     0
 42
0.000000001
 43
0.00000001
 40
0.0
 40
0.0
 40
0.0
 40
0.0
 40
0.2500000000000015
 40
0.2500000000000015
 40
0.500000000000003
 40
0.500000000000003
 40
1.0
 40
1.0
 40
1.0
 40
1.0
 10
128.5138157501068
 20
124.7454593704387
 30
0.0
 10
128.7074428666455
 20
124.3634484389275
 30
0.0
 10
128.9257327297331
 20
123.9981852734743
 30
0.0
 10
129.4104749826847
 20
123.3003647385186
 30
0.0
 10
129.6782745784661
 20
122.9663884523482
 30
0.0
 10
130.5471923375723
 20
122.0250626195129
 30
0.0
 10
131.201463205318
 20
121.4867645413653
 30
0.0
 10
131.9312371788231
 20
121.0383257501708
 30
0.0
  0
SPLINE
  5
228
330
1F
100
AcDbEntity
  8
0
  6
Continuous
 62
     8
370
    18
100
AcDbSpline
210
0.0
220
0.0
230
1.0
 70
     8
 71
     3
 72
    10
 73
     6
 74
     0
 42
0.000000001
 43
0.00000001
 40
0.0
 40
0.0
 40
0.0
 40
0.0
 40
0.5
 40
0.5
 40
1.0
 40
1.0
 40
1.0
 40
1.0
 10
127.5205392198573
 20
128.5509724857314
 30
0.0
 10
127.5483731134616
 20
127.888530520856
 30
0.0
 10
127.6460011960739
 20
127.2359191285997
 30
0.0
 10
127.9806661204086
 20
125.9532940130763
 30
0.0
 10
128.2140513996082
 20
125.3368706397574
 30
0.0
 10
128.5138157501068
 20
124.7454593704385
 30
0.0
  0
SPLINE
  5
229
330
1F
100
AcDbEntity
  8
0
  6
Continuous
 62
     8
370
    18
100
AcDbSpline
210
0.0
220
0.0
230
1.0
 70
     8
 71
     3
 72
    11
 73
     7
 74
     0
 42
0.000000001
 43
0.00000001
 40
0.0
 40
0.0
 40
0.0
 40
0.0
 40
0.0001770074196939
 40
0.0001770074196939
 40
0.0001770074196939
 40
0.0003528678349735
 40
0.0003528678349735
 40
0.0003528678349735
 40
0.0003528678349735
 10
127.5124300745075
 20
128.9037309166408
 30
0.0
 10
127.5126625025144
 20
128.8447290332749
 30
0.0
 10
127.5134597186786
 20
128.7857266317435
 30
0.0
 10
127.5148198725543
 20
128.7267398953938
 30
0.0
 10
127.5161712137235
 20
128.6681353457955
 30
0.0
 10
127.5180783418406
 20
128.6095409667291
 30
0.0
 10
127.5205392198573
 20
128.5509724857314
 30
0.0
  0
SPLINE
  5
22A
330
1F
100
AcDbEntity
  8
0
  6
Continuous
 62
     8
370
    18
100
AcDbSpline
210
0.0
220
0.0
230
1.0
 70
     8
 71
     3
 72
    11
 73
     7
 74
     0
 42
0.000000001
 43
0.00000001
 40
0.0
 40
0.0
 40
0.0
 40
0.0
 40
0.0002203474018664
 40
0.0002203474018664
 40
0.0002203474018664
 40
0.0004271838458319
 40
0.0004271838458319
 40
0.0004271838458319
 40
0.0004271838458319
 10
127.5108081622606
 20
129.3309112601409
 30
0.0
 10
127.5110768321964
 20
129.2574626430019
 30
0.0
 10
127.5113506628369
 20
129.1840140499949
 30
0.0
 10
127.5116297998618
 20
129.110565510458
 30
0.0
 10
127.5118918211396
 20
129.041620589219
 30
0.0
 10
127.5121584780906
 20
128.972675706582
 30
0.0
 10
127.5124300745075
 20
128.9037309166408
 30
0.0
  0
SPLINE
  5
22B
330
1F
100
AcDbEntity
  8
0
  6
Continuous
 62
     8
370
    18
100
AcDbSpline
210
0.0
220
0.0
230
1.0
 70
     8
 71
     3
 72
    14
 73
    10
 74
     0
 42
0.000000001
 43
0.00000001
 40
0.0
 40
0.0
 40
0.0
 40
0.0
 40
0.25
 40
0.25
 40
0.5
 40
0.5
 40
0.75
 40
0.75
 40
1.0
 40
1.0
 40
1.0
 40
1.0
 10
127.4507872947792
 20
163.0559834607266
 30
0.0
 10
127.459232831697
 20
160.2455678949441
 30
0.0
 10
127.46142903947
 20
157.4351389728618
 30
0.0
 10
127.4684094572673
 20
151.8142881269479
 30
0.0
 10
127.4722187456762
 20
149.0038634269313
 30
0.0
 10
127.4808016103176
 20
143.3830151783909
 30
0.0
 10
127.4854766547894
 20
140.5725918916126
 30
0.0
 10
127.4959765452687
 20
134.9517467329373
 30
0.0
 10
127.5005278741023
 20
132.1413222824394
 30
0.0
 10
127.5108081622606
 20
129.330911260141
 30
0.0
  0
SPLINE
  5
22C
330
1F
100
AcDbEntity
  8
0
  6
Continuous
 62
     8
370
    18
100
AcDbSpline
210
0.0
220
0.0
230
1.0
 70
     8
 71
     3
 72
    11
 73
     7
 74
     0
 42
0.000000001
 43
0.00000001
 40
0.0
 40
0.0
 40
0.0
 40
0.0
 40
0.0009584443937322
 40
0.0009584443937322
 40
0.0009584443937322
 40
0.0019066625549322
 40
0.0019066625549322
 40
0.0019066625549322
 40
0.0019066625549322
 10
127.4435915452289
 20
164.9626259965103
 30
0.0
 10
127.4450778768105
 20
164.6431499505651
 30
0.0
 10
127.4464061318122
 20
164.32367246963
 30
0.0
 10
127.4476013309454
 20
164.0041942309714
 30
0.0
 10
127.4487837778465
 20
163.6881246800937
 30
0.0
 10
127.449837475193
 20
163.3720542772781
 30
0.0
 10
127.4507872947792
 20
163.0559834607267
 30
0.0
  0
SPLINE
  5
22D
330
1F
100
AcDbEntity
  8
0
  6
Continuous
 62
     8
370
    18
100
AcDbSpline
210
0.0
220
0.0
230
1.0
 70
     8
 71
     3
 72
    11
 73
     7
 74
     0
 42
0.000000001
 43
0.00000001
 40
0.0
 40
0.0
 40
0.0
 40
0.0
 40
0.0010528996751524
 40
0.0010528996751524
 40
0.0010528996751524
 40
0.0018300050798694
 40
0.0018300050798694
 40
0.0018300050798694
 40
0.0018300050798694
 10
127.4334903438997
 20
166.7925801687928
 30
0.0
 10
127.4357076557149
 20
166.4416290256137
 30
0.0
 10
127.437780546775
 20
166.0906732764018
 30
0.0
 10
127.4396788716963
 20
165.739715581963
 30
0.0
 10
127.4410799540795
 20
165.4806868785967
 30
0.0
 10
127.442386429099
 20
165.2216568486005
 30
0.0
 10
127.4435915452289
 20
164.9626259965103
 30
0.0
  0
SPLINE
  5
22E
330
1F
100
AcDbEntity
  8
0
  6
Continuous
 62
     8
370
    18
100
AcDbSpline
210
0.0
220
0.0
230
1.0
 70
     8
 71
     3
 72
    16
 73
    12
 74
     0
 42
0.000000001
 43
0.00000001
 40
0.0
 40
0.0
 40
0.0
 40
0.0
 40
0.1250000000000006
 40
0.1250000000000006
 40
0.2500000000000013
 40
0.2500000000000013
 40
0.5000000000000009
 40
0.5000000000000009
 40
0.7500000000000004
 40
0.7500000000000004
 40
1.0
 40
1.0
 40
1.0
 40
1.0
 10
123.9790659891943
 20
177.3749775051573
 30
0.0
 10
124.2520031521969
 20
176.9940640119084
 30
0.0
 10
124.5144194402712
 20
176.6071969475296
 30
0.0
 10
125.0117814866444
 20
175.8141740101212
 30
0.0
 10
125.2447788182843
 20
175.4071304725235
 30
0.0
 10
125.8959739961316
 20
174.1535319768757
 30
0.0
 10
126.2610146425313
 20
173.2852765914583
 30
0.0
 10
126.8497320201374
 20
171.4843466668605
 30
0.0
 10
127.068399969598
 20
170.5634555664641
 30
0.0
 10
127.3592423683173
 20
168.6868174114231
 30
0.0
 10
127.4274948383688
 20
167.742135444587
 30
0.0
 10
127.4334891995791
 20
166.7925801627706
 30
0.0
  0
SPLINE
  5
22F
330
1F
100
AcDbEntity
  8
0
  6
Continuous
 62
     8
370
    18
100
AcDbSpline
210
0.0
220
0.0
230
1.0
 70
     8
 71
     3
 72
     8
 73
     4
 74
     0
 42
0.000000001
 43
0.00000001
 40
0.0
 40
0.0
 40
0.0
 40
0.0
 40
0.0006029791127592
 40
0.0006029791127592
 40
0.0006029791127592
 40
0.0006029791127592
 10
123.640030629928
 20
177.8638595783316
 30
0.0
 10
123.7506897698866
 20
177.6994311544779
 30
0.0
 10
123.8634766149267
 20
177.5362950478513
 30
0.0
 10
123.9790659893366
 20
177.3749775052488
 30
0.0
  0
SPLINE
  5
230
330
1F
100
AcDbEntity
  8
0
  6
Continuous
 62
     8
370
    18
100
AcDbSpline
210
0.0
220
0.0
230
1.0
 70
     8
 71
     3
 72
     8
 73
     4
 74
     0
 42
0.000000001
 43
0.00000001
 40
0.0
 40
0.0
 40
0.0
 40
0.0
 40
1.0
 40
1.0
 40
1.0
 40
1.0
 10
123.0865795020845
 20
178.7298123507612
 30
0.0
 10
123.2642420379319
 20
178.4370541113525
 30
0.0
 10
123.448562700081
 20
178.1483617887683
 30
0.0
 10
123.6400306299279
 20
177.8638595783316
 30
0.0
  0
SPLINE
  5
231
330
1F
100
AcDbEntity
  8
0
  6
Continuous
 62
     8
370
    18
100
AcDbSpline
210
0.0
220
0.0
230
1.0
 70
     8
 71
     3
 72
     8
 73
     4
 74
     0
 42
0.000000001
 43
0.00000001
 40
0.0
 40
0.0
 40
0.0
 40
0.0
 40
1.0
 40
1.0
 40
1.0
 40
1.0
 10
121.1722652958286
 20
182.715285535185
 30
0.0
 10
121.6745663569895
 20
181.3250208522958
 30
0.0
 10
122.3166448663627
 20
179.9985362679268
 30
0.0
 10
123.0865795020845
 20
178.7298123507612
 30
0.0
  0
SPLINE
  5
232
330
1F
100
AcDbEntity
  8
0
  6
Continuous
 62
     8
370
    18
100
AcDbSpline
210
0.0
220
0.0
230
1.0
 70
     8
 71
     3
 72
    10
 73
     6
 74
     0
 42
0.000000001
 43
0.00000001
 40
0.0
 40
0.0
 40
0.0
 40
0.0
 40
0.5
 40
0.5
 40
1.0
 40
1.0
 40
1.0
 40
1.0
 10
119.9142697994612
 20
189.4166698121121
 30
0.0
 10
119.9422410390578
 20
188.2670355033341
 30
0.0
 10
120.0626717326616
 20
187.1341380527534
 30
0.0
 10
120.4818491141009
 20
184.9003059738095
 30
0.0
 10
120.7805608984557
 20
183.7994416955199
 30
0.0
 10
121.1722652958286
 20
182.715285535185
 30
0.0
  0
SPLINE
  5
233
330
1F
100
AcDbEntity
  8
0
  6
Continuous
 62
     8
370
    18
100
AcDbSpline
210
0.0
220
0.0
230
1.0
 70
     8
 71
     3
 72
    11
 73
     7
 74
     0
 42
0.000000001
 43
0.00000001
 40
-0.00000006
 40
-0.00000006
 40
-0.00000006
 40
-0.00000006
 40
0.0
 40
0.0
 40
0.0
 40
0.0005282950640932
 40
0.0005282950640932
 40
0.0005282950640932
 40
0.0005282950640932
 10
119.9079681152977
 20
189.9334434881109
 30
0.0
 10
119.9079681141607
 20
189.9334239302291
 30
0.0
 10
119.9079681130512
 20
189.9334043723483
 30
0.0
 10
119.9079681119692
 20
189.9333848144656
 30
0.0
 10
119.9079585846137
 20
189.7611792659394
 30
0.0
 10
119.9100796658406
 20
189.5888867548751
 30
0.0
 10
119.9142697994612
 20
189.4166698121121
 30
0.0
  0
SPLINE
  5
234
330
1F
100
AcDbEntity
  8
0
  6
Continuous
 62
     8
370
    18
100
AcDbSpline
210
0.0
220
0.0
230
1.0
 70
     8
 71
     3
 72
     8
 73
     4
 74
     0
 42
0.000000001
 43
0.00000001
 40
0.0
 40
0.0
 40
0.0
 40
0.0
 40
1.0
 40
1.0
 40
1.0
 40
1.0
 10
136.7689295108769
 20
119.6464897057583
 30
0.0
 10
138.5372565679734
 20
119.6309066684424
 30
0.0
 10
140.3057834536963
 20
119.6195274995675
 30
0.0
 10
142.0743205574914
 20
119.619950387646
 30
0.0
  0
SPLINE
  5
235
330
1F
100
AcDbEntity
  8
0
  6
Continuous
 62
     8
370
    18
100
AcDbSpline
210
0.0
220
0.0
230
1.0
 70
     8
 71
     3
 72
     8
 73
     4
 74
     0
 42
0.000000001
 43
0.00000001
 40
0.0
 40
0.0
 40
0.0
 40
0.0
 40
1.0
 40
1.0
 40
1.0
 40
1.0
 10
134.977328806692
 20
119.8357416904036
 30
0.0
 10
135.5670939924605
 20
119.715294601998
 30
0.0
 10
136.1670538109163
 20
119.6517936179811
 30
0.0
 10
136.7689295108769
 20
119.6464897057582
 30
0.0
  0
LINE
  5
236
330
1F
100
AcDbEntity
  8
0
  6
Continuous
 62
     8
370
    18
100
AcDbLine
 10
158.0743213175
 20
169.2894425607
 30
0.0
 11
158.131517562
 21
171.2142255522
 31
0.0
  0
LINE
  5
237
330
1F
100
AcDbEntity
  8
0
  6
Continuous
 62
     8
370
    18
100
AcDbLine
 10
158.0743213175
 20
168.8939173139
 30
0.0
 11
158.0743213175
 21
169.2894425607
 31
0.0
  0
LINE
  5
238
330
1F
100
AcDbEntity
  8
0
  6
Continuous
 62
     8
370
    18
100
AcDbLine
 10
126.0743197975
 20
169.2894425607
 30
0.0
 11
126.0743197975
 21
168.8939173139
 31
0.0
  0
LINE
  5
239
330
1F
100
AcDbEntity
  8
0
  6
Continuous
 62
     8
370
    18
100
AcDbLine
 10
126.014955434
 20
171.2236617125
 30
0.0
 11
126.0743197975
 21
169.2894425607
 31
0.0
  0
LINE
  5
23A
330
1F
100
AcDbEntity
  8
0
  6
Continuous
 62
     8
370
    18
100
AcDbLine
 10
158.0743213175
 20
106.4722936965
 30
0.0
 11
158.0743213175
 21
168.8939173139
 31
0.0
  0
LINE
  5
23B
330
1F
100
AcDbEntity
  8
0
  6
Continuous
 62
     8
370
    18
100
AcDbLine
 10
139.0743205314
 20
93.4722971535
 30
0.0
 11
145.0743205836
 21
93.4722971535
 31
0.0
  0
ARC
  5
23C
330
1F
100
AcDbEntity
  8
0
  6
Continuous
 62
     8
370
    18
100
AcDbCircle
 10
139.0743205575
 20
106.472295127
 30
0.0
 40
13.0
100
AcDbArc
 50
180.0
 51
270.0
  0
LINE
  5
23D
330
1F
100
AcDbEntity
  8
0
  6
Continuous
 62
     8
370
    18
100
AcDbLine
 10
126.0743197975
 20
168.8939173139
 30
0.0
 11
126.0743197975
 21
106.4722936965
 31
0.0
  0
ARC
  5
23E
330
1F
100
AcDbEntity
  8
0
  6
Continuous
 62
     8
370
    18
100
AcDbCircle
 10
145.0743205575
 20
106.472295127
 30
0.0
 40
13.0
100
AcDbArc
 50
270.0
 51
0.0
  0
ENDSEC
  0
SECTION
  2
OBJECTS
  0
DICTIONARY
  5
C
330
0
100
AcDbDictionary
281
     1
  3
ACAD_GROUP
350
D
  3
ACAD_LAYOUT
350
1A
  3
ACAD_MLINESTYLE
350
17
  3
ACAD_PLOTSETTINGS
350
19
  3
ACAD_PLOTSTYLENAME
350
E
  3
ACAD_SCALELIST
350
47
  0
DICTIONARY
  5
D
102
{ACAD_REACTORS
330
C
102
}
330
C
100
AcDbDictionary
281
     1
  0
DICTIONARY
  5
1A
102
{ACAD_REACTORS
330
C
102
}
330
C
100
AcDbDictionary
281
     1
  3
Layout1
350
1E
  3
Layout2
350
26
  3
Model
350
22
  0
DICTIONARY
  5
17
102
{ACAD_REACTORS
330
C
102
}
330
C
100
AcDbDictionary
281
     1
  3
Standard
350
18
  0
DICTIONARY
  5
19
102
{ACAD_REACTORS
330
C
102
}
330
C
100
AcDbDictionary
281
     1
  0
ACDBDICTIONARYWDFLT
  5
E
102
{ACAD_REACTORS
330
C
102
}
330
C
100
AcDbDictionary
281
     1
  3
Normal
350
F
100
AcDbDictionaryWithDefault
340
F
  0
DICTIONARY
  5
47
102
{ACAD_REACTORS
330
C
102
}
330
C
100
AcDbDictionary
281
     1
  3
A0
350
48
  3
A1
350
49
  3
A2
350
4A
  3
A3
350
4B
  3
A4
350
4C
  3
A5
350
4D
  3
A6
350
4E
  3
A7
350
4F
  3
A8
350
50
  3
A9
350
51
  3
B0
350
52
  3
B1
350
53
  3
B2
350
54
  3
B3
350
55
  3
B4
350
56
  3
B5
350
57
  3
B6
350
58
  3
B7
350
59
  3
B8
350
5A
  3
B9
350
5B
  3
C0
350
5C
  3
C1
350
5D
  3
C2
350
5E
  3
C3
350
5F
  3
C4
350
60
  3
C5
350
61
  3
C6
350
62
  3
C7
350
63
  3
C8
350
64
  3
C9
350
65
  3
D0
350
66
  3
D1
350
67
  3
D2
350
68
  0
LAYOUT
  5
1E
102
{ACAD_REACTORS
330
1A
102
}
330
1A
100
AcDbPlotSettings
  1

  2
none_device
  4

  6

 40
0.0
 41
0.0
 42
0.0
 43
0.0
 44
0.0
 45
0.0
 46
0.0
 47
0.0
 48
0.0
 49
0.0
140
0.0
141
0.0
142
1.0
143
1.0
 70
   688
 72
     1
 73
     0
 74
     5
  7

 75
    16
147
1.0
148
0.0
149
0.0
100
AcDbLayout
  1
Layout1
 70
     1
 71
     1
 10
0.0
 20
0.0
 11
420.0
 21
297.0
 12
0.0
 22
0.0
 32
0.0
 14
1.0000000000E+20
 24
1.0000000000E+20
 34
1.0000000000E+20
 15
-1.0000000000E+20
 25
-1.0000000000E+20
 35
-1.0000000000E+20
146
0.0
 13
0.0
 23
0.0
 33
0.0
 16
1.0
 26
0.0
 36
0.0
 17
0.0
 27
1.0
 37
0.0
 76
     0
330
1B
  0
LAYOUT
  5
26
102
{ACAD_REACTORS
330
1A
102
}
330
1A
100
AcDbPlotSettings
  1

  2
none_device
  4

  6

 40
0.0
 41
0.0
 42
0.0
 43
0.0
 44
0.0
 45
0.0
 46
0.0
 47
0.0
 48
0.0
 49
0.0
140
0.0
141
0.0
142
1.0
143
1.0
 70
   688
 72
     1
 73
     0
 74
     5
  7

 75
    16
147
1.0
148
0.0
149
0.0
100
AcDbLayout
  1
Layout2
 70
     1
 71
     2
 10
0.0
 20
0.0
 11
0.0
 21
0.0
 12
0.0
 22
0.0
 32
0.0
 14
0.0
 24
0.0
 34
0.0
 15
0.0
 25
0.0
 35
0.0
146
0.0
 13
0.0
 23
0.0
 33
0.0
 16
1.0
 26
0.0
 36
0.0
 17
0.0
 27
1.0
 37
0.0
 76
     0
330
23
  0
LAYOUT
  5
22
102
{ACAD_REACTORS
330
1A
102
}
330
1A
100
AcDbPlotSettings
  1

  2
none_device
  4
Letter_(8.50_x_11.00_Inches)
  6

 40
6.35
 41
6.35
 42
6.35000508
 43
6.35000508
 44
215.9
 45
279.4
 46
0.0
 47
0.0
 48
0.0
 49
0.0
140
0.0
141
0.0
142
1.0
143
1.0
 70
  1712
 72
     1
 73
     0
 74
     0
  7

 75
     0
147
1.0
148
0.0
149
0.0
100
AcDbLayout
  1
Model
 70
     1
 71
     0
 10
0.0
 20
0.0
 11
594.0
 21
841.0
 12
0.0
 22
0.0
 32
0.0
 14
0.0
 24
0.0
 34
0.0
 15
594.0
 25
841.0
 35
0.0
146
0.0
 13
0.0
 23
0.0
 33
0.0
 16
1.0
 26
0.0
 36
0.0
 17
0.0
 27
1.0
 37
0.0
 76
     0
330
1F
331
29
  0
MLINESTYLE
  5
18
102
{ACAD_REACTORS
330
17
102
}
330
17
100
AcDbMlineStyle
  2
Standard
 70
     0
  3

 62
   256
 51
90.0
 52
90.0
 71
     2
 49
0.5
 62
   256
  6
BYLAYER
 49
-0.5
 62
   256
  6
BYLAYER
  0
ACDBPLACEHOLDER
  5
F
102
{ACAD_REACTORS
330
E
102
}
330
E
  0
SCALE
  5
48
102
{ACAD_REACTORS
330
47
102
}
330
47
100
AcDbScale
 70
     0
300
1:1
140
1.0
141
1.0
290
     1
  0
SCALE
  5
49
102
{ACAD_REACTORS
330
47
102
}
330
47
100
AcDbScale
 70
     0
300
1:2
140
1.0
141
2.0
290
     0
  0
SCALE
  5
4A
102
{ACAD_REACTORS
330
47
102
}
330
47
100
AcDbScale
 70
     0
300
1:4
140
1.0
141
4.0
290
     0
  0
SCALE
  5
4B
102
{ACAD_REACTORS
330
47
102
}
330
47
100
AcDbScale
 70
     0
300
1:5
140
1.0
141
5.0
290
     0
  0
SCALE
  5
4C
102
{ACAD_REACTORS
330
47
102
}
330
47
100
AcDbScale
 70
     0
300
1:8
140
1.0
141
8.0
290
     0
  0
SCALE
  5
4D
102
{ACAD_REACTORS
330
47
102
}
330
47
100
AcDbScale
 70
     0
300
1:10
140
1.0
141
10.0
290
     0
  0
SCALE
  5
4E
102
{ACAD_REACTORS
330
47
102
}
330
47
100
AcDbScale
 70
     0
300
1:16
140
1.0
141
16.0
290
     0
  0
SCALE
  5
4F
102
{ACAD_REACTORS
330
47
102
}
330
47
100
AcDbScale
 70
     0
300
1:20
140
1.0
141
20.0
290
     0
  0
SCALE
  5
50
102
{ACAD_REACTORS
330
47
102
}
330
47
100
AcDbScale
 70
     0
300
1:30
140
1.0
141
30.0
290
     0
  0
SCALE
  5
51
102
{ACAD_REACTORS
330
47
102
}
330
47
100
AcDbScale
 70
     0
300
1:40
140
1.0
141
40.0
290
     0
  0
SCALE
  5
52
102
{ACAD_REACTORS
330
47
102
}
330
47
100
AcDbScale
 70
     0
300
1:50
140
1.0
141
50.0
290
     0
  0
SCALE
  5
53
102
{ACAD_REACTORS
330
47
102
}
330
47
100
AcDbScale
 70
     0
300
1:100
140
1.0
141
100.0
290
     0
  0
SCALE
  5
54
102
{ACAD_REACTORS
330
47
102
}
330
47
100
AcDbScale
 70
     0
300
2:1
140
2.0
141
1.0
290
     0
  0
SCALE
  5
55
102
{ACAD_REACTORS
330
47
102
}
330
47
100
AcDbScale
 70
     0
300
4:1
140
4.0
141
1.0
290
     0
  0
SCALE
  5
56
102
{ACAD_REACTORS
330
47
102
}
330
47
100
AcDbScale
 70
     0
300
8:1
140
8.0
141
1.0
290
     0
  0
SCALE
  5
57
102
{ACAD_REACTORS
330
47
102
}
330
47
100
AcDbScale
 70
     0
300
10:1
140
10.0
141
1.0
290
     0
  0
SCALE
  5
58
102
{ACAD_REACTORS
330
47
102
}
330
47
100
AcDbScale
 70
     0
300
100:1
140
100.0
141
1.0
290
     0
  0
SCALE
  5
59
102
{ACAD_REACTORS
330
47
102
}
330
47
100
AcDbScale
 70
     0
300
1/128" = 1'-0"
140
0.0078125
141
12.0
290
     0
  0
SCALE
  5
5A
102
{ACAD_REACTORS
330
47
102
}
330
47
100
AcDbScale
 70
     0
300
1/64" = 1'-0"
140
0.015625
141
12.0
290
     0
  0
SCALE
  5
5B
102
{ACAD_REACTORS
330
47
102
}
330
47
100
AcDbScale
 70
     0
300
1/32" = 1'-0"
140
0.03125
141
12.0
290
     0
  0
SCALE
  5
5C
102
{ACAD_REACTORS
330
47
102
}
330
47
100
AcDbScale
 70
     0
300
1/16" = 1'-0"
140
0.0625
141
12.0
290
     0
  0
SCALE
  5
5D
102
{ACAD_REACTORS
330
47
102
}
330
47
100
AcDbScale
 70
     0
300
3/32" = 1'-0"
140
0.09375
141
12.0
290
     0
  0
SCALE
  5
5E
102
{ACAD_REACTORS
330
47
102
}
330
47
100
AcDbScale
 70
     0
300
1/8" = 1'-0"
140
0.125
141
12.0
290
     0
  0
SCALE
  5
5F
102
{ACAD_REACTORS
330
47
102
}
330
47
100
AcDbScale
 70
     0
300
3/16" = 1'-0"
140
0.1875
141
12.0
290
     0
  0
SCALE
  5
60
102
{ACAD_REACTORS
330
47
102
}
330
47
100
AcDbScale
 70
     0
300
1/4" = 1'-0"
140
0.25
141
12.0
290
     0
  0
SCALE
  5
61
102
{ACAD_REACTORS
330
47
102
}
330
47
100
AcDbScale
 70
     0
300
3/8" = 1'-0"
140
0.375
141
12.0
290
     0
  0
SCALE
  5
62
102
{ACAD_REACTORS
330
47
102
}
330
47
100
AcDbScale
 70
     0
300
1/2" = 1'-0"
140
0.5
141
12.0
290
     0
  0
SCALE
  5
63
102
{ACAD_REACTORS
330
47
102
}
330
47
100
AcDbScale
 70
     0
300
3/4" = 1'-0"
140
0.75
141
12.0
290
     0
  0
SCALE
  5
64
102
{ACAD_REACTORS
330
47
102
}
330
47
100
AcDbScale
 70
     0
300
1" = 1'-0"
140
1.0
141
12.0
290
     0
  0
SCALE
  5
65
102
{ACAD_REACTORS
330
47
102
}
330
47
100
AcDbScale
 70
     0
300
1-1/2" = 1'-0"
140
1.5
141
12.0
290
     0
  0
SCALE
  5
66
102
{ACAD_REACTORS
330
47
102
}
330
47
100
AcDbScale
 70
     0
300
3" = 1'-0"
140
3.0
141
12.0
290
     0
  0
SCALE
  5
67
102
{ACAD_REACTORS
330
47
102
}
330
47
100
AcDbScale
 70
     0
300
6" = 1'-0"
140
6.0
141
12.0
290
     0
  0
SCALE
  5
68
102
{ACAD_REACTORS
330
47
102
}
330
47
100
AcDbScale
 70
     0
300
1'-0" = 1'-0"
140
12.0
141
12.0
290
     0
  0
ENDSEC
  0
EOF
