  0
SECTION
  2
HEADER
  9
$ACADVER
  1
AC1015
  9
$ACADMAINTVER
 70
     6
  9
$DWGCODEPAGE
  3
ANSI_1252
  9
$INSBASE
 10
0.0
 20
0.0
 30
0.0
  9
$EXTMIN
 10
0.0
 20
0.0
 30
0.0
  9
$EXTMAX
 10
594.0
 20
841.0
 30
0.0
  9
$LIMMIN
 10
0.0
 20
0.0
  9
$LIMMAX
 10
594.0
 20
841.0
  9
$ORTHOMODE
 70
     0
  9
$REGENMODE
 70
     1
  9
$FILLMODE
 70
     1
  9
$QTEXTMODE
 70
     0
  9
$MIRRTEXT
 70
     1
  9
$LTSCALE
 40
1.0
  9
$ATTMODE
 70
     1
  9
$TEXTSIZE
 40
10.0
  9
$TRACEWID
 40
1.0
  9
$TEXTSTYLE
  7
Standard
  9
$CLAYER
  8
0
  9
$CELTYPE
  6
ByLayer
  9
$CECOLOR
 62
   256
  9
$CELTSCALE
 40
1.0
  9
$DISPSILH
 70
     0
  9
$DIMSCALE
 40
1.0
  9
$DIMASZ
 40
2.5
  9
$DIMEXO
 40
0.0
  9
$DIMDLI
 40
3.75
  9
$DIMRND
 40
0.0
  9
$DIMDLE
 40
0.0
  9
$DIMEXE
 40
1.0
  9
$DIMTP
 40
0.0
  9
$DIMTM
 40
0.0
  9
$DIMTXT
 40
3.5
  9
$DIMCEN
 40
2.5
  9
$DIMTSZ
 40
0.0
  9
$DIMTOL
 70
     0
  9
$DIMLIM
 70
     0
  9
$DIMTIH
 70
     1
  9
$DIMTOH
 70
     1
  9
$DIMSE1
 70
     0
  9
$DIMSE2
 70
     0
  9
$DIMTAD
 70
     1
  9
$DIMZIN
 70
     0
  9
$DIMBLK
  1

  9
$DIMASO
 70
     1
  9
$DIMSHO
 70
     1
  9
$DIMPOST
  1

  9
$DIMAPOST
  1

  9
$DIMALT
 70
     0
  9
$DIMALTD
 70
     3
  9
$DIMALTF
 40
0.0393700787
  9
$DIMLFAC
 40
1.0
  9
$DIMTOFL
 70
     1
  9
$DIMTVP
 40
0.0
  9
$DIMTIX
 70
     0
  9
$DIMSOXD
 70
     0
  9
$DIMSAH
 70
     0
  9
$DIMBLK1
  1

  9
$DIMBLK2
  1

  9
$DIMSTYLE
  2
ISO-25
  9
$DIMCLRD
 70
     0
  9
$DIMCLRE
 70
     0
  9
$DIMCLRT
 70
     0
  9
$DIMTFAC
 40
1.0
  9
$DIMGAP
 40
1.5
  9
$DIMJUST
 70
     0
  9
$DIMSD1
 70
     0
  9
$DIMSD2
 70
     0
  9
$DIMTOLJ
 70
     0
  9
$DIMTZIN
 70
     0
  9
$DIMALTZ
 70
     0
  9
$DIMALTTZ
 70
     0
  9
$DIMUPT
 70
     0
  9
$DIMDEC
 70
     2
  9
$DIMTDEC
 70
     2
  9
$DIMALTU
 70
     2
  9
$DIMALTTD
 70
     3
  9
$DIMTXSTY
  7
Standard
  9
$DIMAUNIT
 70
     0
  9
$DIMADEC
 70
     2
  9
$DIMALTRND
 40
0.0
  9
$DIMAZIN
 70
     0
  9
$DIMDSEP
 70
    44
  9
$DIMATFIT
 70
     3
  9
$DIMFRAC
 70
     0
  9
$DIMLDRBLK
  1

  9
$DIMLUNIT
 70
     2
  9
$DIMLWD
 70
    -2
  9
$DIMLWE
 70
    -2
  9
$DIMTMOVE
 70
     0
  9
$LUNITS
 70
     2
  9
$LUPREC
 70
     2
  9
$SKETCHINC
 40
1.0
  9
$FILLETRAD
 40
10.0
  9
$AUNITS
 70
     0
  9
$AUPREC
 70
     2
  9
$MENU
  1
.
  9
$ELEVATION
 40
0.0
  9
$PELEVATION
 40
0.0
  9
$THICKNESS
 40
0.0
  9
$LIMCHECK
 70
     0
  9
$CHAMFERA
 40
0.0
  9
$CHAMFERB
 40
0.0
  9
$CHAMFERC
 40
0.0
  9
$CHAMFERD
 40
0.0
  9
$SKPOLY
 70
     0
  9
$TDCREATE
 40
2459535.455006898
  9
$TDUCREATE
 40
2459535.413340231
  9
$TDUPDATE
 40
2459535.455007616
  9
$TDUUPDATE
 40
2459535.413340949
  9
$TDINDWG
 40
0.0000000116
  9
$TDUSRTIMER
 40
0.0000000116
  9
$USRTIMER
 70
     1
  9
$ANGBASE
 50
0.0
  9
$ANGDIR
 70
     0
  9
$PDMODE
 70
     0
  9
$PDSIZE
 40
-1.0
  9
$PLINEWID
 40
0.0
  9
$SPLFRAME
 70
     0
  9
$SPLINETYPE
 70
     6
  9
$SPLINESEGS
 70
     8
  9
$HANDSEED
  5
1A7
  9
$SURFTAB1
 70
     6
  9
$SURFTAB2
 70
     6
  9
$SURFTYPE
 70
     6
  9
$SURFU
 70
     6
  9
$SURFV
 70
     6
  9
$UCSBASE
  2

  9
$UCSNAME
  2

  9
$UCSORG
 10
0.0
 20
0.0
 30
0.0
  9
$UCSXDIR
 10
1.0
 20
0.0
 30
0.0
  9
$UCSYDIR
 10
0.0
 20
1.0
 30
0.0
  9
$UCSORTHOREF
  2

  9
$UCSORTHOVIEW
 70
     0
  9
$UCSORGTOP
 10
0.0
 20
0.0
 30
0.0
  9
$UCSORGBOTTOM
 10
0.0
 20
0.0
 30
0.0
  9
$UCSORGLEFT
 10
0.0
 20
0.0
 30
0.0
  9
$UCSORGRIGHT
 10
0.0
 20
0.0
 30
0.0
  9
$UCSORGFRONT
 10
0.0
 20
0.0
 30
0.0
  9
$UCSORGBACK
 10
0.0
 20
0.0
 30
0.0
  9
$PUCSBASE
  2

  9
$PUCSNAME
  2

  9
$PUCSORG
 10
0.0
 20
0.0
 30
0.0
  9
$PUCSXDIR
 10
1.0
 20
0.0
 30
0.0
  9
$PUCSYDIR
 10
0.0
 20
1.0
 30
0.0
  9
$PUCSORTHOREF
  2

  9
$PUCSORTHOVIEW
 70
     0
  9
$PUCSORGTOP
 10
0.0
 20
0.0
 30
0.0
  9
$PUCSORGBOTTOM
 10
0.0
 20
0.0
 30
0.0
  9
$PUCSORGLEFT
 10
0.0
 20
0.0
 30
0.0
  9
$PUCSORGRIGHT
 10
0.0
 20
0.0
 30
0.0
  9
$PUCSORGFRONT
 10
0.0
 20
0.0
 30
0.0
  9
$PUCSORGBACK
 10
0.0
 20
0.0
 30
0.0
  9
$USERI1
 70
     0
  9
$USERI2
 70
     0
  9
$USERI3
 70
     0
  9
$USERI4
 70
     0
  9
$USERI5
 70
     0
  9
$USERR1
 40
0.0
  9
$USERR2
 40
0.0
  9
$USERR3
 40
0.0
  9
$USERR4
 40
0.0
  9
$USERR5
 40
0.0
  9
$WORLDVIEW
 70
     1
  9
$SHADEDGE
 70
     3
  9
$SHADEDIF
 70
    70
  9
$TILEMODE
 70
     1
  9
$MAXACTVP
 70
    64
  9
$PINSBASE
 10
0.0
 20
0.0
 30
0.0
  9
$PLIMCHECK
 70
     0
  9
$PEXTMIN
 10
1.0000000000E+20
 20
1.0000000000E+20
 30
1.0000000000E+20
  9
$PEXTMAX
 10
-1.0000000000E+20
 20
-1.0000000000E+20
 30
-1.0000000000E+20
  9
$PLIMMIN
 10
0.0
 20
0.0
  9
$PLIMMAX
 10
420.0
 20
297.0
  9
$UNITMODE
 70
     0
  9
$VISRETAIN
 70
     1
  9
$PLINEGEN
 70
     0
  9
$PSLTSCALE
 70
     1
  9
$TREEDEPTH
 70
  3020
  9
$CMLSTYLE
  2
Standard
  9
$CMLJUST
 70
     0
  9
$CMLSCALE
 40
20.0
  9
$PROXYGRAPHICS
 70
     1
  9
$MEASUREMENT
 70
     1
  9
$CELWEIGHT
370
    -1
  9
$ENDCAPS
280
     0
  9
$JOINSTYLE
280
     0
  9
$LWDISPLAY
290
     1
  9
$INSUNITS
 70
     4
  9
$HYPERLINKBASE
  1

  9
$STYLESHEET
  1

  9
$XEDIT
290
     1
  9
$CEPSNTYPE
380
     0
  9
$PSTYLEMODE
290
     1
  9
$FINGERPRINTGUID
  2
{550e03c0-9c5f-48be-9423-feeec249336e}
  9
$VERSIONGUID
  2
{FAEB1C32-E019-11D5-929B-00C0DF256EC4}
  9
$EXTNAMES
290
     1
  9
$PSVPSCALE
 40
0.0
  9
$OLESTARTUP
290
     0
  0
ENDSEC
  0
SECTION
  2
CLASSES
  0
CLASS
  1
ACDBDICTIONARYWDFLT
  2
AcDbDictionaryWithDefault
  3
ObjectDBX Classes
 90
        0
280
     0
281
     0
  0
CLASS
  1
VISUALSTYLE
  2
AcDbVisualStyle
  3
ObjectDBX Classes
 90
     4095
280
     0
281
     0
  0
CLASS
  1
MATERIAL
  2
AcDbMaterial
  3
ObjectDBX Classes
 90
     1153
280
     0
281
     0
  0
CLASS
  1
SCALE
  2
AcDbScale
  3
ObjectDBX Classes
 90
     1153
280
     0
281
     0
  0
CLASS
  1
TABLESTYLE
  2
AcDbTableStyle
  3
ObjectDBX Classes
 90
     4095
280
     0
281
     0
  0
CLASS
  1
MLEADERSTYLE
  2
AcDbMLeaderStyle
  3
ACDB_MLEADERSTYLE_CLASS
 90
     4095
280
     0
281
     0
  0
CLASS
  1
SUN
  2
AcDbSun
  3
SCENEOE
 90
     1153
280
     0
281
     0
  0
CLASS
  1
ACDBPLACEHOLDER
  2
AcDbPlaceHolder
  3
ObjectDBX Classes
 90
        0
280
     0
281
     0
  0
CLASS
  1
LAYOUT
  2
AcDbLayout
  3
ObjectDBX Classes
 90
        0
280
     0
281
     0
  0
ENDSEC
  0
SECTION
  2
TABLES
  0
TABLE
  2
VPORT
  5
8
330
0
100
AcDbSymbolTable
 70
     1
  0
VPORT
  5
29
330
8
100
AcDbSymbolTableRecord
100
AcDbViewportTableRecord
  2
*Active
 70
     0
 10
0.0
 20
0.0
 11
1.0
 21
1.0
 12
297.0
 22
420.5
 13
0.0
 23
0.0
 14
10.0
 24
10.0
 15
10.0
 25
10.0
 16
0.0
 26
0.0
 36
1.0
 17
0.0
 27
0.0
 37
0.0
 40
841.0
 41
0.7063020214
 42
50.0
 43
0.0
 44
0.0
 50
0.0
 51
0.0
 71
     0
 72
  2000
 73
     1
 74
     3
 75
     0
 76
     0
 77
     0
 78
     0
281
     0
 65
     1
110
0.0
120
0.0
130
0.0
111
1.0
121
0.0
131
0.0
112
0.0
122
1.0
132
0.0
 79
     0
146
0.0
  0
ENDTAB
  0
TABLE
  2
LTYPE
  5
5
330
0
100
AcDbSymbolTable
 70
     6
  0
LTYPE
  5
14
330
5
100
AcDbSymbolTableRecord
100
AcDbLinetypeTableRecord
  2
ByBlock
 70
     0
  3

 72
    65
 73
     0
 40
0.0
  0
LTYPE
  5
15
330
5
100
AcDbSymbolTableRecord
100
AcDbLinetypeTableRecord
  2
ByLayer
 70
     0
  3

 72
    65
 73
     0
 40
0.0
  0
LTYPE
  5
16
330
5
100
AcDbSymbolTableRecord
100
AcDbLinetypeTableRecord
  2
Continuous
 70
     0
  3
Solid line
 72
    65
 73
     0
 40
0.0
  0
LTYPE
  5
6E
330
5
100
AcDbSymbolTableRecord
100
AcDbLinetypeTableRecord
  2
HIDDEN
 70
     0
  3
Hidden __ __ __ __ __ __ __ __ __ __ __ __ __ __
 72
    65
 73
     2
 40
1.905
 49
1.27
 74
     0
 49
-0.635
 74
     0
  0
LTYPE
  5
6F
330
5
100
AcDbSymbolTableRecord
100
AcDbLinetypeTableRecord
  2
PHANTOM
 70
     0
  3
Phantom ______  __  __  ______  __  __  ______
 72
    65
 73
     6
 40
12.7
 49
6.35
 74
     0
 49
-1.27
 74
     0
 49
1.27
 74
     0
 49
-1.27
 74
     0
 49
1.27
 74
     0
 49
-1.27
 74
     0
  0
LTYPE
  5
70
330
5
100
AcDbSymbolTableRecord
100
AcDbLinetypeTableRecord
  2
CENTER
 70
     0
  3
Center ____ _ ____ _ ____ _ ____ _ ____ _ ____
 72
    65
 73
     4
 40
10.16
 49
6.35
 74
     0
 49
-1.27
 74
     0
 49
1.27
 74
     0
 49
-1.27
 74
     0
  0
LTYPE
  5
71
330
5
100
AcDbSymbolTableRecord
100
AcDbLinetypeTableRecord
  2
CENTERX2
 70
     0
  3
Center (2x) ________  __  ________  __  _____
 72
    65
 73
     4
 40
20.32
 49
12.7
 74
     0
 49
-2.54
 74
     0
 49
2.54
 74
     0
 49
-2.54
 74
     0
  0
LTYPE
  5
72
330
5
100
AcDbSymbolTableRecord
100
AcDbLinetypeTableRecord
  2
DOT2
 70
     0
  3
Dot (.5x) ........................................
 72
    65
 73
     2
 40
0.635
 49
0.0
 74
     0
 49
-0.635
 74
     0
  0
ENDTAB
  0
TABLE
  2
LAYER
  5
2
330
0
100
AcDbSymbolTable
 70
     1
  0
LAYER
  5
10
330
2
100
AcDbSymbolTableRecord
100
AcDbLayerTableRecord
  2
0
 70
     0
 62
     7
  6
Continuous
370
    -3
390
F
  0
ENDTAB
  0
TABLE
  2
STYLE
  5
3
330
0
100
AcDbSymbolTable
 70
     3
  0
STYLE
  5
11
330
3
100
AcDbSymbolTableRecord
100
AcDbTextStyleTableRecord
  2
Standard
 70
     0
 40
0.0
 41
1.0
 50
0.0
 71
     0
 42
10.0
  3
txt
  4

  0
STYLE
  5
76
330
3
100
AcDbSymbolTableRecord
100
AcDbTextStyleTableRecord
  2
SLDTEXTSTYLE0
 70
     0
 40
0.0
 41
0.96
 50
0.0
 71
     0
 42
10.0
  3
ISOCP3
  4

  0
STYLE
  5
8D
330
3
100
AcDbSymbolTableRecord
100
AcDbTextStyleTableRecord
  2
SLDTEXTSTYLE1
 70
     0
 40
0.0
 41
0.605
 50
0.0
 71
     0
 42
10.0
  3
TXT
  4

  0
ENDTAB
  0
TABLE
  2
VIEW
  5
6
330
0
100
AcDbSymbolTable
 70
     0
  0
ENDTAB
  0
TABLE
  2
UCS
  5
7
330
0
100
AcDbSymbolTable
 70
     0
  0
ENDTAB
  0
TABLE
  2
APPID
  5
9
330
0
100
AcDbSymbolTable
 70
     1
  0
APPID
  5
12
330
9
100
AcDbSymbolTableRecord
100
AcDbRegAppTableRecord
  2
ACAD
 70
     0
  0
ENDTAB
  0
TABLE
  2
DIMSTYLE
  5
A
330
0
100
AcDbSymbolTable
 70
     2
100
AcDbDimStyleTable
  0
DIMSTYLE
105
27
330
A
100
AcDbSymbolTableRecord
100
AcDbDimStyleTableRecord
  2
ISO-25
 70
     0
 41
2.5
 42
0.625
 43
3.75
 44
1.25
 73
     0
 74
     0
 77
     1
 78
     8
140
2.5
141
2.5
143
0.0393700787
147
0.625
171
     3
172
     1
178
     0
271
     2
272
     2
274
     3
278
    44
283
     0
284
     8
340
11
  0
DIMSTYLE
105
77
102
{ACAD_REACTORS
330
75
330
82
102
}
330
A
100
AcDbSymbolTableRecord
100
AcDbDimStyleTableRecord
  2
SLDDIMSTYLE0
 70
     0
 41
2.5
 44
0.0
 45
0.000000001
 73
     0
 74
     0
 77
     1
 78
    12
 79
     3
140
6.0
147
1.5
173
     1
178
     0
271
     2
272
     2
276
     2
284
    12
340
76
  0
ENDTAB
  0
TABLE
  2
BLOCK_RECORD
  5
1
330
0
100
AcDbSymbolTable
 70
     3
  0
BLOCK_RECORD
  5
1F
330
1
100
AcDbSymbolTableRecord
100
AcDbBlockTableRecord
  2
*Model_Space
340
22
  0
BLOCK_RECORD
  5
1B
330
1
100
AcDbSymbolTableRecord
100
AcDbBlockTableRecord
  2
*Paper_Space
340
1E
  0
BLOCK_RECORD
  5
23
330
1
100
AcDbSymbolTableRecord
100
AcDbBlockTableRecord
  2
*Paper_Space0
340
26
  0
BLOCK_RECORD
  5
78
330
1
100
AcDbSymbolTableRecord
100
AcDbBlockTableRecord
  2
_D
340
0
  0
BLOCK_RECORD
  5
83
330
1
100
AcDbSymbolTableRecord
100
AcDbBlockTableRecord
  2
_D_1
340
0
  0
ENDTAB
  0
ENDSEC
  0
SECTION
  2
BLOCKS
  0
BLOCK
  5
20
330
1F
100
AcDbEntity
  8
0
100
AcDbBlockBegin
  2
*Model_Space
 70
     0
 10
0.0
 20
0.0
 30
0.0
  3
*Model_Space
  1

  0
ENDBLK
  5
21
330
1F
100
AcDbEntity
  8
0
100
AcDbBlockEnd
  0
BLOCK
  5
1C
330
1B
100
AcDbEntity
 67
     1
  8
0
100
AcDbBlockBegin
  2
*Paper_Space
 70
     0
 10
0.0
 20
0.0
 30
0.0
  3
*Paper_Space
  1

  0
ENDBLK
  5
1D
330
1B
100
AcDbEntity
 67
     1
  8
0
100
AcDbBlockEnd
  0
BLOCK
  5
24
330
23
100
AcDbEntity
  8
0
100
AcDbBlockBegin
  2
*Paper_Space0
 70
     0
 10
0.0
 20
0.0
 30
0.0
  3
*Paper_Space0
  1

  0
ENDBLK
  5
25
330
23
100
AcDbEntity
  8
0
100
AcDbBlockEnd
  0
BLOCK
  5
79
330
78
100
AcDbEntity
  8
0
100
AcDbBlockBegin
  2
_D
 70
     0
 10
0.0
 20
0.0
 30
0.0
  3
_D
  1

  0
SOLID
  5
7B
330
78
100
AcDbEntity
  8
0
  6
Continuous
 62
     7
370
    18
100
AcDbTrace
 10
42.7614395004
 20
152.0299240879
 30
0.0
 11
42.4614395004
 21
149.5299240879
 31
0.0
 12
43.0614395004
 22
149.5299240879
 32
0.0
 13
43.0614395004
 23
149.5299240879
 33
0.0
  0
SOLID
  5
7C
330
78
100
AcDbEntity
  8
0
  6
Continuous
 62
     7
370
    18
100
AcDbTrace
 10
42.7614395004
 20
52.0299240879
 30
0.0
 11
43.0614395004
 21
54.5299240879
 31
0.0
 12
42.4614395004
 22
54.5299240879
 32
0.0
 13
42.4614395004
 23
54.5299240879
 33
0.0
  0
LINE
  5
7D
330
78
100
AcDbEntity
  8
0
  6
Continuous
 62
     7
370
     0
100
AcDbLine
 10
56.6850079902
 20
152.0299240879
 30
0.0
 11
41.7614395004
 21
152.0299240879
 31
0.0
  0
LINE
  5
7E
330
78
100
AcDbEntity
  8
0
  6
Continuous
 62
     7
370
     0
100
AcDbLine
 10
56.6850079902
 20
52.0299240879
 30
0.0
 11
41.7614395004
 21
52.0299240879
 31
0.0
  0
LINE
  5
7F
330
78
100
AcDbEntity
  8
0
  6
Continuous
 62
     7
370
     0
100
AcDbLine
 10
42.7614395004
 20
152.0299240879
 30
0.0
 11
42.7614395004
 21
52.0299240879
 31
0.0
  0
MTEXT
  5
80
330
78
100
AcDbEntity
  8
0
  6
Continuous
 62
     7
370
    18
100
AcDbMText
 10
35.0270332946
 20
94.3680541463
 30
0.0
 40
6.0
 41
0.0
 71
     1
 72
     1
  1
100
  7
SLDTEXTSTYLE0
 11
-7.044195017643634E-15
 21
1.0
 31
0.0
 73
     1
 44
1.0
  0
MTEXT
  5
81
330
78
100
AcDbEntity
  8
0
  6
Continuous
 62
     7
370
    18
100
AcDbMText
 10
35.0270332946
 20
105.7430548466
 30
0.0
 40
6.0
 41
0.0
 71
     1
 72
     1
  1
mm
  7
SLDTEXTSTYLE0
 11
-7.044195017643634E-15
 21
1.0
 31
0.0
 73
     1
 44
1.0
  0
ENDBLK
  5
7A
330
78
100
AcDbEntity
  8
0
100
AcDbBlockEnd
  0
BLOCK
  5
84
330
83
100
AcDbEntity
  8
0
100
AcDbBlockBegin
  2
_D_1
 70
     0
 10
0.0
 20
0.0
 30
0.0
  3
_D_1
  1

  0
SOLID
  5
86
330
83
100
AcDbEntity
  8
0
  6
Continuous
 62
     7
370
    18
100
AcDbTrace
 10
56.6850079902
 20
38.4602342313
 30
0.0
 11
59.1850079902
 21
38.1602342313
 31
0.0
 12
59.1850079902
 22
38.7602342313
 32
0.0
 13
59.1850079902
 23
38.7602342313
 33
0.0
  0
SOLID
  5
87
330
83
100
AcDbEntity
  8
0
  6
Continuous
 62
     7
370
    18
100
AcDbTrace
 10
156.6850079902
 20
38.4602342313
 30
0.0
 11
154.1850079902
 21
38.7602342313
 31
0.0
 12
154.1850079902
 22
38.1602342313
 32
0.0
 13
154.1850079902
 23
38.1602342313
 33
0.0
  0
LINE
  5
88
330
83
100
AcDbEntity
  8
0
  6
Continuous
 62
     7
370
     0
100
AcDbLine
 10
56.6850079902
 20
52.0299240879
 30
0.0
 11
56.6850079902
 21
37.4602342313
 31
0.0
  0
LINE
  5
89
330
83
100
AcDbEntity
  8
0
  6
Continuous
 62
     7
370
     0
100
AcDbLine
 10
156.6850079902
 20
52.0299240879
 30
0.0
 11
156.6850079902
 21
37.4602342313
 31
0.0
  0
LINE
  5
8A
330
83
100
AcDbEntity
  8
0
  6
Continuous
 62
     7
370
     0
100
AcDbLine
 10
56.6850079902
 20
38.4602342313
 30
0.0
 11
156.6850079902
 21
38.4602342313
 31
0.0
  0
MTEXT
  5
8B
330
83
100
AcDbEntity
  8
0
  6
Continuous
 62
     7
370
    18
100
AcDbMText
 10
93.9626484861
 20
46.1946404371
 30
0.0
 40
6.0
 41
0.0
 71
     1
 72
     1
  1
100
  7
SLDTEXTSTYLE0
 73
     1
 44
1.0
  0
MTEXT
  5
8C
330
83
100
AcDbEntity
  8
0
  6
Continuous
 62
     7
370
    18
100
AcDbMText
 10
105.3376491864
 20
46.1946404371
 30
0.0
 40
6.0
 41
0.0
 71
     1
 72
     1
  1
mm
  7
SLDTEXTSTYLE0
 73
     1
 44
1.0
  0
ENDBLK
  5
85
330
83
100
AcDbEntity
  8
0
100
AcDbBlockEnd
  0
ENDSEC
  0
SECTION
  2
ENTITIES
  0
LINE
  5
73
330
1F
100
AcDbEntity
  8
0
  6
Continuous
 62
     7
370
    18
100
AcDbLine
 10
56.6850079902
 20
152.0299240879
 30
0.0
 11
56.6850079902
 21
52.0299240879
 31
0.0
  0
LINE
  5
74
330
1F
100
AcDbEntity
  8
0
  6
Continuous
 62
     7
370
    18
100
AcDbLine
 10
56.6850079902
 20
52.0299240879
 30
0.0
 11
156.6850079902
 21
52.0299240879
 31
0.0
  0
DIMENSION
  5
75
330
1F
100
AcDbEntity
  8
0
  6
Continuous
 62
     7
370
    18
100
AcDbDimension
  2
_D
 10
42.7614395004
 20
52.0299240879
 30
0.0
 11
42.7614395004
 21
105.4472211621
 31
0.0
 70
   160
  1
<>mm
 71
     2
 42
-1.0
  3
SLDDIMSTYLE0
100
AcDbAlignedDimension
 13
56.6850079902
 23
152.0299240879
 33
0.0
 14
56.6850079902
 24
52.0299240879
 34
0.0
 50
90.0
100
AcDbRotatedDimension
  0
DIMENSION
  5
82
330
1F
100
AcDbEntity
  8
0
  6
Continuous
 62
     7
370
    18
100
AcDbDimension
  2
_D_1
 10
156.6850079902
 20
38.4602342313
 30
0.0
 11
105.0418155019
 21
38.4602342313
 31
0.0
 70
   160
  1
<>mm
 71
     2
 42
-1.0
  3
SLDDIMSTYLE0
100
AcDbAlignedDimension
 13
56.6850079902
 23
52.0299240879
 33
0.0
 14
156.6850079902
 24
52.0299240879
 34
0.0
100
AcDbRotatedDimension
  0
MTEXT
  5
8E
330
1F
100
AcDbEntity
  8
0
  6
Continuous
 62
     7
370
     0
100
AcDbMText
 10
412.8252631579
 20
48.4342449499
 30
0.0
 40
10.0
 41
0.0
 71
     1
 72
     1
  1
KLUDI GmbH & Co KG
  7
SLDTEXTSTYLE1
 73
     1
 44
1.0
  0
MTEXT
  5
8F
330
1F
100
AcDbEntity
  8
0
  6
Continuous
 62
     7
370
     0
100
AcDbMText
 10
210.0873490389
 20
48.4342449499
 30
0.0
 40
10.0
 41
0.0
 71
     1
 72
     1
  1
42 220 .. 75
  7
SLDTEXTSTYLE1
 73
     1
 44
1.0
  0
LINE
  5
90
330
1F
100
AcDbEntity
  8
0
  6
Continuous
 62
     7
370
    25
100
AcDbLine
 10
126.0629983542
 20
698.1957914683
 30
0.0
 11
126.0629983542
 21
690.7632140044
 31
0.0
  0
LINE
  5
91
330
1F
100
AcDbEntity
  8
0
  6
Continuous
 62
     7
370
    25
100
AcDbLine
 10
144.7629983542
 20
690.7632140044
 30
0.0
 11
144.7629983542
 21
698.1399489408
 31
0.0
  0
LINE
  5
92
330
1F
100
AcDbEntity
  8
0
  6
Continuous
 62
     7
370
    25
100
AcDbLine
 10
123.9129983542
 20
704.9132140044
 30
0.0
 11
123.9129983542
 21
654.9132140044
 31
0.0
  0
LINE
  5
93
330
1F
100
AcDbEntity
  8
0
  6
Continuous
 62
     7
370
    25
100
AcDbLine
 10
146.9129983542
 20
654.9132140044
 30
0.0
 11
146.9129983542
 21
704.9132140044
 31
0.0
  0
SPLINE
  5
94
330
1F
100
AcDbEntity
  8
0
  6
Continuous
 62
     7
370
    25
100
AcDbSpline
210
0.0
220
0.0
230
1.0
 70
     8
 71
     3
 72
    24
 73
    20
 74
     0
 42
0.00000001
 43
0.00000001
 40
0.0
 40
0.0
 40
0.0
 40
0.0
 40
0.0387662754008243
 40
0.1009872137852932
 40
0.1632253883324696
 40
0.2255466050048601
 40
0.2880507038758078
 40
0.3507940758460367
 40
0.4137889623928111
 40
0.4770135529554534
 40
0.5404243586527226
 40
0.6039612040299299
 40
0.6675363560125562
 40
0.7310668179228756
 40
0.794461588780268
 40
0.8576364768136091
 40
0.9205368703664646
 40
0.983159075693754
 40
0.9999999999999999
 40
0.9999999999999999
 40
0.9999999999999999
 40
0.9999999999999999
 10
234.5508719166082
 20
532.0457667641671
 30
0.0
 10
234.5387138607242
 20
532.3639463711825
 30
0.0
 10
234.5070417907079
 20
533.1928129998065
 30
0.0
 10
234.1862140452735
 20
534.5076070380487
 30
0.0
 10
233.5375361657152
 20
535.9136277686559
 30
0.0
 10
232.6106408071495
 20
537.1697909582115
 30
0.0
 10
231.4464862956511
 20
538.229107541639
 30
0.0
 10
230.086416402561
 20
539.0517963181558
 30
0.0
 10
228.5813403335997
 20
539.6056572348339
 30
0.0
 10
226.9879205894821
 20
539.8677285093368
 30
0.0
 10
225.3674699056965
 20
539.8256610800515
 30
0.0
 10
223.783606653724
 20
539.4787986794049
 30
0.0
 10
222.2996204801423
 20
538.838844360697
 30
0.0
 10
220.9755440797496
 20
537.9299092139876
 30
0.0
 10
219.8655707838313
 20
536.7879310666591
 30
0.0
 10
219.0137643161507
 20
535.4591320604623
 30
0.0
 10
218.4570655089416
 20
533.9986069039361
 30
0.0
 10
218.2646118644058
 20
532.8358025324511
 30
0.0
 10
218.2532746547212
 20
532.1839222418297
 30
0.0
 10
218.2508719166082
 20
532.0457667641671
 30
0.0
  0
SPLINE
  5
95
330
1F
100
AcDbEntity
  8
0
  6
Continuous
 62
     7
370
    25
100
AcDbSpline
210
0.0
220
0.0
230
1.0
 70
     8
 71
     3
 72
    17
 73
    13
 74
     0
 42
0.00000001
 43
0.00000001
 40
0.0
 40
0.0
 40
0.0
 40
0.0
 40
0.0052016596699433
 40
0.1210992984235348
 40
0.2450291883876375
 40
0.3726308063455573
 40
0.5019319927037309
 40
0.6397667414342615
 40
0.766292405739075
 40
0.8834769747901668
 40
0.9925427687084165
 40
1.0
 40
1.0
 40
1.0
 40
1.0
 10
162.4180002950923
 20
419.0799538554335
 30
0.0
 10
162.4165251046233
 20
419.0987520836857
 30
0.0
 10
162.3821813485578
 20
419.5363916828513
 30
0.0
 10
162.5328392269527
 20
420.4264968625405
 30
0.0
 10
162.8985303738887
 20
421.7079281043438
 30
0.0
 10
163.5587019528126
 20
422.9340838766465
 30
0.0
 10
164.473304768061
 20
424.0454515638327
 30
0.0
 10
165.5979730007159
 20
424.9405023160251
 30
0.0
 10
166.8404420625852
 20
425.5730193853054
 30
0.0
 10
168.0760929389287
 20
425.908042483526
 30
0.0
 10
168.9244047232097
 20
426.0371978836463
 30
0.0
 10
169.345887780692
 20
426.0092753400149
 30
0.0
 10
169.3728618198527
 20
426.0074883552903
 30
0.0
  0
SPLINE
  5
96
330
1F
100
AcDbEntity
  8
0
  6
Continuous
 62
     7
370
    25
100
AcDbSpline
210
0.0
220
0.0
230
1.0
 70
     8
 71
     3
 72
    16
 73
    12
 74
     0
 42
0.00000001
 43
0.00000001
 40
0.0
 40
0.0
 40
0.0
 40
0.0
 40
0.0743309470798088
 40
0.1968688389211941
 40
0.3233299626665642
 40
0.4516563123263563
 40
0.589872429230449
 40
0.7166229094501677
 40
0.8338965155006406
 40
0.9430316600136089
 40
0.9999999999999999
 40
0.9999999999999999
 40
0.9999999999999999
 40
0.9999999999999999
 10
169.3912711439946
 20
476.0378831680697
 30
0.0
 10
169.1195525175983
 20
476.0381923997789
 30
0.0
 10
168.399893578846
 20
476.0390114137957
 30
0.0
 10
167.2407237405314
 20
476.3179989754434
 30
0.0
 10
165.9700602916916
 20
476.8628908180577
 30
0.0
 10
164.7867854283853
 20
477.6918953407588
 30
0.0
 10
163.7993615834993
 20
478.7475477464855
 30
0.0
 10
163.0698972629156
 20
479.9483960881837
 30
0.0
 10
162.6294074510759
 20
481.1640324051584
 30
0.0
 10
162.4241122863251
 20
482.1867409911952
 30
0.0
 10
162.4318114531613
 20
482.7935505516859
 30
0.0
 10
162.4344520284344
 20
483.0016673979593
 30
0.0
  0
ARC
  5
97
330
1F
100
AcDbEntity
  8
0
  6
Continuous
 62
     7
370
    25
100
AcDbCircle
 10
108.7129983542
 20
376.3132140044
 30
0.0
 40
0.3000000000000114
100
AcDbArc
 50
180.0
 51
270.0
  0
ARC
  5
98
330
1F
100
AcDbEntity
  8
0
  6
Continuous
 62
     7
370
    25
100
AcDbCircle
 10
162.1129983542
 20
376.3132140044
 30
0.0
 40
0.3000000000000398
100
AcDbArc
 50
270.0
 51
0.0
  0
ARC
  5
99
330
1F
100
AcDbEntity
  8
0
  6
Continuous
 62
     7
370
    25
100
AcDbCircle
 10
108.6129983542
 20
489.5132140044
 30
0.0
 40
0.2000000000000028
100
AcDbArc
 50
90.0
 51
180.0
  0
ARC
  5
9A
330
1F
100
AcDbEntity
  8
0
  6
Continuous
 62
     7
370
    25
100
AcDbCircle
 10
162.2129983542
 20
489.5132140044
 30
0.0
 40
0.2000000000000171
100
AcDbArc
 50
0.0
 51
90.0
  0
LINE
  5
9B
330
1F
100
AcDbEntity
  8
0
  6
Continuous
 62
     7
370
    25
100
AcDbLine
 10
108.4129983542
 20
489.5132140044
 30
0.0
 11
108.4129983542
 21
376.3132140044
 31
0.0
  0
LINE
  5
9C
330
1F
100
AcDbEntity
  8
0
  6
Continuous
 62
     7
370
    25
100
AcDbLine
 10
162.4129983542
 20
483.0019632234
 30
0.0
 11
162.4129983542
 21
489.5132140044
 31
0.0
  0
LINE
  5
9D
330
1F
100
AcDbEntity
  8
0
  6
Continuous
 62
     7
370
    25
100
AcDbLine
 10
162.4129983542
 20
376.3132140044
 30
0.0
 11
162.4129983542
 21
419.0766952737
 31
0.0
  0
LINE
  5
9E
330
1F
100
AcDbEntity
  8
0
  6
Continuous
 62
     7
370
    25
100
AcDbLine
 10
108.4129983542
 20
523.0892810582
 30
0.0
 11
108.4129983542
 21
518.5132140044
 31
0.0
  0
LINE
  5
9F
330
1F
100
AcDbEntity
  8
0
  6
Continuous
 62
     7
370
    25
100
AcDbLine
 10
162.4129983542
 20
518.5132140044
 30
0.0
 11
162.4129983542
 21
523.0892810582
 31
0.0
  0
ARC
  5
A0
330
1F
100
AcDbEntity
  8
0
  6
Continuous
 62
     7
370
    25
100
AcDbCircle
 10
108.6129983542
 20
518.5132140044
 30
0.0
 40
0.1999999999999886
100
AcDbArc
 50
180.0
 51
270.0
  0
ARC
  5
A1
330
1F
100
AcDbEntity
  8
0
  6
Continuous
 62
     7
370
    25
100
AcDbCircle
 10
162.2129983542
 20
518.5132140044
 30
0.0
 40
0.2000000000000171
100
AcDbArc
 50
270.0
 51
0.0
  0
LINE
  5
A2
330
1F
100
AcDbEntity
  8
0
  6
Continuous
 62
     7
370
    25
100
AcDbLine
 10
108.4129983542
 20
518.0132140044
 30
0.0
 11
108.4129983542
 21
490.0132140044
 31
0.0
  0
LINE
  5
A3
330
1F
100
AcDbEntity
  8
0
  6
Continuous
 62
     7
370
    25
100
AcDbLine
 10
162.4129983542
 20
490.0132140044
 30
0.0
 11
162.4129983542
 21
518.0132140044
 31
0.0
  0
ARC
  5
A4
330
1F
100
AcDbEntity
  8
0
  6
Continuous
 62
     7
370
    25
100
AcDbCircle
 10
162.1129983542
 20
523.0892810582
 30
0.0
 40
0.3000000000000531
100
AcDbArc
 50
0.0
 51
89.5
  0
ARC
  5
A5
330
1F
100
AcDbEntity
  8
0
  6
Continuous
 62
     7
370
    25
100
AcDbCircle
 10
108.7129983542
 20
523.0892810582
 30
0.0
 40
0.3000000000000529
100
AcDbArc
 50
90.5
 51
180.0
  0
LINE
  5
A6
330
1F
100
AcDbEntity
  8
0
  6
Continuous
 62
     7
370
    25
100
AcDbLine
 10
162.1156163148
 20
523.3892696352
 30
0.0
 11
147.8629983542
 21
523.5136503478
 31
0.0
  0
LINE
  5
A7
330
1F
100
AcDbEntity
  8
0
  6
Continuous
 62
     7
370
    25
100
AcDbLine
 10
122.9629983542
 20
523.5136503478
 30
0.0
 11
108.7103803936
 21
523.3892696352
 31
0.0
  0
LINE
  5
A8
330
1F
100
AcDbEntity
  8
0
  6
Continuous
 62
     7
370
    25
100
AcDbLine
 10
108.9129983542
 20
518.3132140044
 30
0.0
 11
108.9129983542
 21
518.0132140044
 31
0.0
  0
LINE
  5
A9
330
1F
100
AcDbEntity
  8
0
  6
Continuous
 62
     7
370
    25
100
AcDbLine
 10
161.9129983542
 20
518.0132140044
 30
0.0
 11
161.9129983542
 21
518.3132140044
 31
0.0
  0
LINE
  5
AA
330
1F
100
AcDbEntity
  8
0
  6
Continuous
 62
     7
370
    25
100
AcDbLine
 10
161.9129983542
 20
489.7132140044
 30
0.0
 11
161.9129983542
 21
490.0132140044
 31
0.0
  0
LINE
  5
AB
330
1F
100
AcDbEntity
  8
0
  6
Continuous
 62
     7
370
    25
100
AcDbLine
 10
108.9129983542
 20
490.0132140044
 30
0.0
 11
108.9129983542
 21
489.7132140044
 31
0.0
  0
ARC
  5
AC
330
1F
100
AcDbEntity
  8
0
  6
Continuous
 62
     7
370
    25
100
AcDbCircle
 10
110.9129983542
 20
377.5132140044
 30
0.0
 40
2.000000000000012
100
AcDbArc
 50
228.5903778907
 51
270.0
  0
ARC
  5
AD
330
1F
100
AcDbEntity
  8
0
  6
Continuous
 62
     7
370
    25
100
AcDbCircle
 10
159.9129983542
 20
377.5132140044
 30
0.0
 40
2.000000000000003
100
AcDbArc
 50
270.0
 51
311.4096221093
  0
LINE
  5
AE
330
1F
100
AcDbEntity
  8
0
  6
Continuous
 62
     7
370
    25
100
AcDbLine
 10
110.9129983542
 20
375.5132140044
 30
0.0
 11
159.9129983542
 21
375.5132140044
 31
0.0
  0
ARC
  5
AF
330
1F
100
AcDbEntity
  8
0
  6
Continuous
 62
     7
370
    25
100
AcDbCircle
 10
195.1129983542
 20
426.3132140044
 30
0.0
 40
0.3000000000000114
100
AcDbArc
 50
270.0
 51
0.0
  0
ARC
  5
B0
330
1F
100
AcDbEntity
  8
0
  6
Continuous
 62
     7
370
    25
100
AcDbCircle
 10
195.1129983542
 20
475.7132140044
 30
0.0
 40
0.3000000000000114
100
AcDbArc
 50
0.0
 51
90.0
  0
LINE
  5
B1
330
1F
100
AcDbEntity
  8
0
  6
Continuous
 62
     7
370
    25
100
AcDbLine
 10
169.3737134502
 20
426.0132140044
 30
0.0
 11
195.1129983542
 21
426.0132140044
 31
0.0
  0
LINE
  5
B2
330
1F
100
AcDbEntity
  8
0
  6
Continuous
 62
     7
370
    25
100
AcDbLine
 10
195.1129983542
 20
476.0132140044
 30
0.0
 11
169.3912476878
 21
476.0132140044
 31
0.0
  0
LINE
  5
B3
330
1F
100
AcDbEntity
  8
0
  6
Continuous
 62
     7
370
    25
100
AcDbLine
 10
208.6616613302
 20
426.013199281
 30
0.0
 11
232.6908269767
 21
426.013199281
 31
0.0
  0
LINE
  5
B4
330
1F
100
AcDbEntity
  8
0
  6
Continuous
 62
     7
370
    25
100
AcDbLine
 10
214.0977204851
 20
476.013199281
 30
0.0
 11
212.2527306481
 21
476.013199281
 31
0.0
  0
LINE
  5
B5
330
1F
100
AcDbEntity
  8
0
  6
Continuous
 62
     7
370
    25
100
AcDbLine
 10
205.5979658601
 20
476.013199281
 30
0.0
 11
201.9253482541
 21
476.013199281
 31
0.0
  0
ARC
  5
B6
330
1F
100
AcDbEntity
  8
0
  6
Continuous
 62
     7
370
    25
100
AcDbCircle
 10
232.6908269767
 20
428.213199281
 30
0.0
 40
2.199999999999989
100
AcDbArc
 50
270.0
 51
350.7996163194
  0
LINE
  5
B7
330
1F
100
AcDbEntity
  8
0
  6
Continuous
 62
     7
370
    25
100
AcDbLine
 10
195.4129983542
 20
427.0132140044
 30
0.0
 11
196.8773725111
 21
427.0387747504
 31
0.0
  0
LINE
  5
B8
330
1F
100
AcDbEntity
  8
0
  6
Continuous
 62
     7
370
    25
100
AcDbLine
 10
196.8773725111
 20
474.9876532584
 30
0.0
 11
195.4129983542
 21
475.0132140044
 31
0.0
  0
ARC
  5
B9
330
1F
100
AcDbEntity
  8
0
  6
Continuous
 62
     7
370
    25
100
AcDbCircle
 10
192.9129983542
 20
451.0132140044
 30
0.0
 40
24.30000000000046
100
AcDbArc
 50
279.3893727434
 51
302.6643863686
  0
ARC
  5
BA
330
1F
100
AcDbEntity
  8
0
  6
Continuous
 62
     7
370
    25
100
AcDbCircle
 10
192.9129983542
 20
451.0132140044
 30
0.0
 40
24.30000000000047
100
AcDbArc
 50
68.2301871803
 51
80.6106272566
  0
ARC
  5
BB
330
1F
100
AcDbEntity
  8
0
  6
Continuous
 62
     7
370
    25
100
AcDbCircle
 10
91.9253482541
 20
451.013199281
 30
0.0
 40
144.8
100
AcDbArc
 50
350.7996163194
 51
0.0
  0
ARC
  5
BC
330
1F
100
AcDbEntity
  8
0
  6
Continuous
 62
     7
370
    25
100
AcDbCircle
 10
91.9253482541
 20
451.013199281
 30
0.0
 40
144.8
100
AcDbArc
 50
0.0
 51
9.2003836806
  0
LINE
  5
BD
330
1F
100
AcDbEntity
  8
0
  6
Continuous
 62
     7
370
    25
100
AcDbLine
 10
122.9629983542
 20
523.7132140044
 30
0.0
 11
122.9629983542
 21
523.5136503478
 31
0.0
  0
LINE
  5
BE
330
1F
100
AcDbEntity
  8
0
  6
Continuous
 62
     7
370
    25
100
AcDbLine
 10
147.8629983542
 20
523.5136503478
 30
0.0
 11
147.8629983542
 21
523.7132140044
 31
0.0
  0
LINE
  5
BF
330
1F
100
AcDbEntity
  8
0
  6
Continuous
 62
     7
370
    25
100
AcDbLine
 10
212.8900939993
 20
475.0156427772
 30
0.0
 11
212.6734391132
 21
475.57006903
 31
0.0
  0
LINE
  5
C0
330
1F
100
AcDbEntity
  8
0
  6
Continuous
 62
     7
370
    25
100
AcDbLine
 10
205.177257395
 20
475.57006903
 30
0.0
 11
204.9606025089
 21
475.0156427772
 31
0.0
  0
LINE
  5
C1
330
1F
100
AcDbEntity
  8
0
  6
Continuous
 62
     7
370
    25
100
AcDbLine
 10
212.9253482541
 20
474.4981308226
 30
0.0
 11
212.9253482541
 21
474.8344072179
 31
0.0
  0
LINE
  5
C2
330
1F
100
AcDbEntity
  8
0
  6
Continuous
 62
     7
370
    25
100
AcDbLine
 10
204.9253482541
 20
474.8344072179
 30
0.0
 11
204.9253482541
 21
474.504641943
 31
0.0
  0
LINE
  5
C3
330
1F
100
AcDbEntity
  8
0
  6
Continuous
 62
     7
370
    25
100
AcDbLine
 10
123.9129983542
 20
654.9132140044
 30
0.0
 11
123.9129983542
 21
523.7132140044
 31
0.0
  0
LINE
  5
C4
330
1F
100
AcDbEntity
  8
0
  6
Continuous
 62
     7
370
    25
100
AcDbLine
 10
146.9129983542
 20
523.7132140044
 30
0.0
 11
146.9129983542
 21
654.9132140044
 31
0.0
  0
CIRCLE
  5
C5
330
1F
100
AcDbEntity
  8
0
  6
Continuous
 62
     7
370
    25
100
AcDbCircle
 10
135.4129983542
 20
704.9132140044
 30
0.0
 40
11.5
  0
LINE
  5
C6
330
1F
100
AcDbEntity
  8
0
  6
Continuous
 62
     7
370
    25
100
AcDbLine
 10
135.4129983542
 20
690.7632140044
 30
0.0
 11
144.7629983542
 21
690.7632140044
 31
0.0
  0
LINE
  5
C7
330
1F
100
AcDbEntity
  8
0
  6
Continuous
 62
     7
370
    25
100
AcDbLine
 10
126.0629983542
 20
690.7632140044
 30
0.0
 11
135.4129983542
 21
690.7632140044
 31
0.0
  0
LWPOLYLINE
  5
C8
330
1F
100
AcDbEntity
  8
0
  6
Continuous
 62
     7
370
    25
100
AcDbPolyline
 90
        3
 70
   128
 43
0.0
 10
218.2508719166
 20
530.5750801479
 10
218.4289689706
 20
532.1673707632
 10
218.5370642454
 20
532.5867750476
  0
LINE
  5
C9
330
1F
100
AcDbEntity
  8
0
  6
Continuous
 62
     7
370
    25
100
AcDbLine
 10
218.2508719166
 20
530.5750801479
 30
0.0
 11
218.2508719166
 21
532.0457667642
 31
0.0
  0
LINE
  5
CA
330
1F
100
AcDbEntity
  8
0
  6
Continuous
 62
     7
370
    25
100
AcDbLine
 10
234.5508719166
 20
530.5750801479
 30
0.0
 11
234.5508719166
 21
532.0457667642
 31
0.0
  0
LINE
  5
CB
330
1F
100
AcDbEntity
  8
0
  6
Continuous
 62
     7
370
    25
100
AcDbLine
 10
234.5508719166
 20
530.5750801479
 30
0.0
 11
234.5508719166
 21
476.7219400062
 31
0.0
  0
LINE
  5
CC
330
1F
100
AcDbEntity
  8
0
  6
Continuous
 62
     7
370
    25
100
AcDbLine
 10
218.2508719166
 20
477.9250677326
 30
0.0
 11
218.2508719166
 21
530.5750801479
 31
0.0
  0
LINE
  5
CD
330
1F
100
AcDbEntity
  8
0
  6
Continuous
 62
     7
370
    25
100
AcDbLine
 10
135.4129983542
 20
376.0132140044
 30
0.0
 11
108.7129983542
 21
376.0132140044
 31
0.0
  0
LINE
  5
CE
330
1F
100
AcDbEntity
  8
0
  6
Continuous
 62
     7
370
    25
100
AcDbLine
 10
162.1129983542
 20
376.0132140044
 30
0.0
 11
135.4129983542
 21
376.0132140044
 31
0.0
  0
LINE
  5
CF
330
1F
100
AcDbEntity
  8
0
  6
Continuous
 62
     7
370
    25
100
AcDbLine
 10
135.4129983542
 20
489.7132140044
 30
0.0
 11
162.2129983542
 21
489.7132140044
 31
0.0
  0
LINE
  5
D0
330
1F
100
AcDbEntity
  8
0
  6
Continuous
 62
     7
370
    25
100
AcDbLine
 10
108.6129983542
 20
489.7132140044
 30
0.0
 11
135.4129983542
 21
489.7132140044
 31
0.0
  0
LINE
  5
D1
330
1F
100
AcDbEntity
  8
0
  6
Continuous
 62
     7
370
    25
100
AcDbLine
 10
135.4129983542
 20
518.3132140044
 30
0.0
 11
108.6129983542
 21
518.3132140044
 31
0.0
  0
LINE
  5
D2
330
1F
100
AcDbEntity
  8
0
  6
Continuous
 62
     7
370
    25
100
AcDbLine
 10
162.2129983542
 20
518.3132140044
 30
0.0
 11
135.4129983542
 21
518.3132140044
 31
0.0
  0
LINE
  5
D3
330
1F
100
AcDbEntity
  8
0
  6
Continuous
 62
     7
370
    25
100
AcDbLine
 10
135.4129983542
 20
490.0132140044
 30
0.0
 11
162.4129983542
 21
490.0132140044
 31
0.0
  0
LINE
  5
D4
330
1F
100
AcDbEntity
  8
0
  6
Continuous
 62
     7
370
    25
100
AcDbLine
 10
108.4129983542
 20
490.0132140044
 30
0.0
 11
135.4129983542
 21
490.0132140044
 31
0.0
  0
LINE
  5
D5
330
1F
100
AcDbEntity
  8
0
  6
Continuous
 62
     7
370
    25
100
AcDbLine
 10
135.4129983542
 20
518.0132140044
 30
0.0
 11
162.4129983542
 21
518.0132140044
 31
0.0
  0
LINE
  5
D6
330
1F
100
AcDbEntity
  8
0
  6
Continuous
 62
     7
370
    25
100
AcDbLine
 10
108.4129983542
 20
518.0132140044
 30
0.0
 11
135.4129983542
 21
518.0132140044
 31
0.0
  0
LINE
  5
D7
330
1F
100
AcDbEntity
  8
0
  6
Continuous
 62
     7
370
    25
100
AcDbLine
 10
122.9629983542
 20
523.5136503478
 30
0.0
 11
147.8629983542
 21
523.5136503478
 31
0.0
  0
LINE
  5
D8
330
1F
100
AcDbEntity
  8
0
  6
Continuous
 62
     7
370
    25
100
AcDbLine
 10
195.4129983542
 20
451.0132140044
 30
0.0
 11
195.4129983542
 21
426.3132140044
 31
0.0
  0
LINE
  5
D9
330
1F
100
AcDbEntity
  8
0
  6
Continuous
 62
     7
370
    25
100
AcDbLine
 10
195.4129983542
 20
475.7132140044
 30
0.0
 11
195.4129983542
 21
451.0132140044
 31
0.0
  0
SPLINE
  5
DA
330
1F
100
AcDbEntity
  8
0
  6
Continuous
 62
     7
370
    25
100
AcDbSpline
210
0.0
220
0.0
230
1.0
 70
     8
 71
     3
 72
    10
 73
     6
 74
     0
 42
0.00000001
 43
0.00000001
 40
0.0
 40
0.0
 40
0.0
 40
0.0
 40
0.5
 40
0.5
 40
1.0
 40
1.0
 40
1.0
 40
1.0
 10
201.9253482541165
 20
445.4337748901663
 30
0.0
 10
201.9253482541165
 20
444.4216628006549
 30
0.0
 10
201.9973687665642
 20
443.441534952286
 30
0.0
 10
202.2814099312709
 20
441.5412411992305
 30
0.0
 10
202.4934294950351
 20
440.621095419272
 30
0.0
 10
202.7775909434735
 20
439.7304530589813
 30
0.0
  0
LINE
  5
DB
330
1F
100
AcDbEntity
  8
0
  6
Continuous
 62
     7
370
    25
100
AcDbLine
 10
201.9253482541
 20
445.4337748902
 30
0.0
 11
201.9253482541
 21
476.013199281
 31
0.0
  0
ELLIPSE
  5
DC
330
1F
100
AcDbEntity
  8
0
  6
Continuous
 62
     7
370
    25
100
AcDbEllipse
 10
201.9253482541
 20
451.013199281
 30
0.0
 11
-6.795130988579672
 21
24.99228780441968
 31
0.0
210
0.0
220
0.0
230
1.0
 40
0.0913782192
 41
2.014189324901273
 42
3.116753020528646
  0
SPLINE
  5
DD
330
1F
100
AcDbEntity
  8
0
  6
Continuous
 62
     7
370
    25
100
AcDbSpline
210
0.0
220
0.0
230
1.0
 70
     8
 71
     3
 72
    12
 73
     8
 74
     0
 42
0.00000001
 43
0.00000001
 40
0.0
 40
0.0
 40
0.0
 40
0.0
 40
0.2128665248245111
 40
0.4256666242015736
 40
0.6401865921063861
 40
0.8558610503029738
 40
1.0
 40
1.0
 40
1.0
 40
1.0
 10
208.9253482541165
 20
472.8347830633442
 30
0.0
 10
209.3716832687596
 20
472.8565168994447
 30
0.0
 10
210.2642140182643
 20
472.8999777895566
 30
0.0
 10
211.4584990814972
 20
473.2277710550028
 30
0.0
 10
212.3577166556127
 20
473.6755775073381
 30
0.0
 10
212.8749097067883
 20
474.1362809690807
 30
0.0
 10
212.8755266691922
 20
474.3953425766785
 30
0.0
 10
212.8757738203848
 20
474.4991209996243
 30
0.0
  0
SPLINE
  5
DE
330
1F
100
AcDbEntity
  8
0
  6
Continuous
 62
     7
370
    25
100
AcDbSpline
210
0.0
220
0.0
230
1.0
 70
     8
 71
     3
 72
    12
 73
     8
 74
     0
 42
0.00000001
 43
0.00000001
 40
0.0
 40
0.0
 40
0.0
 40
0.0
 40
0.2063911997713017
 40
0.4184789910362607
 40
0.6328361940342578
 40
0.8484713859361389
 40
1.0
 40
1.0
 40
1.0
 40
1.0
 10
204.9313011243539
 20
474.50496563195
 30
0.0
 10
204.9698553055644
 20
474.350820717296
 30
0.0
 10
205.0480277996973
 20
474.0382763431693
 30
0.0
 10
205.7092098759578
 20
473.5406545818894
 30
0.0
 10
206.7023288134683
 20
473.1216722161556
 30
0.0
 10
207.8401113126849
 20
472.8727114255242
 30
0.0
 10
208.6083117150889
 20
472.8458632949668
 30
0.0
 10
208.9253482541165
 20
472.8347830633442
 30
0.0
  0
LINE
  5
DF
330
1F
100
AcDbEntity
  8
0
  6
Continuous
 62
     7
370
    25
100
AcDbLine
 10
196.8773725111
 20
427.0387747504
 30
0.0
 11
196.8773725111
 21
474.9876532584
 31
0.0
  0
SPLINE
  5
E0
330
1F
100
AcDbEntity
  8
0
  6
Continuous
 62
     7
370
    25
100
AcDbSpline
210
0.0
220
0.0
230
1.0
 70
     8
 71
     3
 72
     8
 73
     4
 74
     0
 42
0.00000001
 43
0.00000001
 40
0.0
 40
0.0
 40
0.0
 40
0.0
 40
1.0
 40
1.0
 40
1.0
 40
1.0
 10
234.5508719166083
 20
473.2942646124355
 30
0.0
 10
234.5508719166083
 20
473.2543171542639
 30
0.0
 10
234.5472822591808
 20
473.2315357700808
 30
0.0
 10
234.5375584407815
 20
473.2489334070918
 30
0.0
  0
SPLINE
  5
E1
330
1F
100
AcDbEntity
  8
0
  6
Continuous
 62
     7
370
    25
100
AcDbSpline
210
0.0
220
0.0
230
1.0
 70
     8
 71
     3
 72
    22
 73
    18
 74
     0
 42
0.00000001
 43
0.00000001
 40
0.0
 40
0.0
 40
0.0
 40
0.0
 40
0.1250000000000024
 40
0.1250000000000024
 40
0.1875000000000037
 40
0.1875000000000037
 40
0.250000000000005
 40
0.250000000000005
 40
0.375000000000003
 40
0.375000000000003
 40
0.500000000000001
 40
0.500000000000001
 40
0.7500000000000006
 40
0.7500000000000006
 40
0.8750000000000002
 40
0.8750000000000002
 40
1.0
 40
1.0
 40
1.0
 40
1.0
 10
218.1684079032129
 20
478.5963636834036
 30
0.0
 10
218.0981187963272
 20
478.2589301181453
 30
0.0
 10
217.9881731921539
 20
477.9671092306579
 30
0.0
 10
217.7796603073796
 20
477.5826066875564
 30
0.0
 10
217.7035829020054
 20
477.4650870585822
 30
0.0
 10
217.5439779012082
 20
477.2515139421839
 30
0.0
 10
217.4601871882959
 20
477.1548905400803
 30
0.0
 10
217.1992819707808
 20
476.8892783233269
 30
0.0
 10
217.0114217533111
 20
476.7436009062882
 30
0.0
 10
216.6275583572832
 20
476.5022439611232
 30
0.0
 10
216.4308456241811
 20
476.4056866394305
 30
0.0
 10
215.830967180911
 20
476.1664483127313
 30
0.0
 10
215.4168038762656
 20
476.0731299692989
 30
0.0
 10
214.7945408510106
 20
475.9964169456108
 30
0.0
 10
214.5864745119892
 20
475.9816503808037
 30
0.0
 10
214.1693514445943
 20
475.971063882654
 30
0.0
 10
213.9591757380186
 20
475.9753293590002
 30
0.0
 10
213.7508719166083
 20
475.9885910621434
 30
0.0
  0
SPLINE
  5
E2
330
1F
100
AcDbEntity
  8
0
  6
Continuous
 62
     7
370
    25
100
AcDbSpline
210
0.0
220
0.0
230
1.0
 70
     8
 71
     3
 72
    20
 73
    16
 74
     0
 42
0.00000001
 43
0.00000001
 40
0.0
 40
0.0
 40
0.0
 40
0.0
 40
0.2499999999999942
 40
0.2499999999999942
 40
0.3749999999999951
 40
0.3749999999999951
 40
0.4999999999999961
 40
0.4999999999999961
 40
0.6249999999999971
 40
0.6249999999999971
 40
0.749999999999998
 40
0.749999999999998
 40
0.874999999999999
 40
0.874999999999999
 40
1.0
 40
1.0
 40
1.0
 40
1.0
 10
234.5375584407815
 20
473.248933407092
 30
0.0
 10
234.5078528531189
 20
473.3020819759078
 30
0.0
 10
234.430010611216
 20
473.3497577671845
 30
0.0
 10
234.2451158219271
 20
473.4112675976945
 30
0.0
 10
234.1733864830651
 20
473.4296463735149
 30
0.0
 10
234.0102785255619
 20
473.462264129076
 30
0.0
 10
233.9177987042002
 20
473.4766142464762
 30
0.0
 10
233.7180183866758
 20
473.5001904876452
 30
0.0
 10
233.6110555569828
 20
473.5094660859647
 30
0.0
 10
233.3831656670225
 20
473.5230383920534
 30
0.0
 10
233.2610695743154
 20
473.5273148166254
 30
0.0
 10
233.011598403196
 20
473.5304403579183
 30
0.0
 10
232.8835140784277
 20
473.5293803907392
 30
0.0
 10
232.6206307813682
 20
473.5219828076234
 30
0.0
 10
232.4838742373422
 20
473.5154720926459
 30
0.0
 10
232.3508719166082
 20
473.5066198325607
 30
0.0
  0
LINE
  5
E3
330
1F
100
AcDbEntity
  8
0
  6
Continuous
 62
     7
370
    25
100
AcDbLine
 10
234.5508719166
 20
476.7219400062
 30
0.0
 11
234.5508719166
 21
473.2942646124
 31
0.0
  0
LINE
  5
E4
330
1F
100
AcDbEntity
  8
0
  6
Continuous
 62
     7
370
    25
100
AcDbLine
 10
135.4129983542
 20
523.7132140044
 30
0.0
 11
147.8629983542
 21
523.7132140044
 31
0.0
  0
LINE
  5
E5
330
1F
100
AcDbEntity
  8
0
  6
Continuous
 62
     7
370
    25
100
AcDbLine
 10
122.9629983542
 20
523.7132140044
 30
0.0
 11
135.4129983542
 21
523.7132140044
 31
0.0
  0
LWPOLYLINE
  5
E6
330
1F
100
AcDbEntity
  8
0
  6
Continuous
 62
     7
370
    25
100
AcDbPolyline
 90
       20
 70
   128
 43
0.0
 10
208.9253482541
 20
476.7419649353
 10
207.7662743296
 20
476.6758130308
 10
206.7328040498
 20
476.4845259027
 10
205.9369299553
 20
476.1888324795
 10
205.4648973535
 20
475.8207757317
 10
205.3678583013
 20
475.4202403188
 10
205.6563284856
 20
475.030630468
 10
206.2990476859
 20
474.6941664518
 10
207.226367304
 20
474.4473093673
 10
208.3377978705
 20
474.3168100099
 10
209.5128986378
 20
474.3168100099
 10
210.6243292042
 20
474.4473093673
 10
211.5516488223
 20
474.6941664518
 10
212.1943680226
 20
475.030630468
 10
212.4828382069
 20
475.4202403188
 10
212.3857991547
 20
475.8207757317
 10
211.913766553
 20
476.1888324795
 10
211.1178924585
 20
476.4845259027
 10
210.0844221786
 20
476.6758130308
 10
208.9253482541
 20
476.7419649353
  0
LWPOLYLINE
  5
E7
330
1F
100
AcDbEntity
  8
0
  6
Continuous
 62
     7
370
    25
100
AcDbPolyline
 90
        7
 70
   128
 43
0.0
 10
208.9253482541
 20
473.4663266446
 10
207.7463275565
 20
473.5271066259
 10
206.6720680219
 20
473.7040460018
 10
205.7980223242
 20
473.9814229323
 10
205.2018532595
 20
474.3345912598
 10
204.9365330654
 20
474.7321704286
 10
204.9606025089
 20
475.0156427772
  0
LWPOLYLINE
  5
E8
330
1F
100
AcDbEntity
  8
0
  6
Continuous
 62
     7
370
    25
100
AcDbPolyline
 90
        7
 70
   128
 43
0.0
 10
212.8900939993
 20
475.0156427772
 10
212.9141634428
 20
474.7321704286
 10
212.6488432487
 20
474.3345912598
 10
212.052674184
 20
473.9814229323
 10
211.1786284864
 20
473.7040460018
 10
210.1043689518
 20
473.5271066259
 10
208.9253482541
 20
473.4663266446
  0
SPLINE
  5
E9
330
1F
100
AcDbEntity
  8
0
  6
Continuous
 62
     7
370
    25
100
AcDbSpline
210
0.0
220
0.0
230
1.0
 70
     8
 71
     3
 72
     9
 73
     5
 74
     0
 42
0.00000001
 43
0.00000001
 40
0.0
 40
0.0
 40
0.0
 40
0.0
 40
0.0420882453872256
 40
0.9999999999999999
 40
0.9999999999999999
 40
0.9999999999999999
 40
0.9999999999999999
 10
213.7508719166083
 20
475.9885910621434
 30
0.0
 10
213.7555813236616
 20
475.9884649178082
 30
0.0
 10
213.86747496546
 20
475.9854677784884
 30
0.0
 10
213.9790581371044
 20
475.9915718877807
 30
0.0
 10
214.0859449688395
 20
475.9974190858231
 30
0.0
  0
CIRCLE
  5
EA
330
1F
100
AcDbEntity
  8
0
  6
Continuous
 62
     8
370
    18
100
AcDbCircle
 10
135.4129983542
 20
704.9132140044
 30
0.0
 40
10.5
  0
LINE
  5
EB
330
1F
100
AcDbEntity
  8
0
  6
Continuous
 62
     8
370
    18
100
AcDbLine
 10
123.9129983542
 20
654.9132140044
 30
0.0
 11
146.9129983542
 21
654.9132140044
 31
0.0
  0
ARC
  5
EC
330
1F
100
AcDbEntity
  8
0
  6
Continuous
 62
     8
370
    18
100
AcDbCircle
 10
226.3613938342
 20
530.1275715873
 30
0.0
 40
8.201695871808754
100
AcDbArc
 50
3.1277788962
 51
162.5519555502
  0
ARC
  5
ED
330
1F
100
AcDbEntity
  8
0
  6
Continuous
 62
     8
370
    18
100
AcDbCircle
 10
226.4008719166
 20
529.5246065389
 30
0.0
 40
5.957459312482973
100
AcDbArc
 50
2.8674893493
 51
177.1325106507
  0
LINE
  5
EE
330
1F
100
AcDbEntity
  8
0
  6
Continuous
 62
     8
370
    18
100
AcDbLine
 10
232.3508719166
 20
475.9694956909
 30
0.0
 11
232.3508719166
 21
529.8226358326
 31
0.0
  0
SPLINE
  5
EF
330
1F
100
AcDbEntity
  8
0
  6
Continuous
 62
     8
370
    18
100
AcDbSpline
210
0.0
220
0.0
230
1.0
 70
     8
 71
     3
 72
     8
 73
     4
 74
     0
 42
0.00000001
 43
0.00000001
 40
0.0
 40
0.0
 40
0.0
 40
0.0
 40
1.0
 40
1.0
 40
1.0
 40
1.0
 10
220.4508719166083
 20
477.1726234173184
 30
0.0
 10
220.4508719166083
 20
476.7678928312754
 30
0.0
 10
220.4099393476865
 20
476.3668507950688
 30
0.0
 10
220.3280921633307
 20
475.9694956908588
 30
0.0
  0
LINE
  5
F0
330
1F
100
AcDbEntity
  8
0
  6
Continuous
 62
     8
370
    18
100
AcDbLine
 10
220.4508719166
 20
529.8226358326
 30
0.0
 11
220.4508719166
 21
477.1726234173
 31
0.0
  0
LWPOLYLINE
  5
F1
330
1F
100
AcDbEntity
  8
0
  6
Continuous
 62
     8
370
    18
100
AcDbPolyline
 90
       16
 70
   128
 43
0.0
 10
234.5508719166
 20
532.0457667642
 10
234.3727748626
 20
533.6380573795
 10
233.8462673964
 20
535.1607572543
 10
232.9943604208
 20
536.5473170973
 10
231.8542863584
 20
537.7371375899
 10
230.4758719166
 20
538.6782178672
 10
228.9193604208
 20
539.3294282052
 10
227.2527788922
 20
539.6623075874
 10
225.548964941
 20
539.6623075874
 10
223.8823834125
 20
539.3294282052
 10
222.3258719166
 20
538.6782178672
 10
220.9474574748
 20
537.7371375899
 10
219.8073834125
 20
536.5473170973
 10
218.9554764368
 20
535.1607572543
 10
218.4289689706
 20
533.6380573795
 10
218.2508719166
 20
532.0457667642
  0
SPLINE
  5
F2
330
1F
100
AcDbEntity
  8
0
  6
Continuous
 62
     8
370
    18
100
AcDbSpline
210
0.0
220
0.0
230
1.0
 70
     8
 71
     3
 72
    21
 73
    17
 74
     0
 42
0.00000001
 43
0.00000001
 40
0.0
 40
0.0
 40
0.0
 40
0.0
 40
0.0105394229425435
 40
0.0739261147082757
 40
0.0809361052921755
 40
0.1283182503364111
 40
0.1765366206132292
 40
0.2989837062956383
 40
0.4238296241060028
 40
0.5414754610921444
 40
0.6617929401900141
 40
0.7350814268703183
 40
0.809827356672022
 40
0.8766119979344832
 40
0.9454288595705092
 40
1.0
 40
1.0
 40
1.0
 40
1.0
 10
146.9021236472745
 20
451.0132140043764
 30
0.0
 10
146.9056521128877
 20
450.8506290970117
 30
0.0
 10
146.9304016418785
 20
449.710218414453
 30
0.0
 10
147.2992349962029
 20
448.477884607678
 30
0.0
 10
148.053635657727
 20
446.8424262187301
 30
0.0
 10
148.8544706158825
 20
445.4912032615837
 30
0.0
 10
150.832494636984
 20
442.8579160702405
 30
0.0
 10
153.854356165784
 20
439.6696248599396
 30
0.0
 10
157.6446236175189
 20
436.1108753314887
 30
0.0
 10
161.2793092417147
 20
432.8922550665818
 30
0.0
 10
164.1356565241293
 20
430.4417289123732
 30
0.0
 10
166.2618263857636
 20
428.6444608685368
 30
0.0
 10
167.6893393744927
 20
427.448044612418
 30
0.0
 10
168.7223989298779
 20
426.5868505193164
 30
0.0
 10
169.3314090863698
 20
426.0809165292754
 30
0.0
 10
169.3617366056085
 20
426.0557631615855
 30
0.0
 10
169.375149638347
 20
426.0446385146384
 30
0.0
  0
SPLINE
  5
F3
330
1F
100
AcDbEntity
  8
0
  6
Continuous
 62
     8
370
    18
100
AcDbSpline
210
0.0
220
0.0
230
1.0
 70
     8
 71
     3
 72
    20
 73
    16
 74
     0
 42
0.00000001
 43
0.00000001
 40
0.0
 40
0.0
 40
0.0
 40
0.0
 40
0.0565270828323469
 40
0.1232805625348306
 40
0.1501033168626591
 40
0.2297265544601465
 40
0.31181999594002
 40
0.3785916765771407
 40
0.4453948856941975
 40
0.583658739006975
 40
0.7072912860509671
 40
0.8331349304593606
 40
0.8860931133189209
 40
0.9402038042641457
 40
0.9999999999999999
 40
0.9999999999999999
 40
0.9999999999999999
 40
0.9999999999999999
 10
169.389921571789
 20
475.9940530212328
 30
0.0
 10
169.3663645248201
 20
475.9745084652055
 30
0.0
 10
169.3149886912111
 20
475.9318835190591
 30
0.0
 10
168.8282880069696
 20
475.5275181809549
 30
0.0
 10
168.0705072373833
 20
474.8962061692408
 30
0.0
 10
166.9690640129421
 20
473.9760866722298
 30
0.0
 10
165.2666920335036
 20
472.5427030531568
 30
0.0
 10
163.4297554700773
 20
470.9796770305012
 30
0.0
 10
160.9219683436444
 20
468.8172590268912
 30
0.0
 10
157.6237227659404
 20
465.9049547992881
 30
0.0
 10
153.6059434318817
 20
462.1086421747085
 30
0.0
 10
150.5138905400134
 20
458.8264137981326
 30
0.0
 10
148.4775736191673
 20
455.9617523503318
 30
0.0
 10
147.2283641664924
 20
453.6959420022293
 30
0.0
 10
147.014429898106
 20
451.9367262773516
 30
0.0
 10
146.9021236472745
 20
451.0132140043764
 30
0.0
  0
SPLINE
  5
F4
330
1F
100
AcDbEntity
  8
0
  6
Continuous
 62
     8
370
    18
100
AcDbSpline
210
0.0
220
0.0
230
1.0
 70
     8
 71
     3
 72
    20
 73
    16
 74
     0
 42
0.00000001
 43
0.00000001
 40
0.0
 40
0.0
 40
0.0
 40
0.0
 40
0.0711598693892021
 40
0.1298648844719478
 40
0.1886766555252255
 40
0.3137431002612208
 40
0.4389163849022037
 40
0.5265067712946759
 40
0.6143133996723439
 40
0.7016466044409944
 40
0.7791588435500926
 40
0.856539249509132
 40
0.9153288376058029
 40
0.9740768307398465
 40
1.0
 40
1.0
 40
1.0
 40
1.0
 10
144.5367154986999
 20
451.0132140043764
 30
0.0
 10
144.6211581362901
 20
452.1813454537109
 30
0.0
 10
144.7752637223357
 20
454.3131545339972
 30
0.0
 10
145.7444561591692
 20
457.2503840553449
 30
0.0
 10
147.32219110244
 20
460.8343041003629
 30
0.0
 10
149.7597470350105
 20
465.1071740320595
 30
0.0
 10
152.6146205598911
 20
469.4043284667342
 30
0.0
 10
155.0857194279028
 20
472.9800644119446
 30
0.0
 10
157.1516425792789
 20
475.8710029219587
 30
0.0
 10
158.9678690423365
 20
478.3634312314631
 30
0.0
 10
160.4623970567649
 20
480.3926625932289
 30
0.0
 10
161.5046575684605
 20
481.7957965641374
 30
0.0
 10
162.1324423803257
 20
482.6378994723475
 30
0.0
 10
162.3911898910316
 20
482.984024432325
 30
0.0
 10
162.4010810804155
 20
482.9972660771988
 30
0.0
 10
162.404109395716
 20
483.0013201776935
 30
0.0
  0
SPLINE
  5
F5
330
1F
100
AcDbEntity
  8
0
  6
Continuous
 62
     8
370
    18
100
AcDbSpline
210
0.0
220
0.0
230
1.0
 70
     8
 71
     3
 72
    20
 73
    16
 74
     0
 42
0.00000001
 43
0.00000001
 40
0.0
 40
0.0
 40
0.0
 40
0.0
 40
0.0416481444599023
 40
0.0522165725637399
 40
0.1170277424015146
 40
0.1819106928832255
 40
0.2528329250397297
 40
0.3238378709648004
 40
0.4387786258066196
 40
0.553927087311302
 40
0.6776957236247786
 40
0.8013877105929468
 40
0.9047150586448297
 40
0.9873177542837951
 40
1.0
 40
1.0
 40
1.0
 40
1.0
 10
162.3659812577038
 20
419.0760573830038
 30
0.0
 10
162.3748206567499
 20
419.0642554965484
 30
0.0
 10
162.3859030981816
 20
419.0494588214868
 30
0.0
 10
162.2180265155347
 20
419.2741666978648
 30
0.0
 10
161.8731433409395
 20
419.735887639715
 30
0.0
 10
161.0504071798798
 20
420.8415149271686
 30
0.0
 10
159.9133329055169
 20
422.3772563702856
 30
0.0
 10
158.2303388070033
 20
424.6713546495425
 30
0.0
 10
155.9492719137444
 20
427.8194605869281
 30
0.0
 10
153.0527779672272
 20
431.9692811639816
 30
0.0
 10
149.9852951435342
 20
436.5652847896756
 30
0.0
 10
147.199260457407
 20
441.3849949136856
 30
0.0
 10
145.1909941490405
 20
446.0044495493327
 30
0.0
 10
144.5607317872062
 20
449.2421351357094
 30
0.0
 10
144.5395365453558
 20
450.805176192107
 30
0.0
 10
144.5367154986999
 20
451.0132140043764
 30
0.0
  0
LINE
  5
F6
330
1F
100
AcDbEntity
  8
0
  6
Continuous
 62
     8
370
    18
100
AcDbLine
 10
135.4129983542
 20
376.3132140044
 30
0.0
 11
162.4129983542
 21
376.3132140044
 31
0.0
  0
LINE
  5
F7
330
1F
100
AcDbEntity
  8
0
  6
Continuous
 62
     8
370
    18
100
AcDbLine
 10
108.4129983542
 20
376.3132140044
 30
0.0
 11
135.4129983542
 21
376.3132140044
 31
0.0
  0
LINE
  5
F8
330
1F
100
AcDbEntity
  8
0
  6
Continuous
 62
     8
370
    18
100
AcDbLine
 10
135.4129983542
 20
489.5132140044
 30
0.0
 11
108.4129983542
 21
489.5132140044
 31
0.0
  0
LINE
  5
F9
330
1F
100
AcDbEntity
  8
0
  6
Continuous
 62
     8
370
    18
100
AcDbLine
 10
162.4129983542
 20
489.5132140044
 30
0.0
 11
135.4129983542
 21
489.5132140044
 31
0.0
  0
LINE
  5
FA
330
1F
100
AcDbEntity
  8
0
  6
Continuous
 62
     8
370
    18
100
AcDbLine
 10
162.4129983542
 20
523.0892810582
 30
0.0
 11
108.4129983542
 21
523.0892810582
 31
0.0
  0
LINE
  5
FB
330
1F
100
AcDbEntity
  8
0
  6
Continuous
 62
     8
370
    18
100
AcDbLine
 10
135.4129983542
 20
518.5132140044
 30
0.0
 11
162.4129983542
 21
518.5132140044
 31
0.0
  0
LINE
  5
FC
330
1F
100
AcDbEntity
  8
0
  6
Continuous
 62
     8
370
    18
100
AcDbLine
 10
108.4129983542
 20
518.5132140044
 30
0.0
 11
135.4129983542
 21
518.5132140044
 31
0.0
  0
LINE
  5
FD
330
1F
100
AcDbEntity
  8
0
  6
Continuous
 62
     8
370
    18
100
AcDbLine
 10
135.4129983542
 20
523.3892696352
 30
0.0
 11
162.1156163148
 21
523.3892696352
 31
0.0
  0
LINE
  5
FE
330
1F
100
AcDbEntity
  8
0
  6
Continuous
 62
     8
370
    18
100
AcDbLine
 10
108.7103803935
 20
523.3892696352
 30
0.0
 11
135.4129983542
 21
523.3892696352
 31
0.0
  0
LINE
  5
FF
330
1F
100
AcDbEntity
  8
0
  6
Continuous
 62
     8
370
    18
100
AcDbLine
 10
195.1129983542
 20
451.0132140044
 30
0.0
 11
195.1129983542
 21
476.0132140044
 31
0.0
  0
LINE
  5
100
330
1F
100
AcDbEntity
  8
0
  6
Continuous
 62
     8
370
    18
100
AcDbLine
 10
195.1129983542
 20
426.0132140044
 30
0.0
 11
195.1129983542
 21
451.0132140044
 31
0.0
  0
LINE
  5
101
330
1F
100
AcDbEntity
  8
0
  6
Continuous
 62
     8
370
    18
100
AcDbLine
 10
213.7508719166
 20
470.8582889123
 30
0.0
 11
213.7508719166
 21
475.9885910621
 31
0.0
  0
LINE
  5
102
330
1F
100
AcDbEntity
  8
0
  6
Continuous
 62
     8
370
    18
100
AcDbLine
 10
232.6908269767
 20
470.8582889123
 30
0.0
 11
213.7508719166
 21
470.8582889123
 31
0.0
  0
LINE
  5
103
330
1F
100
AcDbEntity
  8
0
  6
Continuous
 62
     8
370
    18
100
AcDbLine
 10
232.6908269767
 20
426.013199281
 30
0.0
 11
232.6908269767
 21
470.8582889123
 31
0.0
  0
LINE
  5
104
330
1F
100
AcDbEntity
  8
0
  6
Continuous
 62
     8
370
    18
100
AcDbLine
 10
234.8625244044
 20
469.3911439408
 30
0.0
 11
234.8625244044
 21
427.8614461253
 31
0.0
  0
LINE
  5
105
330
1F
100
AcDbEntity
  8
0
  6
Continuous
 62
     8
370
    18
100
AcDbLine
 10
234.8625244044
 20
474.1649524366
 30
0.0
 11
234.8625244044
 21
474.1421635003
 31
0.0
  0
LINE
  5
106
330
1F
100
AcDbEntity
  8
0
  6
Continuous
 62
     8
370
    18
100
AcDbLine
 10
234.8625244044
 20
474.1421635003
 30
0.0
 11
234.7894447495
 21
474.4502608828
 31
0.0
  0
ARC
  5
107
330
1F
100
AcDbEntity
  8
0
  6
Continuous
 62
     8
370
    18
100
AcDbCircle
 10
232.851208747
 20
468.7548216855
 30
0.0
 40
2.109572631185815
100
AcDbArc
 50
17.5558689586
 51
94.3601597972
  0
SPLINE
  5
108
330
1F
100
AcDbEntity
  8
0
  6
Continuous
 62
     8
370
    18
100
AcDbSpline
210
0.0
220
0.0
230
1.0
 70
     8
 71
     3
 72
    14
 73
    10
 74
     0
 42
0.00000001
 43
0.00000001
 40
0.0
 40
0.0
 40
0.0
 40
0.0
 40
0.2499999999999987
 40
0.2499999999999987
 40
0.3749999999999981
 40
0.3749999999999981
 40
0.4999999999999974
 40
0.4999999999999974
 40
1.0
 40
1.0
 40
1.0
 40
1.0
 10
234.8625244044045
 20
474.142163500334
 30
0.0
 10
234.8625244044045
 20
474.1246255429528
 30
0.0
 10
234.8553574982263
 20
474.1414984366743
 30
0.0
 10
234.8342522835211
 20
474.2165028017212
 30
0.0
 10
234.8254812974778
 20
474.2498348303654
 30
0.0
 10
234.8044142150243
 20
474.3334064954474
 30
0.0
 10
234.7920470642421
 20
474.3839501564506
 30
0.0
 10
234.7224697727872
 20
474.6745686253689
 30
0.0
 10
234.6421057554628
 20
475.0274193818492
 30
0.0
 10
234.5375584407815
 20
475.4978198905669
 30
0.0
  0
SPLINE
  5
109
330
1F
100
AcDbEntity
  8
0
  6
Continuous
 62
     8
370
    18
100
AcDbSpline
210
0.0
220
0.0
230
1.0
 70
     8
 71
     3
 72
    16
 73
    12
 74
     0
 42
0.00000001
 43
0.00000001
 40
0.0
 40
0.0
 40
0.0
 40
0.0
 40
0.2500000000000054
 40
0.2500000000000054
 40
0.5000000000000109
 40
0.5000000000000109
 40
0.6250000000000099
 40
0.6250000000000099
 40
0.750000000000009
 40
0.750000000000009
 40
1.0
 40
1.0
 40
1.0
 40
1.0
 10
234.5375584407815
 20
473.248933407092
 30
0.0
 10
234.5897660309095
 20
472.8678361020792
 30
0.0
 10
234.636266289106
 20
472.4957119438077
 30
0.0
 10
234.7165214276363
 20
471.7825852728693
 30
0.0
 10
234.7505670370621
 20
471.4395139640781
 30
0.0
 10
234.7922345948359
 20
470.9458089733679
 30
0.0
 10
234.8045665551135
 20
470.7843050269753
 30
0.0
 10
234.8255781090049
 20
470.4743981333516
 30
0.0
 10
234.8343261378597
 20
470.3252776964217
 30
0.0
 10
234.855376193133
 20
469.8951619987889
 30
0.0
 10
234.8625244044045
 20
469.6312800001612
 30
0.0
 10
234.8625244044045
 20
469.3911439408062
 30
0.0
  0
SPLINE
  5
10A
330
1F
100
AcDbEntity
  8
0
  6
Continuous
 62
     8
370
    18
100
AcDbSpline
210
0.0
220
0.0
230
1.0
 70
     8
 71
     3
 72
    24
 73
    20
 74
     0
 42
0.00000001
 43
0.00000001
 40
0.0
 40
0.0
 40
0.0
 40
0.0
 40
0.1249999999999983
 40
0.1249999999999983
 40
0.1874999999999963
 40
0.1874999999999963
 40
0.2499999999999942
 40
0.2499999999999942
 40
0.3749999999999933
 40
0.3749999999999933
 40
0.4999999999999923
 40
0.4999999999999923
 40
0.7499999999999905
 40
0.7499999999999905
 40
0.8749999999999923
 40
0.8749999999999923
 40
0.9374999999999961
 40
0.9374999999999961
 40
1.0
 40
1.0
 40
1.0
 40
1.0
 10
220.3280921633307
 20
475.9694956908588
 30
0.0
 10
220.2242619416671
 20
475.6309349903473
 30
0.0
 10
220.0644515455138
 20
475.307566994397
 30
0.0
 10
219.7646267158331
 20
474.8396826550274
 30
0.0
 10
219.654944234463
 20
474.6876809550302
 30
0.0
 10
219.4246269302169
 20
474.3970325523383
 30
0.0
 10
219.3035237432807
 20
474.2575736907763
 30
0.0
 10
218.925593740676
 20
473.8535979817719
 30
0.0
 10
218.6523636365664
 20
473.6018400723612
 30
0.0
 10
218.0889969133015
 20
473.1360654213799
 30
0.0
 10
217.798549661096
 20
472.9214138483853
 30
0.0
 10
216.9076986864325
 20
472.3181213280417
 30
0.0
 10
216.2855131033771
 20
471.9684041920866
 30
0.0
 10
215.3416218096207
 20
471.5071278527656
 30
0.0
 10
215.0243590562242
 20
471.3637200554859
 30
0.0
 10
214.5475595698321
 20
471.1634151325709
 30
0.0
 10
214.3884200894077
 20
471.0990961597622
 30
0.0
 10
214.0698171913351
 20
470.9751678524772
 30
0.0
 10
213.9093080627704
 20
470.9151842291919
 30
0.0
 10
213.7508719166083
 20
470.8582889122583
 30
0.0
  0
SPLINE
  5
10B
330
1F
100
AcDbEntity
  8
0
  6
Continuous
 62
     8
370
    18
100
AcDbSpline
210
0.0
220
0.0
230
1.0
 70
     8
 71
     3
 72
    22
 73
    18
 74
     0
 42
0.00000001
 43
0.00000001
 40
0.0
 40
0.0
 40
0.0
 40
0.0
 40
0.1250000000000032
 40
0.1250000000000032
 40
0.1875000000000047
 40
0.1875000000000047
 40
0.2500000000000063
 40
0.2500000000000063
 40
0.3750000000000034
 40
0.3750000000000034
 40
0.5000000000000004
 40
0.5000000000000004
 40
0.7500000000000002
 40
0.7500000000000002
 40
0.8750000000000001
 40
0.8750000000000001
 40
1.0
 40
1.0
 40
1.0
 40
1.0
 10
218.1684079032129
 20
477.1038307388288
 30
0.0
 10
218.0981187963272
 20
476.7567554931273
 30
0.0
 10
217.9881731921539
 20
476.4109158482593
 30
0.0
 10
217.7796603073796
 20
475.8969768733315
 30
0.0
 10
217.7035829020055
 20
475.7285788522728
 30
0.0
 10
217.5439779012082
 20
475.4030301177721
 30
0.0
 10
217.4601871882959
 20
475.2451583224605
 30
0.0
 10
217.1992819707808
 20
474.7832503966777
 30
0.0
 10
217.0114217533112
 20
474.4890198697382
 30
0.0
 10
216.6275583572832
 20
473.9350688714641
 30
0.0
 10
216.4308456241812
 20
473.6739558364936
 30
0.0
 10
215.830967180911
 20
472.923671171457
 30
0.0
 10
215.4168038762656
 20
472.4654740399022
 30
0.0
 10
214.7945408510106
 20
471.8286712519166
 30
0.0
 10
214.5864745119892
 20
471.6246091804489
 30
0.0
 10
214.1693514445943
 20
471.230811255292
 30
0.0
 10
213.9591757380084
 20
471.0401120365261
 30
0.0
 10
213.7508719166083
 20
470.8582889122583
 30
0.0
  0
LINE
  5
10C
330
1F
100
AcDbEntity
  8
0
  6
Continuous
 62
     8
370
    18
100
AcDbLine
 10
232.3508719166
 20
473.5066198326
 30
0.0
 11
232.3508719166
 21
475.9694956909
 31
0.0
  0
SPLINE
  5
10D
330
1F
100
AcDbEntity
  8
0
  6
Continuous
 62
     8
370
    18
100
AcDbSpline
210
0.0
220
0.0
230
1.0
 70
     8
 71
     3
 72
    14
 73
    10
 74
     0
 42
0.00000001
 43
0.00000001
 40
0.0
 40
0.0
 40
0.0
 40
0.0
 40
0.25
 40
0.25
 40
0.5
 40
0.5
 40
0.75
 40
0.75
 40
1.0
 40
1.0
 40
1.0
 40
1.0
 10
232.6908269767067
 20
470.8582889122583
 30
0.0
 10
232.6908269767067
 20
471.0229209425569
 30
0.0
 10
232.6832685956657
 20
471.204295817767
 30
0.0
 10
232.6536494258539
 20
471.5991547505032
 30
0.0
 10
232.6312480553061
 20
471.8150643629347
 30
0.0
 10
232.5729513008763
 20
472.2674146012954
 30
0.0
 10
232.5373116679453
 20
472.5029332933394
 30
0.0
 10
232.4534884114511
 20
472.9919812617551
 30
0.0
 10
232.4049386241953
 20
473.2471644179019
 30
0.0
 10
232.3508719166082
 20
473.5066198325608
 30
0.0
  0
SPLINE
  5
10E
330
1F
100
AcDbEntity
  8
0
  6
Continuous
 62
     8
370
    18
100
AcDbSpline
210
0.0
220
0.0
230
1.0
 70
     8
 71
     3
 72
     8
 73
     4
 74
     0
 42
0.00000001
 43
0.00000001
 40
0.0
 40
0.0
 40
0.0
 40
0.0
 40
1.0
 40
1.0
 40
1.0
 40
1.0
 10
218.1684079032129
 20
477.1038307388288
 30
0.0
 10
218.2233698126475
 20
477.3752229796247
 30
0.0
 10
218.2508719166082
 20
477.6489637473456
 30
0.0
 10
218.2508719166082
 20
477.9250677326349
 30
0.0
  0
LWPOLYLINE
  5
10F
330
1F
100
AcDbEntity
  8
0
  6
Continuous
 62
     8
370
    18
100
AcDbPolyline
 90
       13
 70
   128
 43
0.0
 10
212.6734391132
 20
475.57006903
 10
212.7067668872
 20
475.3987371498
 10
212.5216910859
 20
474.9990788757
 10
211.9845801911
 20
474.638541938
 10
211.1480103594
 20
474.3524182043
 10
210.0938708746
 20
474.168715459
 10
208.9253482541
 20
474.105415807
 10
207.7568256336
 20
474.168715459
 10
206.7026861488
 20
474.3524182043
 10
205.8661163171
 20
474.638541938
 10
205.3290054223
 20
474.9990788757
 10
205.143929621
 20
475.3987371498
 10
205.177257395
 20
475.57006903
  0
LINE
  5
110
330
1F
100
AcDbEntity
  8
0
  6
Continuous
 62
     7
370
    25
100
AcDbLine
 10
123.9129983542
 20
298.4126857325
 30
0.0
 11
123.9129983542
 21
248.4126857325
 31
0.0
  0
LINE
  5
111
330
1F
100
AcDbEntity
  8
0
  6
Continuous
 62
     7
370
    25
100
AcDbLine
 10
146.9129983542
 20
248.4126857325
 30
0.0
 11
146.9129983542
 21
298.4126857325
 31
0.0
  0
LINE
  5
112
330
1F
100
AcDbEntity
  8
0
  6
Continuous
 62
     7
370
    25
100
AcDbLine
 10
146.9129983542
 20
89.6126857325
 30
0.0
 11
146.9129983542
 21
248.4126857325
 31
0.0
  0
LINE
  5
113
330
1F
100
AcDbEntity
  8
0
  6
Continuous
 62
     7
370
    25
100
AcDbLine
 10
123.9129983542
 20
248.4126857325
 30
0.0
 11
123.9129983542
 21
89.6126857325
 31
0.0
  0
LINE
  5
114
330
1F
100
AcDbEntity
  8
0
  6
Continuous
 62
     7
370
    25
100
AcDbLine
 10
123.9129983542
 20
89.6126857325
 30
0.0
 11
123.9129983542
 21
89.4126857325
 31
0.0
  0
LINE
  5
115
330
1F
100
AcDbEntity
  8
0
  6
Continuous
 62
     7
370
    25
100
AcDbLine
 10
146.9129983542
 20
89.4126857325
 30
0.0
 11
146.9129983542
 21
89.6126857325
 31
0.0
  0
ARC
  5
116
330
1F
100
AcDbEntity
  8
0
  6
Continuous
 62
     7
370
    25
100
AcDbCircle
 10
124.9129983542
 20
89.4126857325
 30
0.0
 40
1.0
100
AcDbArc
 50
180.0
 51
270.0
  0
ARC
  5
117
330
1F
100
AcDbEntity
  8
0
  6
Continuous
 62
     7
370
    25
100
AcDbCircle
 10
145.9129983542
 20
89.4126857325
 30
0.0
 40
1.0
100
AcDbArc
 50
270.0
 51
0.0
  0
SPLINE
  5
118
330
1F
100
AcDbEntity
  8
0
  6
Continuous
 62
     7
370
    25
100
AcDbSpline
210
0.0
220
0.0
230
1.0
 70
     8
 71
     3
 72
    24
 73
    20
 74
     0
 42
0.00000001
 43
0.00000001
 40
0.0
 40
0.0
 40
0.0
 40
0.0
 40
0.050816044647622
 40
0.0962904038005649
 40
0.1428574037646654
 40
0.1951515144067336
 40
0.2579496333946881
 40
0.3291875473475984
 40
0.3976356688546272
 40
0.4637322388795979
 40
0.5288819505547228
 40
0.594077346126185
 40
0.6599832226938851
 40
0.7278357907026013
 40
0.7999224936729022
 40
0.8593425801598282
 40
0.909212020756032
 40
0.9562199437654051
 40
1.0
 40
1.0
 40
1.0
 40
1.0
 10
218.2508719166082
 20
267.1666460140428
 30
0.0
 10
218.2850905196009
 20
266.8324419598038
 30
0.0
 10
218.3499307314375
 20
266.199164742783
 30
0.0
 10
218.7992351515476
 20
265.3913066626401
 30
0.0
 10
219.3914349638028
 20
264.7438690207381
 30
0.0
 10
220.1771590450895
 20
264.1913732396479
 30
0.0
 10
221.2102191900701
 20
263.7101257182554
 30
0.0
 10
222.5073782035036
 20
263.3240293240351
 30
0.0
 10
223.989844422302
 20
263.0613707193467
 30
0.0
 10
225.5325856780168
 20
262.9302696032823
 30
0.0
 10
227.0875279651327
 20
262.9233660897515
 30
0.0
 10
228.6113316446549
 20
263.0377991704568
 30
0.0
 10
230.0622242419117
 20
263.2743720970781
 30
0.0
 10
231.412526441928
 20
263.6436125523024
 30
0.0
 10
232.5419743040643
 20
264.1354926525017
 30
0.0
 10
233.4273312955528
 20
264.7486788540674
 30
0.0
 10
234.059501003383
 20
265.4644588379375
 30
0.0
 10
234.4726452516487
 20
266.2820999883007
 30
0.0
 10
234.5254218327247
 20
266.8788698373946
 30
0.0
 10
234.5508719166082
 20
267.1666460140427
 30
0.0
  0
SPLINE
  5
119
330
1F
100
AcDbEntity
  8
0
  6
Continuous
 62
     7
370
    25
100
AcDbSpline
210
0.0
220
0.0
230
1.0
 70
     8
 71
     3
 72
    11
 73
     7
 74
     0
 42
0.00000001
 43
0.00000001
 40
0.0
 40
0.0
 40
0.0
 40
0.0
 40
0.3473415467626282
 40
0.6547743325016766
 40
0.8885011915846875
 40
1.0
 40
1.0
 40
1.0
 40
1.0
 10
146.9394114500734
 20
323.4151768482376
 30
0.0
 10
146.6985980563894
 20
323.4199315913526
 30
0.0
 10
146.2446401853068
 20
323.4288947683131
 30
0.0
 10
145.6367214226848
 20
323.5215201611854
 30
0.0
 10
145.1919058060173
 20
323.6202474479588
 30
0.0
 10
144.968630521448
 20
323.6860564361234
 30
0.0
 10
144.8965184784518
 20
323.7073110079995
 30
0.0
  0
LINE
  5
11A
330
1F
100
AcDbEntity
  8
0
  6
Continuous
 62
     7
370
    25
100
AcDbLine
 10
204.9253482541
 20
289.8625987537
 30
0.0
 11
204.9253482541
 21
289.7425740094
 31
0.0
  0
LINE
  5
11B
330
1F
100
AcDbEntity
  8
0
  6
Continuous
 62
     7
370
    25
100
AcDbLine
 10
212.9253482541
 20
289.7425740094
 30
0.0
 11
212.9253482541
 21
289.8649686077
 31
0.0
  0
LINE
  5
11C
330
1F
100
AcDbEntity
  8
0
  6
Continuous
 62
     7
370
    25
100
AcDbLine
 10
146.9129983542
 20
273.4126857325
 30
0.0
 11
195.1129983542
 21
273.4126857325
 31
0.0
  0
LINE
  5
11D
330
1F
100
AcDbEntity
  8
0
  6
Continuous
 62
     7
370
    25
100
AcDbLine
 10
195.1129983542
 20
323.4126857325
 30
0.0
 11
146.9385570511
 21
323.4126857325
 31
0.0
  0
ARC
  5
11E
330
1F
100
AcDbEntity
  8
0
  6
Continuous
 62
     7
370
    25
100
AcDbCircle
 10
195.1129983542
 20
273.7126857325
 30
0.0
 40
0.3000000000000114
100
AcDbArc
 50
270.0
 51
0.0
  0
ARC
  5
11F
330
1F
100
AcDbEntity
  8
0
  6
Continuous
 62
     7
370
    25
100
AcDbCircle
 10
195.1129983542
 20
323.1126857325
 30
0.0
 40
0.3000000000000114
100
AcDbArc
 50
0.0
 51
90.0
  0
LINE
  5
120
330
1F
100
AcDbEntity
  8
0
  6
Continuous
 62
     7
370
    25
100
AcDbLine
 10
201.9253482541
 20
273.4127846427
 30
0.0
 11
218.2508719166
 21
273.4127846427
 31
0.0
  0
LINE
  5
121
330
1F
100
AcDbEntity
  8
0
  6
Continuous
 62
     7
370
    25
100
AcDbLine
 10
232.6908269767
 20
323.4127846427
 30
0.0
 11
204.3771657025
 21
323.4127846427
 31
0.0
  0
ARC
  5
122
330
1F
100
AcDbEntity
  8
0
  6
Continuous
 62
     7
370
    25
100
AcDbCircle
 10
232.6908269767
 20
275.6127846427
 30
0.0
 40
2.200000000000006
100
AcDbArc
 50
327.7228610334
 51
350.7996163194
  0
ARC
  5
123
330
1F
100
AcDbEntity
  8
0
  6
Continuous
 62
     7
370
    25
100
AcDbCircle
 10
232.6908269767
 20
321.2127846427
 30
0.0
 40
2.200000000000045
100
AcDbArc
 50
9.2003836806
 51
90.0
  0
ARC
  5
124
330
1F
100
AcDbEntity
  8
0
  6
Continuous
 62
     7
370
    25
100
AcDbCircle
 10
91.9253482541
 20
298.4127846427
 30
0.0
 40
144.8
100
AcDbArc
 50
350.7996163194
 51
9.2003836806
  0
LINE
  5
125
330
1F
100
AcDbEntity
  8
0
  6
Continuous
 62
     7
370
    25
100
AcDbLine
 10
195.4129983542
 20
274.4126857325
 30
0.0
 11
196.8773725111
 21
274.4382464785
 31
0.0
  0
LINE
  5
126
330
1F
100
AcDbEntity
  8
0
  6
Continuous
 62
     7
370
    25
100
AcDbLine
 10
196.8773725111
 20
322.3871249865
 30
0.0
 11
195.4129983542
 21
322.4126857325
 31
0.0
  0
ARC
  5
127
330
1F
100
AcDbEntity
  8
0
  6
Continuous
 62
     7
370
    25
100
AcDbCircle
 10
192.9129983542
 20
298.4126857325
 30
0.0
 40
24.30000000000045
100
AcDbArc
 50
68.0154770161
 51
80.6106272566
  0
ARC
  5
128
330
1F
100
AcDbEntity
  8
0
  6
Continuous
 62
     7
370
    25
100
AcDbCircle
 10
192.9129983542
 20
298.4126857325
 30
0.0
 40
24.30000000000042
100
AcDbArc
 50
279.3893727434
 51
291.7698128197
  0
ARC
  5
129
330
1F
100
AcDbEntity
  8
0
  6
Continuous
 62
     7
370
    25
100
AcDbCircle
 10
135.4129983542
 20
298.4126857325
 30
0.0
 40
11.50000000000001
100
AcDbArc
 50
0.0
 51
180.0
  0
LINE
  5
12A
330
1F
100
AcDbEntity
  8
0
  6
Continuous
 62
     7
370
    25
100
AcDbLine
 10
124.9129983542
 20
88.4126857325
 30
0.0
 11
145.9129983542
 21
88.4126857325
 31
0.0
  0
LINE
  5
12B
330
1F
100
AcDbEntity
  8
0
  6
Continuous
 62
     7
370
    25
100
AcDbLine
 10
218.2508719166
 20
267.166646014
 30
0.0
 11
218.2508719166
 21
271.2073242834
 31
0.0
  0
LINE
  5
12C
330
1F
100
AcDbEntity
  8
0
  6
Continuous
 62
     7
370
    25
100
AcDbLine
 10
234.5508719166
 20
267.166646014
 30
0.0
 11
234.5508719166
 21
271.2073242834
 31
0.0
  0
LINE
  5
12D
330
1F
100
AcDbEntity
  8
0
  6
Continuous
 62
     7
370
    25
100
AcDbLine
 10
218.2508719166
 20
271.2073242834
 30
0.0
 11
218.2508719166
 21
290.3703616363
 31
0.0
  0
LINE
  5
12E
330
1F
100
AcDbEntity
  8
0
  6
Continuous
 62
     7
370
    25
100
AcDbLine
 10
234.5508719166
 20
290.8082643168
 30
0.0
 11
234.5508719166
 21
271.2073242834
 31
0.0
  0
ARC
  5
12F
330
1F
100
AcDbEntity
  8
0
  6
Continuous
 62
     7
370
    25
100
AcDbCircle
 10
135.4129983542
 20
298.4126857325
 30
0.0
 40
12.44999999999999
100
AcDbArc
 50
337.4723546214
 51
202.5276453786
  0
ARC
  5
130
330
1F
100
AcDbEntity
  8
0
  6
Continuous
 62
     7
370
    25
100
AcDbCircle
 10
135.4129983542
 20
298.4126857325
 30
0.0
 40
27.00000000000006
100
AcDbArc
 50
295.2092855871
 51
90.0
  0
ARC
  5
131
330
1F
100
AcDbEntity
  8
0
  6
Continuous
 62
     7
370
    25
100
AcDbCircle
 10
135.4129983542
 20
298.4126857325
 30
0.0
 40
27.00000000000006
100
AcDbArc
 50
90.0
 51
244.7907144129
  0
SPLINE
  5
132
330
1F
100
AcDbEntity
  8
0
  6
Continuous
 62
     7
370
    25
100
AcDbSpline
210
0.0
220
0.0
230
1.0
 70
     8
 71
     3
 72
     8
 73
     4
 74
     0
 42
0.00000001
 43
0.00000001
 40
0.0
 40
0.0
 40
0.0
 40
0.0
 40
1.0
 40
1.0
 40
1.0
 40
1.0
 10
234.5375584407815
 20
292.9997578297023
 30
0.0
 10
234.5473165364664
 20
292.9446697638022
 30
0.0
 10
234.5508719166083
 20
292.862363849486
 30
0.0
 10
234.5508719166083
 20
292.7763350116659
 30
0.0
  0
SPLINE
  5
133
330
1F
100
AcDbEntity
  8
0
  6
Continuous
 62
     7
370
    25
100
AcDbSpline
210
0.0
220
0.0
230
1.0
 70
     8
 71
     3
 72
    20
 73
    16
 74
     0
 42
0.00000001
 43
0.00000001
 40
0.0
 40
0.0
 40
0.0
 40
0.0
 40
0.249999999999989
 40
0.249999999999989
 40
0.3749999999999908
 40
0.3749999999999908
 40
0.4999999999999927
 40
0.4999999999999927
 40
0.6249999999999944
 40
0.6249999999999944
 40
0.7499999999999963
 40
0.7499999999999963
 40
0.8749999999999981
 40
0.8749999999999981
 40
1.0
 40
1.0
 40
1.0
 40
1.0
 10
234.5375584407815
 20
292.9997578297023
 30
0.0
 10
234.5078528531189
 20
293.167456879149
 30
0.0
 10
234.4300106112159
 20
293.3306146690697
 30
0.0
 10
234.2451158219271
 20
293.5620607827736
 30
0.0
 10
234.173386483065
 20
293.6353050775829
 30
0.0
 10
234.0102785255618
 20
293.7742004196006
 30
0.0
 10
233.9177987042001
 20
293.8404603405774
 30
0.0
 10
233.7180183866755
 20
293.961266094215
 30
0.0
 10
233.6110555569826
 20
294.0158768952709
 30
0.0
 10
233.3831656670223
 20
294.1136759344142
 30
0.0
 10
233.2610695743151
 20
294.1570970524261
 30
0.0
 10
233.0115984031956
 20
294.2290745032402
 30
0.0
 10
232.8835140784273
 20
294.2580810536155
 30
0.0
 10
232.6206307813677
 20
294.302105731855
 30
0.0
 10
232.4838742373421
 20
294.3171081508727
 30
0.0
 10
232.3508719166078
 20
294.324220655484
 30
0.0
  0
LINE
  5
134
330
1F
100
AcDbEntity
  8
0
  6
Continuous
 62
     7
370
    25
100
AcDbLine
 10
234.5508719166
 20
292.7763350117
 30
0.0
 11
234.5508719166
 21
290.8082643168
 31
0.0
  0
LWPOLYLINE
  5
135
330
1F
100
AcDbEntity
  8
0
  6
Continuous
 62
     7
370
    25
100
AcDbPolyline
 90
       21
 70
   128
 43
0.0
 10
208.9253482541
 20
293.0905458974
 10
210.0938708746
 20
292.9166315327
 10
211.1480103594
 20
292.4119123883
 10
211.9845801911
 20
291.6257938906
 10
212.5216910859
 20
290.6352267955
 10
212.7067668872
 20
289.5371747118
 10
212.5216910859
 20
288.4391226281
 10
211.9845801911
 20
287.448555533
 10
211.1480103594
 20
286.6624370353
 10
210.0938708746
 20
286.1577178909
 10
208.9253482541
 20
285.9838035262
 10
207.7568256336
 20
286.1577178909
 10
206.7026861488
 20
286.6624370353
 10
205.8661163171
 20
287.448555533
 10
205.3290054223
 20
288.4391226281
 10
205.143929621
 20
289.5371747118
 10
205.3290054223
 20
290.6352267955
 10
205.8661163171
 20
291.6257938906
 10
206.7026861488
 20
292.4119123883
 10
207.7568256336
 20
292.9166315327
 10
208.9253482541
 20
293.0905458974
  0
LWPOLYLINE
  5
136
330
1F
100
AcDbEntity
  8
0
  6
Continuous
 62
     7
370
    25
100
AcDbPolyline
 90
       20
 70
   128
 43
0.0
 10
208.9253482541
 20
292.8470562613
 10
207.7662743296
 20
292.6653053975
 10
206.7328040498
 20
292.1397483325
 10
205.9369299553
 20
291.3273373291
 10
205.4648973535
 20
290.3161097253
 10
205.3678583013
 20
289.2156477229
 10
205.6563284856
 20
288.1452034553
 10
206.2990476859
 20
287.2207761684
 10
207.226367304
 20
286.5425419028
 10
208.3377978705
 20
286.1839978651
 10
209.5128986378
 20
286.1839978651
 10
210.6243292042
 20
286.5425419028
 10
211.5516488223
 20
287.2207761684
 10
212.1943680226
 20
288.1452034553
 10
212.4828382069
 20
289.2156477229
 10
212.3857991547
 20
290.3161097253
 10
211.913766553
 20
291.3273373291
 10
211.1178924585
 20
292.1397483325
 10
210.0844221786
 20
292.6653053975
 10
208.9253482541
 20
292.8470562613
  0
LWPOLYLINE
  5
137
330
1F
100
AcDbEntity
  8
0
  6
Continuous
 62
     7
370
    25
100
AcDbPolyline
 90
       22
 70
   128
 43
0.0
 10
208.9253482541
 20
285.9838035262
 10
207.7463275565
 20
286.1507951525
 10
206.6720680219
 20
286.6369320924
 10
205.7980223242
 20
287.3990189456
 10
205.2018532595
 20
288.3693409507
 10
204.9365330654
 20
289.4616807394
 10
205.0256366054
 20
290.5789791278
 10
205.461246639
 20
291.6219592509
 10
206.204657303
 20
292.4979477478
 10
207.1898132976
 20
293.1291091963
 10
208.3291791894
 20
293.4593621318
 10
209.5215173188
 20
293.4593621318
 10
210.6608832106
 20
293.1291091963
 10
211.6460392052
 20
292.4979477478
 10
212.3894498693
 20
291.6219592509
 10
212.8250599028
 20
290.5789791278
 10
212.9141634428
 20
289.4616807394
 10
212.6488432487
 20
288.3693409507
 10
212.052674184
 20
287.3990189456
 10
211.1786284864
 20
286.6369320924
 10
210.1043689518
 20
286.1507951525
 10
208.9253482541
 20
285.9838035262
  0
SPLINE
  5
138
330
1F
100
AcDbEntity
  8
0
  6
Continuous
 62
     7
370
    25
100
AcDbSpline
210
0.0
220
0.0
230
1.0
 70
     8
 71
     3
 72
    18
 73
    14
 74
     0
 42
0.00000001
 43
0.00000001
 40
0.0
 40
0.0
 40
0.0
 40
0.0
 40
0.0348503263357425
 40
0.1408195667906486
 40
0.2472501830107265
 40
0.3548675078974132
 40
0.4625758967641599
 40
0.5690960360713846
 40
0.6750132365683814
 40
0.7818407229828578
 40
0.8896784078095752
 40
0.9970606913417767
 40
1.0
 40
1.0
 40
1.0
 40
1.0
 10
212.8757738203848
 20
289.8676890966381
 30
0.0
 10
212.8895718412987
 20
290.0036433042873
 30
0.0
 10
212.9453254462707
 20
290.552992898322
 30
0.0
 10
212.5860983072353
 20
291.524858964209
 30
0.0
 10
211.8336059684903
 20
292.6041776428781
 30
0.0
 10
210.7203316594893
 20
293.3927678378874
 30
0.0
 10
209.4096980573004
 20
293.7787031386306
 30
0.0
 10
208.047459897471
 20
293.710679064251
 30
0.0
 10
206.7936418660646
 20
293.2063993466211
 30
0.0
 10
205.7588911969138
 20
292.3261869467219
 30
0.0
 10
205.1253815055088
 20
291.1820580042842
 30
0.0
 10
204.8551512549716
 20
290.2980473879095
 30
0.0
 10
204.9293249086543
 20
289.8747656182102
 30
0.0
 10
204.9313011243539
 20
289.8634880818202
 30
0.0
  0
LINE
  5
139
330
1F
100
AcDbEntity
  8
0
  6
Continuous
 62
     7
370
    25
100
AcDbLine
 10
195.4129983542
 20
273.7126857325
 30
0.0
 11
195.4129983542
 21
323.1126857325
 31
0.0
  0
LINE
  5
13A
330
1F
100
AcDbEntity
  8
0
  6
Continuous
 62
     7
370
    25
100
AcDbLine
 10
201.9253482541
 20
273.4127846427
 30
0.0
 11
201.9253482541
 21
320.667250167
 31
0.0
  0
SPLINE
  5
13B
330
1F
100
AcDbEntity
  8
0
  6
Continuous
 62
     7
370
    25
100
AcDbSpline
210
0.0
220
0.0
230
1.0
 70
     8
 71
     3
 72
    10
 73
     6
 74
     0
 42
0.00000001
 43
0.00000001
 40
0.0
 40
0.0
 40
0.0
 40
0.0
 40
0.5
 40
0.5
 40
1.0
 40
1.0
 40
1.0
 40
1.0
 10
202.7775909434735
 20
322.7550196402001
 30
0.0
 10
202.4934294950352
 20
322.5275808824908
 30
0.0
 10
202.2814099312709
 20
322.2414730399817
 30
0.0
 10
201.9973687665642
 20
321.5478105539552
 30
0.0
 10
201.9253482541165
 20
321.1403118677682
 30
0.0
 10
201.9253482541165
 20
320.6672501669842
 30
0.0
  0
ELLIPSE
  5
13C
330
1F
100
AcDbEntity
  8
0
  6
Continuous
 62
     7
370
    25
100
AcDbEllipse
 10
201.9253482541
 20
298.4127846427
 30
0.0
 11
2.640597838118396
 21
24.99007957229242
 31
0.0
210
0.0
220
0.0
230
1.0
 40
0.2666888441
 41
0.02817244593752
 42
0.2580715155677253
  0
LINE
  5
13D
330
1F
100
AcDbEntity
  8
0
  6
Continuous
 62
     7
370
    25
100
AcDbLine
 10
196.8773725111
 20
274.4382464785
 30
0.0
 11
196.8773725111
 21
322.3871249865
 31
0.0
  0
LINE
  5
13E
330
1F
100
AcDbEntity
  8
0
  6
Continuous
 62
     8
370
    18
100
AcDbLine
 10
146.9129983542
 20
248.4126857325
 30
0.0
 11
123.9129983542
 21
248.4126857325
 31
0.0
  0
LINE
  5
13F
330
1F
100
AcDbEntity
  8
0
  6
Continuous
 62
     8
370
    18
100
AcDbLine
 10
146.9129983542
 20
89.6126857325
 30
0.0
 11
123.9129983542
 21
89.6126857325
 31
0.0
  0
LINE
  5
140
330
1F
100
AcDbEntity
  8
0
  6
Continuous
 62
     8
370
    18
100
AcDbLine
 10
123.9129983542
 20
89.4126857325
 30
0.0
 11
146.9129983542
 21
89.4126857325
 31
0.0
  0
LWPOLYLINE
  5
141
330
1F
100
AcDbEntity
  8
0
  6
Continuous
 62
     8
370
    18
100
AcDbPolyline
 90
       16
 70
   128
 43
0.0
 10
234.5508719166
 20
271.2073242834
 10
234.3727748626
 20
270.6277778951
 10
233.8462673964
 20
270.073560465
 10
232.9943604208
 20
269.5688939541
 10
231.8542863584
 20
269.1358347107
 10
230.4758719166
 20
268.7933095017
 10
228.9193604208
 20
268.5562883224
 10
227.2527788922
 20
268.4351301357
 10
225.548964941
 20
268.4351301357
 10
223.8823834125
 20
268.5562883224
 10
222.3258719166
 20
268.7933095017
 10
220.9474574748
 20
269.1358347107
 10
219.8073834125
 20
269.5688939541
 10
218.9554764368
 20
270.073560465
 10
218.4289689706
 20
270.6277778951
 10
218.2508719166
 20
271.2073242834
  0
LWPOLYLINE
  5
142
330
1F
100
AcDbEntity
  8
0
  6
Continuous
 62
     8
370
    18
100
AcDbPolyline
 90
       13
 70
   128
 43
0.0
 10
220.4508719166
 20
273.2746480492
 10
220.6536132502
 20
272.7479461541
 10
221.2480207641
 20
272.2571381228
 10
222.1935865685
 20
271.8356717114
 10
223.4258719166
 20
271.5122691594
 10
224.8608985982
 20
271.3089698163
 10
226.4008719166
 20
271.2396281964
 10
227.940845235
 20
271.3089698163
 10
229.3758719166
 20
271.5122691594
 10
230.6081572647
 20
271.8356717114
 10
231.5537230691
 20
272.2571381228
 10
232.148130583
 20
272.7479461541
 10
232.3508719166
 20
273.2746480492
  0
LWPOLYLINE
  5
143
330
1F
100
AcDbEntity
  8
0
  6
Continuous
 62
     8
370
    18
100
AcDbPolyline
 90
       16
 70
   128
 43
0.0
 10
218.2508719166
 20
267.166646014
 10
218.4289689706
 20
266.5870996258
 10
218.9554764368
 20
266.0328821956
 10
219.8073834125
 20
265.5282156847
 10
220.9474574748
 20
265.0951564413
 10
222.3258719166
 20
264.7526312323
 10
223.8823834125
 20
264.515610053
 10
225.548964941
 20
264.3944518663
 10
227.2527788922
 20
264.3944518663
 10
228.9193604208
 20
264.515610053
 10
230.4758719166
 20
264.7526312323
 10
231.8542863584
 20
265.0951564413
 10
232.9943604208
 20
265.5282156847
 10
233.8462673964
 20
266.0328821956
 10
234.3727748626
 20
266.5870996258
 10
234.5508719166
 20
267.166646014
  0
LINE
  5
144
330
1F
100
AcDbEntity
  8
0
  6
Continuous
 62
     8
370
    18
100
AcDbLine
 10
232.3508719166
 20
273.2746480492
 30
0.0
 11
232.3508719166
 21
292.8755880825
 31
0.0
  0
LINE
  5
145
330
1F
100
AcDbEntity
  8
0
  6
Continuous
 62
     8
370
    18
100
AcDbLine
 10
220.4508719166
 20
292.437685402
 30
0.0
 11
220.4508719166
 21
273.2746480492
 31
0.0
  0
SPLINE
  5
146
330
1F
100
AcDbEntity
  8
0
  6
Continuous
 62
     8
370
    18
100
AcDbSpline
210
0.0
220
0.0
230
1.0
 70
     8
 71
     3
 72
     8
 73
     4
 74
     0
 42
0.00000001
 43
0.00000001
 40
0.0
 40
0.0
 40
0.0
 40
0.0
 40
1.0
 40
1.0
 40
1.0
 40
1.0
 10
220.3280921633307
 20
292.8755880824933
 30
0.0
 10
220.4099393476865
 20
292.7309626521271
 30
0.0
 10
220.4508719166083
 20
292.5849952882584
 30
0.0
 10
220.4508719166083
 20
292.4376854020416
 30
0.0
  0
ARC
  5
147
330
1F
100
AcDbEntity
  8
0
  6
Continuous
 62
     8
370
    18
100
AcDbCircle
 10
135.4129983542
 20
298.4126857325
 30
0.0
 40
26.70261796064952
100
AcDbArc
 50
295.5100483653
 51
244.4899516347
  0
LWPOLYLINE
  5
148
330
1F
100
AcDbEntity
  8
0
  6
Continuous
 62
     8
370
    18
100
AcDbPolyline
 90
       28
 70
   128
 43
0.0
 10
146.9388616405
 20
323.402348334
 10
146.9868080708
 20
323.3888331505
 10
147.422687582
 20
323.2629129327
 10
148.1643243444
 20
323.0363631921
 10
149.4872984813
 20
322.5925193338
 10
151.0131040197
 20
322.0141525896
 10
155.3884845109
 20
319.9074268795
 10
159.870850501
 20
316.8643068536
 10
162.9316001831
 20
314.0127939009
 10
165.7058647718
 20
310.4738863842
 10
167.1795405164
 20
307.8811907525
 10
168.3634089895
 20
304.9617064395
 10
169.1051035425
 20
301.9793335355
 10
169.4101586157
 20
298.7559863558
 10
169.2460110939
 20
295.7833124044
 10
168.6448742933
 20
292.7984152815
 10
168.2916055377
 20
291.6469890278
 10
166.9204318585
 20
288.4297402542
 10
165.1042390885
 20
285.4705485131
 10
163.4063970746
 20
283.3370259965
 10
161.5636080764
 20
281.4369733322
 10
157.4529800594
 20
278.1869212996
 10
153.637319967
 20
275.9883051321
 10
149.8998952333
 20
274.3820425193
 10
148.5205625346
 20
273.9034430008
 10
147.4150859783
 20
273.5602170793
 10
146.9021236473
 20
273.4126857325
 10
146.9021236473
 20
273.4126857325
  0
SPLINE
  5
149
330
1F
100
AcDbEntity
  8
0
  6
Continuous
 62
     8
370
    18
100
AcDbSpline
210
0.0
220
0.0
230
1.0
 70
     8
 71
     3
 72
     8
 73
     4
 74
     0
 42
0.00000001
 43
0.00000001
 40
0.0
 40
0.0
 40
0.0
 40
0.0
 40
1.0
 40
1.0
 40
1.0
 40
1.0
 10
218.2508719166082
 20
290.3703616363126
 30
0.0
 10
218.2508719166082
 20
290.4792369658752
 30
0.0
 10
218.2233698126475
 20
290.5875393054098
 30
0.0
 10
218.1684079032129
 20
290.6953028975422
 30
0.0
  0
SPLINE
  5
14A
330
1F
100
AcDbEntity
  8
0
  6
Continuous
 62
     8
370
    18
100
AcDbSpline
210
0.0
220
0.0
230
1.0
 70
     8
 71
     3
 72
    22
 73
    18
 74
     0
 42
0.00000001
 43
0.00000001
 40
0.0
 40
0.0
 40
0.0
 40
0.0
 40
0.1250000000000032
 40
0.1250000000000032
 40
0.1875000000000047
 40
0.1875000000000047
 40
0.2500000000000063
 40
0.2500000000000063
 40
0.3750000000000034
 40
0.3750000000000034
 40
0.5000000000000004
 40
0.5000000000000004
 40
0.7500000000000002
 40
0.7500000000000002
 40
0.8750000000000001
 40
0.8750000000000001
 40
1.0
 40
1.0
 40
1.0
 40
1.0
 10
218.1684079032129
 20
286.5946023345311
 30
0.0
 10
218.0981187963272
 20
286.7059276010207
 30
0.0
 10
217.9881731921539
 20
286.7477646696274
 30
0.0
 10
217.7796603073796
 20
286.7334558176743
 30
0.0
 10
217.7035829020055
 20
286.7155949580107
 30
0.0
 10
217.5439779012082
 20
286.6598818700629
 30
0.0
 10
217.4601871882959
 20
286.6220569197158
 30
0.0
 10
217.1992819707808
 20
286.4847957440248
 30
0.0
 10
217.0114217533112
 20
286.3607792852163
 30
0.0
 10
216.6275583572832
 20
286.0760909432736
 30
0.0
 10
216.4308456241812
 20
285.9151250717894
 30
0.0
 10
215.830967180911
 20
285.3931593919078
 30
0.0
 10
215.4168038762656
 20
284.9922788846221
 30
0.0
 10
214.7945408510106
 20
284.3527111530483
 30
0.0
 10
214.5864745119892
 20
284.1324921429757
 30
0.0
 10
214.1693514445943
 20
283.6796517183283
 30
0.0
 10
213.9591757380084
 20
283.4457493360748
 30
0.0
 10
213.7508719166083
 20
283.208429426947
 30
0.0
  0
LINE
  5
14B
330
1F
100
AcDbEntity
  8
0
  6
Continuous
 62
     8
370
    18
100
AcDbLine
 10
213.7508719166
 20
283.2084294269
 30
0.0
 11
213.7508719166
 21
297.3038187387
 31
0.0
  0
SPLINE
  5
14C
330
1F
100
AcDbEntity
  8
0
  6
Continuous
 62
     8
370
    18
100
AcDbSpline
210
0.0
220
0.0
230
1.0
 70
     8
 71
     3
 72
    22
 73
    18
 74
     0
 42
0.00000001
 43
0.00000001
 40
0.0
 40
0.0
 40
0.0
 40
0.0
 40
0.1250000000000024
 40
0.1250000000000024
 40
0.1875000000000037
 40
0.1875000000000037
 40
0.250000000000005
 40
0.250000000000005
 40
0.375000000000003
 40
0.375000000000003
 40
0.500000000000001
 40
0.500000000000001
 40
0.7500000000000006
 40
0.7500000000000006
 40
0.8750000000000002
 40
0.8750000000000002
 40
1.0
 40
1.0
 40
1.0
 40
1.0
 10
218.1684079032129
 20
290.6953028975422
 30
0.0
 10
218.0981187963272
 20
290.8331184633349
 30
0.0
 10
217.9881731921539
 20
291.023370848072
 30
0.0
 10
217.7796603073796
 20
291.3646856698167
 30
0.0
 10
217.7035829020054
 20
291.4866120435435
 30
0.0
 10
217.5439779012082
 20
291.7385494378611
 30
0.0
 10
217.4601871882959
 20
291.8690030648311
 30
0.0
 10
217.1992819707808
 20
292.2710599172344
 30
0.0
 10
217.0114217533111
 20
292.5551897734682
 30
0.0
 10
216.6275583572832
 20
293.1293465338981
 30
0.0
 10
216.4308456241811
 20
293.4204937688871
 30
0.0
 10
215.830967180911
 20
294.3026163638826
 30
0.0
 10
215.4168038762656
 20
294.9042320878009
 30
0.0
 10
214.7945408510106
 20
295.8034983365022
 30
0.0
 10
214.5864745119892
 20
296.1033644565839
 30
0.0
 10
214.1693514445943
 20
296.7033887745158
 30
0.0
 10
213.9591757380186
 20
297.00514748968
 30
0.0
 10
213.7508719166083
 20
297.3038187387356
 30
0.0
  0
SPLINE
  5
14D
330
1F
100
AcDbEntity
  8
0
  6
Continuous
 62
     8
370
    18
100
AcDbSpline
210
0.0
220
0.0
230
1.0
 70
     8
 71
     3
 72
    24
 73
    20
 74
     0
 42
0.00000001
 43
0.00000001
 40
0.0
 40
0.0
 40
0.0
 40
0.0
 40
0.1249999999999983
 40
0.1249999999999983
 40
0.1874999999999963
 40
0.1874999999999963
 40
0.2499999999999942
 40
0.2499999999999942
 40
0.3749999999999958
 40
0.3749999999999958
 40
0.4999999999999974
 40
0.4999999999999974
 40
0.7500000000000007
 40
0.7500000000000007
 40
0.8750000000000003
 40
0.8750000000000003
 40
0.9375000000000001
 40
0.9375000000000001
 40
1.0
 40
1.0
 40
1.0
 40
1.0
 10
220.3280921633307
 20
292.8755880824933
 30
0.0
 10
220.2242619416671
 20
292.9988140999718
 30
0.0
 10
220.0644515455138
 20
293.1507317397879
 30
0.0
 10
219.7646267158331
 20
293.4061018917481
 30
0.0
 10
219.654944234463
 20
293.495468468901
 30
0.0
 10
219.4246269302169
 20
293.6767528343755
 30
0.0
 10
219.3035237432807
 20
293.769090708831
 30
0.0
 10
218.9255937406759
 20
294.0499567986515
 30
0.0
 10
218.6523636365663
 20
294.2435641139231
 30
0.0
 10
218.0889969133015
 20
294.6295644244795
 30
0.0
 10
217.798549661096
 20
294.8222902130014
 30
0.0
 10
216.9076986864325
 20
295.3999492120623
 30
0.0
 10
216.2855131033771
 20
295.7857978887963
 30
0.0
 10
215.3416218096207
 20
296.3582205464838
 30
0.0
 10
215.0243590562242
 20
296.5484695314736
 30
0.0
 10
214.5475595698322
 20
296.8324400857512
 30
0.0
 10
214.3884200894076
 20
296.9268955918865
 30
0.0
 10
214.0698171913351
 20
297.1155471374574
 30
0.0
 10
213.9093080627686
 20
297.2103598047119
 30
0.0
 10
213.7508719166083
 20
297.3038187387356
 30
0.0
  0
SPLINE
  5
14E
330
1F
100
AcDbEntity
  8
0
  6
Continuous
 62
     8
370
    18
100
AcDbSpline
210
0.0
220
0.0
230
1.0
 70
     8
 71
     3
 72
    14
 73
    10
 74
     0
 42
0.00000001
 43
0.00000001
 40
0.0
 40
0.0
 40
0.0
 40
0.0
 40
0.25
 40
0.25
 40
0.5
 40
0.5
 40
0.75
 40
0.75
 40
1.0
 40
1.0
 40
1.0
 40
1.0
 10
232.3508719166083
 20
294.324220655484
 30
0.0
 10
232.4049386241953
 20
294.5326846879977
 30
0.0
 10
232.4534884114511
 20
294.7562220544386
 30
0.0
 10
232.5373116679453
 20
295.2216469318912
 30
0.0
 10
232.5729513008763
 20
295.4647764736077
 30
0.0
 10
232.6312480553061
 20
295.9726440098853
 30
0.0
 10
232.6536494258539
 20
296.2368993992586
 30
0.0
 10
232.6832685956657
 20
296.7659654981507
 30
0.0
 10
232.6908269767067
 20
297.0333863923383
 30
0.0
 10
232.6908269767067
 20
297.3038187387356
 30
0.0
  0
LINE
  5
14F
330
1F
100
AcDbEntity
  8
0
  6
Continuous
 62
     8
370
    18
100
AcDbLine
 10
232.3508719166
 20
292.8755880825
 30
0.0
 11
232.3508719166
 21
294.3242206555
 31
0.0
  0
LINE
  5
150
330
1F
100
AcDbEntity
  8
0
  6
Continuous
 62
     8
370
    18
100
AcDbLine
 10
213.7508719166
 20
297.3038187387
 30
0.0
 11
232.6908269767
 21
297.3038187387
 31
0.0
  0
LWPOLYLINE
  5
151
330
1F
100
AcDbEntity
  8
0
  6
Continuous
 62
     8
370
    18
100
AcDbPolyline
 90
        3
 70
   128
 43
0.0
 10
218.1684079032
 20
286.5946023345
 10
218.2152058219
 20
286.1986738234
 10
218.2508719166
 20
286.0635213954
  0
SPLINE
  5
152
330
1F
100
AcDbEntity
  8
0
  6
Continuous
 62
     8
370
    18
100
AcDbSpline
210
0.0
220
0.0
230
1.0
 70
     8
 71
     3
 72
    14
 73
    10
 74
     0
 42
0.00000001
 43
0.00000001
 40
0.0
 40
0.0
 40
0.0
 40
0.0
 40
0.2499999999999987
 40
0.2499999999999987
 40
0.3749999999999981
 40
0.3749999999999981
 40
0.4999999999999974
 40
0.4999999999999974
 40
1.0
 40
1.0
 40
1.0
 40
1.0
 10
234.8625244044045
 20
297.3858044480308
 30
0.0
 10
234.8625244044045
 20
296.9908262479901
 30
0.0
 10
234.8553574982263
 20
296.5998185571509
 30
0.0
 10
234.8342522835211
 20
296.0190412491824
 30
0.0
 10
234.8254812974778
 20
295.8264100674316
 30
0.0
 10
234.8044142150243
 20
295.4430987128712
 30
0.0
 10
234.7920470642421
 20
295.2516275906641
 30
0.0
 10
234.7224697727872
 20
294.3166504346576
 30
0.0
 10
234.6421057554628
 20
293.6264211998417
 30
0.0
 10
234.5375584407815
 20
292.9997578297023
 30
0.0
  0
ARC
  5
153
330
1F
100
AcDbEntity
  8
0
  6
Continuous
 62
     8
370
    18
100
AcDbCircle
 10
233.1235834844
 20
314.6443955867
 30
0.0
 40
17.34597600637785
100
AcDbArc
 50
268.5704065105
 51
275.7535894247
  0
SPLINE
  5
154
330
1F
100
AcDbEntity
  8
0
  6
Continuous
 62
     8
370
    18
100
AcDbSpline
210
0.0
220
0.0
230
1.0
 70
     8
 71
     3
 72
    11
 73
     7
 74
     0
 42
0.00000001
 43
0.00000001
 40
0.0
 40
0.0
 40
0.0
 40
0.0
 40
0.4104112162778361
 40
0.702190029633445
 40
0.9969672011878392
 40
0.9999999999999999
 40
0.9999999999999999
 40
0.9999999999999999
 40
0.9999999999999999
 10
218.2508719166082
 20
284.7886510061117
 30
0.0
 10
217.6685213019044
 20
284.6513350000815
 30
0.0
 10
216.6721528324834
 20
284.4163951969786
 30
0.0
 10
215.1316137218086
 20
283.8225551475388
 30
0.0
 10
214.21801331632
 20
283.4272860775803
 30
0.0
 10
213.7555811734936
 20
283.2106357229198
 30
0.0
 10
213.7508719166083
 20
283.208429426947
 30
0.0
  0
LINE
  5
155
330
1F
100
AcDbEntity
  8
0
  6
Continuous
 62
     8
370
    18
100
AcDbLine
 10
218.2508719166
 20
283.2084294269
 30
0.0
 11
213.7508719166
 21
283.2084294269
 31
0.0
  0
LINE
  5
156
330
1F
100
AcDbEntity
  8
0
  6
Continuous
 62
     8
370
    18
100
AcDbLine
 10
195.1129983542
 20
273.4126857325
 30
0.0
 11
195.1129983542
 21
323.4126857325
 31
0.0
  0
LINE
  5
157
330
1F
100
AcDbEntity
  8
0
  6
Continuous
 62
     8
370
    18
100
AcDbLine
 10
232.6908269767
 20
297.3038187387
 30
0.0
 11
232.6908269767
 21
323.4127846427
 31
0.0
  0
LINE
  5
158
330
1F
100
AcDbEntity
  8
0
  6
Continuous
 62
     8
370
    18
100
AcDbLine
 10
234.8625244044
 20
284.3324854888
 30
0.0
 11
234.8625244044
 21
275.261031487
 31
0.0
  0
LINE
  5
159
330
1F
100
AcDbEntity
  8
0
  6
Continuous
 62
     8
370
    18
100
AcDbLine
 10
234.8625244044
 20
321.5645377983
 30
0.0
 11
234.8625244044
 21
297.385804448
 31
0.0
  0
ARC
  5
15A
330
1F
100
AcDbEntity
  8
0
  6
Continuous
 62
     8
370
    18
100
AcDbCircle
 10
233.7818258896
 20
284.6580116457
 30
0.0
 40
1.128661401252943
100
AcDbArc
 50
312.9514867759
 51
343.2367380078
  0
SPLINE
  5
15B
330
1F
100
AcDbEntity
  8
0
  6
Continuous
 62
     8
370
    18
100
AcDbSpline
210
0.0
220
0.0
230
1.0
 70
     8
 71
     3
 72
    16
 73
    12
 74
     0
 42
0.00000001
 43
0.00000001
 40
0.0
 40
0.0
 40
0.0
 40
0.0
 40
0.2500000000000054
 40
0.2500000000000054
 40
0.5000000000000109
 40
0.5000000000000109
 40
0.6250000000000099
 40
0.6250000000000099
 40
0.750000000000009
 40
0.750000000000009
 40
1.0
 40
1.0
 40
1.0
 40
1.0
 10
234.5375584407815
 20
286.8209929974383
 30
0.0
 10
234.5897660309095
 20
286.7322630956884
 30
0.0
 10
234.636266289106
 20
286.6107906769518
 30
0.0
 10
234.7165214276363
 20
286.3088593490018
 30
0.0
 10
234.7505670370621
 20
286.1279769388786
 30
0.0
 10
234.7922345948359
 20
285.8103108291502
 30
0.0
 10
234.8045665551135
 20
285.6962269378881
 30
0.0
 10
234.8255781090049
 20
285.4565301209786
 30
0.0
 10
234.8343261378597
 20
285.3305172755312
 30
0.0
 10
234.855376193133
 20
284.9342533747599
 30
0.0
 10
234.8625244044045
 20
284.6459168415026
 30
0.0
 10
234.8625244044045
 20
284.332485488841
 30
0.0
  0
ARC
  5
15C
330
1F
100
AcDbEntity
  8
0
  6
Continuous
 62
     7
370
    25
100
AcDbCircle
 10
321.9264223195
 20
376.3132140044
 30
0.0
 40
0.3000000000000114
100
AcDbArc
 50
180.0
 51
270.0
  0
ARC
  5
15D
330
1F
100
AcDbEntity
  8
0
  6
Continuous
 62
     7
370
    25
100
AcDbCircle
 10
375.3264223195
 20
376.3132140044
 30
0.0
 40
0.3000000000000114
100
AcDbArc
 50
270.0
 51
0.0
  0
LINE
  5
15E
330
1F
100
AcDbEntity
  8
0
  6
Continuous
 62
     7
370
    25
100
AcDbLine
 10
321.6264223195
 20
489.5132140044
 30
0.0
 11
321.6264223195
 21
376.3132140044
 31
0.0
  0
LINE
  5
15F
330
1F
100
AcDbEntity
  8
0
  6
Continuous
 62
     7
370
    25
100
AcDbLine
 10
375.6264223195
 20
376.3132140044
 30
0.0
 11
375.6264223195
 21
489.5132140044
 31
0.0
  0
ARC
  5
160
330
1F
100
AcDbEntity
  8
0
  6
Continuous
 62
     7
370
    25
100
AcDbCircle
 10
321.8264223195
 20
489.5132140044
 30
0.0
 40
0.1999999999999886
100
AcDbArc
 50
90.0
 51
180.0
  0
ARC
  5
161
330
1F
100
AcDbEntity
  8
0
  6
Continuous
 62
     7
370
    25
100
AcDbCircle
 10
375.4264223195
 20
489.5132140044
 30
0.0
 40
0.1999999999999886
100
AcDbArc
 50
0.0
 51
90.0
  0
LINE
  5
162
330
1F
100
AcDbEntity
  8
0
  6
Continuous
 62
     7
370
    25
100
AcDbLine
 10
321.6264223195
 20
523.0892810582
 30
0.0
 11
321.6264223195
 21
518.5132140044
 31
0.0
  0
LINE
  5
163
330
1F
100
AcDbEntity
  8
0
  6
Continuous
 62
     7
370
    25
100
AcDbLine
 10
375.6264223195
 20
518.5132140044
 30
0.0
 11
375.6264223195
 21
523.0892810582
 31
0.0
  0
LINE
  5
164
330
1F
100
AcDbEntity
  8
0
  6
Continuous
 62
     7
370
    25
100
AcDbLine
 10
321.6264223195
 20
518.0132140044
 30
0.0
 11
321.6264223195
 21
490.0132140044
 31
0.0
  0
LINE
  5
165
330
1F
100
AcDbEntity
  8
0
  6
Continuous
 62
     7
370
    25
100
AcDbLine
 10
375.6264223195
 20
490.0132140044
 30
0.0
 11
375.6264223195
 21
518.0132140044
 31
0.0
  0
ARC
  5
166
330
1F
100
AcDbEntity
  8
0
  6
Continuous
 62
     7
370
    25
100
AcDbCircle
 10
321.8264223195
 20
518.5132140044
 30
0.0
 40
0.1999999999999886
100
AcDbArc
 50
180.0
 51
270.0
  0
ARC
  5
167
330
1F
100
AcDbEntity
  8
0
  6
Continuous
 62
     7
370
    25
100
AcDbCircle
 10
375.4264223195
 20
518.5132140044
 30
0.0
 40
0.1999999999999886
100
AcDbArc
 50
270.0
 51
0.0
  0
ARC
  5
168
330
1F
100
AcDbEntity
  8
0
  6
Continuous
 62
     7
370
    25
100
AcDbCircle
 10
375.3264223195
 20
523.0892810582
 30
0.0
 40
0.3000000000000533
100
AcDbArc
 50
0.0
 51
89.5
  0
ARC
  5
169
330
1F
100
AcDbEntity
  8
0
  6
Continuous
 62
     7
370
    25
100
AcDbCircle
 10
321.9264223195
 20
523.0892810582
 30
0.0
 40
0.3000000000000528
100
AcDbArc
 50
90.5
 51
180.0
  0
LINE
  5
16A
330
1F
100
AcDbEntity
  8
0
  6
Continuous
 62
     7
370
    25
100
AcDbLine
 10
375.3290402801
 20
523.3892696352
 30
0.0
 11
361.0764223195
 21
523.5136503478
 31
0.0
  0
LINE
  5
16B
330
1F
100
AcDbEntity
  8
0
  6
Continuous
 62
     7
370
    25
100
AcDbLine
 10
336.1764223195
 20
523.5136503478
 30
0.0
 11
321.9238043588
 21
523.3892696352
 31
0.0
  0
LINE
  5
16C
330
1F
100
AcDbEntity
  8
0
  6
Continuous
 62
     7
370
    25
100
AcDbLine
 10
322.1264223195
 20
518.3132140044
 30
0.0
 11
322.1264223195
 21
518.0132140044
 31
0.0
  0
LINE
  5
16D
330
1F
100
AcDbEntity
  8
0
  6
Continuous
 62
     7
370
    25
100
AcDbLine
 10
375.1264223195
 20
518.0132140044
 30
0.0
 11
375.1264223195
 21
518.3132140044
 31
0.0
  0
LINE
  5
16E
330
1F
100
AcDbEntity
  8
0
  6
Continuous
 62
     7
370
    25
100
AcDbLine
 10
375.1264223195
 20
489.7132140044
 30
0.0
 11
375.1264223195
 21
490.0132140044
 31
0.0
  0
LINE
  5
16F
330
1F
100
AcDbEntity
  8
0
  6
Continuous
 62
     7
370
    25
100
AcDbLine
 10
322.1264223195
 20
490.0132140044
 30
0.0
 11
322.1264223195
 21
489.7132140044
 31
0.0
  0
ARC
  5
170
330
1F
100
AcDbEntity
  8
0
  6
Continuous
 62
     7
370
    25
100
AcDbCircle
 10
324.1264223195
 20
377.5132140044
 30
0.0
 40
2.0
100
AcDbArc
 50
228.5903778907
 51
270.0
  0
ARC
  5
171
330
1F
100
AcDbEntity
  8
0
  6
Continuous
 62
     7
370
    25
100
AcDbCircle
 10
373.1264223195
 20
377.5132140044
 30
0.0
 40
2.000000000000003
100
AcDbArc
 50
270.0
 51
311.4096221093
  0
LINE
  5
172
330
1F
100
AcDbEntity
  8
0
  6
Continuous
 62
     7
370
    25
100
AcDbLine
 10
324.1264223195
 20
375.5132140044
 30
0.0
 11
373.1264223195
 21
375.5132140044
 31
0.0
  0
LINE
  5
173
330
1F
100
AcDbEntity
  8
0
  6
Continuous
 62
     7
370
    25
100
AcDbLine
 10
336.1764223195
 20
523.7132140044
 30
0.0
 11
336.1764223195
 21
523.5136503478
 31
0.0
  0
LINE
  5
174
330
1F
100
AcDbEntity
  8
0
  6
Continuous
 62
     7
370
    25
100
AcDbLine
 10
361.0764223195
 20
523.5136503478
 30
0.0
 11
361.0764223195
 21
523.7132140044
 31
0.0
  0
LINE
  5
175
330
1F
100
AcDbEntity
  8
0
  6
Continuous
 62
     7
370
    25
100
AcDbLine
 10
337.1264223195
 20
654.9132140044
 30
0.0
 11
337.1264223195
 21
523.7132140044
 31
0.0
  0
LINE
  5
176
330
1F
100
AcDbEntity
  8
0
  6
Continuous
 62
     7
370
    25
100
AcDbLine
 10
360.1264223195
 20
523.7132140044
 30
0.0
 11
360.1264223195
 21
654.9132140044
 31
0.0
  0
ARC
  5
177
330
1F
100
AcDbEntity
  8
0
  6
Continuous
 62
     7
370
    25
100
AcDbCircle
 10
398.6264223195
 20
654.9132140044
 30
0.0
 40
38.50000000000011
100
AcDbArc
 50
90.0
 51
180.0
  0
ARC
  5
178
330
1F
100
AcDbEntity
  8
0
  6
Continuous
 62
     7
370
    25
100
AcDbCircle
 10
398.6264223195
 20
654.9132140044
 30
0.0
 40
61.5
100
AcDbArc
 50
90.0
 51
180.0
  0
LINE
  5
179
330
1F
100
AcDbEntity
  8
0
  6
Continuous
 62
     7
370
    25
100
AcDbLine
 10
557.4264223195
 20
716.4132140044
 30
0.0
 11
398.6264223195
 21
716.4132140044
 31
0.0
  0
LINE
  5
17A
330
1F
100
AcDbEntity
  8
0
  6
Continuous
 62
     7
370
    25
100
AcDbLine
 10
551.7764223195
 20
693.4132140044
 30
0.0
 11
557.4264223195
 21
693.4132140044
 31
0.0
  0
LINE
  5
17B
330
1F
100
AcDbEntity
  8
0
  6
Continuous
 62
     7
370
    25
100
AcDbLine
 10
398.6264223195
 20
693.4132140044
 30
0.0
 11
533.1610414187
 21
693.4132140044
 31
0.0
  0
LINE
  5
17C
330
1F
100
AcDbEntity
  8
0
  6
Continuous
 62
     7
370
    25
100
AcDbLine
 10
557.4264223195
 20
693.4132140044
 30
0.0
 11
557.6264223195
 21
693.4132140044
 31
0.0
  0
LINE
  5
17D
330
1F
100
AcDbEntity
  8
0
  6
Continuous
 62
     7
370
    25
100
AcDbLine
 10
557.6264223195
 20
716.4132140044
 30
0.0
 11
557.4264223195
 21
716.4132140044
 31
0.0
  0
ARC
  5
17E
330
1F
100
AcDbEntity
  8
0
  6
Continuous
 62
     7
370
    25
100
AcDbCircle
 10
557.6264223195
 20
694.4132140044
 30
0.0
 40
1.0
100
AcDbArc
 50
270.0
 51
0.0
  0
ARC
  5
17F
330
1F
100
AcDbEntity
  8
0
  6
Continuous
 62
     7
370
    25
100
AcDbCircle
 10
557.6264223195
 20
715.4132140044
 30
0.0
 40
1.0
100
AcDbArc
 50
0.0
 51
90.0
  0
LINE
  5
180
330
1F
100
AcDbEntity
  8
0
  6
Continuous
 62
     7
370
    25
100
AcDbLine
 10
533.0764223195
 20
693.4817604827
 30
0.0
 11
533.0764223195
 21
690.7632140044
 31
0.0
  0
LINE
  5
181
330
1F
100
AcDbEntity
  8
0
  6
Continuous
 62
     7
370
    25
100
AcDbLine
 10
551.7764223195
 20
690.7632140044
 30
0.0
 11
551.7764223195
 21
693.4132140044
 31
0.0
  0
ARC
  5
182
330
1F
100
AcDbEntity
  8
0
  6
Continuous
 62
     7
370
    25
100
AcDbCircle
 10
377.8668036213
 20
537.6369378578
 30
0.0
 40
2.20000000000003
100
AcDbArc
 50
70.0
 51
160.0
  0
LINE
  5
183
330
1F
100
AcDbEntity
  8
0
  6
Continuous
 62
     7
370
    25
100
AcDbLine
 10
382.659926206
 20
538.2335750073
 30
0.0
 11
378.6192479366
 21
539.7042616236
 31
0.0
  0
ARC
  5
184
330
1F
100
AcDbEntity
  8
0
  6
Continuous
 62
     7
370
    25
100
AcDbCircle
 10
381.9074818907
 20
536.1662512415
 30
0.0
 40
2.20000000000003
100
AcDbArc
 50
340.0
 51
70.0
  0
LINE
  5
185
330
1F
100
AcDbEntity
  8
0
  6
Continuous
 62
     7
370
    25
100
AcDbLine
 10
375.3264223195
 20
376.0132140044
 30
0.0
 11
321.9264223195
 21
376.0132140044
 31
0.0
  0
LINE
  5
186
330
1F
100
AcDbEntity
  8
0
  6
Continuous
 62
     7
370
    25
100
AcDbLine
 10
321.8264224324
 20
489.7132140044
 30
0.0
 11
375.4264223195
 21
489.7132140044
 31
0.0
  0
LINE
  5
187
330
1F
100
AcDbEntity
  8
0
  6
Continuous
 62
     7
370
    25
100
AcDbLine
 10
321.6264223195
 20
490.0132140044
 30
0.0
 11
375.6264223195
 21
490.0132140044
 31
0.0
  0
LINE
  5
188
330
1F
100
AcDbEntity
  8
0
  6
Continuous
 62
     7
370
    25
100
AcDbLine
 10
321.6264223195
 20
518.0132140044
 30
0.0
 11
375.6264223195
 21
518.0132140044
 31
0.0
  0
LINE
  5
189
330
1F
100
AcDbEntity
  8
0
  6
Continuous
 62
     7
370
    25
100
AcDbLine
 10
375.4264223195
 20
518.3132140044
 30
0.0
 11
321.8264223195
 21
518.3132140044
 31
0.0
  0
LINE
  5
18A
330
1F
100
AcDbEntity
  8
0
  6
Continuous
 62
     7
370
    25
100
AcDbLine
 10
336.1764223195
 20
523.5136503478
 30
0.0
 11
361.0764223195
 21
523.5136503478
 31
0.0
  0
LINE
  5
18B
330
1F
100
AcDbEntity
  8
0
  6
Continuous
 62
     7
370
    25
100
AcDbLine
 10
336.1764223195
 20
523.7132140044
 30
0.0
 11
361.0764223195
 21
523.7132140044
 31
0.0
  0
SPLINE
  5
18C
330
1F
100
AcDbEntity
  8
0
  6
Continuous
 62
     7
370
    25
100
AcDbSpline
210
0.0
220
0.0
230
1.0
 70
     8
 71
     3
 72
    20
 73
    16
 74
     0
 42
0.00000001
 43
0.00000001
 40
0.0
 40
0.0
 40
0.0
 40
0.0
 40
0.0270118481207813
 40
0.1062148195226195
 40
0.1890872776284364
 40
0.3093503846886639
 40
0.3695303728669814
 40
0.4318588178842426
 40
0.4947061123358663
 40
0.5577560734056906
 40
0.6429061441535266
 40
0.7674475532216917
 40
0.8712987415517229
 40
0.9560650821072509
 40
1.0
 40
1.0
 40
1.0
 40
1.0
 10
533.1610414186754
 20
693.4818333516371
 30
0.0
 10
533.1366778796157
 20
693.4620819766453
 30
0.0
 10
533.040876626307
 20
693.38441647517
 30
0.0
 10
533.5965137254358
 20
693.8362081252815
 30
0.0
 10
534.8536691199836
 20
694.8212707085984
 30
0.0
 10
536.6394855785353
 20
696.1167895681438
 30
0.0
 10
538.6064788785824
 20
697.2445388539978
 30
0.0
 10
540.3100897196603
 20
697.9649161303852
 30
0.0
 10
542.253053590524
 20
698.3177040746854
 30
0.0
 10
544.4614837375462
 20
698.0296109509885
 30
0.0
 10
546.9679307778717
 20
696.9271186975559
 30
0.0
 10
549.3006119995921
 20
695.3511407749884
 30
0.0
 10
550.9860143943931
 20
694.053632098987
 30
0.0
 10
551.6971228257377
 20
693.477681497058
 30
0.0
 10
551.7562410526041
 20
693.429620611947
 30
0.0
 10
551.7764223194749
 20
693.4132140043765
 30
0.0
  0
LINE
  5
18D
330
1F
100
AcDbEntity
  8
0
  6
Continuous
 62
     7
370
    25
100
AcDbLine
 10
558.6264223195
 20
704.9132140044
 30
0.0
 11
558.6264223195
 21
715.4132140044
 31
0.0
  0
LINE
  5
18E
330
1F
100
AcDbEntity
  8
0
  6
Continuous
 62
     7
370
    25
100
AcDbLine
 10
558.6264223195
 20
694.4132140044
 30
0.0
 11
558.6264223195
 21
704.9132140044
 31
0.0
  0
LINE
  5
18F
330
1F
100
AcDbEntity
  8
0
  6
Continuous
 62
     7
370
    25
100
AcDbLine
 10
533.0764223195
 20
690.7632140044
 30
0.0
 11
551.7764223195
 21
690.7632140044
 31
0.0
  0
LINE
  5
190
330
1F
100
AcDbEntity
  8
0
  6
Continuous
 62
     7
370
    25
100
AcDbLine
 10
370.3556823579
 20
523.4326714722
 30
0.0
 11
373.7644600028
 21
532.7982110795
 31
0.0
  0
LINE
  5
191
330
1F
100
AcDbEntity
  8
0
  6
Continuous
 62
     7
370
    25
100
AcDbLine
 10
381.9397858037
 20
529.8226358326
 30
0.0
 11
375.6264223195
 21
512.476812219
 31
0.0
  0
LINE
  5
192
330
1F
100
AcDbEntity
  8
0
  6
Continuous
 62
     7
370
    25
100
AcDbLine
 10
373.7644600028
 20
532.7982110795
 30
0.0
 11
375.7994798556
 21
538.3893821732
 31
0.0
  0
LINE
  5
193
330
1F
100
AcDbEntity
  8
0
  6
Continuous
 62
     7
370
    25
100
AcDbLine
 10
383.9748056564
 20
535.4138069262
 30
0.0
 11
381.9397858037
 21
529.8226358326
 31
0.0
  0
LINE
  5
194
330
1F
100
AcDbEntity
  8
0
  6
Continuous
 62
     8
370
    18
100
AcDbLine
 10
321.6264223195
 20
376.3132140044
 30
0.0
 11
375.6264223195
 21
376.3132140044
 31
0.0
  0
LINE
  5
195
330
1F
100
AcDbEntity
  8
0
  6
Continuous
 62
     8
370
    18
100
AcDbLine
 10
375.6264223195
 20
489.5132140044
 30
0.0
 11
321.6264223195
 21
489.5132140044
 31
0.0
  0
LINE
  5
196
330
1F
100
AcDbEntity
  8
0
  6
Continuous
 62
     8
370
    18
100
AcDbLine
 10
375.6264223195
 20
523.0892810582
 30
0.0
 11
321.6264223195
 21
523.0892810582
 31
0.0
  0
LINE
  5
197
330
1F
100
AcDbEntity
  8
0
  6
Continuous
 62
     8
370
    18
100
AcDbLine
 10
321.6264223195
 20
518.5132140044
 30
0.0
 11
375.6264223195
 21
518.5132140044
 31
0.0
  0
LINE
  5
198
330
1F
100
AcDbEntity
  8
0
  6
Continuous
 62
     8
370
    18
100
AcDbLine
 10
321.9238043588
 20
523.3892696352
 30
0.0
 11
375.3290402801
 21
523.3892696352
 31
0.0
  0
LINE
  5
199
330
1F
100
AcDbEntity
  8
0
  6
Continuous
 62
     8
370
    18
100
AcDbLine
 10
348.6264223195
 20
654.9132140044
 30
0.0
 11
360.1264223195
 21
654.9132140044
 31
0.0
  0
LINE
  5
19A
330
1F
100
AcDbEntity
  8
0
  6
Continuous
 62
     8
370
    18
100
AcDbLine
 10
337.1264223195
 20
654.9132140044
 30
0.0
 11
348.6264223195
 21
654.9132140044
 31
0.0
  0
LINE
  5
19B
330
1F
100
AcDbEntity
  8
0
  6
Continuous
 62
     8
370
    18
100
AcDbLine
 10
398.6264223195
 20
704.9132140044
 30
0.0
 11
398.6264223195
 21
693.4132140044
 31
0.0
  0
LINE
  5
19C
330
1F
100
AcDbEntity
  8
0
  6
Continuous
 62
     8
370
    18
100
AcDbLine
 10
398.6264223195
 20
716.4132140044
 30
0.0
 11
398.6264223195
 21
704.9132140044
 31
0.0
  0
LINE
  5
19D
330
1F
100
AcDbEntity
  8
0
  6
Continuous
 62
     8
370
    18
100
AcDbLine
 10
557.4264223195
 20
704.9132140044
 30
0.0
 11
557.4264223195
 21
693.4132140044
 31
0.0
  0
LINE
  5
19E
330
1F
100
AcDbEntity
  8
0
  6
Continuous
 62
     8
370
    18
100
AcDbLine
 10
557.4264223195
 20
716.4132140044
 30
0.0
 11
557.4264223195
 21
704.9132140044
 31
0.0
  0
LINE
  5
19F
330
1F
100
AcDbEntity
  8
0
  6
Continuous
 62
     8
370
    18
100
AcDbLine
 10
557.6264223195
 20
704.9132140044
 30
0.0
 11
557.6264223195
 21
716.4132140044
 31
0.0
  0
LINE
  5
1A0
330
1F
100
AcDbEntity
  8
0
  6
Continuous
 62
     8
370
    18
100
AcDbLine
 10
557.6264223195
 20
693.4132140044
 30
0.0
 11
557.6264223195
 21
704.9132140044
 31
0.0
  0
LINE
  5
1A1
330
1F
100
AcDbEntity
  8
0
  6
Continuous
 62
     8
370
    18
100
AcDbLine
 10
375.3003166749
 20
518.0132140044
 30
0.0
 11
375.4095077451
 21
518.3132140044
 31
0.0
  0
LINE
  5
1A2
330
1F
100
AcDbEntity
  8
0
  6
Continuous
 62
     8
370
    18
100
AcDbLine
 10
375.6264223195
 20
518.9091818993
 30
0.0
 11
379.8724620379
 21
530.5750801479
 31
0.0
  0
LINE
  5
1A3
330
1F
100
AcDbEntity
  8
0
  6
Continuous
 62
     8
370
    18
100
AcDbLine
 10
375.8317837685
 20
532.0457667642
 30
0.0
 11
372.6894606305
 21
523.4123048978
 31
0.0
  0
LINE
  5
1A4
330
1F
100
AcDbEntity
  8
0
  6
Continuous
 62
     8
370
    18
100
AcDbLine
 10
378.6192479366
 20
539.7042616236
 30
0.0
 11
375.8317837685
 21
532.0457667642
 31
0.0
  0
LINE
  5
1A5
330
1F
100
AcDbEntity
  8
0
  6
Continuous
 62
     8
370
    18
100
AcDbLine
 10
379.8724620379
 20
530.5750801479
 30
0.0
 11
382.659926206
 21
538.2335750073
 31
0.0
  0
ENDSEC
  0
SECTION
  2
OBJECTS
  0
DICTIONARY
  5
C
330
0
100
AcDbDictionary
281
     1
  3
ACAD_GROUP
350
D
  3
ACAD_LAYOUT
350
1A
  3
ACAD_MLINESTYLE
350
17
  3
ACAD_PLOTSETTINGS
350
19
  3
ACAD_PLOTSTYLENAME
350
E
  3
ACAD_SCALELIST
350
47
  3
DWGPROPS
350
1A6
  0
DICTIONARY
  5
D
102
{ACAD_REACTORS
330
C
102
}
330
C
100
AcDbDictionary
281
     1
  0
DICTIONARY
  5
1A
102
{ACAD_REACTORS
330
C
102
}
330
C
100
AcDbDictionary
281
     1
  3
Layout1
350
1E
  3
Layout2
350
26
  3
Model
350
22
  0
DICTIONARY
  5
17
102
{ACAD_REACTORS
330
C
102
}
330
C
100
AcDbDictionary
281
     1
  3
Standard
350
18
  0
DICTIONARY
  5
19
102
{ACAD_REACTORS
330
C
102
}
330
C
100
AcDbDictionary
281
     1
  0
ACDBDICTIONARYWDFLT
  5
E
102
{ACAD_REACTORS
330
C
102
}
330
C
100
AcDbDictionary
281
     1
  3
Normal
350
F
100
AcDbDictionaryWithDefault
340
F
  0
DICTIONARY
  5
47
102
{ACAD_REACTORS
330
C
102
}
330
C
100
AcDbDictionary
281
     1
  3
A0
350
48
  3
A1
350
49
  3
A2
350
4A
  3
A3
350
4B
  3
A4
350
4C
  3
A5
350
4D
  3
A6
350
4E
  3
A7
350
4F
  3
A8
350
50
  3
A9
350
51
  3
B0
350
52
  3
B1
350
53
  3
B2
350
54
  3
B3
350
55
  3
B4
350
56
  3
B5
350
57
  3
B6
350
58
  3
B7
350
59
  3
B8
350
5A
  3
B9
350
5B
  3
C0
350
5C
  3
C1
350
5D
  3
C2
350
5E
  3
C3
350
5F
  3
C4
350
60
  3
C5
350
61
  3
C6
350
62
  3
C7
350
63
  3
C8
350
64
  3
C9
350
65
  3
D0
350
66
  3
D1
350
67
  3
D2
350
68
  0
XRECORD
  5
1A6
102
{ACAD_REACTORS
330
C
102
}
330
C
100
AcDbXrecord
280
     1
  1
DWGPROPS COOKIE
  2

  3

  4

  6

  7

  8
mkramer
  9

300
=
301
=
302
=
303
=
304
=
305
=
306
=
307
=
308
=
309
=
 40
0.0
 41
2459535.413340231
 42
2459535.413340949
  1

 90
        0
  0
LAYOUT
  5
1E
102
{ACAD_REACTORS
330
1A
102
}
330
1A
100
AcDbPlotSettings
  1

  2
none_device
  4

  6

 40
0.0
 41
0.0
 42
0.0
 43
0.0
 44
0.0
 45
0.0
 46
0.0
 47
0.0
 48
0.0
 49
0.0
140
0.0
141
0.0
142
1.0
143
1.0
 70
   688
 72
     1
 73
     0
 74
     5
  7

 75
    16
147
1.0
148
0.0
149
0.0
100
AcDbLayout
  1
Layout1
 70
     1
 71
     1
 10
0.0
 20
0.0
 11
420.0
 21
297.0
 12
0.0
 22
0.0
 32
0.0
 14
1.0000000000E+20
 24
1.0000000000E+20
 34
1.0000000000E+20
 15
-1.0000000000E+20
 25
-1.0000000000E+20
 35
-1.0000000000E+20
146
0.0
 13
0.0
 23
0.0
 33
0.0
 16
1.0
 26
0.0
 36
0.0
 17
0.0
 27
1.0
 37
0.0
 76
     0
330
1B
  0
LAYOUT
  5
26
102
{ACAD_REACTORS
330
1A
102
}
330
1A
100
AcDbPlotSettings
  1

  2
none_device
  4

  6

 40
0.0
 41
0.0
 42
0.0
 43
0.0
 44
0.0
 45
0.0
 46
0.0
 47
0.0
 48
0.0
 49
0.0
140
0.0
141
0.0
142
1.0
143
1.0
 70
   688
 72
     1
 73
     0
 74
     5
  7

 75
    16
147
1.0
148
0.0
149
0.0
100
AcDbLayout
  1
Layout2
 70
     1
 71
     2
 10
0.0
 20
0.0
 11
0.0
 21
0.0
 12
0.0
 22
0.0
 32
0.0
 14
0.0
 24
0.0
 34
0.0
 15
0.0
 25
0.0
 35
0.0
146
0.0
 13
0.0
 23
0.0
 33
0.0
 16
1.0
 26
0.0
 36
0.0
 17
0.0
 27
1.0
 37
0.0
 76
     0
330
23
  0
LAYOUT
  5
22
102
{ACAD_REACTORS
330
1A
102
}
330
1A
100
AcDbPlotSettings
  1

  2
none_device
  4
Letter_(8.50_x_11.00_Inches)
  6

 40
6.35
 41
6.35
 42
6.35000508
 43
6.35000508
 44
215.9
 45
279.4
 46
0.0
 47
0.0
 48
0.0
 49
0.0
140
0.0
141
0.0
142
1.0
143
1.0
 70
  1712
 72
     1
 73
     0
 74
     0
  7

 75
     0
147
1.0
148
0.0
149
0.0
100
AcDbLayout
  1
Model
 70
     1
 71
     0
 10
0.0
 20
0.0
 11
594.0
 21
841.0
 12
0.0
 22
0.0
 32
0.0
 14
0.0
 24
0.0
 34
0.0
 15
594.0
 25
841.0
 35
0.0
146
0.0
 13
0.0
 23
0.0
 33
0.0
 16
1.0
 26
0.0
 36
0.0
 17
0.0
 27
1.0
 37
0.0
 76
     0
330
1F
331
29
  0
MLINESTYLE
  5
18
102
{ACAD_REACTORS
330
17
102
}
330
17
100
AcDbMlineStyle
  2
Standard
 70
     0
  3

 62
   256
 51
90.0
 52
90.0
 71
     2
 49
0.5
 62
   256
  6
BYLAYER
 49
-0.5
 62
   256
  6
BYLAYER
  0
ACDBPLACEHOLDER
  5
F
102
{ACAD_REACTORS
330
E
102
}
330
E
  0
SCALE
  5
48
102
{ACAD_REACTORS
330
47
102
}
330
47
100
AcDbScale
 70
     0
300
1:1
140
1.0
141
1.0
290
     1
  0
SCALE
  5
49
102
{ACAD_REACTORS
330
47
102
}
330
47
100
AcDbScale
 70
     0
300
1:2
140
1.0
141
2.0
290
     0
  0
SCALE
  5
4A
102
{ACAD_REACTORS
330
47
102
}
330
47
100
AcDbScale
 70
     0
300
1:4
140
1.0
141
4.0
290
     0
  0
SCALE
  5
4B
102
{ACAD_REACTORS
330
47
102
}
330
47
100
AcDbScale
 70
     0
300
1:5
140
1.0
141
5.0
290
     0
  0
SCALE
  5
4C
102
{ACAD_REACTORS
330
47
102
}
330
47
100
AcDbScale
 70
     0
300
1:8
140
1.0
141
8.0
290
     0
  0
SCALE
  5
4D
102
{ACAD_REACTORS
330
47
102
}
330
47
100
AcDbScale
 70
     0
300
1:10
140
1.0
141
10.0
290
     0
  0
SCALE
  5
4E
102
{ACAD_REACTORS
330
47
102
}
330
47
100
AcDbScale
 70
     0
300
1:16
140
1.0
141
16.0
290
     0
  0
SCALE
  5
4F
102
{ACAD_REACTORS
330
47
102
}
330
47
100
AcDbScale
 70
     0
300
1:20
140
1.0
141
20.0
290
     0
  0
SCALE
  5
50
102
{ACAD_REACTORS
330
47
102
}
330
47
100
AcDbScale
 70
     0
300
1:30
140
1.0
141
30.0
290
     0
  0
SCALE
  5
51
102
{ACAD_REACTORS
330
47
102
}
330
47
100
AcDbScale
 70
     0
300
1:40
140
1.0
141
40.0
290
     0
  0
SCALE
  5
52
102
{ACAD_REACTORS
330
47
102
}
330
47
100
AcDbScale
 70
     0
300
1:50
140
1.0
141
50.0
290
     0
  0
SCALE
  5
53
102
{ACAD_REACTORS
330
47
102
}
330
47
100
AcDbScale
 70
     0
300
1:100
140
1.0
141
100.0
290
     0
  0
SCALE
  5
54
102
{ACAD_REACTORS
330
47
102
}
330
47
100
AcDbScale
 70
     0
300
2:1
140
2.0
141
1.0
290
     0
  0
SCALE
  5
55
102
{ACAD_REACTORS
330
47
102
}
330
47
100
AcDbScale
 70
     0
300
4:1
140
4.0
141
1.0
290
     0
  0
SCALE
  5
56
102
{ACAD_REACTORS
330
47
102
}
330
47
100
AcDbScale
 70
     0
300
8:1
140
8.0
141
1.0
290
     0
  0
SCALE
  5
57
102
{ACAD_REACTORS
330
47
102
}
330
47
100
AcDbScale
 70
     0
300
10:1
140
10.0
141
1.0
290
     0
  0
SCALE
  5
58
102
{ACAD_REACTORS
330
47
102
}
330
47
100
AcDbScale
 70
     0
300
100:1
140
100.0
141
1.0
290
     0
  0
SCALE
  5
59
102
{ACAD_REACTORS
330
47
102
}
330
47
100
AcDbScale
 70
     0
300
1/128" = 1'-0"
140
0.0078125
141
12.0
290
     0
  0
SCALE
  5
5A
102
{ACAD_REACTORS
330
47
102
}
330
47
100
AcDbScale
 70
     0
300
1/64" = 1'-0"
140
0.015625
141
12.0
290
     0
  0
SCALE
  5
5B
102
{ACAD_REACTORS
330
47
102
}
330
47
100
AcDbScale
 70
     0
300
1/32" = 1'-0"
140
0.03125
141
12.0
290
     0
  0
SCALE
  5
5C
102
{ACAD_REACTORS
330
47
102
}
330
47
100
AcDbScale
 70
     0
300
1/16" = 1'-0"
140
0.0625
141
12.0
290
     0
  0
SCALE
  5
5D
102
{ACAD_REACTORS
330
47
102
}
330
47
100
AcDbScale
 70
     0
300
3/32" = 1'-0"
140
0.09375
141
12.0
290
     0
  0
SCALE
  5
5E
102
{ACAD_REACTORS
330
47
102
}
330
47
100
AcDbScale
 70
     0
300
1/8" = 1'-0"
140
0.125
141
12.0
290
     0
  0
SCALE
  5
5F
102
{ACAD_REACTORS
330
47
102
}
330
47
100
AcDbScale
 70
     0
300
3/16" = 1'-0"
140
0.1875
141
12.0
290
     0
  0
SCALE
  5
60
102
{ACAD_REACTORS
330
47
102
}
330
47
100
AcDbScale
 70
     0
300
1/4" = 1'-0"
140
0.25
141
12.0
290
     0
  0
SCALE
  5
61
102
{ACAD_REACTORS
330
47
102
}
330
47
100
AcDbScale
 70
     0
300
3/8" = 1'-0"
140
0.375
141
12.0
290
     0
  0
SCALE
  5
62
102
{ACAD_REACTORS
330
47
102
}
330
47
100
AcDbScale
 70
     0
300
1/2" = 1'-0"
140
0.5
141
12.0
290
     0
  0
SCALE
  5
63
102
{ACAD_REACTORS
330
47
102
}
330
47
100
AcDbScale
 70
     0
300
3/4" = 1'-0"
140
0.75
141
12.0
290
     0
  0
SCALE
  5
64
102
{ACAD_REACTORS
330
47
102
}
330
47
100
AcDbScale
 70
     0
300
1" = 1'-0"
140
1.0
141
12.0
290
     0
  0
SCALE
  5
65
102
{ACAD_REACTORS
330
47
102
}
330
47
100
AcDbScale
 70
     0
300
1-1/2" = 1'-0"
140
1.5
141
12.0
290
     0
  0
SCALE
  5
66
102
{ACAD_REACTORS
330
47
102
}
330
47
100
AcDbScale
 70
     0
300
3" = 1'-0"
140
3.0
141
12.0
290
     0
  0
SCALE
  5
67
102
{ACAD_REACTORS
330
47
102
}
330
47
100
AcDbScale
 70
     0
300
6" = 1'-0"
140
6.0
141
12.0
290
     0
  0
SCALE
  5
68
102
{ACAD_REACTORS
330
47
102
}
330
47
100
AcDbScale
 70
     0
300
1'-0" = 1'-0"
140
12.0
141
12.0
290
     0
  0
ENDSEC
  0
EOF
