  0
SECTION
  2
HEADER
  9
$ACADVER
  1
AC1009
  9
$DWGCODEPAGE
  3
ansi_1252
  9
$INSBASE
 10
0.0
 20
0.0
 30
0.0
  9
$EXTMIN
 10
0.0
 20
0.0
 30
0.0
  9
$EXTMAX
 10
594.0
 20
841.0
 30
0.0
  9
$LIMMIN
 10
0.0
 20
0.0
  9
$LIMMAX
 10
594.0
 20
841.0
  9
$ORTHOMODE
 70
     0
  9
$REGENMODE
 70
     1
  9
$FILLMODE
 70
     1
  9
$QTEXTMODE
 70
     0
  9
$MIRRTEXT
 70
     1
  9
$DRAGMODE
 70
     2
  9
$LTSCALE
 40
1.0
  9
$OSMODE
 70
    37
  9
$ATTMODE
 70
     1
  9
$TEXTSIZE
 40
10.0
  9
$TRACEWID
 40
1.0
  9
$TEXTSTYLE
  7
STANDARD
  9
$CLAYER
  8
0
  9
$CELTYPE
  6
BYLAYER
  9
$CECOLOR
 62
   256
  9
$DIMSCALE
 40
1.0
  9
$DIMASZ
 40
2.5
  9
$DIMEXO
 40
0.0
  9
$DIMDLI
 40
3.75
  9
$DIMRND
 40
0.0
  9
$DIMDLE
 40
0.0
  9
$DIMEXE
 40
1.0
  9
$DIMTP
 40
0.0
  9
$DIMTM
 40
0.0
  9
$DIMTXT
 40
3.5
  9
$DIMCEN
 40
2.5
  9
$DIMTSZ
 40
0.0
  9
$DIMTOL
 70
     0
  9
$DIMLIM
 70
     0
  9
$DIMTIH
 70
     1
  9
$DIMTOH
 70
     1
  9
$DIMSE1
 70
     0
  9
$DIMSE2
 70
     0
  9
$DIMTAD
 70
     1
  9
$DIMZIN
 70
     0
  9
$DIMBLK
  1

  9
$DIMASO
 70
     1
  9
$DIMSHO
 70
     1
  9
$DIMPOST
  1

  9
$DIMAPOST
  1

  9
$DIMALT
 70
     0
  9
$DIMALTD
 70
     3
  9
$DIMALTF
 40
0.0393700787
  9
$DIMLFAC
 40
1.0
  9
$DIMTOFL
 70
     1
  9
$DIMTVP
 40
0.0
  9
$DIMTIX
 70
     0
  9
$DIMSOXD
 70
     0
  9
$DIMSAH
 70
     0
  9
$DIMBLK1
  1

  9
$DIMBLK2
  1

  9
$DIMSTYLE
  2
ISO-25
  9
$DIMCLRD
 70
     0
  9
$DIMCLRE
 70
     0
  9
$DIMCLRT
 70
     0
  9
$DIMTFAC
 40
1.0
  9
$DIMGAP
 40
1.5
  9
$LUNITS
 70
     2
  9
$LUPREC
 70
     2
  9
$SKETCHINC
 40
1.0
  9
$FILLETRAD
 40
10.0
  9
$AUNITS
 70
     0
  9
$AUPREC
 70
     2
  9
$MENU
  1
.
  9
$ELEVATION
 40
0.0
  9
$PELEVATION
 40
0.0
  9
$THICKNESS
 40
0.0
  9
$LIMCHECK
 70
     0
  9
$CHAMFERA
 40
0.0
  9
$CHAMFERB
 40
0.0
  9
$SKPOLY
 70
     0
  9
$TDCREATE
 40
2458443.431578877
  9
$TDUPDATE
 40
2458443.431579259
  9
$TDINDWG
 40
0.0000000116
  9
$TDUSRTIMER
 40
0.0000000116
  9
$USRTIMER
 70
     1
  9
$ANGBASE
 50
0.0
  9
$ANGDIR
 70
     0
  9
$PDMODE
 70
     0
  9
$PDSIZE
 40
-1.0
  9
$PLINEWID
 40
0.0
  9
$COORDS
 70
     1
  9
$SPLFRAME
 70
     0
  9
$SPLINETYPE
 70
     6
  9
$SPLINESEGS
 70
     8
  9
$ATTDIA
 70
     0
  9
$ATTREQ
 70
     1
  9
$HANDLING
 70
     1
  9
$HANDSEED
  5
51C
  9
$SURFTAB1
 70
     6
  9
$SURFTAB2
 70
     6
  9
$SURFTYPE
 70
     6
  9
$SURFU
 70
     6
  9
$SURFV
 70
     6
  9
$UCSNAME
  2

  9
$UCSORG
 10
0.0
 20
0.0
 30
0.0
  9
$UCSXDIR
 10
1.0
 20
0.0
 30
0.0
  9
$UCSYDIR
 10
0.0
 20
1.0
 30
0.0
  9
$PUCSNAME
  2

  9
$PUCSORG
 10
0.0
 20
0.0
 30
0.0
  9
$PUCSXDIR
 10
1.0
 20
0.0
 30
0.0
  9
$PUCSYDIR
 10
0.0
 20
1.0
 30
0.0
  9
$USERI1
 70
     0
  9
$USERI2
 70
     0
  9
$USERI3
 70
     0
  9
$USERI4
 70
     0
  9
$USERI5
 70
     0
  9
$USERR1
 40
0.0
  9
$USERR2
 40
0.0
  9
$USERR3
 40
0.0
  9
$USERR4
 40
0.0
  9
$USERR5
 40
0.0
  9
$WORLDVIEW
 70
     1
  9
$SHADEDGE
 70
     3
  9
$SHADEDIF
 70
    70
  9
$TILEMODE
 70
     1
  9
$MAXACTVP
 70
    64
  9
$PLIMCHECK
 70
     0
  9
$PEXTMIN
 10
1.0000000000E+20
 20
1.0000000000E+20
 30
1.0000000000E+20
  9
$PEXTMAX
 10
-1.0000000000E+20
 20
-1.0000000000E+20
 30
-1.0000000000E+20
  9
$PLIMMIN
 10
0.0
 20
0.0
  9
$PLIMMAX
 10
420.0
 20
297.0
  9
$UNITMODE
 70
     0
  9
$VISRETAIN
 70
     1
  9
$PLINEGEN
 70
     0
  9
$PSLTSCALE
 70
     1
  0
ENDSEC
  0
SECTION
  2
TABLES
  0
TABLE
  2
VPORT
 70
     1
  0
VPORT
  2
*ACTIVE
 70
     0
 10
0.0
 20
0.0
 11
1.0
 21
1.0
 12
297.0
 22
420.5
 13
0.0
 23
0.0
 14
10.0
 24
10.0
 15
10.0
 25
10.0
 16
0.0
 26
0.0
 36
1.0
 17
0.0
 27
0.0
 37
0.0
 40
841.0
 41
0.7063020214
 42
50.0
 43
0.0
 44
0.0
 50
0.0
 51
0.0
 71
     0
 72
  2000
 73
     1
 74
     3
 75
     0
 76
     0
 77
     0
 78
     0
  0
ENDTAB
  0
TABLE
  2
LTYPE
 70
     6
  0
LTYPE
  2
CONTINUOUS
 70
     0
  3
Solid line
 72
    65
 73
     0
 40
0.0
  0
LTYPE
  2
HIDDEN
 70
     0
  3
Hidden __ __ __ __ __ __ __ __ __ __ __ __ __ __
 72
    65
 73
     2
 40
1.905
 49
1.27
 49
-0.635
  0
LTYPE
  2
PHANTOM
 70
     0
  3
Phantom ______  __  __  ______  __  __  ______
 72
    65
 73
     6
 40
12.7
 49
6.35
 49
-1.27
 49
1.27
 49
-1.27
 49
1.27
 49
-1.27
  0
LTYPE
  2
CENTER
 70
     0
  3
Center ____ _ ____ _ ____ _ ____ _ ____ _ ____
 72
    65
 73
     4
 40
10.16
 49
6.35
 49
-1.27
 49
1.27
 49
-1.27
  0
LTYPE
  2
CENTERX2
 70
     0
  3
Center (2x) ________  __  ________  __  _____
 72
    65
 73
     4
 40
20.32
 49
12.7
 49
-2.54
 49
2.54
 49
-2.54
  0
LTYPE
  2
DOT2
 70
     0
  3
Dot (.5x) ........................................
 72
    65
 73
     2
 40
0.635
 49
0.0
 49
-0.635
  0
ENDTAB
  0
TABLE
  2
LAYER
 70
     1
  0
LAYER
  2
0
 70
     0
 62
     7
  6
CONTINUOUS
  0
ENDTAB
  0
TABLE
  2
STYLE
 70
     1
  0
STYLE
  2
STANDARD
 70
     0
 40
0.0
 41
1.0
 50
0.0
 71
     0
 42
10.0
  3
txt
  4

  0
ENDTAB
  0
TABLE
  2
VIEW
 70
     0
  0
ENDTAB
  0
TABLE
  2
UCS
 70
     0
  0
ENDTAB
  0
TABLE
  2
APPID
 70
     1
  0
APPID
  2
ACAD
 70
     0
  0
ENDTAB
  0
TABLE
  2
DIMSTYLE
 70
     2
  0
DIMSTYLE
  2
ISO-25
 70
     0
  3

  4

  5

  6

  7

 40
1.0
 41
2.5
 42
0.625
 43
3.75
 44
1.25
 45
0.0
 46
0.0
 47
0.0
 48
0.0
140
2.5
141
2.5
142
0.0
143
0.0393700787
144
1.0
145
0.0
146
1.0
147
0.625
 71
     0
 72
     0
 73
     0
 74
     0
 75
     0
 76
     0
 77
     1
 78
     8
170
     0
171
     3
172
     1
173
     0
174
     0
175
     0
176
     0
177
     0
178
     0
  0
DIMSTYLE
  2
SLDDIMSTYLE0
 70
     0
  3

  4

  5

  6

  7

 40
1.0
 41
2.5
 42
0.0625
 43
0.38
 44
0.0
 45
0.000000001
 46
0.0
 47
0.0
 48
0.0
140
6.0
141
0.09
142
0.0
143
25.4
144
1.0
145
0.0
146
1.0
147
1.5
 71
     0
 72
     0
 73
     0
 74
     0
 75
     0
 76
     0
 77
     1
 78
    12
170
     0
171
     2
172
     0
173
     1
174
     0
175
     0
176
     0
177
     0
178
     0
  0
ENDTAB
  0
ENDSEC
  0
SECTION
  2
BLOCKS
  0
BLOCK
  8
0
  2
$MODEL_SPACE
 70
     0
 10
0.0
 20
0.0
 30
0.0
  3
$MODEL_SPACE
  1

  0
ENDBLK
  5
21
  8
0
  0
BLOCK
 67
     1
  8
0
  2
$PAPER_SPACE
 70
     0
 10
0.0
 20
0.0
 30
0.0
  3
$PAPER_SPACE
  1

  0
ENDBLK
  5
1D
 67
     1
  8
0
  0
BLOCK
  8
0
  2
_D
 70
     0
 10
0.0
 20
0.0
 30
0.0
  3
_D
  1

  0
SOLID
  5
7A
  8
0
  6
CONTINUOUS
 62
     7
 10
42.7614395004
 20
152.0299240879
 30
0.0
 11
42.4614395004
 21
149.5299240879
 31
0.0
 12
43.0614395004
 22
149.5299240879
 32
0.0
 13
43.0614395004
 23
149.5299240879
 33
0.0
  0
SOLID
  5
7B
  8
0
  6
CONTINUOUS
 62
     7
 10
42.7614395004
 20
52.0299240879
 30
0.0
 11
43.0614395004
 21
54.5299240879
 31
0.0
 12
42.4614395004
 22
54.5299240879
 32
0.0
 13
42.4614395004
 23
54.5299240879
 33
0.0
  0
LINE
  5
7C
  8
0
  6
CONTINUOUS
 62
     7
 10
56.6850079902
 20
152.0299240879
 30
0.0
 11
41.7614395004
 21
152.0299240879
 31
0.0
  0
LINE
  5
7D
  8
0
  6
CONTINUOUS
 62
     7
 10
56.6850079902
 20
52.0299240879
 30
0.0
 11
41.7614395004
 21
52.0299240879
 31
0.0
  0
LINE
  5
7E
  8
0
  6
CONTINUOUS
 62
     7
 10
42.7614395004
 20
152.0299240879
 30
0.0
 11
42.7614395004
 21
52.0299240879
 31
0.0
  0
TEXT
  5
7F
  8
0
  6
CONTINUOUS
 62
     7
 10
40.6418793617
 20
94.3680541463
 30
0.0
 40
6.0
  1
100
 50
90.0
 41
0.7
 11
42.7614397332
 21
94.3680541463
 31
0.0
 73
     1
  0
TEXT
  5
80
  8
0
  6
CONTINUOUS
 62
     7
 10
40.6418793617
 20
105.7430548466
 30
0.0
 40
6.0
  1
mm
 50
90.0
 41
0.7
 11
42.7614397332
 21
105.7430548466
 31
0.0
 73
     1
  0
ENDBLK
  5
79
  8
0
  0
BLOCK
  8
0
  2
_D_1
 70
     0
 10
0.0
 20
0.0
 30
0.0
  3
_D_1
  1

  0
SOLID
  5
85
  8
0
  6
CONTINUOUS
 62
     7
 10
56.6850079902
 20
38.4602342313
 30
0.0
 11
59.1850079902
 21
38.1602342313
 31
0.0
 12
59.1850079902
 22
38.7602342313
 32
0.0
 13
59.1850079902
 23
38.7602342313
 33
0.0
  0
SOLID
  5
86
  8
0
  6
CONTINUOUS
 62
     7
 10
156.6850079902
 20
38.4602342313
 30
0.0
 11
154.1850079902
 21
38.7602342313
 31
0.0
 12
154.1850079902
 22
38.1602342313
 32
0.0
 13
154.1850079902
 23
38.1602342313
 33
0.0
  0
LINE
  5
87
  8
0
  6
CONTINUOUS
 62
     7
 10
56.6850079902
 20
52.0299240879
 30
0.0
 11
56.6850079902
 21
37.4602342313
 31
0.0
  0
LINE
  5
88
  8
0
  6
CONTINUOUS
 62
     7
 10
156.6850079902
 20
52.0299240879
 30
0.0
 11
156.6850079902
 21
37.4602342313
 31
0.0
  0
LINE
  5
89
  8
0
  6
CONTINUOUS
 62
     7
 10
56.6850079902
 20
38.4602342313
 30
0.0
 11
156.6850079902
 21
38.4602342313
 31
0.0
  0
TEXT
  5
8A
  8
0
  6
CONTINUOUS
 62
     7
 10
93.9626484861
 20
40.57979437
 30
0.0
 40
6.0
  1
100
 41
0.7
 11
93.9626484861
 21
38.4602339984
 31
0.0
 73
     1
  0
TEXT
  5
8B
  8
0
  6
CONTINUOUS
 62
     7
 10
105.3376491864
 20
40.57979437
 30
0.0
 40
6.0
  1
mm
 41
0.7
 11
105.3376491864
 21
38.4602339984
 31
0.0
 73
     1
  0
ENDBLK
  5
84
  8
0
  0
ENDSEC
  0
SECTION
  2
ENTITIES
  0
LINE
  5
73
  8
0
  6
CONTINUOUS
 62
     7
 10
56.6850079902
 20
152.0299240879
 30
0.0
 11
56.6850079902
 21
52.0299240879
 31
0.0
  0
LINE
  5
74
  8
0
  6
CONTINUOUS
 62
     7
 10
56.6850079902
 20
52.0299240879
 30
0.0
 11
156.6850079902
 21
52.0299240879
 31
0.0
  0
DIMENSION
  5
75
  8
0
  6
CONTINUOUS
 62
     7
  2
_D
 10
42.7614395004
 20
52.0299240879
 30
0.0
 11
42.7614395004
 21
105.4472211621
 31
0.0
 70
   160
  1
<>mm
  3
SLDDIMSTYLE0
 13
56.6850079902
 23
152.0299240879
 33
0.0
 14
56.6850079902
 24
52.0299240879
 34
0.0
 50
90.0
  0
DIMENSION
  5
81
  8
0
  6
CONTINUOUS
 62
     7
  2
_D_1
 10
156.6850079902
 20
38.4602342313
 30
0.0
 11
105.0418155019
 21
38.4602342313
 31
0.0
 70
   160
  1
<>mm
  3
SLDDIMSTYLE0
 13
56.6850079902
 23
52.0299240879
 33
0.0
 14
156.6850079902
 24
52.0299240879
 34
0.0
  0
TEXT
  5
8C
  8
0
  6
CONTINUOUS
 62
     7
 10
412.8252631579
 20
39.0761681714
 30
0.0
 40
10.0
  1
KLUDI GmbH & Co KG
 41
0.6222222222
 11
412.8252631579
 21
35.5435675522
 31
0.0
 73
     1
  0
TEXT
  5
8D
  8
0
  6
CONTINUOUS
 62
     7
 10
210.0873490389
 20
39.0761681714
 30
0.0
 40
10.0
  1
48 028 05 65
 41
0.6125
 11
210.0873490389
 21
35.5435675522
 31
0.0
 73
     1
  0
LINE
  5
8E
  8
0
  6
CONTINUOUS
 62
     7
 10
142.5811131379
 20
577.0444856294
 30
0.0
 11
142.5811131379
 21
580.8927761265
 31
0.0
  0
LINE
  5
8F
  8
0
  6
CONTINUOUS
 62
     7
 10
118.5811131379
 20
580.8927761265
 30
0.0
 11
118.5811131379
 21
577.0444856294
 31
0.0
  0
ARC
  5
90
  8
0
  6
CONTINUOUS
 62
     7
 10
117.8223568222
 20
595.6048277049
 30
0.0
 40
1.493659502424491
 50
89.6541496698
 51
170.3918164451
  0
ARC
  5
91
  8
0
  6
CONTINUOUS
 62
     7
 10
143.4140466163
 20
595.6682318998
 30
0.0
 40
1.408090129124781
 50
9.2201239148
 51
93.2958042912
  0
POLYLINE
  5
92
  8
0
  6
CONTINUOUS
 62
     7
 66
     1
 10
0.0
 20
0.0
 30
0.0
 70
   128
  0
VERTEX
  5
225
  8
0
  6
CONTINUOUS
 62
     7
 10
107.727360172
 20
419.8303643696
 30
0.0
  0
VERTEX
  5
226
  8
0
  6
CONTINUOUS
 62
     7
 10
107.7518477709
 20
419.361041485
 30
0.0
  0
VERTEX
  5
227
  8
0
  6
CONTINUOUS
 62
     7
 10
107.7955345999
 20
418.2912731629
 30
0.0
  0
VERTEX
  5
228
  8
0
  6
CONTINUOUS
 62
     7
 10
107.8382359883
 20
416.774517439
 30
0.0
  0
VERTEX
  5
229
  8
0
  6
CONTINUOUS
 62
     7
 10
107.8772257497
 20
415.3734829269
 30
0.0
  0
VERTEX
  5
22A
  8
0
  6
CONTINUOUS
 62
     7
 10
107.9450868693
 20
413.8424418885
 30
0.0
  0
VERTEX
  5
22B
  8
0
  6
CONTINUOUS
 62
     7
 10
108.0266636071
 20
411.8561368277
 30
0.0
  0
VERTEX
  5
22C
  8
0
  6
CONTINUOUS
 62
     7
 10
108.0874608744
 20
409.9219896739
 30
0.0
  0
VERTEX
  5
22D
  8
0
  6
CONTINUOUS
 62
     7
 10
108.1338248174
 20
407.6293474532
 30
0.0
  0
VERTEX
  5
22E
  8
0
  6
CONTINUOUS
 62
     7
 10
108.1567090721
 20
405.1954785365
 30
0.0
  0
VERTEX
  5
22F
  8
0
  6
CONTINUOUS
 62
     7
 10
108.1611632581
 20
402.3753258979
 30
0.0
  0
VERTEX
  5
230
  8
0
  6
CONTINUOUS
 62
     7
 10
108.1583264687
 20
399.0944958826
 30
0.0
  0
VERTEX
  5
231
  8
0
  6
CONTINUOUS
 62
     7
 10
108.1777637405
 20
395.2421354396
 30
0.0
  0
VERTEX
  5
232
  8
0
  6
CONTINUOUS
 62
     7
 10
108.2409300706
 20
391.644690468
 30
0.0
  0
SEQEND
  5
4D4
  8
0
  6
CONTINUOUS
 62
     7
  0
POLYLINE
  5
93
  8
0
  6
CONTINUOUS
 62
     7
 66
     1
 10
0.0
 20
0.0
 30
0.0
 70
   128
  0
VERTEX
  5
233
  8
0
  6
CONTINUOUS
 62
     7
 10
143.5321994195
 20
597.1021684377
 30
0.0
  0
VERTEX
  5
234
  8
0
  6
CONTINUOUS
 62
     7
 10
137.0584305189
 20
597.1016404216
 30
0.0
  0
VERTEX
  5
235
  8
0
  6
CONTINUOUS
 62
     7
 10
130.58417659
 20
597.1012272272
 30
0.0
  0
VERTEX
  5
236
  8
0
  6
CONTINUOUS
 62
     7
 10
124.1080255218
 20
597.101774799
 30
0.0
  0
VERTEX
  5
237
  8
0
  6
CONTINUOUS
 62
     7
 10
117.6300268554
 20
597.1021684377
 30
0.0
  0
SEQEND
  5
4D5
  8
0
  6
CONTINUOUS
 62
     7
  0
POLYLINE
  5
94
  8
0
  6
CONTINUOUS
 62
     7
 66
     1
 10
0.0
 20
0.0
 30
0.0
 70
   128
  0
VERTEX
  5
238
  8
0
  6
CONTINUOUS
 62
     7
 10
152.9743048219
 20
391.6448571323
 30
0.0
  0
VERTEX
  5
239
  8
0
  6
CONTINUOUS
 62
     7
 10
153.0401763606
 20
394.6041739975
 30
0.0
  0
VERTEX
  5
23A
  8
0
  6
CONTINUOUS
 62
     7
 10
153.0895847814
 20
398.3466953626
 30
0.0
  0
VERTEX
  5
23B
  8
0
  6
CONTINUOUS
 62
     7
 10
153.1107214013
 20
401.413188334
 30
0.0
  0
VERTEX
  5
23C
  8
0
  6
CONTINUOUS
 62
     7
 10
153.1254327199
 20
403.9577643576
 30
0.0
  0
VERTEX
  5
23D
  8
0
  6
CONTINUOUS
 62
     7
 10
153.1566755024
 20
406.9970138586
 30
0.0
  0
VERTEX
  5
23E
  8
0
  6
CONTINUOUS
 62
     7
 10
153.1996127842
 20
409.2428486924
 30
0.0
  0
VERTEX
  5
23F
  8
0
  6
CONTINUOUS
 62
     7
 10
153.2456360989
 20
411.0724191594
 30
0.0
  0
VERTEX
  5
240
  8
0
  6
CONTINUOUS
 62
     7
 10
153.3052438443
 20
413.217599892
 30
0.0
  0
VERTEX
  5
241
  8
0
  6
CONTINUOUS
 62
     7
 10
153.3828547173
 20
415.7152608453
 30
0.0
  0
VERTEX
  5
242
  8
0
  6
CONTINUOUS
 62
     7
 10
153.4721495934
 20
418.5720906623
 30
0.0
  0
VERTEX
  5
243
  8
0
  6
CONTINUOUS
 62
     7
 10
153.5416621374
 20
421.4613617028
 30
0.0
  0
VERTEX
  5
244
  8
0
  6
CONTINUOUS
 62
     7
 10
153.5459518533
 20
422.0552026438
 30
0.0
  0
SEQEND
  5
4D6
  8
0
  6
CONTINUOUS
 62
     7
  0
POLYLINE
  5
95
  8
0
  6
CONTINUOUS
 62
     7
 66
     1
 10
0.0
 20
0.0
 30
0.0
 70
   128
  0
VERTEX
  5
245
  8
0
  6
CONTINUOUS
 62
     7
 10
153.5563240858
 20
423.4910684431
 30
0.0
  0
VERTEX
  5
246
  8
0
  6
CONTINUOUS
 62
     7
 10
153.5608192437
 20
424.1133494697
 30
0.0
  0
VERTEX
  5
247
  8
0
  6
CONTINUOUS
 62
     7
 10
153.5122524472
 20
427.6259532773
 30
0.0
  0
VERTEX
  5
248
  8
0
  6
CONTINUOUS
 62
     7
 10
153.4348428596
 20
430.8048484456
 30
0.0
  0
VERTEX
  5
249
  8
0
  6
CONTINUOUS
 62
     7
 10
153.3522176366
 20
433.9423392029
 30
0.0
  0
VERTEX
  5
24A
  8
0
  6
CONTINUOUS
 62
     7
 10
153.2877558407
 20
437.1939898833
 30
0.0
  0
VERTEX
  5
24B
  8
0
  6
CONTINUOUS
 62
     7
 10
153.3143232382
 20
440.3773424913
 30
0.0
  0
VERTEX
  5
24C
  8
0
  6
CONTINUOUS
 62
     7
 10
153.4146572902
 20
444.271743986
 30
0.0
  0
VERTEX
  5
24D
  8
0
  6
CONTINUOUS
 62
     7
 10
153.5315893076
 20
448.9366791892
 30
0.0
  0
VERTEX
  5
24E
  8
0
  6
CONTINUOUS
 62
     7
 10
153.5735148597
 20
453.644497765
 30
0.0
  0
SEQEND
  5
4D7
  8
0
  6
CONTINUOUS
 62
     7
  0
ARC
  5
96
  8
0
  6
CONTINUOUS
 62
     7
 10
105.7811131379
 20
352.8444856294
 30
0.0
 40
0.2000000000000171
 50
180.0
 51
270.0
  0
ARC
  5
97
  8
0
  6
CONTINUOUS
 62
     7
 10
155.3811131379
 20
352.8444856294
 30
0.0
 40
0.2000000000000171
 50
270.0
 51
0.0
  0
LINE
  5
98
  8
0
  6
CONTINUOUS
 62
     7
 10
105.5811131379
 20
358.0444856294
 30
0.0
 11
105.5811131379
 21
352.8444856294
 31
0.0
  0
LINE
  5
99
  8
0
  6
CONTINUOUS
 62
     7
 10
155.5811131379
 20
352.8444856294
 30
0.0
 11
155.5811131379
 21
358.0444856294
 31
0.0
  0
ARC
  5
9A
  8
0
  6
CONTINUOUS
 62
     7
 10
154.5811131379
 20
358.0444856294
 30
0.0
 40
1.0
 50
0.0
 51
90.0
  0
ARC
  5
9B
  8
0
  6
CONTINUOUS
 62
     7
 10
106.5811131379
 20
358.0444856294
 30
0.0
 40
1.0
 50
90.0
 51
180.0
  0
LINE
  5
9C
  8
0
  6
CONTINUOUS
 62
     7
 10
153.5811131379
 20
453.8586433643
 30
0.0
 11
153.5811131379
 21
464.5848695125
 31
0.0
  0
LINE
  5
9D
  8
0
  6
CONTINUOUS
 62
     7
 10
153.5811131379
 20
359.0444856294
 30
0.0
 11
153.5811131379
 21
391.4303278946
 31
0.0
  0
LINE
  5
9E
  8
0
  6
CONTINUOUS
 62
     7
 10
107.5811131379
 20
391.4303278946
 30
0.0
 11
107.5811131379
 21
359.0444856294
 31
0.0
  0
ARC
  5
9F
  8
0
  6
CONTINUOUS
 62
     7
 10
152.0776243454
 20
464.7492283586
 30
0.0
 40
1.512445826975094
 50
353.761295664
 51
64.238704336
  0
LINE
  5
A0
  8
0
  6
CONTINUOUS
 62
     7
 10
152.7449678136
 20
466.105107392
 30
0.0
 11
148.7783826893
 21
468.5837048679
 31
0.0
  0
ARC
  5
A1
  8
0
  6
CONTINUOUS
 62
     7
 10
148.5664149836
 20
468.2444856294
 30
0.0
 40
0.4000000000000341
 50
58.0
 51
90.0
  0
LINE
  5
A2
  8
0
  6
CONTINUOUS
 62
     7
 10
140.5811131379
 20
468.6444856294
 30
0.0
 11
140.5811131379
 21
468.9444856294
 31
0.0
  0
POLYLINE
  5
A3
  8
0
  6
CONTINUOUS
 62
     7
 66
     1
 10
0.0
 20
0.0
 30
0.0
 70
   128
  0
VERTEX
  5
24F
  8
0
  6
CONTINUOUS
 62
     7
 10
142.5811131379
 20
580.8927761265
 30
0.0
  0
VERTEX
  5
250
  8
0
  6
CONTINUOUS
 62
     7
 10
142.483918361
 20
580.8943722801
 30
0.0
  0
VERTEX
  5
251
  8
0
  6
CONTINUOUS
 62
     7
 10
142.0551139548
 20
580.8964558473
 30
0.0
  0
VERTEX
  5
252
  8
0
  6
CONTINUOUS
 62
     7
 10
141.2962234357
 20
580.8984335557
 30
0.0
  0
VERTEX
  5
253
  8
0
  6
CONTINUOUS
 62
     7
 10
140.2290787024
 20
580.9002485101
 30
0.0
  0
VERTEX
  5
254
  8
0
  6
CONTINUOUS
 62
     7
 10
138.8843795657
 20
580.9018484977
 30
0.0
  0
VERTEX
  5
255
  8
0
  6
CONTINUOUS
 62
     7
 10
137.3008105716
 20
580.9031874896
 30
0.0
  0
VERTEX
  5
256
  8
0
  6
CONTINUOUS
 62
     7
 10
135.5239281169
 20
580.9042269656
 30
0.0
  0
VERTEX
  5
257
  8
0
  6
CONTINUOUS
 62
     7
 10
133.6048498746
 20
580.9049370218
 30
0.0
  0
VERTEX
  5
258
  8
0
  6
CONTINUOUS
 62
     7
 10
131.5987842317
 20
580.9052972312
 30
0.0
  0
VERTEX
  5
259
  8
0
  6
CONTINUOUS
 62
     7
 10
129.5634420442
 20
580.9052972312
 30
0.0
  0
VERTEX
  5
25A
  8
0
  6
CONTINUOUS
 62
     7
 10
127.5573764013
 20
580.9049370218
 30
0.0
  0
VERTEX
  5
25B
  8
0
  6
CONTINUOUS
 62
     7
 10
125.638298159
 20
580.9042269656
 30
0.0
  0
VERTEX
  5
25C
  8
0
  6
CONTINUOUS
 62
     7
 10
123.8614157043
 20
580.9031874896
 30
0.0
  0
VERTEX
  5
25D
  8
0
  6
CONTINUOUS
 62
     7
 10
122.2778467102
 20
580.9018484977
 30
0.0
  0
VERTEX
  5
25E
  8
0
  6
CONTINUOUS
 62
     7
 10
120.9331475735
 20
580.9002485101
 30
0.0
  0
VERTEX
  5
25F
  8
0
  6
CONTINUOUS
 62
     7
 10
119.8660028402
 20
580.8984335557
 30
0.0
  0
VERTEX
  5
260
  8
0
  6
CONTINUOUS
 62
     7
 10
119.1071123211
 20
580.8964558473
 30
0.0
  0
VERTEX
  5
261
  8
0
  6
CONTINUOUS
 62
     7
 10
118.6783079148
 20
580.8943722801
 30
0.0
  0
VERTEX
  5
262
  8
0
  6
CONTINUOUS
 62
     7
 10
118.5811131379
 20
580.8927761265
 30
0.0
  0
SEQEND
  5
4D8
  8
0
  6
CONTINUOUS
 62
     7
  0
LINE
  5
A4
  8
0
  6
CONTINUOUS
 62
     7
 10
143.3310962558
 20
597.1008937077
 30
0.0
 11
143.3310964843
 21
597.1008939818
 31
0.0
  0
ARC
  5
A5
  8
0
  6
CONTINUOUS
 62
     7
 10
117.8311314999
 20
595.600892799
 30
0.0
 40
1.500000908675919
 50
90.0000565254
 51
179.9999338753
  0
ARC
  5
A6
  8
0
  6
CONTINUOUS
 62
     7
 10
143.331094776
 20
595.600892799
 30
0.0
 40
1.500000908675933
 50
0.0000661247
 51
89.9999434746
  0
LINE
  5
A7
  8
0
  6
CONTINUOUS
 62
     7
 10
141.5811131379
 20
573.6218358986
 30
0.0
 11
141.5811131379
 21
577.0444856294
 31
0.0
  0
LINE
  5
A8
  8
0
  6
CONTINUOUS
 62
     7
 10
141.5811131379
 20
573.6218358986
 30
0.0
 11
119.5811131379
 21
573.6218358986
 31
0.0
  0
LINE
  5
A9
  8
0
  6
CONTINUOUS
 62
     7
 10
119.5811131379
 20
573.6218358986
 30
0.0
 11
119.5811131379
 21
577.0444856294
 31
0.0
  0
LINE
  5
AA
  8
0
  6
CONTINUOUS
 62
     7
 10
118.5811131379
 20
577.0444856294
 30
0.0
 11
119.5811131379
 21
577.0444856294
 31
0.0
  0
LINE
  5
AB
  8
0
  6
CONTINUOUS
 62
     7
 10
141.5811131379
 20
577.0444856294
 30
0.0
 11
142.5811131379
 21
577.0444856294
 31
0.0
  0
LINE
  5
AC
  8
0
  6
CONTINUOUS
 62
     7
 10
141.5811131379
 20
573.0444856294
 30
0.0
 11
141.5811131379
 21
573.6218358986
 31
0.0
  0
LINE
  5
AD
  8
0
  6
CONTINUOUS
 62
     7
 10
141.5811131379
 20
573.0444856294
 30
0.0
 11
119.5811131379
 21
573.0444856294
 31
0.0
  0
LINE
  5
AE
  8
0
  6
CONTINUOUS
 62
     7
 10
119.5811131379
 20
573.0444856294
 30
0.0
 11
119.5811131379
 21
573.6218358986
 31
0.0
  0
ARC
  5
AF
  8
0
  6
CONTINUOUS
 62
     7
 10
20.6462903242
 20
430.106119483
 30
0.0
 40
87.10697492831612
 50
355.6583729808
 51
15.8904816727
  0
ARC
  5
B0
  8
0
  6
CONTINUOUS
 62
     7
 10
217.4072353029
 20
490.2619772758
 30
0.0
 40
87.10697492831548
 50
198.1095183273
 51
218.3416270192
  0
ARC
  5
B1
  8
0
  6
CONTINUOUS
 62
     7
 10
93.3255663735
 20
498.903964883
 30
0.0
 40
2.297411308281362
 50
95.870365772
 51
207.829634228
  0
ARC
  5
B2
  8
0
  6
CONTINUOUS
 62
     7
 10
118.6821177901
 20
506.6562406271
 30
0.0
 40
2.297411308281252
 50
6.170365772
 51
118.129634228
  0
POLYLINE
  5
B3
  8
0
  6
CONTINUOUS
 62
     7
 66
     1
 10
0.0
 20
0.0
 30
0.0
 70
   128
  0
VERTEX
  5
263
  8
0
  6
CONTINUOUS
 62
     7
 10
104.424629701
 20
453.9559608332
 30
0.0
  0
VERTEX
  5
264
  8
0
  6
CONTINUOUS
 62
     7
 10
103.5900094853
 20
456.8376301819
 30
0.0
  0
VERTEX
  5
265
  8
0
  6
CONTINUOUS
 62
     7
 10
102.9334093857
 20
459.0348417124
 30
0.0
  0
SEQEND
  5
4D9
  8
0
  6
CONTINUOUS
 62
     7
  0
POLYLINE
  5
B4
  8
0
  6
CONTINUOUS
 62
     7
 66
     1
 10
0.0
 20
0.0
 30
0.0
 70
   128
  0
VERTEX
  5
266
  8
0
  6
CONTINUOUS
 62
     7
 10
134.6151821613
 20
463.1861390105
 30
0.0
  0
VERTEX
  5
267
  8
0
  6
CONTINUOUS
 62
     7
 10
133.6957046289
 20
466.041864874
 30
0.0
  0
VERTEX
  5
268
  8
0
  6
CONTINUOUS
 62
     7
 10
133.0113856864
 20
468.2306019037
 30
0.0
  0
SEQEND
  5
4DA
  8
0
  6
CONTINUOUS
 62
     7
  0
LINE
  5
B5
  8
0
  6
CONTINUOUS
 62
     7
 10
102.9334093857
 20
459.0348417124
 30
0.0
 11
91.2938744961
 21
497.8314319769
 31
0.0
  0
LINE
  5
B6
  8
0
  6
CONTINUOUS
 62
     7
 10
133.0113856864
 20
468.2306019037
 30
0.0
 11
120.9662194821
 21
506.9031782299
 31
0.0
  0
LINE
  5
B7
  8
0
  6
CONTINUOUS
 62
     7
 10
93.0905916295
 20
501.1893282216
 30
0.0
 11
117.5989617207
 21
508.682288911
 31
0.0
  0
ARC
  5
B8
  8
0
  6
CONTINUOUS
 62
     7
 10
130.4887432812
 20
422.6935995535
 30
0.0
 40
23.00000000000002
 50
177.9612250536
 51
36.0387749464
  0
LINE
  5
B9
  8
0
  6
CONTINUOUS
 62
     7
 10
104.424629701
 20
453.9559608332
 30
0.0
 11
102.9334093857
 21
459.0348417124
 31
0.0
  0
POLYLINE
  5
BA
  8
0
  6
CONTINUOUS
 62
     7
 66
     1
 10
0.0
 20
0.0
 30
0.0
 70
   128
  0
VERTEX
  5
269
  8
0
  6
CONTINUOUS
 62
     7
 10
116.3311303628
 20
595.6008948043
 30
0.0
  0
VERTEX
  5
26A
  8
0
  6
CONTINUOUS
 62
     7
 10
116.3151444136
 20
595.391551484
 30
0.0
  0
VERTEX
  5
26B
  8
0
  6
CONTINUOUS
 62
     7
 10
116.2999429735
 20
594.8882778458
 30
0.0
  0
VERTEX
  5
26C
  8
0
  6
CONTINUOUS
 62
     7
 10
116.2775494962
 20
593.9284356067
 30
0.0
  0
VERTEX
  5
26D
  8
0
  6
CONTINUOUS
 62
     7
 10
116.2364058133
 20
591.7780265947
 30
0.0
  0
VERTEX
  5
26E
  8
0
  6
CONTINUOUS
 62
     7
 10
116.2104454042
 20
590.2227917193
 30
0.0
  0
VERTEX
  5
26F
  8
0
  6
CONTINUOUS
 62
     7
 10
116.1813258603
 20
588.3097360072
 30
0.0
  0
VERTEX
  5
270
  8
0
  6
CONTINUOUS
 62
     7
 10
116.1362952761
 20
584.9885453313
 30
0.0
  0
VERTEX
  5
271
  8
0
  6
CONTINUOUS
 62
     7
 10
116.0878911139
 20
580.8579817399
 30
0.0
  0
VERTEX
  5
272
  8
0
  6
CONTINUOUS
 62
     7
 10
116.0427770109
 20
576.3408133261
 30
0.0
  0
VERTEX
  5
273
  8
0
  6
CONTINUOUS
 62
     7
 10
115.9998797984
 20
571.1978033131
 30
0.0
  0
VERTEX
  5
274
  8
0
  6
CONTINUOUS
 62
     7
 10
115.9564725864
 20
564.615561008
 30
0.0
  0
VERTEX
  5
275
  8
0
  6
CONTINUOUS
 62
     7
 10
115.9223784789
 20
557.5067762029
 30
0.0
  0
VERTEX
  5
276
  8
0
  6
CONTINUOUS
 62
     7
 10
115.9054003092
 20
552.4890081704
 30
0.0
  0
VERTEX
  5
277
  8
0
  6
CONTINUOUS
 62
     7
 10
115.8934253907
 20
547.385725254
 30
0.0
  0
VERTEX
  5
278
  8
0
  6
CONTINUOUS
 62
     7
 10
115.8828323195
 20
538.1810813767
 30
0.0
  0
VERTEX
  5
279
  8
0
  6
CONTINUOUS
 62
     7
 10
115.8811131379
 20
528.9244856294
 30
0.0
  0
SEQEND
  5
4DB
  8
0
  6
CONTINUOUS
 62
     7
  0
LINE
  5
BB
  8
0
  6
CONTINUOUS
 62
     7
 10
117.8290331841
 20
597.0853207616
 30
0.0
 11
117.8293820626
 21
597.0879121682
 31
0.0
  0
POLYLINE
  5
BC
  8
0
  6
CONTINUOUS
 62
     7
 66
     1
 10
0.0
 20
0.0
 30
0.0
 70
   128
  0
VERTEX
  5
27A
  8
0
  6
CONTINUOUS
 62
     7
 10
145.2811131379
 20
528.9244856294
 30
0.0
  0
VERTEX
  5
27B
  8
0
  6
CONTINUOUS
 62
     7
 10
145.2803025233
 20
536.0702817348
 30
0.0
  0
VERTEX
  5
27C
  8
0
  6
CONTINUOUS
 62
     7
 10
145.2751365446
 20
543.2160778401
 30
0.0
  0
VERTEX
  5
27D
  8
0
  6
CONTINUOUS
 62
     7
 10
145.2623757674
 20
550.3827856215
 30
0.0
  0
VERTEX
  5
27E
  8
0
  6
CONTINUOUS
 62
     7
 10
145.239844275
 20
557.5076700508
 30
0.0
  0
VERTEX
  5
27F
  8
0
  6
CONTINUOUS
 62
     7
 10
145.2065264318
 20
564.479354361
 30
0.0
  0
VERTEX
  5
280
  8
0
  6
CONTINUOUS
 62
     7
 10
145.1623407396
 20
571.1985645256
 30
0.0
  0
VERTEX
  5
281
  8
0
  6
CONTINUOUS
 62
     7
 10
145.1203207071
 20
576.2457051621
 30
0.0
  0
VERTEX
  5
282
  8
0
  6
CONTINUOUS
 62
     7
 10
145.0743351623
 20
580.8579817401
 30
0.0
  0
VERTEX
  5
283
  8
0
  6
CONTINUOUS
 62
     7
 10
145.0268699518
 20
584.914292373
 30
0.0
  0
VERTEX
  5
284
  8
0
  6
CONTINUOUS
 62
     7
 10
144.9808827279
 20
588.3109523696
 30
0.0
  0
VERTEX
  5
285
  8
0
  6
CONTINUOUS
 62
     7
 10
144.9525728583
 20
590.1731109257
 30
0.0
  0
VERTEX
  5
286
  8
0
  6
CONTINUOUS
 62
     7
 10
144.9269039021
 20
591.7160042585
 30
0.0
  0
VERTEX
  5
287
  8
0
  6
CONTINUOUS
 62
     7
 10
144.9040677667
 20
592.967216291
 30
0.0
  0
VERTEX
  5
288
  8
0
  6
CONTINUOUS
 62
     7
 10
144.8846642259
 20
593.9290235971
 30
0.0
  0
VERTEX
  5
289
  8
0
  6
CONTINUOUS
 62
     7
 10
144.8591395462
 20
595.0054082025
 30
0.0
  0
VERTEX
  5
28A
  8
0
  6
CONTINUOUS
 62
     7
 10
144.8409380384
 20
595.5298463854
 30
0.0
  0
VERTEX
  5
28B
  8
0
  6
CONTINUOUS
 62
     7
 10
144.8310959131
 20
595.6008948043
 30
0.0
  0
SEQEND
  5
4DC
  8
0
  6
CONTINUOUS
 62
     7
  0
POLYLINE
  5
BD
  8
0
  6
CONTINUOUS
 62
     7
 66
     1
 10
0.0
 20
0.0
 30
0.0
 70
   128
  0
VERTEX
  5
28C
  8
0
  6
CONTINUOUS
 62
     7
 10
115.8811131379
 20
528.9244856294
 30
0.0
  0
VERTEX
  5
28D
  8
0
  6
CONTINUOUS
 62
     7
 10
115.8830805833
 20
536.4977916899
 30
0.0
  0
VERTEX
  5
28E
  8
0
  6
CONTINUOUS
 62
     7
 10
115.8952546415
 20
544.0710977504
 30
0.0
  0
VERTEX
  5
28F
  8
0
  6
CONTINUOUS
 62
     7
 10
115.9266161897
 20
552.0626457395
 30
0.0
  0
VERTEX
  5
290
  8
0
  6
CONTINUOUS
 62
     7
 10
115.9509540085
 20
556.0332667337
 30
0.0
  0
VERTEX
  5
291
  8
0
  6
CONTINUOUS
 62
     7
 10
115.9810773719
 20
559.9139459239
 30
0.0
  0
VERTEX
  5
292
  8
0
  6
CONTINUOUS
 62
     7
 10
116.033831707
 20
565.26392078
 30
0.0
  0
VERTEX
  5
293
  8
0
  6
CONTINUOUS
 62
     7
 10
116.0950027904
 20
570.1790149403
 30
0.0
  0
VERTEX
  5
294
  8
0
  6
CONTINUOUS
 62
     7
 10
116.1191596909
 20
571.8690236001
 30
0.0
  0
VERTEX
  5
295
  8
0
  6
CONTINUOUS
 62
     7
 10
116.1431998525
 20
573.4402877984
 30
0.0
  0
VERTEX
  5
296
  8
0
  6
CONTINUOUS
 62
     7
 10
116.1992326098
 20
576.7378037938
 30
0.0
  0
VERTEX
  5
297
  8
0
  6
CONTINUOUS
 62
     7
 10
116.2479474388
 20
579.2346862633
 30
0.0
  0
VERTEX
  5
298
  8
0
  6
CONTINUOUS
 62
     7
 10
116.2734024168
 20
580.3992889428
 30
0.0
  0
VERTEX
  5
299
  8
0
  6
CONTINUOUS
 62
     7
 10
116.2936153303
 20
581.2388356921
 30
0.0
  0
VERTEX
  5
29A
  8
0
  6
CONTINUOUS
 62
     7
 10
116.319267705
 20
582.1146045036
 30
0.0
  0
VERTEX
  5
29B
  8
0
  6
CONTINUOUS
 62
     7
 10
116.3265586327
 20
582.261768689
 30
0.0
  0
VERTEX
  5
29C
  8
0
  6
CONTINUOUS
 62
     7
 10
116.3291918918
 20
582.2769216315
 30
0.0
  0
SEQEND
  5
4DD
  8
0
  6
CONTINUOUS
 62
     7
  0
POLYLINE
  5
BE
  8
0
  6
CONTINUOUS
 62
     7
 66
     1
 10
0.0
 20
0.0
 30
0.0
 70
   128
  0
VERTEX
  5
29D
  8
0
  6
CONTINUOUS
 62
     7
 10
144.8334514351
 20
582.253627737
 30
0.0
  0
VERTEX
  5
29E
  8
0
  6
CONTINUOUS
 62
     7
 10
144.8429599351
 20
582.1145691173
 30
0.0
  0
VERTEX
  5
29F
  8
0
  6
CONTINUOUS
 62
     7
 10
144.8678827801
 20
581.2672967941
 30
0.0
  0
VERTEX
  5
2A0
  8
0
  6
CONTINUOUS
 62
     7
 10
144.8881794433
 20
580.4273488137
 30
0.0
  0
VERTEX
  5
2A1
  8
0
  6
CONTINUOUS
 62
     7
 10
144.9142839957
 20
579.2344399009
 30
0.0
  0
VERTEX
  5
2A2
  8
0
  6
CONTINUOUS
 62
     7
 10
144.9615423212
 20
576.8170353693
 30
0.0
  0
VERTEX
  5
2A3
  8
0
  6
CONTINUOUS
 62
     7
 10
145.0190329609
 20
573.4398743023
 30
0.0
  0
VERTEX
  5
2A4
  8
0
  6
CONTINUOUS
 62
     7
 10
145.0672234858
 20
570.1790149401
 30
0.0
  0
VERTEX
  5
2A5
  8
0
  6
CONTINUOUS
 62
     7
 10
145.1267172348
 20
565.4137693193
 30
0.0
  0
VERTEX
  5
2A6
  8
0
  6
CONTINUOUS
 62
     7
 10
145.1811418612
 20
559.9147636086
 30
0.0
  0
VERTEX
  5
2A7
  8
0
  6
CONTINUOUS
 62
     7
 10
145.2103770028
 20
556.1618942613
 30
0.0
  0
VERTEX
  5
2A8
  8
0
  6
CONTINUOUS
 62
     7
 10
145.234540481
 20
552.2612238826
 30
0.0
  0
VERTEX
  5
2A9
  8
0
  6
CONTINUOUS
 62
     7
 10
145.2535045688
 20
548.2011123894
 30
0.0
  0
VERTEX
  5
2AA
  8
0
  6
CONTINUOUS
 62
     7
 10
145.2669680282
 20
544.0724793698
 30
0.0
  0
VERTEX
  5
2AB
  8
0
  6
CONTINUOUS
 62
     7
 10
145.2791281699
 20
536.5210780496
 30
0.0
  0
VERTEX
  5
2AC
  8
0
  6
CONTINUOUS
 62
     7
 10
145.2811131379
 20
528.9244856294
 30
0.0
  0
SEQEND
  5
4DE
  8
0
  6
CONTINUOUS
 62
     7
  0
LINE
  5
BF
  8
0
  6
CONTINUOUS
 62
     7
 10
107.5811131379
 20
391.6444856294
 30
0.0
 11
108.3171917543
 21
391.6444856294
 31
0.0
  0
LINE
  5
C0
  8
0
  6
CONTINUOUS
 62
     7
 10
153.5811131379
 20
391.6444856294
 30
0.0
 11
153.5811131379
 21
422.6444856294
 31
0.0
  0
LINE
  5
C1
  8
0
  6
CONTINUOUS
 62
     7
 10
153.5811131379
 20
422.6444856294
 30
0.0
 11
153.5811131379
 21
453.6444856294
 31
0.0
  0
ARC
  5
C2
  8
0
  6
CONTINUOUS
 62
     7
 10
130.5811131379
 20
422.6444856294
 30
0.0
 40
23.00000000000003
 50
241.8696950565
 51
42.0809261355
  0
LINE
  5
C3
  8
0
  6
CONTINUOUS
 62
     7
 10
155.3811130812
 20
352.6444856294
 30
0.0
 11
105.7811131379
 21
352.6444856294
 31
0.0
  0
LINE
  5
C4
  8
0
  6
CONTINUOUS
 62
     7
 10
106.5811131574
 20
359.0444856294
 30
0.0
 11
154.5811131379
 21
359.0444856294
 31
0.0
  0
LINE
  5
C5
  8
0
  6
CONTINUOUS
 62
     7
 10
132.8824752609
 20
468.6444856294
 30
0.0
 11
148.5664149836
 21
468.6444856294
 31
0.0
  0
LINE
  5
C6
  8
0
  6
CONTINUOUS
 62
     7
 10
115.8811131379
 20
508.1570898931
 30
0.0
 11
115.8811131379
 21
528.9244856294
 31
0.0
  0
LINE
  5
C7
  8
0
  6
CONTINUOUS
 62
     7
 10
143.7811131379
 20
468.9444856294
 30
0.0
 11
132.7890356662
 21
468.9444856294
 31
0.0
  0
ARC
  5
C8
  8
0
  6
CONTINUOUS
 62
     7
 10
144.8811131379
 20
469.3444856294
 30
0.0
 40
0.4000000000000057
 50
270.0
 51
0.0
  0
LINE
  5
C9
  8
0
  6
CONTINUOUS
 62
     7
 10
143.7811131379
 20
468.9444856294
 30
0.0
 11
144.8811131379
 21
468.9444856294
 31
0.0
  0
LINE
  5
CA
  8
0
  6
CONTINUOUS
 62
     7
 10
145.2811131379
 20
528.9244856294
 30
0.0
 11
145.2811131379
 21
469.3444856294
 31
0.0
  0
ARC
  5
CB
  8
0
  6
CONTINUOUS
 62
     8
 10
119.2050492802
 20
174.2318200134
 30
0.0
 40
406.6763636823521
 50
89.9401928395
 51
90.1797024865
  0
ARC
  5
CC
  8
0
  6
CONTINUOUS
 62
     8
 10
117.9295530784
 20
582.4061843672
 30
0.0
 40
1.500000908675933
 50
180.0000661247
 51
269.9999434746
  0
LINE
  5
CD
  8
0
  6
CONTINUOUS
 62
     8
 10
119.6295509512
 20
580.9079621415
 30
0.0
 11
119.6295509512
 21
582.407961319
 31
0.0
  0
LINE
  5
CE
  8
0
  6
CONTINUOUS
 62
     8
 10
116.4295521697
 20
582.4061826361
 30
0.0
 11
116.4295521697
 21
595.4827886228
 31
0.0
  0
LINE
  5
CF
  8
0
  6
CONTINUOUS
 62
     8
 10
119.6295509512
 20
596.9810091174
 30
0.0
 11
141.5326753247
 21
596.9810091174
 31
0.0
  0
ARC
  5
D0
  8
0
  6
CONTINUOUS
 62
     8
 10
117.9295530784
 20
595.4827868917
 30
0.0
 40
1.500000908675977
 50
90.0000565254
 51
179.9999338753
  0
ARC
  5
D1
  8
0
  6
CONTINUOUS
 62
     8
 10
119.2050492802
 20
1003.6571512021
 30
0.0
 40
406.6763636388788
 50
269.8202975135
 51
270.0598071605
  0
LINE
  5
D2
  8
0
  6
CONTINUOUS
 62
     8
 10
141.5326753247
 20
580.9079621415
 30
0.0
 11
119.6295509512
 21
580.9079621415
 31
0.0
  0
ARC
  5
D3
  8
0
  6
CONTINUOUS
 62
     8
 10
141.9571769957
 20
174.2318200133
 30
0.0
 40
406.6763636824276
 50
89.8202975135
 51
90.0598071605
  0
ARC
  5
D4
  8
0
  6
CONTINUOUS
 62
     8
 10
143.2326731975
 20
582.4061843672
 30
0.0
 40
1.500000908675876
 50
270.0000565254
 51
359.9999338753
  0
LINE
  5
D5
  8
0
  6
CONTINUOUS
 62
     8
 10
144.7326741062
 20
595.4827886228
 30
0.0
 11
144.7326741062
 21
582.4061826361
 31
0.0
  0
ARC
  5
D6
  8
0
  6
CONTINUOUS
 62
     8
 10
141.9571769957
 20
1003.6571512456
 30
0.0
 40
406.6763636824096
 50
269.9401928395
 51
270.1797024865
  0
ARC
  5
D7
  8
0
  6
CONTINUOUS
 62
     8
 10
143.2326731975
 20
595.4827868917
 30
0.0
 40
1.500000908676091
 50
0.0000661247
 51
89.9999434746
  0
LINE
  5
D8
  8
0
  6
CONTINUOUS
 62
     8
 10
117.8311300201
 20
580.7880775512
 30
0.0
 11
117.8311297916
 21
580.7880772771
 31
0.0
  0
LINE
  5
D9
  8
0
  6
CONTINUOUS
 62
     8
 10
117.9295515985
 20
580.9061834586
 30
0.0
 11
117.8311300201
 21
580.7880775512
 31
0.0
  0
LINE
  5
DA
  8
0
  6
CONTINUOUS
 62
     8
 10
143.3310962558
 20
580.7880775512
 30
0.0
 11
143.2326746774
 21
580.9061834586
 31
0.0
  0
LINE
  5
DB
  8
0
  6
CONTINUOUS
 62
     8
 10
143.3310964843
 20
580.7880772771
 30
0.0
 11
143.3310962558
 21
580.7880775512
 31
0.0
  0
LINE
  5
DC
  8
0
  6
CONTINUOUS
 62
     8
 10
117.8311297916
 20
580.7880772771
 30
0.0
 11
118.5811131379
 21
580.7880772771
 31
0.0
  0
LINE
  5
DD
  8
0
  6
CONTINUOUS
 62
     8
 10
142.5811131379
 20
580.7880772771
 30
0.0
 11
143.3310964843
 21
580.7880772771
 31
0.0
  0
LINE
  5
DE
  8
0
  6
CONTINUOUS
 62
     8
 10
117.8311300201
 20
597.1008937077
 30
0.0
 11
117.9295515985
 21
596.9827878003
 31
0.0
  0
LINE
  5
DF
  8
0
  6
CONTINUOUS
 62
     8
 10
117.8311297916
 20
597.1008939818
 30
0.0
 11
117.8311300201
 21
597.1008937077
 31
0.0
  0
LINE
  5
E0
  8
0
  6
CONTINUOUS
 62
     8
 10
143.3310964843
 20
597.1008939818
 30
0.0
 11
117.8311297916
 21
597.1008939818
 31
0.0
  0
LINE
  5
E1
  8
0
  6
CONTINUOUS
 62
     8
 10
143.2326746774
 20
596.9827878003
 30
0.0
 11
143.3310962558
 21
597.1008937077
 31
0.0
  0
ARC
  5
E2
  8
0
  6
CONTINUOUS
 62
     8
 10
117.8311314999
 20
582.2880784599
 30
0.0
 40
1.500000908676118
 50
180.0000661247
 51
269.9999434746
  0
LINE
  5
E3
  8
0
  6
CONTINUOUS
 62
     8
 10
116.3311305912
 20
582.2880767288
 30
0.0
 11
116.4295521697
 21
582.4061826361
 31
0.0
  0
LINE
  5
E4
  8
0
  6
CONTINUOUS
 62
     8
 10
116.4295521697
 20
595.4827886228
 30
0.0
 11
116.3311305912
 21
595.6008945301
 31
0.0
  0
LINE
  5
E5
  8
0
  6
CONTINUOUS
 62
     8
 10
144.7326741062
 20
582.4061826361
 30
0.0
 11
144.8310956846
 21
582.2880767288
 31
0.0
  0
ARC
  5
E6
  8
0
  6
CONTINUOUS
 62
     8
 10
143.331094776
 20
582.2880784599
 30
0.0
 40
1.500000908675905
 50
270.0000565254
 51
359.9999338753
  0
LINE
  5
E7
  8
0
  6
CONTINUOUS
 62
     8
 10
144.8310956846
 20
595.6008945301
 30
0.0
 11
144.7326741062
 21
595.4827886228
 31
0.0
  0
LINE
  5
E8
  8
0
  6
CONTINUOUS
 62
     8
 10
116.3311305912
 20
595.6008945301
 30
0.0
 11
116.3311305912
 21
582.2880767288
 31
0.0
  0
LINE
  5
E9
  8
0
  6
CONTINUOUS
 62
     8
 10
144.8310956846
 20
582.2880767288
 30
0.0
 11
144.8310956846
 21
595.6008945301
 31
0.0
  0
LINE
  5
EA
  8
0
  6
CONTINUOUS
 62
     8
 10
105.8206608041
 20
454.3478755676
 30
0.0
 11
104.424629701
 21
453.9559608332
 31
0.0
  0
ARC
  5
EB
  8
0
  6
CONTINUOUS
 62
     8
 10
20.8874220108
 20
430.1338434191
 30
0.0
 40
88.31746382490122
 50
355.6663944585
 51
15.912579963
  0
LINE
  5
EC
  8
0
  6
CONTINUOUS
 62
     8
 10
108.9523848641
 20
423.4602586228
 30
0.0
 11
107.5033027432
 21
423.5118435718
 31
0.0
  0
ARC
  5
ED
  8
0
  6
CONTINUOUS
 62
     8
 10
217.1918250464
 20
490.1501223324
 30
0.0
 40
88.31746382490047
 50
198.087420037
 51
218.3336055415
  0
LINE
  5
EE
  8
0
  6
CONTINUOUS
 62
     8
 10
133.2386639861
 20
462.7304003647
 30
0.0
 11
134.6151821613
 21
463.1861390105
 31
0.0
  0
LINE
  5
EF
  8
0
  6
CONTINUOUS
 62
     8
 10
147.9144832741
 20
435.3721675207
 30
0.0
 11
149.0869808606
 21
436.2252498202
 31
0.0
  0
POLYLINE
  5
F0
  8
0
  6
CONTINUOUS
 62
     8
 66
     1
 10
0.0
 20
0.0
 30
0.0
 70
   128
  0
VERTEX
  5
2AD
  8
0
  6
CONTINUOUS
 62
     8
 10
105.8206608973
 20
454.3478754815
 30
0.0
  0
VERTEX
  5
2AE
  8
0
  6
CONTINUOUS
 62
     8
 10
105.0827955799
 20
456.9030141122
 30
0.0
  0
VERTEX
  5
2AF
  8
0
  6
CONTINUOUS
 62
     8
 10
104.3222519896
 20
459.4515147034
 30
0.0
  0
SEQEND
  5
4DF
  8
0
  6
CONTINUOUS
 62
     8
  0
LINE
  5
F1
  8
0
  6
CONTINUOUS
 62
     8
 10
104.3222520033
 20
459.4515144661
 30
0.0
 11
92.6827171136
 21
498.2481047306
 31
0.0
  0
POLYLINE
  5
F2
  8
0
  6
CONTINUOUS
 62
     8
 66
     1
 10
0.0
 20
0.0
 30
0.0
 70
   128
  0
VERTEX
  5
2B0
  8
0
  6
CONTINUOUS
 62
     8
 10
92.6827172776
 20
498.2481044308
 30
0.0
  0
VERTEX
  5
2B1
  8
0
  6
CONTINUOUS
 62
     8
 10
92.5399357401
 20
498.7810039037
 30
0.0
  0
VERTEX
  5
2B2
  8
0
  6
CONTINUOUS
 62
     8
 10
92.5030827516
 20
499.054967652
 30
0.0
  0
VERTEX
  5
2B3
  8
0
  6
CONTINUOUS
 62
     8
 10
92.5040092899
 20
499.1935425156
 30
0.0
  0
VERTEX
  5
2B4
  8
0
  6
CONTINUOUS
 62
     8
 10
92.5129013313
 20
499.2622632768
 30
0.0
  0
VERTEX
  5
2B5
  8
0
  6
CONTINUOUS
 62
     8
 10
92.5338422127
 20
499.3284586198
 30
0.0
  0
VERTEX
  5
2B6
  8
0
  6
CONTINUOUS
 62
     8
 10
92.5767013134
 20
499.3825377185
 30
0.0
  0
VERTEX
  5
2B7
  8
0
  6
CONTINUOUS
 62
     8
 10
92.9902956605
 20
499.625116373
 30
0.0
  0
VERTEX
  5
2B8
  8
0
  6
CONTINUOUS
 62
     8
 10
93.5145306956
 20
499.8026860359
 30
0.0
  0
SEQEND
  5
4E0
  8
0
  6
CONTINUOUS
 62
     8
  0
LINE
  5
F3
  8
0
  6
CONTINUOUS
 62
     8
 10
93.5145306013
 20
499.8026863254
 30
0.0
 11
105.7687156469
 21
503.5491666701
 31
0.0
  0
ARC
  5
F4
  8
0
  6
CONTINUOUS
 62
     8
 10
130.4887432812
 20
422.6935995535
 30
0.0
 40
21.55000000000015
 50
177.9612250536
 51
287.0
  0
LINE
  5
F5
  8
0
  6
CONTINUOUS
 62
     8
 10
118.0229006926
 20
507.2956470149
 30
0.0
 11
105.7687156469
 21
503.5491666701
 31
0.0
  0
POLYLINE
  5
F6
  8
0
  6
CONTINUOUS
 62
     8
 66
     1
 10
0.0
 20
0.0
 30
0.0
 70
   128
  0
VERTEX
  5
2B9
  8
0
  6
CONTINUOUS
 62
     8
 10
119.5818163547
 20
506.4719843222
 30
0.0
  0
VERTEX
  5
2BA
  8
0
  6
CONTINUOUS
 62
     8
 10
119.4021940104
 20
506.9936204302
 30
0.0
  0
VERTEX
  5
2BB
  8
0
  6
CONTINUOUS
 62
     8
 10
119.2795479386
 20
507.2413546007
 30
0.0
  0
VERTEX
  5
2BC
  8
0
  6
CONTINUOUS
 62
     8
 10
119.2012897232
 20
507.3557202556
 30
0.0
  0
VERTEX
  5
2BD
  8
0
  6
CONTINUOUS
 62
     8
 10
119.1554897248
 20
507.4077199822
 30
0.0
  0
VERTEX
  5
2BE
  8
0
  6
CONTINUOUS
 62
     8
 10
119.1011129813
 20
507.4508884164
 30
0.0
  0
VERTEX
  5
2BF
  8
0
  6
CONTINUOUS
 62
     8
 10
119.0353405282
 20
507.4717555161
 30
0.0
  0
VERTEX
  5
2C0
  8
0
  6
CONTINUOUS
 62
     8
 10
118.5568070126
 20
507.4415833113
 30
0.0
  0
VERTEX
  5
2C1
  8
0
  6
CONTINUOUS
 62
     8
 10
118.0229007763
 20
507.2956467221
 30
0.0
  0
SEQEND
  5
4E1
  8
0
  6
CONTINUOUS
 62
     8
  0
LINE
  5
F7
  8
0
  6
CONTINUOUS
 62
     8
 10
131.6269825271
 20
467.7994083362
 30
0.0
 11
119.5818163229
 21
506.4719846625
 31
0.0
  0
POLYLINE
  5
F8
  8
0
  6
CONTINUOUS
 62
     8
 66
     1
 10
0.0
 20
0.0
 30
0.0
 70
   128
  0
VERTEX
  5
2C2
  8
0
  6
CONTINUOUS
 62
     8
 10
133.238663957
 20
462.7304002412
 30
0.0
  0
VERTEX
  5
2C3
  8
0
  6
CONTINUOUS
 62
     8
 10
132.4215666389
 20
465.2613152183
 30
0.0
  0
VERTEX
  5
2C4
  8
0
  6
CONTINUOUS
 62
     8
 10
131.6269824058
 20
467.7994085406
 30
0.0
  0
SEQEND
  5
4E2
  8
0
  6
CONTINUOUS
 62
     8
  0
ARC
  5
F9
  8
0
  6
CONTINUOUS
 62
     8
 10
130.4887432812
 20
422.6935995535
 30
0.0
 40
21.55000000000019
 50
287.0
 51
36.0387749464
  0
LINE
  5
FA
  8
0
  6
CONTINUOUS
 62
     8
 10
93.0905916295
 20
501.1893282216
 30
0.0
 11
93.5145306013
 21
499.8026863254
 31
0.0
  0
LINE
  5
FB
  8
0
  6
CONTINUOUS
 62
     8
 10
91.2938744961
 20
497.8314319769
 30
0.0
 11
92.6827171136
 21
498.2481047306
 31
0.0
  0
LINE
  5
FC
  8
0
  6
CONTINUOUS
 62
     8
 10
117.5989617207
 20
508.682288911
 30
0.0
 11
118.0229006926
 21
507.2956470149
 31
0.0
  0
LINE
  5
FD
  8
0
  6
CONTINUOUS
 62
     8
 10
120.9662194821
 20
506.9031782299
 30
0.0
 11
119.5818163229
 21
506.4719846625
 31
0.0
  0
LINE
  5
FE
  8
0
  6
CONTINUOUS
 62
     8
 10
104.3222520035
 20
459.4515144662
 30
0.0
 11
102.9334093857
 21
459.0348417124
 31
0.0
  0
LINE
  5
FF
  8
0
  6
CONTINUOUS
 62
     8
 10
131.6269825268
 20
467.7994083362
 30
0.0
 11
133.0113856864
 21
468.2306019037
 31
0.0
  0
LINE
  5
100
  8
0
  6
CONTINUOUS
 62
     8
 10
117.8293820626
 20
597.0879121682
 30
0.0
 11
117.8311297916
 21
597.1008939818
 31
0.0
  0
LINE
  5
101
  8
0
  6
CONTINUOUS
 62
     8
 10
143.3310964843
 20
597.1008939818
 30
0.0
 11
143.3334959127
 21
597.0689190998
 31
0.0
  0
POLYLINE
  5
102
  8
0
  6
CONTINUOUS
 62
     8
 66
     1
 10
0.0
 20
0.0
 30
0.0
 70
   128
  0
VERTEX
  5
2C5
  8
0
  6
CONTINUOUS
 62
     8
 10
117.8311297916
 20
580.7880772771
 30
0.0
  0
VERTEX
  5
2C6
  8
0
  6
CONTINUOUS
 62
     8
 10
117.8265821429
 20
580.7621781483
 30
0.0
  0
VERTEX
  5
2C7
  8
0
  6
CONTINUOUS
 62
     8
 10
117.8192622881
 20
580.6162656388
 30
0.0
  0
VERTEX
  5
2C8
  8
0
  6
CONTINUOUS
 62
     8
 10
117.7944993394
 20
579.7929661255
 30
0.0
  0
VERTEX
  5
2C9
  8
0
  6
CONTINUOUS
 62
     8
 10
117.7741816093
 20
578.976701823
 30
0.0
  0
VERTEX
  5
2CA
  8
0
  6
CONTINUOUS
 62
     8
 10
117.7478788178
 20
577.8149977197
 30
0.0
  0
VERTEX
  5
2CB
  8
0
  6
CONTINUOUS
 62
     8
 10
117.70070227
 20
575.4946509449
 30
0.0
  0
VERTEX
  5
2CC
  8
0
  6
CONTINUOUS
 62
     8
 10
117.6430717803
 20
572.2534061737
 30
0.0
  0
VERTEX
  5
2CD
  8
0
  6
CONTINUOUS
 62
     8
 10
117.619151131
 20
570.7585979463
 30
0.0
  0
VERTEX
  5
2CE
  8
0
  6
CONTINUOUS
 62
     8
 10
117.5948701632
 20
569.1345544461
 30
0.0
  0
VERTEX
  5
2CF
  8
0
  6
CONTINUOUS
 62
     8
 10
117.5352821884
 20
564.5639795691
 30
0.0
  0
VERTEX
  5
2D0
  8
0
  6
CONTINUOUS
 62
     8
 10
117.4809903844
 20
559.2899864498
 30
0.0
  0
VERTEX
  5
2D1
  8
0
  6
CONTINUOUS
 62
     8
 10
117.4516089561
 20
555.6455681211
 30
0.0
  0
VERTEX
  5
2D2
  8
0
  6
CONTINUOUS
 62
     8
 10
117.4274513906
 20
551.85720677
 30
0.0
  0
VERTEX
  5
2D3
  8
0
  6
CONTINUOUS
 62
     8
 10
117.3952421134
 20
543.9054527773
 30
0.0
  0
VERTEX
  5
2D4
  8
0
  6
CONTINUOUS
 62
     8
 10
117.38306707
 20
536.4372105409
 30
0.0
  0
VERTEX
  5
2D5
  8
0
  6
CONTINUOUS
 62
     8
 10
117.3811131379
 20
528.9244856294
 30
0.0
  0
SEQEND
  5
4E3
  8
0
  6
CONTINUOUS
 62
     8
  0
LINE
  5
103
  8
0
  6
CONTINUOUS
 62
     8
 10
116.3291918918
 20
582.2769216315
 30
0.0
 11
116.3311303628
 21
582.2880764546
 31
0.0
  0
POLYLINE
  5
104
  8
0
  6
CONTINUOUS
 62
     8
 66
     1
 10
0.0
 20
0.0
 30
0.0
 70
   128
  0
VERTEX
  5
2D6
  8
0
  6
CONTINUOUS
 62
     8
 10
143.7811131379
 20
528.9244856294
 30
0.0
  0
VERTEX
  5
2D7
  8
0
  6
CONTINUOUS
 62
     8
 10
143.77917545
 20
536.4156459086
 30
0.0
  0
VERTEX
  5
2D8
  8
0
  6
CONTINUOUS
 62
     8
 10
143.7669805598
 20
543.9068061877
 30
0.0
  0
VERTEX
  5
2D9
  8
0
  6
CONTINUOUS
 62
     8
 10
143.7358280654
 20
551.6667453041
 30
0.0
  0
VERTEX
  5
2DA
  8
0
  6
CONTINUOUS
 62
     8
 10
143.7115018741
 20
555.5224198694
 30
0.0
  0
VERTEX
  5
2DB
  8
0
  6
CONTINUOUS
 62
     8
 10
143.6812288538
 20
559.2907738866
 30
0.0
  0
VERTEX
  5
2DC
  8
0
  6
CONTINUOUS
 62
     8
 10
143.6286123347
 20
564.421001048
 30
0.0
  0
VERTEX
  5
2DD
  8
0
  6
CONTINUOUS
 62
     8
 10
143.567356113
 20
569.1345544461
 30
0.0
  0
VERTEX
  5
2DE
  8
0
  6
CONTINUOUS
 62
     8
 10
143.5191610347
 20
572.2530105888
 30
0.0
  0
VERTEX
  5
2DF
  8
0
  6
CONTINUOUS
 62
     8
 10
143.4629884208
 20
575.4179829617
 30
0.0
  0
VERTEX
  5
2E0
  8
0
  6
CONTINUOUS
 62
     8
 10
143.414352621
 20
577.8147598627
 30
0.0
  0
VERTEX
  5
2E1
  8
0
  6
CONTINUOUS
 62
     8
 10
143.388702011
 20
578.9489785447
 30
0.0
  0
VERTEX
  5
2E2
  8
0
  6
CONTINUOUS
 62
     8
 10
143.3684602643
 20
579.7650717359
 30
0.0
  0
VERTEX
  5
2E3
  8
0
  6
CONTINUOUS
 62
     8
 10
143.3429653529
 20
580.6162307272
 30
0.0
  0
VERTEX
  5
2E4
  8
0
  6
CONTINUOUS
 62
     8
 10
143.3310964843
 20
580.7880772771
 30
0.0
  0
SEQEND
  5
4E4
  8
0
  6
CONTINUOUS
 62
     8
  0
LINE
  5
105
  8
0
  6
CONTINUOUS
 62
     8
 10
144.8310959131
 20
582.2880764546
 30
0.0
 11
144.8334514351
 21
582.253627737
 31
0.0
  0
LINE
  5
106
  8
0
  6
CONTINUOUS
 62
     8
 10
108.3171917543
 20
391.6444856294
 30
0.0
 11
130.5811131379
 21
391.6444856294
 31
0.0
  0
LINE
  5
107
  8
0
  6
CONTINUOUS
 62
     8
 10
130.5811131379
 20
391.6444856294
 30
0.0
 11
153.5811131379
 21
391.6444856294
 31
0.0
  0
LINE
  5
108
  8
0
  6
CONTINUOUS
 62
     8
 10
153.5811131379
 20
453.6444856294
 30
0.0
 11
138.3289164487
 21
453.6444856294
 31
0.0
  0
LINE
  5
109
  8
0
  6
CONTINUOUS
 62
     8
 10
153.5811131379
 20
464.5848695125
 30
0.0
 11
134.1648233622
 21
464.5848695125
 31
0.0
  0
LINE
  5
10A
  8
0
  6
CONTINUOUS
 62
     8
 10
133.6739778742
 20
466.1113560856
 30
0.0
 11
152.7349678136
 21
466.1113560856
 31
0.0
  0
LINE
  5
10B
  8
0
  6
CONTINUOUS
 62
     8
 10
148.7783826893
 20
468.5837048679
 30
0.0
 11
132.90140636
 21
468.5837048679
 31
0.0
  0
LINE
  5
10C
  8
0
  6
CONTINUOUS
 62
     8
 10
117.3811131379
 20
528.9244856294
 30
0.0
 11
117.3811131379
 21
508.6156859153
 31
0.0
  0
LINE
  5
10D
  8
0
  6
CONTINUOUS
 62
     8
 10
143.7811131379
 20
469.3444856294
 30
0.0
 11
143.7811131379
 21
528.9244856294
 31
0.0
  0
LINE
  5
10E
  8
0
  6
CONTINUOUS
 62
     8
 10
132.6644495398
 20
469.3444856294
 30
0.0
 11
143.7811131379
 21
469.3444856294
 31
0.0
  0
LINE
  5
10F
  8
0
  6
CONTINUOUS
 62
     8
 10
143.7811131379
 20
468.9444856294
 30
0.0
 11
143.7811131379
 21
469.3444856294
 31
0.0
  0
LINE
  5
110
  8
0
  6
CONTINUOUS
 62
     8
 10
143.7811131379
 20
469.3444856294
 30
0.0
 11
145.2811131379
 21
469.3444856294
 31
0.0
  0
POLYLINE
  5
111
  8
0
  6
CONTINUOUS
 62
     7
 66
     1
 10
0.0
 20
0.0
 30
0.0
 70
   128
  0
VERTEX
  5
2E5
  8
0
  6
CONTINUOUS
 62
     7
 10
338.2040008646
 20
401.2505394892
 30
0.0
  0
VERTEX
  5
2E6
  8
0
  6
CONTINUOUS
 62
     7
 10
338.4735897023
 20
410.9430284715
 30
0.0
  0
VERTEX
  5
2E7
  8
0
  6
CONTINUOUS
 62
     7
 10
338.592126856
 20
424.0642417248
 30
0.0
  0
SEQEND
  5
4E5
  8
0
  6
CONTINUOUS
 62
     7
  0
POLYLINE
  5
112
  8
0
  6
CONTINUOUS
 62
     7
 66
     1
 10
0.0
 20
0.0
 30
0.0
 70
   128
  0
VERTEX
  5
2E8
  8
0
  6
CONTINUOUS
 62
     7
 10
338.5952508163
 20
423.5558494658
 30
0.0
  0
VERTEX
  5
2E9
  8
0
  6
CONTINUOUS
 62
     7
 10
338.5794939666
 20
429.1419750088
 30
0.0
  0
VERTEX
  5
2EA
  8
0
  6
CONTINUOUS
 62
     7
 10
338.5389818322
 20
434.768971898
 30
0.0
  0
VERTEX
  5
2EB
  8
0
  6
CONTINUOUS
 62
     7
 10
338.5140822393
 20
438.2426456407
 30
0.0
  0
SEQEND
  5
4E6
  8
0
  6
CONTINUOUS
 62
     7
  0
POLYLINE
  5
113
  8
0
  6
CONTINUOUS
 62
     7
 66
     1
 10
0.0
 20
0.0
 30
0.0
 70
   128
  0
VERTEX
  5
2EC
  8
0
  6
CONTINUOUS
 62
     7
 10
338.356083736
 20
488.9973765781
 30
0.0
  0
VERTEX
  5
2ED
  8
0
  6
CONTINUOUS
 62
     7
 10
338.3502153146
 20
490.4586925142
 30
0.0
  0
VERTEX
  5
2EE
  8
0
  6
CONTINUOUS
 62
     7
 10
338.3409244019
 20
492.9369899973
 30
0.0
  0
VERTEX
  5
2EF
  8
0
  6
CONTINUOUS
 62
     7
 10
338.324484015
 20
496.9892540437
 30
0.0
  0
VERTEX
  5
2F0
  8
0
  6
CONTINUOUS
 62
     7
 10
338.2936627382
 20
501.8962327075
 30
0.0
  0
VERTEX
  5
2F1
  8
0
  6
CONTINUOUS
 62
     7
 10
338.1994513313
 20
506.9109589959
 30
0.0
  0
SEQEND
  5
4E7
  8
0
  6
CONTINUOUS
 62
     7
  0
ARC
  5
114
  8
0
  6
CONTINUOUS
 62
     7
 10
231.0128
 20
352.8444856294
 30
0.0
 40
0.2000000000000171
 50
180.0
 51
270.0
  0
ARC
  5
115
  8
0
  6
CONTINUOUS
 62
     7
 10
280.6128
 20
352.8444856294
 30
0.0
 40
0.2000000000000455
 50
270.0
 51
0.0
  0
LINE
  5
116
  8
0
  6
CONTINUOUS
 62
     7
 10
230.8128
 20
358.0444856294
 30
0.0
 11
230.8128
 21
352.8444856294
 31
0.0
  0
LINE
  5
117
  8
0
  6
CONTINUOUS
 62
     7
 10
280.8128
 20
352.8444856294
 30
0.0
 11
280.8128
 21
358.0444856294
 31
0.0
  0
ARC
  5
118
  8
0
  6
CONTINUOUS
 62
     7
 10
279.8128
 20
358.0444856294
 30
0.0
 40
1.0
 50
0.0
 51
90.0
  0
ARC
  5
119
  8
0
  6
CONTINUOUS
 62
     7
 10
231.8128
 20
358.0444856294
 30
0.0
 40
1.0
 50
90.0
 51
180.0
  0
LINE
  5
11A
  8
0
  6
CONTINUOUS
 62
     7
 10
315.4377931382
 20
399.6935995535
 30
0.0
 11
336.7128
 21
399.6935995535
 31
0.0
  0
LINE
  5
11B
  8
0
  6
CONTINUOUS
 62
     7
 10
314.5473570367
 20
445.6935995535
 30
0.0
 11
306.6128
 21
445.6935995535
 31
0.0
  0
LINE
  5
11C
  8
0
  6
CONTINUOUS
 62
     7
 10
278.8128
 20
453.6444856294
 30
0.0
 11
278.8128
 21
464.5848695125
 31
0.0
  0
LINE
  5
11D
  8
0
  6
CONTINUOUS
 62
     7
 10
278.8128
 20
359.0444856294
 30
0.0
 11
278.8128
 21
391.6444856294
 31
0.0
  0
LINE
  5
11E
  8
0
  6
CONTINUOUS
 62
     7
 10
232.8128
 20
464.5848695125
 30
0.0
 11
232.8128
 21
359.0444856294
 31
0.0
  0
LINE
  5
11F
  8
0
  6
CONTINUOUS
 62
     7
 10
299.8128
 20
445.6444856294
 30
0.0
 11
286.8128
 21
445.6444856294
 31
0.0
  0
LINE
  5
120
  8
0
  6
CONTINUOUS
 62
     7
 10
286.8128
 20
399.6444856294
 30
0.0
 11
299.8128
 21
399.6444856294
 31
0.0
  0
POLYLINE
  5
121
  8
0
  6
CONTINUOUS
 62
     7
 66
     1
 10
0.0
 20
0.0
 30
0.0
 70
   128
  0
VERTEX
  5
2F2
  8
0
  6
CONTINUOUS
 62
     7
 10
286.7480062197
 20
445.6276643618
 30
0.0
  0
VERTEX
  5
2F3
  8
0
  6
CONTINUOUS
 62
     7
 10
285.2273967254
 20
445.6296903337
 30
0.0
  0
VERTEX
  5
2F4
  8
0
  6
CONTINUOUS
 62
     7
 10
283.2500427399
 20
445.9204790298
 30
0.0
  0
VERTEX
  5
2F5
  8
0
  6
CONTINUOUS
 62
     7
 10
281.3596685576
 20
446.7255801452
 30
0.0
  0
VERTEX
  5
2F6
  8
0
  6
CONTINUOUS
 62
     7
 10
280.4570676961
 20
447.4892030179
 30
0.0
  0
VERTEX
  5
2F7
  8
0
  6
CONTINUOUS
 62
     7
 10
279.6983925758
 20
448.5722663235
 30
0.0
  0
VERTEX
  5
2F8
  8
0
  6
CONTINUOUS
 62
     7
 10
279.1554120199
 20
449.9881529744
 30
0.0
  0
VERTEX
  5
2F9
  8
0
  6
CONTINUOUS
 62
     7
 10
278.8687985922
 20
451.7411336617
 30
0.0
  0
VERTEX
  5
2FA
  8
0
  6
CONTINUOUS
 62
     7
 10
278.8454997889
 20
452.6332390627
 30
0.0
  0
SEQEND
  5
4E8
  8
0
  6
CONTINUOUS
 62
     7
  0
POLYLINE
  5
122
  8
0
  6
CONTINUOUS
 62
     7
 66
     1
 10
0.0
 20
0.0
 30
0.0
 70
   128
  0
VERTEX
  5
2FB
  8
0
  6
CONTINUOUS
 62
     7
 10
278.7474773557
 20
391.6443038641
 30
0.0
  0
VERTEX
  5
2FC
  8
0
  6
CONTINUOUS
 62
     7
 10
278.7305211486
 20
392.6966172734
 30
0.0
  0
VERTEX
  5
2FD
  8
0
  6
CONTINUOUS
 62
     7
 10
278.9043753042
 20
394.6155736153
 30
0.0
  0
VERTEX
  5
2FE
  8
0
  6
CONTINUOUS
 62
     7
 10
279.2977157063
 20
396.1303129971
 30
0.0
  0
VERTEX
  5
2FF
  8
0
  6
CONTINUOUS
 62
     7
 10
279.8741487468
 20
397.2858719097
 30
0.0
  0
VERTEX
  5
300
  8
0
  6
CONTINUOUS
 62
     7
 10
280.5589833142
 20
398.129594698
 30
0.0
  0
VERTEX
  5
301
  8
0
  6
CONTINUOUS
 62
     7
 10
281.2666320407
 20
398.7129881093
 30
0.0
  0
VERTEX
  5
302
  8
0
  6
CONTINUOUS
 62
     7
 10
281.9281623497
 20
399.0904552994
 30
0.0
  0
VERTEX
  5
303
  8
0
  6
CONTINUOUS
 62
     7
 10
282.4926138092
 20
399.3150153672
 30
0.0
  0
VERTEX
  5
304
  8
0
  6
CONTINUOUS
 62
     7
 10
283.3245847482
 20
399.5044707722
 30
0.0
  0
VERTEX
  5
305
  8
0
  6
CONTINUOUS
 62
     7
 10
284.3837028163
 20
399.6228904909
 30
0.0
  0
VERTEX
  5
306
  8
0
  6
CONTINUOUS
 62
     7
 10
285.8190511657
 20
399.6655997323
 30
0.0
  0
VERTEX
  5
307
  8
0
  6
CONTINUOUS
 62
     7
 10
286.7882900076
 20
399.6509394364
 30
0.0
  0
SEQEND
  5
4E9
  8
0
  6
CONTINUOUS
 62
     7
  0
ARC
  5
123
  8
0
  6
CONTINUOUS
 62
     7
 10
336.7128
 20
401.1935995535
 30
0.0
 40
1.5
 50
270.0
 51
0.0
  0
ARC
  5
124
  8
0
  6
CONTINUOUS
 62
     7
 10
234.3162887925
 20
464.7492283586
 30
0.0
 40
1.512445826974987
 50
115.761295664
 51
186.238704336
  0
ARC
  5
125
  8
0
  6
CONTINUOUS
 62
     7
 10
277.3093112075
 20
464.7492283586
 30
0.0
 40
1.512445826975122
 50
353.761295664
 51
64.238704336
  0
ARC
  5
126
  8
0
  6
CONTINUOUS
 62
     7
 10
299.8128
 20
400.6444856294
 30
0.0
 40
1.0
 50
270.0
 51
0.0
  0
ARC
  5
127
  8
0
  6
CONTINUOUS
 62
     7
 10
299.8128
 20
444.6444856294
 30
0.0
 40
1.0
 50
0.0
 51
90.0
  0
LINE
  5
128
  8
0
  6
CONTINUOUS
 62
     7
 10
277.9766546756
 20
466.105107392
 30
0.0
 11
274.0100695514
 21
468.5837048679
 31
0.0
  0
LINE
  5
129
  8
0
  6
CONTINUOUS
 62
     7
 10
237.6155304486
 20
468.5837048679
 30
0.0
 11
233.6489453244
 21
466.105107392
 31
0.0
  0
ARC
  5
12A
  8
0
  6
CONTINUOUS
 62
     7
 10
306.6128
 20
445.4935995535
 30
0.0
 40
0.2000000000000455
 50
90.0
 51
180.0
  0
ARC
  5
12B
  8
0
  6
CONTINUOUS
 62
     7
 10
300.8128
 20
422.6444856296
 30
0.0
 40
21.64486082191343
 50
279.0468459803
 51
301.1693392084
  0
ARC
  5
12C
  8
0
  6
CONTINUOUS
 62
     7
 10
300.8128
 20
422.6444856296
 30
0.0
 40
21.64486082191332
 50
75.0057609508
 51
80.9531540197
  0
LINE
  5
12D
  8
0
  6
CONTINUOUS
 62
     7
 10
302.643860775
 20
444.1444856296
 30
0.0
 11
300.8128
 21
444.1444856296
 31
0.0
  0
LINE
  5
12E
  8
0
  6
CONTINUOUS
 62
     7
 10
300.8128
 20
401.1444856296
 30
0.0
 11
302.643860775
 21
401.1444856296
 31
0.0
  0
ARC
  5
12F
  8
0
  6
CONTINUOUS
 62
     7
 10
302.643860775
 20
411.1444856296
 30
0.0
 40
10.0
 50
270.0
 51
279.0468459803
  0
ARC
  5
130
  8
0
  6
CONTINUOUS
 62
     7
 10
302.643860775
 20
434.1444856296
 30
0.0
 40
10.0
 50
80.9531540197
 51
90.0
  0
ARC
  5
131
  8
0
  6
CONTINUOUS
 62
     7
 10
237.8274981543
 20
468.2444856294
 30
0.0
 40
0.4000000000000341
 50
90.0
 51
122.0
  0
ARC
  5
132
  8
0
  6
CONTINUOUS
 62
     7
 10
273.7981018457
 20
468.2444856294
 30
0.0
 40
0.4000000000000341
 50
58.0
 51
90.0
  0
LINE
  5
133
  8
0
  6
CONTINUOUS
 62
     7
 10
279.4076209716
 20
395.8632818932
 30
0.0
 11
279.5080089098
 21
396.1989151352
 31
0.0
  0
LINE
  5
134
  8
0
  6
CONTINUOUS
 62
     7
 10
285.2067871237
 20
399.5950414457
 30
0.0
 11
286.8067578036
 21
399.6293129527
 31
0.0
  0
POLYLINE
  5
135
  8
0
  6
CONTINUOUS
 62
     7
 66
     1
 10
0.0
 20
0.0
 30
0.0
 70
   128
  0
VERTEX
  5
308
  8
0
  6
CONTINUOUS
 62
     7
 10
286.7778165861
 20
445.6343794301
 30
0.0
  0
VERTEX
  5
309
  8
0
  6
CONTINUOUS
 62
     7
 10
286.6601764833
 20
445.6306146009
 30
0.0
  0
VERTEX
  5
30A
  8
0
  6
CONTINUOUS
 62
     7
 10
284.837972541
 20
445.686958861
 30
0.0
  0
SEQEND
  5
4EA
  8
0
  6
CONTINUOUS
 62
     7
  0
POLYLINE
  5
136
  8
0
  6
CONTINUOUS
 62
     7
 66
     1
 10
0.0
 20
0.0
 30
0.0
 70
   128
  0
VERTEX
  5
30B
  8
0
  6
CONTINUOUS
 62
     7
 10
279.0808197121
 20
450.3634704055
 30
0.0
  0
VERTEX
  5
30C
  8
0
  6
CONTINUOUS
 62
     7
 10
279.039837461
 20
450.496765893
 30
0.0
  0
VERTEX
  5
30D
  8
0
  6
CONTINUOUS
 62
     7
 10
279.0239048589
 20
450.6413627932
 30
0.0
  0
SEQEND
  5
4EB
  8
0
  6
CONTINUOUS
 62
     7
  0
POLYLINE
  5
137
  8
0
  6
CONTINUOUS
 62
     7
 66
     1
 10
0.0
 20
0.0
 30
0.0
 70
   128
  0
VERTEX
  5
30E
  8
0
  6
CONTINUOUS
 62
     7
 10
266.3128
 20
528.9244856294
 30
0.0
  0
VERTEX
  5
30F
  8
0
  6
CONTINUOUS
 62
     7
 10
266.3355933588
 20
533.9637973174
 30
0.0
  0
VERTEX
  5
310
  8
0
  6
CONTINUOUS
 62
     7
 10
266.4306898446
 20
537.7277309062
 30
0.0
  0
VERTEX
  5
311
  8
0
  6
CONTINUOUS
 62
     7
 10
266.5685709252
 20
540.3936247162
 30
0.0
  0
VERTEX
  5
312
  8
0
  6
CONTINUOUS
 62
     7
 10
266.7850422342
 20
543.0748805767
 30
0.0
  0
VERTEX
  5
313
  8
0
  6
CONTINUOUS
 62
     7
 10
267.3876441643
 20
547.6855127238
 30
0.0
  0
VERTEX
  5
314
  8
0
  6
CONTINUOUS
 62
     7
 10
268.3901752484
 20
552.4172536362
 30
0.0
  0
VERTEX
  5
315
  8
0
  6
CONTINUOUS
 62
     7
 10
269.9891596412
 20
557.3912077926
 30
0.0
  0
VERTEX
  5
316
  8
0
  6
CONTINUOUS
 62
     7
 10
272.0921586404
 20
561.934762033
 30
0.0
  0
VERTEX
  5
317
  8
0
  6
CONTINUOUS
 62
     7
 10
274.7718583088
 20
566.1246054708
 30
0.0
  0
VERTEX
  5
318
  8
0
  6
CONTINUOUS
 62
     7
 10
278.0310522398
 20
569.8732986048
 30
0.0
  0
VERTEX
  5
319
  8
0
  6
CONTINUOUS
 62
     7
 10
281.8105516311
 20
573.0785087391
 30
0.0
  0
VERTEX
  5
31A
  8
0
  6
CONTINUOUS
 62
     7
 10
286.0601806629
 20
575.704248623
 30
0.0
  0
VERTEX
  5
31B
  8
0
  6
CONTINUOUS
 62
     7
 10
290.7229498409
 20
577.7400727103
 30
0.0
  0
VERTEX
  5
31C
  8
0
  6
CONTINUOUS
 62
     7
 10
295.732542008
 20
579.2001757599
 30
0.0
  0
VERTEX
  5
31D
  8
0
  6
CONTINUOUS
 62
     7
 10
301.0225550119
 20
580.1305594532
 30
0.0
  0
VERTEX
  5
31E
  8
0
  6
CONTINUOUS
 62
     7
 10
306.1655294934
 20
580.5932960593
 30
0.0
  0
VERTEX
  5
31F
  8
0
  6
CONTINUOUS
 62
     7
 10
308.3662839121
 20
580.6937138791
 30
0.0
  0
VERTEX
  5
320
  8
0
  6
CONTINUOUS
 62
     7
 10
309.3706737761
 20
580.7247357299
 30
0.0
  0
VERTEX
  5
321
  8
0
  6
CONTINUOUS
 62
     7
 10
310.4360323364
 20
580.7491701042
 30
0.0
  0
VERTEX
  5
322
  8
0
  6
CONTINUOUS
 62
     7
 10
311.6150421786
 20
580.7676179782
 30
0.0
  0
VERTEX
  5
323
  8
0
  6
CONTINUOUS
 62
     7
 10
312.9077291114
 20
580.7795987341
 30
0.0
  0
VERTEX
  5
324
  8
0
  6
CONTINUOUS
 62
     7
 10
314.3138409304
 20
580.7857179645
 30
0.0
  0
VERTEX
  5
325
  8
0
  6
CONTINUOUS
 62
     7
 10
315.8328
 20
580.7880772771
 30
0.0
  0
SEQEND
  5
4EC
  8
0
  6
CONTINUOUS
 62
     7
  0
ARC
  5
138
  8
0
  6
CONTINUOUS
 62
     7
 10
336.7128067039
 20
507.4316389126
 30
0.0
 40
1.499993297767892
 50
0.014661139
 51
90.0924640268
  0
ARC
  5
139
  8
0
  6
CONTINUOUS
 62
     7
 10
335.0968464334
 20
507.4237080808
 30
0.0
 40
1.49619561610772
 50
89.8512154683
 51
181.3777344631
  0
LINE
  5
13A
  8
0
  6
CONTINUOUS
 62
     7
 10
336.7128
 20
508.9315792774
 30
0.0
 11
335.0843179414
 21
508.9315792774
 31
0.0
  0
LINE
  5
13B
  8
0
  6
CONTINUOUS
 62
     7
 10
427.8128
 20
573.6218358986
 30
0.0
 11
427.8128
 21
580.9053425017
 31
0.0
  0
LINE
  5
13C
  8
0
  6
CONTINUOUS
 62
     7
 10
403.8128
 20
580.8802097513
 30
0.0
 11
403.8128
 21
573.6218358986
 31
0.0
  0
LINE
  5
13D
  8
0
  6
CONTINUOUS
 62
     7
 10
403.8128
 20
573.6218358986
 30
0.0
 11
404.8128
 21
573.0444856294
 31
0.0
  0
LINE
  5
13E
  8
0
  6
CONTINUOUS
 62
     7
 10
426.8128
 20
573.0444856294
 30
0.0
 11
427.8128
 21
573.6218358986
 31
0.0
  0
LINE
  5
13F
  8
0
  6
CONTINUOUS
 62
     7
 10
314.4128
 20
444.832054654
 30
0.0
 11
314.4128
 21
444.6946802484
 31
0.0
  0
LINE
  5
140
  8
0
  6
CONTINUOUS
 62
     7
 10
314.6548660797
 20
445.5293864186
 30
0.0
 11
314.4376422246
 21
444.9621914841
 31
0.0
  0
POLYLINE
  5
141
  8
0
  6
CONTINUOUS
 62
     7
 66
     1
 10
0.0
 20
0.0
 30
0.0
 70
   128
  0
VERTEX
  5
326
  8
0
  6
CONTINUOUS
 62
     7
 10
318.1204484036
 20
444.4962578294
 30
0.0
  0
VERTEX
  5
327
  8
0
  6
CONTINUOUS
 62
     7
 10
318.0597822739
 20
444.495480638
 30
0.0
  0
VERTEX
  5
328
  8
0
  6
CONTINUOUS
 62
     7
 10
317.6821431021
 20
444.5229810286
 30
0.0
  0
SEQEND
  5
4ED
  8
0
  6
CONTINUOUS
 62
     7
  0
ARC
  5
142
  8
0
  6
CONTINUOUS
 62
     7
 10
318.6014339556
 20
452.9881666382
 30
0.0
 40
8.505519520762844
 50
266.7582049101
 51
287.5737668528
  0
POLYLINE
  5
143
  8
0
  6
CONTINUOUS
 62
     7
 66
     1
 10
0.0
 20
0.0
 30
0.0
 70
   128
  0
VERTEX
  5
329
  8
0
  6
CONTINUOUS
 62
     7
 10
333.2769398457
 20
463.0502329724
 30
0.0
  0
VERTEX
  5
32A
  8
0
  6
CONTINUOUS
 62
     7
 10
333.2770303423
 20
463.0557779671
 30
0.0
  0
VERTEX
  5
32B
  8
0
  6
CONTINUOUS
 62
     7
 10
333.2741399934
 20
462.9465424002
 30
0.0
  0
VERTEX
  5
32C
  8
0
  6
CONTINUOUS
 62
     7
 10
333.2602152676
 20
462.5864654781
 30
0.0
  0
VERTEX
  5
32D
  8
0
  6
CONTINUOUS
 62
     7
 10
333.2431478429
 20
462.2644285146
 30
0.0
  0
VERTEX
  5
32E
  8
0
  6
CONTINUOUS
 62
     7
 10
333.2118081399
 20
461.80900082
 30
0.0
  0
VERTEX
  5
32F
  8
0
  6
CONTINUOUS
 62
     7
 10
333.1558953234
 20
461.1947427112
 30
0.0
  0
VERTEX
  5
330
  8
0
  6
CONTINUOUS
 62
     7
 10
333.0593890319
 20
460.4016097002
 30
0.0
  0
VERTEX
  5
331
  8
0
  6
CONTINUOUS
 62
     7
 10
332.672665928
 20
458.3656354659
 30
0.0
  0
VERTEX
  5
332
  8
0
  6
CONTINUOUS
 62
     7
 10
331.9432453295
 20
456.0462532942
 30
0.0
  0
VERTEX
  5
333
  8
0
  6
CONTINUOUS
 62
     7
 10
330.8445263586
 20
453.773006971
 30
0.0
  0
VERTEX
  5
334
  8
0
  6
CONTINUOUS
 62
     7
 10
329.4078955601
 20
451.7243417318
 30
0.0
  0
VERTEX
  5
335
  8
0
  6
CONTINUOUS
 62
     7
 10
327.6461095256
 20
449.9397005886
 30
0.0
  0
VERTEX
  5
336
  8
0
  6
CONTINUOUS
 62
     7
 10
325.5756655607
 20
448.4454089596
 30
0.0
  0
VERTEX
  5
337
  8
0
  6
CONTINUOUS
 62
     7
 10
323.2168359619
 20
447.2612271148
 30
0.0
  0
VERTEX
  5
338
  8
0
  6
CONTINUOUS
 62
     7
 10
320.5835979428
 20
446.3993661153
 30
0.0
  0
VERTEX
  5
339
  8
0
  6
CONTINUOUS
 62
     7
 10
320.3456506206
 20
446.3560459323
 30
0.0
  0
SEQEND
  5
4EE
  8
0
  6
CONTINUOUS
 62
     7
  0
LINE
  5
144
  8
0
  6
CONTINUOUS
 62
     7
 10
314.8566197854
 20
445.7115258439
 30
0.0
 11
314.5351717126
 21
445.6933025933
 31
0.0
  0
LINE
  5
145
  8
0
  6
CONTINUOUS
 62
     7
 10
265.8128
 20
468.6444856294
 30
0.0
 11
265.8128
 21
468.9444856294
 31
0.0
  0
LINE
  5
146
  8
0
  6
CONTINUOUS
 62
     7
 10
245.8128
 20
468.9444856294
 30
0.0
 11
245.8128
 21
468.6444856294
 31
0.0
  0
POLYLINE
  5
147
  8
0
  6
CONTINUOUS
 62
     7
 66
     1
 10
0.0
 20
0.0
 30
0.0
 70
   128
  0
VERTEX
  5
33A
  8
0
  6
CONTINUOUS
 62
     7
 10
338.2117995202
 20
423.4602587711
 30
0.0
  0
VERTEX
  5
33B
  8
0
  6
CONTINUOUS
 62
     7
 10
338.211870044
 20
428.6627326562
 30
0.0
  0
VERTEX
  5
33C
  8
0
  6
CONTINUOUS
 62
     7
 10
338.2119915939
 20
433.8578114877
 30
0.0
  0
VERTEX
  5
33D
  8
0
  6
CONTINUOUS
 62
     7
 10
338.2120464474
 20
439.1124474603
 30
0.0
  0
VERTEX
  5
33E
  8
0
  6
CONTINUOUS
 62
     7
 10
338.2118745107
 20
446.8393053579
 30
0.0
  0
VERTEX
  5
33F
  8
0
  6
CONTINUOUS
 62
     7
 10
338.2120772243
 20
454.3478754815
 30
0.0
  0
SEQEND
  5
4EF
  8
0
  6
CONTINUOUS
 62
     7
  0
POLYLINE
  5
148
  8
0
  6
CONTINUOUS
 62
     7
 66
     1
 10
0.0
 20
0.0
 30
0.0
 70
   128
  0
VERTEX
  5
340
  8
0
  6
CONTINUOUS
 62
     7
 10
338.5702332791
 20
421.6407796923
 30
0.0
  0
VERTEX
  5
341
  8
0
  6
CONTINUOUS
 62
     7
 10
338.5962522997
 20
423.0610308444
 30
0.0
  0
VERTEX
  5
342
  8
0
  6
CONTINUOUS
 62
     7
 10
338.5935741366
 20
423.5558441646
 30
0.0
  0
SEQEND
  5
4F0
  8
0
  6
CONTINUOUS
 62
     7
  0
POLYLINE
  5
149
  8
0
  6
CONTINUOUS
 62
     7
 66
     1
 10
0.0
 20
0.0
 30
0.0
 70
   128
  0
VERTEX
  5
343
  8
0
  6
CONTINUOUS
 62
     7
 10
338.5908223834
 20
424.0642538827
 30
0.0
  0
VERTEX
  5
344
  8
0
  6
CONTINUOUS
 62
     7
 10
338.4826342283
 20
444.0529320846
 30
0.0
  0
VERTEX
  5
345
  8
0
  6
CONTINUOUS
 62
     7
 10
338.4210339265
 20
474.1060946797
 30
0.0
  0
VERTEX
  5
346
  8
0
  6
CONTINUOUS
 62
     7
 10
338.3577648828
 20
488.8277347363
 30
0.0
  0
VERTEX
  5
347
  8
0
  6
CONTINUOUS
 62
     7
 10
338.2118763278
 20
503.5491156043
 30
0.0
  0
SEQEND
  5
4F1
  8
0
  6
CONTINUOUS
 62
     7
  0
LINE
  5
14A
  8
0
  6
CONTINUOUS
 62
     7
 10
338.2119664351
 20
401.2503173063
 30
0.0
 11
338.2119664351
 21
423.4602586228
 31
0.0
  0
LINE
  5
14B
  8
0
  6
CONTINUOUS
 62
     7
 10
333.594067112
 20
498.2724870753
 30
0.0
 11
333.3112882208
 21
459.4758968108
 31
0.0
  0
LINE
  5
14C
  8
0
  6
CONTINUOUS
 62
     7
 10
333.3112882208
 20
467.7945539112
 30
0.0
 11
333.2794511211
 21
463.4463077035
 31
0.0
  0
LINE
  5
14D
  8
0
  6
CONTINUOUS
 62
     7
 10
333.594067112
 20
506.4671302374
 30
0.0
 11
333.3112882208
 21
467.7945539112
 31
0.0
  0
ARC
  5
14E
  8
0
  6
CONTINUOUS
 62
     7
 10
792.9223572062
 20
503.4330243185
 30
0.0
 40
459.3383109207535
 50
179.5067013254
 51
179.6215366239
  0
LINE
  5
14F
  8
0
  6
CONTINUOUS
 62
     7
 10
338.2119664351
 20
507.2956470149
 30
0.0
 11
338.2119664351
 21
506.9112226991
 31
0.0
  0
POLYLINE
  5
150
  8
0
  6
CONTINUOUS
 62
     7
 66
     1
 10
0.0
 20
0.0
 30
0.0
 70
   128
  0
VERTEX
  5
348
  8
0
  6
CONTINUOUS
 62
     7
 10
338.2116694917
 20
507.4634822262
 30
0.0
  0
VERTEX
  5
349
  8
0
  6
CONTINUOUS
 62
     7
 10
338.2127317665
 20
507.4415833113
 30
0.0
  0
VERTEX
  5
34A
  8
0
  6
CONTINUOUS
 62
     7
 10
338.212217553
 20
507.2956467221
 30
0.0
  0
SEQEND
  5
4F2
  8
0
  6
CONTINUOUS
 62
     7
  0
LINE
  5
151
  8
0
  6
CONTINUOUS
 62
     7
 10
255.8128
 20
352.6444856294
 30
0.0
 11
231.0128
 21
352.6444856294
 31
0.0
  0
LINE
  5
152
  8
0
  6
CONTINUOUS
 62
     7
 10
280.6128
 20
352.6444856294
 30
0.0
 11
255.8128
 21
352.6444856294
 31
0.0
  0
LINE
  5
153
  8
0
  6
CONTINUOUS
 62
     7
 10
231.8128
 20
359.0444856294
 30
0.0
 11
279.8128
 21
359.0444856294
 31
0.0
  0
LINE
  5
154
  8
0
  6
CONTINUOUS
 62
     7
 10
319.2696845058
 20
443.6897172485
 30
0.0
 11
320.2325738893
 21
444.1208739891
 31
0.0
  0
ARC
  5
155
  8
0
  6
CONTINUOUS
 62
     7
 10
317.4494917069
 20
449.6227093132
 30
0.0
 40
6.205924320014703
 50
259.8779637495
 51
287.0555794976
  0
LINE
  5
156
  8
0
  6
CONTINUOUS
 62
     7
 10
286.8128
 20
445.6444856294
 30
0.0
 11
286.746553553
 21
445.5133554699
 31
0.0
  0
LINE
  5
157
  8
0
  6
CONTINUOUS
 62
     7
 10
286.7859925427
 20
399.6975810556
 30
0.0
 11
286.8128
 21
399.6444856294
 31
0.0
  0
LINE
  5
158
  8
0
  6
CONTINUOUS
 62
     7
 10
286.7778093058
 20
445.5752056607
 30
0.0
 11
286.8128
 21
445.6444856294
 31
0.0
  0
ARC
  5
159
  8
0
  6
CONTINUOUS
 62
     7
 10
285.9758821397
 20
455.4267887251
 30
0.0
 40
9.817821479873318
 50
245.081706462
 51
274.8902798322
  0
LINE
  5
15A
  8
0
  6
CONTINUOUS
 62
     7
 10
279.0808197121
 20
450.3634704055
 30
0.0
 11
279.0578872969
 21
450.644139321
 31
0.0
  0
LINE
  5
15B
  8
0
  6
CONTINUOUS
 62
     7
 10
278.8950346562
 20
452.6372862981
 30
0.0
 11
278.8127353441
 21
453.6445442979
 31
0.0
  0
POLYLINE
  5
15C
  8
0
  6
CONTINUOUS
 62
     7
 66
     1
 10
0.0
 20
0.0
 30
0.0
 70
   128
  0
VERTEX
  5
34B
  8
0
  6
CONTINUOUS
 62
     7
 10
279.3845188769
 20
395.8720086389
 30
0.0
  0
VERTEX
  5
34C
  8
0
  6
CONTINUOUS
 62
     7
 10
279.6862486477
 20
396.6707566827
 30
0.0
  0
VERTEX
  5
34D
  8
0
  6
CONTINUOUS
 62
     7
 10
280.5350009517
 20
397.8506155421
 30
0.0
  0
VERTEX
  5
34E
  8
0
  6
CONTINUOUS
 62
     7
 10
281.6974351464
 20
398.7237011394
 30
0.0
  0
VERTEX
  5
34F
  8
0
  6
CONTINUOUS
 62
     7
 10
283.146319709
 20
399.2937562509
 30
0.0
  0
VERTEX
  5
350
  8
0
  6
CONTINUOUS
 62
     7
 10
284.862063944
 20
399.5844538571
 30
0.0
  0
VERTEX
  5
351
  8
0
  6
CONTINUOUS
 62
     7
 10
286.8128328324
 20
399.6443684196
 30
0.0
  0
SEQEND
  5
4F3
  8
0
  6
CONTINUOUS
 62
     7
  0
ARC
  5
15D
  8
0
  6
CONTINUOUS
 62
     7
 10
323.2907839747
 20
419.5266261238
 30
0.0
 40
16.88094660978685
 50
178.926542971
 51
203.9987568548
  0
LINE
  5
15E
  8
0
  6
CONTINUOUS
 62
     7
 10
306.4128
 20
419.8428782256
 30
0.0
 11
306.4128
 21
430.6765572411
 31
0.0
  0
LINE
  5
15F
  8
0
  6
CONTINUOUS
 62
     7
 10
300.8128
 20
422.6444856294
 30
0.0
 11
300.8128
 21
400.6444856294
 31
0.0
  0
LINE
  5
160
  8
0
  6
CONTINUOUS
 62
     7
 10
300.8128
 20
444.6444856294
 30
0.0
 11
300.8128
 21
422.6444856294
 31
0.0
  0
LINE
  5
161
  8
0
  6
CONTINUOUS
 62
     7
 10
306.4128
 20
430.6765572411
 30
0.0
 11
306.4128
 21
445.4935995535
 31
0.0
  0
POLYLINE
  5
162
  8
0
  6
CONTINUOUS
 62
     7
 66
     1
 10
0.0
 20
0.0
 30
0.0
 70
   128
  0
VERTEX
  5
352
  8
0
  6
CONTINUOUS
 62
     7
 10
314.9969054121
 20
399.9014627415
 30
0.0
  0
VERTEX
  5
353
  8
0
  6
CONTINUOUS
 62
     7
 10
314.6485446026
 20
400.1705125753
 30
0.0
  0
VERTEX
  5
354
  8
0
  6
CONTINUOUS
 62
     7
 10
314.0988856575
 20
400.7938402111
 30
0.0
  0
VERTEX
  5
355
  8
0
  6
CONTINUOUS
 62
     7
 10
313.4428462839
 20
401.7204776494
 30
0.0
  0
VERTEX
  5
356
  8
0
  6
CONTINUOUS
 62
     7
 10
312.689542395
 20
402.9375489152
 30
0.0
  0
VERTEX
  5
357
  8
0
  6
CONTINUOUS
 62
     7
 10
311.8494414309
 20
404.4281423466
 30
0.0
  0
VERTEX
  5
358
  8
0
  6
CONTINUOUS
 62
     7
 10
310.9342169098
 20
406.1715455887
 30
0.0
  0
VERTEX
  5
359
  8
0
  6
CONTINUOUS
 62
     7
 10
309.9565862198
 20
408.1435333992
 30
0.0
  0
VERTEX
  5
35A
  8
0
  6
CONTINUOUS
 62
     7
 10
308.930133906
 20
410.3167042677
 30
0.0
  0
VERTEX
  5
35B
  8
0
  6
CONTINUOUS
 62
     7
 10
307.8691229087
 20
412.6608611696
 30
0.0
  0
SEQEND
  5
4F4
  8
0
  6
CONTINUOUS
 62
     7
  0
LINE
  5
163
  8
0
  6
CONTINUOUS
 62
     7
 10
255.8128
 20
468.6444856294
 30
0.0
 11
273.7981018457
 21
468.6444856294
 31
0.0
  0
LINE
  5
164
  8
0
  6
CONTINUOUS
 62
     7
 10
237.8274981543
 20
468.6444856294
 30
0.0
 11
255.8128
 21
468.6444856294
 31
0.0
  0
POLYLINE
  5
165
  8
0
  6
CONTINUOUS
 62
     7
 66
     1
 10
0.0
 20
0.0
 30
0.0
 70
   128
  0
VERTEX
  5
35C
  8
0
  6
CONTINUOUS
 62
     7
 10
245.3128
 20
528.9244856294
 30
0.0
  0
VERTEX
  5
35D
  8
0
  6
CONTINUOUS
 62
     7
 10
245.354958818
 20
536.1589425726
 30
0.0
  0
VERTEX
  5
35E
  8
0
  6
CONTINUOUS
 62
     7
 10
245.6360374408
 20
543.3933995157
 30
0.0
  0
VERTEX
  5
35F
  8
0
  6
CONTINUOUS
 62
     7
 10
246.370947174
 20
550.6491594999
 30
0.0
  0
VERTEX
  5
360
  8
0
  6
CONTINUOUS
 62
     7
 10
247.7580003888
 20
557.862313402
 30
0.0
  0
VERTEX
  5
361
  8
0
  6
CONTINUOUS
 62
     7
 10
250.0184431275
 20
565.0309460273
 30
0.0
  0
VERTEX
  5
362
  8
0
  6
CONTINUOUS
 62
     7
 10
253.3253734
 20
571.9400821849
 30
0.0
  0
VERTEX
  5
363
  8
0
  6
CONTINUOUS
 62
     7
 10
256.83268698
 20
577.1592817004
 30
0.0
  0
VERTEX
  5
364
  8
0
  6
CONTINUOUS
 62
     7
 10
261.1174646325
 20
581.9289912073
 30
0.0
  0
VERTEX
  5
365
  8
0
  6
CONTINUOUS
 62
     7
 10
266.1466028803
 20
586.1200658509
 30
0.0
  0
VERTEX
  5
366
  8
0
  6
CONTINUOUS
 62
     7
 10
271.8323769
 20
589.6301970619
 30
0.0
  0
VERTEX
  5
367
  8
0
  6
CONTINUOUS
 62
     7
 10
275.8747112813
 20
591.5417671901
 30
0.0
  0
VERTEX
  5
368
  8
0
  6
CONTINUOUS
 62
     7
 10
280.0891258743
 20
593.1267336244
 30
0.0
  0
VERTEX
  5
369
  8
0
  6
CONTINUOUS
 62
     7
 10
284.4901080747
 20
594.4125094966
 30
0.0
  0
VERTEX
  5
36A
  8
0
  6
CONTINUOUS
 62
     7
 10
288.9901012935
 20
595.4005721555
 30
0.0
  0
VERTEX
  5
36B
  8
0
  6
CONTINUOUS
 62
     7
 10
296.7850621697
 20
596.484955415
 30
0.0
  0
VERTEX
  5
36C
  8
0
  6
CONTINUOUS
 62
     7
 10
306.2864118499
 20
597.0267501739
 30
0.0
  0
VERTEX
  5
36D
  8
0
  6
CONTINUOUS
 62
     7
 10
315.8328
 20
597.1008939818
 30
0.0
  0
SEQEND
  5
4F5
  8
0
  6
CONTINUOUS
 62
     7
  0
POLYLINE
  5
166
  8
0
  6
CONTINUOUS
 62
     7
 66
     1
 10
0.0
 20
0.0
 30
0.0
 70
   128
  0
VERTEX
  5
36E
  8
0
  6
CONTINUOUS
 62
     7
 10
315.8328
 20
580.7880772771
 30
0.0
  0
VERTEX
  5
36F
  8
0
  6
CONTINUOUS
 62
     7
 10
311.2090215806
 20
580.7621781483
 30
0.0
  0
VERTEX
  5
370
  8
0
  6
CONTINUOUS
 62
     7
 10
306.5853712581
 20
580.6162656388
 30
0.0
  0
VERTEX
  5
371
  8
0
  6
CONTINUOUS
 62
     7
 10
298.7287742372
 20
579.7929661255
 30
0.0
  0
VERTEX
  5
372
  8
0
  6
CONTINUOUS
 62
     7
 10
294.8017568287
 20
578.976701823
 30
0.0
  0
VERTEX
  5
373
  8
0
  6
CONTINUOUS
 62
     7
 10
290.9327482537
 20
577.8149977197
 30
0.0
  0
VERTEX
  5
374
  8
0
  6
CONTINUOUS
 62
     7
 10
285.6642241842
 20
575.4946509449
 30
0.0
  0
VERTEX
  5
375
  8
0
  6
CONTINUOUS
 62
     7
 10
280.7211661422
 20
572.2534061737
 30
0.0
  0
VERTEX
  5
376
  8
0
  6
CONTINUOUS
 62
     7
 10
278.9627008467
 20
570.7585979463
 30
0.0
  0
VERTEX
  5
377
  8
0
  6
CONTINUOUS
 62
     7
 10
277.3064567862
 20
569.1345544461
 30
0.0
  0
VERTEX
  5
378
  8
0
  6
CONTINUOUS
 62
     7
 10
273.6740842272
 20
564.5639795691
 30
0.0
  0
VERTEX
  5
379
  8
0
  6
CONTINUOUS
 62
     7
 10
270.7822502512
 20
559.2899864498
 30
0.0
  0
VERTEX
  5
37A
  8
0
  6
CONTINUOUS
 62
     7
 10
269.354448382
 20
555.6455681211
 30
0.0
  0
VERTEX
  5
37B
  8
0
  6
CONTINUOUS
 62
     7
 10
268.2476682798
 20
551.85720677
 30
0.0
  0
VERTEX
  5
37C
  8
0
  6
CONTINUOUS
 62
     7
 10
266.8704532011
 20
543.9054527773
 30
0.0
  0
VERTEX
  5
37D
  8
0
  6
CONTINUOUS
 62
     7
 10
266.3868009441
 20
536.4372105409
 30
0.0
  0
VERTEX
  5
37E
  8
0
  6
CONTINUOUS
 62
     7
 10
266.3128
 20
528.9244856294
 30
0.0
  0
SEQEND
  5
4F6
  8
0
  6
CONTINUOUS
 62
     7
  0
LINE
  5
167
  8
0
  6
CONTINUOUS
 62
     7
 10
320.9440201451
 20
444.585007116
 30
0.0
 11
320.2327640667
 21
444.1207994791
 31
0.0
  0
POLYLINE
  5
168
  8
0
  6
CONTINUOUS
 62
     7
 66
     1
 10
0.0
 20
0.0
 30
0.0
 70
   128
  0
VERTEX
  5
37F
  8
0
  6
CONTINUOUS
 62
     7
 10
321.1546991749
 20
444.8625614872
 30
0.0
  0
VERTEX
  5
380
  8
0
  6
CONTINUOUS
 62
     7
 10
321.1674617667
 20
444.8571219176
 30
0.0
  0
VERTEX
  5
381
  8
0
  6
CONTINUOUS
 62
     7
 10
321.1738292332
 20
444.844152316
 30
0.0
  0
VERTEX
  5
382
  8
0
  6
CONTINUOUS
 62
     7
 10
321.1651739152
 20
444.8105738136
 30
0.0
  0
VERTEX
  5
383
  8
0
  6
CONTINUOUS
 62
     7
 10
321.0753560406
 20
444.6979125803
 30
0.0
  0
VERTEX
  5
384
  8
0
  6
CONTINUOUS
 62
     7
 10
320.9440201451
 20
444.585007116
 30
0.0
  0
SEQEND
  5
4F7
  8
0
  6
CONTINUOUS
 62
     7
  0
POLYLINE
  5
169
  8
0
  6
CONTINUOUS
 62
     7
 66
     1
 10
0.0
 20
0.0
 30
0.0
 70
   128
  0
VERTEX
  5
385
  8
0
  6
CONTINUOUS
 62
     7
 10
321.1546920786
 20
446.1991370104
 30
0.0
  0
VERTEX
  5
386
  8
0
  6
CONTINUOUS
 62
     7
 10
321.0057075809
 20
446.0637593099
 30
0.0
  0
VERTEX
  5
387
  8
0
  6
CONTINUOUS
 62
     7
 10
320.749366165
 20
445.4205912693
 30
0.0
  0
VERTEX
  5
388
  8
0
  6
CONTINUOUS
 62
     7
 10
321.1546991749
 20
444.8625614872
 30
0.0
  0
SEQEND
  5
4F8
  8
0
  6
CONTINUOUS
 62
     7
  0
POLYLINE
  5
16A
  8
0
  6
CONTINUOUS
 62
     7
 66
     1
 10
0.0
 20
0.0
 30
0.0
 70
   128
  0
VERTEX
  5
389
  8
0
  6
CONTINUOUS
 62
     7
 10
320.9440163332
 20
446.2277158083
 30
0.0
  0
VERTEX
  5
38A
  8
0
  6
CONTINUOUS
 62
     7
 10
321.1496601069
 20
446.232024116
 30
0.0
  0
VERTEX
  5
38B
  8
0
  6
CONTINUOUS
 62
     7
 10
321.16766566
 20
446.2259322685
 30
0.0
  0
VERTEX
  5
38C
  8
0
  6
CONTINUOUS
 62
     7
 10
321.1715014939
 20
446.2113872797
 30
0.0
  0
VERTEX
  5
38D
  8
0
  6
CONTINUOUS
 62
     7
 10
321.1634637451
 20
446.2043017946
 30
0.0
  0
VERTEX
  5
38E
  8
0
  6
CONTINUOUS
 62
     7
 10
321.1546920786
 20
446.1991370104
 30
0.0
  0
SEQEND
  5
4F9
  8
0
  6
CONTINUOUS
 62
     7
  0
LINE
  5
16B
  8
0
  6
CONTINUOUS
 62
     7
 10
245.3128
 20
469.3444856294
 30
0.0
 11
245.3128
 21
528.9244856294
 31
0.0
  0
LINE
  5
16C
  8
0
  6
CONTINUOUS
 62
     7
 10
264.8128
 20
468.9444856294
 30
0.0
 11
246.8128
 21
468.9444856294
 31
0.0
  0
LINE
  5
16D
  8
0
  6
CONTINUOUS
 62
     7
 10
245.7128
 20
468.9444856294
 30
0.0
 11
246.8128
 21
468.9444856294
 31
0.0
  0
ARC
  5
16E
  8
0
  6
CONTINUOUS
 62
     7
 10
245.7128
 20
469.3444856294
 30
0.0
 40
0.3999999999999773
 50
180.0
 51
270.0
  0
LINE
  5
16F
  8
0
  6
CONTINUOUS
 62
     7
 10
266.3128
 20
528.9244856294
 30
0.0
 11
266.3128
 21
469.3444856294
 31
0.0
  0
LINE
  5
170
  8
0
  6
CONTINUOUS
 62
     7
 10
264.8128
 20
468.9444856294
 30
0.0
 11
265.9128
 21
468.9444856294
 31
0.0
  0
ARC
  5
171
  8
0
  6
CONTINUOUS
 62
     7
 10
265.9128
 20
469.3444856294
 30
0.0
 40
0.4000000000000341
 50
270.0
 51
0.0
  0
LINE
  5
172
  8
0
  6
CONTINUOUS
 62
     7
 10
315.8328
 20
597.1008939818
 30
0.0
 11
315.8330617993
 21
597.1008937077
 31
0.0
  0
LINE
  5
173
  8
0
  6
CONTINUOUS
 62
     7
 10
315.8330617993
 20
580.7880775512
 30
0.0
 11
315.8328
 21
580.7880772771
 31
0.0
  0
LINE
  5
174
  8
0
  6
CONTINUOUS
 62
     7
 10
315.8330617993
 20
597.1008937077
 30
0.0
 11
428.6158543257
 21
596.9827878003
 31
0.0
  0
LINE
  5
175
  8
0
  6
CONTINUOUS
 62
     7
 10
428.6158543257
 20
580.9061834586
 30
0.0
 11
315.8330617993
 21
580.7880775512
 31
0.0
  0
LINE
  5
176
  8
0
  6
CONTINUOUS
 62
     7
 10
428.6158543257
 20
596.9827878003
 30
0.0
 11
430.314370796
 21
596.9810091174
 31
0.0
  0
ARC
  5
177
  8
0
  6
CONTINUOUS
 62
     7
 10
430.3128
 20
595.4810099399
 30
0.0
 40
1.500000000000099
 50
0.0
 51
89.94
  0
LINE
  5
178
  8
0
  6
CONTINUOUS
 62
     7
 10
430.314370796
 20
580.9079621415
 30
0.0
 11
428.6158543257
 21
580.9061834586
 31
0.0
  0
ARC
  5
179
  8
0
  6
CONTINUOUS
 62
     7
 10
430.3128
 20
582.407961319
 30
0.0
 40
1.500000000000099
 50
270.06
 51
0.0
  0
LINE
  5
17A
  8
0
  6
CONTINUOUS
 62
     7
 10
431.8128
 20
595.4810099399
 30
0.0
 11
431.8128
 21
582.407961319
 31
0.0
  0
LINE
  5
17B
  8
0
  6
CONTINUOUS
 62
     7
 10
427.8128
 20
573.6218358986
 30
0.0
 11
420.6086315233
 21
573.6218358986
 31
0.0
  0
LINE
  5
17C
  8
0
  6
CONTINUOUS
 62
     7
 10
420.6086315233
 20
573.6218358986
 30
0.0
 11
420.6086315233
 21
577.0444856294
 31
0.0
  0
LINE
  5
17D
  8
0
  6
CONTINUOUS
 62
     7
 10
411.0169684767
 20
577.0444856294
 30
0.0
 11
420.6086315233
 21
577.0444856294
 31
0.0
  0
LINE
  5
17E
  8
0
  6
CONTINUOUS
 62
     7
 10
411.0169684767
 20
577.0444856294
 30
0.0
 11
411.0169684767
 21
573.6218358986
 31
0.0
  0
LINE
  5
17F
  8
0
  6
CONTINUOUS
 62
     7
 10
411.0169684767
 20
573.6218358986
 30
0.0
 11
403.8128
 21
573.6218358986
 31
0.0
  0
POLYLINE
  5
180
  8
0
  6
CONTINUOUS
 62
     7
 66
     1
 10
0.0
 20
0.0
 30
0.0
 70
   128
  0
VERTEX
  5
38F
  8
0
  6
CONTINUOUS
 62
     7
 10
415.8128
 20
573.0444856294
 30
0.0
  0
VERTEX
  5
390
  8
0
  6
CONTINUOUS
 62
     7
 10
417.0235974382
 20
573.0828431161
 30
0.0
  0
VERTEX
  5
391
  8
0
  6
CONTINUOUS
 62
     7
 10
420.6086315233
 20
573.6218358986
 30
0.0
  0
SEQEND
  5
4FA
  8
0
  6
CONTINUOUS
 62
     7
  0
LINE
  5
181
  8
0
  6
CONTINUOUS
 62
     7
 10
411.0169684767
 20
573.6218358986
 30
0.0
 11
415.8128
 21
573.0444856294
 31
0.0
  0
LINE
  5
182
  8
0
  6
CONTINUOUS
 62
     7
 10
415.8128
 20
573.0444856294
 30
0.0
 11
404.8128
 21
573.0444856294
 31
0.0
  0
LINE
  5
183
  8
0
  6
CONTINUOUS
 62
     7
 10
426.8128
 20
573.0444856294
 30
0.0
 11
415.8128
 21
573.0444856294
 31
0.0
  0
POLYLINE
  5
184
  8
0
  6
CONTINUOUS
 62
     7
 66
     1
 10
0.0
 20
0.0
 30
0.0
 70
   128
  0
VERTEX
  5
392
  8
0
  6
CONTINUOUS
 62
     7
 10
319.2696845058
 20
443.6897172485
 30
0.0
  0
VERTEX
  5
393
  8
0
  6
CONTINUOUS
 62
     7
 10
318.0856163105
 20
443.6664866693
 30
0.0
  0
VERTEX
  5
394
  8
0
  6
CONTINUOUS
 62
     7
 10
316.9303470422
 20
443.7458501629
 30
0.0
  0
VERTEX
  5
395
  8
0
  6
CONTINUOUS
 62
     7
 10
315.9055642735
 20
443.9208221014
 30
0.0
  0
VERTEX
  5
396
  8
0
  6
CONTINUOUS
 62
     7
 10
315.1014700684
 20
444.1760013379
 30
0.0
  0
VERTEX
  5
397
  8
0
  6
CONTINUOUS
 62
     7
 10
314.5888413361
 20
444.4889268256
 30
0.0
  0
VERTEX
  5
398
  8
0
  6
CONTINUOUS
 62
     7
 10
314.4128
 20
444.832054654
 30
0.0
  0
VERTEX
  5
399
  8
0
  6
CONTINUOUS
 62
     7
 10
314.4376422246
 20
444.9621914841
 30
0.0
  0
SEQEND
  5
4FB
  8
0
  6
CONTINUOUS
 62
     7
  0
POLYLINE
  5
185
  8
0
  6
CONTINUOUS
 62
     7
 66
     1
 10
0.0
 20
0.0
 30
0.0
 70
   128
  0
VERTEX
  5
39A
  8
0
  6
CONTINUOUS
 62
     7
 10
316.3596955857
 20
443.5130116611
 30
0.0
  0
VERTEX
  5
39B
  8
0
  6
CONTINUOUS
 62
     7
 10
315.4191943273
 20
443.792940621
 30
0.0
  0
VERTEX
  5
39C
  8
0
  6
CONTINUOUS
 62
     7
 10
314.7143401506
 20
444.2077991643
 30
0.0
  0
VERTEX
  5
39D
  8
0
  6
CONTINUOUS
 62
     7
 10
314.4182734618
 20
444.6372453856
 30
0.0
  0
VERTEX
  5
39E
  8
0
  6
CONTINUOUS
 62
     7
 10
314.442021819
 20
444.6936944089
 30
0.0
  0
SEQEND
  5
4FC
  8
0
  6
CONTINUOUS
 62
     7
  0
POLYLINE
  5
186
  8
0
  6
CONTINUOUS
 62
     7
 66
     1
 10
0.0
 20
0.0
 30
0.0
 70
   128
  0
VERTEX
  5
39F
  8
0
  6
CONTINUOUS
 62
     7
 10
315.15163326
 20
444.8467216213
 30
0.0
  0
VERTEX
  5
3A0
  8
0
  6
CONTINUOUS
 62
     7
 10
315.0258543399
 20
444.9147132728
 30
0.0
  0
VERTEX
  5
3A1
  8
0
  6
CONTINUOUS
 62
     7
 10
314.6759082908
 20
445.237197402
 30
0.0
  0
VERTEX
  5
3A2
  8
0
  6
CONTINUOUS
 62
     7
 10
314.6548660797
 20
445.5293864186
 30
0.0
  0
SEQEND
  5
4FD
  8
0
  6
CONTINUOUS
 62
     7
  0
POLYLINE
  5
187
  8
0
  6
CONTINUOUS
 62
     7
 66
     1
 10
0.0
 20
0.0
 30
0.0
 70
   128
  0
VERTEX
  5
3A3
  8
0
  6
CONTINUOUS
 62
     7
 10
321.1546920786
 20
446.1991370104
 30
0.0
  0
VERTEX
  5
3A4
  8
0
  6
CONTINUOUS
 62
     7
 10
320.3392431042
 20
446.4094942081
 30
0.0
  0
VERTEX
  5
3A5
  8
0
  6
CONTINUOUS
 62
     7
 10
319.3450050588
 20
446.5383061279
 30
0.0
  0
VERTEX
  5
3A6
  8
0
  6
CONTINUOUS
 62
     7
 10
318.2642510524
 20
446.5736180104
 30
0.0
  0
VERTEX
  5
3A7
  8
0
  6
CONTINUOUS
 62
     7
 10
317.1972835566
 20
446.5121526353
 30
0.0
  0
VERTEX
  5
3A8
  8
0
  6
CONTINUOUS
 62
     7
 10
316.2431255465
 20
446.3596144727
 30
0.0
  0
VERTEX
  5
3A9
  8
0
  6
CONTINUOUS
 62
     7
 10
315.4903303895
 20
446.1301602639
 30
0.0
  0
VERTEX
  5
3AA
  8
0
  6
CONTINUOUS
 62
     7
 10
315.0087633968
 20
445.845085164
 30
0.0
  0
VERTEX
  5
3AB
  8
0
  6
CONTINUOUS
 62
     7
 10
314.8431177726
 20
445.5308463843
 30
0.0
  0
VERTEX
  5
3AC
  8
0
  6
CONTINUOUS
 62
     7
 10
315.0087667336
 20
445.2166077549
 30
0.0
  0
VERTEX
  5
3AD
  8
0
  6
CONTINUOUS
 62
     7
 10
315.4903367535
 20
444.9315330921
 30
0.0
  0
VERTEX
  5
3AE
  8
0
  6
CONTINUOUS
 62
     7
 10
316.2431343469
 20
444.7020795666
 30
0.0
  0
VERTEX
  5
3AF
  8
0
  6
CONTINUOUS
 62
     7
 10
317.1972939768
 20
444.5495422702
 30
0.0
  0
VERTEX
  5
3B0
  8
0
  6
CONTINUOUS
 62
     7
 10
317.667255664
 20
444.5101903659
 30
0.0
  0
SEQEND
  5
4FE
  8
0
  6
CONTINUOUS
 62
     7
  0
POLYLINE
  5
188
  8
0
  6
CONTINUOUS
 62
     8
 66
     1
 10
0.0
 20
0.0
 30
0.0
 70
   128
  0
VERTEX
  5
3B1
  8
0
  6
CONTINUOUS
 62
     8
 10
338.2120772243
 20
454.3478754815
 30
0.0
  0
VERTEX
  5
3B2
  8
0
  6
CONTINUOUS
 62
     8
 10
338.2118441687
 20
456.9030141122
 30
0.0
  0
VERTEX
  5
3B3
  8
0
  6
CONTINUOUS
 62
     8
 10
338.2117238586
 20
459.4515147034
 30
0.0
  0
SEQEND
  5
4FF
  8
0
  6
CONTINUOUS
 62
     8
  0
LINE
  5
189
  8
0
  6
CONTINUOUS
 62
     8
 10
338.2119664351
 20
459.4515144661
 30
0.0
 11
338.2119664351
 21
498.2481047306
 31
0.0
  0
POLYLINE
  5
18A
  8
0
  6
CONTINUOUS
 62
     8
 66
     1
 10
0.0
 20
0.0
 30
0.0
 70
   128
  0
VERTEX
  5
3B4
  8
0
  6
CONTINUOUS
 62
     8
 10
338.212312813
 20
498.2481044308
 30
0.0
  0
VERTEX
  5
3B5
  8
0
  6
CONTINUOUS
 62
     8
 10
338.212682843
 20
498.7810039037
 30
0.0
  0
VERTEX
  5
3B6
  8
0
  6
CONTINUOUS
 62
     8
 10
338.2123329768
 20
499.054967652
 30
0.0
  0
VERTEX
  5
3B7
  8
0
  6
CONTINUOUS
 62
     8
 10
338.2117095801
 20
499.1935425156
 30
0.0
  0
VERTEX
  5
3B8
  8
0
  6
CONTINUOUS
 62
     8
 10
338.2113125047
 20
499.2622632768
 30
0.0
  0
VERTEX
  5
3B9
  8
0
  6
CONTINUOUS
 62
     8
 10
338.2110349972
 20
499.3284586198
 30
0.0
  0
VERTEX
  5
3BA
  8
0
  6
CONTINUOUS
 62
     8
 10
338.2112681701
 20
499.3825377185
 30
0.0
  0
VERTEX
  5
3BB
  8
0
  6
CONTINUOUS
 62
     8
 10
338.2127317665
 20
499.625116373
 30
0.0
  0
VERTEX
  5
3BC
  8
0
  6
CONTINUOUS
 62
     8
 10
338.212217553
 20
499.8026860359
 30
0.0
  0
SEQEND
  5
500
  8
0
  6
CONTINUOUS
 62
     8
  0
LINE
  5
18B
  8
0
  6
CONTINUOUS
 62
     8
 10
338.2119664351
 20
499.8026863254
 30
0.0
 11
338.2119664351
 21
503.5491666701
 31
0.0
  0
LINE
  5
18C
  8
0
  6
CONTINUOUS
 62
     8
 10
338.5935741366
 20
423.5558441646
 30
0.0
 11
338.5908223834
 21
424.0642538827
 31
0.0
  0
ARC
  5
18D
  8
0
  6
CONTINUOUS
 62
     8
 10
336.7434241994
 20
499.7187054834
 30
0.0
 40
1.470941562270849
 50
3.2729823315
 51
91.1929530081
  0
ARC
  5
18E
  8
0
  6
CONTINUOUS
 62
     8
 10
337.041473076
 20
499.5541806849
 30
0.0
 40
1.753821285597968
 50
259.1986783843
 51
311.8664056926
  0
LINE
  5
18F
  8
0
  6
CONTINUOUS
 62
     8
 10
336.7128
 20
501.1893282216
 30
0.0
 11
335.1023644092
 21
501.1893282216
 31
0.0
  0
LINE
  5
190
  8
0
  6
CONTINUOUS
 62
     8
 10
335.0940305581
 20
497.8314319769
 30
0.0
 11
336.7128
 21
497.8314319769
 31
0.0
  0
ARC
  5
191
  8
0
  6
CONTINUOUS
 62
     8
 10
154.2114959476
 20
500.020417704
 30
0.0
 40
179.3910870111245
 50
359.4417190155
 51
359.918385426
  0
ARC
  5
192
  8
0
  6
CONTINUOUS
 62
     8
 10
335.0706092476
 20
499.7208015579
 30
0.0
 40
1.468869957532738
 50
88.7612392199
 51
178.2801760131
  0
POLYLINE
  5
193
  8
0
  6
CONTINUOUS
 62
     8
 66
     1
 10
0.0
 20
0.0
 30
0.0
 70
   128
  0
VERTEX
  5
3BD
  8
0
  6
CONTINUOUS
 62
     8
 10
335.0940305581
 20
497.8314319769
 30
0.0
  0
VERTEX
  5
3BE
  8
0
  6
CONTINUOUS
 62
     8
 10
334.8014089281
 20
497.8416706459
 30
0.0
  0
VERTEX
  5
3BF
  8
0
  6
CONTINUOUS
 62
     8
 10
334.5200320616
 20
497.8680797539
 30
0.0
  0
VERTEX
  5
3C0
  8
0
  6
CONTINUOUS
 62
     8
 10
334.2607126121
 20
497.9096444607
 30
0.0
  0
VERTEX
  5
3C1
  8
0
  6
CONTINUOUS
 62
     8
 10
334.0334156183
 20
497.964767532
 30
0.0
  0
VERTEX
  5
3C2
  8
0
  6
CONTINUOUS
 62
     8
 10
333.846875571
 20
498.0313307173
 30
0.0
  0
VERTEX
  5
3C3
  8
0
  6
CONTINUOUS
 62
     8
 10
333.708260767
 20
498.1067761496
 30
0.0
  0
VERTEX
  5
3C4
  8
0
  6
CONTINUOUS
 62
     8
 10
333.6228978484
 20
498.1882046375
 30
0.0
  0
VERTEX
  5
3C5
  8
0
  6
CONTINUOUS
 62
     8
 10
333.594067112
 20
498.2724870753
 30
0.0
  0
SEQEND
  5
501
  8
0
  6
CONTINUOUS
 62
     8
  0
ARC
  5
194
  8
0
  6
CONTINUOUS
 62
     8
 10
337.0414730761
 20
460.7575904199
 30
0.0
 40
1.753821285127718
 50
259.1986783788
 51
311.8664057033
  0
POLYLINE
  5
195
  8
0
  6
CONTINUOUS
 62
     8
 66
     1
 10
0.0
 20
0.0
 30
0.0
 70
   128
  0
VERTEX
  5
3C6
  8
0
  6
CONTINUOUS
 62
     8
 10
334.8112516669
 20
459.0348417124
 30
0.0
  0
VERTEX
  5
3C7
  8
0
  6
CONTINUOUS
 62
     8
 10
334.518630037
 20
459.0450803814
 30
0.0
  0
VERTEX
  5
3C8
  8
0
  6
CONTINUOUS
 62
     8
 10
334.2372531705
 20
459.0714894894
 30
0.0
  0
VERTEX
  5
3C9
  8
0
  6
CONTINUOUS
 62
     8
 10
333.977933721
 20
459.1130541962
 30
0.0
  0
VERTEX
  5
3CA
  8
0
  6
CONTINUOUS
 62
     8
 10
333.7506367272
 20
459.1681772675
 30
0.0
  0
VERTEX
  5
3CB
  8
0
  6
CONTINUOUS
 62
     8
 10
333.5640966798
 20
459.2347404528
 30
0.0
  0
VERTEX
  5
3CC
  8
0
  6
CONTINUOUS
 62
     8
 10
333.4254818758
 20
459.3101858851
 30
0.0
  0
VERTEX
  5
3CD
  8
0
  6
CONTINUOUS
 62
     8
 10
333.3401189572
 20
459.391614373
 30
0.0
  0
VERTEX
  5
3CE
  8
0
  6
CONTINUOUS
 62
     8
 10
333.3112882208
 20
459.4758968108
 30
0.0
  0
SEQEND
  5
502
  8
0
  6
CONTINUOUS
 62
     8
  0
LINE
  5
196
  8
0
  6
CONTINUOUS
 62
     8
 10
336.7128
 20
459.0348417124
 30
0.0
 11
334.8112516669
 21
459.0348417124
 31
0.0
  0
LINE
  5
197
  8
0
  6
CONTINUOUS
 62
     8
 10
333.3046832086
 20
462.7304817438
 30
0.0
 11
333.3025585304
 21
463.4418130511
 31
0.0
  0
POLYLINE
  5
198
  8
0
  6
CONTINUOUS
 62
     8
 66
     1
 10
0.0
 20
0.0
 30
0.0
 70
   128
  0
VERTEX
  5
3CF
  8
0
  6
CONTINUOUS
 62
     8
 10
333.30255856
 20
463.441814472
 30
0.0
  0
VERTEX
  5
3D0
  8
0
  6
CONTINUOUS
 62
     8
 10
333.3000582198
 20
463.6653912439
 30
0.0
  0
VERTEX
  5
3D1
  8
0
  6
CONTINUOUS
 62
     8
 10
333.2968031312
 20
463.7904383105
 30
0.0
  0
VERTEX
  5
3D2
  8
0
  6
CONTINUOUS
 62
     8
 10
333.2794511211
 20
463.4463077035
 30
0.0
  0
SEQEND
  5
503
  8
0
  6
CONTINUOUS
 62
     8
  0
POLYLINE
  5
199
  8
0
  6
CONTINUOUS
 62
     8
 66
     1
 10
0.0
 20
0.0
 30
0.0
 70
   128
  0
VERTEX
  5
3D3
  8
0
  6
CONTINUOUS
 62
     8
 10
333.6024009631
 20
507.2578460957
 30
0.0
  0
VERTEX
  5
3D4
  8
0
  6
CONTINUOUS
 62
     8
 10
333.602251815
 20
507.4119661011
 30
0.0
  0
VERTEX
  5
3D5
  8
0
  6
CONTINUOUS
 62
     8
 10
333.60184109
 20
507.4415841916
 30
0.0
  0
VERTEX
  5
3D6
  8
0
  6
CONTINUOUS
 62
     8
 10
333.6015238838
 20
507.4305459027
 30
0.0
  0
VERTEX
  5
3D7
  8
0
  6
CONTINUOUS
 62
     8
 10
333.6013330607
 20
507.4161880992
 30
0.0
  0
VERTEX
  5
3D8
  8
0
  6
CONTINUOUS
 62
     8
 10
333.6010707955
 20
507.3877341155
 30
0.0
  0
SEQEND
  5
504
  8
0
  6
CONTINUOUS
 62
     8
  0
LINE
  5
19A
  8
0
  6
CONTINUOUS
 62
     8
 10
333.6024009631
 20
507.2578460957
 30
0.0
 11
333.6024009631
 21
499.7648854062
 31
0.0
  0
LINE
  5
19B
  8
0
  6
CONTINUOUS
 62
     8
 10
333.3112882208
 20
459.4758968108
 30
0.0
 11
333.2794511211
 21
455.1021568253
 31
0.0
  0
POLYLINE
  5
19C
  8
0
  6
CONTINUOUS
 62
     8
 66
     1
 10
0.0
 20
0.0
 30
0.0
 70
   128
  0
VERTEX
  5
3D9
  8
0
  6
CONTINUOUS
 62
     8
 10
333.30255856
 20
461.4370873247
 30
0.0
  0
VERTEX
  5
3DA
  8
0
  6
CONTINUOUS
 62
     8
 10
333.3000582198
 20
460.5285256613
 30
0.0
  0
VERTEX
  5
3DB
  8
0
  6
CONTINUOUS
 62
     8
 10
333.2968031312
 20
459.511725332
 30
0.0
  0
VERTEX
  5
3DC
  8
0
  6
CONTINUOUS
 62
     8
 10
333.2794511211
 20
455.1021568253
 30
0.0
  0
SEQEND
  5
505
  8
0
  6
CONTINUOUS
 62
     8
  0
LINE
  5
19D
  8
0
  6
CONTINUOUS
 62
     8
 10
333.3046832087
 20
462.7304817553
 30
0.0
 11
333.3025585308
 21
461.437080684
 31
0.0
  0
ARC
  5
19E
  8
0
  6
CONTINUOUS
 62
     8
 10
336.7434241994
 20
507.2116661728
 30
0.0
 40
1.470941562270682
 50
3.2729823315
 51
91.1929530081
  0
LINE
  5
19F
  8
0
  6
CONTINUOUS
 62
     8
 10
338.2119664351
 20
506.9112226991
 30
0.0
 11
338.2119664351
 21
503.5491666701
 31
0.0
  0
LINE
  5
1A0
  8
0
  6
CONTINUOUS
 62
     8
 10
336.7128
 20
508.682288911
 30
0.0
 11
335.1023644092
 21
508.682288911
 31
0.0
  0
ARC
  5
1A1
  8
0
  6
CONTINUOUS
 62
     8
 10
335.0706092476
 20
507.2137622473
 30
0.0
 40
1.468869957532796
 50
88.7612392199
 51
178.2801760131
  0
ARC
  5
1A2
  8
0
  6
CONTINUOUS
 62
     8
 10
337.0448842272
 20
455.7489504575
 30
0.0
 40
1.823483404594848
 50
259.5070056466
 51
309.7939798588
  0
LINE
  5
1A3
  8
0
  6
CONTINUOUS
 62
     8
 10
336.7128
 20
453.9559608332
 30
0.0
 11
334.7741131422
 21
453.9559608332
 31
0.0
  0
ARC
  5
1A4
  8
0
  6
CONTINUOUS
 62
     8
 10
334.6606615908
 20
455.3553678448
 30
0.0
 40
1.404019222422219
 50
190.3903950213
 51
274.6418220861
  0
LINE
  5
1A5
  8
0
  6
CONTINUOUS
 62
     8
 10
255.8128
 20
352.8444856294
 30
0.0
 11
280.8128
 21
352.8444856294
 31
0.0
  0
LINE
  5
1A6
  8
0
  6
CONTINUOUS
 62
     8
 10
230.8128
 20
352.8444856294
 30
0.0
 11
255.8128
 21
352.8444856294
 31
0.0
  0
POLYLINE
  5
1A7
  8
0
  6
CONTINUOUS
 62
     8
 66
     1
 10
0.0
 20
0.0
 30
0.0
 70
   128
  0
VERTEX
  5
3DD
  8
0
  6
CONTINUOUS
 62
     8
 10
314.5473570367
 20
445.6748942689
 30
0.0
  0
VERTEX
  5
3DE
  8
0
  6
CONTINUOUS
 62
     8
 10
314.4381173429
 20
445.6627429375
 30
0.0
  0
VERTEX
  5
3DF
  8
0
  6
CONTINUOUS
 62
     8
 10
314.3408377468
 20
445.445238354
 30
0.0
  0
SEQEND
  5
506
  8
0
  6
CONTINUOUS
 62
     8
  0
LINE
  5
1A8
  8
0
  6
CONTINUOUS
 62
     8
 10
255.8128
 20
391.6444856294
 30
0.0
 11
278.6143301504
 21
391.6444856294
 31
0.0
  0
LINE
  5
1A9
  8
0
  6
CONTINUOUS
 62
     8
 10
278.8128
 20
453.6444856294
 30
0.0
 11
255.8128
 21
453.6444856294
 31
0.0
  0
LINE
  5
1AA
  8
0
  6
CONTINUOUS
 62
     8
 10
255.8128
 20
453.6444856294
 30
0.0
 11
255.8128
 21
422.6444856294
 31
0.0
  0
LINE
  5
1AB
  8
0
  6
CONTINUOUS
 62
     8
 10
255.8128
 20
422.6444856294
 30
0.0
 11
255.8128
 21
391.6444856294
 31
0.0
  0
LINE
  5
1AC
  8
0
  6
CONTINUOUS
 62
     8
 10
255.8128
 20
464.5848695125
 30
0.0
 11
232.8128
 21
464.5848695125
 31
0.0
  0
LINE
  5
1AD
  8
0
  6
CONTINUOUS
 62
     8
 10
278.8128
 20
464.5848695125
 30
0.0
 11
255.8128
 21
464.5848695125
 31
0.0
  0
POLYLINE
  5
1AE
  8
0
  6
CONTINUOUS
 62
     8
 66
     1
 10
0.0
 20
0.0
 30
0.0
 70
   128
  0
VERTEX
  5
3E0
  8
0
  6
CONTINUOUS
 62
     8
 10
286.746553553
 20
445.5133554699
 30
0.0
  0
VERTEX
  5
3E1
  8
0
  6
CONTINUOUS
 62
     8
 10
286.6014048669
 20
445.2260439047
 30
0.0
  0
VERTEX
  5
3E2
  8
0
  6
CONTINUOUS
 62
     8
 10
285.9672194675
 20
443.9366854804
 30
0.0
  0
VERTEX
  5
3E3
  8
0
  6
CONTINUOUS
 62
     8
 10
284.910243802
 20
441.7530858765
 30
0.0
  0
VERTEX
  5
3E4
  8
0
  6
CONTINUOUS
 62
     8
 10
284.4639651876
 20
440.8285724984
 30
0.0
  0
VERTEX
  5
3E5
  8
0
  6
CONTINUOUS
 62
     8
 10
283.970709877
 20
439.8084443561
 30
0.0
  0
VERTEX
  5
3E6
  8
0
  6
CONTINUOUS
 62
     8
 10
283.4304778702
 20
438.6952825516
 30
0.0
  0
VERTEX
  5
3E7
  8
0
  6
CONTINUOUS
 62
     8
 10
282.8422704419
 20
437.4842561498
 30
0.0
  0
VERTEX
  5
3E8
  8
0
  6
CONTINUOUS
 62
     8
 10
282.159853022
 20
436.0641252195
 30
0.0
  0
VERTEX
  5
3E9
  8
0
  6
CONTINUOUS
 62
     8
 10
281.4396638885
 20
434.536158193
 30
0.0
  0
VERTEX
  5
3EA
  8
0
  6
CONTINUOUS
 62
     8
 10
280.7479796222
 20
433.0170785714
 30
0.0
  0
VERTEX
  5
3EB
  8
0
  6
CONTINUOUS
 62
     8
 10
280.0504541389
 20
431.4388845141
 30
0.0
  0
VERTEX
  5
3EC
  8
0
  6
CONTINUOUS
 62
     8
 10
279.065791294
 20
428.9261827053
 30
0.0
  0
VERTEX
  5
3ED
  8
0
  6
CONTINUOUS
 62
     8
 10
278.3642987478
 20
426.5876368323
 30
0.0
  0
VERTEX
  5
3EE
  8
0
  6
CONTINUOUS
 62
     8
 10
278.0539538828
 20
425.1478222572
 30
0.0
  0
VERTEX
  5
3EF
  8
0
  6
CONTINUOUS
 62
     8
 10
277.8694624839
 20
423.8142252208
 30
0.0
  0
VERTEX
  5
3F0
  8
0
  6
CONTINUOUS
 62
     8
 10
277.8108245511
 20
422.5930294049
 30
0.0
  0
VERTEX
  5
3F1
  8
0
  6
CONTINUOUS
 62
     8
 10
277.8588076107
 20
421.5097547878
 30
0.0
  0
VERTEX
  5
3F2
  8
0
  6
CONTINUOUS
 62
     8
 10
277.9949481325
 20
420.3801933816
 30
0.0
  0
VERTEX
  5
3F3
  8
0
  6
CONTINUOUS
 62
     8
 10
278.2192461166
 20
419.207627335
 30
0.0
  0
VERTEX
  5
3F4
  8
0
  6
CONTINUOUS
 62
     8
 10
278.5317015629
 20
417.9960960657
 30
0.0
  0
VERTEX
  5
3F5
  8
0
  6
CONTINUOUS
 62
     8
 10
278.9206621675
 20
416.7751387758
 30
0.0
  0
VERTEX
  5
3F6
  8
0
  6
CONTINUOUS
 62
     8
 10
279.4381082819
 20
415.3606909214
 30
0.0
  0
VERTEX
  5
3F7
  8
0
  6
CONTINUOUS
 62
     8
 10
280.0840399061
 20
413.770989617
 30
0.0
  0
VERTEX
  5
3F8
  8
0
  6
CONTINUOUS
 62
     8
 10
281.229715443
 20
411.1849257482
 30
0.0
  0
VERTEX
  5
3F9
  8
0
  6
CONTINUOUS
 62
     8
 10
282.3497821537
 20
408.8428992895
 30
0.0
  0
VERTEX
  5
3FA
  8
0
  6
CONTINUOUS
 62
     8
 10
283.4539026327
 20
406.5455434564
 30
0.0
  0
VERTEX
  5
3FB
  8
0
  6
CONTINUOUS
 62
     8
 10
284.9234202309
 20
403.5094208863
 30
0.0
  0
VERTEX
  5
3FC
  8
0
  6
CONTINUOUS
 62
     8
 10
285.9730756582
 20
401.3410197725
 30
0.0
  0
VERTEX
  5
3FD
  8
0
  6
CONTINUOUS
 62
     8
 10
286.6028689145
 20
400.0602796499
 30
0.0
  0
VERTEX
  5
3FE
  8
0
  6
CONTINUOUS
 62
     8
 10
286.7859925427
 20
399.6975810556
 30
0.0
  0
SEQEND
  5
507
  8
0
  6
CONTINUOUS
 62
     8
  0
LINE
  5
1AF
  8
0
  6
CONTINUOUS
 62
     8
 10
299.8128
 20
422.6444856294
 30
0.0
 11
299.8128
 21
445.6444856294
 31
0.0
  0
LINE
  5
1B0
  8
0
  6
CONTINUOUS
 62
     8
 10
299.8128
 20
399.6444856294
 30
0.0
 11
299.8128
 21
422.6444856294
 31
0.0
  0
POLYLINE
  5
1B1
  8
0
  6
CONTINUOUS
 62
     8
 66
     1
 10
0.0
 20
0.0
 30
0.0
 70
   128
  0
VERTEX
  5
3FF
  8
0
  6
CONTINUOUS
 62
     8
 10
307.8691229087
 20
412.6608611696
 30
0.0
  0
VERTEX
  5
400
  8
0
  6
CONTINUOUS
 62
     8
 10
307.8744532363
 20
412.6464683937
 30
0.0
  0
VERTEX
  5
401
  8
0
  6
CONTINUOUS
 62
     8
 10
307.8862045498
 20
412.635143049
 30
0.0
  0
VERTEX
  5
402
  8
0
  6
CONTINUOUS
 62
     8
 10
307.9039579026
 20
412.6272888962
 30
0.0
  0
VERTEX
  5
403
  8
0
  6
CONTINUOUS
 62
     8
 10
307.9270803687
 20
412.6231859441
 30
0.0
  0
VERTEX
  5
404
  8
0
  6
CONTINUOUS
 62
     8
 10
307.9547476076
 20
412.6229804673
 30
0.0
  0
VERTEX
  5
405
  8
0
  6
CONTINUOUS
 62
     8
 10
307.9859732528
 20
412.6266797912
 30
0.0
  0
VERTEX
  5
406
  8
0
  6
CONTINUOUS
 62
     8
 10
308.019644077
 20
412.6341520312
 30
0.0
  0
VERTEX
  5
407
  8
0
  6
CONTINUOUS
 62
     8
 10
308.0545596796
 20
412.6451307938
 30
0.0
  0
SEQEND
  5
508
  8
0
  6
CONTINUOUS
 62
     8
  0
LINE
  5
1B2
  8
0
  6
CONTINUOUS
 62
     8
 10
255.8128
 20
466.1113560856
 30
0.0
 11
277.9666546756
 21
466.1113560856
 31
0.0
  0
LINE
  5
1B3
  8
0
  6
CONTINUOUS
 62
     8
 10
233.6589453244
 20
466.1113560856
 30
0.0
 11
255.8128
 21
466.1113560856
 31
0.0
  0
LINE
  5
1B4
  8
0
  6
CONTINUOUS
 62
     8
 10
255.8128
 20
468.5837048679
 30
0.0
 11
237.6155304486
 21
468.5837048679
 31
0.0
  0
LINE
  5
1B5
  8
0
  6
CONTINUOUS
 62
     8
 10
274.0100695514
 20
468.5837048679
 30
0.0
 11
255.8128
 21
468.5837048679
 31
0.0
  0
POLYLINE
  5
1B6
  8
0
  6
CONTINUOUS
 62
     8
 66
     1
 10
0.0
 20
0.0
 30
0.0
 70
   128
  0
VERTEX
  5
408
  8
0
  6
CONTINUOUS
 62
     8
 10
315.8325382007
 20
595.6008948043
 30
0.0
  0
VERTEX
  5
409
  8
0
  6
CONTINUOUS
 62
     8
 10
302.5526004455
 20
595.391551484
 30
0.0
  0
VERTEX
  5
40A
  8
0
  6
CONTINUOUS
 62
     8
 10
295.900949872
 20
594.8882778458
 30
0.0
  0
VERTEX
  5
40B
  8
0
  6
CONTINUOUS
 62
     8
 10
289.2713685996
 20
593.9284356067
 30
0.0
  0
VERTEX
  5
40C
  8
0
  6
CONTINUOUS
 62
     8
 10
280.7823051826
 20
591.7780265947
 30
0.0
  0
VERTEX
  5
40D
  8
0
  6
CONTINUOUS
 62
     8
 10
276.6022040202
 20
590.2227917193
 30
0.0
  0
VERTEX
  5
40E
  8
0
  6
CONTINUOUS
 62
     8
 10
272.5395087967
 20
588.3097360072
 30
0.0
  0
VERTEX
  5
40F
  8
0
  6
CONTINUOUS
 62
     8
 10
267.1395921945
 20
584.9885453313
 30
0.0
  0
VERTEX
  5
410
  8
0
  6
CONTINUOUS
 62
     8
 10
262.1658956741
 20
580.8579817399
 30
0.0
  0
VERTEX
  5
411
  8
0
  6
CONTINUOUS
 62
     8
 10
258.0957583789
 20
576.3408133261
 30
0.0
  0
VERTEX
  5
412
  8
0
  6
CONTINUOUS
 62
     8
 10
254.6289009982
 20
571.1978033131
 30
0.0
  0
VERTEX
  5
413
  8
0
  6
CONTINUOUS
 62
     8
 10
251.4671765952
 20
564.615561008
 30
0.0
  0
VERTEX
  5
414
  8
0
  6
CONTINUOUS
 62
     8
 10
249.2158628235
 20
557.5067762029
 30
0.0
  0
VERTEX
  5
415
  8
0
  6
CONTINUOUS
 62
     8
 10
248.1754431061
 20
552.4890081704
 30
0.0
  0
VERTEX
  5
416
  8
0
  6
CONTINUOUS
 62
     8
 10
247.4797131175
 20
547.385725254
 30
0.0
  0
VERTEX
  5
417
  8
0
  6
CONTINUOUS
 62
     8
 10
246.9006452629
 20
538.1810813767
 30
0.0
  0
VERTEX
  5
418
  8
0
  6
CONTINUOUS
 62
     8
 10
246.8128
 20
528.9244856294
 30
0.0
  0
SEQEND
  5
509
  8
0
  6
CONTINUOUS
 62
     8
  0
POLYLINE
  5
1B7
  8
0
  6
CONTINUOUS
 62
     8
 66
     1
 10
0.0
 20
0.0
 30
0.0
 70
   128
  0
VERTEX
  5
419
  8
0
  6
CONTINUOUS
 62
     8
 10
264.8128
 20
528.9244856294
 30
0.0
  0
VERTEX
  5
41A
  8
0
  6
CONTINUOUS
 62
     8
 10
264.8880293896
 20
536.4977916899
 30
0.0
  0
VERTEX
  5
41B
  8
0
  6
CONTINUOUS
 62
     8
 10
265.3801296677
 20
544.0710977504
 30
0.0
  0
VERTEX
  5
41C
  8
0
  6
CONTINUOUS
 62
     8
 10
266.7543940315
 20
552.0626457395
 30
0.0
  0
VERTEX
  5
41D
  8
0
  6
CONTINUOUS
 62
     8
 10
267.9031738089
 20
556.0332667337
 30
0.0
  0
VERTEX
  5
41E
  8
0
  6
CONTINUOUS
 62
     8
 10
269.4190617852
 20
559.9139459239
 30
0.0
  0
VERTEX
  5
41F
  8
0
  6
CONTINUOUS
 62
     8
 10
272.3390746124
 20
565.26392078
 30
0.0
  0
VERTEX
  5
420
  8
0
  6
CONTINUOUS
 62
     8
 10
276.2285398432
 20
570.1790149403
 30
0.0
  0
VERTEX
  5
421
  8
0
  6
CONTINUOUS
 62
     8
 10
277.9523751495
 20
571.8690236001
 30
0.0
  0
VERTEX
  5
422
  8
0
  6
CONTINUOUS
 62
     8
 10
279.8011697312
 20
573.4402877984
 30
0.0
  0
VERTEX
  5
423
  8
0
  6
CONTINUOUS
 62
     8
 10
284.8052116437
 20
576.7378037938
 30
0.0
  0
VERTEX
  5
424
  8
0
  6
CONTINUOUS
 62
     8
 10
290.4422093896
 20
579.2346862633
 30
0.0
  0
VERTEX
  5
425
  8
0
  6
CONTINUOUS
 62
     8
 10
294.3021249763
 20
580.3992889428
 30
0.0
  0
VERTEX
  5
426
  8
0
  6
CONTINUOUS
 62
     8
 10
298.2768150489
 20
581.2388356921
 30
0.0
  0
VERTEX
  5
427
  8
0
  6
CONTINUOUS
 62
     8
 10
306.5098557526
 20
582.1146045036
 30
0.0
  0
VERTEX
  5
428
  8
0
  6
CONTINUOUS
 62
     8
 10
311.1680328137
 20
582.261768689
 30
0.0
  0
VERTEX
  5
429
  8
0
  6
CONTINUOUS
 62
     8
 10
315.8325382007
 20
582.2880764546
 30
0.0
  0
SEQEND
  5
50A
  8
0
  6
CONTINUOUS
 62
     8
  0
LINE
  5
1B8
  8
0
  6
CONTINUOUS
 62
     8
 10
315.8328
 20
595.6008945301
 30
0.0
 11
315.8325382007
 21
595.6008948043
 31
0.0
  0
LINE
  5
1B9
  8
0
  6
CONTINUOUS
 62
     8
 10
315.8325382007
 20
582.2880764546
 30
0.0
 11
315.8328
 21
582.2880767288
 31
0.0
  0
LINE
  5
1BA
  8
0
  6
CONTINUOUS
 62
     8
 10
246.8128
 20
528.9244856294
 30
0.0
 11
246.8128
 21
469.3444856294
 31
0.0
  0
LINE
  5
1BB
  8
0
  6
CONTINUOUS
 62
     8
 10
264.8128
 20
469.3444856294
 30
0.0
 11
264.8128
 21
528.9244856294
 31
0.0
  0
LINE
  5
1BC
  8
0
  6
CONTINUOUS
 62
     8
 10
246.8128
 20
469.3444856294
 30
0.0
 11
264.8128
 21
469.3444856294
 31
0.0
  0
LINE
  5
1BD
  8
0
  6
CONTINUOUS
 62
     8
 10
246.8128
 20
469.3444856294
 30
0.0
 11
245.3128
 21
469.3444856294
 31
0.0
  0
LINE
  5
1BE
  8
0
  6
CONTINUOUS
 62
     8
 10
264.8128
 20
468.9444856294
 30
0.0
 11
264.8128
 21
469.3444856294
 31
0.0
  0
LINE
  5
1BF
  8
0
  6
CONTINUOUS
 62
     8
 10
246.8128
 20
469.3444856294
 30
0.0
 11
246.8128
 21
468.9444856294
 31
0.0
  0
LINE
  5
1C0
  8
0
  6
CONTINUOUS
 62
     8
 10
266.3128
 20
469.3444856294
 30
0.0
 11
264.8128
 21
469.3444856294
 31
0.0
  0
LINE
  5
1C1
  8
0
  6
CONTINUOUS
 62
     8
 10
428.6155925264
 20
595.4827886228
 30
0.0
 11
315.8328
 21
595.6008945301
 31
0.0
  0
LINE
  5
1C2
  8
0
  6
CONTINUOUS
 62
     8
 10
315.8328
 20
582.2880767288
 30
0.0
 11
428.6155925264
 21
582.4061826361
 31
0.0
  0
LINE
  5
1C3
  8
0
  6
CONTINUOUS
 62
     8
 10
431.8128
 20
595.4810099399
 30
0.0
 11
428.6155925264
 21
595.4827886228
 31
0.0
  0
LINE
  5
1C4
  8
0
  6
CONTINUOUS
 62
     8
 10
428.6155925264
 20
582.4061826361
 30
0.0
 11
431.8128
 21
582.407961319
 31
0.0
  0
LINE
  5
1C5
  8
0
  6
CONTINUOUS
 62
     8
 10
336.7128
 20
508.682288911
 30
0.0
 11
336.7128
 21
508.9250559256
 31
0.0
  0
POLYLINE
  5
1C6
  8
0
  6
CONTINUOUS
 62
     8
 66
     1
 10
0.0
 20
0.0
 30
0.0
 70
   128
  0
VERTEX
  5
42A
  8
0
  6
CONTINUOUS
 62
     8
 10
335.10182859
 20
508.9282457521
 30
0.0
  0
VERTEX
  5
42B
  8
0
  6
CONTINUOUS
 62
     8
 10
335.102215261
 20
508.8768837608
 30
0.0
  0
VERTEX
  5
42C
  8
0
  6
CONTINUOUS
 62
     8
 10
335.1023644092
 20
508.682288911
 30
0.0
  0
SEQEND
  5
50B
  8
0
  6
CONTINUOUS
 62
     8
  0
ARC
  5
1C7
  8
0
  6
CONTINUOUS
 62
     8
 10
318.4643877693
 20
453.9353872107
 30
0.0
 40
9.673581789333884
 50
249.9735585811
 51
284.8524275317
  0
LINE
  5
1C8
  8
0
  6
CONTINUOUS
 62
     8
 10
333.2794511211
 20
463.4463077035
 30
0.0
 11
333.2621508754
 21
462.8709775277
 31
0.0
  0
LINE
  5
1C9
  8
0
  6
CONTINUOUS
 62
     7
 10
144.8114071722
 20
194.5445596835
 30
0.0
 11
151.9143230666
 21
194.7324587936
 31
0.0
  0
POLYLINE
  5
1CA
  8
0
  6
CONTINUOUS
 62
     7
 66
     1
 10
0.0
 20
0.0
 30
0.0
 70
   128
  0
VERTEX
  5
42D
  8
0
  6
CONTINUOUS
 62
     7
 10
93.9140849689
 20
194.7267608377
 30
0.0
  0
VERTEX
  5
42E
  8
0
  6
CONTINUOUS
 62
     7
 10
95.6531521063
 20
194.6923864069
 30
0.0
  0
VERTEX
  5
42F
  8
0
  6
CONTINUOUS
 62
     7
 10
97.3662827861
 20
194.6688350793
 30
0.0
  0
VERTEX
  5
430
  8
0
  6
CONTINUOUS
 62
     7
 10
98.8166800908
 20
194.6518213181
 30
0.0
  0
VERTEX
  5
431
  8
0
  6
CONTINUOUS
 62
     7
 10
99.8896621517
 20
194.6392634606
 30
0.0
  0
VERTEX
  5
432
  8
0
  6
CONTINUOUS
 62
     7
 10
100.7835035654
 20
194.629178111
 30
0.0
  0
VERTEX
  5
433
  8
0
  6
CONTINUOUS
 62
     7
 10
101.6626941124
 20
194.620681837
 30
0.0
  0
VERTEX
  5
434
  8
0
  6
CONTINUOUS
 62
     7
 10
102.551946147
 20
194.6128610977
 30
0.0
  0
VERTEX
  5
435
  8
0
  6
CONTINUOUS
 62
     7
 10
103.7532670857
 20
194.6023021828
 30
0.0
  0
VERTEX
  5
436
  8
0
  6
CONTINUOUS
 62
     7
 10
104.9724758456
 20
194.5905158784
 30
0.0
  0
VERTEX
  5
437
  8
0
  6
CONTINUOUS
 62
     7
 10
106.2094394444
 20
194.5772491428
 30
0.0
  0
VERTEX
  5
438
  8
0
  6
CONTINUOUS
 62
     7
 10
108.9453691059
 20
194.5503781069
 30
0.0
  0
VERTEX
  5
439
  8
0
  6
CONTINUOUS
 62
     7
 10
111.3331623687
 20
194.5288016663
 30
0.0
  0
VERTEX
  5
43A
  8
0
  6
CONTINUOUS
 62
     7
 10
113.3300313244
 20
194.5138058296
 30
0.0
  0
VERTEX
  5
43B
  8
0
  6
CONTINUOUS
 62
     7
 10
114.9367975828
 20
194.5053057801
 30
0.0
  0
VERTEX
  5
43C
  8
0
  6
CONTINUOUS
 62
     7
 10
116.1599740645
 20
194.5016596584
 30
0.0
  0
VERTEX
  5
43D
  8
0
  6
CONTINUOUS
 62
     7
 10
116.350856557
 20
194.5016413224
 30
0.0
  0
SEQEND
  5
50C
  8
0
  6
CONTINUOUS
 62
     7
  0
ARC
  5
1CB
  8
0
  6
CONTINUOUS
 62
     7
 10
92.5512897538
 20
196.2259265758
 30
0.0
 40
1.499999303036258
 50
180.0116545306
 51
269.9993961206
  0
ARC
  5
1CC
  8
0
  6
CONTINUOUS
 62
     7
 10
92.606091301
 20
197.8009874942
 30
0.0
 40
1.545726388497456
 50
86.754261966
 51
178.5660819594
  0
LINE
  5
1CD
  8
0
  6
CONTINUOUS
 62
     7
 10
91.0513563164
 20
197.8544093313
 30
0.0
 11
91.0513563164
 21
196.2259272727
 31
0.0
  0
LINE
  5
1CE
  8
0
  6
CONTINUOUS
 62
     7
 10
104.333711843
 20
199.6270331277
 30
0.0
 11
92.6941769533
 21
199.3442542365
 31
0.0
  0
POLYLINE
  5
1CF
  8
0
  6
CONTINUOUS
 62
     7
 66
     1
 10
0.0
 20
0.0
 30
0.0
 70
   128
  0
VERTEX
  5
43E
  8
0
  6
CONTINUOUS
 62
     7
 10
153.5777648845
 20
255.1138710805
 30
0.0
  0
VERTEX
  5
43F
  8
0
  6
CONTINUOUS
 62
     7
 10
153.578341584
 20
255.2490279698
 30
0.0
  0
VERTEX
  5
440
  8
0
  6
CONTINUOUS
 62
     7
 10
153.5539923316
 20
260.1666351193
 30
0.0
  0
VERTEX
  5
441
  8
0
  6
CONTINUOUS
 62
     7
 10
153.5341294828
 20
265.5533681273
 30
0.0
  0
VERTEX
  5
442
  8
0
  6
CONTINUOUS
 62
     7
 10
153.5585880029
 20
271.3252801633
 30
0.0
  0
VERTEX
  5
443
  8
0
  6
CONTINUOUS
 62
     7
 10
153.5790601091
 20
277.1259345184
 30
0.0
  0
SEQEND
  5
50D
  8
0
  6
CONTINUOUS
 62
     7
  0
POLYLINE
  5
1D0
  8
0
  6
CONTINUOUS
 62
     7
 66
     1
 10
0.0
 20
0.0
 30
0.0
 70
   128
  0
VERTEX
  5
444
  8
0
  6
CONTINUOUS
 62
     7
 10
107.5861802662
 20
277.1259381318
 30
0.0
  0
VERTEX
  5
445
  8
0
  6
CONTINUOUS
 62
     7
 10
107.598569547
 20
271.3447809846
 30
0.0
  0
VERTEX
  5
446
  8
0
  6
CONTINUOUS
 62
     7
 10
107.6193689315
 20
264.9749415693
 30
0.0
  0
VERTEX
  5
447
  8
0
  6
CONTINUOUS
 62
     7
 10
107.5977382971
 20
259.1885403733
 30
0.0
  0
VERTEX
  5
448
  8
0
  6
CONTINUOUS
 62
     7
 10
107.5848956184
 20
255.1213769291
 30
0.0
  0
SEQEND
  5
50E
  8
0
  6
CONTINUOUS
 62
     7
  0
ARC
  5
1D1
  8
0
  6
CONTINUOUS
 62
     7
 10
105.7992456507
 20
202.4882782961
 30
0.0
 40
2.836283598867651
 50
266.3516943192
 51
316.1734108824
  0
LINE
  5
1D2
  8
0
  6
CONTINUOUS
 62
     7
 10
153.5811131379
 20
233.1259272727
 30
0.0
 11
153.5811131379
 21
255.1280031283
 31
0.0
  0
LINE
  5
1D3
  8
0
  6
CONTINUOUS
 62
     7
 10
107.5811131379
 20
255.1254334861
 30
0.0
 11
107.5811131379
 21
233.1259272727
 31
0.0
  0
ARC
  5
1D4
  8
0
  6
CONTINUOUS
 62
     7
 10
108.5811131379
 20
233.1259272727
 30
0.0
 40
1.0
 50
180.0
 51
270.0
  0
ARC
  5
1D5
  8
0
  6
CONTINUOUS
 62
     7
 10
152.5811131379
 20
233.1259272727
 30
0.0
 40
1.0
 50
270.0
 51
0.0
  0
LINE
  5
1D6
  8
0
  6
CONTINUOUS
 62
     7
 10
152.0811131379
 20
230.2948664977
 30
0.0
 11
152.0811131379
 21
232.1259272727
 31
0.0
  0
LINE
  5
1D7
  8
0
  6
CONTINUOUS
 62
     7
 10
109.0811131379
 20
232.1259272727
 30
0.0
 11
109.0811131379
 21
230.2948664977
 31
0.0
  0
ARC
  5
1D8
  8
0
  6
CONTINUOUS
 62
     7
 10
119.0811131379
 20
230.2948664977
 30
0.0
 40
9.999999999999998
 50
180.0
 51
189.0468459803
  0
ARC
  5
1D9
  8
0
  6
CONTINUOUS
 62
     7
 10
142.0811131379
 20
230.2948664977
 30
0.0
 40
9.999999999999972
 50
350.9531540197
 51
0.0
  0
ARC
  5
1DA
  8
0
  6
CONTINUOUS
 62
     7
 10
130.5811131379
 20
232.1259272727
 30
0.0
 40
21.64486082191338
 50
344.8930601786
 51
350.9531540197
  0
ARC
  5
1DB
  8
0
  6
CONTINUOUS
 62
     7
 10
130.5811131379
 20
232.1259272727
 30
0.0
 40
21.64486082191334
 50
189.0468459803
 51
194.9942390492
  0
LINE
  5
1DC
  8
0
  6
CONTINUOUS
 62
     7
 10
107.4887432812
 20
226.3259272727
 30
0.0
 11
107.4887432812
 21
200.1761732517
 31
0.0
  0
LINE
  5
1DD
  8
0
  6
CONTINUOUS
 62
     7
 10
153.4887432812
 20
196.2259272727
 30
0.0
 11
153.4887432812
 21
223.6169512543
 31
0.0
  0
ARC
  5
1DE
  8
0
  6
CONTINUOUS
 62
     7
 10
151.9887432812
 20
196.2259272727
 30
0.0
 40
1.5
 50
270.0
 51
0.0
  0
ARC
  5
1DF
  8
0
  6
CONTINUOUS
 62
     7
 10
107.6887432812
 20
226.3259272727
 30
0.0
 40
0.2000000000000028
 50
90.0
 51
180.0
  0
POLYLINE
  5
1E0
  8
0
  6
CONTINUOUS
 62
     7
 66
     1
 10
0.0
 20
0.0
 30
0.0
 70
   128
  0
VERTEX
  5
449
  8
0
  6
CONTINUOUS
 62
     7
 10
116.3311303628
 20
217.106189072
 30
0.0
  0
VERTEX
  5
44A
  8
0
  6
CONTINUOUS
 62
     7
 10
116.3151444136
 20
230.3861268272
 30
0.0
  0
VERTEX
  5
44B
  8
0
  6
CONTINUOUS
 62
     7
 10
116.2999429735
 20
237.0377774007
 30
0.0
  0
VERTEX
  5
44C
  8
0
  6
CONTINUOUS
 62
     7
 10
116.2775494962
 20
243.6673586731
 30
0.0
  0
VERTEX
  5
44D
  8
0
  6
CONTINUOUS
 62
     7
 10
116.2364058133
 20
252.1564220902
 30
0.0
  0
VERTEX
  5
44E
  8
0
  6
CONTINUOUS
 62
     7
 10
116.2104454042
 20
256.3365232526
 30
0.0
  0
VERTEX
  5
44F
  8
0
  6
CONTINUOUS
 62
     7
 10
116.1813258603
 20
260.399218476
 30
0.0
  0
VERTEX
  5
450
  8
0
  6
CONTINUOUS
 62
     7
 10
116.1362952761
 20
265.7991350783
 30
0.0
  0
VERTEX
  5
451
  8
0
  6
CONTINUOUS
 62
     7
 10
116.0878911139
 20
270.7728315987
 30
0.0
  0
VERTEX
  5
452
  8
0
  6
CONTINUOUS
 62
     7
 10
116.0427770109
 20
274.8429688939
 30
0.0
  0
VERTEX
  5
453
  8
0
  6
CONTINUOUS
 62
     7
 10
115.9998797984
 20
278.3098262746
 30
0.0
  0
VERTEX
  5
454
  8
0
  6
CONTINUOUS
 62
     7
 10
115.9564725864
 20
281.4715506776
 30
0.0
  0
VERTEX
  5
455
  8
0
  6
CONTINUOUS
 62
     7
 10
115.9223784789
 20
283.7228644493
 30
0.0
  0
VERTEX
  5
456
  8
0
  6
CONTINUOUS
 62
     7
 10
115.9054003092
 20
284.7632841666
 30
0.0
  0
VERTEX
  5
457
  8
0
  6
CONTINUOUS
 62
     7
 10
115.8934253907
 20
285.4590141552
 30
0.0
  0
VERTEX
  5
458
  8
0
  6
CONTINUOUS
 62
     7
 10
115.8828323195
 20
286.0380820098
 30
0.0
  0
VERTEX
  5
459
  8
0
  6
CONTINUOUS
 62
     7
 10
115.8811131379
 20
286.1259272727
 30
0.0
  0
SEQEND
  5
50F
  8
0
  6
CONTINUOUS
 62
     7
  0
ARC
  5
1E1
  8
0
  6
CONTINUOUS
 62
     7
 10
117.3811131379
 20
286.1259272727
 30
0.0
 40
1.5
 50
90.0
 51
180.0
  0
POLYLINE
  5
1E2
  8
0
  6
CONTINUOUS
 62
     7
 66
     1
 10
0.0
 20
0.0
 30
0.0
 70
   128
  0
VERTEX
  5
45A
  8
0
  6
CONTINUOUS
 62
     7
 10
145.2811131379
 20
286.1259272727
 30
0.0
  0
VERTEX
  5
45B
  8
0
  6
CONTINUOUS
 62
     7
 10
145.2803025233
 20
286.085028916
 30
0.0
  0
VERTEX
  5
45C
  8
0
  6
CONTINUOUS
 62
     7
 10
145.2751365446
 20
285.8108573707
 30
0.0
  0
VERTEX
  5
45D
  8
0
  6
CONTINUOUS
 62
     7
 10
145.2623757674
 20
285.090111806
 30
0.0
  0
VERTEX
  5
45E
  8
0
  6
CONTINUOUS
 62
     7
 10
145.239844275
 20
283.7226427367
 30
0.0
  0
VERTEX
  5
45F
  8
0
  6
CONTINUOUS
 62
     7
 10
145.2065264318
 20
281.5248444905
 30
0.0
  0
VERTEX
  5
460
  8
0
  6
CONTINUOUS
 62
     7
 10
145.1623407396
 20
278.3093860712
 30
0.0
  0
VERTEX
  5
461
  8
0
  6
CONTINUOUS
 62
     7
 10
145.1203207071
 20
274.9170642541
 30
0.0
  0
VERTEX
  5
462
  8
0
  6
CONTINUOUS
 62
     7
 10
145.0743351623
 20
270.7728315989
 30
0.0
  0
VERTEX
  5
463
  8
0
  6
CONTINUOUS
 62
     7
 10
145.0268699518
 20
265.9028249786
 30
0.0
  0
VERTEX
  5
464
  8
0
  6
CONTINUOUS
 62
     7
 10
144.9808827279
 20
260.39690837
 30
0.0
  0
VERTEX
  5
465
  8
0
  6
CONTINUOUS
 62
     7
 10
144.9525728583
 20
256.4547169571
 30
0.0
  0
VERTEX
  5
466
  8
0
  6
CONTINUOUS
 62
     7
 10
144.9269039021
 20
252.3444104441
 30
0.0
  0
VERTEX
  5
467
  8
0
  6
CONTINUOUS
 62
     7
 10
144.9040677667
 20
248.052332169
 30
0.0
  0
VERTEX
  5
468
  8
0
  6
CONTINUOUS
 62
     7
 10
144.8846642259
 20
243.6642110036
 30
0.0
  0
VERTEX
  5
469
  8
0
  6
CONTINUOUS
 62
     7
 10
144.8591395462
 20
235.874271778
 30
0.0
  0
VERTEX
  5
46A
  8
0
  6
CONTINUOUS
 62
     7
 10
144.8409380384
 20
226.51174304
 30
0.0
  0
VERTEX
  5
46B
  8
0
  6
CONTINUOUS
 62
     7
 10
144.8310959131
 20
217.106189072
 30
0.0
  0
SEQEND
  5
510
  8
0
  6
CONTINUOUS
 62
     7
  0
ARC
  5
1E3
  8
0
  6
CONTINUOUS
 62
     7
 10
143.7811131379
 20
286.1259272727
 30
0.0
 40
1.5
 50
0.0
 51
90.0
  0
LINE
  5
1E4
  8
0
  6
CONTINUOUS
 62
     7
 10
117.3811131379
 20
287.6259272727
 30
0.0
 11
143.7811131379
 21
287.6259272727
 31
0.0
  0
LINE
  5
1E5
  8
0
  6
CONTINUOUS
 62
     7
 10
144.8310959131
 20
217.106189072
 30
0.0
 11
144.8310956846
 21
217.1059272727
 31
0.0
  0
LINE
  5
1E6
  8
0
  6
CONTINUOUS
 62
     7
 10
116.3311305912
 20
217.1059272727
 30
0.0
 11
116.3311303628
 21
217.106189072
 31
0.0
  0
LINE
  5
1E7
  8
0
  6
CONTINUOUS
 62
     7
 10
144.8310956846
 20
217.1059272727
 30
0.0
 11
144.7326741062
 21
104.3231347463
 31
0.0
  0
LINE
  5
1E8
  8
0
  6
CONTINUOUS
 62
     7
 10
116.4295521697
 20
104.3231347463
 30
0.0
 11
116.3311305912
 21
217.1059272727
 31
0.0
  0
ARC
  5
1E9
  8
0
  6
CONTINUOUS
 62
     7
 10
141.5326753247
 20
104.3259272727
 30
0.0
 40
3.199999999999946
 50
270.0
 51
359.95
  0
ARC
  5
1EA
  8
0
  6
CONTINUOUS
 62
     7
 10
119.6295509512
 20
104.3259272727
 30
0.0
 40
3.200000000000003
 50
180.05
 51
270.0
  0
LINE
  5
1EB
  8
0
  6
CONTINUOUS
 62
     7
 10
141.5326753247
 20
101.1259272727
 30
0.0
 11
119.6295509512
 21
101.1259272727
 31
0.0
  0
LINE
  5
1EC
  8
0
  6
CONTINUOUS
 62
     7
 10
115.8811131379
 20
268.1259272727
 30
0.0
 11
115.8811131379
 21
286.1259272727
 31
0.0
  0
LINE
  5
1ED
  8
0
  6
CONTINUOUS
 62
     7
 10
145.2811131379
 20
286.1259272727
 30
0.0
 11
145.2811131379
 21
268.1259272727
 31
0.0
  0
LINE
  5
1EE
  8
0
  6
CONTINUOUS
 62
     7
 10
115.8817736714
 20
268.081417003
 30
0.0
 11
115.8811131379
 21
268.1259272727
 31
0.0
  0
POLYLINE
  5
1EF
  8
0
  6
CONTINUOUS
 62
     7
 66
     1
 10
0.0
 20
0.0
 30
0.0
 70
   128
  0
VERTEX
  5
46C
  8
0
  6
CONTINUOUS
 62
     7
 10
147.9144831815
 20
194.7269277525
 30
0.0
  0
VERTEX
  5
46D
  8
0
  6
CONTINUOUS
 62
     7
 10
144.8329754967
 20
194.7268572287
 30
0.0
  0
VERTEX
  5
46E
  8
0
  6
CONTINUOUS
 62
     7
 10
144.8115662561
 20
194.7268563194
 30
0.0
  0
SEQEND
  5
511
  8
0
  6
CONTINUOUS
 62
     7
  0
LINE
  5
1F0
  8
0
  6
CONTINUOUS
 62
     7
 10
151.8991693526
 20
194.7267608377
 30
0.0
 11
147.9144832741
 21
194.7267608377
 31
0.0
  0
LINE
  5
1F1
  8
0
  6
CONTINUOUS
 62
     7
 10
104.3670814435
 20
199.6274390519
 30
0.0
 11
105.6586776398
 21
199.6592761516
 31
0.0
  0
ARC
  5
1F2
  8
0
  6
CONTINUOUS
 62
     7
 10
93.0201121883
 20
260.1144748717
 30
0.0
 40
65.38983435044571
 50
269.5473382281
 51
270.4332227476
  0
LINE
  5
1F3
  8
0
  6
CONTINUOUS
 62
     7
 10
92.6941769533
 20
199.3442542365
 30
0.0
 11
92.7275465539
 21
199.3446601607
 31
0.0
  0
LINE
  5
1F4
  8
0
  6
CONTINUOUS
 62
     7
 10
104.333711843
 20
199.6270331277
 30
0.0
 11
104.3670814435
 21
199.6274390519
 31
0.0
  0
POLYLINE
  5
1F5
  8
0
  6
CONTINUOUS
 62
     7
 66
     1
 10
0.0
 20
0.0
 30
0.0
 70
   128
  0
VERTEX
  5
46F
  8
0
  6
CONTINUOUS
 62
     7
 10
107.5811131379
 20
277.1259272727
 30
0.0
  0
VERTEX
  5
470
  8
0
  6
CONTINUOUS
 62
     7
 10
108.0230516887
 20
281.6130046791
 30
0.0
  0
VERTEX
  5
471
  8
0
  6
CONTINUOUS
 62
     7
 10
109.3318838902
 20
285.9276462171
 30
0.0
  0
VERTEX
  5
472
  8
0
  6
CONTINUOUS
 62
     7
 10
111.457312055
 20
289.9040426322
 30
0.0
  0
VERTEX
  5
473
  8
0
  6
CONTINUOUS
 62
     7
 10
114.3176571706
 20
293.38938324
 30
0.0
  0
VERTEX
  5
474
  8
0
  6
CONTINUOUS
 62
     7
 10
117.8029977785
 20
296.2497283557
 30
0.0
  0
VERTEX
  5
475
  8
0
  6
CONTINUOUS
 62
     7
 10
121.7793941935
 20
298.3751565205
 30
0.0
  0
VERTEX
  5
476
  8
0
  6
CONTINUOUS
 62
     7
 10
126.0940357316
 20
299.683988722
 30
0.0
  0
VERTEX
  5
477
  8
0
  6
CONTINUOUS
 62
     7
 10
130.5811131379
 20
300.1259272727
 30
0.0
  0
VERTEX
  5
478
  8
0
  6
CONTINUOUS
 62
     7
 10
135.0681905443
 20
299.683988722
 30
0.0
  0
VERTEX
  5
479
  8
0
  6
CONTINUOUS
 62
     7
 10
139.3828320823
 20
298.3751565205
 30
0.0
  0
VERTEX
  5
47A
  8
0
  6
CONTINUOUS
 62
     7
 10
143.3592284974
 20
296.2497283557
 30
0.0
  0
VERTEX
  5
47B
  8
0
  6
CONTINUOUS
 62
     7
 10
146.8445691052
 20
293.38938324
 30
0.0
  0
VERTEX
  5
47C
  8
0
  6
CONTINUOUS
 62
     7
 10
149.7049142209
 20
289.9040426322
 30
0.0
  0
VERTEX
  5
47D
  8
0
  6
CONTINUOUS
 62
     7
 10
151.8303423857
 20
285.9276462171
 30
0.0
  0
VERTEX
  5
47E
  8
0
  6
CONTINUOUS
 62
     7
 10
153.1391745872
 20
281.6130046791
 30
0.0
  0
VERTEX
  5
47F
  8
0
  6
CONTINUOUS
 62
     7
 10
153.5811131379
 20
277.1259272727
 30
0.0
  0
VERTEX
  5
480
  8
0
  6
CONTINUOUS
 62
     7
 10
153.1391745872
 20
272.6388498664
 30
0.0
  0
VERTEX
  5
481
  8
0
  6
CONTINUOUS
 62
     7
 10
151.8303423857
 20
268.3242083283
 30
0.0
  0
VERTEX
  5
482
  8
0
  6
CONTINUOUS
 62
     7
 10
149.7049142209
 20
264.3478119133
 30
0.0
  0
VERTEX
  5
483
  8
0
  6
CONTINUOUS
 62
     7
 10
146.8445691052
 20
260.8624713054
 30
0.0
  0
VERTEX
  5
484
  8
0
  6
CONTINUOUS
 62
     7
 10
145.1100523003
 20
259.4389901513
 30
0.0
  0
SEQEND
  5
512
  8
0
  6
CONTINUOUS
 62
     7
  0
ARC
  5
1F6
  8
0
  6
CONTINUOUS
 62
     7
 10
129.54434356
 20
276.7730464075
 30
0.0
 40
21.96606508861192
 50
179.0795140628
 51
232.1038669575
  0
LINE
  5
1F7
  8
0
  6
CONTINUOUS
 62
     7
 10
109.1319554479
 20
226.5259272727
 30
0.0
 11
116.2476264966
 21
226.5259272727
 31
0.0
  0
LINE
  5
1F8
  8
0
  6
CONTINUOUS
 62
     7
 10
152.5811130082
 20
232.1259272727
 30
0.0
 11
144.9571921393
 21
232.1259272727
 31
0.0
  0
LINE
  5
1F9
  8
0
  6
CONTINUOUS
 62
     7
 10
116.2340159859
 20
232.1259272727
 30
0.0
 11
108.5811131379
 21
232.1259272727
 31
0.0
  0
ARC
  5
1FA
  8
0
  6
CONTINUOUS
 62
     7
 10
151.3494810784
 20
224.3785122058
 30
0.0
 40
1.975920138206241
 50
14.8274435606
 51
99.7440048431
  0
POLYLINE
  5
1FB
  8
0
  6
CONTINUOUS
 62
     7
 66
     1
 10
0.0
 20
0.0
 30
0.0
 70
   128
  0
VERTEX
  5
485
  8
0
  6
CONTINUOUS
 62
     7
 10
153.4887432812
 20
223.6169512543
 30
0.0
  0
VERTEX
  5
486
  8
0
  6
CONTINUOUS
 62
     7
 10
153.4824860324
 20
223.8231565958
 30
0.0
  0
VERTEX
  5
487
  8
0
  6
CONTINUOUS
 62
     7
 10
153.2596049021
 20
224.8841675932
 30
0.0
  0
SEQEND
  5
513
  8
0
  6
CONTINUOUS
 62
     7
  0
LINE
  5
1FC
  8
0
  6
CONTINUOUS
 62
     7
 10
150.8365740065
 20
226.5259272727
 30
0.0
 11
144.9276527907
 21
226.5259272727
 31
0.0
  0
POLYLINE
  5
1FD
  8
0
  6
CONTINUOUS
 62
     7
 66
     1
 10
0.0
 20
0.0
 30
0.0
 70
   128
  0
VERTEX
  5
488
  8
0
  6
CONTINUOUS
 62
     7
 10
152.448170703
 20
226.0399598449
 30
0.0
  0
VERTEX
  5
489
  8
0
  6
CONTINUOUS
 62
     7
 10
152.3386968877
 20
226.2071597715
 30
0.0
  0
VERTEX
  5
48A
  8
0
  6
CONTINUOUS
 62
     7
 10
151.6820793865
 20
226.4771006811
 30
0.0
  0
VERTEX
  5
48B
  8
0
  6
CONTINUOUS
 62
     7
 10
150.8366010754
 20
226.5259272727
 30
0.0
  0
VERTEX
  5
48C
  8
0
  6
CONTINUOUS
 62
     7
 10
150.8365740065
 20
226.5259272727
 30
0.0
  0
VERTEX
  5
48D
  8
0
  6
CONTINUOUS
 62
     7
 10
150.8365740065
 20
226.5259272727
 30
0.0
  0
SEQEND
  5
514
  8
0
  6
CONTINUOUS
 62
     7
  0
LINE
  5
1FE
  8
0
  6
CONTINUOUS
 62
     7
 10
107.6887432812
 20
226.5259272727
 30
0.0
 11
109.1319554479
 21
226.5259272727
 31
0.0
  0
ARC
  5
1FF
  8
0
  6
CONTINUOUS
 62
     7
 10
130.5811131379
 20
277.1259272727
 30
0.0
 40
25.00000000000005
 50
337.4351150707
 51
0.0
  0
ARC
  5
200
  8
0
  6
CONTINUOUS
 62
     7
 10
130.5811131379
 20
277.1259272727
 30
0.0
 40
25.00000000000003
 50
0.0
 51
203.0714459622
  0
POLYLINE
  5
201
  8
0
  6
CONTINUOUS
 62
     8
 66
     1
 10
0.0
 20
0.0
 30
0.0
 70
   128
  0
VERTEX
  5
48E
  8
0
  6
CONTINUOUS
 62
     8
 10
117.3811131379
 20
287.6259272727
 30
0.0
  0
VERTEX
  5
48F
  8
0
  6
CONTINUOUS
 62
     8
 10
117.3820104339
 20
287.5822162965
 30
0.0
  0
VERTEX
  5
490
  8
0
  6
CONTINUOUS
 62
     8
 10
117.3871881856
 20
287.3026898319
 30
0.0
  0
VERTEX
  5
491
  8
0
  6
CONTINUOUS
 62
     8
 10
117.4001179104
 20
286.5624544878
 30
0.0
  0
VERTEX
  5
492
  8
0
  6
CONTINUOUS
 62
     8
 10
117.4223822373
 20
285.1807268839
 30
0.0
  0
VERTEX
  5
493
  8
0
  6
CONTINUOUS
 62
     8
 10
117.455782339
 20
282.9202841453
 30
0.0
  0
VERTEX
  5
494
  8
0
  6
CONTINUOUS
 62
     8
 10
117.4998819749
 20
279.6133538728
 30
0.0
  0
VERTEX
  5
495
  8
0
  6
CONTINUOUS
 62
     8
 10
117.5419274795
 20
276.1060402927
 30
0.0
  0
VERTEX
  5
496
  8
0
  6
CONTINUOUS
 62
     8
 10
117.5878897395
 20
271.8212626402
 30
0.0
  0
VERTEX
  5
497
  8
0
  6
CONTINUOUS
 62
     8
 10
117.6352998179
 20
266.7921243924
 30
0.0
  0
VERTEX
  5
498
  8
0
  6
CONTINUOUS
 62
     8
 10
117.6813232413
 20
261.1063503727
 30
0.0
  0
VERTEX
  5
499
  8
0
  6
CONTINUOUS
 62
     8
 10
117.7096149902
 20
257.0499218595
 30
0.0
  0
VERTEX
  5
49A
  8
0
  6
CONTINUOUS
 62
     8
 10
117.7351777776
 20
252.8496013984
 30
0.0
  0
VERTEX
  5
49B
  8
0
  6
CONTINUOUS
 62
     8
 10
117.7580998656
 20
248.4382155074
 30
0.0
  0
VERTEX
  5
49C
  8
0
  6
CONTINUOUS
 62
     8
 10
117.7775487545
 20
243.9486259792
 30
0.0
  0
VERTEX
  5
49D
  8
0
  6
CONTINUOUS
 62
     8
 10
117.8027409395
 20
236.153665103
 30
0.0
  0
VERTEX
  5
49E
  8
0
  6
CONTINUOUS
 62
     8
 10
117.8211478827
 20
226.6523154228
 30
0.0
  0
VERTEX
  5
49F
  8
0
  6
CONTINUOUS
 62
     8
 10
117.8311297916
 20
217.1059272727
 30
0.0
  0
SEQEND
  5
515
  8
0
  6
CONTINUOUS
 62
     8
  0
POLYLINE
  5
202
  8
0
  6
CONTINUOUS
 62
     8
 66
     1
 10
0.0
 20
0.0
 30
0.0
 70
   128
  0
VERTEX
  5
4A0
  8
0
  6
CONTINUOUS
 62
     8
 10
143.3310964843
 20
217.1059272727
 30
0.0
  0
VERTEX
  5
4A1
  8
0
  6
CONTINUOUS
 62
     8
 10
143.3471972612
 20
230.5250153161
 30
0.0
  0
VERTEX
  5
4A2
  8
0
  6
CONTINUOUS
 62
     8
 10
143.3624091752
 20
237.2464565217
 30
0.0
  0
VERTEX
  5
4A3
  8
0
  6
CONTINUOUS
 62
     8
 10
143.3846649675
 20
243.9454152854
 30
0.0
  0
VERTEX
  5
4A4
  8
0
  6
CONTINUOUS
 62
     8
 10
143.4035843789
 20
248.3257227518
 30
0.0
  0
VERTEX
  5
4A5
  8
0
  6
CONTINUOUS
 62
     8
 10
143.4259321779
 20
252.6511066376
 30
0.0
  0
VERTEX
  5
4A6
  8
0
  6
CONTINUOUS
 62
     8
 10
143.4518716592
 20
256.937703422
 30
0.0
  0
VERTEX
  5
4A7
  8
0
  6
CONTINUOUS
 62
     8
 10
143.4808853467
 20
261.1039695885
 30
0.0
  0
VERTEX
  5
4A8
  8
0
  6
CONTINUOUS
 62
     8
 10
143.5259688456
 20
266.6828777763
 30
0.0
  0
VERTEX
  5
4A9
  8
0
  6
CONTINUOUS
 62
     8
 10
143.5743365368
 20
271.8212626402
 30
0.0
  0
VERTEX
  5
4AA
  8
0
  6
CONTINUOUS
 62
     8
 10
143.6194214983
 20
276.0289002572
 30
0.0
  0
VERTEX
  5
4AB
  8
0
  6
CONTINUOUS
 62
     8
 10
143.6623385634
 20
279.6128995427
 30
0.0
  0
VERTEX
  5
4AC
  8
0
  6
CONTINUOUS
 62
     8
 10
143.7056614923
 20
282.8647885046
 30
0.0
  0
VERTEX
  5
4AD
  8
0
  6
CONTINUOUS
 62
     8
 10
143.7398405166
 20
285.1805000383
 30
0.0
  0
VERTEX
  5
4AE
  8
0
  6
CONTINUOUS
 62
     8
 10
143.7565047173
 20
286.2240830616
 30
0.0
  0
VERTEX
  5
4AF
  8
0
  6
CONTINUOUS
 62
     8
 10
143.7684083834
 20
286.9288909978
 30
0.0
  0
VERTEX
  5
4B0
  8
0
  6
CONTINUOUS
 62
     8
 10
143.779316202
 20
287.5335265881
 30
0.0
  0
VERTEX
  5
4B1
  8
0
  6
CONTINUOUS
 62
     8
 10
143.7811131379
 20
287.6259272727
 30
0.0
  0
SEQEND
  5
516
  8
0
  6
CONTINUOUS
 62
     8
  0
ARC
  5
203
  8
0
  6
CONTINUOUS
 62
     8
 10
141.5326753247
 20
104.3243564767
 30
0.0
 40
1.700000000000029
 50
270.0
 51
359.95
  0
LINE
  5
204
  8
0
  6
CONTINUOUS
 62
     8
 10
119.6295509512
 20
102.6243564767
 30
0.0
 11
141.5326753247
 21
102.6243564767
 31
0.0
  0
ARC
  5
205
  8
0
  6
CONTINUOUS
 62
     8
 10
119.6295509512
 20
104.3243564767
 30
0.0
 40
1.700000000000003
 50
180.05
 51
270.0
  0
LINE
  5
206
  8
0
  6
CONTINUOUS
 62
     8
 10
117.8311300201
 20
217.1056654735
 30
0.0
 11
117.9295515985
 21
104.322872947
 31
0.0
  0
LINE
  5
207
  8
0
  6
CONTINUOUS
 62
     8
 10
117.8311297916
 20
217.1059272727
 30
0.0
 11
117.8311300201
 21
217.1056654735
 31
0.0
  0
LINE
  5
208
  8
0
  6
CONTINUOUS
 62
     8
 10
143.3310962558
 20
217.1056654735
 30
0.0
 11
143.3310964843
 21
217.1059272727
 31
0.0
  0
LINE
  5
209
  8
0
  6
CONTINUOUS
 62
     8
 10
143.2326746774
 20
104.322872947
 30
0.0
 11
143.3310962558
 21
217.1056654735
 31
0.0
  0
ARC
  5
20A
  8
0
  6
CONTINUOUS
 62
     8
 10
143.9201743365
 20
462.4219718776
 30
0.0
 40
358.0997588810768
 50
269.8900003362
 51
270.129999662
  0
ARC
  5
20B
  8
0
  6
CONTINUOUS
 62
     8
 10
117.2420519394
 20
462.421971883
 30
0.0
 40
358.0997588865165
 50
269.870000338
 51
270.1099996638
  0
LINE
  5
20C
  8
0
  6
CONTINUOUS
 62
     8
 10
141.5326753247
 20
101.1259272727
 30
0.0
 11
141.5326753247
 21
102.6243564767
 31
0.0
  0
LINE
  5
20D
  8
0
  6
CONTINUOUS
 62
     8
 10
119.6295509512
 20
101.1259272727
 30
0.0
 11
119.6295509512
 21
102.6243564767
 31
0.0
  0
ARC
  5
20E
  8
0
  6
CONTINUOUS
 62
     8
 10
117.0953040951
 20
485.2538779664
 30
0.0
 40
290.747733752417
 50
267.7673804327
 51
269.8532954295
  0
LINE
  5
20F
  8
0
  6
CONTINUOUS
 62
     8
 10
116.3506601031
 20
194.7267608377
 30
0.0
 11
105.7687156469
 21
194.7267608377
 31
0.0
  0
LINE
  5
210
  8
0
  6
CONTINUOUS
 62
     8
 10
93.5145306013
 20
194.7267608377
 30
0.0
 11
105.7687156469
 21
194.7267608377
 31
0.0
  0
ARC
  5
211
  8
0
  6
CONTINUOUS
 62
     8
 10
94.7946972755
 20
195.8982949839
 30
0.0
 40
1.735315236325375
 50
169.1170776928
 51
222.4629380509
  0
POLYLINE
  5
212
  8
0
  6
CONTINUOUS
 62
     8
 66
     1
 10
0.0
 20
0.0
 30
0.0
 70
   128
  0
VERTEX
  5
4B2
  8
0
  6
CONTINUOUS
 62
     8
 10
93.0905916295
 20
197.8363628635
 30
0.0
  0
VERTEX
  5
4B3
  8
0
  6
CONTINUOUS
 62
     8
 10
93.09894389
 20
198.1277143904
 30
0.0
  0
VERTEX
  5
4B4
  8
0
  6
CONTINUOUS
 62
     8
 10
93.1236825366
 20
198.4079684281
 30
0.0
  0
VERTEX
  5
4B5
  8
0
  6
CONTINUOUS
 62
     8
 10
93.163865282
 20
198.6664501874
 30
0.0
  0
VERTEX
  5
4B6
  8
0
  6
CONTINUOUS
 62
     8
 10
93.2179615777
 20
198.8933141785
 30
0.0
  0
VERTEX
  5
4B7
  8
0
  6
CONTINUOUS
 62
     8
 10
93.2839109129
 20
199.0799192224
 30
0.0
  0
VERTEX
  5
4B8
  8
0
  6
CONTINUOUS
 62
     8
 10
93.3592012976
 20
199.2191575909
 30
0.0
  0
VERTEX
  5
4B9
  8
0
  6
CONTINUOUS
 62
     8
 10
93.4409649447
 20
199.3057257379
 30
0.0
  0
VERTEX
  5
4BA
  8
0
  6
CONTINUOUS
 62
     8
 10
93.5260875021
 20
199.3363263096
 30
0.0
  0
SEQEND
  5
517
  8
0
  6
CONTINUOUS
 62
     8
  0
LINE
  5
213
  8
0
  6
CONTINUOUS
 62
     8
 10
116.3466374974
 20
199.3363263096
 30
0.0
 11
93.5260875021
 21
199.3363263096
 31
0.0
  0
LINE
  5
214
  8
0
  6
CONTINUOUS
 62
     8
 10
93.0905916295
 20
196.2259272727
 30
0.0
 11
93.0905916295
 21
197.8363628635
 31
0.0
  0
POLYLINE
  5
215
  8
0
  6
CONTINUOUS
 62
     8
 66
     1
 10
0.0
 20
0.0
 30
0.0
 70
   128
  0
VERTEX
  5
4BB
  8
0
  6
CONTINUOUS
 62
     8
 10
93.5260875021
 20
199.3363263096
 30
0.0
  0
VERTEX
  5
4BC
  8
0
  6
CONTINUOUS
 62
     8
 10
92.9614060419
 20
199.3364754577
 30
0.0
  0
VERTEX
  5
4BD
  8
0
  6
CONTINUOUS
 62
     8
 10
92.697710615
 20
199.3368861827
 30
0.0
  0
VERTEX
  5
4BE
  8
0
  6
CONTINUOUS
 62
     8
 10
92.6049795669
 20
199.3372033889
 30
0.0
  0
VERTEX
  5
4BF
  8
0
  6
CONTINUOUS
 62
     8
 10
92.5744375932
 20
199.337394212
 30
0.0
  0
VERTEX
  5
4C0
  8
0
  6
CONTINUOUS
 62
     8
 10
92.5598379153
 20
199.3376788486
 30
0.0
  0
VERTEX
  5
4C1
  8
0
  6
CONTINUOUS
 62
     8
 10
92.5508103832
 20
199.3390882384
 30
0.0
  0
VERTEX
  5
4C2
  8
0
  6
CONTINUOUS
 62
     8
 10
92.7275465539
 20
199.3446601607
 30
0.0
  0
SEQEND
  5
518
  8
0
  6
CONTINUOUS
 62
     8
  0
LINE
  5
216
  8
0
  6
CONTINUOUS
 62
     8
 10
92.7275465539
 20
199.3446601607
 30
0.0
 11
104.3670814435
 21
199.6274390519
 31
0.0
  0
POLYLINE
  5
217
  8
0
  6
CONTINUOUS
 62
     8
 66
     1
 10
0.0
 20
0.0
 30
0.0
 70
   128
  0
VERTEX
  5
4C3
  8
0
  6
CONTINUOUS
 62
     8
 10
115.0586335449
 20
199.6361687128
 30
0.0
  0
VERTEX
  5
4C4
  8
0
  6
CONTINUOUS
 62
     8
 10
113.3118150109
 20
199.6386690529
 30
0.0
  0
VERTEX
  5
4C5
  8
0
  6
CONTINUOUS
 62
     8
 10
111.580725905
 20
199.6419241415
 30
0.0
  0
VERTEX
  5
4C6
  8
0
  6
CONTINUOUS
 62
     8
 10
105.6586776398
 20
199.6592761516
 30
0.0
  0
SEQEND
  5
519
  8
0
  6
CONTINUOUS
 62
     8
  0
LINE
  5
218
  8
0
  6
CONTINUOUS
 62
     8
 10
116.346376584
 20
199.6353109406
 30
0.0
 11
115.0586261172
 21
199.6361687419
 31
0.0
  0
ARC
  5
219
  8
0
  6
CONTINUOUS
 62
     8
 10
130.5811131379
 20
277.1259272727
 30
0.0
 40
17.98530184569647
 50
180.0
 51
214.8013276398
  0
ARC
  5
21A
  8
0
  6
CONTINUOUS
 62
     8
 10
130.5811131379
 20
277.1259272727
 30
0.0
 40
17.98530184569651
 50
325.3882031252
 51
180.0
  0
ARC
  5
21B
  8
0
  6
CONTINUOUS
 62
     8
 10
130.5811131379
 20
277.1259272727
 30
0.0
 40
18.19726955138974
 50
323.7621567935
 51
180.0
  0
ARC
  5
21C
  8
0
  6
CONTINUOUS
 62
     8
 10
130.5811131379
 20
277.1259272727
 30
0.0
 40
18.19726955138977
 50
180.0
 51
216.2920490592
  0
ARC
  5
21D
  8
0
  6
CONTINUOUS
 62
     8
 10
147.700862143
 20
196.1019220657
 30
0.0
 40
1.391654551487295
 50
278.8299014173
 51
5.1121960693
  0
ARC
  5
21E
  8
0
  6
CONTINUOUS
 62
     8
 10
129.2021671504
 20
198.8926264283
 30
0.0
 40
19.89148931166348
 50
358.5155645214
 51
38.2376467015
  0
POLYLINE
  5
21F
  8
0
  6
CONTINUOUS
 62
     8
 66
     1
 10
0.0
 20
0.0
 30
0.0
 70
   128
  0
VERTEX
  5
4C7
  8
0
  6
CONTINUOUS
 62
     8
 10
116.3459768048
 20
200.0934240004
 30
0.0
  0
VERTEX
  5
4C8
  8
0
  6
CONTINUOUS
 62
     8
 10
115.9338462412
 20
199.8296379734
 30
0.0
  0
VERTEX
  5
4C9
  8
0
  6
CONTINUOUS
 62
     8
 10
115.0586220016
 20
199.6361686873
 30
0.0
  0
SEQEND
  5
51A
  8
0
  6
CONTINUOUS
 62
     8
  0
LINE
  5
220
  8
0
  6
CONTINUOUS
 62
     8
 10
149.0869808606
 20
198.3773296741
 30
0.0
 11
149.0869808606
 21
196.2259272727
 31
0.0
  0
POLYLINE
  5
221
  8
0
  6
CONTINUOUS
 62
     8
 66
     1
 10
0.0
 20
0.0
 30
0.0
 70
   128
  0
VERTEX
  5
4CA
  8
0
  6
CONTINUOUS
 62
     8
 10
105.6586776398
 20
199.6592761516
 30
0.0
  0
VERTEX
  5
4CB
  8
0
  6
CONTINUOUS
 62
     8
 10
106.7719227647
 20
199.7888594767
 30
0.0
  0
VERTEX
  5
4CC
  8
0
  6
CONTINUOUS
 62
     8
 10
107.600427418
 20
200.1697420184
 30
0.0
  0
VERTEX
  5
4CD
  8
0
  6
CONTINUOUS
 62
     8
 10
108.186204274
 20
200.8868590567
 30
0.0
  0
VERTEX
  5
4CE
  8
0
  6
CONTINUOUS
 62
     8
 10
108.5712660074
 20
202.0251458712
 30
0.0
  0
VERTEX
  5
4CF
  8
0
  6
CONTINUOUS
 62
     8
 10
108.7976252926
 20
203.6695377415
 30
0.0
  0
VERTEX
  5
4D0
  8
0
  6
CONTINUOUS
 62
     8
 10
108.907294804
 20
205.9049699475
 30
0.0
  0
VERTEX
  5
4D1
  8
0
  6
CONTINUOUS
 62
     8
 10
108.9422872162
 20
208.8163777688
 30
0.0
  0
VERTEX
  5
4D2
  8
0
  6
CONTINUOUS
 62
     8
 10
108.9449084709
 20
210.5521148102
 30
0.0
  0
VERTEX
  5
4D3
  8
0
  6
CONTINUOUS
 62
     8
 10
108.9446152038
 20
212.4886964852
 30
0.0
  0
SEQEND
  5
51B
  8
0
  6
CONTINUOUS
 62
     8
  0
LINE
  5
222
  8
0
  6
CONTINUOUS
 62
     8
 10
108.9446152038
 20
226.3259272727
 30
0.0
 11
108.9446152038
 21
212.4886964852
 31
0.0
  0
ARC
  5
223
  8
0
  6
CONTINUOUS
 62
     8
 10
109.1384992006
 20
226.3320568139
 30
0.0
 40
0.1939808637822112
 50
91.9331832643
 51
181.8107729877
  0
ARC
  5
224
  8
0
  6
CONTINUOUS
 62
     8
 10
150.8251708141
 20
226.3361040372
 30
0.0
 40
0.1901654373107471
 50
356.9323325211
 51
86.5622197441
  0
ENDSEC
  0
EOF
