  0
SECTION
  2
HEADER
  9
$ACADVER
  1
AC1024
  9
$ACADMAINTVER
 70
     6
  9
$DWGCODEPAGE
  3
ANSI_1252
  9
$INSBASE
 10
0.0
 20
0.0
 30
0.0
  9
$EXTMIN
 10
0.0
 20
0.0
 30
0.0
  9
$EXTMAX
 10
594.0
 20
841.0
 30
0.0
  9
$LIMMIN
 10
0.0
 20
0.0
  9
$LIMMAX
 10
594.0
 20
841.0
  9
$ORTHOMODE
 70
     0
  9
$REGENMODE
 70
     1
  9
$FILLMODE
 70
     1
  9
$QTEXTMODE
 70
     0
  9
$MIRRTEXT
 70
     1
  9
$LTSCALE
 40
1.0
  9
$ATTMODE
 70
     1
  9
$TEXTSIZE
 40
10.0
  9
$TRACEWID
 40
1.0
  9
$TEXTSTYLE
  7
Standard
  9
$CLAYER
  8
0
  9
$CELTYPE
  6
ByLayer
  9
$CECOLOR
 62
   256
  9
$CELTSCALE
 40
1.0
  9
$DISPSILH
 70
     0
  9
$DIMSCALE
 40
1.0
  9
$DIMASZ
 40
2.5
  9
$DIMEXO
 40
0.0
  9
$DIMDLI
 40
3.75
  9
$DIMRND
 40
0.0
  9
$DIMDLE
 40
0.0
  9
$DIMEXE
 40
1.0
  9
$DIMTP
 40
0.0
  9
$DIMTM
 40
0.0
  9
$DIMTXT
 40
3.5
  9
$DIMCEN
 40
2.5
  9
$DIMTSZ
 40
0.0
  9
$DIMTOL
 70
     0
  9
$DIMLIM
 70
     0
  9
$DIMTIH
 70
     1
  9
$DIMTOH
 70
     1
  9
$DIMSE1
 70
     0
  9
$DIMSE2
 70
     0
  9
$DIMTAD
 70
     1
  9
$DIMZIN
 70
     0
  9
$DIMBLK
  1

  9
$DIMASO
 70
     1
  9
$DIMSHO
 70
     1
  9
$DIMPOST
  1

  9
$DIMAPOST
  1

  9
$DIMALT
 70
     0
  9
$DIMALTD
 70
     3
  9
$DIMALTF
 40
0.0393700787
  9
$DIMLFAC
 40
1.0
  9
$DIMTOFL
 70
     1
  9
$DIMTVP
 40
0.0
  9
$DIMTIX
 70
     0
  9
$DIMSOXD
 70
     0
  9
$DIMSAH
 70
     0
  9
$DIMBLK1
  1

  9
$DIMBLK2
  1

  9
$DIMSTYLE
  2
ISO-25
  9
$DIMCLRD
 70
     0
  9
$DIMCLRE
 70
     0
  9
$DIMCLRT
 70
     0
  9
$DIMTFAC
 40
1.0
  9
$DIMGAP
 40
1.5
  9
$DIMJUST
 70
     0
  9
$DIMSD1
 70
     0
  9
$DIMSD2
 70
     0
  9
$DIMTOLJ
 70
     0
  9
$DIMTZIN
 70
     0
  9
$DIMALTZ
 70
     0
  9
$DIMALTTZ
 70
     0
  9
$DIMUPT
 70
     0
  9
$DIMDEC
 70
     2
  9
$DIMTDEC
 70
     2
  9
$DIMALTU
 70
     2
  9
$DIMALTTD
 70
     3
  9
$DIMTXSTY
  7
Standard
  9
$DIMAUNIT
 70
     0
  9
$DIMADEC
 70
     2
  9
$DIMALTRND
 40
0.0
  9
$DIMAZIN
 70
     0
  9
$DIMDSEP
 70
    44
  9
$DIMATFIT
 70
     3
  9
$DIMFRAC
 70
     0
  9
$DIMLDRBLK
  1

  9
$DIMLUNIT
 70
     2
  9
$DIMLWD
 70
    -2
  9
$DIMLWE
 70
    -2
  9
$DIMTMOVE
 70
     0
  9
$DIMFXL
 40
1.0
  9
$DIMFXLON
 70
     0
  9
$DIMJOGANG
 40
0.7853981634
  9
$DIMTFILL
 70
     0
  9
$DIMTFILLCLR
 70
     0
  9
$DIMARCSYM
 70
     0
  9
$DIMLTYPE
  6

  9
$DIMLTEX1
  6

  9
$DIMLTEX2
  6

  9
$DIMTXTDIRECTION
 70
     0
  9
$LUNITS
 70
     2
  9
$LUPREC
 70
     2
  9
$SKETCHINC
 40
1.0
  9
$FILLETRAD
 40
10.0
  9
$AUNITS
 70
     0
  9
$AUPREC
 70
     2
  9
$MENU
  1
.
  9
$ELEVATION
 40
0.0
  9
$PELEVATION
 40
0.0
  9
$THICKNESS
 40
0.0
  9
$LIMCHECK
 70
     0
  9
$CHAMFERA
 40
10.0
  9
$CHAMFERB
 40
10.0
  9
$CHAMFERC
 40
20.0
  9
$CHAMFERD
 40
0.0
  9
$SKPOLY
 70
     0
  9
$TDCREATE
 40
2456800.490497685
  9
$TDUCREATE
 40
2456800.407164352
  9
$TDUPDATE
 40
2456800.490499236
  9
$TDUUPDATE
 40
2456800.407165903
  9
$TDINDWG
 40
0.0000000116
  9
$TDUSRTIMER
 40
0.0000000116
  9
$USRTIMER
 70
     1
  9
$ANGBASE
 50
0.0
  9
$ANGDIR
 70
     0
  9
$PDMODE
 70
     0
  9
$PDSIZE
 40
-1.0
  9
$PLINEWID
 40
0.0
  9
$SPLFRAME
 70
     0
  9
$SPLINETYPE
 70
     6
  9
$SPLINESEGS
 70
     8
  9
$HANDSEED
  5
148
  9
$SURFTAB1
 70
     6
  9
$SURFTAB2
 70
     6
  9
$SURFTYPE
 70
     6
  9
$SURFU
 70
     6
  9
$SURFV
 70
     6
  9
$UCSBASE
  2

  9
$UCSNAME
  2

  9
$UCSORG
 10
0.0
 20
0.0
 30
0.0
  9
$UCSXDIR
 10
1.0
 20
0.0
 30
0.0
  9
$UCSYDIR
 10
0.0
 20
1.0
 30
0.0
  9
$UCSORTHOREF
  2

  9
$UCSORTHOVIEW
 70
     0
  9
$UCSORGTOP
 10
0.0
 20
0.0
 30
0.0
  9
$UCSORGBOTTOM
 10
0.0
 20
0.0
 30
0.0
  9
$UCSORGLEFT
 10
0.0
 20
0.0
 30
0.0
  9
$UCSORGRIGHT
 10
0.0
 20
0.0
 30
0.0
  9
$UCSORGFRONT
 10
0.0
 20
0.0
 30
0.0
  9
$UCSORGBACK
 10
0.0
 20
0.0
 30
0.0
  9
$PUCSBASE
  2

  9
$PUCSNAME
  2

  9
$PUCSORG
 10
0.0
 20
0.0
 30
0.0
  9
$PUCSXDIR
 10
1.0
 20
0.0
 30
0.0
  9
$PUCSYDIR
 10
0.0
 20
1.0
 30
0.0
  9
$PUCSORTHOREF
  2

  9
$PUCSORTHOVIEW
 70
     0
  9
$PUCSORGTOP
 10
0.0
 20
0.0
 30
0.0
  9
$PUCSORGBOTTOM
 10
0.0
 20
0.0
 30
0.0
  9
$PUCSORGLEFT
 10
0.0
 20
0.0
 30
0.0
  9
$PUCSORGRIGHT
 10
0.0
 20
0.0
 30
0.0
  9
$PUCSORGFRONT
 10
0.0
 20
0.0
 30
0.0
  9
$PUCSORGBACK
 10
0.0
 20
0.0
 30
0.0
  9
$USERI1
 70
     0
  9
$USERI2
 70
     0
  9
$USERI3
 70
     0
  9
$USERI4
 70
     0
  9
$USERI5
 70
     0
  9
$USERR1
 40
0.0
  9
$USERR2
 40
0.0
  9
$USERR3
 40
0.0
  9
$USERR4
 40
0.0
  9
$USERR5
 40
0.0
  9
$WORLDVIEW
 70
     1
  9
$SHADEDGE
 70
     3
  9
$SHADEDIF
 70
    70
  9
$TILEMODE
 70
     1
  9
$MAXACTVP
 70
    64
  9
$PINSBASE
 10
0.0
 20
0.0
 30
0.0
  9
$PLIMCHECK
 70
     0
  9
$PEXTMIN
 10
1.0000000000E+20
 20
1.0000000000E+20
 30
1.0000000000E+20
  9
$PEXTMAX
 10
-1.0000000000E+20
 20
-1.0000000000E+20
 30
-1.0000000000E+20
  9
$PLIMMIN
 10
0.0
 20
0.0
  9
$PLIMMAX
 10
420.0
 20
297.0
  9
$UNITMODE
 70
     0
  9
$VISRETAIN
 70
     1
  9
$PLINEGEN
 70
     0
  9
$PSLTSCALE
 70
     1
  9
$TREEDEPTH
 70
  3020
  9
$CMLSTYLE
  2
Standard
  9
$CMLJUST
 70
     0
  9
$CMLSCALE
 40
20.0
  9
$PROXYGRAPHICS
 70
     1
  9
$MEASUREMENT
 70
     1
  9
$CELWEIGHT
370
    -1
  9
$ENDCAPS
280
     0
  9
$JOINSTYLE
280
     0
  9
$LWDISPLAY
290
     1
  9
$INSUNITS
 70
     4
  9
$HYPERLINKBASE
  1

  9
$STYLESHEET
  1

  9
$XEDIT
290
     1
  9
$CEPSNTYPE
380
     0
  9
$PSTYLEMODE
290
     1
  9
$FINGERPRINTGUID
  2
{BA22468B-8766-48AA-9F1F-32774C876BAB}
  9
$VERSIONGUID
  2
{FAEB1C32-E019-11D5-929B-00C0DF256EC4}
  9
$EXTNAMES
290
     1
  9
$PSVPSCALE
 40
0.0
  9
$OLESTARTUP
290
     0
  9
$SORTENTS
280
   127
  9
$INDEXCTL
280
     0
  9
$HIDETEXT
280
     1
  9
$XCLIPFRAME
280
     2
  9
$HALOGAP
280
     0
  9
$OBSCOLOR
 70
   257
  9
$OBSLTYPE
280
     0
  9
$INTERSECTIONDISPLAY
280
     0
  9
$INTERSECTIONCOLOR
 70
   257
  9
$DIMASSOC
280
     2
  9
$PROJECTNAME
  1

  9
$CAMERADISPLAY
290
     0
  9
$LENSLENGTH
 40
50.0
  9
$CAMERAHEIGHT
 40
0.0
  9
$STEPSPERSEC
 40
2.0
  9
$STEPSIZE
 40
6.0
  9
$3DDWFPREC
 40
2.0
  9
$PSOLWIDTH
 40
5.0
  9
$PSOLHEIGHT
 40
80.0
  9
$LOFTANG1
 40
1.5707963268
  9
$LOFTANG2
 40
1.5707963268
  9
$LOFTMAG1
 40
0.0
  9
$LOFTMAG2
 40
0.0
  9
$LOFTPARAM
 70
     7
  9
$LOFTNORMALS
280
     1
  9
$LATITUDE
 40
37.795
  9
$LONGITUDE
 40
-122.394
  9
$NORTHDIRECTION
 40
0.0
  9
$TIMEZONE
 70
 -8000
  9
$LIGHTGLYPHDISPLAY
280
     1
  9
$TILEMODELIGHTSYNCH
280
     1
  9
$SOLIDHIST
280
     1
  9
$SHOWHIST
280
     1
  9
$DWFFRAME
280
     2
  9
$DGNFRAME
280
     2
  9
$REALWORLDSCALE
290
     1
  9
$INTERFERECOLOR
 62
   256
  9
$CSHADOW
280
     0
  9
$SHADOWPLANELOCATION
 40
0.0
  0
ENDSEC
  0
SECTION
  2
CLASSES
  0
CLASS
  1
ACDBDICTIONARYWDFLT
  2
AcDbDictionaryWithDefault
  3
ObjectDBX Classes
 90
        0
 91
        4
280
     0
281
     0
  0
CLASS
  1
VISUALSTYLE
  2
AcDbVisualStyle
  3
ObjectDBX Classes
 90
     4095
 91
        4
280
     0
281
     0
  0
CLASS
  1
MATERIAL
  2
AcDbMaterial
  3
ObjectDBX Classes
 90
     1153
 91
        4
280
     0
281
     0
  0
ENDSEC
  0
SECTION
  2
TABLES
  0
TABLE
  2
VPORT
  5
8
330
0
100
AcDbSymbolTable
 70
     1
  0
VPORT
  5
29
330
8
100
AcDbSymbolTableRecord
100
AcDbViewportTableRecord
  2
*Active
 70
     0
 10
0.0
 20
0.0
 11
1.0
 21
1.0
 12
297.0
 22
420.5
 13
0.0
 23
0.0
 14
10.0
 24
10.0
 15
10.0
 25
10.0
 16
0.0
 26
0.0
 36
1.0
 17
0.0
 27
0.0
 37
0.0
 40
841.0
 41
0.7063020214
 42
50.0
 43
0.0
 44
0.0
 50
0.0
 51
0.0
 71
     0
 72
  2000
 73
     1
 74
     3
 75
     0
 76
     0
 77
     0
 78
     0
281
     0
 65
     1
110
0.0
120
0.0
130
0.0
111
1.0
121
0.0
131
0.0
112
0.0
122
1.0
132
0.0
 79
     0
146
0.0
 60
     3
 61
     5
292
     1
282
     1
141
0.0
142
0.0
 63
   250
  0
ENDTAB
  0
TABLE
  2
LTYPE
  5
5
330
0
100
AcDbSymbolTable
 70
     6
  0
LTYPE
  5
14
330
5
100
AcDbSymbolTableRecord
100
AcDbLinetypeTableRecord
  2
ByBlock
 70
     0
  3

 72
    65
 73
     0
 40
0.0
  0
LTYPE
  5
15
330
5
100
AcDbSymbolTableRecord
100
AcDbLinetypeTableRecord
  2
ByLayer
 70
     0
  3

 72
    65
 73
     0
 40
0.0
  0
LTYPE
  5
16
330
5
100
AcDbSymbolTableRecord
100
AcDbLinetypeTableRecord
  2
Continuous
 70
     0
  3
Solid line
 72
    65
 73
     0
 40
0.0
  0
LTYPE
  5
3F
330
5
100
AcDbSymbolTableRecord
100
AcDbLinetypeTableRecord
  2
HIDDEN
 70
     0
  3
Hidden __ __ __ __ __ __ __ __ __ __ __ __ __ __
 72
    65
 73
     2
 40
1.905
 49
1.27
 74
     0
 49
-0.635
 74
     0
  0
LTYPE
  5
40
330
5
100
AcDbSymbolTableRecord
100
AcDbLinetypeTableRecord
  2
PHANTOM
 70
     0
  3
Phantom ______  __  __  ______  __  __  ______
 72
    65
 73
     6
 40
12.7
 49
6.35
 74
     0
 49
-1.27
 74
     0
 49
1.27
 74
     0
 49
-1.27
 74
     0
 49
1.27
 74
     0
 49
-1.27
 74
     0
  0
LTYPE
  5
41
330
5
100
AcDbSymbolTableRecord
100
AcDbLinetypeTableRecord
  2
CENTER
 70
     0
  3
Center ____ _ ____ _ ____ _ ____ _ ____ _ ____
 72
    65
 73
     4
 40
10.16
 49
6.35
 74
     0
 49
-1.27
 74
     0
 49
1.27
 74
     0
 49
-1.27
 74
     0
  0
LTYPE
  5
42
330
5
100
AcDbSymbolTableRecord
100
AcDbLinetypeTableRecord
  2
CENTERX2
 70
     0
  3
Center (2x) ________  __  ________  __  _____
 72
    65
 73
     4
 40
20.32
 49
12.7
 74
     0
 49
-2.54
 74
     0
 49
2.54
 74
     0
 49
-2.54
 74
     0
  0
LTYPE
  5
43
330
5
100
AcDbSymbolTableRecord
100
AcDbLinetypeTableRecord
  2
DOT2
 70
     0
  3
Dot (.5x) ........................................
 72
    65
 73
     2
 40
0.635
 49
0.0
 74
     0
 49
-0.635
 74
     0
  0
ENDTAB
  0
TABLE
  2
LAYER
  5
2
330
0
100
AcDbSymbolTable
 70
     1
  0
LAYER
  5
10
330
2
100
AcDbSymbolTableRecord
100
AcDbLayerTableRecord
  2
0
 70
     0
 62
     7
  6
Continuous
370
    -3
390
F
347
3E
  0
ENDTAB
  0
TABLE
  2
STYLE
  5
3
330
0
100
AcDbSymbolTable
 70
     3
  0
STYLE
  5
11
330
3
100
AcDbSymbolTableRecord
100
AcDbTextStyleTableRecord
  2
Standard
 70
     0
 40
0.0
 41
1.0
 50
0.0
 71
     0
 42
10.0
  3
txt
  4

  0
STYLE
  5
47
330
3
100
AcDbSymbolTableRecord
100
AcDbTextStyleTableRecord
  2
SLDTEXTSTYLE0
 70
     0
 40
0.0
 41
0.96
 50
0.0
 71
     0
 42
0.2
  3
ISOCP3
  4

  0
STYLE
  5
5E
330
3
100
AcDbSymbolTableRecord
100
AcDbTextStyleTableRecord
  2
SLDTEXTSTYLE1
 70
     0
 40
0.0
 41
0.605
 50
0.0
 71
     0
 42
0.2
  3
TXT
  4

  0
ENDTAB
  0
TABLE
  2
VIEW
  5
6
330
0
100
AcDbSymbolTable
 70
     0
  0
ENDTAB
  0
TABLE
  2
UCS
  5
7
330
0
100
AcDbSymbolTable
 70
     0
  0
ENDTAB
  0
TABLE
  2
APPID
  5
9
330
0
100
AcDbSymbolTable
 70
     1
  0
APPID
  5
12
330
9
100
AcDbSymbolTableRecord
100
AcDbRegAppTableRecord
  2
ACAD
 70
     0
  0
ENDTAB
  0
TABLE
  2
DIMSTYLE
  5
A
330
0
100
AcDbSymbolTable
 70
     2
100
AcDbDimStyleTable
  0
DIMSTYLE
105
27
330
A
100
AcDbSymbolTableRecord
100
AcDbDimStyleTableRecord
  2
ISO-25
 70
     0
 41
2.5
 42
0.625
 43
3.75
 44
1.25
 73
     0
 74
     0
 77
     1
 78
     8
140
2.5
141
2.5
143
0.0393700787
147
0.625
171
     3
172
     1
178
     0
271
     2
272
     2
274
     3
278
    44
283
     0
284
     8
340
11
  0
DIMSTYLE
105
48
102
{ACAD_REACTORS
330
46
330
53
102
}
330
A
100
AcDbSymbolTableRecord
100
AcDbDimStyleTableRecord
  2
SLDDIMSTYLE0
 70
     0
 41
2.5
 44
0.0
 45
0.000000001
 73
     0
 74
     0
 77
     1
 78
    12
 79
     3
140
6.0
147
1.5
173
     1
178
     0
271
     2
272
     2
276
     2
284
    12
340
47
  0
ENDTAB
  0
TABLE
  2
BLOCK_RECORD
  5
1
330
0
100
AcDbSymbolTable
 70
     3
  0
BLOCK_RECORD
  5
1F
330
1
100
AcDbSymbolTableRecord
100
AcDbBlockTableRecord
  2
*Model_Space
340
22
 70
     0
280
     1
281
     0
  0
BLOCK_RECORD
  5
1B
330
1
100
AcDbSymbolTableRecord
100
AcDbBlockTableRecord
  2
*Paper_Space
340
1E
 70
     0
280
     1
281
     0
  0
BLOCK_RECORD
  5
23
330
1
100
AcDbSymbolTableRecord
100
AcDbBlockTableRecord
  2
*Paper_Space0
340
26
 70
     0
280
     1
281
     0
  0
BLOCK_RECORD
  5
49
330
1
100
AcDbSymbolTableRecord
100
AcDbBlockTableRecord
  2
_D
340
0
 70
     0
280
     1
281
     0
  0
BLOCK_RECORD
  5
54
330
1
100
AcDbSymbolTableRecord
100
AcDbBlockTableRecord
  2
_D_1
340
0
 70
     0
280
     1
281
     0
  0
ENDTAB
  0
ENDSEC
  0
SECTION
  2
BLOCKS
  0
BLOCK
  5
20
330
1F
100
AcDbEntity
  8
0
100
AcDbBlockBegin
  2
*Model_Space
 70
     0
 10
0.0
 20
0.0
 30
0.0
  3
*Model_Space
  1

  0
ENDBLK
  5
21
330
1F
100
AcDbEntity
  8
0
100
AcDbBlockEnd
  0
BLOCK
  5
1C
330
1B
100
AcDbEntity
 67
     1
  8
0
100
AcDbBlockBegin
  2
*Paper_Space
 70
     0
 10
0.0
 20
0.0
 30
0.0
  3
*Paper_Space
  1

  0
ENDBLK
  5
1D
330
1B
100
AcDbEntity
 67
     1
  8
0
100
AcDbBlockEnd
  0
BLOCK
  5
24
330
23
100
AcDbEntity
  8
0
100
AcDbBlockBegin
  2
*Paper_Space0
 70
     0
 10
0.0
 20
0.0
 30
0.0
  3
*Paper_Space0
  1

  0
ENDBLK
  5
25
330
23
100
AcDbEntity
  8
0
100
AcDbBlockEnd
  0
BLOCK
  5
4A
330
49
100
AcDbEntity
  8
0
100
AcDbBlockBegin
  2
_D
 70
     0
 10
0.0
 20
0.0
 30
0.0
  3
_D
  1

  0
SOLID
  5
4C
330
49
100
AcDbEntity
  8
0
  6
Continuous
 62
     7
370
     0
100
AcDbTrace
 10
42.7614395004
 20
152.0299240879
 30
0.0
 11
42.4614395004
 21
149.5299240879
 31
0.0
 12
43.0614395004
 22
149.5299240879
 32
0.0
 13
43.0614395004
 23
149.5299240879
 33
0.0
  0
SOLID
  5
4D
330
49
100
AcDbEntity
  8
0
  6
Continuous
 62
     7
370
     0
100
AcDbTrace
 10
42.7614395004
 20
52.0299240879
 30
0.0
 11
43.0614395004
 21
54.5299240879
 31
0.0
 12
42.4614395004
 22
54.5299240879
 32
0.0
 13
42.4614395004
 23
54.5299240879
 33
0.0
  0
LINE
  5
4E
330
49
100
AcDbEntity
  8
0
  6
Continuous
 62
     7
370
     0
100
AcDbLine
 10
56.6850079902
 20
152.0299240879
 30
0.0
 11
41.7614395004
 21
152.0299240879
 31
0.0
  0
LINE
  5
4F
330
49
100
AcDbEntity
  8
0
  6
Continuous
 62
     7
370
     0
100
AcDbLine
 10
56.6850079902
 20
52.0299240879
 30
0.0
 11
41.7614395004
 21
52.0299240879
 31
0.0
  0
LINE
  5
50
330
49
100
AcDbEntity
  8
0
  6
Continuous
 62
     7
370
     0
100
AcDbLine
 10
42.7614395004
 20
152.0299240879
 30
0.0
 11
42.7614395004
 21
52.0299240879
 31
0.0
  0
MTEXT
  5
51
330
49
100
AcDbEntity
  8
0
  6
Continuous
 62
     7
370
     0
100
AcDbMText
 10
35.0270332946
 20
91.6722208134
 30
0.1
 40
6.0
 41
0.0
 46
0.0
 71
     1
 72
     1
  1
100
  7
SLDTEXTSTYLE0
 11
-7.044195017643634E-15
 21
1.0
 31
0.0
 73
     1
 44
1.0
  0
MTEXT
  5
52
330
49
100
AcDbEntity
  8
0
  6
Continuous
 62
     7
370
     0
100
AcDbMText
 10
35.0270332946
 20
108.4388881795
 30
0.1
 40
6.0
 41
0.0
 46
0.0
 71
     1
 72
     1
  1
mm
  7
SLDTEXTSTYLE0
 11
-7.044195017643634E-15
 21
1.0
 31
0.0
 73
     1
 44
1.0
  0
ENDBLK
  5
4B
330
49
100
AcDbEntity
  8
0
100
AcDbBlockEnd
  0
BLOCK
  5
55
330
54
100
AcDbEntity
  8
0
100
AcDbBlockBegin
  2
_D_1
 70
     0
 10
0.0
 20
0.0
 30
0.0
  3
_D_1
  1

  0
SOLID
  5
57
330
54
100
AcDbEntity
  8
0
  6
Continuous
 62
     7
370
     0
100
AcDbTrace
 10
56.6850079902
 20
38.4602342313
 30
0.0
 11
59.1850079902
 21
38.1602342313
 31
0.0
 12
59.1850079902
 22
38.7602342313
 32
0.0
 13
59.1850079902
 23
38.7602342313
 33
0.0
  0
SOLID
  5
58
330
54
100
AcDbEntity
  8
0
  6
Continuous
 62
     7
370
     0
100
AcDbTrace
 10
156.6850079902
 20
38.4602342313
 30
0.0
 11
154.1850079902
 21
38.7602342313
 31
0.0
 12
154.1850079902
 22
38.1602342313
 32
0.0
 13
154.1850079902
 23
38.1602342313
 33
0.0
  0
LINE
  5
59
330
54
100
AcDbEntity
  8
0
  6
Continuous
 62
     7
370
     0
100
AcDbLine
 10
56.6850079902
 20
52.0299240879
 30
0.0
 11
56.6850079902
 21
37.4602342313
 31
0.0
  0
LINE
  5
5A
330
54
100
AcDbEntity
  8
0
  6
Continuous
 62
     7
370
     0
100
AcDbLine
 10
156.6850079902
 20
52.0299240879
 30
0.0
 11
156.6850079902
 21
37.4602342313
 31
0.0
  0
LINE
  5
5B
330
54
100
AcDbEntity
  8
0
  6
Continuous
 62
     7
370
     0
100
AcDbLine
 10
56.6850079902
 20
38.4602342313
 30
0.0
 11
156.6850079902
 21
38.4602342313
 31
0.0
  0
MTEXT
  5
5C
330
54
100
AcDbEntity
  8
0
  6
Continuous
 62
     7
370
     0
100
AcDbMText
 10
91.2668151533
 20
46.1946404371
 30
0.1
 40
6.0
 41
0.0
 46
0.0
 71
     1
 72
     1
  1
100
  7
SLDTEXTSTYLE0
 73
     1
 44
1.0
  0
MTEXT
  5
5D
330
54
100
AcDbEntity
  8
0
  6
Continuous
 62
     7
370
     0
100
AcDbMText
 10
108.0334825193
 20
46.1946404371
 30
0.1
 40
6.0
 41
0.0
 46
0.0
 71
     1
 72
     1
  1
mm
  7
SLDTEXTSTYLE0
 73
     1
 44
1.0
  0
ENDBLK
  5
56
330
54
100
AcDbEntity
  8
0
100
AcDbBlockEnd
  0
ENDSEC
  0
SECTION
  2
ENTITIES
  0
LINE
  5
44
330
1F
100
AcDbEntity
  8
0
  6
Continuous
 62
     7
370
     0
100
AcDbLine
 10
56.6850079902
 20
152.0299240879
 30
0.0
 11
56.6850079902
 21
52.0299240879
 31
0.0
  0
LINE
  5
45
330
1F
100
AcDbEntity
  8
0
  6
Continuous
 62
     7
370
     0
100
AcDbLine
 10
56.6850079902
 20
52.0299240879
 30
0.0
 11
156.6850079902
 21
52.0299240879
 31
0.0
  0
DIMENSION
  5
46
330
1F
100
AcDbEntity
  8
0
  6
Continuous
 62
     7
370
     0
100
AcDbDimension
280
     0
  2
_D
 10
42.7614395004
 20
52.0299240879
 30
0.0
 11
42.7614395004
 21
105.4472211621
 31
0.0
 70
   160
  1
<>mm
 71
     2
 42
-1.0
 73
     0
 74
     0
 75
     0
  3
SLDDIMSTYLE0
100
AcDbAlignedDimension
 13
56.6850079902
 23
152.0299240879
 33
0.0
 14
56.6850079902
 24
52.0299240879
 34
0.0
 50
90.0
100
AcDbRotatedDimension
  0
DIMENSION
  5
53
330
1F
100
AcDbEntity
  8
0
  6
Continuous
 62
     7
370
     0
100
AcDbDimension
280
     0
  2
_D_1
 10
156.6850079902
 20
38.4602342313
 30
0.0
 11
105.0418155019
 21
38.4602342313
 31
0.0
 70
   160
  1
<>mm
 71
     2
 42
-1.0
 73
     0
 74
     0
 75
     0
  3
SLDDIMSTYLE0
100
AcDbAlignedDimension
 13
56.6850079902
 23
52.0299240879
 33
0.0
 14
156.6850079902
 24
52.0299240879
 34
0.0
100
AcDbRotatedDimension
  0
MTEXT
  5
5F
330
1F
100
AcDbEntity
  8
0
  6
Continuous
 62
     7
370
     0
100
AcDbMText
 10
264.1454981968
 20
47.384395364
 30
0.0
 40
10.0
 41
0.0
 46
0.0
 71
     1
 72
     1
  1
38 251 05 75
  7
SLDTEXTSTYLE1
 73
     1
 44
1.0
  0
MTEXT
  5
60
330
1F
100
AcDbEntity
  8
0
  6
Continuous
 62
     7
370
     0
100
AcDbMText
 10
412.8252631579
 20
48.4342449499
 30
0.0
 40
10.0
 41
0.0
 46
0.0
 71
     1
 72
     1
  1
KLUDI GmbH & Co KG
  7
SLDTEXTSTYLE1
 73
     1
 44
1.0
  0
LINE
  5
61
330
1F
100
AcDbEntity
  8
0
  6
Continuous
 62
     7
370
    15
100
AcDbLine
 10
142.5603632735
 20
345.0092086544
 30
0.0
 11
142.5603632735
 21
346.2196895828
 31
0.0
  0
LINE
  5
62
330
1F
100
AcDbEntity
  8
0
  6
Continuous
 62
     7
370
    15
100
AcDbLine
 10
118.5603630649
 20
346.2196895828
 30
0.0
 11
118.5603630649
 21
345.0092086544
 31
0.0
  0
LINE
  5
63
330
1F
100
AcDbEntity
  8
0
  6
Continuous
 62
     7
370
    15
100
AcDbLine
 10
119.5603632288
 20
340.858961453
 30
0.0
 11
119.8912435131
 21
340.6754778673
 31
0.0
  0
LINE
  5
64
330
1F
100
AcDbEntity
  8
0
  6
Continuous
 62
     7
370
    15
100
AcDbLine
 10
141.2294828253
 20
340.6754778673
 30
0.0
 11
141.5603631096
 21
340.858961453
 31
0.0
  0
SPLINE
  5
65
330
1F
100
AcDbEntity
  8
0
  6
Continuous
 62
     7
370
    15
100
AcDbSpline
210
0.0
220
0.0
230
1.0
 70
     8
 71
     3
 72
     9
 73
     5
 74
     0
 42
0.00000001
 43
0.00000001
 12
1.0
 22
0.0
 32
0.0
 13
1.0
 23
0.0
 33
0.0
 40
0.0
 40
0.0
 40
0.0
 40
0.0
 40
0.3444572784196212
 40
1.0
 40
1.0
 40
1.0
 40
1.0
 10
118.1075856940471
 20
345.6648671974814
 30
0.0
 10
118.0556749096054
 20
345.6647767729228
 30
0.0
 10
117.9049717957682
 20
345.6645142597918
 30
0.0
 10
117.7673246993563
 20
345.663963504831
 30
0.0
 10
117.6770911471568
 20
345.6636024614251
 30
0.0
  0
LINE
  5
66
330
1F
100
AcDbEntity
  8
0
  6
Continuous
 62
     7
370
    15
100
AcDbLine
 10
142.695243928
 20
345.6656960746
 30
0.0
 11
142.5603632735
 21
345.665977334
 31
0.0
  0
LINE
  5
67
330
1F
100
AcDbEntity
  8
0
  6
Continuous
 62
     7
370
    15
100
AcDbLine
 10
118.5603630649
 20
345.6657668551
 30
0.0
 11
118.107585694
 21
345.6648671975
 31
0.0
  0
SPLINE
  5
68
330
1F
100
AcDbEntity
  8
0
  6
Continuous
 62
     7
370
    15
100
AcDbSpline
210
0.0
220
0.0
230
1.0
 70
     8
 71
     3
 72
    13
 73
     9
 74
     0
 42
0.00000001
 43
0.00000001
 12
1.0
 22
0.0
 32
0.0
 13
1.0
 23
0.0
 33
0.0
 40
0.0
 40
0.0
 40
0.0
 40
0.0
 40
0.1048876345559741
 40
0.2656082700229019
 40
0.4434384231092838
 40
0.6587097429378572
 40
0.8434585391847614
 40
1.0
 40
1.0
 40
1.0
 40
1.0
 10
121.8647607521735
 20
364.7644003188158
 30
0.0
 10
122.4340150929152
 20
364.7855660313215
 30
0.0
 10
123.8755449861909
 20
364.8391642300627
 30
0.0
 10
126.3268815217353
 20
364.9378841303035
 30
0.0
 10
129.3932763416205
 20
365.0071377283166
 30
0.0
 10
132.5982684344612
 20
364.9798688649724
 30
0.0
 10
135.6878203973512
 20
364.8841486949132
 30
0.0
 10
137.5567531055925
 20
364.8194431312266
 30
0.0
 10
138.4139866487704
 20
364.789764277955
 30
0.0
  0
LINE
  5
69
330
1F
100
AcDbEntity
  8
0
  6
Continuous
 62
     7
370
    15
100
AcDbLine
 10
127.5048248855
 20
389.8194553306
 30
0.0
 11
127.5048248855
 21
389.8162012895
 31
0.0
  0
LINE
  5
6A
330
1F
100
AcDbEntity
  8
0
  6
Continuous
 62
     7
370
    15
100
AcDbLine
 10
133.5048247048
 20
389.8162422677
 30
0.0
 11
133.5048247048
 21
389.8190362354
 31
0.0
  0
LINE
  5
6B
330
1F
100
AcDbEntity
  8
0
  6
Continuous
 62
     7
370
    15
100
AcDbLine
 10
107.5603631245
 20
411.6826681395
 30
0.0
 11
107.5603631245
 21
378.3981464778
 31
0.0
  0
LINE
  5
6C
330
1F
100
AcDbEntity
  8
0
  6
Continuous
 62
     7
370
    15
100
AcDbLine
 10
153.5603632139
 20
378.3985469466
 30
0.0
 11
153.5603632139
 21
411.6826681395
 31
0.0
  0
ARC
  5
6D
330
1F
100
AcDbEntity
  8
0
  6
Continuous
 62
     7
370
    15
100
AcDbCircle
 10
109.0603631692
 20
411.6826663633
 30
0.0
 40
1.5
100
AcDbArc
 50
90.0
 51
180.0
  0
ARC
  5
6E
330
1F
100
AcDbEntity
  8
0
  6
Continuous
 62
     7
370
    15
100
AcDbCircle
 10
152.0603631692
 20
411.6826663633
 30
0.0
 40
1.5
100
AcDbArc
 50
0.0
 51
90.0
  0
LINE
  5
6F
330
1F
100
AcDbEntity
  8
0
  6
Continuous
 62
     7
370
    15
100
AcDbLine
 10
108.0603622751
 20
369.9826663335
 30
0.0
 11
108.0603622751
 21
276.0326666733
 31
0.0
  0
LINE
  5
70
330
1F
100
AcDbEntity
  8
0
  6
Continuous
 62
     7
370
    15
100
AcDbLine
 10
153.0603640632
 20
276.0326666733
 30
0.0
 11
153.0603640632
 21
369.9826663335
 31
0.0
  0
ARC
  5
71
330
1F
100
AcDbEntity
  8
0
  6
Continuous
 62
     7
370
    15
100
AcDbCircle
 10
108.5603631692
 20
369.9826663633
 30
0.0
 40
0.5
100
AcDbArc
 50
90.0
 51
180.0
  0
ARC
  5
72
330
1F
100
AcDbEntity
  8
0
  6
Continuous
 62
     7
370
    15
100
AcDbCircle
 10
152.5603631692
 20
369.9826663633
 30
0.0
 40
0.5
100
AcDbArc
 50
0.0
 51
90.0
  0
LINE
  5
73
330
1F
100
AcDbEntity
  8
0
  6
Continuous
 62
     7
370
    15
100
AcDbLine
 10
108.5603632884
 20
372.4826667433
 30
0.0
 11
108.5603632884
 21
370.4826664155
 31
0.0
  0
LINE
  5
74
330
1F
100
AcDbEntity
  8
0
  6
Continuous
 62
     7
370
    15
100
AcDbLine
 10
152.56036305
 20
370.4826664155
 30
0.0
 11
152.56036305
 21
372.4826667433
 31
0.0
  0
ARC
  5
75
330
1F
100
AcDbEntity
  8
0
  6
Continuous
 62
     7
370
    15
100
AcDbCircle
 10
130.5603631692
 20
372.5561322684
 30
0.0
 40
22.0
100
AcDbArc
 50
165.181877441
 51
180.1889360974
  0
ARC
  5
76
330
1F
100
AcDbEntity
  8
0
  6
Continuous
 62
     7
370
    15
100
AcDbCircle
 10
130.5603631692
 20
372.5561322684
 30
0.0
 40
22.0
100
AcDbArc
 50
0.0
 51
14.818122559
  0
SPLINE
  5
77
330
1F
100
AcDbEntity
  8
0
  6
Continuous
 62
     7
370
    15
100
AcDbSpline
210
0.0
220
0.0
230
1.0
 70
     8
 71
     3
 72
    20
 73
    16
 74
     0
 42
0.00000001
 43
0.00000001
 12
1.0
 22
0.0
 32
0.0
 13
1.0
 23
0.0
 33
0.0
 40
0.0
 40
0.0
 40
0.0
 40
0.0
 40
0.0383910366772672
 40
0.0801478404013049
 40
0.1253352738310115
 40
0.1759497161318017
 40
0.250569798833026
 40
0.3747104671594644
 40
0.4996755245040609
 40
0.6242402322256178
 40
0.7494572001389809
 40
0.8139138452018221
 40
0.8749368453571515
 40
0.9382936823517128
 40
1.0
 40
1.0
 40
1.0
 40
1.0
 10
146.4305855462711
 20
364.4501001515593
 30
0.0
 10
146.4638917316963
 20
364.447770000508
 30
0.0
 10
146.5334240773915
 20
364.4429054125536
 30
0.0
 10
146.6411444874859
 20
364.4280244045255
 30
0.0
 10
146.7582522810729
 20
364.4053175732155
 30
0.0
 10
146.9011323941102
 20
364.367850419262
 30
0.0
 10
147.106099988758
 20
364.2953913157343
 30
0.0
 10
147.3607466636128
 20
364.1650925143369
 30
0.0
 10
147.6326292655057
 20
363.9611641571881
 30
0.0
 10
147.875291216595
 20
363.7007957570773
 30
0.0
 10
148.0441939462179
 20
363.4331426705309
 30
0.0
 10
148.149185735583
 20
363.1915555692304
 30
0.0
 10
148.21038779754
 20
362.9968082281366
 30
0.0
 10
148.2528144352252
 20
362.7948232756917
 30
0.0
 10
148.262599229229
 20
362.6544458646717
 30
0.0
 10
148.2674270588854
 20
362.5851834736838
 30
0.0
  0
SPLINE
  5
78
330
1F
100
AcDbEntity
  8
0
  6
Continuous
 62
     7
370
    15
100
AcDbSpline
210
0.0
220
0.0
230
1.0
 70
     8
 71
     3
 72
     9
 73
     5
 74
     0
 42
0.00000001
 43
0.00000001
 12
1.0
 22
0.0
 32
0.0
 13
1.0
 23
0.0
 33
0.0
 40
0.0
 40
0.0
 40
0.0
 40
0.0
 40
0.5221389861616995
 40
1.0
 40
1.0
 40
1.0
 40
1.0
 10
114.6901869134628
 20
364.4501016690608
 30
0.0
 10
115.8346206171914
 20
364.5106043934396
 30
0.0
 10
118.0264387615163
 20
364.6264791432329
 30
0.0
 10
120.5665227375194
 20
364.71244222987
 30
0.0
 10
121.7803298415266
 20
364.753520637603
 30
0.0
  0
SPLINE
  5
79
330
1F
100
AcDbEntity
  8
0
  6
Continuous
 62
     7
370
    15
100
AcDbSpline
210
0.0
220
0.0
230
1.0
 70
     8
 71
     3
 72
    10
 73
     6
 74
     0
 42
0.00000001
 43
0.00000001
 12
1.0
 22
0.0
 32
0.0
 13
1.0
 23
0.0
 33
0.0
 40
0.0
 40
0.0
 40
0.0
 40
0.0
 40
0.0590465399386636
 40
0.5277627867888971
 40
1.0
 40
1.0
 40
1.0
 40
1.0
 10
138.465505550953
 20
364.778083833951
 30
0.0
 10
138.639723215611
 20
364.7742955016664
 30
0.0
 10
140.1968949026099
 20
364.7404350789232
 30
0.0
 10
142.9576000388793
 20
364.6268081624409
 30
0.0
 10
145.2699987635069
 20
364.5091511357779
 30
0.0
 10
146.4305245237075
 20
364.450102491244
 30
0.0
  0
ELLIPSE
  5
7A
330
1F
100
AcDbEntity
  8
0
  6
Continuous
 62
     7
370
    15
100
AcDbEllipse
 10
130.5603631692
 20
346.2196897351
 30
0.0
 11
12.0
 21
0.0
 31
0.0
210
0.0
220
0.0
230
1.0
 40
0.0070431304
 41
1.570796326794897
 42
3.141592653589776
  0
ELLIPSE
  5
7B
330
1F
100
AcDbEntity
  8
0
  6
Continuous
 62
     7
370
    15
100
AcDbEllipse
 10
130.5603631692
 20
346.2196897351
 30
0.0
 11
12.0
 21
0.0
 31
0.0
210
0.0
220
0.0
230
1.0
 40
0.0070431304
 41
0.0
 42
1.570796326794918
  0
SPLINE
  5
7C
330
1F
100
AcDbEntity
  8
0
  6
Continuous
 62
     7
370
    15
100
AcDbSpline
210
0.0
220
0.0
230
1.0
 70
     8
 71
     3
 72
    19
 73
    15
 74
     0
 42
0.00000001
 43
0.00000001
 12
1.0
 22
0.0
 32
0.0
 13
1.0
 23
0.0
 33
0.0
 40
0.0
 40
0.0
 40
0.0
 40
0.0
 40
0.0690866189215184
 40
0.1400647265955104
 40
0.2132829310801038
 40
0.2890955027858997
 40
0.3679376509370094
 40
0.4504027003621369
 40
0.5102513913868316
 40
0.5205224434569395
 40
0.6108659585991998
 40
0.7074923073318318
 40
0.8438061495909591
 40
1.0
 40
1.0
 40
1.0
 40
1.0
 10
117.4788504553462
 20
345.6631729167376
 30
0.0
 10
117.4015395030758
 20
345.6629124129072
 30
0.0
 10
117.2448009397817
 20
345.6623842730397
 30
0.0
 10
117.0130811078672
 20
345.661461467993
 30
0.0
 10
116.7801422762332
 20
345.6604246018702
 30
0.0
 10
116.54644771099
 20
345.6592444443428
 30
0.0
 10
116.3118825163015
 20
345.6579147962344
 30
0.0
 10
116.1020254708286
 20
345.6566317046463
 30
0.0
 10
115.9628622078155
 20
345.6557381459641
 30
0.0
 10
115.8195519147814
 20
345.6547748591016
 30
0.0
 10
115.6487154687721
 20
345.6535361291768
 30
0.0
 10
115.3867357116057
 20
345.6511185808517
 30
0.0
 10
115.0960411193573
 20
345.6484451078164
 30
0.0
 10
114.9135891346736
 20
345.6461594191776
 30
0.0
 10
114.8161630542086
 20
345.644938902527
 30
0.0
  0
SPLINE
  5
7D
330
1F
100
AcDbEntity
  8
0
  6
Continuous
 62
     7
370
    15
100
AcDbSpline
210
0.0
220
0.0
230
1.0
 70
     8
 71
     3
 72
    21
 73
    17
 74
     0
 42
0.00000001
 43
0.00000001
 12
1.0
 22
0.0
 32
0.0
 13
1.0
 23
0.0
 33
0.0
 40
0.0
 40
0.0
 40
0.0
 40
0.0
 40
0.0641443200416448
 40
0.1260460135962008
 40
0.1848783913574813
 40
0.240901384015604
 40
0.2946269823785065
 40
0.3462092319141091
 40
0.3957846639601084
 40
0.5000444313541167
 40
0.5101828207628131
 40
0.5402142453504044
 40
0.6641820451340316
 40
0.7804998650454713
 40
0.8926798069691756
 40
1.0
 40
1.0
 40
1.0
 40
1.0
 10
146.3045717960173
 20
345.6449290608385
 30
0.0
 10
146.2657110194471
 20
345.645494397415
 30
0.0
 10
146.1893481245137
 20
345.6466053051579
 30
0.0
 10
146.067579207435
 20
345.6478156760422
 30
0.0
 10
145.9446963856766
 20
345.6491487144568
 30
0.0
 10
145.8211111004073
 20
345.6504188041303
 30
0.0
 10
145.6973205982237
 20
345.6514962622049
 30
0.0
 10
145.5734643934484
 20
345.6526000485981
 30
0.0
 10
145.4030320165994
 20
345.6540067466651
 30
0.0
 10
145.2596945870643
 20
345.6550514948029
 30
0.0
 10
145.1291223459096
 20
345.6559304976738
 30
0.0
 10
144.9789597888652
 20
345.6569145808102
 30
0.0
 10
144.7205942543094
 20
345.6584598634892
 30
0.0
 10
144.3630066594642
 20
345.6603132491077
 30
0.0
 10
144.0063839357059
 20
345.6619220140983
 30
0.0
 10
143.7615838469438
 20
345.6627749200073
 30
0.0
 10
143.6418937484145
 20
345.6631919312624
 30
0.0
  0
LWPOLYLINE
  5
7E
330
1F
100
AcDbEntity
  8
0
  6
Continuous
 62
     7
370
    15
100
AcDbPolyline
 90
       24
 70
   128
 43
0.0
 10
141.5603631096
 20
341.0481354197
 10
141.4579083131
 20
341.2565933516
 10
141.1524531351
 20
341.461169531
 10
140.6496870251
 20
341.6580492606
 10
139.9589762943
 20
341.8435687174
 10
139.0931871639
 20
342.0142708321
 10
138.0684478128
 20
342.1669760694
 10
136.9038466284
 20
342.2988383075
 10
135.62107877
 20
342.40740258
 10
134.2440389482
 20
342.490647917
 10
132.7983792791
 20
342.5470190098
 10
131.3110297116
 20
342.5754709145
 10
129.8096966267
 20
342.5754709145
 10
128.3223470593
 20
342.5470190098
 10
126.8766873901
 20
342.490647917
 10
125.4996475683
 20
342.40740258
 10
124.21687971
 20
342.2988383075
 10
123.0522785255
 20
342.1669760694
 10
122.0275391744
 20
342.0142708321
 10
121.1617500441
 20
341.8435687174
 10
120.4710393132
 20
341.6580492606
 10
119.9682732032
 20
341.461169531
 10
119.6628180252
 20
341.2565933516
 10
119.5603632288
 20
341.0481354197
  0
SPLINE
  5
7F
330
1F
100
AcDbEntity
  8
0
  6
Continuous
 62
     7
370
    15
100
AcDbSpline
210
0.0
220
0.0
230
1.0
 70
    24
 71
     3
 72
     8
 73
     4
 74
     0
 42
0.00000001
 43
0.00000001
 12
1.0
 22
0.0
 32
0.0
 13
1.0
 23
0.0
 33
0.0
 40
0.0
 40
0.0
 40
0.0
 40
0.0
 40
1.0
 40
1.0
 40
1.0
 40
1.0
 10
119.5603631691656
 20
342.2873183299128
 30
0.0
 10
119.5603631691656
 20
341.7061151480644
 30
0.0
 10
119.5603631691656
 20
341.2733903685915
 30
0.0
 10
119.5603631691656
 20
341.0481360490732
 30
0.0
  0
ARC
  5
80
330
1F
100
AcDbEntity
  8
0
  6
Continuous
 62
     7
370
    15
100
AcDbCircle
 10
130.5603631692
 20
287.6268029109
 30
0.0
 40
55.75636189527988
100
AcDbArc
 50
78.6216508574
 51
101.3783491426
  0
SPLINE
  5
81
330
1F
100
AcDbEntity
  8
0
  6
Continuous
 62
     7
370
    15
100
AcDbSpline
210
0.0
220
0.0
230
1.0
 70
    24
 71
     3
 72
     8
 73
     4
 74
     0
 42
0.00000001
 43
0.00000001
 12
1.0
 22
0.0
 32
0.0
 13
1.0
 23
0.0
 33
0.0
 40
0.0
 40
0.0
 40
0.0
 40
0.0
 40
1.0
 40
1.0
 40
1.0
 40
1.0
 10
141.5603631691656
 20
342.2873183299127
 30
0.0
 10
141.5603631691656
 20
341.7061151480645
 30
0.0
 10
141.5603631691656
 20
341.2733903685917
 30
0.0
 10
141.5603631691656
 20
341.0481360490733
 30
0.0
  0
LWPOLYLINE
  5
82
330
1F
100
AcDbEntity
  8
0
  6
Continuous
 62
     7
370
    15
100
AcDbPolyline
 90
        9
 70
   128
 43
0.0
 10
141.5603631096
 20
345.6766596039
 10
141.9943780558
 20
345.5160604765
 10
142.3077029096
 20
345.3501118322
 10
142.4970314758
 20
345.1805645575
 10
142.5603632735
 20
345.0092086544
 10
142.4970314758
 20
344.8378527512
 10
142.3077029096
 20
344.6683054765
 10
141.9943780558
 20
344.5023568322
 10
141.5603631096
 20
344.3417577048
  0
LINE
  5
83
330
1F
100
AcDbEntity
  8
0
  6
Continuous
 62
     7
370
    15
100
AcDbLine
 10
141.5603631096
 20
345.6766596039
 30
0.0
 11
141.5603631096
 21
342.2873178472
 31
0.0
  0
LINE
  5
84
330
1F
100
AcDbEntity
  8
0
  6
Continuous
 62
     7
370
    15
100
AcDbLine
 10
119.5603632288
 20
345.6766596039
 30
0.0
 11
119.5603632288
 21
342.2873178472
 31
0.0
  0
LWPOLYLINE
  5
85
330
1F
100
AcDbEntity
  8
0
  6
Continuous
 62
     7
370
    15
100
AcDbPolyline
 90
        9
 70
   128
 43
0.0
 10
119.5603632288
 20
344.3417577048
 10
119.1263482825
 20
344.5023568322
 10
118.8130234288
 20
344.6683054765
 10
118.6236948626
 20
344.8378527512
 10
118.5603630649
 20
345.0092086544
 10
118.6236948626
 20
345.1805645575
 10
118.8130234288
 20
345.3501118322
 10
119.1263482825
 20
345.5160604765
 10
119.5603632288
 20
345.6766596039
  0
LWPOLYLINE
  5
86
330
1F
100
AcDbEntity
  8
0
  6
Continuous
 62
     7
370
    15
100
AcDbPolyline
 90
       24
 70
   128
 43
0.0
 10
119.5603632288
 20
341.0481354197
 10
119.6628180252
 20
340.8396774878
 10
119.9682732032
 20
340.6351031711
 10
120.4710393132
 20
340.4382215788
 10
121.1617500441
 20
340.2527021219
 10
122.0275391744
 20
340.0820000072
 10
123.0522785255
 20
339.9292966326
 10
124.21687971
 20
339.7974343946
 10
125.4996475683
 20
339.6888682594
 10
126.8766873901
 20
339.605624785
 10
128.3223470593
 20
339.5492518296
 10
129.8096966267
 20
339.5207999249
 10
131.3110297116
 20
339.5207999249
 10
132.7983792791
 20
339.5492518296
 10
134.2440389482
 20
339.605624785
 10
135.62107877
 20
339.6888682594
 10
136.9038466284
 20
339.7974343946
 10
138.0684478128
 20
339.9292966326
 10
139.0931871639
 20
340.0820000072
 10
139.9589762943
 20
340.2527021219
 10
140.6496870251
 20
340.4382215788
 10
141.1524531351
 20
340.6351031711
 10
141.4579083131
 20
340.8396774878
 10
141.5603631096
 20
341.0481354197
  0
LINE
  5
87
330
1F
100
AcDbEntity
  8
0
  6
Continuous
 62
     7
370
    15
100
AcDbLine
 10
125.5603632809
 20
408.1826647719
 30
0.0
 11
135.5603630574
 21
408.1826647719
 31
0.0
  0
LINE
  5
88
330
1F
100
AcDbEntity
  8
0
  6
Continuous
 62
     7
370
    15
100
AcDbLine
 10
121.5603635566
 20
408.1826647719
 30
0.0
 11
125.5603632809
 21
408.1826647719
 31
0.0
  0
ARC
  5
89
330
1F
100
AcDbEntity
  8
0
  6
Continuous
 62
     7
370
    15
100
AcDbCircle
 10
121.5603631692
 20
407.1826663633
 30
0.0
 40
1.0
100
AcDbArc
 50
90.0
 51
180.0
  0
LINE
  5
8A
330
1F
100
AcDbEntity
  8
0
  6
Continuous
 62
     7
370
    15
100
AcDbLine
 10
135.5603630574
 20
402.1826675137
 30
0.0
 11
125.5603632809
 21
402.1826675137
 31
0.0
  0
LINE
  5
8B
330
1F
100
AcDbEntity
  8
0
  6
Continuous
 62
     7
370
    15
100
AcDbLine
 10
125.5603632809
 20
402.1826675137
 30
0.0
 11
121.5603635566
 21
402.1826675137
 31
0.0
  0
ARC
  5
8C
330
1F
100
AcDbEntity
  8
0
  6
Continuous
 62
     7
370
    15
100
AcDbCircle
 10
121.5603631692
 20
403.1826663633
 30
0.0
 40
1.0
100
AcDbArc
 50
180.0
 51
270.0
  0
LINE
  5
8D
330
1F
100
AcDbEntity
  8
0
  6
Continuous
 62
     7
370
    15
100
AcDbLine
 10
120.5603633927
 20
403.182665815
 30
0.0
 11
120.5603633927
 21
407.1826664706
 31
0.0
  0
LINE
  5
8E
330
1F
100
AcDbEntity
  8
0
  6
Continuous
 62
     7
370
    15
100
AcDbLine
 10
135.5603630574
 20
408.1826647719
 30
0.0
 11
139.5603627817
 21
408.1826647719
 31
0.0
  0
ARC
  5
8F
330
1F
100
AcDbEntity
  8
0
  6
Continuous
 62
     7
370
    15
100
AcDbCircle
 10
139.5603631692
 20
407.1826663633
 30
0.0
 40
1.0
100
AcDbArc
 50
0.0
 51
90.0
  0
LINE
  5
90
330
1F
100
AcDbEntity
  8
0
  6
Continuous
 62
     7
370
    15
100
AcDbLine
 10
140.5603629456
 20
407.1826664706
 30
0.0
 11
140.5603629456
 21
403.182665815
 31
0.0
  0
ARC
  5
91
330
1F
100
AcDbEntity
  8
0
  6
Continuous
 62
     7
370
    15
100
AcDbCircle
 10
139.5603631692
 20
403.1826663633
 30
0.0
 40
1.0
100
AcDbArc
 50
270.0
 51
0.0
  0
LINE
  5
92
330
1F
100
AcDbEntity
  8
0
  6
Continuous
 62
     7
370
    15
100
AcDbLine
 10
139.5603627817
 20
402.1826675137
 30
0.0
 11
135.5603630574
 21
402.1826675137
 31
0.0
  0
ARC
  5
93
330
1F
100
AcDbEntity
  8
0
  6
Continuous
 62
     7
370
    15
100
AcDbCircle
 10
130.5048495374
 20
389.8190352761
 30
0.0
 40
2.999970904863039
100
AcDbArc
 50
277.4218514855
 51
82.0981445641
  0
SPLINE
  5
94
330
1F
100
AcDbEntity
  8
0
  6
Continuous
 62
     7
370
    15
100
AcDbSpline
210
0.0
220
0.0
230
1.0
 70
     8
 71
     3
 72
    12
 73
     8
 74
     0
 42
0.00000001
 43
0.00000001
 12
1.0
 22
0.0
 32
0.0
 13
1.0
 23
0.0
 33
0.0
 40
0.0
 40
0.0
 40
0.0
 40
0.0
 40
0.2499999999999983
 40
0.2499999999999983
 40
0.4999999999999967
 40
0.4999999999999967
 40
1.0
 40
1.0
 40
1.0
 40
1.0
 10
130.9143086526026
 20
392.085202887862
 30
0.0
 10
130.9146981819734
 20
392.1781948154343
 30
0.0
 10
130.9150803444206
 20
392.2693534100952
 30
0.0
 10
130.9157970722323
 20
392.4401661001829
 30
0.0
 10
130.9161257298734
 20
392.5184105621847
 30
0.0
 10
130.9169496098665
 20
392.7142853086323
 30
0.0
 10
130.9172754107982
 20
392.7913011102455
 30
0.0
 10
130.9172754107982
 20
392.7905217609165
 30
0.0
  0
SPLINE
  5
95
330
1F
100
AcDbEntity
  8
0
  6
Continuous
 62
     7
370
    15
100
AcDbSpline
210
0.0
220
0.0
230
1.0
 70
     8
 71
     3
 72
    12
 73
     8
 74
     0
 42
0.00000001
 43
0.00000001
 12
1.0
 22
0.0
 32
0.0
 13
1.0
 23
0.0
 33
0.0
 40
0.0
 40
0.0
 40
0.0
 40
0.0
 40
0.2500000000000017
 40
0.2500000000000017
 40
0.5000000000000034
 40
0.5000000000000034
 40
1.0
 40
1.0
 40
1.0
 40
1.0
 10
130.8923671463773
 20
386.8441985962627
 30
0.0
 10
130.8923671463773
 20
386.8445881906948
 30
0.0
 10
130.8924451068501
 20
386.8635820430468
 30
0.0
 10
130.8927447445672
 20
386.9358264159881
 30
0.0
 10
130.8929664971857
 20
386.9890909103418
 30
0.0
 10
130.8937889326623
 20
387.186239066601
 30
0.0
 10
130.894554971142
 20
387.3694277671484
 30
0.0
 10
130.8953339045729
 20
387.5553817070085
 30
0.0
  0
SPLINE
  5
96
330
1F
100
AcDbEntity
  8
0
  6
Continuous
 62
     7
370
    15
100
AcDbSpline
210
0.0
220
0.0
230
1.0
 70
     8
 71
     3
 72
    10
 73
     6
 74
     0
 42
0.00000001
 43
0.00000001
 12
1.0
 22
0.0
 32
0.0
 13
1.0
 23
0.0
 33
0.0
 40
0.0
 40
0.0
 40
0.0
 40
0.0
 40
0.5
 40
0.5
 40
1.0
 40
1.0
 40
1.0
 40
1.0
 10
130.0949158391317
 20
387.4572528978824
 30
0.0
 10
130.0942482589273
 20
387.2978821939836
 30
0.0
 10
130.0935942247528
 20
387.1414779502859
 30
0.0
 10
130.0926532636729
 20
386.9159184829504
 30
0.0
 10
130.0923741647524
 20
386.8486362760625
 30
0.0
 10
130.0923741647524
 20
386.8479684633499
 30
0.0
  0
LINE
  5
97
330
1F
100
AcDbEntity
  8
0
  6
Continuous
 62
     7
370
    15
100
AcDbLine
 10
130.0949158532
 20
387.4572524776
 30
0.0
 11
130.1147407422
 21
392.1900344988
 31
0.0
  0
SPLINE
  5
98
330
1F
100
AcDbEntity
  8
0
  6
Continuous
 62
     7
370
    15
100
AcDbSpline
210
0.0
220
0.0
230
1.0
 70
     8
 71
     3
 72
    10
 73
     6
 74
     0
 42
0.00000001
 43
0.00000001
 12
1.0
 22
0.0
 32
0.0
 13
1.0
 23
0.0
 33
0.0
 40
0.0
 40
0.0
 40
0.0
 40
0.0
 40
0.5
 40
0.5
 40
1.0
 40
1.0
 40
1.0
 40
1.0
 10
130.1172824291733
 20
392.7942916280037
 30
0.0
 10
130.1172824291733
 20
392.7949593085671
 30
0.0
 10
130.1170038588809
 20
392.7291086746097
 30
0.0
 10
130.1160644924514
 20
392.5057793740927
 30
0.0
 10
130.115408227421
 20
392.349378704973
 30
0.0
 10
130.114740754794
 20
392.1900336829209
 30
0.0
  0
LINE
  5
99
330
1F
100
AcDbEntity
  8
0
  6
Continuous
 62
     7
370
    15
100
AcDbLine
 10
130.117282438
 20
392.7942914864
 30
0.0
 11
130.117282438
 21
392.7938723912
 31
0.0
  0
LINE
  5
9A
330
1F
100
AcDbEntity
  8
0
  6
Continuous
 62
     7
370
    15
100
AcDbLine
 10
130.117282438
 20
392.7938723912
 30
0.0
 11
130.0923741575
 21
386.8475491156
 31
0.0
  0
LINE
  5
9B
330
1F
100
AcDbEntity
  8
0
  6
Continuous
 62
     7
370
    15
100
AcDbLine
 10
130.0923741575
 20
386.8479682108
 30
0.0
 11
130.0923741575
 21
386.8475491156
 31
0.0
  0
ARC
  5
9C
330
1F
100
AcDbEntity
  8
0
  6
Continuous
 62
     7
370
    15
100
AcDbCircle
 10
130.5048000556
 20
389.8194544252
 30
0.0
 40
2.99997090720802
100
AcDbArc
 50
97.4218515293
 51
262.0981439595
  0
LINE
  5
9D
330
1F
100
AcDbEntity
  8
0
  6
Continuous
 62
     7
370
    15
100
AcDbLine
 10
130.9143086466
 20
392.0852029671
 30
0.0
 11
130.8953339095
 21
387.555382212
 31
0.0
  0
SPLINE
  5
9E
330
1F
100
AcDbEntity
  8
0
  6
Continuous
 62
     7
370
    15
100
AcDbSpline
210
0.0
220
0.0
230
1.0
 70
     8
 71
     3
 72
    13
 73
     9
 74
     0
 42
0.00000001
 43
0.00000001
 12
1.0
 22
0.0
 32
0.0
 13
1.0
 23
0.0
 33
0.0
 40
0.0
 40
0.0
 40
0.0
 40
0.0
 40
0.1106421320524731
 40
0.2480930664067133
 40
0.4383494595510657
 40
0.6285709925704527
 40
0.8194666123903891
 40
1.0
 40
1.0
 40
1.0
 40
1.0
 10
129.9095680507481
 20
386.8766156931794
 30
0.0
 10
130.1034539752446
 20
386.8488741497676
 30
0.0
 10
130.5382047582341
 20
386.7866692333923
 30
0.0
 10
131.3155286497788
 20
386.8867758706543
 30
0.0
 10
132.1715109894209
 20
387.2521549979797
 30
0.0
 10
132.9197390749243
 20
387.9477540918516
 30
0.0
 10
133.4156645764332
 20
388.8375852187878
 30
0.0
 10
133.4701427065542
 20
389.4969898020275
 30
0.0
 10
133.4966218484216
 20
389.817493965236
 30
0.0
  0
SPLINE
  5
9F
330
1F
100
AcDbEntity
  8
0
  6
Continuous
 62
     7
370
    15
100
AcDbSpline
210
0.0
220
0.0
230
1.0
 70
     8
 71
     3
 72
    12
 73
     8
 74
     0
 42
0.00000001
 43
0.00000001
 12
1.0
 22
0.0
 32
0.0
 13
1.0
 23
0.0
 33
0.0
 40
0.0
 40
0.0
 40
0.0
 40
0.0
 40
0.1331516747009263
 40
0.3767257163816639
 40
0.621422152087998
 40
0.8678490170418646
 40
1.0
 40
1.0
 40
1.0
 40
1.0
 10
127.5468012237571
 20
389.8168159624017
 30
0.0
 10
127.5401693762867
 20
389.633791700922
 30
0.0
 10
127.52140590602
 20
389.1159615934446
 30
0.0
 10
127.8588211863504
 20
388.3032552916556
 30
0.0
 10
128.4919015783453
 20
387.5163631364928
 30
0.0
 10
129.2330568544487
 20
387.0522568478033
 30
0.0
 10
129.7345209138539
 20
386.9220628068501
 30
0.0
 10
129.9095680507481
 20
386.8766156931794
 30
0.0
  0
ARC
  5
A0
330
1F
100
AcDbEntity
  8
0
  6
Continuous
 62
     7
370
    15
100
AcDbCircle
 10
130.5048252468
 20
389.8190089199
 30
0.0
 40
3.000000350225589
100
AcDbArc
 50
82.0977542543
 51
97.4222634606
  0
ARC
  5
A1
330
1F
100
AcDbEntity
  8
0
  6
Continuous
 62
     7
370
    15
100
AcDbCircle
 10
130.5048247172
 20
389.8191544742
 30
0.0
 40
3.000092310483366
100
AcDbArc
 50
262.0979902599
 51
277.4220274725
  0
SPLINE
  5
A2
330
1F
100
AcDbEntity
  8
0
  6
Continuous
 62
     7
370
    15
100
AcDbSpline
210
0.0
220
0.0
230
1.0
 70
     8
 71
     3
 72
     9
 73
     5
 74
     0
 42
0.00000001
 43
0.00000001
 12
1.0
 22
0.0
 32
0.0
 13
1.0
 23
0.0
 33
0.0
 40
0.0
 40
0.0
 40
0.0
 40
0.0
 40
0.6273481178114325
 40
1.0
 40
1.0
 40
1.0
 40
1.0
 10
107.611297156068
 20
378.398146477846
 30
0.0
 10
107.6165943117706
 20
378.3199381029891
 30
0.0
 10
107.6250380379129
 20
378.1952730683192
 30
0.0
 10
107.8837697265428
 20
378.1860888791409
 30
0.0
 10
107.9801865772926
 20
378.1826663737572
 30
0.0
  0
SPLINE
  5
A3
330
1F
100
AcDbEntity
  8
0
  6
Continuous
 62
     7
370
    15
100
AcDbSpline
210
0.0
220
0.0
230
1.0
 70
     8
 71
     3
 72
     9
 73
     5
 74
     0
 42
0.00000001
 43
0.00000001
 12
1.0
 22
0.0
 32
0.0
 13
1.0
 23
0.0
 33
0.0
 40
0.0
 40
0.0
 40
0.0
 40
0.0
 40
0.797665243638288
 40
1.0
 40
1.0
 40
1.0
 40
1.0
 10
153.1405397610389
 20
378.1826663737572
 30
0.0
 10
153.346717489388
 20
378.1900974621266
 30
0.0
 10
153.6051939994196
 20
378.1994135109687
 30
0.0
 10
153.5244543228632
 20
378.3650358008765
 30
0.0
 10
153.5081178800784
 20
378.398546946553
 30
0.0
  0
LINE
  5
A4
330
1F
100
AcDbEntity
  8
0
  6
Continuous
 62
     7
370
    15
100
AcDbLine
 10
107.9801865773
 20
378.1826663738
 30
0.0
 11
153.140539761
 21
378.1826663738
 31
0.0
  0
LINE
  5
A5
330
1F
100
AcDbEntity
  8
0
  6
Continuous
 62
     7
370
    15
100
AcDbLine
 10
109.060362439
 20
413.1826674541
 30
0.0
 11
152.0603638993
 21
413.1826674541
 31
0.0
  0
LINE
  5
A6
330
1F
100
AcDbEntity
  8
0
  6
Continuous
 62
     7
370
    15
100
AcDbLine
 10
108.0603622751
 20
276.0326666733
 30
0.0
 11
153.0603640632
 21
276.0326666733
 31
0.0
  0
LINE
  5
A7
330
1F
100
AcDbEntity
  8
0
  6
Continuous
 62
     7
370
    15
100
AcDbLine
 10
130.5603631692
 20
370.4826664155
 30
0.0
 11
152.56036305
 21
370.4826664155
 31
0.0
  0
LINE
  5
A8
330
1F
100
AcDbEntity
  8
0
  6
Continuous
 62
     7
370
    15
100
AcDbLine
 10
108.5603632884
 20
370.4826664155
 30
0.0
 11
130.5603631692
 21
370.4826664155
 31
0.0
  0
SPLINE
  5
A9
330
1F
100
AcDbEntity
  8
0
  6
Continuous
 62
     8
370
    15
100
AcDbSpline
210
0.0
220
0.0
230
1.0
 70
     8
 71
     3
 72
     8
 73
     4
 74
     0
 42
0.00000001
 43
0.00000001
 12
1.0
 22
0.0
 32
0.0
 13
1.0
 23
0.0
 33
0.0
 40
0.0941261486647108
 40
0.0941261486647108
 40
0.0941261486647108
 40
0.0941261486647108
 40
0.8993173251701191
 40
0.8993173251701191
 40
0.8993173251701191
 40
0.8993173251701191
 10
148.2674244176819
 20
362.5851439173356
 30
0.0
 10
148.4583378488508
 20
357.5562017233669
 30
0.0
 10
148.459365022808
 20
352.5318725930391
 30
0.0
 10
148.2705053834277
 20
347.503027869764
 30
0.0
  0
SPLINE
  5
AA
330
1F
100
AcDbEntity
  8
0
  6
Continuous
 62
     8
370
    15
100
AcDbSpline
210
0.0
220
0.0
230
1.0
 70
     8
 71
     3
 72
     8
 73
     4
 74
     0
 42
0.00000001
 43
0.00000001
 12
1.0
 22
0.0
 32
0.0
 13
1.0
 23
0.0
 33
0.0
 40
0.0941261486647108
 40
0.0941261486647108
 40
0.0941261486647108
 40
0.0941261486647108
 40
0.8993173251701189
 40
0.8993173251701189
 40
0.8993173251701189
 40
0.8993173251701189
 10
112.8502209549037
 20
347.503027869764
 30
0.0
 10
112.6613613155234
 20
352.5318725930391
 30
0.0
 10
112.6623884894806
 20
357.5562017233669
 30
0.0
 10
112.8533019206495
 20
362.5851439173356
 30
0.0
  0
SPLINE
  5
AB
330
1F
100
AcDbEntity
  8
0
  6
Continuous
 62
     8
370
    15
100
AcDbSpline
210
0.0
220
0.0
230
1.0
 70
     8
 71
     3
 72
    63
 73
    59
 74
     0
 42
0.00000001
 43
0.00000001
 12
1.0
 22
0.0
 32
0.0
 13
1.0
 23
0.0
 33
0.0
 40
0.0
 40
0.0
 40
0.0
 40
0.0
 40
0.0312500000000011
 40
0.0312500000000011
 40
0.0468750000000017
 40
0.0468750000000017
 40
0.0546875000000019
 40
0.0546875000000019
 40
0.0585937500000021
 40
0.0585937500000021
 40
0.0625000000000023
 40
0.0625000000000023
 40
0.0703125000000026
 40
0.0703125000000026
 40
0.0742187500000028
 40
0.0742187500000028
 40
0.0781250000000029
 40
0.0781250000000029
 40
0.0859375000000032
 40
0.0859375000000032
 40
0.0937500000000034
 40
0.0937500000000034
 40
0.1015625000000037
 40
0.1015625000000037
 40
0.109375000000004
 40
0.109375000000004
 40
0.1171875000000042
 40
0.1171875000000042
 40
0.1250000000000044
 40
0.1250000000000044
 40
0.1406250000000052
 40
0.1406250000000052
 40
0.156250000000006
 40
0.156250000000006
 40
0.1718750000000067
 40
0.1718750000000067
 40
0.1796875000000069
 40
0.1796875000000069
 40
0.187500000000007
 40
0.187500000000007
 40
0.1953125000000071
 40
0.1953125000000071
 40
0.1992187500000072
 40
0.1992187500000072
 40
0.2031250000000073
 40
0.2031250000000073
 40
0.2109375000000074
 40
0.2109375000000074
 40
0.2187500000000075
 40
0.2187500000000075
 40
0.2500000000000073
 40
0.2500000000000073
 40
0.3125000000000067
 40
0.3125000000000067
 40
0.375000000000006
 40
0.5000000000000048
 40
0.5000000000000048
 40
1.0
 40
1.0
 40
1.0
 40
1.0
 10
130.5598160999961
 20
346.310018857212
 30
0.0
 10
129.4055201354022
 20
346.3100188650589
 30
0.0
 10
128.2532311485052
 20
346.3100575090887
 30
0.0
 10
126.5305444619784
 20
346.3100809582023
 30
0.0
 10
125.9572356759116
 20
346.3100830175862
 30
0.0
 10
125.0989101695869
 20
346.3100659361652
 30
0.0
 10
124.8129599358026
 20
346.3100569078684
 30
0.0
 10
124.3850161857921
 20
346.3100367858152
 30
0.0
 10
124.2434965997453
 20
346.3100289690927
 30
0.0
 10
123.9533702466188
 20
346.3100113574303
 30
0.0
 10
123.8039770103977
 20
346.3100017343759
 30
0.0
 10
123.3602063144044
 20
346.3099751988061
 30
0.0
 10
123.066481704807
 20
346.3099604109988
 30
0.0
 10
122.6247206132342
 20
346.3099585153643
 30
0.0
 10
122.4774108827955
 20
346.3099611542391
 30
0.0
 10
122.1806658412441
 20
346.309976565715
 30
0.0
 10
122.0406246562448
 20
346.3099882651899
 30
0.0
 10
121.6195395765955
 20
346.3100283125587
 30
0.0
 10
121.3437113752165
 20
346.3100558463363
 30
0.0
 10
120.8132986971213
 20
346.3100209436993
 30
0.0
 10
120.5610594166482
 20
346.3099572176912
 30
0.0
 10
120.0799630062704
 20
346.3096719811576
 30
0.0
 10
119.8469847780911
 20
346.3094474722429
 30
0.0
 10
119.3886396359777
 20
346.308817589047
 30
0.0
 10
119.1645595185575
 20
346.3084137138778
 30
0.0
 10
118.7313637710257
 20
346.3074281716039
 30
0.0
 10
118.5217086883422
 20
346.3068452647992
 30
0.0
 10
118.110380902476
 20
346.3054782175482
 30
0.0
 10
117.9091386252489
 20
346.3046964236369
 30
0.0
 10
117.3269017402646
 20
346.3020896153484
 30
0.0
 10
116.9650816614247
 20
346.2999933577075
 30
0.0
 10
116.3240601317015
 20
346.2952604403702
 30
0.0
 10
116.0460093051166
 20
346.2926278190308
 30
0.0
 10
115.5918295956413
 20
346.2869908088147
 30
0.0
 10
115.4156877371767
 20
346.2839805557962
 30
0.0
 10
115.2387615498362
 20
346.2793622071673
 30
0.0
 10
115.1944634320853
 20
346.2778119146925
 30
0.0
 10
115.1357386417128
 20
346.2746789024609
 30
0.0
 10
115.1196694445262
 20
346.2730144164417
 30
0.0
 10
115.1039280041418
 20
346.2694415476271
 30
0.0
 10
115.1043526555551
 20
346.2675437532288
 30
0.0
 10
115.1063241939645
 20
346.2645456292317
 30
0.0
 10
115.1070637472708
 20
346.2635119184866
 30
0.0
 10
115.1070222572555
 20
346.2614379952556
 30
0.0
 10
115.1061760256397
 20
346.2604065020899
 30
0.0
 10
115.1026219387789
 20
346.2573409818979
 30
0.0
 10
115.0992304299965
 20
346.2553368713556
 30
0.0
 10
115.0934443931534
 20
346.2513387509609
 30
0.0
 10
115.0909589838476
 20
346.2493358954705
 30
0.0
 10
115.0791967662029
 20
346.2393195324544
 30
0.0
 10
115.0727246128494
 20
346.2312946972916
 30
0.0
 10
115.0566348005328
 20
346.2072056495657
 30
0.0
 10
115.0475421018074
 20
346.1911362678699
 30
0.0
 10
115.0274201375944
 20
346.159008950458
 30
0.0
 10
114.9981875241349
 20
346.1108183947383
 30
0.0
 10
114.9719253080638
 20
346.0626280805384
 30
0.0
 10
114.8915161322793
 20
345.901989704697
 30
0.0
 10
114.8502184699529
 20
345.7734723459465
 30
0.0
 10
114.8161287249208
 20
345.6449596007733
 30
0.0
  0
SPLINE
  5
AC
330
1F
100
AcDbEntity
  8
0
  6
Continuous
 62
     8
370
    15
100
AcDbSpline
210
0.0
220
0.0
230
1.0
 70
     8
 71
     3
 72
    19
 73
    15
 74
     0
 42
0.00000001
 43
0.00000001
 12
1.0
 22
0.0
 32
0.0
 13
1.0
 23
0.0
 33
0.0
 40
0.0
 40
0.0
 40
0.0
 40
0.0
 40
0.0548745966026597
 40
0.1148419837102238
 40
0.1799485751020822
 40
0.2502355692629711
 40
0.3053468707197853
 40
0.3751590336848615
 40
0.5005588344675596
 40
0.637982425796646
 40
0.750162115245448
 40
0.8402340501650326
 40
0.9235360268746042
 40
1.0
 40
1.0
 40
1.0
 40
1.0
 10
114.8161287365705
 20
345.6449596446909
 30
0.0
 10
114.7801392873213
 20
345.6450688816673
 30
0.0
 10
114.7048202872685
 20
345.6452974936633
 30
0.0
 10
114.586965764858
 20
345.654272124843
 30
0.0
 10
114.4594120760157
 20
345.6716300062761
 30
0.0
 10
114.3359184594807
 20
345.6973461170818
 30
0.0
 10
114.2107877432625
 20
345.7318491661762
 30
0.0
 10
114.0522207221563
 20
345.7867403114395
 30
0.0
 10
113.8469807082905
 20
345.8817856552102
 30
0.0
 10
113.6267515904823
 20
346.0237264928053
 30
0.0
 10
113.4414037021083
 20
346.1822964059514
 30
0.0
 10
113.2974971649358
 20
346.3376335474751
 30
0.0
 10
113.1815468719099
 20
346.488697869525
 30
0.0
 10
113.1172338482522
 20
346.5976094977252
 30
0.0
 10
113.0864536393425
 20
346.6497345958475
 30
0.0
  0
SPLINE
  5
AD
330
1F
100
AcDbEntity
  8
0
  6
Continuous
 62
     8
370
    15
100
AcDbSpline
210
0.0
220
0.0
230
1.0
 70
     8
 71
     3
 72
    15
 73
    11
 74
     0
 42
0.00000001
 43
0.00000001
 12
1.0
 22
0.0
 32
0.0
 13
1.0
 23
0.0
 33
0.0
 40
0.0
 40
0.0
 40
0.0
 40
0.0
 40
0.0832146708378466
 40
0.1665779626824222
 40
0.2505334836488274
 40
0.3762890250120425
 40
0.5007405935137205
 40
0.6707705244124885
 40
0.83599951609717
 40
1.0
 40
1.0
 40
1.0
 40
1.0
 10
113.0864536393425
 20
346.6497345958475
 30
0.0
 10
113.078208210754
 20
346.6648948425674
 30
0.0
 10
113.0617026272807
 20
346.6952424121357
 30
0.0
 10
113.0354821667543
 20
346.7479679491241
 30
0.0
 10
113.0045716819119
 20
346.8153349320929
 30
0.0
 10
112.9698534052446
 20
346.9005570312694
 30
0.0
 10
112.9291244587912
 20
347.0191862103634
 30
0.0
 10
112.8913862178696
 20
347.1620391834982
 30
0.0
 10
112.8612662685429
 20
347.3297707846547
 30
0.0
 10
112.8539066209252
 20
347.4451332177416
 30
0.0
 10
112.8502405282447
 20
347.502599198929
 30
0.0
  0
SPLINE
  5
AE
330
1F
100
AcDbEntity
  8
0
  6
Continuous
 62
     8
370
    15
100
AcDbSpline
210
0.0
220
0.0
230
1.0
 70
     8
 71
     3
 72
    18
 73
    14
 74
     0
 42
0.00000001
 43
0.00000001
 12
1.0
 22
0.0
 32
0.0
 13
1.0
 23
0.0
 33
0.0
 40
0.0
 40
0.0
 40
0.0
 40
0.0
 40
0.0567091046002781
 40
0.1172721132289944
 40
0.1816658393753149
 40
0.2498561373905079
 40
0.3620373986816324
 40
0.4994629157484206
 40
0.6248644727954327
 40
0.6946776134509977
 40
0.7497896868444687
 40
0.8851671326657234
 40
1.0
 40
1.0
 40
1.0
 40
1.0
 10
148.0342726989965
 20
346.6497345958475
 30
0.0
 10
148.0116700597554
 20
346.6108217864162
 30
0.0
 10
147.9649287245317
 20
346.5303516850832
 30
0.0
 10
147.8840506530405
 20
346.4160532885722
 30
0.0
 10
147.7919806438938
 20
346.3030113393767
 30
0.0
 10
147.6673134872633
 20
346.1721630244278
 30
0.0
 10
147.4940023850185
 20
346.0236947968486
 30
0.0
 10
147.2737382022572
 20
345.8817883225465
 30
0.0
 10
147.0685066680037
 20
345.7867560079365
 30
0.0
 10
146.9099383517847
 20
345.7318191228217
 30
0.0
 10
146.7430863775232
 20
345.6859826107324
 30
0.0
 10
146.5440137453166
 20
345.6498992057232
 30
0.0
 10
146.3799115473876
 20
345.6465134991033
 30
0.0
 10
146.3045976017457
 20
345.6449596446909
 30
0.0
  0
SPLINE
  5
AF
330
1F
100
AcDbEntity
  8
0
  6
Continuous
 62
     8
370
    15
100
AcDbSpline
210
0.0
220
0.0
230
1.0
 70
     8
 71
     3
 72
    63
 73
    59
 74
     0
 42
0.00000001
 43
0.00000001
 12
1.0
 22
0.0
 32
0.0
 13
1.0
 23
0.0
 33
0.0
 40
0.0
 40
0.0
 40
0.0
 40
0.0
 40
0.4999999999999979
 40
0.4999999999999979
 40
0.6249999999999977
 40
0.6874999999999976
 40
0.6874999999999976
 40
0.7499999999999974
 40
0.7499999999999974
 40
0.7812499999999972
 40
0.7812499999999972
 40
0.7890624999999972
 40
0.7890624999999972
 40
0.7968749999999972
 40
0.7968749999999972
 40
0.8007812499999974
 40
0.8007812499999974
 40
0.8046874999999976
 40
0.8046874999999976
 40
0.8124999999999976
 40
0.8124999999999976
 40
0.8203124999999976
 40
0.8203124999999976
 40
0.8281249999999976
 40
0.8281249999999976
 40
0.8437499999999978
 40
0.8437499999999978
 40
0.8593749999999981
 40
0.8593749999999981
 40
0.8749999999999986
 40
0.8749999999999986
 40
0.8828124999999986
 40
0.8828124999999986
 40
0.8906249999999987
 40
0.8906249999999987
 40
0.8984374999999988
 40
0.8984374999999988
 40
0.9062499999999989
 40
0.9062499999999989
 40
0.9140624999999989
 40
0.9140624999999989
 40
0.921874999999999
 40
0.921874999999999
 40
0.925781249999999
 40
0.925781249999999
 40
0.929687499999999
 40
0.929687499999999
 40
0.937499999999999
 40
0.937499999999999
 40
0.9414062499999991
 40
0.9414062499999991
 40
0.9453124999999992
 40
0.9453124999999992
 40
0.9531249999999993
 40
0.9531249999999993
 40
0.9687499999999996
 40
0.9687499999999996
 40
1.0
 40
1.0
 40
1.0
 40
1.0
 10
146.3045976133955
 20
345.6449596007732
 30
0.0
 10
146.270507868357
 20
345.7734723459458
 30
0.0
 10
146.2292102060524
 20
345.9019897046978
 30
0.0
 10
146.1488010302678
 20
346.0626280805384
 30
0.0
 10
146.1225388141967
 20
346.1108183947369
 30
0.0
 10
146.0933062007373
 20
346.1590089504567
 30
0.0
 10
146.0731842365242
 20
346.1911362678693
 30
0.0
 10
146.0640915377971
 20
346.2072056495659
 30
0.0
 10
146.0480017254767
 20
346.2312946972919
 30
0.0
 10
146.041529572123
 20
346.2393195324545
 30
0.0
 10
146.0297673544829
 20
346.2493358954703
 30
0.0
 10
146.0272819451788
 20
346.2513387509607
 30
0.0
 10
146.0214959083365
 20
346.2553368713553
 30
0.0
 10
146.0181043995524
 20
346.2573409818977
 30
0.0
 10
146.014550312692
 20
346.2604065020897
 30
0.0
 10
146.0137040810758
 20
346.2614379952554
 30
0.0
 10
146.0136625910603
 20
346.2635119184864
 30
0.0
 10
146.0144021443669
 20
346.2645456292315
 30
0.0
 10
146.0163736827758
 20
346.2675437532286
 30
0.0
 10
146.0167983341893
 20
346.2694415476269
 30
0.0
 10
146.0010568938068
 20
346.2730144164415
 30
0.0
 10
145.9849876966198
 20
346.2746789024608
 30
0.0
 10
145.9262629062487
 20
346.2778119146924
 30
0.0
 10
145.8819647885034
 20
346.279362207167
 30
0.0
 10
145.7050386011716
 20
346.2839805557959
 30
0.0
 10
145.5288967426968
 20
346.2869908088146
 30
0.0
 10
145.0747170332095
 20
346.2926278190309
 30
0.0
 10
144.7966662066401
 20
346.2952604403702
 30
0.0
 10
144.155644676924
 20
346.2999933577073
 30
0.0
 10
143.7938245980527
 20
346.3020896153484
 30
0.0
 10
143.2115877131049
 20
346.3046964236368
 30
0.0
 10
143.0103454358353
 20
346.3054782175483
 30
0.0
 10
142.5990176500007
 20
346.3068452647992
 30
0.0
 10
142.3893625673343
 20
346.3074281716038
 30
0.0
 10
141.9561668197757
 20
346.3084137138779
 30
0.0
 10
141.7320867023724
 20
346.308817589047
 30
0.0
 10
141.2737415602529
 20
346.3094474722429
 30
0.0
 10
141.040763332073
 20
346.3096719811576
 30
0.0
 10
140.5596669217054
 20
346.3099572176912
 30
0.0
 10
140.3074276412122
 20
346.3100209436994
 30
0.0
 10
139.7770149631305
 20
346.3100558463363
 30
0.0
 10
139.5011867617347
 20
346.3100283125587
 30
0.0
 10
139.0801016821078
 20
346.3099882651899
 30
0.0
 10
138.9400604970882
 20
346.3099765657149
 30
0.0
 10
138.6433154555497
 20
346.3099611542391
 30
0.0
 10
138.4960057251089
 20
346.3099585153643
 30
0.0
 10
138.0542446335188
 20
346.3099604109988
 30
0.0
 10
137.7605200239158
 20
346.3099751988061
 30
0.0
 10
137.3167493279512
 20
346.310001734376
 30
0.0
 10
137.1673560917527
 20
346.3100113574303
 30
0.0
 10
136.8772297385893
 20
346.3100289690927
 30
0.0
 10
136.7357101525253
 20
346.3100367858152
 30
0.0
 10
136.3077664025516
 20
346.3100569078683
 30
0.0
 10
136.0218161687563
 20
346.3100659361652
 30
0.0
 10
135.1634906624086
 20
346.3100830175862
 30
0.0
 10
134.5901818763651
 20
346.3100809582024
 30
0.0
 10
132.8674951898851
 20
346.3100575090886
 30
0.0
 10
131.71520620287
 20
346.3100188650589
 30
0.0
 10
130.5609102383354
 20
346.310018857212
 30
0.0
  0
SPLINE
  5
B0
330
1F
100
AcDbEntity
  8
0
  6
Continuous
 62
     8
370
    15
100
AcDbSpline
210
0.0
220
0.0
230
1.0
 70
     8
 71
     3
 72
    17
 73
    13
 74
     0
 42
0.00000001
 43
0.00000001
 12
1.0
 22
0.0
 32
0.0
 13
1.0
 23
0.0
 33
0.0
 40
0.0
 40
0.0
 40
0.0
 40
0.0
 40
0.0822119807241013
 40
0.1642838384595657
 40
0.2466611261843053
 40
0.3297929132957251
 40
0.4141261616681735
 40
0.5001002134803029
 40
0.624559233141805
 40
0.7503190575571065
 40
0.8755767925522313
 40
1.0
 40
1.0
 40
1.0
 40
1.0
 10
148.2704858100874
 20
347.502599198945
 30
0.0
 10
148.2690290077957
 20
347.4737986597927
 30
0.0
 10
148.266117886202
 20
347.4162466694383
 30
0.0
 10
148.2569027033449
 20
347.3308161772525
 30
0.0
 10
148.2443209609216
 20
347.2467820534168
 30
0.0
 10
148.2281974273447
 20
347.1644606962259
 30
0.0
 10
148.2088342196468
 20
347.0841243096602
 30
0.0
 10
148.1832874438159
 20
346.9950280938083
 30
0.0
 10
148.1506853777653
 20
346.9000150348138
 30
0.0
 10
148.1117118838011
 20
346.8045302119208
 30
0.0
 10
148.0717147753825
 20
346.7191799657442
 30
0.0
 10
148.0467255499975
 20
346.6728314143871
 30
0.0
 10
148.0342726989965
 20
346.6497345958475
 30
0.0
  0
SPLINE
  5
B1
330
1F
100
AcDbEntity
  8
0
  6
Continuous
 62
     8
370
    15
100
AcDbSpline
210
0.0
220
0.0
230
1.0
 70
     8
 71
     3
 72
    21
 73
    17
 74
     0
 42
0.00000001
 43
0.00000001
 12
1.0
 22
0.0
 32
0.0
 13
1.0
 23
0.0
 33
0.0
 40
0.0
 40
0.0
 40
0.0
 40
0.0
 40
0.030907182366169
 40
0.0621987139867279
 40
0.0939119276876244
 40
0.1260798835170035
 40
0.1870939623346833
 40
0.2515513330292297
 40
0.3763623527436283
 40
0.5015813715134219
 40
0.6261005437792208
 40
0.7512519374990616
 40
0.8248024840024982
 40
0.8753100965401386
 40
0.9414331009281062
 40
1.0
 40
1.0
 40
1.0
 40
1.0
 10
112.8532997301345
 20
362.5851949765594
 30
0.0
 10
112.8551724349028
 20
362.6199091365233
 30
0.0
 10
112.8589411326407
 20
362.6897691477434
 30
0.0
 10
112.8717754540393
 20
362.7940847797896
 30
0.0
 10
112.8899576833144
 20
362.898195219828
 30
0.0
 10
112.9210625467119
 20
363.0319128054423
 30
0.0
 10
112.9726698252459
 20
363.1943825359881
 30
0.0
 10
113.0777014305379
 20
363.4353040566081
 30
0.0
 10
113.2470302485264
 20
363.7028912773609
 30
0.0
 10
113.4898305912772
 20
363.9627404842071
 30
0.0
 10
113.7628087165485
 20
364.1669230669709
 30
0.0
 10
114.0172705163379
 20
364.2965227216431
 30
0.0
 10
114.2221888363799
 20
364.3686666533908
 30
0.0
 10
114.3817134301486
 20
364.4101307214361
 30
0.0
 10
114.5312760964556
 20
364.437727231188
 30
0.0
 10
114.6393591099188
 20
364.4461453367244
 30
0.0
 10
114.6901257459112
 20
364.4500993243661
 30
0.0
  0
SPLINE
  5
B2
330
1F
100
AcDbEntity
  8
0
  6
Continuous
 62
     8
370
     0
100
AcDbSpline
210
0.0
220
0.0
230
1.0
 70
     8
 71
     3
 72
    12
 73
     8
 74
     0
 42
0.00000001
 43
0.00000001
 12
1.0
 22
0.0
 32
0.0
 13
1.0
 23
0.0
 33
0.0
 40
0.0
 40
0.0
 40
0.0
 40
0.0
 40
0.0225133984915048
 40
0.2741396393108755
 40
0.5270922125706667
 40
0.778662285396403
 40
1.0
 40
1.0
 40
1.0
 40
1.0
 10
121.7803298415266
 20
364.753520637603
 30
0.0
 10
121.8960543630713
 20
364.7578081401892
 30
0.0
 10
123.3052009478328
 20
364.8100159138381
 30
0.0
 10
126.2745782461778
 20
364.8671072329957
 30
0.0
 10
130.5406973602798
 20
364.9029031857109
 30
0.0
 10
134.6866603667004
 20
364.8741785981177
 30
0.0
 10
137.2607430361451
 20
364.8087205401648
 30
0.0
 10
138.465505550953
 20
364.778083833951
 30
0.0
  0
LINE
  5
B3
330
1F
100
AcDbEntity
  8
0
  6
Continuous
 62
     8
370
    15
100
AcDbLine
 10
143.6419007288
 20
345.6631628772
 30
0.0
 11
142.5603632735
 21
345.6664448579
 31
0.0
  0
LINE
  5
B4
330
1F
100
AcDbEntity
  8
0
  6
Continuous
 62
     8
370
    15
100
AcDbLine
 10
118.5603630649
 20
345.6664448579
 30
0.0
 11
117.4788256095
 21
345.6631628772
 31
0.0
  0
SPLINE
  5
B5
330
1F
100
AcDbEntity
  8
0
  6
Continuous
 62
     8
370
     0
100
AcDbSpline
210
0.0
220
0.0
230
1.0
 70
     8
 71
     3
 72
     9
 73
     5
 74
     0
 42
0.00000001
 43
0.00000001
 12
1.0
 22
0.0
 32
0.0
 13
1.0
 23
0.0
 33
0.0
 40
0.0
 40
0.0
 40
0.0
 40
0.0
 40
0.5026062061694979
 40
1.0
 40
1.0
 40
1.0
 40
1.0
 10
150.4408217111629
 20
346.7985818174374
 30
0.0
 10
150.4360880044169
 20
346.6912007776315
 30
0.0
 10
150.4266696830992
 20
346.4775523218668
 30
0.0
 10
150.4121464073029
 20
346.2652147344988
 30
0.0
 10
150.4049226200557
 20
346.159599336345
 30
0.0
  0
SPLINE
  5
B6
330
1F
100
AcDbEntity
  8
0
  6
Continuous
 62
     8
370
     0
100
AcDbSpline
210
0.0
220
0.0
230
1.0
 70
     8
 71
     3
 72
     9
 73
     5
 74
     0
 42
0.00000001
 43
0.00000001
 12
1.0
 22
0.0
 32
0.0
 13
1.0
 23
0.0
 33
0.0
 40
0.0
 40
0.0
 40
0.0
 40
0.0
 40
0.4936304432949157
 40
1.0
 40
1.0
 40
1.0
 40
1.0
 10
150.4048481490591
 20
346.1596237375458
 30
0.0
 10
150.3577764107943
 20
345.4859856312571
 30
0.0
 10
150.2624181546248
 20
344.1213248502237
 30
0.0
 10
150.1668596746294
 20
342.7556601016722
 30
0.0
 10
150.1184717694748
 20
342.0641290483404
 30
0.0
  0
SPLINE
  5
B7
330
1F
100
AcDbEntity
  8
0
  6
Continuous
 62
     8
370
     0
100
AcDbSpline
210
0.0
220
0.0
230
1.0
 70
     8
 71
     3
 72
    46
 73
    42
 74
     0
 42
0.00000001
 43
0.00000001
 12
1.0
 22
0.0
 32
0.0
 13
1.0
 23
0.0
 33
0.0
 40
0.0
 40
0.0
 40
0.0
 40
0.0
 40
0.0126864351406814
 40
0.0261925821974237
 40
0.0405996319364685
 40
0.0652744074643821
 40
0.0705266395176586
 40
0.1123439555044508
 40
0.1246827862322302
 40
0.1288564032875141
 40
0.1803404148065752
 40
0.1890300300917476
 40
0.1976834635734211
 40
0.2331122281120815
 40
0.2465864433599663
 40
0.2510379238147908
 40
0.3000457021293202
 40
0.314076940463722
 40
0.341362966207076
 40
0.3741921587343018
 40
0.3932518030444807
 40
0.421469708936562
 40
0.4420383596474761
 40
0.4752769690847112
 40
0.5010325849828421
 40
0.5032420411159892
 40
0.5098402130318538
 40
0.5185686564251388
 40
0.5631844440867054
 40
0.5724975821482949
 40
0.5817288011361313
 40
0.6742301065198908
 40
0.7117219825556584
 40
0.7366068292131778
 40
0.7549468680909025
 40
0.8084219927291989
 40
0.8574732968463212
 40
0.8754177041824411
 40
0.9048288230751768
 40
0.9531970239497286
 40
1.0
 40
1.0
 40
1.0
 40
1.0
 10
150.1184717694748
 20
342.0641290483402
 30
0.0
 10
150.1148033406405
 20
342.0163892563103
 30
0.0
 10
150.1072294538306
 20
341.9178250487163
 30
0.0
 10
150.0908700512581
 20
341.7667047503269
 30
0.0
 10
150.0651650798758
 20
341.5732079518274
 30
0.0
 10
150.0378872707279
 20
341.4132236514657
 30
0.0
 10
149.9875591971052
 20
341.1591275557143
 30
0.0
 10
149.9378039262967
 20
340.9546579280446
 30
0.0
 10
149.8813356003272
 20
340.7619270893412
 30
0.0
 10
149.8129020647997
 20
340.539955643559
 30
0.0
 10
149.7398720028416
 20
340.3383881870624
 30
0.0
 10
149.6540533565042
 20
340.1328374006393
 30
0.0
 10
149.5865650048199
 20
339.9773274585569
 30
0.0
 10
149.5083892427139
 20
339.8134567139729
 30
0.0
 10
149.4317345658285
 20
339.6672212329714
 30
0.0
 10
149.3337026368462
 20
339.4862795307898
 30
0.0
 10
149.2292503241659
 20
339.3112493571377
 30
0.0
 10
149.0816356365576
 20
339.0880647758594
 30
0.0
 10
148.9563010366495
 20
338.9105684034585
 30
0.0
 10
148.8162691069921
 20
338.7296467242177
 30
0.0
 10
148.6694320425342
 20
338.5537817427299
 30
0.0
 10
148.5411400600336
 20
338.4102753298548
 30
0.0
 10
148.3812911865091
 20
338.2434029035925
 30
0.0
 10
148.2212332691966
 20
338.088482881151
 30
0.0
 10
148.0939911069187
 20
337.9750997582454
 30
0.0
 10
148.0210551014329
 20
337.9125963996266
 30
0.0
 10
147.9838769743504
 20
337.8811285170154
 30
0.0
 10
147.8557710989128
 20
337.7750174395524
 30
0.0
 10
147.7181206740524
 20
337.6693614797693
 30
0.0
 10
147.5757084492107
 20
337.5682347018353
 30
0.0
 10
147.3231109288426
 20
337.3936957917945
 30
0.0
 10
146.9909196464871
 20
337.1970464648098
 30
0.0
 10
146.6011005711148
 20
337.0115711780433
 30
0.0
 10
146.3928921402241
 20
336.9234311197162
 30
0.0
 10
146.1393699753685
 20
336.8250709464318
 30
0.0
 10
145.8140374014937
 20
336.7172715577846
 30
0.0
 10
145.4784111928624
 20
336.6328390687685
 30
0.0
 10
145.2043507702712
 20
336.5778165455971
 30
0.0
 10
144.9283853257327
 20
336.5324604909775
 30
0.0
 10
144.5620686321678
 20
336.4914690898929
 30
0.0
 10
144.2745647884233
 20
336.4855679753006
 30
0.0
 10
144.1331770705456
 20
336.482665944099
 30
0.0
  0
SPLINE
  5
B8
330
1F
100
AcDbEntity
  8
0
  6
Continuous
 62
     8
370
     0
100
AcDbSpline
210
0.0
220
0.0
230
1.0
 70
     8
 71
     3
 72
    33
 73
    29
 74
     0
 42
0.00000001
 43
0.00000001
 12
1.0
 22
0.0
 32
0.0
 13
1.0
 23
0.0
 33
0.0
 40
0.0
 40
0.0
 40
0.0
 40
0.0
 40
0.0326500886059075
 40
0.065218578433502
 40
0.0976888501924816
 40
0.1300889908153757
 40
0.1624496163563157
 40
0.1947608281835559
 40
0.2269516500248477
 40
0.258977472140263
 40
0.2908200175041885
 40
0.3224688551852534
 40
0.3539203879584562
 40
0.3851765976653638
 40
0.4162436232515702
 40
0.4471302658253343
 40
0.4778465069293377
 40
0.5084021067277446
 40
0.5388053248722352
 40
0.5690617830657255
 40
0.5991734674533868
 40
0.6575749477373136
 40
0.7154895426111276
 40
0.7729785188509894
 40
0.8301010515217342
 40
0.886922705656905
 40
0.943522650634819
 40
1.0
 40
1.0
 40
1.0
 40
1.0
 10
144.1331770705451
 20
336.4826659441039
 30
0.0
 10
144.0061529550879
 20
336.4826685751986
 30
0.0
 10
143.7524221815856
 20
336.4826738308123
 30
0.0
 10
143.3647895313129
 20
336.4826950364499
 30
0.0
 10
142.9728932856375
 20
336.4827017328283
 30
0.0
 10
142.5762432259713
 20
336.4826842942268
 30
0.0
 10
142.1749884618906
 20
336.482657792376
 30
0.0
 10
141.7695065408676
 20
336.4826543140902
 30
0.0
 10
141.3605563107399
 20
336.4826602029816
 30
0.0
 10
140.9489437227102
 20
336.4826643955561
 30
0.0
 10
140.5352342499187
 20
336.4826667410483
 30
0.0
 10
140.1198186126972
 20
336.4826657914549
 30
0.0
 10
139.7029972309832
 20
336.4826621348969
 30
0.0
 10
139.2849926551922
 20
336.4826569853688
 30
0.0
 10
138.8659658269377
 20
336.4826517874388
 30
0.0
 10
138.4460342536649
 20
336.4826476090478
 30
0.0
 10
138.0252910846376
 20
336.4826448499319
 30
0.0
 10
137.6038236958011
 20
336.4826432757022
 30
0.0
 10
137.1817325759253
 20
336.4826423141701
 30
0.0
 10
136.759144801261
 20
336.4826420285893
 30
0.0
 10
136.2031099227028
 20
336.4826434638225
 30
0.0
 10
135.5122989650699
 20
336.4826635866833
 30
0.0
 10
134.6853431534442
 20
336.482694498594
 30
0.0
 10
133.8587312590873
 20
336.4826918285938
 30
0.0
 10
133.0328460127428
 20
336.4826855874839
 30
0.0
 10
132.2078952999404
 20
336.4826774775834
 30
0.0
 10
131.3838470646203
 20
336.4826735531296
 30
0.0
 10
130.8346586007501
 20
336.4826747269348
 30
0.0
 10
130.5603620771066
 20
336.482675313201
 30
0.0
  0
SPLINE
  5
B9
330
1F
100
AcDbEntity
  8
0
  6
Continuous
 62
     8
370
     0
100
AcDbSpline
210
0.0
220
0.0
230
1.0
 70
     8
 71
     3
 72
    34
 73
    30
 74
     0
 42
0.00000001
 43
0.00000001
 12
1.0
 22
0.0
 32
0.0
 13
1.0
 23
0.0
 33
0.0
 40
0.0
 40
0.0
 40
0.0
 40
0.0
 40
0.0334083772770494
 40
0.0668458029965287
 40
0.1003377428114915
 40
0.1339061068693304
 40
0.16756964886217
 40
0.2013443574926374
 40
0.235243847688556
 40
0.26927976770073
 40
0.3034622639126558
 40
0.3378006216961959
 40
0.3723041298674751
 40
0.406982779181038
 40
0.4418477574321032
 40
0.476911963625382
 40
0.5121903927209578
 40
0.5476933900012462
 40
0.5834247859212641
 40
0.6193916937406638
 40
0.6556023826072918
 40
0.6920628807478458
 40
0.7287735149547807
 40
0.7657256377278256
 40
0.8028988091702738
 40
0.8519682766722142
 40
0.9011382050786514
 40
0.9504647559643203
 40
1.0
 40
1.0
 40
1.0
 40
1.0
 10
130.5603620771066
 20
336.482675313201
 30
0.0
 10
130.3981066304761
 20
336.482675172677
 30
0.0
 10
130.0734546567922
 20
336.4826748915067
 30
0.0
 10
129.5863704362962
 20
336.4826771795285
 30
0.0
 10
129.0989686941564
 20
336.4826837488781
 30
0.0
 10
128.6111610660243
 20
336.4826928211363
 30
0.0
 10
128.122908657024
 20
336.4827019938059
 30
0.0
 10
127.6342174580248
 20
336.4827089339121
 30
0.0
 10
127.1451339010066
 20
336.4827119435564
 30
0.0
 10
126.6557402983998
 20
336.4827094284957
 30
0.0
 10
126.1661487543112
 20
336.4827003486762
 30
0.0
 10
125.6764938948606
 20
336.4826787857823
 30
0.0
 10
125.1869177357403
 20
336.4826550218112
 30
0.0
 10
124.6975583830638
 20
336.4826416315797
 30
0.0
 10
124.2085460228567
 20
336.4826409841282
 30
0.0
 10
123.7199980140747
 20
336.48264953863
 30
0.0
 10
123.232048258136
 20
336.4826613635491
 30
0.0
 10
122.7448855745588
 20
336.4826749216994
 30
0.0
 10
122.2587466778679
 20
336.4826872007499
 30
0.0
 10
121.7738881828361
 20
336.4826947322446
 30
0.0
 10
121.2905672415336
 20
336.4826949140862
 30
0.0
 10
120.8090810735307
 20
336.482687446516
 30
0.0
 10
120.3298128350324
 20
336.4826747112115
 30
0.0
 10
119.8532616897796
 20
336.4826630288879
 30
0.0
 10
119.3304076952267
 20
336.4826527071911
 30
0.0
 10
118.7647279151027
 20
336.4826652473543
 30
0.0
 10
118.1605167507429
 20
336.4827089051705
 30
0.0
 10
117.5660267114825
 20
336.482683318636
 30
0.0
 10
117.180464816829
 20
336.4826717203293
 30
0.0
 10
116.9872769169156
 20
336.4826659089342
 30
0.0
  0
SPLINE
  5
BA
330
1F
100
AcDbEntity
  8
0
  6
Continuous
 62
     8
370
     0
100
AcDbSpline
210
0.0
220
0.0
230
1.0
 70
     8
 71
     3
 72
    49
 73
    45
 74
     0
 42
0.00000001
 43
0.00000001
 12
1.0
 22
0.0
 32
0.0
 13
1.0
 23
0.0
 33
0.0
 40
0.0
 40
0.0
 40
0.0
 40
0.0
 40
0.0234078672832034
 40
0.0472017751388624
 40
0.0713968697923704
 40
0.0960060155857029
 40
0.1210490205910703
 40
0.1388474203542727
 40
0.1629442845606865
 40
0.2358812205978005
 40
0.2537191346741334
 40
0.2597202366491075
 40
0.3203606616045912
 40
0.3557048665800706
 40
0.4046194470072224
 40
0.4334280337496881
 40
0.4511044077338998
 40
0.4751617236776348
 40
0.5020449835502758
 40
0.508755467637678
 40
0.5177772872370245
 40
0.5559634511733565
 40
0.5639823117082233
 40
0.5666727939534455
 40
0.6224026422523394
 40
0.6311113532161965
 40
0.6399171231110952
 40
0.6834708447652208
 40
0.6966368196604319
 40
0.710030639451034
 40
0.744516415671719
 40
0.7659018516886481
 40
0.8013961239731345
 40
0.814882823683342
 40
0.8374055623727665
 40
0.8718752627790973
 40
0.8802399815471051
 40
0.9043926238700444
 40
0.9265940795947518
 40
0.942111125140673
 40
0.9636073180375153
 40
0.9831827596096893
 40
0.9917575973617149
 40
0.9999999999999999
 40
0.9999999999999999
 40
0.9999999999999999
 40
0.9999999999999999
 10
116.9872769169155
 20
336.4826659089345
 30
0.0
 10
116.9163829153105
 20
336.4833927823827
 30
0.0
 10
116.7734257342068
 20
336.4848585168147
 30
0.0
 10
116.5598603137198
 20
336.4966927069023
 30
0.0
 10
116.3449647640015
 20
336.5157798091938
 30
0.0
 10
116.1290789426632
 20
336.5430136068724
 30
0.0
 10
115.9345121811781
 20
336.5747595502886
 30
0.0
 10
115.7437948789276
 20
336.6119856658004
 30
0.0
 10
115.4207270574091
 20
336.6852483757973
 30
0.0
 10
115.1072414330472
 20
336.779957513768
 30
0.0
 10
114.8517491590826
 20
336.8752263450988
 30
0.0
 10
114.6306699445066
 20
336.9618882208433
 30
0.0
 10
114.3703437199226
 20
337.0783359980898
 30
0.0
 10
114.0148001391963
 20
337.2667049088472
 30
0.0
 10
113.7472158902825
 20
337.4291375490937
 30
0.0
 10
113.5293869422949
 20
337.5779437595063
 30
0.0
 10
113.371859006786
 20
337.6931379630922
 30
0.0
 10
113.2217552732166
 20
337.8097038815035
 30
0.0
 10
113.0988874251333
 20
337.9122812578464
 30
0.0
 10
113.0096744137156
 20
337.990364368264
 30
0.0
 10
112.8977576291756
 20
338.0905041416195
 30
0.0
 10
112.7860688986041
 20
338.1972543715025
 30
0.0
 10
112.6898341361332
 20
338.2954182279746
 30
0.0
 10
112.5599042155185
 20
338.4299622932461
 30
0.0
 10
112.4331828698712
 20
338.5723881774438
 30
0.0
 10
112.3008289773069
 20
338.7358397057587
 30
0.0
 10
112.1918178398836
 20
338.8739811074619
 30
0.0
 10
112.0791700826003
 20
339.0283036024608
 30
0.0
 10
111.964027515772
 20
339.200803026918
 30
0.0
 10
111.8660158177085
 20
339.3540874117045
 30
0.0
 10
111.7594880900915
 20
339.5345364407959
 30
0.0
 10
111.6267728146128
 20
339.7830373841788
 30
0.0
 10
111.5309765890923
 20
339.9830988193818
 30
0.0
 10
111.4399090583378
 20
340.1943054822381
 30
0.0
 10
111.3548709961683
 20
340.4083777869745
 30
0.0
 10
111.283496495828
 20
340.6159278953199
 30
0.0
 10
111.2169410458055
 20
340.8355292265119
 30
0.0
 10
111.1667715400772
 20
341.0193012717665
 30
0.0
 10
111.1175146395472
 20
341.2339161764327
 30
0.0
 10
111.0767001290547
 20
341.4442822910975
 30
0.0
 10
111.0439432399645
 20
341.6497221244003
 30
0.0
 10
111.0218489508546
 20
341.8336100165386
 30
0.0
 10
111.0089882789955
 20
341.9697609589008
 30
0.0
 10
111.0042788972851
 20
342.0330903655877
 30
0.0
 10
111.0019707528254
 20
342.0641291363159
 30
0.0
  0
SPLINE
  5
BB
330
1F
100
AcDbEntity
  8
0
  6
Continuous
 62
     8
370
     0
100
AcDbSpline
210
0.0
220
0.0
230
1.0
 70
     8
 71
     3
 72
     9
 73
     5
 74
     0
 42
0.00000001
 43
0.00000001
 12
1.0
 22
0.0
 32
0.0
 13
1.0
 23
0.0
 33
0.0
 40
0.0
 40
0.0
 40
0.0
 40
0.0
 40
0.5058905555305573
 40
1.0
 40
1.0
 40
1.0
 40
1.0
 10
111.0019707528254
 20
342.0641291363157
 30
0.0
 10
110.953061344388
 20
342.7634274554687
 30
0.0
 10
110.8563815232238
 20
344.1457389287864
 30
0.0
 10
110.7598257098919
 20
345.5269977270331
 30
0.0
 10
110.7121165706063
 20
346.2094907445032
 30
0.0
  0
SPLINE
  5
BC
330
1F
100
AcDbEntity
  8
0
  6
Continuous
 62
     8
370
     0
100
AcDbSpline
210
0.0
220
0.0
230
1.0
 70
     8
 71
     3
 72
     9
 73
     5
 74
     0
 42
0.00000001
 43
0.00000001
 12
1.0
 22
0.0
 32
0.0
 13
1.0
 23
0.0
 33
0.0
 40
0.0
 40
0.0
 40
0.0
 40
0.0
 40
0.4975725135429806
 40
1.0
 40
1.0
 40
1.0
 40
1.0
 10
110.7122389674194
 20
346.2095293800488
 30
0.0
 10
110.7057968176898
 20
346.3069578421861
 30
0.0
 10
110.6928496601313
 20
346.5027654068834
 30
0.0
 10
110.6842344549286
 20
346.6996577713791
 30
0.0
 10
110.6799059390333
 20
346.7985819071752
 30
0.0
  0
SPLINE
  5
BD
330
1F
100
AcDbEntity
  8
0
  6
Continuous
 62
     8
370
     0
100
AcDbSpline
210
0.0
220
0.0
230
1.0
 70
     8
 71
     3
 72
    35
 73
    31
 74
     0
 42
0.00000001
 43
0.00000001
 12
1.0
 22
0.0
 32
0.0
 13
1.0
 23
0.0
 33
0.0
 40
0.0
 40
0.0
 40
0.0
 40
0.0
 40
0.0334866404902083
 40
0.0666084853126006
 40
0.0995472215350065
 40
0.1324944157982508
 40
0.1656606497959556
 40
0.1992862478360533
 40
0.2336429789118953
 40
0.255959705526712
 40
0.2865769821539141
 40
0.401399712699275
 40
0.4144752222746032
 40
0.4277371587261
 40
0.5256100185546423
 40
0.5661412711406146
 40
0.5705716111209718
 40
0.5966817709948448
 40
0.6520875089818425
 40
0.669238415633695
 40
0.6726496072522332
 40
0.6827376437679178
 40
0.6958593327384952
 40
0.7464028759230085
 40
0.7561241353654852
 40
0.7592993652016837
 40
0.8278828802285639
 40
0.8894490242227929
 40
0.9463120655270272
 40
1.0
 40
1.0
 40
1.0
 40
1.0
 10
110.6836794207058
 20
363.2957130798971
 30
0.0
 10
110.6878405906813
 20
363.3916068315468
 30
0.0
 10
110.6961175998149
 20
363.5823496906338
 30
0.0
 10
110.713876688827
 20
363.8662166208817
 30
0.0
 10
110.7354664928855
 20
364.1472738631458
 30
0.0
 10
110.7615640361962
 20
364.4267718953201
 30
0.0
 10
110.792523526888
 20
364.7061352876672
 30
0.0
 10
110.8290025365097
 20
364.9868850402067
 30
0.0
 10
110.8663798098589
 20
365.2347748108717
 30
0.0
 10
110.9065324223251
 20
365.4718239613788
 30
0.0
 10
110.9912021911469
 20
365.9220468120946
 30
0.0
 10
111.092086865931
 20
366.332972895776
 30
0.0
 10
111.2009020450628
 20
366.6777767208188
 30
0.0
 10
111.3001497430985
 20
366.9773434267865
 30
0.0
 10
111.4403711801229
 20
367.3231952414636
 30
0.0
 10
111.5961168572396
 20
367.614114568797
 30
0.0
 10
111.6774495307461
 20
367.7528155759249
 30
0.0
 10
111.7789603512092
 20
367.9155164038488
 30
0.0
 10
111.9051828503286
 20
368.0861715907434
 30
0.0
 10
112.0085374504211
 20
368.2054623258671
 30
0.0
 10
112.0509364865449
 20
368.2522123820563
 30
0.0
 10
112.0881591396306
 20
368.2920286735339
 30
0.0
 10
112.1931345199292
 20
368.3985519241624
 30
0.0
 10
112.3026643665229
 20
368.4942127207761
 30
0.0
 10
112.400963597853
 20
368.5683095093532
 30
0.0
 10
112.5282086430555
 20
368.6611527128622
 30
0.0
 10
112.7455920684493
 20
368.7919403069015
 30
0.0
 10
113.0698035907255
 20
368.9225058567336
 30
0.0
 10
113.3810501518645
 20
369.0047553507183
 30
0.0
 10
113.5893384682794
 20
369.0304433475465
 30
0.0
 10
113.6904915282552
 20
369.0429184567055
 30
0.0
  0
SPLINE
  5
BE
330
1F
100
AcDbEntity
  8
0
  6
Continuous
 62
     8
370
     0
100
AcDbSpline
210
0.0
220
0.0
230
1.0
 70
     8
 71
     3
 72
    38
 73
    34
 74
     0
 42
0.00000001
 43
0.00000001
 12
1.0
 22
0.0
 32
0.0
 13
1.0
 23
0.0
 33
0.0
 40
0.0
 40
0.0
 40
0.0
 40
0.0
 40
0.020243267255417
 40
0.0404111891641268
 40
0.0608750300576749
 40
0.0730696686349817
 40
0.0974259628599936
 40
0.128502503520475
 40
0.1471225186696291
 40
0.1965809822284673
 40
0.2539940789331221
 40
0.2731380036787303
 40
0.2986767366921985
 40
0.3637574480475902
 40
0.3767560490318588
 40
0.4026951936120524
 40
0.5001861740672263
 40
0.5010583937504183
 40
0.501930284483822
 40
0.5071547304465394
 40
0.5904298031806829
 40
0.6157924809676204
 40
0.6252365715726365
 40
0.6409011149182114
 40
0.714868745513672
 40
0.7456684378207559
 40
0.7640289680697943
 40
0.8126242365553951
 40
0.8752619157668106
 40
0.8877361012002458
 40
0.9126457345554608
 40
0.9563486467904256
 40
1.0
 40
1.0
 40
1.0
 40
1.0
 10
113.6904904339214
 20
369.0429437561219
 30
0.0
 10
113.7760358208671
 20
369.0510835715069
 30
0.0
 10
113.9468081952255
 20
369.0673329059218
 30
0.0
 10
114.2102831549808
 20
369.091989426571
 30
0.0
 10
114.4428155651376
 20
369.1133801249518
 30
0.0
 10
114.6974541573132
 20
369.1364932348176
 30
0.0
 10
115.0041811361306
 20
369.1638983974811
 30
0.0
 10
115.3477113966127
 20
369.1939057976605
 30
0.0
 10
115.8165914781052
 20
369.2338777834098
 30
0.0
 10
116.4252953356078
 20
369.2841056266348
 30
0.0
 10
117.0594355979622
 20
369.333573770249
 30
0.0
 10
117.5855980398848
 20
369.372705457976
 30
0.0
 10
118.1589747701791
 20
369.4142204982301
 30
0.0
 10
118.7146433903645
 20
369.4522798646154
 30
0.0
 10
119.2835702540155
 20
369.4891728165784
 30
0.0
 10
120.0369759849397
 20
369.5366820417719
 30
0.0
 10
120.7441448727815
 20
369.577260348871
 30
0.0
 10
121.3192223638442
 20
369.6073589071564
 30
0.0
 10
121.3596195903471
 20
369.6094697094495
 30
0.0
 10
121.878310941887
 20
369.6364137892286
 30
0.0
 10
122.550612360726
 20
369.6684108089281
 30
0.0
 10
123.259334633753
 20
369.6982103594336
 30
0.0
 10
123.5638076685877
 20
369.7104671912799
 30
0.0
 10
124.1635957626694
 20
369.7338365025558
 30
0.0
 10
124.9017901930633
 20
369.759213685294
 30
0.0
 10
125.6647116511058
 20
369.7812356887401
 30
0.0
 10
126.2732546368485
 20
369.7972144139515
 30
0.0
 10
127.084776848896
 20
369.8156509369516
 30
0.0
 10
127.8655162385117
 20
369.8287798632425
 30
0.0
 10
128.4988035191825
 20
369.8368718132854
 30
0.0
 10
129.0130081196374
 20
369.8423754260147
 30
0.0
 10
129.7265180520166
 20
369.8476251968107
 30
0.0
 10
130.2824822589897
 20
369.8483781390024
 30
0.0
 10
130.5603002893625
 20
369.848754387894
 30
0.0
  0
SPLINE
  5
BF
330
1F
100
AcDbEntity
  8
0
  6
Continuous
 62
     8
370
     0
100
AcDbSpline
210
0.0
220
0.0
230
1.0
 70
     8
 71
     3
 72
    40
 73
    36
 74
     0
 42
0.00000001
 43
0.00000001
 12
1.0
 22
0.0
 32
0.0
 13
1.0
 23
0.0
 33
0.0
 40
0.0
 40
0.0
 40
0.0
 40
0.0
 40
0.02335135309958
 40
0.0467163003742813
 40
0.0700994618645169
 40
0.0935063189977941
 40
0.1169481761641467
 40
0.1294193509006022
 40
0.1544127588244816
 40
0.2290110787000712
 40
0.247360293498836
 40
0.2534949485573542
 40
0.3504906775644344
 40
0.380648247082761
 40
0.3867216855217832
 40
0.4487440491014431
 40
0.4868084308940759
 40
0.4996326666958228
 40
0.5005038991766317
 40
0.50311950425069
 40
0.5066114350712323
 40
0.5932889715370862
 40
0.6242678456425259
 40
0.6277186680522225
 40
0.6484464504761298
 40
0.7447449792029592
 40
0.7513767005235494
 40
0.7845137348948419
 40
0.8647254835848777
 40
0.8715076322040247
 40
0.8918460450476511
 40
0.9326947630598375
 40
0.9395145542750062
 40
0.969883049771422
 40
1.0
 40
1.0
 40
1.0
 40
1.0
 10
130.5603002893629
 20
369.8487543878944
 30
0.0
 10
130.708910429001
 20
369.8486468848636
 30
0.0
 10
131.0062172228466
 20
369.8484318162181
 30
0.0
 10
131.4521561987817
 20
369.8466854699403
 30
0.0
 10
131.8980912353411
 20
369.8438908780464
 30
0.0
 10
132.343980168681
 20
369.8399485437598
 30
0.0
 10
132.7199915800056
 20
369.8356820663338
 30
0.0
 10
133.1054619571171
 20
369.8305629040069
 30
0.0
 10
133.8134214351428
 20
369.8197363939056
 30
0.0
 10
134.5546016858311
 20
369.8044682525912
 30
0.0
 10
135.172135150975
 20
369.7887141820106
 30
0.0
 10
135.9275614469584
 20
369.7684549624978
 30
0.0
 10
136.7489129727268
 20
369.7418560966828
 30
0.0
 10
137.5558431350897
 20
369.7105580609696
 30
0.0
 10
138.1478887172492
 20
369.6864892232766
 30
0.0
 10
138.7813661321538
 20
369.6584991903455
 30
0.0
 10
139.4434702712147
 20
369.6259179773296
 30
0.0
 10
139.7441018557015
 20
369.610366234601
 30
0.0
 10
139.838589510799
 20
369.6054141183799
 30
0.0
 10
139.8789893632701
 20
369.6032897171257
 30
0.0
 10
140.4154751864597
 20
369.5749156008932
 30
0.0
 10
141.103997775815
 20
369.5353792082905
 30
0.0
 10
141.7733213615978
 20
369.4932486426129
 30
0.0
 10
142.0755720859129
 20
369.4737389117599
 30
0.0
 10
142.7317228048123
 20
369.4306273648535
 30
0.0
 10
143.3852552358413
 20
369.3842625172928
 30
0.0
 10
144.0814075740913
 20
369.3317455574768
 30
0.0
 10
144.6876150493656
 20
369.2848522601099
 30
0.0
 10
145.2722049051016
 20
369.2367480514228
 30
0.0
 10
145.7774429642964
 20
369.1934294920187
 30
0.0
 10
146.0940499555875
 20
369.1659104329278
 30
0.0
 10
146.4032146623885
 20
369.1383368610674
 30
0.0
 10
146.7507462488317
 20
369.106713650585
 30
0.0
 10
147.0462557375608
 20
369.0793798841594
 30
0.0
 10
147.3025359785359
 20
369.0550497313785
 30
0.0
 10
147.4301431932882
 20
369.0429352467852
 30
0.0
  0
SPLINE
  5
C0
330
1F
100
AcDbEntity
  8
0
  6
Continuous
 62
     8
370
     0
100
AcDbSpline
210
0.0
220
0.0
230
1.0
 70
     8
 71
     3
 72
    32
 73
    28
 74
     0
 42
0.00000001
 43
0.00000001
 12
1.0
 22
0.0
 32
0.0
 13
1.0
 23
0.0
 33
0.0
 40
0.0
 40
0.0
 40
0.0
 40
0.0
 40
0.0301412351970901
 40
0.0612796590448969
 40
0.0935598724127709
 40
0.1271735157925181
 40
0.1624231592105249
 40
0.1997243803292094
 40
0.2400725973231393
 40
0.244291112047972
 40
0.2661537739022409
 40
0.3143244480046313
 40
0.3315532227573741
 40
0.3351020897921662
 40
0.345919831674769
 40
0.3607519886800675
 40
0.456815875697189
 40
0.5562509433025182
 40
0.5899189734161459
 40
0.5964998569045789
 40
0.6583613653529923
 40
0.7552264757260878
 40
0.7703605712321897
 40
0.7853250173739088
 40
0.8575010987205385
 40
0.9283684111920307
 40
1.0
 40
1.0
 40
1.0
 40
1.0
 10
147.4301423303849
 20
369.04291565681
 30
0.0
 10
147.4871202653321
 20
369.0365830690319
 30
0.0
 10
147.602961185713
 20
369.0237083869767
 30
0.0
 10
147.7760881786378
 20
368.991726918812
 30
0.0
 10
147.9523150551755
 20
368.9480863716923
 30
0.0
 10
148.1317491975179
 20
368.8896102317052
 30
0.0
 10
148.3150226616731
 20
368.8135104872519
 30
0.0
 10
148.5036094365737
 20
368.7153074416186
 30
0.0
 10
148.6349778585817
 20
368.6301955762658
 30
0.0
 10
148.7387512306599
 20
368.5545626815551
 30
0.0
 10
148.8529082575584
 20
368.4657252236785
 30
0.0
 10
148.9810491992302
 20
368.3475696788494
 30
0.0
 10
149.0773529697489
 20
368.2442748788393
 30
0.0
 10
149.1207593287138
 20
368.195505206015
 30
0.0
 10
149.1604074113155
 20
368.1495125277033
 30
0.0
 10
149.3221438476651
 20
367.9510665398323
 30
0.0
 10
149.5752690886199
 20
367.5569497533323
 30
0.0
 10
149.7960369285783
 20
367.0463235532189
 30
0.0
 10
149.9093381659756
 20
366.7112218456925
 30
0.0
 10
149.9877998379046
 20
366.4615350566029
 30
0.0
 10
150.1028042369051
 20
366.0443688666444
 30
0.0
 10
150.196925349338
 20
365.5810122440543
 30
0.0
 10
150.2537386066088
 20
365.2352550361388
 30
0.0
 10
150.2970396224452
 20
364.9551405871563
 30
0.0
 10
150.3526889551562
 20
364.5155572970419
 30
0.0
 10
150.4074474830343
 20
363.9084827759972
 30
0.0
 10
150.4271472932871
 20
363.5006901677359
 30
0.0
 10
150.4370500272377
 20
363.2957002894166
 30
0.0
  0
LINE
  5
C1
330
1F
100
AcDbEntity
  8
0
  6
Continuous
 62
     8
370
     0
100
AcDbLine
 10
122.2803634511
 20
410.1826650997
 30
0.0
 11
138.8403628872
 21
410.1826650997
 31
0.0
  0
LINE
  5
C2
330
1F
100
AcDbEntity
  8
0
  6
Continuous
 62
     8
370
     0
100
AcDbLine
 10
138.8403628872
 20
400.1826671859
 30
0.0
 11
122.2803634511
 21
400.1826671859
 31
0.0
  0
ARC
  5
C3
330
1F
100
AcDbEntity
  8
0
  6
Continuous
 62
     8
370
     0
100
AcDbCircle
 10
130.5048445891
 20
389.8219680317
 30
0.0
 40
2.299976779745994
100
AcDbArc
 50
279.7750094069
 51
79.7449866152
  0
ARC
  5
C4
330
1F
100
AcDbEntity
  8
0
  6
Continuous
 62
     8
370
     0
100
AcDbCircle
 10
130.5048053412
 20
389.8219680465
 30
0.0
 40
2.399976898617248
100
AcDbArc
 50
99.3536888637
 51
260.1663076957
  0
SPLINE
  5
C5
330
1F
100
AcDbEntity
  8
0
  6
Continuous
 62
     8
370
     0
100
AcDbSpline
210
0.0
220
0.0
230
1.0
 70
     8
 71
     3
 72
    22
 73
    18
 74
     0
 42
0.00000001
 43
0.00000001
 12
1.0
 22
0.0
 32
0.0
 13
1.0
 23
0.0
 33
0.0
 40
0.0
 40
0.0
 40
0.0
 40
0.0
 40
0.125
 40
0.125
 40
0.25
 40
0.25
 40
0.375
 40
0.375
 40
0.5
 40
0.5
 40
0.625
 40
0.625
 40
0.75
 40
0.75
 40
0.875
 40
0.875
 40
1.0
 40
1.0
 40
1.0
 40
1.0
 10
122.2803631691657
 20
400.1826663633265
 30
0.0
 10
122.094268910836
 20
400.1826663633265
 30
0.0
 10
121.9126471953139
 20
400.2029022948475
 30
0.0
 10
121.5575946289297
 20
400.2806754240436
 30
0.0
 10
121.3826911334286
 20
400.33893417836
 30
0.0
 10
121.04805226078
 20
400.4910707102807
 30
0.0
 10
120.8905912262651
 20
400.5834981852157
 30
0.0
 10
120.5941237744929
 20
400.7997596009562
 30
0.0
 10
120.4537100596071
 20
400.9252803048743
 30
0.0
 10
120.2003963545328
 20
401.2011002560859
 30
0.0
 10
120.0874405654385
 20
401.3506929958297
 30
0.0
 10
119.8884081670247
 20
401.6733669700876
 30
0.0
 10
119.8016510355142
 20
401.8487263720862
 30
0.0
 10
119.6630829543888
 20
402.2105000769927
 30
0.0
 10
119.6104460017744
 20
402.3973770501858
 30
0.0
 10
119.5389206483471
 20
402.7834292159154
 30
0.0
 10
119.5203631691657
 20
402.9831780481385
 30
0.0
 10
119.5203631691657
 20
403.1826663633265
 30
0.0
  0
SPLINE
  5
C6
330
1F
100
AcDbEntity
  8
0
  6
Continuous
 62
     8
370
     0
100
AcDbSpline
210
0.0
220
0.0
230
1.0
 70
     8
 71
     3
 72
    22
 73
    18
 74
     0
 42
0.00000001
 43
0.00000001
 12
1.0
 22
0.0
 32
0.0
 13
1.0
 23
0.0
 33
0.0
 40
0.0
 40
0.0
 40
0.0
 40
0.0
 40
0.125
 40
0.125
 40
0.25
 40
0.25
 40
0.375
 40
0.375
 40
0.5
 40
0.5
 40
0.625
 40
0.625
 40
0.75
 40
0.75
 40
0.875
 40
0.875
 40
1.0
 40
1.0
 40
1.0
 40
1.0
 10
138.8403631691657
 20
410.1826663633265
 30
0.0
 10
139.0264574274955
 20
410.1826663633266
 30
0.0
 10
139.2080791430176
 20
410.1624304318054
 30
0.0
 10
139.5631317094018
 20
410.0846573026093
 30
0.0
 10
139.7380352049028
 20
410.0263985482931
 30
0.0
 10
140.0726740775514
 20
409.8742620163724
 30
0.0
 10
140.2301351120664
 20
409.7818345414374
 30
0.0
 10
140.5266025638386
 20
409.5655731256969
 30
0.0
 10
140.6670162787244
 20
409.4400524217787
 30
0.0
 10
140.9203299837986
 20
409.1642324705672
 30
0.0
 10
141.0332857728929
 20
409.0146397308234
 30
0.0
 10
141.2323181713067
 20
408.6919657565655
 30
0.0
 10
141.3190753028173
 20
408.5166063545669
 30
0.0
 10
141.4576433839426
 20
408.1548326496604
 30
0.0
 10
141.5102803365571
 20
407.9679556764673
 30
0.0
 10
141.5818056899843
 20
407.5819035107376
 30
0.0
 10
141.6003631691657
 20
407.3821546785144
 30
0.0
 10
141.6003631691657
 20
407.1826663633265
 30
0.0
  0
SPLINE
  5
C7
330
1F
100
AcDbEntity
  8
0
  6
Continuous
 62
     8
370
     0
100
AcDbSpline
210
0.0
220
0.0
230
1.0
 70
     8
 71
     3
 72
    20
 73
    16
 74
     0
 42
0.00000001
 43
0.00000001
 12
1.0
 22
0.0
 32
0.0
 13
1.0
 23
0.0
 33
0.0
 40
0.0
 40
0.0
 40
0.0
 40
0.0
 40
0.1250000000000006
 40
0.1250000000000006
 40
0.2500000000000012
 40
0.2500000000000012
 40
0.4999999999999987
 40
0.4999999999999987
 40
0.624999999999999
 40
0.624999999999999
 40
0.7499999999999992
 40
0.7499999999999992
 40
0.8749999999999997
 40
0.8749999999999997
 40
1.0
 40
1.0
 40
1.0
 40
1.0
 10
141.6003631691657
 20
403.1826663633265
 30
0.0
 10
141.6003631691657
 20
402.9835782248316
 30
0.0
 10
141.5823121514931
 20
402.7878355778703
 30
0.0
 10
141.511576349155
 20
402.402741309782
 30
0.0
 10
141.4580137885986
 20
402.2116908390648
 30
0.0
 10
141.2504420120476
 20
401.6690933205192
 30
0.0
 10
141.0460643070688
 20
401.3380377230223
 30
0.0
 10
140.6676477748506
 20
400.9259519261038
 30
0.0
 10
140.5275635099148
 20
400.8004873746162
 30
0.0
 10
140.2296968429492
 20
400.5831517309491
 30
0.0
 10
140.0722608602449
 20
400.4909384403521
 30
0.0
 10
139.7397789610406
 20
400.3396715718189
 30
0.0
 10
139.5638366423033
 20
400.2808465280184
 30
0.0
 10
139.2078224870763
 20
400.2028294055102
 30
0.0
 10
139.0260965691733
 20
400.1826663633265
 30
0.0
 10
138.8403631691657
 20
400.1826663633266
 30
0.0
  0
SPLINE
  5
C8
330
1F
100
AcDbEntity
  8
0
  6
Continuous
 62
     8
370
     0
100
AcDbSpline
210
0.0
220
0.0
230
1.0
 70
     8
 71
     3
 72
    20
 73
    16
 74
     0
 42
0.00000001
 43
0.00000001
 12
1.0
 22
0.0
 32
0.0
 13
1.0
 23
0.0
 33
0.0
 40
0.0
 40
0.0
 40
0.0
 40
0.0
 40
0.1250000000000006
 40
0.1250000000000006
 40
0.2500000000000012
 40
0.2500000000000012
 40
0.4999999999999987
 40
0.4999999999999987
 40
0.624999999999999
 40
0.624999999999999
 40
0.7499999999999992
 40
0.7499999999999992
 40
0.8749999999999997
 40
0.8749999999999997
 40
1.0
 40
1.0
 40
1.0
 40
1.0
 10
119.5203631691657
 20
407.1826663633266
 30
0.0
 10
119.5203631691657
 20
407.3817545018214
 30
0.0
 10
119.5384141868384
 20
407.5774971487828
 30
0.0
 10
119.6091499891765
 20
407.962591416871
 30
0.0
 10
119.6627125497329
 20
408.1536418875883
 30
0.0
 10
119.8702843262839
 20
408.6962394061339
 30
0.0
 10
120.0746620312626
 20
409.0272950036308
 30
0.0
 10
120.4530785634809
 20
409.4393808005492
 30
0.0
 10
120.5931628284166
 20
409.5648453520367
 30
0.0
 10
120.8910294953823
 20
409.782180995704
 30
0.0
 10
121.0484654780865
 20
409.874394286301
 30
0.0
 10
121.3809473772908
 20
410.0256611548341
 30
0.0
 10
121.5568896960281
 20
410.0844861986347
 30
0.0
 10
121.9129038512552
 20
410.1625033211429
 30
0.0
 10
122.0946297691582
 20
410.1826663633265
 30
0.0
 10
122.2803631691657
 20
410.1826663633266
 30
0.0
  0
LINE
  5
C9
330
1F
100
AcDbEntity
  8
0
  6
Continuous
 62
     8
370
     0
100
AcDbLine
 10
141.6003634141
 20
407.1826664706
 30
0.0
 11
141.6003634141
 21
403.182665815
 31
0.0
  0
LINE
  5
CA
330
1F
100
AcDbEntity
  8
0
  6
Continuous
 62
     8
370
     0
100
AcDbLine
 10
119.5203629242
 20
403.182665815
 30
0.0
 11
119.5203629242
 21
407.1826664706
 31
0.0
  0
SPLINE
  5
CB
330
1F
100
AcDbEntity
  8
0
  6
Continuous
 62
     8
370
     0
100
AcDbSpline
210
0.0
220
0.0
230
1.0
 70
     8
 71
     3
 72
    10
 73
     6
 74
     0
 42
0.00000001
 43
0.00000001
 12
1.0
 22
0.0
 32
0.0
 13
1.0
 23
0.0
 33
0.0
 40
0.0
 40
0.0
 40
0.0
 40
0.0
 40
0.5
 40
0.5
 40
1.0
 40
1.0
 40
1.0
 40
1.0
 10
150.4369657324036
 20
363.2956433395451
 30
0.0
 10
150.545513739867
 20
360.5793018675059
 30
0.0
 10
150.5990763486048
 20
357.8145762244951
 30
0.0
 10
150.6003264006648
 20
352.2818740251136
 30
0.0
 10
150.5480134417957
 20
349.5164393166731
 30
0.0
 10
150.4407516814119
 20
346.798987488208
 30
0.0
  0
SPLINE
  5
CC
330
1F
100
AcDbEntity
  8
0
  6
Continuous
 62
     8
370
     0
100
AcDbSpline
210
0.0
220
0.0
230
1.0
 70
     8
 71
     3
 72
    10
 73
     6
 74
     0
 42
0.00000001
 43
0.00000001
 12
1.0
 22
0.0
 32
0.0
 13
1.0
 23
0.0
 33
0.0
 40
0.0
 40
0.0
 40
0.0
 40
0.0
 40
0.4999999999999999
 40
0.4999999999999999
 40
1.0
 40
1.0
 40
1.0
 40
1.0
 10
110.6799746569196
 20
346.798987488208
 30
0.0
 10
110.5727128977584
 20
349.5164392862509
 30
0.0
 10
110.5204002755255
 20
352.2818472336688
 30
0.0
 10
110.5216496397664
 20
357.8145494399255
 30
0.0
 10
110.5752125970515
 20
360.5793018340092
 30
0.0
 10
110.6837606059278
 20
363.2956433395451
 30
0.0
  0
LINE
  5
CD
330
1F
100
AcDbEntity
  8
0
  6
Continuous
 62
     7
370
    15
100
AcDbLine
 10
218.264211899
 20
411.6826681395
 30
0.0
 11
218.264211899
 21
382.2381878247
 31
0.0
  0
LINE
  5
CE
330
1F
100
AcDbEntity
  8
0
  6
Continuous
 62
     7
370
    15
100
AcDbLine
 10
264.2642119884
 20
410.1826650997
 30
0.0
 11
264.2642119884
 21
411.6826681395
 31
0.0
  0
LINE
  5
CF
330
1F
100
AcDbEntity
  8
0
  6
Continuous
 62
     7
370
    15
100
AcDbLine
 10
264.2642119884
 20
392.8146278461
 30
0.0
 11
264.2642119884
 21
400.1826671859
 31
0.0
  0
LINE
  5
D0
330
1F
100
AcDbEntity
  8
0
  6
Continuous
 62
     7
370
    15
100
AcDbLine
 10
264.2642119884
 20
378.1826663738
 30
0.0
 11
264.2642119884
 21
386.8250576754
 31
0.0
  0
ARC
  5
D1
330
1F
100
AcDbEntity
  8
0
  6
Continuous
 62
     7
370
    15
100
AcDbCircle
 10
219.7642119437
 20
411.6826663633
 30
0.0
 40
1.5
100
AcDbArc
 50
90.0
 51
180.0
  0
ARC
  5
D2
330
1F
100
AcDbEntity
  8
0
  6
Continuous
 62
     7
370
    15
100
AcDbCircle
 10
262.7642119437
 20
411.6826663633
 30
0.0
 40
1.5
100
AcDbArc
 50
0.0
 51
90.0
  0
LINE
  5
D3
330
1F
100
AcDbEntity
  8
0
  6
Continuous
 62
     7
370
    15
100
AcDbLine
 10
218.7642110496
 20
369.9826663335
 30
0.0
 11
218.7642110496
 21
276.0326666733
 31
0.0
  0
LINE
  5
D4
330
1F
100
AcDbEntity
  8
0
  6
Continuous
 62
     7
370
    15
100
AcDbLine
 10
263.7642128377
 20
369.8487537888
 30
0.0
 11
263.7642128377
 21
369.9826663335
 31
0.0
  0
LINE
  5
D5
330
1F
100
AcDbEntity
  8
0
  6
Continuous
 62
     7
370
    15
100
AcDbLine
 10
263.7642128377
 20
276.0326666733
 30
0.0
 11
263.7642128377
 21
336.4826654991
 31
0.0
  0
ARC
  5
D6
330
1F
100
AcDbEntity
  8
0
  6
Continuous
 62
     7
370
    15
100
AcDbCircle
 10
219.2642119437
 20
369.9826663633
 30
0.0
 40
0.5
100
AcDbArc
 50
90.0
 51
180.0
  0
ARC
  5
D7
330
1F
100
AcDbEntity
  8
0
  6
Continuous
 62
     7
370
    15
100
AcDbCircle
 10
263.2642119437
 20
369.9826663633
 30
0.0
 40
0.5
100
AcDbArc
 50
0.0
 51
90.0
  0
ARC
  5
D8
330
1F
100
AcDbEntity
  8
0
  6
Continuous
 62
     7
370
    15
100
AcDbCircle
 10
241.2643346085
 20
372.5561322684
 30
0.0
 40
22.0
100
AcDbArc
 50
155.4120908982
 51
180.1889246576
  0
ARC
  5
D9
330
1F
100
AcDbEntity
  8
0
  6
Continuous
 62
     7
370
    15
100
AcDbCircle
 10
241.2643346085
 20
372.5561322684
 30
0.0
 40
22.0
100
AcDbArc
 50
0.0
 51
14.818122559
  0
LINE
  5
DA
330
1F
100
AcDbEntity
  8
0
  6
Continuous
 62
     7
370
    15
100
AcDbLine
 10
219.2642120629
 20
372.4826667433
 30
0.0
 11
219.2642120629
 21
370.4826664155
 31
0.0
  0
LINE
  5
DB
330
1F
100
AcDbEntity
  8
0
  6
Continuous
 62
     7
370
    15
100
AcDbLine
 10
263.2642118245
 20
370.4826664155
 30
0.0
 11
263.2642118245
 21
372.4826667433
 31
0.0
  0
SPLINE
  5
DC
330
1F
100
AcDbEntity
  8
0
  6
Continuous
 62
     7
370
    15
100
AcDbSpline
210
0.0
220
0.0
230
1.0
 70
     8
 71
     3
 72
    16
 73
    12
 74
     0
 42
0.00000001
 43
0.00000001
 12
1.0
 22
0.0
 32
0.0
 13
1.0
 23
0.0
 33
0.0
 40
0.0
 40
0.0
 40
0.0
 40
0.0
 40
0.0997978340098874
 40
0.2089590028337776
 40
0.2982029705756097
 40
0.4211034840430423
 40
0.5849730118699624
 40
0.6747124097613649
 40
0.7686425350051576
 40
0.8734241523878549
 40
1.0
 40
1.0
 40
1.0
 40
1.0
 10
263.7782925724322
 20
336.4822240521586
 30
0.0
 10
263.7833173752382
 20
336.8742285061873
 30
0.0
 10
263.7938384230563
 20
337.6950164584799
 30
0.0
 10
263.9490924492619
 20
338.8572593367151
 30
0.0
 10
264.1679659405185
 20
340.0995691880452
 30
0.0
 10
264.5207324951569
 20
341.5328701322886
 30
0.0
 10
265.0424192311302
 20
342.9257117665583
 30
0.0
 10
265.7990135777234
 20
344.0668352621254
 30
0.0
 10
266.6397576075914
 20
344.836476936414
 30
0.0
 10
267.7966436421848
 20
345.4144931951553
 30
0.0
 10
268.6965246121827
 20
345.5539013805119
 30
0.0
 10
269.188850185209
 20
345.6301717062867
 30
0.0
  0
SPLINE
  5
DD
330
1F
100
AcDbEntity
  8
0
  6
Continuous
 62
     7
370
    15
100
AcDbSpline
210
0.0
220
0.0
230
1.0
 70
     8
 71
     3
 72
    12
 73
     8
 74
     0
 42
0.00000001
 43
0.00000001
 12
1.0
 22
0.0
 32
0.0
 13
1.0
 23
0.0
 33
0.0
 40
0.0
 40
0.0
 40
0.0
 40
0.0
 40
0.1766652680164647
 40
0.3399056313926044
 40
0.6386174535082111
 40
0.8752065166672082
 40
0.9999999999999999
 40
0.9999999999999999
 40
0.9999999999999999
 40
0.9999999999999999
 10
266.1932194589908
 20
365.1563117721504
 30
0.0
 10
265.8949912522907
 20
365.3024924567724
 30
0.0
 10
265.3211973875676
 20
365.5837454640085
 30
0.0
 10
264.5430128775914
 20
366.5162148326787
 30
0.0
 10
264.0422909487855
 20
367.7313769563697
 30
0.0
 10
263.7859052808393
 20
368.9427177705621
 30
0.0
 10
263.7804460038807
 20
369.6165843564941
 30
0.0
 10
263.7785607933337
 20
369.8492855740166
 30
0.0
  0
SPLINE
  5
DE
330
1F
100
AcDbEntity
  8
0
  6
Continuous
 62
     7
370
    15
100
AcDbSpline
210
0.0
220
0.0
230
1.0
 70
     8
 71
     3
 72
    19
 73
    15
 74
     0
 42
0.00000001
 43
0.00000001
 12
1.0
 22
0.0
 32
0.0
 13
1.0
 23
0.0
 33
0.0
 40
0.0
 40
0.0
 40
0.0
 40
0.0
 40
0.1091115416221797
 40
0.2129212805065963
 40
0.3064409696191999
 40
0.3675436497725926
 40
0.4205214820222805
 40
0.4665422275580997
 40
0.5103923775000354
 40
0.5564569740975074
 40
0.6345648145193268
 40
0.7247083298068265
 40
0.8607911289158414
 40
1.0
 40
1.0
 40
1.0
 40
1.0
 10
361.1567793398435
 20
347.5597714980519
 30
0.0
 10
361.1753185638864
 20
347.9709610148753
 30
0.0
 10
361.2114961786843
 20
348.7733600750598
 30
0.0
 10
361.26062879394
 20
349.9848152302915
 30
0.0
 10
361.2933245381094
 20
351.1123797578975
 30
0.0
 10
361.3122812267579
 20
352.1618611402887
 30
0.0
 10
361.3235952424729
 20
353.0926686419934
 30
0.0
 10
361.3353178939204
 20
354.0771736784429
 30
0.0
 10
361.3443266641767
 20
355.064793767898
 30
0.0
 10
361.3516288709623
 20
356.2129704769569
 30
0.0
 10
361.3570790899139
 20
357.4913783763569
 30
0.0
 10
361.34757837807
 20
359.063672802796
 30
0.0
 10
361.3129675741137
 20
360.7248760140596
 30
0.0
 10
361.2762845140405
 20
361.895977131444
 30
0.0
 10
361.2577347069318
 20
362.4881769040055
 30
0.0
  0
SPLINE
  5
DF
330
1F
100
AcDbEntity
  8
0
  6
Continuous
 62
     7
370
    15
100
AcDbSpline
210
0.0
220
0.0
230
1.0
 70
     8
 71
     3
 72
    20
 73
    16
 74
     0
 42
0.00000001
 43
0.00000001
 12
1.0
 22
0.0
 32
0.0
 13
1.0
 23
0.0
 33
0.0
 40
0.0
 40
0.0
 40
0.0
 40
0.0
 40
0.4778337808041438
 40
0.7481053639808637
 40
0.7830873939326309
 40
0.80556453122904
 40
0.8132108524654756
 40
0.8164288295500797
 40
0.8194484393014934
 40
0.8224757956084917
 40
0.825716972919986
 40
0.8334398487211371
 40
0.85608954507707
 40
0.8909168211484679
 40
1.0
 40
1.0
 40
1.0
 40
1.0
 10
360.2719185858305
 20
346.4061403622306
 30
0.0
 10
360.3301149342327
 20
346.4318156279278
 30
0.0
 10
360.4212282086658
 20
346.4720132965759
 30
0.0
 10
360.5626357095854
 20
346.5428614734615
 30
0.0
 10
360.7904666618692
 20
346.7628253266145
 30
0.0
 10
360.8597981043642
 20
346.8401413476644
 30
0.0
 10
360.9126239466202
 20
346.9113692941989
 30
0.0
 10
360.9382982645903
 20
346.9494696133171
 30
0.0
 10
360.9561712207619
 20
346.9775564597414
 30
0.0
 10
360.9734542973681
 20
347.0064585692174
 30
0.0
 10
360.996770530965
 20
347.0479785716664
 30
0.0
 10
361.0395709008306
 20
347.1332809629402
 30
0.0
 10
361.082622172519
 20
347.2468593237618
 30
0.0
 10
361.1401047773197
 20
347.4551251263421
 30
0.0
 10
361.1511748298992
 20
347.5669336198346
 30
0.0
 10
361.1595658569867
 20
347.6516837229407
 30
0.0
  0
LWPOLYLINE
  5
E0
330
1F
100
AcDbEntity
  8
0
  6
Continuous
 62
     7
370
    15
100
AcDbPolyline
 90
        6
 70
   128
 43
0.0
 10
348.7687883883
 20
364.279914543
 10
347.5930048137
 20
364.2887638828
 10
345.004732719
 20
364.3081936
 10
332.8029168754
 20
364.399945732
 10
311.0139844924
 20
364.5643337489
 10
267.7639545857
 20
364.8920039971
  0
SPLINE
  5
E1
330
1F
100
AcDbEntity
  8
0
  6
Continuous
 62
     7
370
    15
100
AcDbSpline
210
0.0
220
0.0
230
1.0
 70
     8
 71
     3
 72
     9
 73
     5
 74
     0
 42
0.00000001
 43
0.00000001
 12
1.0
 22
0.0
 32
0.0
 13
1.0
 23
0.0
 33
0.0
 40
0.0
 40
0.0
 40
0.0
 40
0.0
 40
0.5000923638075395
 40
1.0
 40
1.0
 40
1.0
 40
1.0
 10
361.2680239587361
 20
362.4872597841001
 30
0.0
 10
361.2641294263616
 20
362.5272358627782
 30
0.0
 10
361.2563418002023
 20
362.6071732534907
 30
0.0
 10
361.2389061334277
 20
362.6875883743448
 30
0.0
 10
361.230189910465
 20
362.7277885073251
 30
0.0
  0
SPLINE
  5
E2
330
1F
100
AcDbEntity
  8
0
  6
Continuous
 62
     7
370
    15
100
AcDbSpline
210
0.0
220
0.0
230
1.0
 70
     8
 71
     3
 72
    10
 73
     6
 74
     0
 42
0.00000001
 43
0.00000001
 12
1.0
 22
0.0
 32
0.0
 13
1.0
 23
0.0
 33
0.0
 40
0.0
 40
0.0
 40
0.0
 40
0.0
 40
0.2734630867414708
 40
0.5311179271135653
 40
1.0
 40
1.0
 40
1.0
 40
1.0
 10
360.1325629263455
 20
363.8229722248777
 30
0.0
 10
359.0951483197886
 20
363.9429678339829
 30
0.0
 10
357.080289561492
 20
364.1760223933023
 30
0.0
 10
353.2613930574123
 20
364.2595299387222
 30
0.0
 10
350.4887441173515
 20
364.2722523335013
 30
0.0
 10
348.6993713288838
 20
364.2804629319268
 30
0.0
  0
LINE
  5
E3
330
1F
100
AcDbEntity
  8
0
  6
Continuous
 62
     7
370
    15
100
AcDbLine
 10
359.3629999071
 20
343.2899443408
 30
0.0
 11
358.9393673449
 21
346.3042071064
 31
0.0
  0
LINE
  5
E4
330
1F
100
AcDbEntity
  8
0
  6
Continuous
 62
     7
370
    15
100
AcDbLine
 10
334.7272677332
 20
346.1351720591
 30
0.0
 11
335.5965642243
 21
339.9497894545
 31
0.0
  0
LINE
  5
E5
330
1F
100
AcDbEntity
  8
0
  6
Continuous
 62
     7
370
    15
100
AcDbLine
 10
335.5965642243
 20
339.9497894545
 30
0.0
 11
336.6671828538
 21
339.5172310968
 31
0.0
  0
LINE
  5
E6
330
1F
100
AcDbEntity
  8
0
  6
Continuous
 62
     7
370
    15
100
AcDbLine
 10
358.4530828505
 20
342.5790397426
 30
0.0
 11
359.3629999071
 21
343.2899443408
 31
0.0
  0
ARC
  5
E7
330
1F
100
AcDbEntity
  8
0
  6
Continuous
 62
     7
370
    15
100
AcDbCircle
 10
266.2642119437
 20
410.1826663633
 30
0.0
 40
2.0
100
AcDbArc
 50
180.0
 51
270.0
  0
ARC
  5
E8
330
1F
100
AcDbEntity
  8
0
  6
Continuous
 62
     7
370
    15
100
AcDbCircle
 10
266.2642119437
 20
400.1826663633
 30
0.0
 40
2.0
100
AcDbArc
 50
90.0
 51
180.0
  0
LINE
  5
E9
330
1F
100
AcDbEntity
  8
0
  6
Continuous
 62
     7
370
    15
100
AcDbLine
 10
264.7301154196
 20
392.8190087875
 30
0.0
 11
264.2638785749
 21
392.8170567354
 31
0.0
  0
LINE
  5
EA
330
1F
100
AcDbEntity
  8
0
  6
Continuous
 62
     7
370
    15
100
AcDbLine
 10
264.2639586686
 20
386.8170035978
 30
0.0
 11
264.7552480906
 21
386.8190618207
 31
0.0
  0
SPLINE
  5
EB
330
1F
100
AcDbEntity
  8
0
  6
Continuous
 62
     7
370
    15
100
AcDbSpline
210
0.0
220
0.0
230
1.0
 70
     8
 71
     3
 72
    11
 73
     7
 74
     0
 42
0.00000001
 43
0.00000001
 12
1.0
 22
0.0
 32
0.0
 13
1.0
 23
0.0
 33
0.0
 40
0.0
 40
0.0
 40
0.0
 40
0.0
 40
0.2463390178995438
 40
0.5003616770183343
 40
0.754176938216247
 40
1.0
 40
1.0
 40
1.0
 40
1.0
 10
361.2679792552526
 20
362.4886719019539
 30
0.0
 10
361.247978198579
 20
362.6455788310438
 30
0.0
 10
361.2073522257037
 20
362.9642868247861
 30
0.0
 10
360.9312993822625
 20
363.4003140902124
 30
0.0
 10
360.5273483575077
 20
363.7215507022581
 30
0.0
 10
360.2147629485316
 20
363.796767128847
 30
0.0
 10
360.0609702973897
 20
363.8337737623057
 30
0.0
  0
SPLINE
  5
EC
330
1F
100
AcDbEntity
  8
0
  6
Continuous
 62
     7
370
    15
100
AcDbSpline
210
0.0
220
0.0
230
1.0
 70
     8
 71
     3
 72
     9
 73
     5
 74
     0
 42
0.00000001
 43
0.00000001
 12
1.0
 22
0.0
 32
0.0
 13
1.0
 23
0.0
 33
0.0
 40
0.0
 40
0.0
 40
0.0
 40
0.0
 40
0.895213178273432
 40
1.0
 40
1.0
 40
1.0
 40
1.0
 10
264.2550030707652
 20
386.8766156931794
 30
0.0
 10
264.2605045630862
 20
386.8376336085689
 30
0.0
 10
264.2666500181068
 20
386.7940885786736
 30
0.0
 10
264.2635665225995
 20
386.8221203185225
 30
0.0
 10
264.2632434129054
 20
386.8250576754487
 30
0.0
  0
SPLINE
  5
ED
330
1F
100
AcDbEntity
  8
0
  6
Continuous
 62
     7
370
    15
100
AcDbSpline
210
0.0
220
0.0
230
1.0
 70
     8
 71
     3
 72
    18
 73
    14
 74
     0
 42
0.00000001
 43
0.00000001
 12
1.0
 22
0.0
 32
0.0
 13
1.0
 23
0.0
 33
0.0
 40
0.0
 40
0.0
 40
0.0
 40
0.0
 40
0.0048616056315284
 40
0.1179332488045915
 40
0.1425074969321993
 40
0.25666860032227
 40
0.3708181533390182
 40
0.4850645029645889
 40
0.5984816663891181
 40
0.7113035297673224
 40
0.8246452785345384
 40
0.9387885505297782
 40
1.0
 40
1.0
 40
1.0
 40
1.0
 10
264.263962393933
 20
392.8146278460896
 30
0.0
 10
264.2640389096785
 20
392.8154813594937
 30
0.0
 10
264.2658950352314
 20
392.8361859612774
 30
0.0
 10
264.2532544636652
 20
392.7490486817164
 30
0.0
 10
264.2193054895279
 20
392.4845491118544
 30
0.0
 10
264.1704449437307
 20
392.0715029619004
 30
0.0
 10
264.1008046724053
 20
391.260664215568
 30
0.0
 10
264.0575420883748
 20
390.2861288184103
 30
0.0
 10
264.0596185193782
 20
389.2622893580761
 30
0.0
 10
264.1056796855203
 20
388.3031921590428
 30
0.0
 10
264.1752343903969
 20
387.5163804853229
 30
0.0
 10
264.231064214331
 20
387.0522547494145
 30
0.0
 10
264.2488088964452
 20
386.9220622638924
 30
0.0
 10
264.2550030707652
 20
386.8766156931794
 30
0.0
  0
SPLINE
  5
EE
330
1F
100
AcDbEntity
  8
0
  6
Continuous
 62
     7
370
    15
100
AcDbSpline
210
0.0
220
0.0
230
1.0
 70
     8
 71
     3
 72
    12
 73
     8
 74
     0
 42
0.00000001
 43
0.00000001
 12
1.0
 22
0.0
 32
0.0
 13
1.0
 23
0.0
 33
0.0
 40
0.0
 40
0.0
 40
0.0
 40
0.0
 40
0.5
 40
0.5
 40
0.75
 40
0.75
 40
1.0
 40
1.0
 40
1.0
 40
1.0
 10
236.9562362366293
 20
378.9422787127161
 30
0.0
 10
238.38316933667
 20
378.6906719075129
 30
0.0
 10
239.8212095867956
 20
378.5009417969372
 30
0.0
 10
241.994998423829
 20
378.3103000993123
 30
0.0
 10
242.7223925571476
 20
378.2624322699495
 30
0.0
 10
244.1829125623046
 20
378.1985174392096
 30
0.0
 10
244.9146833886164
 20
378.1826663633265
 30
0.0
 10
245.6386451199756
 20
378.1826663633265
 30
0.0
  0
LWPOLYLINE
  5
EF
330
1F
100
AcDbEntity
  8
0
  6
Continuous
 62
     7
370
    15
100
AcDbPolyline
 90
       16
 70
   128
 43
0.0
 10
218.264211899
 20
382.2381878247
 10
218.2903373598
 20
382.2335796406
 10
218.4989908695
 20
382.1967886736
 10
218.9144017159
 20
382.1235401531
 10
219.5327961802
 20
382.0145009061
 10
220.3485621124
 20
381.8706599971
 10
221.3542843222
 20
381.6933231404
 10
222.5408339857
 20
381.4841033866
 10
223.8974338382
 20
381.2448987713
 10
225.4117587566
 20
380.9778811385
 10
227.0700605571
 20
380.6854775151
 10
228.8572760283
 20
380.3703440329
 10
230.7571731492
 20
380.0353407835
 10
232.7524973064
 20
379.6835113292
 10
234.8251263595
 20
379.3180510377
 10
236.9562364168
 20
378.9422791426
  0
LINE
  5
F0
330
1F
100
AcDbEntity
  8
0
  6
Continuous
 62
     7
370
    15
100
AcDbLine
 10
245.6386452525
 20
378.1826663738
 30
0.0
 11
264.2642119884
 21
378.1826663738
 31
0.0
  0
LINE
  5
F1
330
1F
100
AcDbEntity
  8
0
  6
Continuous
 62
     7
370
    15
100
AcDbLine
 10
241.2642119437
 20
413.1826674541
 30
0.0
 11
262.7642126738
 21
413.1826674541
 31
0.0
  0
LINE
  5
F2
330
1F
100
AcDbEntity
  8
0
  6
Continuous
 62
     7
370
    15
100
AcDbLine
 10
219.7642112135
 20
413.1826674541
 30
0.0
 11
241.2642119437
 21
413.1826674541
 31
0.0
  0
LINE
  5
F3
330
1F
100
AcDbEntity
  8
0
  6
Continuous
 62
     7
370
    15
100
AcDbLine
 10
218.7642110496
 20
276.0326666733
 30
0.0
 11
263.7642128377
 21
276.0326666733
 31
0.0
  0
LINE
  5
F4
330
1F
100
AcDbEntity
  8
0
  6
Continuous
 62
     7
370
    15
100
AcDbLine
 10
219.2642120629
 20
370.4826664155
 30
0.0
 11
263.2642118245
 21
370.4826664155
 31
0.0
  0
SPLINE
  5
F5
330
1F
100
AcDbEntity
  8
0
  6
Continuous
 62
     7
370
    15
100
AcDbSpline
210
0.0
220
0.0
230
1.0
 70
     8
 71
     3
 72
    10
 73
     6
 74
     0
 42
0.00000001
 43
0.00000001
 12
1.0
 22
0.0
 32
0.0
 13
1.0
 23
0.0
 33
0.0
 40
0.0
 40
0.0
 40
0.0
 40
0.0
 40
0.0904202465174849
 40
0.544014665680529
 40
1.0
 40
1.0
 40
1.0
 40
1.0
 10
265.9435076623494
 20
364.7379121369137
 30
0.0
 10
266.0652660787695
 20
364.7475605723622
 30
0.0
 10
266.797827277767
 20
364.8056105178884
 30
0.0
 10
267.5160807211493
 20
364.8706538024693
 30
0.0
 10
267.6813565132787
 20
364.8848362278534
 30
0.0
 10
267.7642116307551
 20
364.8919460804588
 30
0.0
  0
LINE
  5
F6
330
1F
100
AcDbEntity
  8
0
  6
Continuous
 62
     7
370
    15
100
AcDbLine
 10
266.0870319217
 20
364.7493346628
 30
0.0
 11
266.0083631038
 21
364.7430712565
 31
0.0
  0
SPLINE
  5
F7
330
1F
100
AcDbEntity
  8
0
  6
Continuous
 62
     7
370
    15
100
AcDbSpline
210
0.0
220
0.0
230
1.0
 70
     8
 71
     3
 72
     8
 73
     4
 74
     0
 42
0.00000001
 43
0.00000001
 12
1.0
 22
0.0
 32
0.0
 13
1.0
 23
0.0
 33
0.0
 40
0.0
 40
0.0
 40
0.0
 40
0.0
 40
1.0
 40
1.0
 40
1.0
 40
1.0
 10
360.2719258668048
 20
346.4061426584336
 30
0.0
 10
360.1049769051773
 20
346.3408533728912
 30
0.0
 10
359.9325586873629
 20
346.3111411704195
 30
0.0
 10
359.7718017731081
 20
346.3100188572064
 30
0.0
  0
SPLINE
  5
F8
330
1F
100
AcDbEntity
  8
0
  6
Continuous
 62
     7
370
    15
100
AcDbSpline
210
0.0
220
0.0
230
1.0
 70
    24
 71
     3
 72
    63
 73
    59
 74
     0
 42
0.00000001
 43
0.00000001
 12
1.0
 22
0.0
 32
0.0
 13
1.0
 23
0.0
 33
0.0
 40
0.0
 40
0.0
 40
0.0
 40
0.0
 40
0.0312500000000011
 40
0.0312500000000011
 40
0.0468750000000017
 40
0.0468750000000017
 40
0.0546875000000019
 40
0.0546875000000019
 40
0.0585937500000021
 40
0.0585937500000021
 40
0.0625000000000023
 40
0.0625000000000023
 40
0.0703125000000026
 40
0.0703125000000026
 40
0.0742187500000028
 40
0.0742187500000028
 40
0.0781250000000029
 40
0.0781250000000029
 40
0.0859375000000032
 40
0.0859375000000032
 40
0.0937500000000034
 40
0.0937500000000034
 40
0.1015625000000037
 40
0.1015625000000037
 40
0.109375000000004
 40
0.109375000000004
 40
0.1171875000000042
 40
0.1171875000000042
 40
0.1250000000000044
 40
0.1250000000000044
 40
0.1406250000000052
 40
0.1406250000000052
 40
0.156250000000006
 40
0.156250000000006
 40
0.1718750000000067
 40
0.1718750000000067
 40
0.1796875000000069
 40
0.1796875000000069
 40
0.187500000000007
 40
0.187500000000007
 40
0.1953125000000071
 40
0.1953125000000071
 40
0.1992187500000072
 40
0.1992187500000072
 40
0.2031250000000073
 40
0.2031250000000073
 40
0.2109375000000074
 40
0.2109375000000074
 40
0.2187500000000075
 40
0.2187500000000075
 40
0.2500000000000073
 40
0.2500000000000073
 40
0.3125000000000067
 40
0.3125000000000067
 40
0.375000000000006
 40
0.5000000000000048
 40
0.5000000000000048
 40
1.0
 40
1.0
 40
1.0
 40
1.0
 10
359.7718017739079
 20
346.310018857212
 30
0.0
 10
359.771802897872
 20
346.3100188650589
 30
0.0
 10
359.777338157476
 20
346.3100575090887
 30
0.0
 10
359.7806969410248
 20
346.3100809582023
 30
0.0
 10
359.780991921243
 20
346.3100830175862
 30
0.0
 10
359.7785452276674
 20
346.3100659361652
 30
0.0
 10
359.7772520404112
 20
346.3100569078684
 30
0.0
 10
359.7743698154284
 20
346.3100367858152
 30
0.0
 10
359.7732501705969
 20
346.3100289690927
 30
0.0
 10
359.7707275267716
 20
346.3100113574303
 30
0.0
 10
359.769349148166
 20
346.3100017343759
 30
0.0
 10
359.7655482695134
 20
346.3099751988061
 30
0.0
 10
359.7634301065673
 20
346.3099604109988
 30
0.0
 10
359.7631585813326
 20
346.3099585153643
 30
0.0
 10
359.7635365661652
 20
346.3099611542391
 30
0.0
 10
359.7657440616084
 20
346.309976565715
 30
0.0
 10
359.7674198607316
 20
346.3099882651899
 30
0.0
 10
359.7731561305554
 20
346.3100283125587
 30
0.0
 10
359.7770999896065
 20
346.3100558463363
 30
0.0
 10
359.77210063636
 20
346.3100209436993
 30
0.0
 10
359.7629727063742
 20
346.3099572176912
 30
0.0
 10
359.7221162463156
 20
346.3096719811576
 30
0.0
 10
359.6899582355749
 20
346.3094474722429
 30
0.0
 10
359.5997355796008
 20
346.308817589047
 30
0.0
 10
359.5418856628603
 20
346.3084137138778
 30
0.0
 10
359.4007194242629
 20
346.3074281716039
 30
0.0
 10
359.3172255313522
 20
346.3068452647992
 30
0.0
 10
359.1214136179353
 20
346.3054782175482
 30
0.0
 10
359.0094317083311
 20
346.3046964236369
 30
0.0
 10
358.6360399923551
 20
346.3020896153484
 30
0.0
 10
358.3357780815949
 20
346.2999933577075
 30
0.0
 10
357.6578486250959
 20
346.2952604403702
 30
0.0
 10
357.2807595219944
 20
346.2926278190308
 30
0.0
 10
356.4733304038211
 20
346.2869908088147
 30
0.0
 10
356.0421504259558
 20
346.2839805557962
 30
0.0
 10
355.380631461474
 20
346.2793622071673
 30
0.0
 10
355.1585720296545
 20
346.2778119146925
 30
0.0
 10
354.7098083754443
 20
346.2746789024609
 30
0.0
 10
354.4713921889835
 20
346.2730144164417
 30
0.0
 10
353.9596247438834
 20
346.2694415476271
 30
0.0
 10
353.687790136745
 20
346.2675437532288
 30
0.0
 10
353.2583474849939
 20
346.2645456292317
 30
0.0
 10
353.1102817332271
 20
346.2635119184866
 30
0.0
 10
352.8132189390571
 20
346.2614379952556
 30
0.0
 10
352.6654708269778
 20
346.2604065020899
 30
0.0
 10
352.2263745382545
 20
346.2573409818979
 30
0.0
 10
351.9393115126715
 20
346.2553368713556
 30
0.0
 10
351.3666322552472
 20
346.2513387509609
 30
0.0
 10
351.0797489996796
 20
346.2493358954705
 30
0.0
 10
349.6450339916585
 20
346.2393195324544
 30
0.0
 10
348.4955797010756
 20
346.2312946972916
 30
0.0
 10
345.0451338410444
 20
346.2072056495657
 30
0.0
 10
342.7434018599404
 20
346.1911362678699
 30
0.0
 10
338.1415773869035
 20
346.159008950458
 30
0.0
 10
331.2389008939538
 20
346.1108183947383
 30
0.0
 10
324.3362589956092
 20
346.0626280805384
 30
0.0
 10
301.3268804104183
 20
345.901989704697
 30
0.0
 10
282.9184238584607
 20
345.7734723459465
 30
0.0
 10
264.5106281420064
 20
345.6449596007733
 30
0.0
  0
LINE
  5
F9
330
1F
100
AcDbEntity
  8
0
  6
Continuous
 62
     7
370
    15
100
AcDbLine
 10
360.0539369493
 20
363.8322209565
 30
0.0
 11
360.0564030915
 21
363.8339225993
 31
0.0
  0
LINE
  5
FA
330
1F
100
AcDbEntity
  8
0
  6
Continuous
 62
     7
370
    15
100
AcDbLine
 10
342.7306218057
 20
340.9524159481
 30
0.0
 11
342.2542838364
 21
344.3417577048
 31
0.0
  0
LWPOLYLINE
  5
FB
330
1F
100
AcDbEntity
  8
0
  6
Continuous
 62
     7
370
    15
100
AcDbPolyline
 90
       10
 70
   128
 43
0.0
 10
342.7306218057
 20
340.9524159481
 10
341.2932259946
 20
340.7504046311
 10
339.9708075433
 20
340.5645498981
 10
338.7879384666
 20
340.3983088185
 10
337.7665979772
 20
340.2547696581
 10
336.9257776051
 20
340.1365997245
 10
336.2810937672
 20
340.0459950765
 10
335.8445269971
 20
339.9846395453
 10
335.6241984277
 20
339.9536749323
 10
335.5965642243
 20
339.9497894545
  0
LWPOLYLINE
  5
FC
330
1F
100
AcDbEntity
  8
0
  6
Continuous
 62
     7
370
    15
100
AcDbPolyline
 90
       10
 70
   128
 43
0.0
 10
359.3629999071
 20
343.2899443408
 10
359.3353582531
 20
343.2860607257
 10
359.1150296836
 20
343.2550961127
 10
358.6784703641
 20
343.1937405815
 10
358.0337865263
 20
343.1031359335
 10
357.1929587036
 20
342.9849659999
 10
356.1716256648
 20
342.8414268394
 10
354.988756588
 20
342.6751838972
 10
353.6663306861
 20
342.4893310269
 10
352.2289423256
 20
342.2873178472
  0
LINE
  5
FD
330
1F
100
AcDbEntity
  8
0
  6
Continuous
 62
     7
370
    15
100
AcDbLine
 10
351.7525969058
 20
345.6766596039
 30
0.0
 11
352.2289423256
 21
342.2873178472
 31
0.0
  0
LWPOLYLINE
  5
FE
330
1F
100
AcDbEntity
  8
0
  6
Continuous
 62
     7
370
    15
100
AcDbPolyline
 90
        9
 70
   128
 43
0.0
 10
342.2542838364
 20
344.3417577048
 10
343.3970017343
 20
344.5023568322
 10
344.5777920991
 20
344.6683054765
 10
345.7841826587
 20
344.8378527512
 10
347.0034403711
 20
345.0092086544
 10
348.2226980835
 20
345.1805645575
 10
349.4290886431
 20
345.3501118322
 10
350.6098790079
 20
345.5160604765
 10
351.7525969058
 20
345.6766596039
  0
SPLINE
  5
FF
330
1F
100
AcDbEntity
  8
0
  6
Continuous
 62
     7
370
    15
100
AcDbSpline
210
0.0
220
0.0
230
1.0
 70
     8
 71
     3
 72
    10
 73
     6
 74
     0
 42
0.00000001
 43
0.00000001
 12
1.0
 22
0.0
 32
0.0
 13
1.0
 23
0.0
 33
0.0
 40
0.0
 40
0.0
 40
0.0
 40
0.0
 40
0.5
 40
0.5
 40
1.0
 40
1.0
 40
1.0
 40
1.0
 10
347.560132791801
 20
341.0481360490732
 30
0.0
 10
346.7606152570777
 20
340.9357711873839
 30
0.0
 10
345.944357400384
 20
340.8745377633821
 30
0.0
 10
344.3307707492892
 20
340.8487694583354
 30
0.0
 10
343.5288365235081
 20
340.882680382242
 30
0.0
 10
342.7306223438972
 20
340.9524168403494
 30
0.0
  0
LWPOLYLINE
  5
100
330
1F
100
AcDbEntity
  8
0
  6
Continuous
 62
     7
370
    15
100
AcDbPolyline
 90
       13
 70
   128
 43
0.0
 10
347.5601328521
 20
341.0481354197
 10
346.0768787175
 20
340.8396774878
 10
344.6212513357
 20
340.6351031711
 10
343.2203708201
 20
340.4382215788
 10
341.900329104
 20
340.2527021219
 10
340.6857205539
 20
340.0820000072
 10
339.5991725832
 20
339.9292966326
 10
338.6609209686
 20
339.7974343946
 10
337.8884447723
 20
339.6888682594
 10
337.2961310654
 20
339.605624785
 10
336.8950216084
 20
339.5492518296
 10
336.6925744324
 20
339.5207999249
 10
336.6671828538
 20
339.5172310968
  0
LWPOLYLINE
  5
101
330
1F
100
AcDbEntity
  8
0
  6
Continuous
 62
     7
370
    15
100
AcDbPolyline
 90
       13
 70
   128
 43
0.0
 10
358.4530828505
 20
342.5790397426
 10
358.4276912718
 20
342.5754709145
 10
358.2252440959
 20
342.5470190098
 10
357.8241346388
 20
342.490647917
 10
357.231820932
 20
342.40740258
 10
356.4593447357
 20
342.2988383075
 10
355.5210931211
 20
342.1669760694
 10
354.4345451503
 20
342.0142708321
 10
353.2199366003
 20
341.8435687174
 10
351.8998948842
 20
341.6580492606
 10
350.4990143686
 20
341.461169531
 10
349.0433869868
 20
341.2565933516
 10
347.5601328521
 20
341.0481354197
  0
SPLINE
  5
102
330
1F
100
AcDbEntity
  8
0
  6
Continuous
 62
     7
370
    15
100
AcDbSpline
210
0.0
220
0.0
230
1.0
 70
     8
 71
     3
 72
     8
 73
     4
 74
     0
 42
0.00000001
 43
0.00000001
 12
1.0
 22
0.0
 32
0.0
 13
1.0
 23
0.0
 33
0.0
 40
0.0
 40
0.0
 40
0.0
 40
0.0
 40
1.0
 40
1.0
 40
1.0
 40
1.0
 10
352.2289399850994
 20
342.2873183299128
 30
0.0
 10
350.714301037669
 20
341.7061151480644
 30
0.0
 10
349.1629005567388
 20
341.2733903685915
 30
0.0
 10
347.560132791801
 20
341.0481360490732
 30
0.0
  0
LINE
  5
103
330
1F
100
AcDbEntity
  8
0
  6
Continuous
 62
     7
370
    15
100
AcDbLine
 10
264.5880198091
 20
408.1826647719
 30
0.0
 11
313.2642088442
 21
408.1826647719
 31
0.0
  0
LINE
  5
104
330
1F
100
AcDbEntity
  8
0
  6
Continuous
 62
     7
370
    15
100
AcDbLine
 10
313.2642088442
 20
408.1826647719
 30
0.0
 11
317.2642094999
 21
408.1826647719
 31
0.0
  0
ARC
  5
105
330
1F
100
AcDbEntity
  8
0
  6
Continuous
 62
     7
370
    15
100
AcDbCircle
 10
317.2642119437
 20
407.1826663633
 30
0.0
 40
1.0
100
AcDbArc
 50
0.0
 51
90.0
  0
LINE
  5
106
330
1F
100
AcDbEntity
  8
0
  6
Continuous
 62
     7
370
    15
100
AcDbLine
 10
318.2642115264
 20
407.1826664706
 30
0.0
 11
318.2642115264
 21
403.182665815
 31
0.0
  0
ARC
  5
107
330
1F
100
AcDbEntity
  8
0
  6
Continuous
 62
     7
370
    15
100
AcDbCircle
 10
317.2642119437
 20
403.1826663633
 30
0.0
 40
1.0
100
AcDbArc
 50
270.0
 51
0.0
  0
LINE
  5
108
330
1F
100
AcDbEntity
  8
0
  6
Continuous
 62
     7
370
    15
100
AcDbLine
 10
317.2642094999
 20
402.1826675137
 30
0.0
 11
313.2642088442
 21
402.1826675137
 31
0.0
  0
LINE
  5
109
330
1F
100
AcDbEntity
  8
0
  6
Continuous
 62
     7
370
    15
100
AcDbLine
 10
313.2642088442
 20
402.1826675137
 30
0.0
 11
264.5880198091
 21
402.1826675137
 31
0.0
  0
LWPOLYLINE
  5
10A
330
1F
100
AcDbEntity
  8
0
  6
Continuous
 62
     7
370
    15
100
AcDbPolyline
 90
        5
 70
   128
 43
0.0
 10
264.7302215903
 20
392.7938723912
 10
264.7301731616
 20
392.8051637461
 10
264.7301396339
 20
392.8131191035
 10
264.7301210075
 20
392.8177272876
 10
264.7301154196
 20
392.8190087875
  0
LINE
  5
10B
330
1F
100
AcDbEntity
  8
0
  6
Continuous
 62
     7
370
    15
100
AcDbLine
 10
264.8302195578
 20
392.7942914864
 30
0.0
 11
264.7302215903
 21
392.7938723912
 31
0.0
  0
LINE
  5
10C
330
1F
100
AcDbEntity
  8
0
  6
Continuous
 62
     7
370
    15
100
AcDbLine
 10
264.8551287114
 20
386.8479682108
 30
0.0
 11
264.7551288813
 21
386.8475491156
 31
0.0
  0
LWPOLYLINE
  5
10D
330
1F
100
AcDbEntity
  8
0
  6
Continuous
 62
     7
370
    15
100
AcDbPolyline
 90
        6
 70
   128
 43
0.0
 10
264.7552480906
 20
386.8190618207
 10
264.7552480906
 20
386.8190878977
 10
264.7552387773
 20
386.8211852362
 10
264.7552164256
 20
386.8266316106
 10
264.7551791727
 20
386.8354232957
 10
264.7551288813
 20
386.8475491156
  0
LWPOLYLINE
  5
10E
330
1F
100
AcDbEntity
  8
0
  6
Continuous
 62
     7
370
    15
100
AcDbPolyline
 90
       10
 70
   128
 43
0.0
 10
265.4327573239
 20
392.1900344988
 10
265.4337370753
 20
391.9561253836
 10
265.4355792313
 20
391.5163399627
 10
265.4381049781
 20
390.913101842
 10
265.4410740345
 20
390.2046037813
 10
265.4441958278
 20
389.4591936817
 10
265.4471704721
 20
388.7487789591
 10
265.4497129827
 20
388.1418937792
 10
265.4515774905
 20
387.6970810791
 10
265.4525814562
 20
387.4572524776
  0
SPLINE
  5
10F
330
1F
100
AcDbEntity
  8
0
  6
Continuous
 62
     7
370
    15
100
AcDbSpline
210
0.0
220
0.0
230
1.0
 70
     8
 71
     3
 72
    10
 73
     6
 74
     0
 42
0.00000001
 43
0.00000001
 12
1.0
 22
0.0
 32
0.0
 13
1.0
 23
0.0
 33
0.0
 40
0.0
 40
0.0
 40
0.0
 40
0.0
 40
0.5
 40
0.5
 40
1.0
 40
1.0
 40
1.0
 40
1.0
 10
265.4525811985093
 20
387.4572528978824
 30
0.0
 10
265.4532487670005
 20
387.2978821939836
 30
0.0
 10
265.3900729730879
 20
387.1414779502859
 30
0.0
 10
265.1702237041901
 20
386.9159184829504
 30
0.0
 10
265.014557099602
 20
386.8486362760625
 30
0.0
 10
264.8551280919821
 20
386.8479684633499
 30
0.0
  0
SPLINE
  5
110
330
1F
100
AcDbEntity
  8
0
  6
Continuous
 62
     7
370
    15
100
AcDbSpline
210
0.0
220
0.0
230
1.0
 70
     8
 71
     3
 72
    10
 73
     6
 74
     0
 42
0.00000001
 43
0.00000001
 12
1.0
 22
0.0
 32
0.0
 13
1.0
 23
0.0
 33
0.0
 40
0.0
 40
0.0
 40
0.0
 40
0.0
 40
0.5
 40
0.5
 40
1.0
 40
1.0
 40
1.0
 40
1.0
 10
264.8302202645943
 20
392.7942916280037
 30
0.0
 10
264.9896177238303
 20
392.7949593085671
 30
0.0
 10
265.1455866156892
 20
392.7291086746097
 30
0.0
 10
265.3672673090641
 20
392.5057793740927
 30
0.0
 10
265.4320891697735
 20
392.349378704973
 30
0.0
 10
265.4327566306892
 20
392.1900336829209
 30
0.0
  0
SPLINE
  5
111
330
1F
100
AcDbEntity
  8
0
  6
Continuous
 62
     8
370
     0
100
AcDbSpline
210
0.0
220
0.0
230
1.0
 70
     8
 71
     3
 72
    22
 73
    18
 74
     0
 42
0.00000001
 43
0.00000001
 12
1.0
 22
0.0
 32
0.0
 13
1.0
 23
0.0
 33
0.0
 40
0.0
 40
0.0
 40
0.0
 40
0.0
 40
0.125
 40
0.125
 40
0.25
 40
0.25
 40
0.375
 40
0.375
 40
0.5
 40
0.5
 40
0.625
 40
0.625
 40
0.75
 40
0.75
 40
0.875
 40
0.875
 40
1.0
 40
1.0
 40
1.0
 40
1.0
 10
262.7221149167103
 20
400.1826663633265
 30
0.0
 10
262.6503063871952
 20
400.1826663633265
 30
0.0
 10
262.5774464512211
 20
400.2029022948475
 30
0.0
 10
262.4299180587329
 20
400.2806754240436
 30
0.0
 10
262.3545857485955
 20
400.33893417836
 30
0.0
 10
262.2057847692541
 20
400.4910707102807
 30
0.0
 10
262.1333848998893
 20
400.5834981852157
 30
0.0
 10
261.9934411052277
 20
400.7997596009562
 30
0.0
 10
261.925179112655
 20
400.9252803048743
 30
0.0
 10
261.7993303761147
 20
401.2011002560859
 30
0.0
 10
261.741771583562
 20
401.3506929958297
 30
0.0
 10
261.6387532416052
 20
401.6733669700876
 30
0.0
 10
261.5929177648618
 20
401.8487263720862
 30
0.0
 10
261.5189756070646
 20
402.2105000769927
 30
0.0
 10
261.490456553586
 20
402.3973770501858
 30
0.0
 10
261.4515709030084
 20
402.7834292159154
 30
0.0
 10
261.441387167184
 20
402.9831780481385
 30
0.0
 10
261.441387167184
 20
403.1826663633265
 30
0.0
  0
LINE
  5
112
330
1F
100
AcDbEntity
  8
0
  6
Continuous
 62
     8
370
     0
100
AcDbLine
 10
264.2642119884
 20
400.1826671859
 30
0.0
 11
262.7221150308
 21
400.1826671859
 31
0.0
  0
LINE
  5
113
330
1F
100
AcDbEntity
  8
0
  6
Continuous
 62
     8
370
     0
100
AcDbLine
 10
262.7221150308
 20
410.1826650997
 30
0.0
 11
264.2642119884
 21
410.1826650997
 31
0.0
  0
SPLINE
  5
114
330
1F
100
AcDbEntity
  8
0
  6
Continuous
 62
     8
370
     0
100
AcDbSpline
210
0.0
220
0.0
230
1.0
 70
     8
 71
     3
 72
    20
 73
    16
 74
     0
 42
0.00000001
 43
0.00000001
 12
1.0
 22
0.0
 32
0.0
 13
1.0
 23
0.0
 33
0.0
 40
0.0
 40
0.0
 40
0.0
 40
0.0
 40
0.1250000000000006
 40
0.1250000000000006
 40
0.2500000000000012
 40
0.2500000000000012
 40
0.4999999999999987
 40
0.4999999999999987
 40
0.624999999999999
 40
0.624999999999999
 40
0.7499999999999992
 40
0.7499999999999992
 40
0.8749999999999997
 40
0.8749999999999997
 40
1.0
 40
1.0
 40
1.0
 40
1.0
 10
261.441387167184
 20
407.1826663633266
 30
0.0
 10
261.441387167184
 20
407.3817545018214
 30
0.0
 10
261.4512934891061
 20
407.5774971487828
 30
0.0
 10
261.4897539778789
 20
407.962591416871
 30
0.0
 10
261.5187759143228
 20
408.1536418875883
 30
0.0
 10
261.6295456504805
 20
408.6962394061339
 30
0.0
 10
261.7368625960206
 20
409.0272950036308
 30
0.0
 10
261.9248662453043
 20
409.4393808005492
 30
0.0
 10
261.9929852121973
 20
409.5648453520367
 30
0.0
 10
262.1335940657091
 20
409.782180995704
 30
0.0
 10
262.2059621953492
 20
409.874394286301
 30
0.0
 10
262.3538166580582
 20
410.0256611548341
 30
0.0
 10
262.4296229468512
 20
410.0844861986347
 30
0.0
 10
262.5775552961373
 20
410.1625033211429
 30
0.0
 10
262.6504456322515
 20
410.1826663633265
 30
0.0
 10
262.7221149167103
 20
410.1826663633266
 30
0.0
  0
LINE
  5
115
330
1F
100
AcDbEntity
  8
0
  6
Continuous
 62
     8
370
     0
100
AcDbLine
 10
261.4413863032
 20
403.182665815
 30
0.0
 11
261.4413863032
 21
407.1826664706
 31
0.0
  0
SPLINE
  5
116
330
1F
100
AcDbEntity
  8
0
  6
Continuous
 62
     8
370
     0
100
AcDbSpline
210
0.0
220
0.0
230
1.0
 70
     8
 71
     3
 72
    38
 73
    34
 74
     0
 42
0.00000001
 43
0.00000001
 12
1.0
 22
0.0
 32
0.0
 13
1.0
 23
0.0
 33
0.0
 40
0.0
 40
0.0
 40
0.0
 40
0.0
 40
0.020243267255417
 40
0.0404111891641268
 40
0.0608750300576749
 40
0.0730696686349817
 40
0.0974259628599936
 40
0.128502503520475
 40
0.1471225186696291
 40
0.1965809822284673
 40
0.2539940789331221
 40
0.2731380036787303
 40
0.2986767366921985
 40
0.3637574480475902
 40
0.3767560490318588
 40
0.4026951936120524
 40
0.5001861740672263
 40
0.5010583937504183
 40
0.501930284483822
 40
0.5071547304465394
 40
0.5904298031806829
 40
0.6157924809676204
 40
0.6252365715726365
 40
0.6409011149182114
 40
0.714868745513672
 40
0.7456684378207559
 40
0.7640289680697943
 40
0.8126242365553951
 40
0.8752619157668106
 40
0.8877361012002458
 40
0.9126457345554608
 40
0.9563486467904256
 40
1.0
 40
1.0
 40
1.0
 40
1.0
 10
256.1525179557371
 20
369.0429437561219
 30
0.0
 10
256.2485070893756
 20
369.0510835715069
 30
0.0
 10
256.4401280855429
 20
369.0673329059218
 30
0.0
 10
256.7231234920138
 20
369.091989426571
 30
0.0
 10
256.9650060308173
 20
369.1133801249518
 30
0.0
 10
257.222472416225
 20
369.1364932348176
 30
0.0
 10
257.5231860845291
 20
369.1638983974811
 30
0.0
 10
257.8445126386827
 20
369.1939057976605
 30
0.0
 10
258.2649658021919
 20
369.2338777834098
 30
0.0
 10
258.7799195252416
 20
369.2841056266348
 30
0.0
 10
259.2689534889491
 20
369.333573770249
 30
0.0
 10
259.6481965834727
 20
369.372705457976
 30
0.0
 10
260.0451034608366
 20
369.4142204982301
 30
0.0
 10
260.3989502509557
 20
369.4522798646154
 30
0.0
 10
260.7353952817626
 20
369.4891728165784
 30
0.0
 10
261.1643569246588
 20
369.5366820417719
 30
0.0
 10
261.5194016465332
 20
369.577260348871
 30
0.0
 10
261.7786825495011
 20
369.6073589071564
 30
0.0
 10
261.796860267067
 20
369.6094697094495
 30
0.0
 10
262.0286498196947
 20
369.6364137892286
 30
0.0
 10
262.2993486647946
 20
369.6684108089281
 30
0.0
 10
262.5475138846347
 20
369.6982103594336
 30
0.0
 10
262.6491163078122
 20
369.7104671912799
 30
0.0
 10
262.8422017231598
 20
369.7338365025558
 30
0.0
 10
263.0492428378515
 20
369.759213685294
 30
0.0
 10
263.2269813003317
 20
369.7812356887401
 30
0.0
 10
263.3554069161564
 20
369.7972144139515
 30
0.0
 10
263.5026815383404
 20
369.8156509369516
 30
0.0
 10
263.6065473996761
 20
369.8287798632425
 30
0.0
 10
263.6704621362196
 20
369.8368718132854
 30
0.0
 10
263.7139026346029
 20
369.8423754260147
 30
0.0
 10
263.7553335558808
 20
369.8476251968107
 30
0.0
 10
263.7613140479879
 20
369.8483781390024
 30
0.0
 10
263.7643025291113
 20
369.848754387894
 30
0.0
  0
SPLINE
  5
117
330
1F
100
AcDbEntity
  8
0
  6
Continuous
 62
     8
370
     0
100
AcDbSpline
210
0.0
220
0.0
230
1.0
 70
     8
 71
     3
 72
    35
 73
    31
 74
     0
 42
0.00000001
 43
0.00000001
 12
1.0
 22
0.0
 32
0.0
 13
1.0
 23
0.0
 33
0.0
 40
0.0
 40
0.0
 40
0.0
 40
0.0
 40
0.0334866404902083
 40
0.0666084853126006
 40
0.0995472215350065
 40
0.1324944157982508
 40
0.1656606497959556
 40
0.1992862478360533
 40
0.2336429789118953
 40
0.255959705526712
 40
0.2865769821539141
 40
0.401399712699275
 40
0.4144752222746032
 40
0.4277371587261
 40
0.5256100185546423
 40
0.5661412711406146
 40
0.5705716111209718
 40
0.5966817709948448
 40
0.6520875089818425
 40
0.669238415633695
 40
0.6726496072522332
 40
0.6827376437679178
 40
0.6958593327384952
 40
0.7464028759230085
 40
0.7561241353654852
 40
0.7592993652016837
 40
0.8278828802285639
 40
0.8894490242227929
 40
0.9463120655270272
 40
1.0
 40
1.0
 40
1.0
 40
1.0
 10
251.8080084366413
 20
363.2957130798971
 30
0.0
 10
251.8158289332942
 20
363.3916068315468
 30
0.0
 10
251.8313847319298
 20
363.5823496906338
 30
0.0
 10
251.864378555993
 20
363.8662166208817
 30
0.0
 10
251.9046537326261
 20
364.1472738631458
 30
0.0
 10
251.9532735955536
 20
364.4267718953201
 30
0.0
 10
252.0106407994569
 20
364.7061352876672
 30
0.0
 10
252.0776416669387
 20
364.9868850402067
 30
0.0
 10
252.1455609890407
 20
365.2347748108717
 30
0.0
 10
252.2178328984655
 20
365.4718239613788
 30
0.0
 10
252.3688928163964
 20
365.9220468120946
 30
0.0
 10
252.5453563867313
 20
366.332972895776
 30
0.0
 10
252.7298684894779
 20
366.6777767208188
 30
0.0
 10
252.8971173538427
 20
366.9773434267865
 30
0.0
 10
253.1276507136059
 20
367.3231952414636
 30
0.0
 10
253.3726961054365
 20
367.614114568797
 30
0.0
 10
253.4988578846604
 20
367.7528155759249
 30
0.0
 10
253.6548767942988
 20
367.9155164038488
 30
0.0
 10
253.8440683730366
 20
368.0861715907434
 30
0.0
 10
253.9951230239241
 20
368.2054623258671
 30
0.0
 10
254.0566463288804
 20
368.2522123820563
 30
0.0
 10
254.1104062458858
 20
368.2920286735339
 30
0.0
 10
254.2607906134348
 20
368.3985519241624
 30
0.0
 10
254.4142345215283
 20
368.4942127207761
 30
0.0
 10
254.5488697718695
 20
368.5683095093532
 30
0.0
 10
254.7223249588691
 20
368.6611527128622
 30
0.0
 10
255.0111562025794
 20
368.7919403069015
 30
0.0
 10
255.4206607005984
 20
368.9225058567336
 30
0.0
 10
255.7975381722854
 20
369.0047553507183
 30
0.0
 10
256.0364797101574
 20
369.0304433475465
 30
0.0
 10
256.1525191891213
 20
369.0429184567055
 30
0.0
  0
SPLINE
  5
118
330
1F
100
AcDbEntity
  8
0
  6
Continuous
 62
     8
370
     0
100
AcDbSpline
210
0.0
220
0.0
230
1.0
 70
     8
 71
     3
 72
    10
 73
     6
 74
     0
 42
0.00000001
 43
0.00000001
 12
1.0
 22
0.0
 32
0.0
 13
1.0
 23
0.0
 33
0.0
 40
0.0
 40
0.0
 40
0.0
 40
0.0
 40
0.4999999999999999
 40
0.4999999999999999
 40
1.0
 40
1.0
 40
1.0
 40
1.0
 10
251.8008220532998
 20
346.798987488208
 30
0.0
 10
251.5984414562722
 20
349.5164392862509
 30
0.0
 10
251.4940647827393
 20
352.2818472336688
 30
0.0
 10
251.4965118793717
 20
357.8145494399255
 30
0.0
 10
251.6033324401076
 20
360.5793018340092
 30
0.0
 10
251.8079622509984
 20
363.2956433395451
 30
0.0
  0
SPLINE
  5
119
330
1F
100
AcDbEntity
  8
0
  6
Continuous
 62
     8
370
     0
100
AcDbSpline
210
0.0
220
0.0
230
1.0
 70
     8
 71
     3
 72
     9
 73
     5
 74
     0
 42
0.00000001
 43
0.00000001
 12
1.0
 22
0.0
 32
0.0
 13
1.0
 23
0.0
 33
0.0
 40
0.0
 40
0.0
 40
0.0
 40
0.0
 40
0.4975725135429806
 40
1.0
 40
1.0
 40
1.0
 40
1.0
 10
251.8612763086206
 20
346.2095293800488
 30
0.0
 10
251.849204632785
 20
346.3069578421861
 30
0.0
 10
251.8249434939419
 20
346.5027654068834
 30
0.0
 10
251.808938751712
 20
346.6996577713791
 30
0.0
 10
251.8008975293019
 20
346.7985819071752
 30
0.0
  0
SPLINE
  5
11A
330
1F
100
AcDbEntity
  8
0
  6
Continuous
 62
     8
370
     0
100
AcDbSpline
210
0.0
220
0.0
230
1.0
 70
     8
 71
     3
 72
     9
 73
     5
 74
     0
 42
0.00000001
 43
0.00000001
 12
1.0
 22
0.0
 32
0.0
 13
1.0
 23
0.0
 33
0.0
 40
0.0
 40
0.0
 40
0.0
 40
0.0
 40
0.5058905555305573
 40
1.0
 40
1.0
 40
1.0
 40
1.0
 10
252.3869898485471
 20
342.0641291363157
 30
0.0
 10
252.3004073232081
 20
342.7634274554687
 30
0.0
 10
252.1292585947083
 20
344.1457389287864
 30
0.0
 10
251.949746165007
 20
345.5269977270331
 30
0.0
 10
251.8610473780919
 20
346.2094907445032
 30
0.0
  0
SPLINE
  5
11B
330
1F
100
AcDbEntity
  8
0
  6
Continuous
 62
     8
370
     0
100
AcDbSpline
210
0.0
220
0.0
230
1.0
 70
     8
 71
     3
 72
    49
 73
    45
 74
     0
 42
0.00000001
 43
0.00000001
 12
1.0
 22
0.0
 32
0.0
 13
1.0
 23
0.0
 33
0.0
 40
0.0
 40
0.0
 40
0.0
 40
0.0
 40
0.0234078672832034
 40
0.0472017751388624
 40
0.0713968697923704
 40
0.0960060155857029
 40
0.1210490205910703
 40
0.1388474203542727
 40
0.1629442845606865
 40
0.2358812205978005
 40
0.2537191346741334
 40
0.2597202366491075
 40
0.3203606616045912
 40
0.3557048665800706
 40
0.4046194470072224
 40
0.4334280337496881
 40
0.4511044077338998
 40
0.4751617236776348
 40
0.5020449835502758
 40
0.508755467637678
 40
0.5177772872370245
 40
0.5559634511733565
 40
0.5639823117082233
 40
0.5666727939534455
 40
0.6224026422523394
 40
0.6311113532161965
 40
0.6399171231110952
 40
0.6834708447652208
 40
0.6966368196604319
 40
0.710030639451034
 40
0.744516415671719
 40
0.7659018516886481
 40
0.8013961239731345
 40
0.814882823683342
 40
0.8374055623727665
 40
0.8718752627790973
 40
0.8802399815471051
 40
0.9043926238700444
 40
0.9265940795947518
 40
0.942111125140673
 40
0.9636073180375153
 40
0.9831827596096893
 40
0.9917575973617149
 40
0.9999999999999999
 40
0.9999999999999999
 40
0.9999999999999999
 40
0.9999999999999999
 10
259.2091584751988
 20
336.4826659089345
 30
0.0
 10
259.1551232949113
 20
336.4833927823827
 30
0.0
 10
259.0461617907015
 20
336.4848585168147
 30
0.0
 10
258.8782356839479
 20
336.4966927069023
 30
0.0
 10
258.7053297704109
 20
336.5157798091938
 30
0.0
 10
258.5271366211536
 20
336.5430136068724
 30
0.0
 10
258.3624397111058
 20
336.5747595502886
 30
0.0
 10
258.1974471601749
 20
336.6119856658004
 30
0.0
 10
257.9119780840692
 20
336.6852483757973
 30
0.0
 10
257.621061345244
 20
336.779957513768
 30
0.0
 10
257.3731646912041
 20
336.8752263450988
 30
0.0
 10
257.1561432890664
 20
336.9618882208433
 30
0.0
 10
256.8920513476087
 20
337.0783359980898
 30
0.0
 10
256.5143795133715
 20
337.2667049088472
 30
0.0
 10
256.2184672423518
 20
337.4291375490937
 30
0.0
 10
255.968653540419
 20
337.5779437595063
 30
0.0
 10
255.7840496067724
 20
337.6931379630922
 30
0.0
 10
255.6047017390418
 20
337.8097038815035
 30
0.0
 10
255.4544063691728
 20
337.9122812578464
 30
0.0
 10
255.3436001222451
 20
337.990364368264
 30
0.0
 10
255.2035934620513
 20
338.0905041416195
 30
0.0
 10
255.0608089423492
 20
338.1972543715025
 30
0.0
 10
254.9352316193351
 20
338.2954182279746
 30
0.0
 10
254.7648740191507
 20
338.4299622932461
 30
0.0
 10
254.5942314443846
 20
338.5723881774438
 30
0.0
 10
254.4110495413317
 20
338.7358397057587
 30
0.0
 10
254.2590311523181
 20
338.8739811074619
 30
0.0
 10
254.0983009302502
 20
339.0283036024608
 30
0.0
 10
253.9301571812626
 20
339.200803026918
 30
0.0
 10
253.7854600723717
 20
339.3540874117045
 30
0.0
 10
253.6250526613907
 20
339.5345364407959
 30
0.0
 10
253.4208323091376
 20
339.7830373841788
 30
0.0
 10
253.2701340801932
 20
339.9830988193818
 30
0.0
 10
253.1243693680235
 20
340.1943054822381
 30
0.0
 10
252.9864915451966
 20
340.4083777869745
 30
0.0
 10
252.8684715528663
 20
340.6159278953199
 30
0.0
 10
252.7570534301758
 20
340.8355292265119
 30
0.0
 10
252.672232544174
 20
341.0193012717665
 30
0.0
 10
252.5879488597511
 20
341.2339161764327
 30
0.0
 10
252.5175345733374
 20
341.4442822910975
 30
0.0
 10
252.4605978717153
 20
341.6497221244003
 30
0.0
 10
252.4219393755164
 20
341.8336100165386
 30
0.0
 10
252.399353224923
 20
341.9697609589008
 30
0.0
 10
252.3910563041604
 20
342.0330903655877
 30
0.0
 10
252.3869898485471
 20
342.0641291363159
 30
0.0
  0
SPLINE
  5
11C
330
1F
100
AcDbEntity
  8
0
  6
Continuous
 62
     8
370
     0
100
AcDbSpline
210
0.0
220
0.0
230
1.0
 70
     8
 71
     3
 72
    34
 73
    30
 74
     0
 42
0.00000001
 43
0.00000001
 12
1.0
 22
0.0
 32
0.0
 13
1.0
 23
0.0
 33
0.0
 40
0.0
 40
0.0
 40
0.0
 40
0.0
 40
0.0334083772770494
 40
0.0668458029965287
 40
0.1003377428114915
 40
0.1339061068693304
 40
0.16756964886217
 40
0.2013443574926374
 40
0.235243847688556
 40
0.26927976770073
 40
0.3034622639126558
 40
0.3378006216961959
 40
0.3723041298674751
 40
0.406982779181038
 40
0.4418477574321032
 40
0.476911963625382
 40
0.5121903927209578
 40
0.5476933900012462
 40
0.5834247859212641
 40
0.6193916937406638
 40
0.6556023826072918
 40
0.6920628807478458
 40
0.7287735149547807
 40
0.7657256377278256
 40
0.8028988091702738
 40
0.8519682766722142
 40
0.9011382050786514
 40
0.9504647559643203
 40
1.0
 40
1.0
 40
1.0
 40
1.0
 10
263.7642901678997
 20
336.482675313201
 30
0.0
 10
263.7632754707492
 20
336.482675172677
 30
0.0
 10
263.7612451941735
 20
336.4826748915067
 30
0.0
 10
263.7448005345998
 20
336.4826771795285
 30
0.0
 10
263.7185091028285
 20
336.4826837488781
 30
0.0
 10
263.6813534629779
 20
336.4826928211363
 30
0.0
 10
263.6335215381303
 20
336.4827019938059
 30
0.0
 10
263.5748572709146
 20
336.4827089339121
 30
0.0
 10
263.5052774170383
 20
336.4827119435564
 30
0.0
 10
263.4246590005437
 20
336.4827094284957
 30
0.0
 10
263.3328709668926
 20
336.4827003486762
 30
0.0
 10
263.2297627013701
 20
336.4826787857823
 30
0.0
 10
263.1151925525936
 20
336.4826550218112
 30
0.0
 10
262.9890274383373
 20
336.4826416315797
 30
0.0
 10
262.8511234849817
 20
336.4826409841282
 30
0.0
 10
262.7013214252204
 20
336.48264953863
 30
0.0
 10
262.5394509282031
 20
336.4826613635491
 30
0.0
 10
262.3653458170276
 20
336.4826749216994
 30
0.0
 10
262.1788497627875
 20
336.4826872007499
 30
0.0
 10
261.979812111317
 20
336.4826947322446
 30
0.0
 10
261.768081444495
 20
336.4826949140862
 30
0.0
 10
261.5435238337698
 20
336.482687446516
 30
0.0
 10
261.3060443248791
 20
336.4826747112115
 30
0.0
 10
261.0556219887367
 20
336.4826630288879
 30
0.0
 10
260.7646535110037
 20
336.4826527071911
 30
0.0
 10
260.4289836330508
 20
336.4826652473543
 30
0.0
 10
260.043391328007
 20
336.4827089051705
 30
0.0
 10
259.6387660029037
 20
336.482683318636
 30
0.0
 10
259.3525623724329
 20
336.4826717203293
 30
0.0
 10
259.2091584751989
 20
336.4826659089342
 30
0.0
  0
SPLINE
  5
11D
330
1F
100
AcDbEntity
  8
0
  6
Continuous
 62
     8
370
    15
100
AcDbSpline
210
0.0
220
0.0
230
1.0
 70
     8
 71
     3
 72
    15
 73
    11
 74
     0
 42
0.00000001
 43
0.00000001
 12
1.0
 22
0.0
 32
0.0
 13
1.0
 23
0.0
 33
0.0
 40
0.0
 40
0.0
 40
0.0
 40
0.0
 40
0.0832146708378466
 40
0.1665779626824222
 40
0.2505334836488274
 40
0.3762890250120425
 40
0.5007405935137205
 40
0.6707705244124885
 40
0.83599951609717
 40
1.0
 40
1.0
 40
1.0
 40
1.0
 10
260.8910071520981
 20
346.6497345958475
 30
0.0
 10
260.8674794569845
 20
346.6648948425674
 30
0.0
 10
260.8203820464055
 20
346.6952424121357
 30
0.0
 10
260.7550573482425
 20
346.7479679491241
 30
0.0
 10
260.6838523967832
 20
346.8153349320929
 30
0.0
 10
260.6109191899538
 20
346.9005570312694
 30
0.0
 10
260.5330006788511
 20
347.0191862103634
 30
0.0
 10
260.4671190859247
 20
347.1620391834982
 30
0.0
 10
260.4209456157741
 20
347.3297707846547
 30
0.0
 10
260.4152672926513
 20
347.4451332177416
 30
0.0
 10
260.4124387253176
 20
347.502599198929
 30
0.0
  0
SPLINE
  5
11E
330
1F
100
AcDbEntity
  8
0
  6
Continuous
 62
     8
370
    15
100
AcDbSpline
210
0.0
220
0.0
230
1.0
 70
     8
 71
     3
 72
    19
 73
    15
 74
     0
 42
0.00000001
 43
0.00000001
 12
1.0
 22
0.0
 32
0.0
 13
1.0
 23
0.0
 33
0.0
 40
0.0
 40
0.0
 40
0.0
 40
0.0
 40
0.0548745966026597
 40
0.1148419837102238
 40
0.1799485751020822
 40
0.2502355692629711
 40
0.3053468707197853
 40
0.3751590336848615
 40
0.5005588344675596
 40
0.637982425796646
 40
0.750162115245448
 40
0.8402340501650326
 40
0.9235360268746042
 40
1.0
 40
1.0
 40
1.0
 40
1.0
 10
264.5106344326332
 20
345.6449596446909
 30
0.0
 10
264.4430263734924
 20
345.6450688816673
 30
0.0
 10
264.3015357000804
 20
345.6452974936633
 30
0.0
 10
264.0798834746834
 20
345.654272124843
 30
0.0
 10
263.8394876267887
 20
345.6716300062761
 30
0.0
 10
263.605371122619
 20
345.6973461170818
 30
0.0
 10
263.3657961000446
 20
345.7318491661762
 30
0.0
 10
263.0592935754251
 20
345.7867403114395
 30
0.0
 10
262.6534813209219
 20
345.8817856552102
 30
0.0
 10
262.1998352987345
 20
346.0237264928053
 30
0.0
 10
261.792893796304
 20
346.1822964059514
 30
0.0
 10
261.4550730647031
 20
346.3376335474751
 30
0.0
 10
261.162631977477
 20
346.488697869525
 30
0.0
 10
260.978927907808
 20
346.5976094977252
 30
0.0
 10
260.8910071520981
 20
346.6497345958475
 30
0.0
  0
SPLINE
  5
11F
330
1F
100
AcDbEntity
  8
0
  6
Continuous
 62
     8
370
    15
100
AcDbSpline
210
0.0
220
0.0
230
1.0
 70
     8
 71
     3
 72
     9
 73
     5
 74
     0
 42
0.00000001
 43
0.00000001
 12
1.0
 22
0.0
 32
0.0
 13
1.0
 23
0.0
 33
0.0
 40
0.0
 40
0.0
 40
0.0
 40
0.0
 40
0.5539029395419649
 40
1.0
 40
1.0
 40
1.0
 40
1.0
 10
262.0809795319373
 20
364.4501016690608
 30
0.0
 10
262.9480593831692
 20
364.51076975503
 30
0.0
 10
264.513459725599
 20
364.6202981247826
 30
0.0
 10
265.5023614914995
 20
364.7016301565992
 30
0.0
 10
265.9435076623494
 20
364.7379121369137
 30
0.0
  0
SPLINE
  5
120
330
1F
100
AcDbEntity
  8
0
  6
Continuous
 62
     8
370
    15
100
AcDbSpline
210
0.0
220
0.0
230
1.0
 70
     8
 71
     3
 72
    21
 73
    17
 74
     0
 42
0.00000001
 43
0.00000001
 12
1.0
 22
0.0
 32
0.0
 13
1.0
 23
0.0
 33
0.0
 40
0.0
 40
0.0
 40
0.0
 40
0.0
 40
0.030907182366169
 40
0.0621987139867279
 40
0.0939119276876244
 40
0.1260798835170035
 40
0.1870939623346833
 40
0.2515513330292297
 40
0.3763623527436283
 40
0.5015813715134219
 40
0.6261005437792208
 40
0.7512519374990616
 40
0.8248024840024982
 40
0.8753100965401386
 40
0.9414331009281062
 40
1.0
 40
1.0
 40
1.0
 40
1.0
 10
260.4124386071753
 20
362.5851949765594
 30
0.0
 10
260.4143253761545
 20
362.6199091365233
 30
0.0
 10
260.4181223772108
 20
362.6897691477434
 30
0.0
 10
260.4310147915155
 20
362.7940847797896
 30
0.0
 10
260.449177020705
 20
362.898195219828
 30
0.0
 10
260.4801735394189
 20
363.0319128054423
 30
0.0
 10
260.5315560333856
 20
363.1943825359881
 30
0.0
 10
260.6350379847419
 20
363.4353040566081
 30
0.0
 10
260.7997634757999
 20
363.7028912773609
 30
0.0
 10
261.030003114933
 20
363.9627404842071
 30
0.0
 10
261.2815051734085
 20
364.1669230669709
 30
0.0
 10
261.5089650692737
 20
364.2965227216431
 30
0.0
 10
261.6869615929682
 20
364.3686666533908
 30
0.0
 10
261.823748893046
 20
364.4101307214361
 30
0.0
 10
261.9497356394079
 20
364.437727231188
 30
0.0
 10
262.0390011267454
 20
364.4461453367244
 30
0.0
 10
262.080929162957
 20
364.4500993243661
 30
0.0
  0
SPLINE
  5
121
330
1F
100
AcDbEntity
  8
0
  6
Continuous
 62
     8
370
    15
100
AcDbSpline
210
0.0
220
0.0
230
1.0
 70
     8
 71
     3
 72
     8
 73
     4
 74
     0
 42
0.00000001
 43
0.00000001
 12
1.0
 22
0.0
 32
0.0
 13
1.0
 23
0.0
 33
0.0
 40
0.0941261486647108
 40
0.0941261486647108
 40
0.0941261486647108
 40
0.0941261486647108
 40
0.8993173251701189
 40
0.8993173251701189
 40
0.8993173251701189
 40
0.8993173251701189
 10
260.4124597535086
 20
347.503027869764
 30
0.0
 10
260.4124455186564
 20
352.5318725930391
 30
0.0
 10
260.412431438668
 20
357.5562017233669
 30
0.0
 10
260.4124175135308
 20
362.5851439173356
 30
0.0
  0
SPLINE
  5
122
330
1F
100
AcDbEntity
  8
0
  6
Continuous
 62
     8
370
     0
100
AcDbSpline
210
0.0
220
0.0
230
1.0
 70
     8
 71
     3
 72
    38
 73
    34
 74
     0
 42
0.00000001
 43
0.00000001
 12
1.0
 22
0.0
 32
0.0
 13
1.0
 23
0.0
 33
0.0
 40
0.0
 40
0.0
 40
0.0
 40
0.0
 40
0.4999999999999996
 40
0.4999999999999996
 40
0.7499999999999997
 40
0.7499999999999997
 40
0.8124999999999998
 40
0.8124999999999998
 40
0.8749999999999999
 40
0.8749999999999999
 40
0.8906250000000001
 40
0.8906250000000001
 40
0.8984375000000002
 40
0.8984375000000002
 40
0.9062500000000004
 40
0.9062500000000004
 40
0.9140625000000006
 40
0.9140625000000006
 40
0.9218750000000007
 40
0.9218750000000007
 40
0.9296875000000008
 40
0.9296875000000008
 40
0.9375000000000009
 40
0.9375000000000009
 40
0.9531250000000007
 40
0.9531250000000007
 40
0.9687500000000004
 40
0.9687500000000004
 40
0.9843750000000002
 40
0.9843750000000002
 40
0.9921875000000001
 40
0.9921875000000001
 40
1.0
 40
1.0
 40
1.0
 40
1.0
 10
262.0809541875471
 20
364.450099136736
 30
0.0
 10
278.8359128737493
 20
364.3244733727493
 30
0.0
 10
295.5910930958303
 20
364.1992124722925
 30
0.0
 10
320.7237470629552
 20
364.0143867359799
 30
0.0
 10
329.1005966788417
 20
363.9533314089173
 30
0.0
 10
339.5735569250255
 20
363.8777966572005
 30
0.0
 10
341.668255662679
 20
363.8627251363677
 30
0.0
 10
345.8569515517092
 20
363.8326875954328
 30
0.0
 10
347.9522753247591
 20
363.8177121910409
 30
0.0
 10
350.5655993834172
 20
363.7991155995825
 30
0.0
 10
351.0881695559184
 20
363.795400564014
 30
0.0
 10
351.8727155157352
 20
363.7898273274479
 30
0.0
 10
352.1333897286465
 20
363.7879747349847
 30
0.0
 10
352.6637933231918
 20
363.7842123739071
 30
0.0
 10
352.9359694650013
 20
363.7822932182522
 30
0.0
 10
353.4680893979682
 20
363.7785734140794
 30
0.0
 10
353.7257549790488
 20
363.7767761270555
 30
0.0
 10
354.2147934286002
 20
363.7733323537535
 30
0.0
 10
354.4482016997083
 20
363.7716817133912
 30
0.0
 10
354.8903330554795
 20
363.7687104588727
 30
0.0
 10
355.0991239305039
 20
363.7674017296838
 30
0.0
 10
355.5166827957807
 20
363.7650188532066
 30
0.0
 10
355.7226883733924
 20
363.7639231054593
 30
0.0
 10
356.3306710190491
 20
363.7609689332709
 30
0.0
 10
356.7260279855163
 20
363.7594238859882
 30
0.0
 10
357.4697966733995
 20
363.7576251978047
 30
0.0
 10
357.8117208381826
 20
363.757415014133
 30
0.0
 10
358.4440111259624
 20
363.7586847392303
 30
0.0
 10
358.7311578232375
 20
363.7602146811066
 30
0.0
 10
359.0921986756312
 20
363.7645745357074
 30
0.0
 10
359.2017715226888
 20
363.7663826021866
 30
0.0
 10
359.4045072691709
 20
363.7710697962045
 30
0.0
 10
359.4965680206127
 20
363.7739502179713
 30
0.0
 10
359.5751202255957
 20
363.7775064658676
 30
0.0
  0
SPLINE
  5
123
330
1F
100
AcDbEntity
  8
0
  6
Continuous
 62
     8
370
     0
100
AcDbSpline
210
0.0
220
0.0
230
1.0
 70
     8
 71
     3
 72
    20
 73
    16
 74
     0
 42
0.00000001
 43
0.00000001
 12
1.0
 22
0.0
 32
0.0
 13
1.0
 23
0.0
 33
0.0
 40
0.0
 40
0.0
 40
0.0
 40
0.0
 40
0.1249999999999994
 40
0.1249999999999994
 40
0.1874999999999994
 40
0.1874999999999994
 40
0.2499999999999996
 40
0.2499999999999996
 40
0.3124999999999996
 40
0.3124999999999996
 40
0.3749999999999996
 40
0.3749999999999996
 40
0.4999999999999997
 40
0.4999999999999997
 40
1.0
 40
1.0
 40
1.0
 40
1.0
 10
359.5744124271619
 20
363.7775367572232
 30
0.0
 10
359.7302056372268
 20
363.7845175652026
 30
0.0
 10
359.8463735484826
 20
363.7896315147098
 30
0.0
 10
359.9558824398511
 20
363.7966036584875
 30
0.0
 10
359.9812259257545
 20
363.7988954769371
 30
0.0
 10
360.0144806194126
 20
363.8039761245877
 30
0.0
 10
360.0225515579898
 20
363.806711068669
 30
0.0
 10
360.0292490094906
 20
363.8121930679593
 30
0.0
 10
360.0278071884089
 20
363.8149519983671
 30
0.0
 10
360.0262374923493
 20
363.819638450769
 30
0.0
 10
360.0270887031868
 20
363.8213983961632
 30
0.0
 10
360.0342688470821
 20
363.8253174599477
 30
0.0
 10
360.0434932509693
 20
363.826536985862
 30
0.0
 10
360.0733606177862
 20
363.8322989854194
 30
0.0
 10
360.0561839252363
 20
363.8334165960331
 30
0.0
 10
360.0564020310989
 20
363.8339219021917
 30
0.0
  0
SPLINE
  5
124
330
1F
100
AcDbEntity
  8
0
  6
Continuous
 62
     8
370
     0
100
AcDbSpline
210
0.0
220
0.0
230
1.0
 70
     8
 71
     3
 72
    11
 73
     7
 74
     0
 42
0.00000001
 43
0.00000001
 12
1.0
 22
0.0
 32
0.0
 13
1.0
 23
0.0
 33
0.0
 40
0.0
 40
0.0
 40
0.0
 40
0.0
 40
0.1368479766144611
 40
0.4304857828428893
 40
0.7241227458309988
 40
0.9999999999999999
 40
0.9999999999999999
 40
0.9999999999999999
 40
0.9999999999999999
 10
361.2105725317533
 20
362.7238151359758
 30
0.0
 10
361.1986786880607
 20
362.8014158830405
 30
0.0
 10
361.1612639542832
 20
363.0455263125531
 30
0.0
 10
360.9188861700983
 20
363.3985357102305
 30
0.0
 10
360.5301265747681
 20
363.7182908215036
 30
0.0
 10
360.2109936430053
 20
363.7961882739745
 30
0.0
 10
360.0564030914838
 20
363.8339224246717
 30
0.0
  0
SPLINE
  5
125
330
1F
100
AcDbEntity
  8
0
  6
Continuous
 62
     8
370
    15
100
AcDbSpline
210
0.0
220
0.0
230
1.0
 70
     8
 71
     3
 72
    16
 73
    12
 74
     0
 42
0.00000001
 43
0.00000001
 12
1.0
 22
0.0
 32
0.0
 13
1.0
 23
0.0
 33
0.0
 40
0.0
 40
0.0
 40
0.0
 40
0.0
 40
0.1249999999999978
 40
0.1249999999999978
 40
0.2499999999999957
 40
0.2499999999999957
 40
0.4999999999999971
 40
0.4999999999999971
 40
0.7499999999999986
 40
0.7499999999999986
 40
1.0
 40
1.0
 40
1.0
 40
1.0
 10
263.1959241431409
 20
403.1826663633265
 30
0.0
 10
263.1959241431409
 20
403.0914694648806
 30
0.0
 10
263.2172666971198
 20
403.0022379003347
 30
0.0
 10
263.2869646007944
 20
402.842847788341
 30
0.0
 10
263.335647876364
 20
402.7702842226489
 30
0.0
 10
263.4983330961931
 20
402.5797574309511
 30
0.0
 10
263.6266728785687
 20
402.4857166690029
 30
0.0
 10
263.8951840291696
 20
402.334057344113
 30
0.0
 10
264.0337930007811
 20
402.2788650643645
 30
0.0
 10
264.3132821391608
 20
402.2027761942191
 30
0.0
 10
264.4516549810689
 20
402.1826663633266
 30
0.0
 10
264.5880195230608
 20
402.1826663633265
 30
0.0
  0
SPLINE
  5
126
330
1F
100
AcDbEntity
  8
0
  6
Continuous
 62
     8
370
    15
100
AcDbSpline
210
0.0
220
0.0
230
1.0
 70
     8
 71
     3
 72
    18
 73
    14
 74
     0
 42
0.00000001
 43
0.00000001
 12
1.0
 22
0.0
 32
0.0
 13
1.0
 23
0.0
 33
0.0
 40
0.0
 40
0.0
 40
0.0
 40
0.0
 40
0.249999999999998
 40
0.249999999999998
 40
0.499999999999996
 40
0.499999999999996
 40
0.624999999999997
 40
0.624999999999997
 40
0.749999999999998
 40
0.749999999999998
 40
0.874999999999999
 40
0.874999999999999
 40
1.0
 40
1.0
 40
1.0
 40
1.0
 10
264.5880195230608
 20
408.1826663633266
 30
0.0
 10
264.4517245371343
 20
408.1826663633265
 30
0.0
 10
264.3127681295044
 20
408.1624541016186
 30
0.0
 10
264.0334431998367
 20
408.0863348108358
 30
0.0
 10
263.8944987898399
 20
408.0309653583355
 30
0.0
 10
263.6931775792851
 20
407.9171401770201
 30
0.0
 10
263.6279073912284
 20
407.8743334946327
 30
0.0
 10
263.5027128033478
 20
407.7761100429359
 30
0.0
 10
263.4423708060013
 20
407.7202166739523
 30
0.0
 10
263.3354271878868
 20
407.5946057889831
 30
0.0
 10
263.2874172490559
 20
407.5233929384445
 30
0.0
 10
263.2171569731993
 20
407.3629704303692
 30
0.0
 10
263.1959241431409
 20
407.2738397164734
 30
0.0
 10
263.1959241431409
 20
407.1826663633266
 30
0.0
  0
LINE
  5
127
330
1F
100
AcDbEntity
  8
0
  6
Continuous
 62
     8
370
    15
100
AcDbLine
 10
263.195923528
 20
407.1826664706
 30
0.0
 11
263.195923528
 21
403.182665815
 31
0.0
  0
LWPOLYLINE
  5
128
330
1F
100
AcDbEntity
  8
0
  6
Continuous
 62
     8
370
     0
100
AcDbPolyline
 90
       12
 70
   128
 43
0.0
 10
264.8551287114
 20
386.8479682108
 10
264.8542588561
 20
387.0553681602
 10
264.8526048272
 20
387.4503998061
 10
264.8502765208
 20
388.0062466463
 10
264.8474322616
 20
388.6851789405
 10
264.8442657649
 20
389.4411073973
 10
264.8409912347
 20
390.222719868
 10
264.8378321885
 20
390.976957043
 10
264.8350028306
 20
391.652620395
 10
264.8326931506
 20
392.2038460126
 10
264.8310633361
 20
392.5932133546
 10
264.8302195578
 20
392.7942914864
  0
SPLINE
  5
129
330
1F
100
AcDbEntity
  8
0
  6
Continuous
 62
     7
370
    15
100
AcDbSpline
210
0.0
220
0.0
230
1.0
 70
     8
 71
     3
 72
    10
 73
     6
 74
     0
 42
0.00000001
 43
0.00000001
 12
1.0
 22
0.0
 32
0.0
 13
1.0
 23
0.0
 33
0.0
 40
0.0
 40
0.0
 40
0.0
 40
0.0
 40
0.381883885810148
 40
0.7663386627744649
 40
0.9999999999999999
 40
0.9999999999999999
 40
0.9999999999999999
 40
0.9999999999999999
 10
148.4113843099796
 20
191.8813665548543
 30
0.0
 10
148.4462336267403
 20
192.6498474924966
 30
0.0
 10
148.5161668703188
 20
194.1919828797258
 30
0.0
 10
148.8685072471641
 20
196.1853540538851
 30
0.0
 10
149.2561935372347
 20
197.3687953615481
 30
0.0
 10
149.4027473883353
 20
197.8161619195918
 30
0.0
  0
SPLINE
  5
12A
330
1F
100
AcDbEntity
  8
0
  6
Continuous
 62
     7
370
    15
100
AcDbSpline
210
0.0
220
0.0
230
1.0
 70
     8
 71
     3
 72
    10
 73
     6
 74
     0
 42
0.00000001
 43
0.00000001
 12
1.0
 22
0.0
 32
0.0
 13
1.0
 23
0.0
 33
0.0
 40
0.0
 40
0.0
 40
0.0
 40
0.0
 40
0.2580738887187136
 40
0.6302934142901092
 40
1.0
 40
1.0
 40
1.0
 40
1.0
 10
111.6597768770181
 20
198.0056627804617
 30
0.0
 10
111.8276346426732
 20
197.495633434159
 30
0.0
 10
112.237593374861
 20
196.2499896394096
 30
0.0
 10
112.6054561993691
 20
194.1923172471682
 30
0.0
 10
112.674791699596
 20
192.6499420857035
 30
0.0
 10
112.7093420283519
 20
191.8813665548543
 30
0.0
  0
SPLINE
  5
12B
330
1F
100
AcDbEntity
  8
0
  6
Continuous
 62
     7
370
    15
100
AcDbSpline
210
0.0
220
0.0
230
1.0
 70
     8
 71
     3
 72
    36
 73
    32
 74
     0
 42
0.00000001
 43
0.00000001
 12
1.0
 22
0.0
 32
0.0
 13
1.0
 23
0.0
 33
0.0
 40
0.0
 40
0.0
 40
0.0
 40
0.0
 40
0.0268503608707765
 40
0.0512785134669573
 40
0.0734621837715662
 40
0.0930829886081308
 40
0.110736772712158
 40
0.1259351381633311
 40
0.13872694117104
 40
0.1491116749918587
 40
0.1675845155838072
 40
0.1855367746499733
 40
0.2008049825450132
 40
0.2123804519027624
 40
0.2241075463446511
 40
0.2369261212931557
 40
0.2508377987307353
 40
0.2749359740356472
 40
0.3023402771197574
 40
0.3357310906737501
 40
0.3723325641752142
 40
0.4143395498702785
 40
0.4616323493575285
 40
0.5142207077178125
 40
0.5721764625006694
 40
0.6354909261216638
 40
0.7000795653900669
 40
0.7694231365341362
 40
0.8435225386051918
 40
0.9223758403265517
 40
0.9999999999999999
 40
0.9999999999999999
 40
0.9999999999999999
 40
0.9999999999999999
 10
130.5625735712102
 20
90.94236466681761
 30
0.0
 10
131.5907283203525
 20
90.93972528945477
 30
0.0
 10
133.5542865534706
 20
90.93468463661976
 30
0.0
 10
136.3679878236857
 20
90.92869952476094
 30
0.0
 10
138.9008216640535
 20
90.960640709701
 30
0.0
 10
141.184974598813
 20
90.89633140945067
 30
0.0
 10
143.1606493167419
 20
91.40257196420383
 30
0.0
 10
144.6808697845129
 20
92.29312361521126
 30
0.0
 10
145.7594177166759
 20
93.29989585256189
 30
0.0
 10
146.7035238740355
 20
94.57452414778625
 30
0.0
 10
147.4410726229098
 20
96.23052605227579
 30
0.0
 10
147.6065423296251
 20
98.21338149795325
 30
0.0
 10
147.5747162323253
 20
99.92176770661331
 30
0.0
 10
147.6041330154365
 20
101.399726817026
 30
0.0
 10
147.6149589195519
 20
102.7827635431279
 30
0.0
 10
147.627945727153
 20
104.2555950692051
 30
0.0
 10
147.642993460281
 20
106.2021054426203
 30
0.0
 10
147.66256849102
 20
108.7072322601767
 30
0.0
 10
147.6879387446759
 20
111.9583127362598
 30
0.0
 10
147.7188574894536
 20
115.6882170661993
 30
0.0
 10
147.7558747303551
 20
119.9773323888025
 30
0.0
 10
147.7984114052417
 20
124.7988308335662
 30
0.0
 10
147.8461767552723
 20
130.2325628948204
 30
0.0
 10
147.8995943848198
 20
136.2770652638866
 30
0.0
 10
147.9594874681174
 20
142.9351221251314
 30
0.0
 10
148.0242689274808
 20
150.052732950666
 30
0.0
 10
148.0935638026651
 20
157.6064442847491
 30
0.0
 10
148.1671875312662
 20
165.5731681257076
 30
0.0
 10
148.2462149150805
 20
174.086164453319
 30
0.0
 10
148.3283293404758
 20
182.9162705649434
 30
0.0
 10
148.3838334739671
 20
188.9086890383253
 30
0.0
 10
148.4113675461732
 20
191.881362829564
 30
0.0
  0
SPLINE
  5
12C
330
1F
100
AcDbEntity
  8
0
  6
Continuous
 62
     7
370
    15
100
AcDbSpline
210
0.0
220
0.0
230
1.0
 70
     8
 71
     3
 72
    35
 73
    31
 74
     0
 42
0.00000001
 43
0.00000001
 12
1.0
 22
0.0
 32
0.0
 13
1.0
 23
0.0
 33
0.0
 40
0.0
 40
0.0
 40
0.0
 40
0.0
 40
0.0825384839088519
 40
0.165712364080424
 40
0.2435387077773615
 40
0.3160146252424323
 40
0.3831437076794513
 40
0.4449316305493546
 40
0.498270103090958
 40
0.5468494967769367
 40
0.5907303585536521
 40
0.6299056909831676
 40
0.6642689654599725
 40
0.6923233488706263
 40
0.7160471387559306
 40
0.73695980545736
 40
0.7559840215320561
 40
0.7731562466392473
 40
0.7884874773897909
 40
0.7998860285275206
 40
0.8149149547189701
 40
0.8324180751826343
 40
0.85089091733652
 40
0.8612756520354007
 40
0.8740674502199062
 40
0.889265816956149
 40
0.9069196025528596
 40
0.9335795392664796
 40
0.9647374167884145
 40
1.0
 40
1.0
 40
1.0
 40
1.0
 10
112.7093587921582
 20
191.881362829564
 30
0.0
 10
112.7386395512253
 20
188.7204917087123
 30
0.0
 10
112.7974264779689
 20
182.3744165061642
 30
0.0
 10
112.8841649814213
 20
173.0479281455099
 30
0.0
 10
112.967128645038
 20
164.1067911652815
 30
0.0
 10
113.0439804013579
 20
155.7800974967573
 30
0.0
 10
113.1145729508436
 20
148.0676016342547
 30
0.0
 10
113.1779541495837
 20
141.0879843850156
 30
0.0
 10
113.2340684395142
 20
134.818734924116
 30
0.0
 10
113.2833136072398
 20
129.235245027105
 30
0.0
 10
113.3276534988044
 20
124.1941443896425
 30
0.0
 10
113.3672861368189
 20
119.6974636165529
 30
0.0
 10
113.4008147610277
 20
115.8068663505871
 30
0.0
 10
113.4282565033205
 20
112.5079907869577
 30
0.0
 10
113.4502738370108
 20
109.7242178796737
 30
0.0
 10
113.469275206465
 20
107.2862473876033
 30
0.0
 10
113.4860137987899
 20
105.0992135595828
 30
0.0
 10
113.5029508014894
 20
103.125812335749
 30
0.0
 10
113.5150527142353
 20
101.4448371865694
 30
0.0
 10
113.5472122314336
 20
99.8449161967445
 30
0.0
 10
113.5134016463714
 20
98.16944624072329
 30
0.0
 10
113.6873964122904
 20
96.21455283868055
 30
0.0
 10
114.4171107402002
 20
94.57457373292267
 30
0.0
 10
115.3613247209903
 20
93.29980886848246
 30
0.0
 10
116.4398894818746
 20
92.29356442795101
 30
0.0
 10
117.9598753876025
 20
91.40045609208111
 30
0.0
 10
120.2018689166308
 20
90.83971541521461
 30
0.0
 10
123.104160485328
 20
90.9918400615372
 30
0.0
 10
126.6631340360161
 20
90.91224338778291
 30
0.0
 10
129.2074022704069
 20
90.93191893204033
 30
0.0
 10
130.5581527671212
 20
90.94236466681761
 30
0.0
  0
CIRCLE
  5
12D
330
1F
100
AcDbEntity
  8
0
  6
Continuous
 62
     7
370
    15
100
AcDbCircle
 10
130.5603631692
 20
211.0295933822
 30
0.0
 40
23.0
  0
ARC
  5
12E
330
1F
100
AcDbEntity
  8
0
  6
Continuous
 62
     7
370
    15
100
AcDbCircle
 10
142.5603631692
 20
189.0978811828
 30
0.0
 40
2.000000000000008
100
AcDbArc
 50
118.6854020141
 51
180.0
  0
ARC
  5
12F
330
1F
100
AcDbEntity
  8
0
  6
Continuous
 62
     7
370
    15
100
AcDbCircle
 10
118.5603631692
 20
189.0978811828
 30
0.0
 40
2.000000000000014
100
AcDbArc
 50
0.0
 51
61.3145979859
  0
LINE
  5
130
330
1F
100
AcDbEntity
  8
0
  6
Continuous
 62
     7
370
    15
100
AcDbLine
 10
120.5603633927
 20
139.0295964817
 30
0.0
 11
120.5603633927
 21
189.0978817979
 31
0.0
  0
LINE
  5
131
330
1F
100
AcDbEntity
  8
0
  6
Continuous
 62
     7
370
    15
100
AcDbLine
 10
140.5603629456
 20
189.0978817979
 30
0.0
 11
140.5603629456
 21
139.0295964817
 31
0.0
  0
ARC
  5
132
330
1F
100
AcDbEntity
  8
0
  6
Continuous
 62
     7
370
    15
100
AcDbCircle
 10
125.5603631692
 20
139.0295933822
 30
0.0
 40
5.0
100
AcDbArc
 50
180.0
 51
270.0
  0
ARC
  5
133
330
1F
100
AcDbEntity
  8
0
  6
Continuous
 62
     7
370
    15
100
AcDbCircle
 10
135.5603631692
 20
139.0295933822
 30
0.0
 40
5.0
100
AcDbArc
 50
270.0
 51
0.0
  0
LINE
  5
134
330
1F
100
AcDbEntity
  8
0
  6
Continuous
 62
     7
370
    15
100
AcDbLine
 10
135.5603630574
 20
134.0295937995
 30
0.0
 11
125.5603632809
 21
134.0295937995
 31
0.0
  0
CIRCLE
  5
135
330
1F
100
AcDbEntity
  8
0
  6
Continuous
 62
     8
370
     0
100
AcDbCircle
 10
130.5603631692
 20
211.0295933822
 30
0.0
 40
21.50000000000001
  0
LWPOLYLINE
  5
136
330
1F
100
AcDbEntity
  8
0
  6
Continuous
 62
     8
370
     0
100
AcDbPolyline
 90
        9
 70
   128
 43
0.0
 10
139.5603627817
 20
187.7057855169
 10
139.4198979171
 20
188.0698059837
 10
139.284830998
 20
188.4198361227
 10
139.1603522854
 20
188.7424276361
 10
139.0512459831
 20
189.0251790324
 10
138.9617049055
 20
189.2572292278
 10
138.8951702894
 20
189.4296561519
 10
138.8541976841
 20
189.5358381013
 10
138.8403628872
 20
189.5716902951
  0
LWPOLYLINE
  5
137
330
1F
100
AcDbEntity
  8
0
  6
Continuous
 62
     8
370
     0
100
AcDbPolyline
 90
        9
 70
   128
 43
0.0
 10
121.5603635566
 20
187.7057855169
 10
121.7008284213
 20
188.0698059837
 10
121.8358953403
 20
188.4198361227
 10
121.960374053
 20
188.7424276361
 10
122.0694803552
 20
189.0251790324
 10
122.1590214328
 20
189.2572292278
 10
122.2255560489
 20
189.4296561519
 10
122.2665286542
 20
189.5358381013
 10
122.2803634511
 20
189.5716902951
  0
LINE
  5
138
330
1F
100
AcDbEntity
  8
0
  6
Continuous
 62
     8
370
     0
100
AcDbLine
 10
121.5603635566
 20
187.7057855169
 30
0.0
 11
121.5603635566
 21
139.0295964817
 31
0.0
  0
ARC
  5
139
330
1F
100
AcDbEntity
  8
0
  6
Continuous
 62
     8
370
     0
100
AcDbCircle
 10
135.5603631692
 20
139.0295933822
 30
0.0
 40
4.0
100
AcDbArc
 50
270.0
 51
0.0
  0
LINE
  5
13A
330
1F
100
AcDbEntity
  8
0
  6
Continuous
 62
     8
370
     0
100
AcDbLine
 10
125.5603632809
 20
135.029595826
 30
0.0
 11
135.5603630574
 21
135.029595826
 31
0.0
  0
ARC
  5
13B
330
1F
100
AcDbEntity
  8
0
  6
Continuous
 62
     8
370
     0
100
AcDbCircle
 10
125.5603631692
 20
139.0295933822
 30
0.0
 40
4.0
100
AcDbArc
 50
180.0
 51
270.0
  0
LINE
  5
13C
330
1F
100
AcDbEntity
  8
0
  6
Continuous
 62
     8
370
     0
100
AcDbLine
 10
139.5603627817
 20
139.0295964817
 30
0.0
 11
139.5603627817
 21
187.7057855169
 31
0.0
  0
SPLINE
  5
13D
330
1F
100
AcDbEntity
  8
0
  6
Continuous
 62
     8
370
     0
100
AcDbSpline
210
0.0
220
0.0
230
1.0
 70
     8
 71
     3
 72
    10
 73
     6
 74
     0
 42
0.00000001
 43
0.00000001
 12
1.0
 22
0.0
 32
0.0
 13
1.0
 23
0.0
 33
0.0
 40
0.0
 40
0.0
 40
0.0
 40
0.0
 40
0.3685477058346136
 40
0.7397635441746736
 40
1.0
 40
1.0
 40
1.0
 40
1.0
 10
148.2674223290406
 20
191.8813665548543
 30
0.0
 10
148.2997611656318
 20
192.6248345754092
 30
0.0
 10
148.3646729585757
 20
194.1171530165746
 30
0.0
 10
148.729627951491
 20
196.1125412907305
 30
0.0
 10
149.1396922006473
 20
197.3192704886954
 30
0.0
 10
149.3086893962346
 20
197.8165921906213
 30
0.0
  0
SPLINE
  5
13E
330
1F
100
AcDbEntity
  8
0
  6
Continuous
 62
     8
370
     0
100
AcDbSpline
210
0.0
220
0.0
230
1.0
 70
     8
 71
     3
 72
    10
 73
     6
 74
     0
 42
0.00000001
 43
0.00000001
 12
1.0
 22
0.0
 32
0.0
 13
1.0
 23
0.0
 33
0.0
 40
0.0
 40
0.0
 40
0.0
 40
0.0
 40
0.3799095529120277
 40
0.7625694914903473
 40
1.0
 40
1.0
 40
1.0
 40
1.0
 10
112.8533021466457
 20
191.8813665548543
 30
0.0
 10
112.8206876292794
 20
192.6247528240256
 30
0.0
 10
112.7552224791336
 20
194.1169071668621
 30
0.0
 10
112.4048260945679
 20
196.0537005365601
 30
0.0
 10
112.0157651047446
 20
197.2037460120838
 30
0.0
 10
111.8667949841939
 20
197.6440944859962
 30
0.0
  0
SPLINE
  5
13F
330
1F
100
AcDbEntity
  8
0
  6
Continuous
 62
     8
370
     0
100
AcDbSpline
210
0.0
220
0.0
230
1.0
 70
     8
 71
     3
 72
    36
 73
    32
 74
     0
 42
0.00000001
 43
0.00000001
 12
1.0
 22
0.0
 32
0.0
 13
1.0
 23
0.0
 33
0.0
 40
0.0
 40
0.0
 40
0.0
 40
0.0
 40
0.0078125000000003
 40
0.0078125000000003
 40
0.0156250000000006
 40
0.0156250000000006
 40
0.0312500000000012
 40
0.0312500000000012
 40
0.0468750000000017
 40
0.0468750000000017
 40
0.0546875000000018
 40
0.0546875000000018
 40
0.0625000000000019
 40
0.0625000000000019
 40
0.070312500000002
 40
0.070312500000002
 40
0.0781250000000021
 40
0.0781250000000021
 40
0.0937500000000023
 40
0.0937500000000023
 40
0.1093750000000026
 40
0.1093750000000026
 40
0.1250000000000028
 40
0.1250000000000028
 40
0.1875000000000024
 40
0.1875000000000024
 40
0.2500000000000019
 40
0.2500000000000019
 40
0.5000000000000012
 40
0.5000000000000012
 40
1.0
 40
1.0
 40
1.0
 40
1.0
 10
118.1811374823383
 20
91.51194630133473
 30
0.0
 10
117.9230157675262
 20
91.61011713513587
 30
0.0
 10
117.6706856460052
 20
91.72516506128264
 30
0.0
 10
117.1926478109702
 20
91.97821893646866
 30
0.0
 10
116.9680626334787
 20
92.11490452956112
 30
0.0
 10
116.31400202682
 20
92.5655029257112
 30
0.0
 10
115.903374623843
 20
92.92294854168843
 30
0.0
 10
115.1795229455559
 20
93.71170273971696
 30
0.0
 10
114.8660437569222
 20
94.14134048545114
 30
0.0
 10
114.4683289273163
 20
94.84299295547291
 30
0.0
 10
114.3490099566803
 20
95.08477373072238
 30
0.0
 10
114.1398502819847
 20
95.5764100037921
 30
0.0
 10
114.0496437332078
 20
95.82705077294106
 30
0.0
 10
113.8985687174428
 20
96.33791972557978
 30
0.0
 10
113.8373843278774
 20
96.59817613345558
 30
0.0
 10
113.7464292852709
 20
97.12812529603107
 30
0.0
 10
113.7171471019885
 20
97.3970223024192
 30
0.0
 10
113.6677699147335
 20
98.19742801123677
 30
0.0
 10
113.6800238531691
 20
98.73048118468749
 30
0.0
 10
113.682077265719
 20
99.79483291341873
 30
0.0
 10
113.6724509234832
 20
100.3269735045469
 30
0.0
 10
113.6606412182292
 20
101.3916714484406
 30
0.0
 10
113.6554232918276
 20
101.924072716561
 30
0.0
 10
113.6313118449528
 20
104.5860318218177
 30
0.0
 10
113.6152962037371
 20
106.7151498608136
 30
0.0
 10
113.5805970443253
 20
110.9733860613978
 30
0.0
 10
113.5631920089242
 20
113.1024159285272
 30
0.0
 10
113.4743443458901
 20
123.7477075231003
 30
0.0
 10
113.398964407755
 20
132.2644826962569
 30
0.0
 10
113.1700352468356
 20
157.8145097395453
 30
0.0
 10
113.0106674642104
 20
174.8478721449706
 30
0.0
 10
112.8532997301315
 20
191.8813667171373
 30
0.0
  0
SPLINE
  5
140
330
1F
100
AcDbEntity
  8
0
  6
Continuous
 62
     8
370
     0
100
AcDbSpline
210
0.0
220
0.0
230
1.0
 70
     8
 71
     3
 72
    38
 73
    34
 74
     0
 42
0.00000001
 43
0.00000001
 12
1.0
 22
0.0
 32
0.0
 13
1.0
 23
0.0
 33
0.0
 40
0.0
 40
0.0
 40
0.0
 40
0.0
 40
0.4999999999999983
 40
0.4999999999999983
 40
0.7499999999999976
 40
0.7499999999999976
 40
0.812499999999997
 40
0.812499999999997
 40
0.8749999999999964
 40
0.8749999999999964
 40
0.8906249999999966
 40
0.8906249999999966
 40
0.9062499999999968
 40
0.9062499999999968
 40
0.9218749999999969
 40
0.9218749999999969
 40
0.9296874999999972
 40
0.9296874999999972
 40
0.9374999999999976
 40
0.9374999999999976
 40
0.9453124999999979
 40
0.9453124999999979
 40
0.9531249999999981
 40
0.9531249999999981
 40
0.9609374999999984
 40
0.9609374999999984
 40
0.9687499999999988
 40
0.9687499999999988
 40
0.9843749999999993
 40
0.9843749999999993
 40
0.9921874999999997
 40
0.9921874999999997
 40
1.0
 40
1.0
 40
1.0
 40
1.0
 10
148.2674270589021
 20
191.8813671727339
 30
0.0
 10
148.1100138847223
 20
174.842801134607
 30
0.0
 10
147.950600308295
 20
157.8043677219071
 30
0.0
 10
147.7216075161745
 20
132.2467326443789
 30
0.0
 10
147.6461911392322
 20
123.7274205683462
 30
0.0
 10
147.557349747371
 20
113.0789615668607
 30
0.0
 10
147.5399496103364
 20
110.9492983085031
 30
0.0
 10
147.5052434267522
 20
106.6897931640213
 30
0.0
 10
147.4892531855884
 20
104.5600456248225
 30
0.0
 10
147.4650244749647
 20
101.8972774429229
 30
0.0
 10
147.4597795358217
 20
101.3647134403922
 30
0.0
 10
147.4479412695408
 20
100.299691209562
 30
0.0
 10
147.4384019316534
 20
99.7673606312962
 30
0.0
 10
147.4410303960617
 20
98.70285251298064
 30
0.0
 10
147.4526329814903
 20
98.16766425233682
 30
0.0
 10
147.4011610476368
 20
97.37104099645578
 30
0.0
 10
147.3714148190192
 20
97.1070063203042
 30
0.0
 10
147.2801911137215
 20
96.58441177273401
 30
0.0
 10
147.2189316254393
 20
96.3258725664219
 30
0.0
 10
147.0665479730747
 20
95.81467929137591
 30
0.0
 10
146.9748356812805
 20
95.56133482109415
 30
0.0
 10
146.7642514509565
 20
95.06880965645958
 30
0.0
 10
146.6460434946324
 20
94.83084014914948
 30
0.0
 10
146.3840273150433
 20
94.37002407356823
 30
0.0
 10
146.2401243785349
 20
94.14728504864823
 30
0.0
 10
145.9262803630562
 20
93.7172502934516
 30
0.0
 10
145.7554238506502
 20
93.5089413581078
 30
0.0
 10
145.2133685151646
 20
92.9184635879729
 30
0.0
 10
144.8103434451457
 20
92.56823668902611
 30
0.0
 10
144.1548437724707
 20
92.11630727112518
 30
0.0
 10
143.9279160156333
 20
91.97805510767206
 30
0.0
 10
143.4473319669117
 20
91.72381040846874
 30
0.0
 10
143.1952421903003
 20
91.6091782582993
 30
0.0
 10
142.9395870852639
 20
91.5119456278777
 30
0.0
  0
SPLINE
  5
141
330
1F
100
AcDbEntity
  8
0
  6
Continuous
 62
     8
370
     0
100
AcDbSpline
210
0.0
220
0.0
230
1.0
 70
     8
 71
     3
 72
    20
 73
    16
 74
     0
 42
0.00000001
 43
0.00000001
 12
1.0
 22
0.0
 32
0.0
 13
1.0
 23
0.0
 33
0.0
 40
0.0
 40
0.0
 40
0.0
 40
0.0
 40
0.1249999999999993
 40
0.1249999999999993
 40
0.1874999999999992
 40
0.1874999999999992
 40
0.2499999999999991
 40
0.2499999999999991
 40
0.312499999999999
 40
0.312499999999999
 40
0.3749999999999989
 40
0.3749999999999989
 40
0.4999999999999991
 40
0.4999999999999991
 40
1.0
 40
1.0
 40
1.0
 40
1.0
 10
142.9385857988006
 20
91.5115634698149
 30
0.0
 10
142.4518946969275
 20
91.3265578114111
 30
0.0
 10
141.949201500276
 20
91.2001011755618
 30
0.0
 10
141.1801479666118
 20
91.08484810369578
 30
0.0
 10
140.9191577595346
 20
91.05934464540141
 30
0.0
 10
140.3991563181681
 20
91.030307611159
 30
0.0
 10
140.1394135097121
 20
91.0259465909051
 30
0.0
 10
139.6203252472956
 20
91.02642769685356
 30
0.0
 10
139.3608146853641
 20
91.03134916419936
 30
0.0
 10
138.8438159706249
 20
91.03895534969185
 30
0.0
 10
138.5857102261527
 20
91.04086361371205
 30
0.0
 10
137.8095205048495
 20
91.04094999075372
 30
0.0
 10
137.2920325492772
 20
91.03479340228577
 30
0.0
 10
134.7029039008857
 20
91.01653570603357
 30
0.0
 10
132.6323107078048
 20
91.0360386040893
 30
0.0
 10
130.5617561297891
 20
91.03602955883039
 30
0.0
  0
SPLINE
  5
142
330
1F
100
AcDbEntity
  8
0
  6
Continuous
 62
     8
370
     0
100
AcDbSpline
210
0.0
220
0.0
230
1.0
 70
     8
 71
     3
 72
    20
 73
    16
 74
     0
 42
0.00000001
 43
0.00000001
 12
1.0
 22
0.0
 32
0.0
 13
1.0
 23
0.0
 33
0.0
 40
0.0
 40
0.0
 40
0.0
 40
0.0
 40
0.4999999999999997
 40
0.4999999999999997
 40
0.6249999999999994
 40
0.6249999999999994
 40
0.6874999999999996
 40
0.6874999999999996
 40
0.7499999999999996
 40
0.7499999999999996
 40
0.8124999999999997
 40
0.8124999999999997
 40
0.8749999999999998
 40
0.8749999999999998
 40
1.0
 40
1.0
 40
1.0
 40
1.0
 10
130.5589702083471
 20
91.03602953648041
 30
0.0
 10
128.4895497511378
 20
91.03600535374932
 30
0.0
 10
126.4165831211825
 20
91.01650792865874
 30
0.0
 10
123.8292974512476
 20
91.03472389256657
 30
0.0
 10
123.310877557493
 20
91.04088320386849
 30
0.0
 10
122.5346945835063
 20
91.04079406535851
 30
0.0
 10
122.2768743974334
 20
91.03888706234144
 30
0.0
 10
121.7604368453224
 20
91.03129416333579
 30
0.0
 10
121.5008892744067
 20
91.02636857706442
 30
0.0
 10
120.9810519015183
 20
91.02589262319545
 30
0.0
 10
120.720787492808
 20
91.03029056088786
 30
0.0
 10
120.201247028296
 20
91.05934356959037
 30
0.0
 10
119.9414322892036
 20
91.08471310154499
 30
0.0
 10
119.1715587995855
 20
91.2000484715432
 30
0.0
 10
118.6683830629925
 20
91.32672567915078
 30
0.0
 10
118.1821148567435
 20
91.51157323619856
 30
0.0
  0
SPLINE
  5
143
330
1F
100
AcDbEntity
  8
0
  6
Continuous
 62
     8
370
     0
100
AcDbSpline
210
0.0
220
0.0
230
1.0
 70
     8
 71
     3
 72
     9
 73
     5
 74
     0
 42
0.00000001
 43
0.00000001
 12
1.0
 22
0.0
 32
0.0
 13
1.0
 23
0.0
 33
0.0
 40
0.0
 40
0.0
 40
0.0
 40
0.0
 40
0.0039300330993156
 40
1.0
 40
1.0
 40
1.0
 40
1.0
 10
148.4108236537896
 20
191.8813665548543
 30
0.0
 10
148.4110100342493
 20
191.8813665548014
 30
0.0
 10
148.4584346881908
 20
191.8813665413282
 30
0.0
 10
148.3627414010454
 20
191.8813768128232
 30
0.0
 10
148.2674241916858
 20
191.881387043951
 30
0.0
  0
SPLINE
  5
144
330
1F
100
AcDbEntity
  8
0
  6
Continuous
 62
     8
370
     0
100
AcDbSpline
210
0.0
220
0.0
230
1.0
 70
     8
 71
     3
 72
     9
 73
     5
 74
     0
 42
0.00000001
 43
0.00000001
 12
1.0
 22
0.0
 32
0.0
 13
1.0
 23
0.0
 33
0.0
 40
0.0
 40
0.0
 40
0.0
 40
0.0
 40
0.9952493284360002
 40
1.0
 40
1.0
 40
1.0
 40
1.0
 10
112.8533021466457
 20
191.881387043951
 30
0.0
 10
112.7580713676296
 20
191.8813768156254
 30
0.0
 10
112.6623860189485
 20
191.8813665384765
 30
0.0
 10
112.7097929537639
 20
191.8813665547769
 30
0.0
 10
112.7100181685411
 20
191.8813665548543
 30
0.0
  0
LINE
  5
145
330
1F
100
AcDbEntity
  8
0
  6
Continuous
 62
     8
370
     0
100
AcDbLine
 10
130.5583388197
 20
90.9636807779
 30
0.0
 11
130.5589702089
 21
91.0360259155
 31
0.0
  0
ENDSEC
  0
SECTION
  2
OBJECTS
  0
DICTIONARY
  5
C
330
0
100
AcDbDictionary
281
     1
  3
ACAD_GROUP
350
D
  3
ACAD_LAYOUT
350
1A
  3
ACAD_MATERIAL
350
3B
  3
ACAD_MLEADERSTYLE
350
147
  3
ACAD_MLINESTYLE
350
17
  3
ACAD_PLOTSETTINGS
350
19
  3
ACAD_PLOTSTYLENAME
350
E
  3
ACAD_TABLESTYLE
350
146
  3
ACAD_VISUALSTYLE
350
2A
  0
DICTIONARY
  5
D
102
{ACAD_REACTORS
330
C
102
}
330
C
100
AcDbDictionary
281
     1
  0
DICTIONARY
  5
1A
102
{ACAD_REACTORS
330
C
102
}
330
C
100
AcDbDictionary
281
     1
  3
Layout1
350
1E
  3
Layout2
350
26
  3
Model
350
22
  0
DICTIONARY
  5
3B
102
{ACAD_REACTORS
330
C
102
}
330
C
100
AcDbDictionary
281
     1
  3
ByBlock
350
3D
  3
ByLayer
350
3C
  3
Global
350
3E
  0
DICTIONARY
  5
147
102
{ACAD_REACTORS
330
C
102
}
330
C
100
AcDbDictionary
281
     1
  0
DICTIONARY
  5
17
102
{ACAD_REACTORS
330
C
102
}
330
C
100
AcDbDictionary
281
     1
  3
Standard
350
18
  0
DICTIONARY
  5
19
102
{ACAD_REACTORS
330
C
102
}
330
C
100
AcDbDictionary
281
     1
  0
ACDBDICTIONARYWDFLT
  5
E
102
{ACAD_REACTORS
330
C
102
}
330
C
100
AcDbDictionary
281
     1
  3
Normal
350
F
100
AcDbDictionaryWithDefault
340
F
  0
DICTIONARY
  5
146
102
{ACAD_REACTORS
330
C
102
}
330
C
100
AcDbDictionary
281
     1
  0
DICTIONARY
  5
2A
102
{ACAD_REACTORS
330
C
102
}
330
C
100
AcDbDictionary
281
     1
  3
2dWireframe
350
2F
  3
3D Hidden
350
31
  3
3dWireframe
350
30
  3
Basic
350
32
  3
Brighten
350
36
  3
ColorChange
350
3A
  3
Conceptual
350
34
  3
Dim
350
35
  3
Facepattern
350
39
  3
Flat
350
2B
  3
FlatWithEdges
350
2C
  3
Gouraud
350
2D
  3
GouraudWithEdges
350
2E
  3
Linepattern
350
38
  3
Realistic
350
33
  3
Thicken
350
37
  0
LAYOUT
  5
1E
102
{ACAD_REACTORS
330
1A
102
}
330
1A
100
AcDbPlotSettings
  1

  2
none_device
  4

  6

 40
0.0
 41
0.0
 42
0.0
 43
0.0
 44
0.0
 45
0.0
 46
0.0
 47
0.0
 48
0.0
 49
0.0
140
0.0
141
0.0
142
1.0
143
1.0
 70
   688
 72
     0
 73
     0
 74
     5
  7

 75
    16
 76
     0
 77
     2
 78
   300
147
1.0
148
0.0
149
0.0
100
AcDbLayout
  1
Layout1
 70
     1
 71
     1
 10
0.0
 20
0.0
 11
420.0
 21
297.0
 12
0.0
 22
0.0
 32
0.0
 14
1.0000000000E+20
 24
1.0000000000E+20
 34
1.0000000000E+20
 15
-1.0000000000E+20
 25
-1.0000000000E+20
 35
-1.0000000000E+20
146
0.0
 13
0.0
 23
0.0
 33
0.0
 16
1.0
 26
0.0
 36
0.0
 17
0.0
 27
1.0
 37
0.0
 76
     0
330
1B
  0
LAYOUT
  5
26
102
{ACAD_REACTORS
330
1A
102
}
330
1A
100
AcDbPlotSettings
  1

  2
none_device
  4

  6

 40
0.0
 41
0.0
 42
0.0
 43
0.0
 44
0.0
 45
0.0
 46
0.0
 47
0.0
 48
0.0
 49
0.0
140
0.0
141
0.0
142
1.0
143
1.0
 70
   688
 72
     0
 73
     0
 74
     5
  7

 75
    16
 76
     0
 77
     2
 78
   300
147
1.0
148
0.0
149
0.0
100
AcDbLayout
  1
Layout2
 70
     1
 71
     2
 10
0.0
 20
0.0
 11
0.0
 21
0.0
 12
0.0
 22
0.0
 32
0.0
 14
0.0
 24
0.0
 34
0.0
 15
0.0
 25
0.0
 35
0.0
146
0.0
 13
0.0
 23
0.0
 33
0.0
 16
1.0
 26
0.0
 36
0.0
 17
0.0
 27
1.0
 37
0.0
 76
     0
330
23
  0
LAYOUT
  5
22
102
{ACAD_REACTORS
330
1A
102
}
330
1A
100
AcDbPlotSettings
  1

  2
none_device
  4

  6

 40
0.0
 41
0.0
 42
0.0
 43
0.0
 44
0.0
 45
0.0
 46
0.0
 47
0.0
 48
0.0
 49
0.0
140
0.0
141
0.0
142
1.0
143
1.0
 70
  1712
 72
     0
 73
     0
 74
     0
  7

 75
     0
 76
     0
 77
     2
 78
   300
147
1.0
148
0.0
149
0.0
100
AcDbLayout
  1
Model
 70
     1
 71
     0
 10
0.0
 20
0.0
 11
594.0
 21
841.0
 12
0.0
 22
0.0
 32
0.0
 14
0.0
 24
0.0
 34
0.0
 15
594.0
 25
841.0
 35
0.0
146
0.0
 13
0.0
 23
0.0
 33
0.0
 16
1.0
 26
0.0
 36
0.0
 17
0.0
 27
1.0
 37
0.0
 76
     0
330
1F
331
29
  0
MATERIAL
  5
3D
102
{ACAD_REACTORS
330
3B
102
}
330
3B
100
AcDbMaterial
  1
ByBlock
 72
     1
 94
      127
  0
MATERIAL
  5
3C
102
{ACAD_REACTORS
330
3B
102
}
330
3B
100
AcDbMaterial
  1
ByLayer
 72
     1
 94
      127
  0
MATERIAL
  5
3E
102
{ACAD_REACTORS
330
3B
102
}
330
3B
100
AcDbMaterial
  1
Global
 72
     1
 94
      127
  0
MLINESTYLE
  5
18
102
{ACAD_REACTORS
330
17
102
}
330
17
100
AcDbMlineStyle
  2
Standard
 70
     0
  3

 62
   256
 51
90.0
 52
90.0
 71
     2
 49
0.5
 62
   256
  6
BYLAYER
 49
-0.5
 62
   256
  6
BYLAYER
  0
ACDBPLACEHOLDER
  5
F
102
{ACAD_REACTORS
330
E
102
}
330
E
  0
VISUALSTYLE
  5
2F
102
{ACAD_REACTORS
330
2A
102
}
330
2A
100
AcDbVisualStyle
  2
2dWireframe
 70
     4
177
     2
291
     0
 71
     0
176
     1
 72
     2
176
     1
 73
     0
176
     1
 90
        0
176
     1
 40
-0.6
176
     1
 41
-30.0
176
     1
 62
     5
 63
     7
421
 16777215
176
     1
 74
     1
176
     1
 91
        4
176
     1
 64
     7
176
     1
 65
   257
176
     1
 75
     1
176
     1
175
     1
176
     1
 42
1.0
176
     1
 92
        0
176
     1
 66
   257
176
     1
 43
1.0
176
     1
 76
     1
176
     1
 77
     6
176
     1
 78
     2
176
     1
 67
     7
176
     1
 79
     5
176
     1
170
     0
176
     1
171
     0
176
     1
290
     0
176
     1
 93
        1
176
     1
 44
0.0
176
     1
173
     0
176
     1
  0
VISUALSTYLE
  5
31
102
{ACAD_REACTORS
330
2A
102
}
330
2A
100
AcDbVisualStyle
  2
3D Hidden
 70
     6
177
     2
291
     0
 71
     1
176
     1
 72
     2
176
     1
 73
     2
176
     1
 90
        0
176
     1
 40
-0.6
176
     1
 41
-30.0
176
     1
 62
     5
 63
     7
421
 16777215
176
     1
 74
     2
176
     1
 91
        2
176
     1
 64
     7
176
     1
 65
   257
176
     1
 75
     2
176
     1
175
     1
176
     1
 42
40.0
176
     1
 92
        0
176
     1
 66
   257
176
     1
 43
1.0
176
     1
 76
     1
176
     1
 77
     6
176
     1
 78
     2
176
     1
 67
     7
176
     1
 79
     3
176
     1
170
     0
176
     1
171
     0
176
     1
290
     0
176
     1
 93
        1
176
     1
 44
0.0
176
     1
173
     0
176
     1
  0
VISUALSTYLE
  5
30
102
{ACAD_REACTORS
330
2A
102
}
330
2A
100
AcDbVisualStyle
  2
3dWireframe
 70
     5
177
     2
291
     0
 71
     0
176
     1
 72
     2
176
     1
 73
     0
176
     1
 90
        0
176
     1
 40
-0.6
176
     1
 41
-30.0
176
     1
 62
     5
 63
     7
421
 16777215
176
     1
 74
     1
176
     1
 91
        4
176
     1
 64
     7
176
     1
 65
   257
176
     1
 75
     1
176
     1
175
     1
176
     1
 42
1.0
176
     1
 92
        0
176
     1
 66
   257
176
     1
 43
1.0
176
     1
 76
     1
176
     1
 77
     6
176
     1
 78
     2
176
     1
 67
     7
176
     1
 79
     5
176
     1
170
     0
176
     1
171
     0
176
     1
290
     0
176
     1
 93
        1
176
     1
 44
0.0
176
     1
173
     0
176
     1
  0
VISUALSTYLE
  5
32
102
{ACAD_REACTORS
330
2A
102
}
330
2A
100
AcDbVisualStyle
  2
Basic
 70
     7
177
     2
291
     1
 71
     1
176
     1
 72
     0
176
     1
 73
     1
176
     1
 90
        0
176
     1
 40
-0.6
176
     1
 41
-30.0
176
     1
 62
     5
 63
     7
421
 16777215
176
     1
 74
     0
176
     1
 91
        4
176
     1
 64
     7
176
     1
 65
   257
176
     1
 75
     1
176
     1
175
     1
176
     1
 42
1.0
176
     1
 92
        8
176
     1
 66
     7
176
     1
 43
1.0
176
     1
 76
     1
176
     1
 77
     6
176
     1
 78
     2
176
     1
 67
     7
176
     1
 79
     5
176
     1
170
     0
176
     1
171
     0
176
     1
290
     0
176
     1
 93
        1
176
     1
 44
0.0
176
     1
173
     0
176
     1
  0
VISUALSTYLE
  5
36
102
{ACAD_REACTORS
330
2A
102
}
330
2A
100
AcDbVisualStyle
  2
Brighten
 70
    12
177
     2
291
     1
 71
     2
176
     1
 72
     2
176
     1
 73
     0
176
     1
 90
        0
176
     1
 40
-0.6
176
     1
 41
-30.0
176
     1
 62
     5
 63
     7
421
 16777215
176
     1
 74
     1
176
     1
 91
        4
176
     1
 64
     7
176
     1
 65
   257
176
     1
 75
     1
176
     1
175
     1
176
     1
 42
1.0
176
     1
 92
        8
176
     1
 66
     7
176
     1
 43
1.0
176
     1
 76
     1
176
     1
 77
     6
176
     1
 78
     2
176
     1
 67
     7
176
     1
 79
     5
176
     1
170
     0
176
     1
171
     0
176
     1
290
     0
176
     1
 93
        1
176
     1
 44
50.0
176
     1
173
     0
176
     1
  0
VISUALSTYLE
  5
3A
102
{ACAD_REACTORS
330
2A
102
}
330
2A
100
AcDbVisualStyle
  2
ColorChange
 70
    16
177
     2
291
     1
 71
     2
176
     1
 72
     2
176
     1
 73
     3
176
     1
 90
        0
176
     1
 40
-0.6
176
     1
 41
-30.0
176
     1
 62
     5
 63
     8
421
  8421504
176
     1
 74
     1
176
     1
 91
        4
176
     1
 64
     7
176
     1
 65
   257
176
     1
 75
     1
176
     1
175
     1
176
     1
 42
1.0
176
     1
 92
        8
176
     1
 66
     8
424
  8421504
176
     1
 43
1.0
176
     1
 76
     1
176
     1
 77
     6
176
     1
 78
     2
176
     1
 67
     7
176
     1
 79
     5
176
     1
170
     0
176
     1
171
     0
176
     1
290
     0
176
     1
 93
        1
176
     1
 44
0.0
176
     1
173
     0
176
     1
  0
VISUALSTYLE
  5
34
102
{ACAD_REACTORS
330
2A
102
}
330
2A
100
AcDbVisualStyle
  2
Conceptual
 70
     9
177
     2
291
     0
 71
     3
176
     1
 72
     2
176
     1
 73
     0
176
     1
 90
        0
176
     1
 40
-0.6
176
     1
 41
-30.0
176
     1
 62
     5
 63
     7
421
 16777215
176
     1
 74
     2
176
     1
 91
        2
176
     1
 64
     7
176
     1
 65
   257
176
     1
 75
     1
176
     1
175
     1
176
     1
 42
40.0
176
     1
 92
        8
176
     1
 66
     7
176
     1
 43
1.0
176
     1
 76
     1
176
     1
 77
     6
176
     1
 78
     2
176
     1
 67
     7
176
     1
 79
     3
176
     1
170
     0
176
     1
171
     0
176
     1
290
     0
176
     1
 93
        1
176
     1
 44
0.0
176
     1
173
     0
176
     1
  0
VISUALSTYLE
  5
35
102
{ACAD_REACTORS
330
2A
102
}
330
2A
100
AcDbVisualStyle
  2
Dim
 70
    11
177
     2
291
     1
 71
     2
176
     1
 72
     2
176
     1
 73
     0
176
     1
 90
        0
176
     1
 40
-0.6
176
     1
 41
-30.0
176
     1
 62
     5
 63
     7
421
 16777215
176
     1
 74
     1
176
     1
 91
        4
176
     1
 64
     7
176
     1
 65
   257
176
     1
 75
     1
176
     1
175
     1
176
     1
 42
1.0
176
     1
 92
        8
176
     1
 66
     7
176
     1
 43
1.0
176
     1
 76
     1
176
     1
 77
     6
176
     1
 78
     2
176
     1
 67
     7
176
     1
 79
     5
176
     1
170
     0
176
     1
171
     0
176
     1
290
     0
176
     1
 93
        1
176
     1
 44
-50.0
176
     1
173
     0
176
     1
  0
VISUALSTYLE
  5
39
102
{ACAD_REACTORS
330
2A
102
}
330
2A
100
AcDbVisualStyle
  2
Facepattern
 70
    15
177
     2
291
     1
 71
     2
176
     1
 72
     2
176
     1
 73
     0
176
     1
 90
        0
176
     1
 40
-0.6
176
     1
 41
-30.0
176
     1
 62
     5
 63
     7
421
 16777215
176
     1
 74
     1
176
     1
 91
        4
176
     1
 64
     7
176
     1
 65
   257
176
     1
 75
     1
176
     1
175
     1
176
     1
 42
1.0
176
     1
 92
        8
176
     1
 66
     7
176
     1
 43
1.0
176
     1
 76
     1
176
     1
 77
     6
176
     1
 78
     2
176
     1
 67
     7
176
     1
 79
     5
176
     1
170
     0
176
     1
171
     0
176
     1
290
     0
176
     1
 93
        1
176
     1
 44
0.0
176
     1
173
     0
176
     1
  0
VISUALSTYLE
  5
2B
102
{ACAD_REACTORS
330
2A
102
}
330
2A
100
AcDbVisualStyle
  2
Flat
 70
     0
177
     2
291
     1
 71
     2
176
     1
 72
     1
176
     1
 73
     1
176
     1
 90
        2
176
     1
 40
-0.6
176
     1
 41
30.0
176
     1
 62
     5
 63
     7
421
 16777215
176
     1
 74
     0
176
     1
 91
        4
176
     1
 64
     7
176
     1
 65
   257
176
     1
 75
     1
176
     1
175
     1
176
     1
 42
1.0
176
     1
 92
        8
176
     1
 66
     7
176
     1
 43
1.0
176
     1
 76
     1
176
     1
 77
     6
176
     1
 78
     2
176
     1
 67
     7
176
     1
 79
     5
176
     1
170
     0
176
     1
171
     0
176
     1
290
     0
176
     1
 93
       13
176
     1
 44
0.0
176
     1
173
     0
176
     1
  0
VISUALSTYLE
  5
2C
102
{ACAD_REACTORS
330
2A
102
}
330
2A
100
AcDbVisualStyle
  2
FlatWithEdges
 70
     1
177
     2
291
     1
 71
     2
176
     1
 72
     1
176
     1
 73
     1
176
     1
 90
        2
176
     1
 40
-0.6
176
     1
 41
30.0
176
     1
 62
     5
 63
     7
421
 16777215
176
     1
 74
     1
176
     1
 91
        4
176
     1
 64
     7
176
     1
 65
   257
176
     1
 75
     1
176
     1
175
     1
176
     1
 42
1.0
176
     1
 92
        0
176
     1
 66
   257
176
     1
 43
1.0
176
     1
 76
     1
176
     1
 77
     6
176
     1
 78
     2
176
     1
 67
     7
176
     1
 79
     5
176
     1
170
     0
176
     1
171
     0
176
     1
290
     0
176
     1
 93
       13
176
     1
 44
0.0
176
     1
173
     0
176
     1
  0
VISUALSTYLE
  5
2D
102
{ACAD_REACTORS
330
2A
102
}
330
2A
100
AcDbVisualStyle
  2
Gouraud
 70
     2
177
     2
291
     1
 71
     2
176
     1
 72
     2
176
     1
 73
     1
176
     1
 90
        2
176
     1
 40
-0.6
176
     1
 41
30.0
176
     1
 62
     5
 63
     7
421
 16777215
176
     1
 74
     0
176
     1
 91
        4
176
     1
 64
     7
176
     1
 65
   257
176
     1
 75
     1
176
     1
175
     1
176
     1
 42
1.0
176
     1
 92
        0
176
     1
 66
     7
176
     1
 43
1.0
176
     1
 76
     1
176
     1
 77
     6
176
     1
 78
     2
176
     1
 67
     7
176
     1
 79
     5
176
     1
170
     0
176
     1
171
     0
176
     1
290
     0
176
     1
 93
       13
176
     1
 44
0.0
176
     1
173
     0
176
     1
  0
VISUALSTYLE
  5
2E
102
{ACAD_REACTORS
330
2A
102
}
330
2A
100
AcDbVisualStyle
  2
GouraudWithEdges
 70
     3
177
     2
291
     1
 71
     2
176
     1
 72
     2
176
     1
 73
     1
176
     1
 90
        2
176
     1
 40
-0.6
176
     1
 41
30.0
176
     1
 62
     5
 63
     7
421
 16777215
176
     1
 74
     1
176
     1
 91
        4
176
     1
 64
     7
176
     1
 65
   257
176
     1
 75
     1
176
     1
175
     1
176
     1
 42
1.0
176
     1
 92
        0
176
     1
 66
   257
176
     1
 43
1.0
176
     1
 76
     1
176
     1
 77
     6
176
     1
 78
     2
176
     1
 67
     7
176
     1
 79
     5
176
     1
170
     0
176
     1
171
     0
176
     1
290
     0
176
     1
 93
       13
176
     1
 44
0.0
176
     1
173
     0
176
     1
  0
VISUALSTYLE
  5
38
102
{ACAD_REACTORS
330
2A
102
}
330
2A
100
AcDbVisualStyle
  2
Linepattern
 70
    14
177
     2
291
     1
 71
     2
176
     1
 72
     2
176
     1
 73
     0
176
     1
 90
        0
176
     1
 40
-0.6
176
     1
 41
-30.0
176
     1
 62
     5
 63
     7
421
 16777215
176
     1
 74
     1
176
     1
 91
        4
176
     1
 64
     7
176
     1
 65
   257
176
     1
 75
     7
176
     1
175
     7
176
     1
 42
1.0
176
     1
 92
        8
176
     1
 66
     7
176
     1
 43
1.0
176
     1
 76
     1
176
     1
 77
     6
176
     1
 78
     2
176
     1
 67
     7
176
     1
 79
     5
176
     1
170
     0
176
     1
171
     0
176
     1
290
     0
176
     1
 93
        1
176
     1
 44
0.0
176
     1
173
     0
176
     1
  0
VISUALSTYLE
  5
33
102
{ACAD_REACTORS
330
2A
102
}
330
2A
100
AcDbVisualStyle
  2
Realistic
 70
     8
177
     2
291
     0
 71
     2
176
     1
 72
     2
176
     1
 73
     0
176
     1
 90
        0
176
     1
 40
-0.6
176
     1
 41
-30.0
176
     1
 62
     5
 63
     7
421
 16777215
176
     1
 74
     1
176
     1
 91
        0
176
     1
 64
     7
176
     1
 65
   257
176
     1
 75
     1
176
     1
175
     1
176
     1
 42
1.0
176
     1
 92
        8
176
     1
 66
     8
424
  7895160
176
     1
 43
1.0
176
     1
 76
     1
176
     1
 77
     6
176
     1
 78
     2
176
     1
 67
     7
176
     1
 79
     5
176
     1
170
     0
176
     1
171
     0
176
     1
290
     0
176
     1
 93
       13
176
     1
 44
0.0
176
     1
173
     0
176
     1
  0
VISUALSTYLE
  5
37
102
{ACAD_REACTORS
330
2A
102
}
330
2A
100
AcDbVisualStyle
  2
Thicken
 70
    13
177
     2
291
     1
 71
     2
176
     1
 72
     2
176
     1
 73
     0
176
     1
 90
        0
176
     1
 40
-0.6
176
     1
 41
-30.0
176
     1
 62
     5
 63
     7
421
 16777215
176
     1
 74
     1
176
     1
 91
        4
176
     1
 64
     7
176
     1
 65
   257
176
     1
 75
     1
176
     1
175
     1
176
     1
 42
1.0
176
     1
 92
       12
176
     1
 66
     7
176
     1
 43
1.0
176
     1
 76
     1
176
     1
 77
     6
176
     1
 78
     2
176
     1
 67
     7
176
     1
 79
     5
176
     1
170
     0
176
     1
171
     0
176
     1
290
     0
176
     1
 93
        1
176
     1
 44
0.0
176
     1
173
     0
176
     1
  0
ENDSEC
  0
EOF
