  0
SECTION
  2
HEADER
  9
$ACADVER
  1
AC1024
  9
$ACADMAINTVER
 70
     6
  9
$DWGCODEPAGE
  3
ANSI_1252
  9
$INSBASE
 10
0.0
 20
0.0
 30
0.0
  9
$EXTMIN
 10
0.0
 20
0.0
 30
0.0
  9
$EXTMAX
 10
841.0
 20
594.0
 30
0.0
  9
$LIMMIN
 10
0.0
 20
0.0
  9
$LIMMAX
 10
841.0
 20
594.0
  9
$ORTHOMODE
 70
     0
  9
$REGENMODE
 70
     1
  9
$FILLMODE
 70
     1
  9
$QTEXTMODE
 70
     0
  9
$MIRRTEXT
 70
     1
  9
$LTSCALE
 40
1.0
  9
$ATTMODE
 70
     1
  9
$TEXTSIZE
 40
10.0
  9
$TRACEWID
 40
1.0
  9
$TEXTSTYLE
  7
Standard
  9
$CLAYER
  8
0
  9
$CELTYPE
  6
ByLayer
  9
$CECOLOR
 62
   256
  9
$CELTSCALE
 40
1.0
  9
$DISPSILH
 70
     0
  9
$DIMSCALE
 40
1.0
  9
$DIMASZ
 40
2.5
  9
$DIMEXO
 40
0.0
  9
$DIMDLI
 40
3.75
  9
$DIMRND
 40
0.0
  9
$DIMDLE
 40
0.0
  9
$DIMEXE
 40
1.0
  9
$DIMTP
 40
0.0
  9
$DIMTM
 40
0.0
  9
$DIMTXT
 40
3.5
  9
$DIMCEN
 40
2.5
  9
$DIMTSZ
 40
0.0
  9
$DIMTOL
 70
     0
  9
$DIMLIM
 70
     0
  9
$DIMTIH
 70
     1
  9
$DIMTOH
 70
     1
  9
$DIMSE1
 70
     0
  9
$DIMSE2
 70
     0
  9
$DIMTAD
 70
     1
  9
$DIMZIN
 70
     0
  9
$DIMBLK
  1

  9
$DIMASO
 70
     1
  9
$DIMSHO
 70
     1
  9
$DIMPOST
  1

  9
$DIMAPOST
  1

  9
$DIMALT
 70
     0
  9
$DIMALTD
 70
     3
  9
$DIMALTF
 40
0.0393700787
  9
$DIMLFAC
 40
1.0
  9
$DIMTOFL
 70
     1
  9
$DIMTVP
 40
0.0
  9
$DIMTIX
 70
     0
  9
$DIMSOXD
 70
     0
  9
$DIMSAH
 70
     0
  9
$DIMBLK1
  1

  9
$DIMBLK2
  1

  9
$DIMSTYLE
  2
ISO-25
  9
$DIMCLRD
 70
     0
  9
$DIMCLRE
 70
     0
  9
$DIMCLRT
 70
     0
  9
$DIMTFAC
 40
1.0
  9
$DIMGAP
 40
1.5
  9
$DIMJUST
 70
     0
  9
$DIMSD1
 70
     0
  9
$DIMSD2
 70
     0
  9
$DIMTOLJ
 70
     0
  9
$DIMTZIN
 70
     0
  9
$DIMALTZ
 70
     0
  9
$DIMALTTZ
 70
     0
  9
$DIMUPT
 70
     0
  9
$DIMDEC
 70
     2
  9
$DIMTDEC
 70
     2
  9
$DIMALTU
 70
     2
  9
$DIMALTTD
 70
     3
  9
$DIMTXSTY
  7
Standard
  9
$DIMAUNIT
 70
     0
  9
$DIMADEC
 70
     2
  9
$DIMALTRND
 40
0.0
  9
$DIMAZIN
 70
     0
  9
$DIMDSEP
 70
    44
  9
$DIMATFIT
 70
     3
  9
$DIMFRAC
 70
     0
  9
$DIMLDRBLK
  1

  9
$DIMLUNIT
 70
     2
  9
$DIMLWD
 70
    -2
  9
$DIMLWE
 70
    -2
  9
$DIMTMOVE
 70
     0
  9
$DIMFXL
 40
1.0
  9
$DIMFXLON
 70
     0
  9
$DIMJOGANG
 40
0.7853981634
  9
$DIMTFILL
 70
     0
  9
$DIMTFILLCLR
 70
     0
  9
$DIMARCSYM
 70
     0
  9
$DIMLTYPE
  6

  9
$DIMLTEX1
  6

  9
$DIMLTEX2
  6

  9
$DIMTXTDIRECTION
 70
     0
  9
$LUNITS
 70
     2
  9
$LUPREC
 70
     2
  9
$SKETCHINC
 40
1.0
  9
$FILLETRAD
 40
10.0
  9
$AUNITS
 70
     0
  9
$AUPREC
 70
     2
  9
$MENU
  1
.
  9
$ELEVATION
 40
0.0
  9
$PELEVATION
 40
0.0
  9
$THICKNESS
 40
0.0
  9
$LIMCHECK
 70
     0
  9
$CHAMFERA
 40
0.0
  9
$CHAMFERB
 40
0.0
  9
$CHAMFERC
 40
0.0
  9
$CHAMFERD
 40
0.0
  9
$SKPOLY
 70
     0
  9
$TDCREATE
 40
2458754.526248009
  9
$TDUCREATE
 40
2458754.442914676
  9
$TDUPDATE
 40
2458754.526249086
  9
$TDUUPDATE
 40
2458754.442915753
  9
$TDINDWG
 40
0.0000000116
  9
$TDUSRTIMER
 40
0.0000000116
  9
$USRTIMER
 70
     1
  9
$ANGBASE
 50
0.0
  9
$ANGDIR
 70
     0
  9
$PDMODE
 70
     0
  9
$PDSIZE
 40
-1.0
  9
$PLINEWID
 40
0.0
  9
$SPLFRAME
 70
     0
  9
$SPLINETYPE
 70
     6
  9
$SPLINESEGS
 70
     8
  9
$HANDSEED
  5
225
  9
$SURFTAB1
 70
     6
  9
$SURFTAB2
 70
     6
  9
$SURFTYPE
 70
     6
  9
$SURFU
 70
     6
  9
$SURFV
 70
     6
  9
$UCSBASE
  2

  9
$UCSNAME
  2

  9
$UCSORG
 10
0.0
 20
0.0
 30
0.0
  9
$UCSXDIR
 10
1.0
 20
0.0
 30
0.0
  9
$UCSYDIR
 10
0.0
 20
1.0
 30
0.0
  9
$UCSORTHOREF
  2

  9
$UCSORTHOVIEW
 70
     0
  9
$UCSORGTOP
 10
0.0
 20
0.0
 30
0.0
  9
$UCSORGBOTTOM
 10
0.0
 20
0.0
 30
0.0
  9
$UCSORGLEFT
 10
0.0
 20
0.0
 30
0.0
  9
$UCSORGRIGHT
 10
0.0
 20
0.0
 30
0.0
  9
$UCSORGFRONT
 10
0.0
 20
0.0
 30
0.0
  9
$UCSORGBACK
 10
0.0
 20
0.0
 30
0.0
  9
$PUCSBASE
  2

  9
$PUCSNAME
  2

  9
$PUCSORG
 10
0.0
 20
0.0
 30
0.0
  9
$PUCSXDIR
 10
1.0
 20
0.0
 30
0.0
  9
$PUCSYDIR
 10
0.0
 20
1.0
 30
0.0
  9
$PUCSORTHOREF
  2

  9
$PUCSORTHOVIEW
 70
     0
  9
$PUCSORGTOP
 10
0.0
 20
0.0
 30
0.0
  9
$PUCSORGBOTTOM
 10
0.0
 20
0.0
 30
0.0
  9
$PUCSORGLEFT
 10
0.0
 20
0.0
 30
0.0
  9
$PUCSORGRIGHT
 10
0.0
 20
0.0
 30
0.0
  9
$PUCSORGFRONT
 10
0.0
 20
0.0
 30
0.0
  9
$PUCSORGBACK
 10
0.0
 20
0.0
 30
0.0
  9
$USERI1
 70
     0
  9
$USERI2
 70
     0
  9
$USERI3
 70
     0
  9
$USERI4
 70
     0
  9
$USERI5
 70
     0
  9
$USERR1
 40
0.0
  9
$USERR2
 40
0.0
  9
$USERR3
 40
0.0
  9
$USERR4
 40
0.0
  9
$USERR5
 40
0.0
  9
$WORLDVIEW
 70
     1
  9
$SHADEDGE
 70
     3
  9
$SHADEDIF
 70
    70
  9
$TILEMODE
 70
     1
  9
$MAXACTVP
 70
    64
  9
$PINSBASE
 10
0.0
 20
0.0
 30
0.0
  9
$PLIMCHECK
 70
     0
  9
$PEXTMIN
 10
1.0000000000E+20
 20
1.0000000000E+20
 30
1.0000000000E+20
  9
$PEXTMAX
 10
-1.0000000000E+20
 20
-1.0000000000E+20
 30
-1.0000000000E+20
  9
$PLIMMIN
 10
0.0
 20
0.0
  9
$PLIMMAX
 10
420.0
 20
297.0
  9
$UNITMODE
 70
     0
  9
$VISRETAIN
 70
     1
  9
$PLINEGEN
 70
     0
  9
$PSLTSCALE
 70
     1
  9
$TREEDEPTH
 70
  3020
  9
$CMLSTYLE
  2
Standard
  9
$CMLJUST
 70
     0
  9
$CMLSCALE
 40
20.0
  9
$PROXYGRAPHICS
 70
     1
  9
$MEASUREMENT
 70
     1
  9
$CELWEIGHT
370
    -1
  9
$ENDCAPS
280
     0
  9
$JOINSTYLE
280
     0
  9
$LWDISPLAY
290
     1
  9
$INSUNITS
 70
     4
  9
$HYPERLINKBASE
  1

  9
$STYLESHEET
  1

  9
$XEDIT
290
     1
  9
$CEPSNTYPE
380
     0
  9
$PSTYLEMODE
290
     1
  9
$FINGERPRINTGUID
  2
{93E9DC06-EE70-4A3A-B588-0157EBD2B676}
  9
$VERSIONGUID
  2
{FAEB1C32-E019-11D5-929B-00C0DF256EC4}
  9
$EXTNAMES
290
     1
  9
$PSVPSCALE
 40
0.0
  9
$OLESTARTUP
290
     0
  9
$SORTENTS
280
   127
  9
$INDEXCTL
280
     0
  9
$HIDETEXT
280
     1
  9
$XCLIPFRAME
280
     2
  9
$HALOGAP
280
     0
  9
$OBSCOLOR
 70
   257
  9
$OBSLTYPE
280
     0
  9
$INTERSECTIONDISPLAY
280
     0
  9
$INTERSECTIONCOLOR
 70
   257
  9
$DIMASSOC
280
     2
  9
$PROJECTNAME
  1

  9
$CAMERADISPLAY
290
     0
  9
$LENSLENGTH
 40
50.0
  9
$CAMERAHEIGHT
 40
0.0
  9
$STEPSPERSEC
 40
2.0
  9
$STEPSIZE
 40
6.0
  9
$3DDWFPREC
 40
2.0
  9
$PSOLWIDTH
 40
5.0
  9
$PSOLHEIGHT
 40
80.0
  9
$LOFTANG1
 40
1.5707963268
  9
$LOFTANG2
 40
1.5707963268
  9
$LOFTMAG1
 40
0.0
  9
$LOFTMAG2
 40
0.0
  9
$LOFTPARAM
 70
     7
  9
$LOFTNORMALS
280
     1
  9
$LATITUDE
 40
37.795
  9
$LONGITUDE
 40
-122.394
  9
$NORTHDIRECTION
 40
0.0
  9
$TIMEZONE
 70
 -8000
  9
$LIGHTGLYPHDISPLAY
280
     1
  9
$TILEMODELIGHTSYNCH
280
     1
  9
$CMATERIAL
347
44
  9
$SOLIDHIST
280
     0
  9
$SHOWHIST
280
     1
  9
$DWFFRAME
280
     2
  9
$DGNFRAME
280
     2
  9
$REALWORLDSCALE
290
     1
  9
$INTERFERECOLOR
 62
   256
  9
$CSHADOW
280
     0
  9
$SHADOWPLANELOCATION
 40
0.0
  0
ENDSEC
  0
SECTION
  2
CLASSES
  0
CLASS
  1
ACDBDICTIONARYWDFLT
  2
AcDbDictionaryWithDefault
  3
ObjectDBX Classes
 90
        0
 91
        4
280
     0
281
     0
  0
CLASS
  1
VISUALSTYLE
  2
AcDbVisualStyle
  3
ObjectDBX Classes
 90
     4095
 91
        4
280
     0
281
     0
  0
CLASS
  1
MATERIAL
  2
AcDbMaterial
  3
ObjectDBX Classes
 90
     1153
 91
        4
280
     0
281
     0
  0
CLASS
  1
SCALE
  2
AcDbScale
  3
ObjectDBX Classes
 90
     1153
 91
        4
280
     0
281
     0
  0
CLASS
  1
TABLESTYLE
  2
AcDbTableStyle
  3
ObjectDBX Classes
 90
     4095
 91
        4
280
     0
281
     0
  0
CLASS
  1
MLEADERSTYLE
  2
AcDbMLeaderStyle
  3
ACDB_MLEADERSTYLE_CLASS
 90
     4095
 91
        4
280
     0
281
     0
  0
CLASS
  1
SUN
  2
AcDbSun
  3
SCENEOE
 90
     1153
 91
        4
280
     0
281
     0
  0
CLASS
  1
DICTIONARYVAR
  2
AcDbDictionaryVar
  3
ObjectDBX Classes
 90
        0
 91
        4
280
     0
281
     0
  0
CLASS
  1
CELLSTYLEMAP
  2
AcDbCellStyleMap
  3
ObjectDBX Classes
 90
     1152
 91
        4
280
     0
281
     0
  0
ENDSEC
  0
SECTION
  2
TABLES
  0
TABLE
  2
VPORT
  5
8
330
0
100
AcDbSymbolTable
 70
     1
  0
VPORT
  5
29
330
8
100
AcDbSymbolTableRecord
100
AcDbViewportTableRecord
  2
*Active
 70
     0
 10
0.0
 20
0.0
 11
1.0
 21
1.0
 12
420.5
 22
297.0
 13
0.0
 23
0.0
 14
10.0
 24
10.0
 15
10.0
 25
10.0
 16
0.0
 26
0.0
 36
1.0
 17
0.0
 27
0.0
 37
0.0
 40
594.0
 41
1.4158249158
 42
50.0
 43
0.0
 44
0.0
 50
0.0
 51
0.0
 71
     0
 72
  2000
 73
     1
 74
     3
 75
     0
 76
     0
 77
     0
 78
     0
281
     0
 65
     1
110
0.0
120
0.0
130
0.0
111
1.0
121
0.0
131
0.0
112
0.0
122
1.0
132
0.0
 79
     0
146
0.0
348
2F
 60
     3
 61
     5
292
     1
282
     1
141
0.0
142
0.0
 63
   250
361
6D
  0
ENDTAB
  0
TABLE
  2
LTYPE
  5
5
330
0
100
AcDbSymbolTable
 70
     6
  0
LTYPE
  5
14
330
5
100
AcDbSymbolTableRecord
100
AcDbLinetypeTableRecord
  2
ByBlock
 70
     0
  3

 72
    65
 73
     0
 40
0.0
  0
LTYPE
  5
15
330
5
100
AcDbSymbolTableRecord
100
AcDbLinetypeTableRecord
  2
ByLayer
 70
     0
  3

 72
    65
 73
     0
 40
0.0
  0
LTYPE
  5
16
330
5
100
AcDbSymbolTableRecord
100
AcDbLinetypeTableRecord
  2
Continuous
 70
     0
  3
Solid line
 72
    65
 73
     0
 40
0.0
  0
LTYPE
  5
6E
330
5
100
AcDbSymbolTableRecord
100
AcDbLinetypeTableRecord
  2
HIDDEN
 70
     0
  3
Hidden __ __ __ __ __ __ __ __ __ __ __ __ __ __
 72
    65
 73
     2
 40
1.905
 49
1.27
 74
     0
 49
-0.635
 74
     0
  0
LTYPE
  5
6F
330
5
100
AcDbSymbolTableRecord
100
AcDbLinetypeTableRecord
  2
PHANTOM
 70
     0
  3
Phantom ______  __  __  ______  __  __  ______
 72
    65
 73
     6
 40
12.7
 49
6.35
 74
     0
 49
-1.27
 74
     0
 49
1.27
 74
     0
 49
-1.27
 74
     0
 49
1.27
 74
     0
 49
-1.27
 74
     0
  0
LTYPE
  5
70
330
5
100
AcDbSymbolTableRecord
100
AcDbLinetypeTableRecord
  2
CENTER
 70
     0
  3
Center ____ _ ____ _ ____ _ ____ _ ____ _ ____
 72
    65
 73
     4
 40
10.16
 49
6.35
 74
     0
 49
-1.27
 74
     0
 49
1.27
 74
     0
 49
-1.27
 74
     0
  0
LTYPE
  5
71
330
5
100
AcDbSymbolTableRecord
100
AcDbLinetypeTableRecord
  2
CENTERX2
 70
     0
  3
Center (2x) ________  __  ________  __  _____
 72
    65
 73
     4
 40
20.32
 49
12.7
 74
     0
 49
-2.54
 74
     0
 49
2.54
 74
     0
 49
-2.54
 74
     0
  0
LTYPE
  5
72
330
5
100
AcDbSymbolTableRecord
100
AcDbLinetypeTableRecord
  2
DOT2
 70
     0
  3
Dot (.5x) ........................................
 72
    65
 73
     2
 40
0.635
 49
0.0
 74
     0
 49
-0.635
 74
     0
  0
ENDTAB
  0
TABLE
  2
LAYER
  5
2
330
0
100
AcDbSymbolTable
 70
     1
  0
LAYER
  5
10
330
2
100
AcDbSymbolTableRecord
100
AcDbLayerTableRecord
  2
0
 70
     0
 62
     7
  6
Continuous
370
    -3
390
F
347
46
  0
ENDTAB
  0
TABLE
  2
STYLE
  5
3
330
0
100
AcDbSymbolTable
 70
     3
  0
STYLE
  5
11
330
3
100
AcDbSymbolTableRecord
100
AcDbTextStyleTableRecord
  2
Standard
 70
     0
 40
0.0
 41
1.0
 50
0.0
 71
     0
 42
10.0
  3
txt
  4

  0
STYLE
  5
76
330
3
100
AcDbSymbolTableRecord
100
AcDbTextStyleTableRecord
  2
SLDTEXTSTYLE0
 70
     0
 40
0.0
 41
0.96
 50
0.0
 71
     0
 42
10.0
  3
ISOCP3
  4

  0
STYLE
  5
8D
330
3
100
AcDbSymbolTableRecord
100
AcDbTextStyleTableRecord
  2
SLDTEXTSTYLE1
 70
     0
 40
0.0
 41
0.605
 50
0.0
 71
     0
 42
10.0
  3
TXT
  4

  0
ENDTAB
  0
TABLE
  2
VIEW
  5
6
330
0
100
AcDbSymbolTable
 70
     0
  0
ENDTAB
  0
TABLE
  2
UCS
  5
7
330
0
100
AcDbSymbolTable
 70
     0
  0
ENDTAB
  0
TABLE
  2
APPID
  5
9
330
0
100
AcDbSymbolTable
 70
     1
  0
APPID
  5
12
330
9
100
AcDbSymbolTableRecord
100
AcDbRegAppTableRecord
  2
ACAD
 70
     0
  0
ENDTAB
  0
TABLE
  2
DIMSTYLE
  5
A
330
0
100
AcDbSymbolTable
 70
     2
100
AcDbDimStyleTable
  0
DIMSTYLE
105
27
330
A
100
AcDbSymbolTableRecord
100
AcDbDimStyleTableRecord
  2
ISO-25
 70
     0
 41
2.5
 42
0.625
 43
3.75
 44
1.25
 73
     0
 74
     0
 77
     1
 78
     8
140
2.5
141
2.5
143
0.0393700787
147
0.625
171
     3
172
     1
178
     0
271
     2
272
     2
274
     3
278
    44
283
     0
284
     8
340
11
  0
DIMSTYLE
105
77
102
{ACAD_REACTORS
330
75
330
82
102
}
330
A
100
AcDbSymbolTableRecord
100
AcDbDimStyleTableRecord
  2
SLDDIMSTYLE0
 70
     0
 41
2.5
 44
0.0
 45
0.000000001
 73
     0
 74
     0
 77
     1
 78
    12
 79
     3
140
6.0
147
1.5
173
     1
178
     0
271
     2
272
     2
276
     2
284
    12
340
76
  0
ENDTAB
  0
TABLE
  2
BLOCK_RECORD
  5
1
330
0
100
AcDbSymbolTable
 70
     3
  0
BLOCK_RECORD
  5
1F
330
1
100
AcDbSymbolTableRecord
100
AcDbBlockTableRecord
  2
*Model_Space
340
22
 70
     0
280
     1
281
     0
  0
BLOCK_RECORD
  5
1B
330
1
100
AcDbSymbolTableRecord
100
AcDbBlockTableRecord
  2
*Paper_Space
340
1E
 70
     0
280
     1
281
     0
  0
BLOCK_RECORD
  5
23
330
1
100
AcDbSymbolTableRecord
100
AcDbBlockTableRecord
  2
*Paper_Space0
340
26
 70
     0
280
     1
281
     0
  0
BLOCK_RECORD
  5
78
330
1
100
AcDbSymbolTableRecord
100
AcDbBlockTableRecord
  2
_D
340
0
 70
     0
280
     1
281
     0
  0
BLOCK_RECORD
  5
83
330
1
100
AcDbSymbolTableRecord
100
AcDbBlockTableRecord
  2
_D_1
340
0
 70
     0
280
     1
281
     0
  0
ENDTAB
  0
ENDSEC
  0
SECTION
  2
BLOCKS
  0
BLOCK
  5
20
330
1F
100
AcDbEntity
  8
0
100
AcDbBlockBegin
  2
*Model_Space
 70
     0
 10
0.0
 20
0.0
 30
0.0
  3
*Model_Space
  1

  0
ENDBLK
  5
21
330
1F
100
AcDbEntity
  8
0
100
AcDbBlockEnd
  0
BLOCK
  5
1C
330
1B
100
AcDbEntity
 67
     1
  8
0
100
AcDbBlockBegin
  2
*Paper_Space
 70
     0
 10
0.0
 20
0.0
 30
0.0
  3
*Paper_Space
  1

  0
ENDBLK
  5
1D
330
1B
100
AcDbEntity
 67
     1
  8
0
100
AcDbBlockEnd
  0
BLOCK
  5
24
330
23
100
AcDbEntity
  8
0
100
AcDbBlockBegin
  2
*Paper_Space0
 70
     0
 10
0.0
 20
0.0
 30
0.0
  3
*Paper_Space0
  1

  0
ENDBLK
  5
25
330
23
100
AcDbEntity
  8
0
100
AcDbBlockEnd
  0
BLOCK
  5
79
330
78
100
AcDbEntity
  8
0
100
AcDbBlockBegin
  2
_D
 70
     0
 10
0.0
 20
0.0
 30
0.0
  3
_D
  1

  0
SOLID
  5
7B
330
78
100
AcDbEntity
  8
0
  6
Continuous
 62
     7
370
    18
100
AcDbTrace
 10
42.7614395004
 20
152.0299240879
 30
0.0
 11
42.4614395004
 21
149.5299240879
 31
0.0
 12
43.0614395004
 22
149.5299240879
 32
0.0
 13
43.0614395004
 23
149.5299240879
 33
0.0
  0
SOLID
  5
7C
330
78
100
AcDbEntity
  8
0
  6
Continuous
 62
     7
370
    18
100
AcDbTrace
 10
42.7614395004
 20
52.0299240879
 30
0.0
 11
43.0614395004
 21
54.5299240879
 31
0.0
 12
42.4614395004
 22
54.5299240879
 32
0.0
 13
42.4614395004
 23
54.5299240879
 33
0.0
  0
LINE
  5
7D
330
78
100
AcDbEntity
  8
0
  6
Continuous
 62
     7
370
    18
100
AcDbLine
 10
56.6850079902
 20
152.0299240879
 30
0.0
 11
41.7614395004
 21
152.0299240879
 31
0.0
  0
LINE
  5
7E
330
78
100
AcDbEntity
  8
0
  6
Continuous
 62
     7
370
    18
100
AcDbLine
 10
56.6850079902
 20
52.0299240879
 30
0.0
 11
41.7614395004
 21
52.0299240879
 31
0.0
  0
LINE
  5
7F
330
78
100
AcDbEntity
  8
0
  6
Continuous
 62
     7
370
    18
100
AcDbLine
 10
42.7614395004
 20
152.0299240879
 30
0.0
 11
42.7614395004
 21
52.0299240879
 31
0.0
  0
MTEXT
  5
80
330
78
100
AcDbEntity
  8
0
  6
Continuous
 62
     7
370
    18
100
AcDbMText
 10
35.0270332946
 20
94.3680541463
 30
0.0
 40
6.0
 41
0.0
 46
0.0
 71
     1
 72
     1
  1
100
  7
SLDTEXTSTYLE0
 11
-7.044195017643634E-15
 21
1.0
 31
0.0
 73
     1
 44
1.0
  0
MTEXT
  5
81
330
78
100
AcDbEntity
  8
0
  6
Continuous
 62
     7
370
    18
100
AcDbMText
 10
35.0270332946
 20
105.7430548466
 30
0.0
 40
6.0
 41
0.0
 46
0.0
 71
     1
 72
     1
  1
mm
  7
SLDTEXTSTYLE0
 11
-7.044195017643634E-15
 21
1.0
 31
0.0
 73
     1
 44
1.0
  0
ENDBLK
  5
7A
330
78
100
AcDbEntity
  8
0
100
AcDbBlockEnd
  0
BLOCK
  5
84
330
83
100
AcDbEntity
  8
0
100
AcDbBlockBegin
  2
_D_1
 70
     0
 10
0.0
 20
0.0
 30
0.0
  3
_D_1
  1

  0
SOLID
  5
86
330
83
100
AcDbEntity
  8
0
  6
Continuous
 62
     7
370
    18
100
AcDbTrace
 10
56.6850079902
 20
38.4602342313
 30
0.0
 11
59.1850079902
 21
38.1602342313
 31
0.0
 12
59.1850079902
 22
38.7602342313
 32
0.0
 13
59.1850079902
 23
38.7602342313
 33
0.0
  0
SOLID
  5
87
330
83
100
AcDbEntity
  8
0
  6
Continuous
 62
     7
370
    18
100
AcDbTrace
 10
156.6850079902
 20
38.4602342313
 30
0.0
 11
154.1850079902
 21
38.7602342313
 31
0.0
 12
154.1850079902
 22
38.1602342313
 32
0.0
 13
154.1850079902
 23
38.1602342313
 33
0.0
  0
LINE
  5
88
330
83
100
AcDbEntity
  8
0
  6
Continuous
 62
     7
370
    18
100
AcDbLine
 10
56.6850079902
 20
52.0299240879
 30
0.0
 11
56.6850079902
 21
37.4602342313
 31
0.0
  0
LINE
  5
89
330
83
100
AcDbEntity
  8
0
  6
Continuous
 62
     7
370
    18
100
AcDbLine
 10
156.6850079902
 20
52.0299240879
 30
0.0
 11
156.6850079902
 21
37.4602342313
 31
0.0
  0
LINE
  5
8A
330
83
100
AcDbEntity
  8
0
  6
Continuous
 62
     7
370
    18
100
AcDbLine
 10
56.6850079902
 20
38.4602342313
 30
0.0
 11
156.6850079902
 21
38.4602342313
 31
0.0
  0
MTEXT
  5
8B
330
83
100
AcDbEntity
  8
0
  6
Continuous
 62
     7
370
    18
100
AcDbMText
 10
93.9626484861
 20
46.1946404371
 30
0.0
 40
6.0
 41
0.0
 46
0.0
 71
     1
 72
     1
  1
100
  7
SLDTEXTSTYLE0
 73
     1
 44
1.0
  0
MTEXT
  5
8C
330
83
100
AcDbEntity
  8
0
  6
Continuous
 62
     7
370
    18
100
AcDbMText
 10
105.3376491864
 20
46.1946404371
 30
0.0
 40
6.0
 41
0.0
 46
0.0
 71
     1
 72
     1
  1
mm
  7
SLDTEXTSTYLE0
 73
     1
 44
1.0
  0
ENDBLK
  5
85
330
83
100
AcDbEntity
  8
0
100
AcDbBlockEnd
  0
ENDSEC
  0
SECTION
  2
ENTITIES
  0
LINE
  5
73
330
1F
100
AcDbEntity
  8
0
  6
Continuous
 62
     7
370
    18
100
AcDbLine
 10
56.6850079902
 20
152.0299240879
 30
0.0
 11
56.6850079902
 21
52.0299240879
 31
0.0
  0
LINE
  5
74
330
1F
100
AcDbEntity
  8
0
  6
Continuous
 62
     7
370
    18
100
AcDbLine
 10
56.6850079902
 20
52.0299240879
 30
0.0
 11
156.6850079902
 21
52.0299240879
 31
0.0
  0
DIMENSION
  5
75
330
1F
100
AcDbEntity
  8
0
  6
Continuous
 62
     7
370
    18
100
AcDbDimension
280
     0
  2
_D
 10
42.7614395004
 20
52.0299240879
 30
0.0
 11
42.7614395004
 21
105.4472211621
 31
0.0
 70
   160
  1
<>mm
 71
     2
 42
-1.0
 73
     0
 74
     0
 75
     0
  3
SLDDIMSTYLE0
100
AcDbAlignedDimension
 13
56.6850079902
 23
152.0299240879
 33
0.0
 14
56.6850079902
 24
52.0299240879
 34
0.0
 50
90.0
100
AcDbRotatedDimension
  0
DIMENSION
  5
82
330
1F
100
AcDbEntity
  8
0
  6
Continuous
 62
     7
370
    18
100
AcDbDimension
280
     0
  2
_D_1
 10
156.6850079902
 20
38.4602342313
 30
0.0
 11
105.0418155019
 21
38.4602342313
 31
0.0
 70
   160
  1
<>mm
 71
     2
 42
-1.0
 73
     0
 74
     0
 75
     0
  3
SLDDIMSTYLE0
100
AcDbAlignedDimension
 13
56.6850079902
 23
52.0299240879
 33
0.0
 14
156.6850079902
 24
52.0299240879
 34
0.0
100
AcDbRotatedDimension
  0
MTEXT
  5
8E
330
1F
100
AcDbEntity
  8
0
  6
Continuous
 62
     7
370
     0
100
AcDbMText
 10
664.658399795
 20
48.4342449499
 30
0.0
 40
10.0
 41
0.0
 46
0.0
 71
     1
 72
     1
  1
KLUDI GmbH & Co KG
  7
SLDTEXTSTYLE1
 73
     1
 44
1.0
  0
MTEXT
  5
8F
330
1F
100
AcDbEntity
  8
0
  6
Continuous
 62
     7
370
     0
100
AcDbMText
 10
349.0758972247
 20
48.4342449499
 30
0.0
 40
10.0
 41
0.0
 46
0.0
 71
     1
 72
     1
  1
20 540 05 15
  7
SLDTEXTSTYLE1
 73
     1
 44
1.0
  0
LINE
  5
90
330
1F
100
AcDbEntity
  8
0
  6
Continuous
 62
     7
370
    25
100
AcDbLine
 10
264.2000001043
 20
399.5682496638
 30
0.0
 11
264.2000001043
 21
400.0606548102
 31
0.0
  0
LINE
  5
91
330
1F
100
AcDbEntity
  8
0
  6
Continuous
 62
     7
370
    25
100
AcDbLine
 10
240.1999998957
 20
400.0606548102
 30
0.0
 11
240.1999998957
 21
399.5682496638
 31
0.0
  0
LINE
  5
92
330
1F
100
AcDbEntity
  8
0
  6
Continuous
 62
     7
370
    25
100
AcDbLine
 10
241.2000000596
 20
395.3301973702
 30
0.0
 11
241.7255602896
 21
395.0456522466
 31
0.0
  0
LINE
  5
93
330
1F
100
AcDbEntity
  8
0
  6
Continuous
 62
     7
370
    25
100
AcDbLine
 10
262.6744397104
 20
395.0456522466
 30
0.0
 11
263.1999999404
 21
395.3301973702
 31
0.0
  0
LINE
  5
94
330
1F
100
AcDbEntity
  8
0
  6
Continuous
 62
     7
370
    25
100
AcDbLine
 10
263.9499995977
 20
391.4688706459
 30
0.0
 11
263.9499995977
 21
398.1393158497
 31
0.0
  0
LINE
  5
95
330
1F
100
AcDbEntity
  8
0
  6
Continuous
 62
     7
370
    25
100
AcDbLine
 10
240.4500004023
 20
398.1321428032
 30
0.0
 11
240.4500004023
 21
391.4688706459
 31
0.0
  0
LINE
  5
96
330
1F
100
AcDbEntity
  8
0
  6
Continuous
 62
     7
370
    25
100
AcDbLine
 10
262.6975001886
 20
386.468871689
 30
0.0
 11
262.6975001886
 21
388.668871677
 31
0.0
  0
LINE
  5
97
330
1F
100
AcDbEntity
  8
0
  6
Continuous
 62
     7
370
    25
100
AcDbLine
 10
241.7024998114
 20
388.668871677
 30
0.0
 11
241.7024998114
 21
386.468871689
 31
0.0
  0
LINE
  5
98
330
1F
100
AcDbEntity
  8
0
  6
Continuous
 62
     7
370
    25
100
AcDbLine
 10
262.6975001886
 20
388.668871677
 30
0.0
 11
261.897499685
 21
389.4688703181
 31
0.0
  0
LINE
  5
99
330
1F
100
AcDbEntity
  8
0
  6
Continuous
 62
     7
370
    25
100
AcDbLine
 10
242.502500315
 20
389.4688703181
 30
0.0
 11
241.7024998114
 21
388.668871677
 31
0.0
  0
ARC
  5
9A
330
1F
100
AcDbEntity
  8
0
  6
Continuous
 62
     7
370
    25
100
AcDbCircle
 10
261.95
 20
390.9688709677
 30
0.0
 40
0.5
100
AcDbArc
 50
90.0
 51
180.0
  0
ARC
  5
9B
330
1F
100
AcDbEntity
  8
0
  6
Continuous
 62
     7
370
    25
100
AcDbCircle
 10
242.45
 20
390.9688709677
 30
0.0
 40
0.5
100
AcDbArc
 50
0.0
 51
90.0
  0
LINE
  5
9C
330
1F
100
AcDbEntity
  8
0
  6
Continuous
 62
     7
370
    25
100
AcDbLine
 10
261.4500001192
 20
389.4688703181
 30
0.0
 11
261.4500001192
 21
390.9688696326
 31
0.0
  0
LINE
  5
9D
330
1F
100
AcDbEntity
  8
0
  6
Continuous
 62
     7
370
    25
100
AcDbLine
 10
242.9499998808
 20
390.9688696326
 30
0.0
 11
242.9499998808
 21
389.4688703181
 31
0.0
  0
LINE
  5
9E
330
1F
100
AcDbEntity
  8
0
  6
Continuous
 62
     7
370
    25
100
AcDbLine
 10
247.1079831131
 20
442.3188708783
 30
0.0
 11
177.1949976802
 21
442.3188708783
 31
0.0
  0
LINE
  5
9F
330
1F
100
AcDbEntity
  8
0
  6
Continuous
 62
     7
370
    25
100
AcDbLine
 10
327.2000029802
 20
442.3188708783
 30
0.0
 11
257.2920168869
 21
442.3188708783
 31
0.0
  0
LINE
  5
A0
330
1F
100
AcDbEntity
  8
0
  6
Continuous
 62
     7
370
    25
100
AcDbLine
 10
268.6999999106
 20
409.3188710571
 30
0.0
 11
327.2000029802
 21
409.3188710571
 31
0.0
  0
LINE
  5
A1
330
1F
100
AcDbEntity
  8
0
  6
Continuous
 62
     7
370
    25
100
AcDbLine
 10
177.1999970198
 20
409.3188710571
 30
0.0
 11
235.7000000894
 21
409.3188710571
 31
0.0
  0
ARC
  5
A2
330
1F
100
AcDbEntity
  8
0
  6
Continuous
 62
     7
370
    25
100
AcDbCircle
 10
268.4022629381
 20
400.3582821401
 30
0.0
 40
0.297745822305132
100
AcDbArc
 50
269.5646153071
 51
359.5582436326
  0
SPLINE
  5
A3
330
1F
100
AcDbEntity
  8
0
  6
Continuous
 62
     7
370
    25
100
AcDbSpline
210
0.0
220
0.0
230
1.0
 70
     8
 71
     3
 72
    13
 73
     9
 74
     0
 42
0.000000001
 43
0.00000001
 40
0.0
 40
0.0
 40
0.0
 40
0.0
 40
0.0627182294053263
 40
0.2840982185345952
 40
0.5054743363047058
 40
0.7267905798793017
 40
0.9481196135754618
 40
1.0
 40
1.0
 40
1.0
 40
1.0
 10
236.0482234627009
 20
399.8995099277457
 30
0.0
 10
236.0583853773523
 20
399.8546100108763
 30
0.0
 10
236.1044163619118
 20
399.6512243841475
 30
0.0
 10
236.5444110015395
 20
399.294617535218
 30
0.0
 10
237.4882551802943
 20
398.8458848724444
 30
0.0
 10
238.9066391954052
 20
398.4379258781807
 30
0.0
 10
240.1656885335088
 20
398.1542687027109
 30
0.0
 10
241.0349364969312
 20
398.0295419788793
 30
0.0
 10
241.2000000596047
 20
398.0058573247155
 30
0.0
  0
SPLINE
  5
A4
330
1F
100
AcDbEntity
  8
0
  6
Continuous
 62
     7
370
    25
100
AcDbSpline
210
0.0
220
0.0
230
1.0
 70
     8
 71
     3
 72
    12
 73
     8
 74
     0
 42
0.000000001
 43
0.00000001
 40
0.0
 40
0.0
 40
0.0
 40
0.0
 40
0.2025555760351809
 40
0.4305448179519842
 40
0.6585183104568172
 40
0.8864361415307317
 40
1.0
 40
1.0
 40
1.0
 40
1.0
 10
263.1999999403955
 20
398.0017818571289
 30
0.0
 10
263.7750528908505
 20
398.1004058710024
 30
0.0
 10
264.997364676646
 20
398.3100375134879
 30
0.0
 10
266.4429482536145
 20
398.6944846392395
 30
0.0
 10
267.5551579311174
 20
399.1267922784143
 30
0.0
 10
268.1759439774551
 20
399.509597408514
 30
0.0
 10
268.2579683743983
 20
399.7456128253186
 30
0.0
 10
268.285246577859
 20
399.8241026015242
 30
0.0
  0
LWPOLYLINE
  5
A5
330
1F
100
AcDbEntity
  8
0
  6
Continuous
 62
     7
370
    25
100
AcDbPolyline
 90
       20
 70
   128
 43
0.0
 10
240.1999998957
 20
400.0606548102
 10
240.382307221
 20
400.4224978448
 10
240.9236887589
 20
400.7733475478
 10
241.8076954901
 20
401.1025440009
 10
243.0074671403
 20
401.4000810744
 10
244.4865484841
 20
401.656921214
 10
246.1999999478
 20
401.8652580739
 10
248.0957582712
 20
402.0187642486
 10
250.1162218515
 20
402.1127756746
 10
252.2
 20
402.1444313289
 10
254.2837781485
 20
402.1127756746
 10
256.3042417288
 20
402.0187642486
 10
258.2000000522
 20
401.8652580739
 10
259.9134515159
 20
401.656921214
 10
261.3925328597
 20
401.4000810744
 10
262.5923045099
 20
401.1025440009
 10
263.4763112411
 20
400.7733475478
 10
264.017692779
 20
400.4224978448
 10
264.2000001043
 20
400.0606548102
 10
264.2000001043
 20
400.0606548102
  0
SPLINE
  5
A6
330
1F
100
AcDbEntity
  8
0
  6
Continuous
 62
     7
370
    25
100
AcDbSpline
210
0.0
220
0.0
230
1.0
 70
    24
 71
     3
 72
    19
 73
    15
 74
     0
 42
0.000000001
 43
0.00000001
 40
0.0
 40
0.0
 40
0.0
 40
0.0
 40
0.0791211092501087
 40
0.1647097638508769
 40
0.2540946617586273
 40
0.3251191856181685
 40
0.3972844694372324
 40
0.4673695155139406
 40
0.5350399190651693
 40
0.6379129801254014
 40
0.73750003268715
 40
0.8344662216709753
 40
0.929534161604627
 40
1.0
 40
1.0
 40
1.0
 40
1.0
 10
235.7000000894071
 20
400.3559865118226
 30
0.0
 10
235.7000000894071
 20
401.87888338985
 30
0.0
 10
235.7000000894071
 20
405.0491623144824
 30
0.0
 10
235.7000000894071
 20
409.8448524857938
 30
0.0
 10
235.7000000894071
 20
414.2092559683255
 30
0.0
 10
235.7000000894071
 20
417.8598046849669
 30
0.0
 10
235.7000000894071
 20
420.6107425926277
 30
0.0
 10
235.7000000894071
 20
422.6629160902444
 30
0.0
 10
235.7000000894071
 20
424.2955265984915
 30
0.0
 10
235.7000000894071
 20
425.3203964870929
 30
0.0
 10
235.7000000894071
 20
425.7656402599667
 30
0.0
 10
235.7000000894071
 20
425.8315323644543
 30
0.0
 10
235.7000000894071
 20
425.8157942240225
 30
0.0
 10
235.7000000894071
 20
425.8167166246283
 30
0.0
 10
235.7000000894071
 20
425.8171092800288
 30
0.0
  0
SPLINE
  5
A7
330
1F
100
AcDbEntity
  8
0
  6
Continuous
 62
     7
370
    25
100
AcDbSpline
210
0.0
220
0.0
230
1.0
 70
     8
 71
     3
 72
    63
 73
    59
 74
     0
 42
0.000000001
 43
0.00000001
 40
0.0
 40
0.0
 40
0.0
 40
0.0
 40
0.0078125
 40
0.0078125
 40
0.015625
 40
0.03125
 40
0.03125
 40
0.0625
 40
0.0625
 40
0.0937499999999999
 40
0.0937499999999999
 40
0.1249999999999999
 40
0.1249999999999999
 40
0.1874999999999999
 40
0.1874999999999999
 40
0.2187499999999999
 40
0.2187499999999999
 40
0.2499999999999998
 40
0.2499999999999998
 40
0.3124999999999998
 40
0.3124999999999998
 40
0.3437499999999998
 40
0.3437499999999998
 40
0.3749999999999998
 40
0.3749999999999998
 40
0.4062499999999997
 40
0.4062499999999997
 40
0.4374999999999997
 40
0.4374999999999997
 40
0.4999999999999997
 40
0.4999999999999997
 40
0.5312499999999998
 40
0.5312499999999998
 40
0.5624999999999998
 40
0.5624999999999998
 40
0.6249999999999998
 40
0.6249999999999998
 40
0.6562499999999998
 40
0.6562499999999998
 40
0.6874999999999998
 40
0.6874999999999998
 40
0.7499999999999998
 40
0.7499999999999998
 40
0.8124999999999998
 40
0.8124999999999998
 40
0.8437499999999998
 40
0.8437499999999998
 40
0.8749999999999998
 40
0.8749999999999998
 40
0.9374999999999999
 40
0.9374999999999999
 40
0.9687499999999999
 40
0.9687499999999999
 40
0.9843749999999999
 40
0.9843749999999999
 40
0.9921874999999999
 40
0.9921874999999999
 40
1.0
 40
1.0
 40
1.0
 40
1.0
 10
268.6999999838508
 20
425.8183786676992
 30
0.0
 10
268.6999997443168
 20
425.9526953212335
 30
0.0
 10
268.698345428009
 20
426.0905542317283
 30
0.0
 10
268.6917481084448
 20
426.3618937738982
 30
0.0
 10
268.6769188066371
 20
426.7680678099102
 30
0.0
 10
268.6473726360641
 20
427.1717500838968
 30
0.0
 10
268.5687873467515
 20
427.9758142159477
 30
0.0
 10
268.4904415834072
 20
428.5074623466372
 30
0.0
 10
268.2817150204319
 20
429.5619483828614
 30
0.0
 10
268.1513407374699
 20
430.084787391755
 30
0.0
 10
267.8372434769392
 20
431.1214327645255
 30
0.0
 10
267.6526585306806
 20
431.636554859641
 30
0.0
 10
267.0304441599211
 20
433.1345304397202
 30
0.0
 10
266.5223362640726
 20
434.0814992321637
 30
0.0
 10
265.6226650605268
 20
435.4257805959281
 30
0.0
 10
265.2983950247286
 20
435.8626468978434
 30
0.0
 10
264.6079162801688
 20
436.7028070445408
 30
0.0
 10
264.2447085728927
 20
437.1027906767172
 30
0.0
 10
263.1028803123189
 20
438.2443534421358
 30
0.0
 10
262.272584670455
 20
438.9281372717189
 30
0.0
 10
260.9204590560929
 20
439.8344958070733
 30
0.0
 10
260.4523420755785
 20
440.115789028507
 30
0.0
 10
259.5007209705298
 20
440.6257111576144
 30
0.0
 10
259.0147511932315
 20
440.856073373673
 30
0.0
 10
258.0227105599663
 20
441.2681264357091
 30
0.0
 10
257.5166386706553
 20
441.4498147796181
 30
0.0
 10
256.4840655771607
 20
441.763725328778
 30
0.0
 10
255.9546985571453
 20
441.8964588529043
 30
0.0
 10
254.3570255578807
 20
442.2132277832118
 30
0.0
 10
253.2861462101585
 20
442.3164171378878
 30
0.0
 10
251.6716156751675
 20
442.3173568800043
 30
0.0
 10
251.1320635470959
 20
442.2919039333099
 30
0.0
 10
250.0500775425658
 20
442.1870079272301
 30
0.0
 10
249.5114599975544
 20
442.1076832931491
 30
0.0
 10
247.9248161469686
 20
441.7935849707005
 30
0.0
 10
246.896685914786
 20
441.4825305812603
 30
0.0
 10
245.3992136753434
 20
440.8625236811781
 30
0.0
 10
244.9049347734195
 20
440.6285842413038
 30
0.0
 10
243.9494437588962
 20
440.1169036942686
 30
0.0
 10
243.4873730842883
 20
439.8391884037646
 30
0.0
 10
242.1468601137041
 20
438.9422672060302
 30
0.0
 10
241.3136437675254
 20
438.259946212215
 30
0.0
 10
239.772269611191
 20
436.7207787504684
 30
0.0
 10
239.087732207986
 20
435.8871506593466
 30
0.0
 10
238.189466581331
 20
434.5485709174863
 30
0.0
 10
237.9113947645161
 20
434.0873301318942
 30
0.0
 10
237.399070397251
 20
433.1339647070726
 30
0.0
 10
237.1641820787319
 20
432.6396925667239
 30
0.0
 10
236.5412474786095
 20
431.1411873624121
 30
0.0
 10
236.2289098761888
 20
430.1132000422413
 30
0.0
 10
235.9129462753021
 20
428.5282740761242
 30
0.0
 10
235.8331540746267
 20
427.9922016109593
 30
0.0
 10
235.7531454551015
 20
427.1787419780656
 30
0.0
 10
235.7331831619052
 20
426.9069495386734
 30
0.0
 10
235.7132586592187
 20
426.499034497919
 30
0.0
 10
235.708284125242
 20
426.3629961458394
 30
0.0
 10
235.701654797691
 20
426.090786665703
 30
0.0
 10
235.7000002556825
 20
425.9526957356634
 30
0.0
 10
235.7000000161484
 20
425.8183790821291
 30
0.0
  0
SPLINE
  5
A8
330
1F
100
AcDbEntity
  8
0
  6
Continuous
 62
     7
370
    25
100
AcDbSpline
210
0.0
220
0.0
230
1.0
 70
    24
 71
     3
 72
    19
 73
    15
 74
     0
 42
0.000000001
 43
0.00000001
 40
0.0
 40
0.0
 40
0.0
 40
0.0
 40
0.0620305916374477
 40
0.1580030644672147
 40
0.2558444911710802
 40
0.3563297809499067
 40
0.4601308620908914
 40
0.5284116191260186
 40
0.5991289852878281
 40
0.6719452663933297
 40
0.7436106336929357
 40
0.8338024824848348
 40
0.9201641330289841
 40
1.0
 40
1.0
 40
1.0
 40
1.0
 10
268.6999999105931
 20
425.8172100172536
 30
0.0
 10
268.6999999105931
 20
425.8169090125369
 30
0.0
 10
268.6999999105931
 20
425.8161422994299
 30
0.0
 10
268.6999999105931
 20
425.8316084121019
 30
0.0
 10
268.6999999105931
 20
425.765564449915
 30
0.0
 10
268.6999999105931
 20
425.3202265668634
 30
0.0
 10
268.6999999105931
 20
424.2952314288152
 30
0.0
 10
268.6999999105931
 20
422.6625199591253
 30
0.0
 10
268.6999999105931
 20
420.6102974667027
 30
0.0
 10
268.6999999105931
 20
417.8593589832134
 30
0.0
 10
268.6999999105931
 20
414.2088699808173
 30
0.0
 10
268.6999999105931
 20
409.8445888507482
 30
0.0
 10
268.6999999105931
 20
405.0490355418327
 30
0.0
 10
268.6999999105931
 20
401.8788434152904
 30
0.0
 10
268.6999999105931
 20
400.3559865118226
 30
0.0
  0
LWPOLYLINE
  5
A9
330
1F
100
AcDbEntity
  8
0
  6
Continuous
 62
     7
370
    25
100
AcDbPolyline
 90
        9
 70
   128
 43
0.0
 10
263.1999999404
 20
400.40103831
 10
263.6340148866
 20
400.2006568075
 10
263.9473397404
 20
399.9935995848
 10
264.1366683066
 20
399.7820533873
 10
264.2000001043
 20
399.5682496638
 10
264.1366683066
 20
399.354447803
 10
263.9473397404
 20
399.1429016055
 10
263.6340148866
 20
398.9358443828
 10
263.1999999404
 20
398.7354628802
  0
LINE
  5
AA
330
1F
100
AcDbEntity
  8
0
  6
Continuous
 62
     7
370
    25
100
AcDbLine
 10
263.1999999404
 20
400.40103831
 30
0.0
 11
263.1999999404
 21
397.0303863348
 31
0.0
  0
LWPOLYLINE
  5
AB
330
1F
100
AcDbEntity
  8
0
  6
Continuous
 62
     7
370
    25
100
AcDbPolyline
 90
       14
 70
   128
 43
0.0
 10
263.1999999404
 20
397.0303863348
 10
262.1743120372
 20
397.3561462076
 10
260.8319856346
 20
397.6451281519
 10
259.2156333968
 20
397.8881586404
 10
257.3765665412
 20
398.0775207342
 10
255.3731675845
 20
398.2072036774
 10
253.269034799
 20
398.2730910243
 10
251.130965201
 20
398.2730910243
 10
249.0268324155
 20
398.2072036774
 10
247.0234334588
 20
398.0775207342
 10
245.1843666032
 20
397.8881586404
 10
243.5680143654
 20
397.6451281519
 10
242.2256879628
 20
397.3561462076
 10
241.2000000596
 20
397.0303863348
  0
LINE
  5
AC
330
1F
100
AcDbEntity
  8
0
  6
Continuous
 62
     7
370
    25
100
AcDbLine
 10
241.2000000596
 20
400.40103831
 30
0.0
 11
241.2000000596
 21
397.0303863348
 31
0.0
  0
LWPOLYLINE
  5
AD
330
1F
100
AcDbEntity
  8
0
  6
Continuous
 62
     7
370
    25
100
AcDbPolyline
 90
        9
 70
   128
 43
0.0
 10
241.2000000596
 20
398.7354628802
 10
240.7659851134
 20
398.9358443828
 10
240.4526602596
 20
399.1429016055
 10
240.2633316934
 20
399.354447803
 10
240.1999998957
 20
399.5682496638
 10
240.2633316934
 20
399.7820533873
 10
240.4526602596
 20
399.9935995848
 10
240.7659851134
 20
400.2006568075
 10
241.2000000596
 20
400.40103831
  0
LWPOLYLINE
  5
AE
330
1F
100
AcDbEntity
  8
0
  6
Continuous
 62
     7
370
    25
100
AcDbPolyline
 90
       18
 70
   128
 43
0.0
 10
263.1999999404
 20
395.6290196688
 10
263.0127044514
 20
395.9800053449
 10
262.45719475
 20
396.319038427
 10
261.5523887917
 20
396.6345723779
 10
260.3290984526
 20
396.9158653231
 10
258.8289808601
 20
397.1533358158
 10
257.1031218514
 20
397.3388981135
 10
255.2102930032
 20
397.4662303985
 10
253.2149519658
 20
397.5310001583
 10
251.1850480342
 20
397.5310001583
 10
249.1897069968
 20
397.4662303985
 10
247.2968781486
 20
397.3388981135
 10
245.5710191399
 20
397.1533358158
 10
244.0709015474
 20
396.9158653231
 10
242.8476112083
 20
396.6345723779
 10
241.94280525
 20
396.319038427
 10
241.3872955486
 20
395.9800053449
 10
241.2000000596
 20
395.6290196688
  0
SPLINE
  5
AF
330
1F
100
AcDbEntity
  8
0
  6
Continuous
 62
     7
370
    25
100
AcDbSpline
210
0.0
220
0.0
230
1.0
 70
    24
 71
     3
 72
     8
 73
     4
 74
     0
 42
0.000000001
 43
0.00000001
 40
0.0
 40
0.0
 40
0.0
 40
0.0
 40
1.0
 40
1.0
 40
1.0
 40
1.0
 10
241.2000000000001
 20
397.0303856461276
 30
0.0
 10
241.2000000000001
 20
396.3966763806029
 30
0.0
 10
241.2000000000001
 20
395.9100721094053
 30
0.0
 10
241.2000000000001
 20
395.6290192204049
 30
0.0
  0
SPLINE
  5
B0
330
1F
100
AcDbEntity
  8
0
  6
Continuous
 62
     7
370
    25
100
AcDbSpline
210
0.0
220
0.0
230
1.0
 70
    24
 71
     3
 72
     8
 73
     4
 74
     0
 42
0.000000001
 43
0.00000001
 40
0.0
 40
0.0
 40
0.0
 40
0.0
 40
1.0
 40
1.0
 40
1.0
 40
1.0
 10
263.2000000000001
 20
397.0303856461276
 30
0.0
 10
263.2000000000001
 20
396.3966763806029
 30
0.0
 10
263.2000000000001
 20
395.9100721094053
 30
0.0
 10
263.2000000000001
 20
395.6290192204048
 30
0.0
  0
LWPOLYLINE
  5
B1
330
1F
100
AcDbEntity
  8
0
  6
Continuous
 62
     7
370
    25
100
AcDbPolyline
 90
       18
 70
   128
 43
0.0
 10
241.2000000596
 20
395.6290196688
 10
241.3872955486
 20
395.2780339928
 10
241.94280525
 20
394.9390009106
 10
242.8476112083
 20
394.6234650971
 10
244.0709015474
 20
394.3421721519
 10
245.5710191399
 20
394.1047035218
 10
247.2968781486
 20
393.9191393615
 10
249.1897069968
 20
393.7918089391
 10
251.1850480342
 20
393.7270373167
 10
253.2149519658
 20
393.7270373167
 10
255.2102930032
 20
393.7918089391
 10
257.1031218514
 20
393.9191393615
 10
258.8289808601
 20
394.1047035218
 10
260.3290984526
 20
394.3421721519
 10
261.5523887917
 20
394.6234650971
 10
262.45719475
 20
394.9390009106
 10
263.0127044514
 20
395.2780339928
 10
263.1999999404
 20
395.6290196688
  0
SPLINE
  5
B2
330
1F
100
AcDbEntity
  8
0
  6
Continuous
 62
     7
370
    25
100
AcDbSpline
210
0.0
220
0.0
230
1.0
 70
     8
 71
     3
 72
     9
 73
     5
 74
     0
 42
0.000000001
 43
0.00000001
 40
0.0
 40
0.0
 40
0.0
 40
0.0
 40
0.6003461347028359
 40
0.9999999999999999
 40
0.9999999999999999
 40
0.9999999999999999
 40
0.9999999999999999
 10
268.5953918963672
 20
400.1353748203476
 30
0.0
 10
268.5797374829398
 20
400.0504734271408
 30
0.0
 10
268.5536618367042
 20
399.9090526895046
 30
0.0
 10
268.3255733140788
 20
399.7735300672481
 30
0.0
 10
268.2344168543817
 20
399.7193679274281
 30
0.0
  0
SPLINE
  5
B3
330
1F
100
AcDbEntity
  8
0
  6
Continuous
 62
     7
370
    25
100
AcDbSpline
210
0.0
220
0.0
230
1.0
 70
     8
 71
     3
 72
    10
 73
     6
 74
     0
 42
0.000000001
 43
0.00000001
 40
0.0
 40
0.0
 40
0.0
 40
0.0
 40
0.578774947447532
 40
0.805068949446232
 40
1.0
 40
1.0
 40
1.0
 40
1.0
 10
236.0798288255931
 20
399.7939705909451
 30
0.0
 10
235.9662624770722
 20
399.8805247514643
 30
0.0
 10
235.8082930602905
 20
400.0009205415496
 30
0.0
 10
235.7346847064077
 20
400.1536987474172
 30
0.0
 10
235.725423302543
 20
400.2181622049455
 30
0.0
 10
235.7211373865605
 20
400.2479940713604
 30
0.0
  0
ARC
  5
B4
330
1F
100
AcDbEntity
  8
0
  6
Continuous
 62
     7
370
    25
100
AcDbCircle
 10
252.2000000054
 20
426.0993961297
 30
0.0
 40
17.00000000383421
100
AcDbArc
 50
348.816730477
 51
191.1832695256
  0
ARC
  5
B5
330
1F
100
AcDbEntity
  8
0
  6
Continuous
 62
     7
370
    25
100
AcDbCircle
 10
268.6809987485
 20
422.8410713747
 30
0.0
 40
0.2000000103869401
100
AcDbArc
 50
306.7708034659
 51
348.81673046
  0
ARC
  5
B6
330
1F
100
AcDbEntity
  8
0
  6
Continuous
 62
     7
370
    25
100
AcDbCircle
 10
235.7190012523
 20
422.8410713719
 30
0.0
 40
0.1999999999999986
100
AcDbArc
 50
191.1832695256
 51
233.229196003
  0
LINE
  5
B7
330
1F
100
AcDbEntity
  8
0
  6
Continuous
 62
     7
370
    25
100
AcDbLine
 10
263.9499995977
 20
391.4688706459
 30
0.0
 11
240.4500004023
 21
391.4688706459
 31
0.0
  0
SPLINE
  5
B8
330
1F
100
AcDbEntity
  8
0
  6
Continuous
 62
     7
370
    25
100
AcDbSpline
210
0.0
220
0.0
230
1.0
 70
    24
 71
     3
 72
     8
 73
     4
 74
     0
 42
0.000000001
 43
0.00000001
 40
0.0
 40
0.0
 40
0.0
 40
0.0
 40
1.0
 40
1.0
 40
1.0
 40
1.0
 10
261.2000000000001
 20
381.4688709677418
 30
0.0
 10
261.2000000000001
 20
381.6992504134936
 30
0.0
 10
261.2000000000001
 20
381.9708297673404
 30
0.0
 10
261.2000000000001
 20
382.2688709677418
 30
0.0
  0
LINE
  5
B9
330
1F
100
AcDbEntity
  8
0
  6
Continuous
 62
     7
370
    25
100
AcDbLine
 10
261.1999996126
 20
381.468872732
 30
0.0
 11
243.2000003874
 21
381.468872732
 31
0.0
  0
SPLINE
  5
BA
330
1F
100
AcDbEntity
  8
0
  6
Continuous
 62
     7
370
    25
100
AcDbSpline
210
0.0
220
0.0
230
1.0
 70
    24
 71
     3
 72
     8
 73
     4
 74
     0
 42
0.000000001
 43
0.00000001
 40
0.0
 40
0.0
 40
0.0
 40
0.0
 40
1.0
 40
1.0
 40
1.0
 40
1.0
 10
243.2000000000001
 20
382.2688709677418
 30
0.0
 10
243.2000000000001
 20
381.9693107850125
 30
0.0
 10
243.2000000000001
 20
381.6979071870624
 30
0.0
 10
243.2000000000001
 20
381.4688709677418
 30
0.0
  0
LINE
  5
BB
330
1F
100
AcDbEntity
  8
0
  6
Continuous
 62
     7
370
    25
100
AcDbLine
 10
261.1999996126
 20
382.2688713731
 30
0.0
 11
243.2000003874
 21
382.2688713731
 31
0.0
  0
LINE
  5
BC
330
1F
100
AcDbEntity
  8
0
  6
Continuous
 62
     7
370
    25
100
AcDbLine
 10
262.6975001886
 20
388.668871677
 30
0.0
 11
241.7024998114
 21
388.668871677
 31
0.0
  0
LINE
  5
BD
330
1F
100
AcDbEntity
  8
0
  6
Continuous
 62
     7
370
    25
100
AcDbLine
 10
261.1999996126
 20
386.468871689
 30
0.0
 11
262.6975001886
 21
386.468871689
 31
0.0
  0
LINE
  5
BE
330
1F
100
AcDbEntity
  8
0
  6
Continuous
 62
     7
370
    25
100
AcDbLine
 10
261.1999996126
 20
382.2688713731
 30
0.0
 11
261.1999996126
 21
386.468871689
 31
0.0
  0
LINE
  5
BF
330
1F
100
AcDbEntity
  8
0
  6
Continuous
 62
     7
370
    25
100
AcDbLine
 10
243.2000003874
 20
386.468871689
 30
0.0
 11
243.2000003874
 21
382.2688713731
 31
0.0
  0
LINE
  5
C0
330
1F
100
AcDbEntity
  8
0
  6
Continuous
 62
     7
370
    25
100
AcDbLine
 10
241.7024998114
 20
386.468871689
 30
0.0
 11
243.2000003874
 21
386.468871689
 31
0.0
  0
LINE
  5
C1
330
1F
100
AcDbEntity
  8
0
  6
Continuous
 62
     7
370
    25
100
AcDbLine
 10
261.897499685
 20
389.4688703181
 30
0.0
 11
242.502500315
 21
389.4688703181
 31
0.0
  0
LINE
  5
C2
330
1F
100
AcDbEntity
  8
0
  6
Continuous
 62
     7
370
    25
100
AcDbLine
 10
169.6006581306
 20
421.3188711615
 30
0.0
 11
101.0000035286
 21
421.3188711615
 31
0.0
  0
ARC
  5
C3
330
1F
100
AcDbEntity
  8
0
  6
Continuous
 62
     7
370
    25
100
AcDbCircle
 10
169.6006579232
 20
432.3188709677
 30
0.0
 40
2.0
100
AcDbArc
 50
270.0
 51
319.4583981265
  0
ARC
  5
C4
330
1F
100
AcDbEntity
  8
0
  6
Continuous
 62
     7
370
    25
100
AcDbCircle
 10
101.0
 20
429.5188709677
 30
0.0
 40
0.8000000000000114
100
AcDbArc
 50
90.0
 51
180.0
  0
ARC
  5
C5
330
1F
100
AcDbEntity
  8
0
  6
Continuous
 62
     7
370
    25
100
AcDbCircle
 10
177.2
 20
425.8188709677
 30
0.0
 40
8.000000000000014
100
AcDbArc
 50
220.5416018735
 51
139.4583981265
  0
LINE
  5
C6
330
1F
100
AcDbEntity
  8
0
  6
Continuous
 62
     7
370
    25
100
AcDbLine
 10
101.0000035286
 20
430.318870774
 30
0.0
 11
169.6006581306
 21
430.318870774
 31
0.0
  0
LINE
  5
C7
330
1F
100
AcDbEntity
  8
0
  6
Continuous
 62
     7
370
    25
100
AcDbLine
 10
100.2000048876
 20
422.1188709666
 30
0.0
 11
100.2000048876
 21
429.5188709689
 31
0.0
  0
ARC
  5
C8
330
1F
100
AcDbEntity
  8
0
  6
Continuous
 62
     7
370
    25
100
AcDbCircle
 10
101.0
 20
422.1188709677
 30
0.0
 40
0.8000000000000682
100
AcDbArc
 50
180.0
 51
270.0
  0
ARC
  5
C9
330
1F
100
AcDbEntity
  8
0
  6
Continuous
 62
     7
370
    25
100
AcDbCircle
 10
169.6006579232
 20
419.3188709677
 30
0.0
 40
2.0
100
AcDbArc
 50
40.5416018735
 51
90.0
  0
ARC
  5
CA
330
1F
100
AcDbEntity
  8
0
  6
Continuous
 62
     7
370
    25
100
AcDbCircle
 10
177.2
 20
425.8188709677
 30
0.0
 40
16.50000000000001
100
AcDbArc
 50
195.8266201319
 51
164.1733798681
  0
ARC
  5
CB
330
1F
100
AcDbEntity
  8
0
  6
Continuous
 62
     7
370
    25
100
AcDbCircle
 10
177.2
 20
425.8188709677
 30
0.0
 40
35.0
100
AcDbArc
 50
187.3870484363
 51
270.0
  0
ARC
  5
CC
330
1F
100
AcDbEntity
  8
0
  6
Continuous
 62
     7
370
    25
100
AcDbCircle
 10
177.2
 20
425.8188709677
 30
0.0
 40
35.00000000000003
100
AcDbArc
 50
28.1270682186
 51
172.6129515637
  0
ARC
  5
CD
330
1F
100
AcDbEntity
  8
0
  6
Continuous
 62
     7
370
    25
100
AcDbCircle
 10
177.2
 20
425.8188709677
 30
0.0
 40
35.00000000000005
100
AcDbArc
 50
270.0
 51
331.8729317814
  0
ARC
  5
CE
330
1F
100
AcDbEntity
  8
0
  6
Continuous
 62
     7
370
    25
100
AcDbCircle
 10
327.2
 20
425.8188709677
 30
0.0
 40
35.0
100
AcDbArc
 50
7.3870484363
 51
90.0
  0
ARC
  5
CF
330
1F
100
AcDbEntity
  8
0
  6
Continuous
 62
     7
370
    25
100
AcDbCircle
 10
327.2
 20
425.8188709677
 30
0.0
 40
35.00000000000005
100
AcDbArc
 50
208.1270682186
 51
352.6129515637
  0
ARC
  5
D0
330
1F
100
AcDbEntity
  8
0
  6
Continuous
 62
     7
370
    25
100
AcDbCircle
 10
327.2
 20
425.8188709677
 30
0.0
 40
35.00000000000003
100
AcDbArc
 50
90.0
 51
151.8729317814
  0
ARC
  5
D1
330
1F
100
AcDbEntity
  8
0
  6
Continuous
 62
     7
370
    25
100
AcDbCircle
 10
403.4
 20
422.1188709677
 30
0.0
 40
0.8000000000000682
100
AcDbArc
 50
270.0
 51
0.0
  0
ARC
  5
D2
330
1F
100
AcDbEntity
  8
0
  6
Continuous
 62
     7
370
    25
100
AcDbCircle
 10
327.2
 20
425.8188709677
 30
0.0
 40
8.000000000000037
100
AcDbArc
 50
40.5416018735
 51
319.4583981265
  0
LINE
  5
D3
330
1F
100
AcDbEntity
  8
0
  6
Continuous
 62
     7
370
    25
100
AcDbLine
 10
334.7993418694
 20
430.318870774
 30
0.0
 11
403.3999964714
 21
430.318870774
 31
0.0
  0
ARC
  5
D4
330
1F
100
AcDbEntity
  8
0
  6
Continuous
 62
     7
370
    25
100
AcDbCircle
 10
334.7993420768
 20
419.3188709677
 30
0.0
 40
2.0
100
AcDbArc
 50
90.0
 51
139.4583981265
  0
ARC
  5
D5
330
1F
100
AcDbEntity
  8
0
  6
Continuous
 62
     7
370
    25
100
AcDbCircle
 10
334.7993420768
 20
432.3188709677
 30
0.0
 40
2.0
100
AcDbArc
 50
220.5416018735
 51
270.0
  0
LINE
  5
D6
330
1F
100
AcDbEntity
  8
0
  6
Continuous
 62
     7
370
    25
100
AcDbLine
 10
404.1999951124
 20
429.5188709689
 30
0.0
 11
404.1999951124
 21
422.1188709666
 31
0.0
  0
LINE
  5
D7
330
1F
100
AcDbEntity
  8
0
  6
Continuous
 62
     7
370
    25
100
AcDbLine
 10
403.3999964714
 20
421.3188711615
 30
0.0
 11
334.7993418694
 21
421.3188711615
 31
0.0
  0
ARC
  5
D8
330
1F
100
AcDbEntity
  8
0
  6
Continuous
 62
     7
370
    25
100
AcDbCircle
 10
403.4
 20
429.5188709677
 30
0.0
 40
0.8000000000000114
100
AcDbArc
 50
0.0
 51
90.0
  0
ARC
  5
D9
330
1F
100
AcDbEntity
  8
0
  6
Continuous
 62
     7
370
    25
100
AcDbCircle
 10
327.2
 20
425.8188709677
 30
0.0
 40
16.5
100
AcDbArc
 50
15.8266201319
 51
180.0
  0
ARC
  5
DA
330
1F
100
AcDbEntity
  8
0
  6
Continuous
 62
     7
370
    25
100
AcDbCircle
 10
327.2
 20
425.8188709677
 30
0.0
 40
16.5
100
AcDbArc
 50
180.0
 51
344.1733798681
  0
SPLINE
  5
DB
330
1F
100
AcDbEntity
  8
0
  6
Continuous
 62
     8
370
    18
100
AcDbSpline
210
0.0
220
0.0
230
1.0
 70
     8
 71
     3
 72
    57
 73
    53
 74
     0
 42
0.000000001
 43
0.00000001
 40
0.0
 40
0.0
 40
0.0
 40
0.0
 40
0.0078124999999989
 40
0.0078124999999989
 40
0.0156249999999978
 40
0.0312499999999972
 40
0.0312499999999972
 40
0.0624999999999974
 40
0.0624999999999974
 40
0.0937499999999977
 40
0.0937499999999977
 40
0.124999999999998
 40
0.124999999999998
 40
0.1874999999999985
 40
0.1874999999999985
 40
0.2187499999999989
 40
0.2187499999999989
 40
0.2499999999999992
 40
0.2499999999999992
 40
0.3124999999999998
 40
0.3124999999999998
 40
0.3437500000000001
 40
0.3437500000000001
 40
0.3750000000000003
 40
0.3750000000000003
 40
0.4062500000000007
 40
0.4062500000000007
 40
0.4375000000000009
 40
0.4375000000000009
 40
0.5000000000000019
 40
0.5000000000000019
 40
0.5312500000000023
 40
0.5312500000000023
 40
0.5625000000000028
 40
0.5625000000000028
 40
0.6250000000000036
 40
0.6250000000000036
 40
0.6562500000000036
 40
0.6562500000000036
 40
0.6875000000000036
 40
0.6875000000000036
 40
0.7500000000000036
 40
0.7500000000000036
 40
0.8125000000000037
 40
0.8125000000000037
 40
0.843750000000003
 40
0.843750000000003
 40
0.8750000000000023
 40
0.8750000000000023
 40
0.9375000000000012
 40
0.9375000000000012
 40
1.0
 40
1.0
 40
1.0
 40
1.0
 10
235.7000000000006
 20
400.3559864502196
 30
0.0
 10
235.7000000000006
 20
400.379311124244
 30
0.0
 10
235.7016544286489
 20
400.4032509087844
 30
0.0
 10
235.7082512424153
 20
400.4503702077015
 30
0.0
 10
235.7230794054263
 20
400.5209041259711
 30
0.0
 10
235.7526232913257
 20
400.5910053983153
 30
0.0
 10
235.8312024992965
 20
400.7306348891677
 30
0.0
 10
235.9095421961603
 20
400.8229581744095
 30
0.0
 10
236.1182525408276
 20
401.0060750191913
 30
0.0
 10
236.2486166733466
 20
401.0968687702823
 30
0.0
 10
236.5626893192243
 20
401.2768879305237
 30
0.0
 10
236.747260971687
 20
401.3663425096127
 30
0.0
 10
237.3694349375987
 20
401.6264781821039
 30
0.0
 10
237.8775118131324
 20
401.7909280097337
 30
0.0
 10
238.7771315925378
 20
402.0243762182886
 30
0.0
 10
239.1013790628727
 20
402.1002418615221
 30
0.0
 10
239.7918359566713
 20
402.2461484540485
 30
0.0
 10
240.1550331686055
 20
402.315611912652
 30
0.0
 10
241.2968313520442
 20
402.5138628939995
 30
0.0
 10
242.1271087931222
 20
402.6326139724747
 30
0.0
 10
243.4792107167948
 20
402.7900204058215
 30
0.0
 10
243.9473339806369
 20
402.8388740361715
 30
0.0
 10
244.8989647486813
 20
402.9274344491973
 30
0.0
 10
245.3849395859897
 20
402.9674425412484
 30
0.0
 10
246.3769906436203
 20
403.0390059655325
 30
0.0
 10
246.8830678979963
 20
403.0705608629374
 30
0.0
 10
247.9156519133317
 20
403.125079919038
 30
0.0
 10
248.4450203048902
 20
403.1481328218463
 30
0.0
 10
250.0427640163764
 20
403.2031511828954
 30
0.0
 10
251.1136849648786
 20
403.2210741386822
 30
0.0
 10
252.7282696959888
 20
403.2212395406857
 30
0.0
 10
253.267838512372
 20
403.2168197194388
 30
0.0
 10
254.3498549558961
 20
403.1986034896537
 30
0.0
 10
254.8884999905315
 20
403.1848272939971
 30
0.0
 10
256.4752016068148
 20
403.1302781290938
 30
0.0
 10
257.5033586253045
 20
403.0762572140606
 30
0.0
 10
259.0008558761807
 20
402.9685815337879
 30
0.0
 10
259.49514152023
 20
402.9279537198539
 30
0.0
 10
260.4506505192856
 20
402.8390905705099
 30
0.0
 10
260.9127272773492
 20
402.7908601717895
 30
0.0
 10
262.2532512811167
 20
402.635094034913
 30
0.0
 10
263.0864654001596
 20
402.5165980020013
 30
0.0
 10
264.6278217385246
 20
402.2493001697931
 30
0.0
 10
265.3123377340738
 20
402.1045319762316
 30
0.0
 10
266.2105791874831
 20
401.8720741266261
 30
0.0
 10
266.4886430026137
 20
401.791975307472
 30
0.0
 10
267.0009521032759
 20
401.6264150434755
 30
0.0
 10
267.2358315699238
 20
401.5405812056808
 30
0.0
 10
267.858742407389
 20
401.2803569072942
 30
0.0
 10
268.1710710174723
 20
401.1018414625976
 30
0.0
 10
268.5923530813376
 20
400.7348683907646
 30
0.0
 10
268.6999999999996
 20
400.5452524542528
 30
0.0
 10
268.6999999999996
 20
400.3559864504585
 30
0.0
  0
SPLINE
  5
DC
330
1F
100
AcDbEntity
  8
0
  6
Continuous
 62
     8
370
    18
100
AcDbSpline
210
0.0
220
0.0
230
1.0
 70
     8
 71
     3
 72
    52
 73
    48
 74
     0
 42
0.000000001
 43
0.00000001
 40
0.0
 40
0.0
 40
0.0
 40
0.0
 40
0.0625000000000012
 40
0.0625000000000012
 40
0.1250000000000023
 40
0.1250000000000023
 40
0.1562500000000029
 40
0.1562500000000029
 40
0.1875000000000034
 40
0.1875000000000034
 40
0.2500000000000032
 40
0.2500000000000032
 40
0.3125000000000029
 40
0.3125000000000029
 40
0.3437500000000032
 40
0.3437500000000032
 40
0.3750000000000035
 40
0.3750000000000035
 40
0.4375000000000041
 40
0.4375000000000041
 40
0.4687500000000043
 40
0.4687500000000043
 40
0.5000000000000043
 40
0.5000000000000043
 40
0.5625000000000047
 40
0.5625000000000047
 40
0.5937500000000048
 40
0.5937500000000048
 40
0.6250000000000048
 40
0.6250000000000048
 40
0.6562500000000048
 40
0.6562500000000048
 40
0.6875000000000048
 40
0.6875000000000048
 40
0.7500000000000046
 40
0.7500000000000046
 40
0.781250000000004
 40
0.781250000000004
 40
0.8125000000000033
 40
0.8125000000000033
 40
0.8750000000000032
 40
0.8750000000000032
 40
0.9062500000000024
 40
0.9062500000000024
 40
0.9375000000000018
 40
0.9375000000000018
 40
1.0
 40
1.0
 40
1.0
 40
1.0
 10
268.3999999999996
 20
400.0605441245539
 30
0.0
 10
268.3999999999996
 20
400.24637052868
 30
0.0
 10
268.294476355615
 20
400.4323635511753
 30
0.0
 10
267.8809991493904
 20
400.7926789491215
 30
0.0
 10
267.5744021605394
 20
400.9679550150818
 30
0.0
 10
266.9628708438383
 20
401.223456311533
 30
0.0
 10
266.7322748046902
 20
401.3077326898699
 30
0.0
 10
266.2292990041444
 20
401.4702895235478
 30
0.0
 10
265.9562983394624
 20
401.5489351171284
 30
0.0
 10
265.0744116886513
 20
401.7771758071323
 30
0.0
 10
264.4023705749996
 20
401.9193161068103
 30
0.0
 10
262.8890721938928
 20
402.1817736619437
 30
0.0
 10
262.0710289363715
 20
402.2981264499205
 30
0.0
 10
260.7549121713181
 20
402.4510780611694
 30
0.0
 10
260.3012483376413
 20
402.4984374982695
 30
0.0
 10
259.3631335104876
 20
402.5856965397638
 30
0.0
 10
258.877835442782
 20
402.6255920761946
 30
0.0
 10
257.4075594088071
 20
402.7313268881159
 30
0.0
 10
256.3980865246197
 20
402.784373423302
 30
0.0
 10
254.8402121419083
 20
402.8379379680933
 30
0.0
 10
254.3113538000224
 20
402.851465371316
 30
0.0
 10
253.248987406111
 20
402.8693539039383
 30
0.0
 10
252.7192172134631
 20
402.8736950801745
 30
0.0
 10
251.1339515218114
 20
402.8735417375611
 30
0.0
 10
250.0824747936148
 20
402.8559554228036
 30
0.0
 10
248.5137404430826
 20
402.8019485626853
 30
0.0
 10
247.993974769904
 20
402.7793174472154
 30
0.0
 10
246.9801303046985
 20
402.7257931728947
 30
0.0
 10
246.4832393938629
 20
402.6948128708225
 30
0.0
 10
245.5091990508154
 20
402.6245509865099
 30
0.0
 10
245.0320485843911
 20
402.5852698391555
 30
0.0
 10
244.0976990063293
 20
402.4983180114754
 30
0.0
 10
243.6380774149191
 20
402.4503515052488
 30
0.0
 10
242.3105306078482
 20
402.2958038229967
 30
0.0
 10
241.4953289834389
 20
402.1792100272447
 30
0.0
 10
240.3742495738514
 20
401.9845631148623
 30
0.0
 10
240.0176405361297
 20
401.916362808871
 30
0.0
 10
239.3397035393835
 20
401.7731100540751
 30
0.0
 10
239.0213279137271
 20
401.6986233856322
 30
0.0
 10
238.1379993270746
 20
401.4694194902814
 30
0.0
 10
237.6391159479786
 20
401.3079594269801
 30
0.0
 10
237.028208962679
 20
401.0525508716099
 30
0.0
 10
236.8469811787738
 20
400.9647212400489
 30
0.0
 10
236.5386056587789
 20
400.7879714808304
 30
0.0
 10
236.4106107943028
 20
400.6988265917267
 30
0.0
 10
236.1032470584901
 20
400.4291394514959
 30
0.0
 10
236.0000000000005
 20
400.2463593981914
 30
0.0
 10
236.0000000000005
 20
400.0605441243151
 30
0.0
  0
LINE
  5
DD
330
1F
100
AcDbEntity
  8
0
  6
Continuous
 62
     8
370
    18
100
AcDbLine
 10
235.9999995798
 20
400.0605449141
 30
0.0
 11
236.0482234627
 21
399.8995099277
 31
0.0
  0
LINE
  5
DE
330
1F
100
AcDbEntity
  8
0
  6
Continuous
 62
     8
370
    18
100
AcDbLine
 10
268.2852465779
 20
399.8241026015
 30
0.0
 11
268.4000004202
 21
400.0605449141
 31
0.0
  0
SPLINE
  5
DF
330
1F
100
AcDbEntity
  8
0
  6
Continuous
 62
     8
370
    18
100
AcDbSpline
210
0.0
220
0.0
230
1.0
 70
     8
 71
     3
 72
    10
 73
     6
 74
     0
 42
0.000000001
 43
0.00000001
 40
0.0
 40
0.0
 40
0.0
 40
0.0
 40
0.5
 40
0.5
 40
1.0
 40
1.0
 40
1.0
 40
1.0
 10
268.6867066566128
 20
422.8876929841729
 30
0.0
 10
268.7454397833105
 20
422.8615641945125
 30
0.0
 10
268.7934691730332
 20
422.840009049883
 30
0.0
 10
268.8593247058224
 20
422.8103740855722
 30
0.0
 10
268.8772013272522
 20
422.8022828698797
 30
0.0
 10
268.8772011145896
 20
422.8022817942095
 30
0.0
  0
SPLINE
  5
E0
330
1F
100
AcDbEntity
  8
0
  6
Continuous
 62
     8
370
    18
100
AcDbSpline
210
0.0
220
0.0
230
1.0
 70
     8
 71
     3
 72
    10
 73
     6
 74
     0
 42
0.000000001
 43
0.00000001
 40
0.0
 40
0.0
 40
0.0
 40
0.0
 40
0.5
 40
0.5
 40
1.0
 40
1.0
 40
1.0
 40
1.0
 10
235.5227988859323
 20
422.802281791571
 30
0.0
 10
235.5227986731817
 20
422.802282867686
 30
0.0
 10
235.5404625213125
 20
422.8102776334076
 30
0.0
 10
235.6055866443373
 20
422.8395848607711
 30
0.0
 10
235.6530925522187
 20
422.8609068747194
 30
0.0
 10
235.7112504433366
 20
422.8867840789554
 30
0.0
  0
SPLINE
  5
E1
330
1F
100
AcDbEntity
  8
0
  6
Continuous
 62
     8
370
    18
100
AcDbSpline
210
0.0
220
0.0
230
1.0
 70
     8
 71
     3
 72
    34
 73
    30
 74
     0
 42
0.000000001
 43
0.00000001
 40
0.0
 40
0.0
 40
0.0
 40
0.0
 40
0.0325760871111272
 40
0.0619835549395158
 40
0.0924941937969742
 40
0.1230115859090351
 40
0.1505666422502676
 40
0.1994427861432214
 40
0.2451850880622507
 40
0.2885769575553848
 40
0.3204854823381016
 40
0.3502438976237372
 40
0.4066569413558889
 40
0.4587577437687776
 40
0.5083686971037741
 40
0.5579796504387695
 40
0.610080452851658
 40
0.6374750779916689
 40
0.6665884096065551
 40
0.6963462389992671
 40
0.7282553471551535
 40
0.7716466661721523
 40
0.817388911169428
 40
0.8662656595646413
 40
0.8938199762731631
 40
0.9243376624497597
 40
0.9548480203896312
 40
0.9842558482058692
 40
1.0
 40
1.0
 40
1.0
 40
1.0
 10
177.1999970197679
 20
442.3188708783348
 30
0.0
 10
177.7441256516313
 20
442.3078312827818
 30
0.0
 10
178.7794564705911
 20
442.2868258939168
 30
0.0
 10
180.3201040906204
 20
442.1218003734278
 30
0.0
 10
181.81850531717
 20
441.8676944848392
 30
0.0
 10
183.2738972098055
 20
441.5148883842406
 30
0.0
 10
185.0118746742907
 20
440.9694150036689
 30
0.0
 10
186.9595433923754
 20
440.1584210162767
 30
0.0
 10
189.0798731882568
 20
438.9611927544904
 30
0.0
 10
190.8448296323933
 20
437.6579756909015
 30
0.0
 10
192.2771861663934
 20
436.3243072398739
 30
0.0
 10
193.7681622931112
 20
434.6288462843346
 30
0.0
 10
195.2726884519378
 20
432.2964590563918
 30
0.0
 10
196.432708643698
 20
429.1408594106688
 30
0.0
 10
196.8303238542258
 20
425.8187361830073
 30
0.0
 10
196.4329103225795
 20
422.497435192767
 30
0.0
 10
195.4848860525298
 20
419.9187633510107
 30
0.0
 10
194.4080508825514
 20
418.00170033583
 30
0.0
 10
193.423958431901
 20
416.6174174390528
 30
0.0
 10
192.2770485170024
 20
415.313300673782
 30
0.0
 10
190.8449027174248
 20
413.9798348789388
 30
0.0
 10
189.0798678220151
 20
412.6765409014432
 30
0.0
 10
186.9595702959994
 20
411.4793552261788
 30
0.0
 10
185.0118964983609
 20
410.6682635313292
 30
0.0
 10
183.2739137059736
 20
410.1230049103098
 30
0.0
 10
181.8185570509575
 20
409.7694271401845
 30
0.0
 10
180.3200555216267
 20
409.5182394434784
 30
0.0
 10
179.0600639681442
 20
409.3743337126264
 30
0.0
 10
178.305991795878
 20
409.355378064674
 30
0.0
 10
178.0430525660516
 20
409.3487683744391
 30
0.0
  0
ELLIPSE
  5
E2
330
1F
100
AcDbEntity
  8
0
  6
Continuous
 62
     8
370
    18
100
AcDbEllipse
 10
327.2
 20
425.8188709677
 30
0.0
 11
19.5
 21
0.0
 31
0.0
210
0.0
220
0.0
230
1.0
 40
0.8461538462
 41
1.570796326794897
 42
4.712388980384701
  0
ELLIPSE
  5
E3
330
1F
100
AcDbEntity
  8
0
  6
Continuous
 62
     8
370
    18
100
AcDbEllipse
 10
252.2
 20
425.8188709677
 30
0.0
 11
19.5
 21
0.0
 31
0.0
210
0.0
220
0.0
230
1.0
 40
0.8461538462
 41
2.070499384753957
 42
3.693480823324797
  0
ELLIPSE
  5
E4
330
1F
100
AcDbEntity
  8
0
  6
Continuous
 62
     8
370
    18
100
AcDbEllipse
 10
252.2
 20
425.8188709677
 30
0.0
 11
19.5
 21
0.0
 31
0.0
210
0.0
220
0.0
230
1.0
 40
0.8461538462
 41
5.724566360328105
 42
7.354278573889198
  0
ARC
  5
E5
330
1F
100
AcDbEntity
  8
0
  6
Continuous
 62
     8
370
    18
100
AcDbCircle
 10
327.2
 20
425.8188709677
 30
0.0
 40
16.80000000000001
100
AcDbArc
 50
15.5367940682
 51
90.0
  0
ARC
  5
E6
330
1F
100
AcDbEntity
  8
0
  6
Continuous
 62
     8
370
    18
100
AcDbCircle
 10
327.2
 20
425.8188709677
 30
0.0
 40
16.80000000000006
100
AcDbArc
 50
259.1559374363
 51
344.4632059318
  0
LWPOLYLINE
  5
E7
330
1F
100
AcDbEntity
  8
0
  6
Continuous
 62
     8
370
    18
100
AcDbPolyline
 90
        3
 70
   128
 43
0.0
 10
324.0393027782
 20
442.3188708783
 10
324.7539028645
 20
442.4398403676
 10
327.2000029802
 20
442.6188703687
  0
LINE
  5
E8
330
1F
100
AcDbEntity
  8
0
  6
Continuous
 62
     7
370
    25
100
AcDbLine
 10
142.200000596
 20
292.8167709124
 30
0.0
 11
142.200000596
 21
280.6167692852
 31
0.0
  0
LINE
  5
E9
330
1F
100
AcDbEntity
  8
0
  6
Continuous
 62
     7
370
    25
100
AcDbLine
 10
212.2000008941
 20
280.6167692852
 30
0.0
 11
212.2000008941
 21
292.8167709124
 31
0.0
  0
ARC
  5
EA
330
1F
100
AcDbEntity
  8
0
  6
Continuous
 62
     7
370
    25
100
AcDbCircle
 10
211.4
 20
280.6167691243
 30
0.0
 40
0.8000000000000682
100
AcDbArc
 50
270.0
 51
0.0
  0
ARC
  5
EB
330
1F
100
AcDbEntity
  8
0
  6
Continuous
 62
     7
370
    25
100
AcDbCircle
 10
143.0
 20
280.6167691243
 30
0.0
 40
0.8000000000000682
100
AcDbArc
 50
180.0
 51
270.0
  0
SPLINE
  5
EC
330
1F
100
AcDbEntity
  8
0
  6
Continuous
 62
     7
370
    25
100
AcDbSpline
210
0.0
220
0.0
230
1.0
 70
     8
 71
     3
 72
    13
 73
     9
 74
     0
 42
0.000000001
 43
0.00000001
 40
0.0
 40
0.0
 40
0.0
 40
0.0
 40
0.2394870515136201
 40
0.3683856792283656
 40
0.5000100556586575
 40
0.6316303240172687
 40
0.7605234823586138
 40
0.9999999999999999
 40
0.9999999999999999
 40
0.9999999999999999
 40
0.9999999999999999
 10
269.2000009238721
 20
189.0156173121775
 30
0.0
 10
269.1933227780423
 20
189.078510671379
 30
0.0
 10
269.183050267391
 20
189.1752549951408
 30
0.0
 10
269.1206943750179
 20
189.291677800055
 30
0.0
 10
269.0561555988104
 20
189.3717823513458
 30
0.0
 10
268.9760438800826
 20
189.4363137876873
 30
0.0
 10
268.8596155068871
 20
189.4986699904968
 30
0.0
 10
268.7628563272537
 20
189.5089388388322
 30
0.0
 10
268.6999533444644
 20
189.5156146001662
 30
0.0
  0
SPLINE
  5
ED
330
1F
100
AcDbEntity
  8
0
  6
Continuous
 62
     7
370
    25
100
AcDbSpline
210
0.0
220
0.0
230
1.0
 70
     8
 71
     3
 72
    13
 73
     9
 74
     0
 42
0.000000001
 43
0.00000001
 40
0.0
 40
0.0
 40
0.0
 40
0.0
 40
0.2394765176413862
 40
0.3683696759827312
 40
0.4999899443413424
 40
0.6316143207716343
 40
0.7605129484863798
 40
1.0
 40
1.0
 40
1.0
 40
1.0
 10
235.7000466555358
 20
189.5156146001662
 30
0.0
 10
235.6371436727465
 20
189.5089388388322
 30
0.0
 10
235.5403844931131
 20
189.4986699904968
 30
0.0
 10
235.4239561199176
 20
189.4363137876873
 30
0.0
 10
235.3438444011898
 20
189.3717823513457
 30
0.0
 10
235.2793056249822
 20
189.291677800055
 30
0.0
 10
235.2169497326091
 20
189.1752549951408
 30
0.0
 10
235.2066772219579
 20
189.078510671379
 30
0.0
 10
235.1999990761281
 20
189.0156173121775
 30
0.0
  0
SPLINE
  5
EE
330
1F
100
AcDbEntity
  8
0
  6
Continuous
 62
     7
370
    25
100
AcDbSpline
210
0.0
220
0.0
230
1.0
 70
     8
 71
     3
 72
    13
 73
     9
 74
     0
 42
0.000000001
 43
0.00000001
 40
0.0
 40
0.0
 40
0.0
 40
0.0
 40
0.2394865174352999
 40
0.3683890744081601
 40
0.5000094711151095
 40
0.63163244045204
 40
0.7605231267689868
 40
1.0
 40
1.0
 40
1.0
 40
1.0
 10
235.1999990761281
 20
166.0156154048289
 30
0.0
 10
235.2066778665597
 20
165.9527224495813
 30
0.0
 10
235.216951486351
 20
165.8559776398168
 30
0.0
 10
235.2793031342413
 20
165.7395518331567
 30
0.0
 10
235.3438472293191
 20
165.6594508679669
 30
0.0
 10
235.4239536304185
 20
165.5949139177427
 30
0.0
 10
235.5403867728677
 20
165.5325654168071
 30
0.0
 10
235.6371442952938
 20
165.5222927097309
 30
0.0
 10
235.7000466555358
 20
165.5156143915499
 30
0.0
  0
SPLINE
  5
EF
330
1F
100
AcDbEntity
  8
0
  6
Continuous
 62
     7
370
    25
100
AcDbSpline
210
0.0
220
0.0
230
1.0
 70
     8
 71
     3
 72
    13
 73
     9
 74
     0
 42
0.000000001
 43
0.00000001
 40
0.0
 40
0.0
 40
0.0
 40
0.0
 40
0.2394768732310131
 40
0.36836755954796
 40
0.4999905288848905
 40
0.63161092559184
 40
0.7605134825647001
 40
1.0
 40
1.0
 40
1.0
 40
1.0
 10
268.6999533444644
 20
165.5156143915499
 30
0.0
 10
268.7628557047065
 20
165.5222927097309
 30
0.0
 10
268.8596132271324
 20
165.532565416807
 30
0.0
 10
268.9760463695817
 20
165.5949139177427
 30
0.0
 10
269.0561527706811
 20
165.659450867967
 30
0.0
 10
269.1206968657589
 20
165.7395518331567
 30
0.0
 10
269.1830485136492
 20
165.8559776398168
 30
0.0
 10
269.1933221334405
 20
165.9527224495813
 30
0.0
 10
269.2000009238721
 20
166.0156154048289
 30
0.0
  0
LINE
  5
F0
330
1F
100
AcDbEntity
  8
0
  6
Continuous
 62
     7
370
    25
100
AcDbLine
 10
235.1999990761
 20
189.0156173122
 30
0.0
 11
235.1999990761
 21
166.0156154048
 31
0.0
  0
LINE
  5
F1
330
1F
100
AcDbEntity
  8
0
  6
Continuous
 62
     7
370
    25
100
AcDbLine
 10
269.2000009239
 20
166.0156154048
 30
0.0
 11
269.2000009239
 21
189.0156173122
 31
0.0
  0
ARC
  5
F2
330
1F
100
AcDbEntity
  8
0
  6
Continuous
 62
     7
370
    25
100
AcDbCircle
 10
194.0
 20
279.0167691243
 30
0.0
 40
0.799999999999983
100
AcDbArc
 50
90.0
 51
180.0
  0
ARC
  5
F3
330
1F
100
AcDbEntity
  8
0
  6
Continuous
 62
     7
370
    25
100
AcDbCircle
 10
160.4
 20
279.0167691243
 30
0.0
 40
0.8000000000000114
100
AcDbArc
 50
0.0
 51
90.0
  0
LINE
  5
F4
330
1F
100
AcDbEntity
  8
0
  6
Continuous
 62
     7
370
    25
100
AcDbLine
 10
160.7000008345
 20
247.6167691293
 30
0.0
 11
160.7000008345
 21
194.0167673838
 31
0.0
  0
LINE
  5
F5
330
1F
100
AcDbEntity
  8
0
  6
Continuous
 62
     7
370
    25
100
AcDbLine
 10
193.7000006557
 20
236.2167692718
 30
0.0
 11
193.7000006557
 21
247.6167691293
 31
0.0
  0
LINE
  5
F6
330
1F
100
AcDbEntity
  8
0
  6
Continuous
 62
     7
370
    25
100
AcDbLine
 10
193.7000006557
 20
194.0167673838
 30
0.0
 11
193.7000006557
 21
197.2167693984
 31
0.0
  0
ARC
  5
F7
330
1F
100
AcDbEntity
  8
0
  6
Continuous
 62
     7
370
    25
100
AcDbCircle
 10
196.7
 20
236.2167691243
 30
0.0
 40
3.00000000000002
100
AcDbArc
 50
181.7061647009
 51
268.1957384601
  0
LINE
  5
F8
330
1F
100
AcDbEntity
  8
0
  6
Continuous
 62
     7
370
    25
100
AcDbLine
 10
307.7000007153
 20
233.21676878
 30
0.0
 11
196.6999992847
 21
233.21676878
 31
0.0
  0
LINE
  5
F9
330
1F
100
AcDbEntity
  8
0
  6
Continuous
 62
     7
370
    25
100
AcDbLine
 10
271.7000004023
 20
200.2167680275
 30
0.0
 11
307.7000007153
 21
200.2167680275
 31
0.0
  0
LINE
  5
FA
330
1F
100
AcDbEntity
  8
0
  6
Continuous
 62
     7
370
    25
100
AcDbLine
 10
196.6999992847
 20
200.2167680275
 30
0.0
 11
232.6999995977
 21
200.2167680275
 31
0.0
  0
SPLINE
  5
FB
330
1F
100
AcDbEntity
  8
0
  6
Continuous
 62
     7
370
    25
100
AcDbSpline
210
0.0
220
0.0
230
1.0
 70
     8
 71
     3
 72
    13
 73
     9
 74
     0
 42
0.000000001
 43
0.00000001
 40
0.0
 40
0.0
 40
0.0
 40
0.0
 40
0.2319262220894223
 40
0.3525391208391299
 40
0.4709478912342921
 40
0.5907903966019425
 40
0.7205165774925081
 40
1.0
 40
1.0
 40
1.0
 40
1.0
 10
193.7000006556512
 20
197.2167693984355
 30
0.0
 10
193.7040016513974
 20
197.6042138615759
 30
0.0
 10
193.710083359236
 20
198.1931482613993
 30
0.0
 10
193.9287906780704
 20
198.9511041110877
 30
0.0
 10
194.2342215107684
 20
199.4739717513808
 30
0.0
 10
194.7143758994041
 20
199.8714376895189
 30
0.0
 10
195.5440484687466
 20
200.1994098542502
 30
0.0
 10
196.2308946500916
 20
200.2097237835856
 30
0.0
 10
196.6999992847444
 20
200.2167680275286
 30
0.0
  0
ARC
  5
FC
330
1F
100
AcDbEntity
  8
0
  6
Continuous
 62
     7
370
    25
100
AcDbCircle
 10
193.5
 20
247.6167691243
 30
0.0
 40
0.2000000000000171
100
AcDbArc
 50
0.0
 51
90.0
  0
ARC
  5
FD
330
1F
100
AcDbEntity
  8
0
  6
Continuous
 62
     7
370
    25
100
AcDbCircle
 10
160.9
 20
247.6167691243
 30
0.0
 40
0.2000000000000171
100
AcDbArc
 50
90.0
 51
180.0
  0
LINE
  5
FE
330
1F
100
AcDbEntity
  8
0
  6
Continuous
 62
     7
370
    25
100
AcDbLine
 10
310.6999993443
 20
197.2167693984
 30
0.0
 11
310.6999993443
 21
194.0167673838
 31
0.0
  0
LINE
  5
FF
330
1F
100
AcDbEntity
  8
0
  6
Continuous
 62
     7
370
    25
100
AcDbLine
 10
310.6999993443
 20
247.6167691293
 30
0.0
 11
310.6999993443
 21
236.2167692718
 31
0.0
  0
LINE
  5
100
330
1F
100
AcDbEntity
  8
0
  6
Continuous
 62
     7
370
    25
100
AcDbLine
 10
343.6999991655
 20
194.0167673838
 30
0.0
 11
343.6999991655
 21
247.6167691293
 31
0.0
  0
ARC
  5
101
330
1F
100
AcDbEntity
  8
0
  6
Continuous
 62
     7
370
    25
100
AcDbCircle
 10
343.5
 20
247.6167691243
 30
0.0
 40
0.2000000000000455
100
AcDbArc
 50
0.0
 51
90.0
  0
ARC
  5
102
330
1F
100
AcDbEntity
  8
0
  6
Continuous
 62
     7
370
    25
100
AcDbCircle
 10
310.9
 20
247.6167691243
 30
0.0
 40
0.2000000000000171
100
AcDbArc
 50
90.0
 51
180.0
  0
ARC
  5
103
330
1F
100
AcDbEntity
  8
0
  6
Continuous
 62
     7
370
    25
100
AcDbCircle
 10
307.7
 20
236.2167691243
 30
0.0
 40
3.000000000000012
100
AcDbArc
 50
271.7061647009
 51
358.1957384601
  0
LINE
  5
104
330
1F
100
AcDbEntity
  8
0
  6
Continuous
 62
     7
370
    25
100
AcDbLine
 10
268.6999999106
 20
189.9667696071
 30
0.0
 11
268.6999999106
 21
197.2167693984
 31
0.0
  0
LINE
  5
105
330
1F
100
AcDbEntity
  8
0
  6
Continuous
 62
     7
370
    25
100
AcDbLine
 10
235.7000000894
 20
197.2167693984
 30
0.0
 11
235.7000000894
 21
189.9667696071
 31
0.0
  0
ARC
  5
106
330
1F
100
AcDbEntity
  8
0
  6
Continuous
 62
     7
370
    25
100
AcDbCircle
 10
232.7
 20
197.2167691243
 30
0.0
 40
3.00000000000002
100
AcDbArc
 50
1.7061647009
 51
88.1957384601
  0
ARC
  5
107
330
1F
100
AcDbEntity
  8
0
  6
Continuous
 62
     7
370
    25
100
AcDbCircle
 10
271.7
 20
197.2167691243
 30
0.0
 40
3.000000000000043
100
AcDbArc
 50
91.7061647009
 51
178.1957384601
  0
ARC
  5
108
330
1F
100
AcDbEntity
  8
0
  6
Continuous
 62
     7
370
    25
100
AcDbCircle
 10
307.7
 20
197.2167691243
 30
0.0
 40
3.00000000000002
100
AcDbArc
 50
1.7061647009
 51
88.1957384601
  0
ARC
  5
109
330
1F
100
AcDbEntity
  8
0
  6
Continuous
 62
     7
370
    25
100
AcDbCircle
 10
161.0
 20
193.5167691243
 30
0.0
 40
0.3000000000000114
100
AcDbArc
 50
90.0
 51
180.0
  0
ARC
  5
10A
330
1F
100
AcDbEntity
  8
0
  6
Continuous
 62
     7
370
    25
100
AcDbCircle
 10
193.4
 20
193.5167691243
 30
0.0
 40
0.3000000000000114
100
AcDbArc
 50
0.0
 51
90.0
  0
LINE
  5
10B
330
1F
100
AcDbEntity
  8
0
  6
Continuous
 62
     7
370
    25
100
AcDbLine
 10
160.7000008345
 20
193.5167700958
 30
0.0
 11
160.7000008345
 21
190.0167704534
 31
0.0
  0
LINE
  5
10C
330
1F
100
AcDbEntity
  8
0
  6
Continuous
 62
     7
370
    25
100
AcDbLine
 10
193.7000006557
 20
190.0167704534
 30
0.0
 11
193.7000006557
 21
193.5167700958
 31
0.0
  0
ARC
  5
10D
330
1F
100
AcDbEntity
  8
0
  6
Continuous
 62
     7
370
    25
100
AcDbCircle
 10
193.0
 20
190.0167691243
 30
0.0
 40
0.700000000000017
100
AcDbArc
 50
270.0
 51
0.0
  0
ARC
  5
10E
330
1F
100
AcDbEntity
  8
0
  6
Continuous
 62
     7
370
    25
100
AcDbCircle
 10
161.4
 20
190.0167691243
 30
0.0
 40
0.6999999999999886
100
AcDbArc
 50
180.0
 51
270.0
  0
ARC
  5
10F
330
1F
100
AcDbEntity
  8
0
  6
Continuous
 62
     7
370
    25
100
AcDbCircle
 10
160.9
 20
194.0167691243
 30
0.0
 40
0.1999999999999886
100
AcDbArc
 50
180.0
 51
270.0
  0
ARC
  5
110
330
1F
100
AcDbEntity
  8
0
  6
Continuous
 62
     7
370
    25
100
AcDbCircle
 10
193.5
 20
194.0167691243
 30
0.0
 40
0.2000000000000171
100
AcDbArc
 50
270.0
 51
0.0
  0
ARC
  5
111
330
1F
100
AcDbEntity
  8
0
  6
Continuous
 62
     7
370
    25
100
AcDbCircle
 10
310.9
 20
194.0167691243
 30
0.0
 40
0.1999999999999886
100
AcDbArc
 50
180.0
 51
270.0
  0
ARC
  5
112
330
1F
100
AcDbEntity
  8
0
  6
Continuous
 62
     7
370
    25
100
AcDbCircle
 10
343.5
 20
194.0167691243
 30
0.0
 40
0.2000000000000455
100
AcDbArc
 50
270.0
 51
0.0
  0
ARC
  5
113
330
1F
100
AcDbEntity
  8
0
  6
Continuous
 62
     7
370
    25
100
AcDbCircle
 10
268.5
 20
189.9667691243
 30
0.0
 40
0.2000000000000455
100
AcDbArc
 50
270.0
 51
0.0
  0
ARC
  5
114
330
1F
100
AcDbEntity
  8
0
  6
Continuous
 62
     7
370
    25
100
AcDbCircle
 10
235.9
 20
189.9667691243
 30
0.0
 40
0.2000000000000171
100
AcDbArc
 50
180.0
 51
270.0
  0
LINE
  5
115
330
1F
100
AcDbEntity
  8
0
  6
Continuous
 62
     7
370
    25
100
AcDbLine
 10
161.2000018477
 20
279.0167682779
 30
0.0
 11
161.2000018477
 21
267.616769017
 31
0.0
  0
LINE
  5
116
330
1F
100
AcDbEntity
  8
0
  6
Continuous
 62
     7
370
    25
100
AcDbLine
 10
193.1999996424
 20
267.616769017
 30
0.0
 11
193.1999996424
 21
279.0167682779
 31
0.0
  0
ARC
  5
117
330
1F
100
AcDbEntity
  8
0
  6
Continuous
 62
     7
370
    25
100
AcDbCircle
 10
192.4
 20
267.6167691243
 30
0.0
 40
0.8000000000000114
100
AcDbArc
 50
270.0
 51
0.0
  0
ARC
  5
118
330
1F
100
AcDbEntity
  8
0
  6
Continuous
 62
     7
370
    25
100
AcDbCircle
 10
162.0
 20
267.6167691243
 30
0.0
 40
0.799999999999983
100
AcDbArc
 50
180.0
 51
270.0
  0
LINE
  5
119
330
1F
100
AcDbEntity
  8
0
  6
Continuous
 62
     7
370
    25
100
AcDbLine
 10
193.1999996424
 20
248.8167691718
 30
0.0
 11
193.1999996424
 21
265.8167683494
 31
0.0
  0
LINE
  5
11A
330
1F
100
AcDbEntity
  8
0
  6
Continuous
 62
     7
370
    25
100
AcDbLine
 10
161.2000018477
 20
265.8167683494
 30
0.0
 11
161.2000018477
 21
248.8167691718
 31
0.0
  0
LINE
  5
11B
330
1F
100
AcDbEntity
  8
0
  6
Continuous
 62
     7
370
    25
100
AcDbLine
 10
340.4207676768
 20
265.8167683494
 30
0.0
 11
340.4207676768
 21
266.8167685133
 31
0.0
  0
LINE
  5
11C
330
1F
100
AcDbEntity
  8
0
  6
Continuous
 62
     7
370
    25
100
AcDbLine
 10
313.9792345583
 20
266.8167685133
 30
0.0
 11
313.9792345583
 21
265.8167683494
 31
0.0
  0
LINE
  5
11D
330
1F
100
AcDbEntity
  8
0
  6
Continuous
 62
     7
370
    25
100
AcDbLine
 10
190.4207654417
 20
265.8167683494
 30
0.0
 11
190.4207654417
 21
266.8167685133
 31
0.0
  0
LINE
  5
11E
330
1F
100
AcDbEntity
  8
0
  6
Continuous
 62
     7
370
    25
100
AcDbLine
 10
163.9792323232
 20
266.8167685133
 30
0.0
 11
163.9792323232
 21
265.8167683494
 31
0.0
  0
LINE
  5
11F
330
1F
100
AcDbEntity
  8
0
  6
Continuous
 62
     7
370
    25
100
AcDbLine
 10
187.7000033975
 20
247.8167691243
 30
0.0
 11
187.7000033975
 21
248.8167691718
 31
0.0
  0
LINE
  5
120
330
1F
100
AcDbEntity
  8
0
  6
Continuous
 62
     7
370
    25
100
AcDbLine
 10
166.6999980927
 20
248.8167691718
 30
0.0
 11
166.6999980927
 21
247.8167691243
 31
0.0
  0
LINE
  5
121
330
1F
100
AcDbEntity
  8
0
  6
Continuous
 62
     7
370
    25
100
AcDbLine
 10
337.6958221316
 20
247.8167691243
 30
0.0
 11
337.6958221316
 21
248.8167691718
 31
0.0
  0
LINE
  5
122
330
1F
100
AcDbEntity
  8
0
  6
Continuous
 62
     7
370
    25
100
AcDbLine
 10
316.7041763783
 20
248.8167691718
 30
0.0
 11
316.7041763783
 21
247.8167691243
 31
0.0
  0
LINE
  5
123
330
1F
100
AcDbEntity
  8
0
  6
Continuous
 62
     7
370
    25
100
AcDbLine
 10
169.200003159
 20
189.3167697799
 30
0.0
 11
169.200003159
 21
183.0167674434
 31
0.0
  0
LINE
  5
124
330
1F
100
AcDbEntity
  8
0
  6
Continuous
 62
     7
370
    25
100
AcDbLine
 10
185.1999983311
 20
173.8167681706
 30
0.0
 11
185.1999983311
 21
189.3167697799
 31
0.0
  0
ARC
  5
125
330
1F
100
AcDbEntity
  8
0
  6
Continuous
 62
     7
370
    25
100
AcDbCircle
 10
184.4
 20
173.8167691243
 30
0.0
 40
0.799999999999983
100
AcDbArc
 50
270.0
 51
0.0
  0
ARC
  5
126
330
1F
100
AcDbEntity
  8
0
  6
Continuous
 62
     7
370
    25
100
AcDbCircle
 10
168.2
 20
183.0167691243
 30
0.0
 40
1.0
100
AcDbArc
 50
270.0
 51
0.0
  0
LINE
  5
127
330
1F
100
AcDbEntity
  8
0
  6
Continuous
 62
     7
370
    25
100
AcDbLine
 10
292.1999991059
 20
292.8167709124
 30
0.0
 11
292.1999991059
 21
280.6167692852
 31
0.0
  0
LINE
  5
128
330
1F
100
AcDbEntity
  8
0
  6
Continuous
 62
     7
370
    25
100
AcDbLine
 10
362.199999404
 20
280.6167692852
 30
0.0
 11
362.199999404
 21
292.8167709124
 31
0.0
  0
ARC
  5
129
330
1F
100
AcDbEntity
  8
0
  6
Continuous
 62
     7
370
    25
100
AcDbCircle
 10
361.4
 20
280.6167691243
 30
0.0
 40
0.8000000000000682
100
AcDbArc
 50
270.0
 51
0.0
  0
ARC
  5
12A
330
1F
100
AcDbEntity
  8
0
  6
Continuous
 62
     7
370
    25
100
AcDbCircle
 10
293.0
 20
280.6167691243
 30
0.0
 40
0.8000000000000682
100
AcDbArc
 50
180.0
 51
270.0
  0
ARC
  5
12B
330
1F
100
AcDbEntity
  8
0
  6
Continuous
 62
     7
370
    25
100
AcDbCircle
 10
344.0
 20
279.0167691243
 30
0.0
 40
0.8000000000000114
100
AcDbArc
 50
90.0
 51
180.0
  0
ARC
  5
12C
330
1F
100
AcDbEntity
  8
0
  6
Continuous
 62
     7
370
    25
100
AcDbCircle
 10
310.4
 20
279.0167691243
 30
0.0
 40
0.7999999999999545
100
AcDbArc
 50
0.0
 51
90.0
  0
LINE
  5
12D
330
1F
100
AcDbEntity
  8
0
  6
Continuous
 62
     7
370
    25
100
AcDbLine
 10
311.2000003576
 20
279.0167682779
 30
0.0
 11
311.2000003576
 21
267.616769017
 31
0.0
  0
LINE
  5
12E
330
1F
100
AcDbEntity
  8
0
  6
Continuous
 62
     7
370
    25
100
AcDbLine
 10
343.1999981523
 20
267.616769017
 30
0.0
 11
343.1999981523
 21
279.0167682779
 31
0.0
  0
ARC
  5
12F
330
1F
100
AcDbEntity
  8
0
  6
Continuous
 62
     7
370
    25
100
AcDbCircle
 10
342.4
 20
267.6167691243
 30
0.0
 40
0.7999999999999545
100
AcDbArc
 50
270.0
 51
0.0
  0
ARC
  5
130
330
1F
100
AcDbEntity
  8
0
  6
Continuous
 62
     7
370
    25
100
AcDbCircle
 10
312.0
 20
267.6167691243
 30
0.0
 40
0.8000000000000114
100
AcDbArc
 50
180.0
 51
270.0
  0
LINE
  5
131
330
1F
100
AcDbEntity
  8
0
  6
Continuous
 62
     7
370
    25
100
AcDbLine
 10
319.2000016689
 20
189.3167697799
 30
0.0
 11
319.2000016689
 21
173.8167681706
 31
0.0
  0
LINE
  5
132
330
1F
100
AcDbEntity
  8
0
  6
Continuous
 62
     7
370
    25
100
AcDbLine
 10
335.199996841
 20
183.0167674434
 30
0.0
 11
335.199996841
 21
189.3167697799
 31
0.0
  0
ARC
  5
133
330
1F
100
AcDbEntity
  8
0
  6
Continuous
 62
     7
370
    25
100
AcDbCircle
 10
320.0
 20
173.8167691243
 30
0.0
 40
0.799999999999983
100
AcDbArc
 50
180.0
 51
270.0
  0
ARC
  5
134
330
1F
100
AcDbEntity
  8
0
  6
Continuous
 62
     7
370
    25
100
AcDbCircle
 10
336.2
 20
183.0167691243
 30
0.0
 40
1.0
100
AcDbArc
 50
180.0
 51
270.0
  0
LINE
  5
135
330
1F
100
AcDbEntity
  8
0
  6
Continuous
 62
     7
370
    25
100
AcDbLine
 10
311.2000003576
 20
265.8167683494
 30
0.0
 11
311.2000003576
 21
248.8167691718
 31
0.0
  0
LINE
  5
136
330
1F
100
AcDbEntity
  8
0
  6
Continuous
 62
     7
370
    25
100
AcDbLine
 10
343.1999981523
 20
248.8167691718
 30
0.0
 11
343.1999981523
 21
265.8167683494
 31
0.0
  0
ARC
  5
137
330
1F
100
AcDbEntity
  8
0
  6
Continuous
 62
     7
370
    25
100
AcDbCircle
 10
311.0
 20
193.5167691243
 30
0.0
 40
0.3000000000000114
100
AcDbArc
 50
90.0
 51
180.0
  0
ARC
  5
138
330
1F
100
AcDbEntity
  8
0
  6
Continuous
 62
     7
370
    25
100
AcDbCircle
 10
343.4
 20
193.5167691243
 30
0.0
 40
0.3000000000000114
100
AcDbArc
 50
0.0
 51
90.0
  0
LINE
  5
139
330
1F
100
AcDbEntity
  8
0
  6
Continuous
 62
     7
370
    25
100
AcDbLine
 10
310.6999993443
 20
193.5167700958
 30
0.0
 11
310.6999993443
 21
190.0167704534
 31
0.0
  0
LINE
  5
13A
330
1F
100
AcDbEntity
  8
0
  6
Continuous
 62
     7
370
    25
100
AcDbLine
 10
343.6999991655
 20
190.0167704534
 30
0.0
 11
343.6999991655
 21
193.5167700958
 31
0.0
  0
ARC
  5
13B
330
1F
100
AcDbEntity
  8
0
  6
Continuous
 62
     7
370
    25
100
AcDbCircle
 10
343.0
 20
190.0167691243
 30
0.0
 40
0.7000000000000455
100
AcDbArc
 50
270.0
 51
0.0
  0
ARC
  5
13C
330
1F
100
AcDbEntity
  8
0
  6
Continuous
 62
     7
370
    25
100
AcDbCircle
 10
311.4
 20
190.0167691243
 30
0.0
 40
0.6999999999999886
100
AcDbArc
 50
180.0
 51
270.0
  0
LINE
  5
13D
330
1F
100
AcDbEntity
  8
0
  6
Continuous
 62
     7
370
    25
100
AcDbLine
 10
177.1999970198
 20
292.8167709124
 30
0.0
 11
212.2000008941
 21
292.8167709124
 31
0.0
  0
LINE
  5
13E
330
1F
100
AcDbEntity
  8
0
  6
Continuous
 62
     7
370
    25
100
AcDbLine
 10
142.200000596
 20
292.8167709124
 30
0.0
 11
177.1999970198
 21
292.8167709124
 31
0.0
  0
LINE
  5
13F
330
1F
100
AcDbEntity
  8
0
  6
Continuous
 62
     7
370
    25
100
AcDbLine
 10
211.3999985278
 20
279.8167706442
 30
0.0
 11
142.9999992371
 21
279.8167706442
 31
0.0
  0
ARC
  5
140
330
1F
100
AcDbEntity
  8
0
  6
Continuous
 62
     7
370
    25
100
AcDbCircle
 10
235.9000000161
 20
165.0667691243
 30
0.0
 40
0.2000000000000171
100
AcDbArc
 50
90.0
 51
180.0000000381
  0
SPLINE
  5
141
330
1F
100
AcDbEntity
  8
0
  6
Continuous
 62
     7
370
    25
100
AcDbSpline
210
0.0
220
0.0
230
1.0
 70
    24
 71
     3
 72
    52
 73
    48
 74
     0
 42
0.000000001
 43
0.00000001
 40
0.0
 40
0.0
 40
0.0
 40
0.0
 40
0.0625
 40
0.0625
 40
0.1249999999999999
 40
0.1249999999999999
 40
0.1562499999999999
 40
0.1562499999999999
 40
0.1875
 40
0.1875
 40
0.2499999999999999
 40
0.2499999999999999
 40
0.3124999999999999
 40
0.3124999999999999
 40
0.3437499999999999
 40
0.3437499999999999
 40
0.3749999999999999
 40
0.3749999999999999
 40
0.4374999999999999
 40
0.4374999999999999
 40
0.4687499999999999
 40
0.4687499999999999
 40
0.4999999999999999
 40
0.4999999999999999
 40
0.5624999999999999
 40
0.5624999999999999
 40
0.5937499999999999
 40
0.5937499999999999
 40
0.6249999999999998
 40
0.6249999999999998
 40
0.6562499999999998
 40
0.6562499999999998
 40
0.6874999999999998
 40
0.6874999999999998
 40
0.7499999999999999
 40
0.7499999999999999
 40
0.7812499999999999
 40
0.7812499999999999
 40
0.8124999999999999
 40
0.8124999999999999
 40
0.8749999999999999
 40
0.8749999999999999
 40
0.90625
 40
0.90625
 40
0.9375
 40
0.9375
 40
1.0
 40
1.0
 40
1.0
 40
1.0
 10
235.9000000161485
 20
165.2667691242541
 30
0.0
 10
235.9000000161485
 20
165.2667691242541
 30
0.0
 10
236.0061935219746
 20
165.2667691242541
 30
0.0
 10
236.422261191222
 20
165.2667691242541
 30
0.0
 10
236.7307713991176
 20
165.2667691242541
 30
0.0
 10
237.3461106015428
 20
165.2667691242541
 30
0.0
 10
237.5781405641184
 20
165.2667691242541
 30
0.0
 10
238.0842382305658
 20
165.2667691242541
 30
0.0
 10
238.3589325300187
 20
165.2667691242541
 30
0.0
 10
239.2462890675922
 20
165.2667691242541
 30
0.0
 10
239.9225051202523
 20
165.2667691242541
 30
0.0
 10
241.4451702829488
 20
165.266769124254
 30
0.0
 10
242.2682713940252
 20
165.2667691242541
 30
0.0
 10
243.5925113484776
 20
165.2667691242541
 30
0.0
 10
244.0489729788626
 20
165.2667691242541
 30
0.0
 10
244.9928671469113
 20
165.2667691242541
 30
0.0
 10
245.4811546042431
 20
165.266769124254
 30
0.0
 10
246.9604806765209
 20
165.266769124254
 30
0.0
 10
247.9761559516366
 20
165.266769124254
 30
0.0
 10
249.5435836485256
 20
165.2667691242541
 30
0.0
 10
250.075677144362
 20
165.2667691242541
 30
0.0
 10
251.1445658723911
 20
165.2667691242542
 30
0.0
 10
251.677586973298
 20
165.2667691242541
 30
0.0
 10
253.2725756816744
 20
165.2667691242541
 30
0.0
 10
254.3304950688573
 20
165.2667691242541
 30
0.0
 10
255.9088328633376
 20
165.2667691242541
 30
0.0
 10
256.4318000776526
 20
165.2667691242541
 30
0.0
 10
257.4518838255912
 20
165.2667691242541
 30
0.0
 10
257.9518332853031
 20
165.2667691242542
 30
0.0
 10
258.9318703000498
 20
165.2667691242542
 30
0.0
 10
259.4119588884835
 20
165.2667691242541
 30
0.0
 10
260.3520625870592
 20
165.2667691242541
 30
0.0
 10
260.8145134257969
 20
165.2667691242541
 30
0.0
 10
262.1502748055384
 20
165.2667691242541
 30
0.0
 10
262.9705233877987
 20
165.266769124254
 30
0.0
 10
264.0985439073655
 20
165.266769124254
 30
0.0
 10
264.4573610132673
 20
165.2667691242541
 30
0.0
 10
265.1394960480955
 20
165.2667691242541
 30
0.0
 10
265.459853146894
 20
165.2667691242541
 30
0.0
 10
266.3486677337549
 20
165.266769124254
 30
0.0
 10
266.8506489537095
 20
165.2667691242542
 30
0.0
 10
267.4653548664758
 20
165.2667691242542
 30
0.0
 10
267.6477114421451
 20
165.2667691242542
 30
0.0
 10
267.9580121449978
 20
165.2667691242541
 30
0.0
 10
268.0868075379061
 20
165.2667691242541
 30
0.0
 10
268.396097677439
 20
165.2667691242541
 30
0.0
 10
268.4999999838512
 20
165.2667691242541
 30
0.0
 10
268.4999999838508
 20
165.2667691242541
 30
0.0
  0
ARC
  5
142
330
1F
100
AcDbEntity
  8
0
  6
Continuous
 62
     7
370
    25
100
AcDbCircle
 10
268.4999999839
 20
165.0667691243
 30
0.0
 40
0.2000000000000171
100
AcDbArc
 50
359.9999999619
 51
90.0
  0
SPLINE
  5
143
330
1F
100
AcDbEntity
  8
0
  6
Continuous
 62
     7
370
    25
100
AcDbSpline
210
0.0
220
0.0
230
1.0
 70
    24
 71
     3
 72
    45
 73
    41
 74
     0
 42
0.000000001
 43
0.00000001
 40
0.0
 40
0.0
 40
0.0
 40
0.0
 40
0.0068523140445195
 40
0.0137015662240337
 40
0.0205508806530305
 40
0.0274033813608569
 40
0.0342621880230307
 40
0.0519338988400258
 40
0.0696156366552276
 40
0.0877494713919183
 40
0.1058935953606362
 40
0.1428781711938998
 40
0.1803545247694336
 40
0.2180739750393517
 40
0.2557779932282087
 40
0.2932086813109442
 40
0.3301191871552669
 40
0.3662830281382372
 40
0.4015014908139959
 40
0.4356085995811911
 40
0.468473517916723
 40
0.5000005778998816
 40
0.5315276378830391
 40
0.564392556218572
 40
0.5984996649857669
 40
0.6337181276615251
 40
0.6698819686444958
 40
0.7067924744888182
 40
0.7442231625715535
 40
0.7819271807604108
 40
0.8196466310303291
 40
0.8571229846058626
 40
0.894107560439126
 40
0.9122413953611906
 40
0.9303855195204132
 40
0.948057230553095
 40
0.9657389685900821
 40
0.9771572120181904
 40
0.9885727360669276
 40
0.9999999999999999
 40
0.9999999999999999
 40
0.9999999999999999
 40
0.9999999999999999
 10
235.7014449699583
 20
189.5156156242541
 30
0.0
 10
235.7037163119542
 20
189.5156156242541
 30
0.0
 10
235.7082579810271
 20
189.5156156242541
 30
0.0
 10
235.7245921967069
 20
189.5156156242541
 30
0.0
 10
235.7478955904184
 20
189.515615624254
 30
0.0
 10
235.7788532040062
 20
189.5156156242541
 30
0.0
 10
235.8374427608881
 20
189.5156156242541
 30
0.0
 10
235.9436691492243
 20
189.5156156242541
 30
0.0
 10
236.1280217391815
 20
189.5156156242541
 30
0.0
 10
236.3641139738989
 20
189.5156156242541
 30
0.0
 10
236.7527304326244
 20
189.5156156242541
 30
0.0
 10
237.3726333265303
 20
189.5156156242541
 30
0.0
 10
238.3236880558858
 20
189.5156156242541
 30
0.0
 10
239.4712703443713
 20
189.5156156242541
 30
0.0
 10
240.7934583357664
 20
189.5156156242541
 30
0.0
 10
242.2612847740793
 20
189.5156156242541
 30
0.0
 10
243.8407525799394
 20
189.5156156242541
 30
0.0
 10
245.4953185059677
 20
189.5156156242541
 30
0.0
 10
247.1884102406579
 20
189.5156156242541
 30
0.0
 10
248.8856654965151
 20
189.5156156242541
 30
0.0
 10
250.5566672792962
 20
189.5156156242541
 30
0.0
 10
252.1999999999996
 20
189.5156156242541
 30
0.0
 10
253.8433327207059
 20
189.5156156242541
 30
0.0
 10
255.514334503478
 20
189.5156156242541
 30
0.0
 10
257.2115897593698
 20
189.5156156242541
 30
0.0
 10
258.9046814939247
 20
189.5156156242541
 30
0.0
 10
260.5592474204779
 20
189.5156156242541
 30
0.0
 10
262.1387152243204
 20
189.5156156242541
 30
0.0
 10
263.6065416703148
 20
189.5156156242541
 30
0.0
 10
264.9287296327574
 20
189.5156156242541
 30
0.0
 10
266.0763120292544
 20
189.5156156242541
 30
0.0
 10
267.0273663597611
 20
189.5156156242541
 30
0.0
 10
267.6472015976619
 20
189.5156156242541
 30
0.0
 10
268.0358346174868
 20
189.5156156242541
 30
0.0
 10
268.2719063903864
 20
189.5156156242541
 30
0.0
 10
268.4562733738119
 20
189.5156156242541
 30
0.0
 10
268.5741031030128
 20
189.5156156242541
 30
0.0
 10
268.6445550400408
 20
189.5156156242541
 30
0.0
 10
268.6847645210851
 20
189.5156156242541
 30
0.0
 10
268.6939566189861
 20
189.5156156242541
 30
0.0
 10
268.6985550300425
 20
189.5156156242541
 30
0.0
  0
SPLINE
  5
144
330
1F
100
AcDbEntity
  8
0
  6
Continuous
 62
     7
370
    25
100
AcDbSpline
210
0.0
220
0.0
230
1.0
 70
    24
 71
     3
 72
    45
 73
    41
 74
     0
 42
0.000000001
 43
0.00000001
 40
0.0
 40
0.0
 40
0.0
 40
0.0
 40
0.0068523140443186
 40
0.0137015662237324
 40
0.0205508806527289
 40
0.027403381360655
 40
0.0342621880230282
 40
0.0519338988402389
 40
0.0696156366552279
 40
0.0877494713923498
 40
0.1058935953606342
 40
0.1428781711938978
 40
0.1803545247694315
 40
0.2180739750393497
 40
0.2557779932282065
 40
0.2932086813109424
 40
0.3301191871552646
 40
0.3662830281382345
 40
0.4015014908139934
 40
0.4356085995811883
 40
0.4684735179167202
 40
0.5000005778998787
 40
0.5315276378830371
 40
0.5643925562185691
 40
0.5984996649857639
 40
0.6337181276615232
 40
0.6698819686444928
 40
0.706792474488815
 40
0.7442231625715512
 40
0.7819271807604076
 40
0.819646631030326
 40
0.8571229846058601
 40
0.8941075604391236
 40
0.9122413953623487
 40
0.9303855195204104
 40
0.9480572305536726
 40
0.9657389685900771
 40
0.9771572120177233
 40
0.988572736066463
 40
1.0
 40
1.0
 40
1.0
 40
1.0
 10
268.6985550300419
 20
165.5156156242541
 30
0.0
 10
268.696283688046
 20
165.5156156242541
 30
0.0
 10
268.6917420189731
 20
165.5156156242541
 30
0.0
 10
268.6754078032934
 20
165.5156156242541
 30
0.0
 10
268.6521044095817
 20
165.5156156242541
 30
0.0
 10
268.6211467959939
 20
165.5156156242541
 30
0.0
 10
268.5625572391126
 20
165.5156156242541
 30
0.0
 10
268.4563308507788
 20
165.5156156242541
 30
0.0
 10
268.271978260816
 20
165.5156156242541
 30
0.0
 10
268.0358860260966
 20
165.5156156242541
 30
0.0
 10
267.6472695673745
 20
165.5156156242541
 30
0.0
 10
267.0273666734693
 20
165.5156156242541
 30
0.0
 10
266.0763119441145
 20
165.5156156242541
 30
0.0
 10
264.9287296556288
 20
165.5156156242541
 30
0.0
 10
263.6065416642338
 20
165.5156156242541
 30
0.0
 10
262.1387152259209
 20
165.5156156242541
 30
0.0
 10
260.5592474200608
 20
165.5156156242541
 30
0.0
 10
258.9046814940324
 20
165.5156156242541
 30
0.0
 10
257.2115897593422
 20
165.5156156242541
 30
0.0
 10
255.5143345034851
 20
165.5156156242541
 30
0.0
 10
253.843332720704
 20
165.5156156242541
 30
0.0
 10
252.2000000000005
 20
165.5156156242541
 30
0.0
 10
250.5566672792943
 20
165.5156156242541
 30
0.0
 10
248.8856654965221
 20
165.5156156242541
 30
0.0
 10
247.1884102406303
 20
165.5156156242541
 30
0.0
 10
245.4953185060754
 20
165.5156156242541
 30
0.0
 10
243.8407525795222
 20
165.5156156242541
 30
0.0
 10
242.2612847756798
 20
165.5156156242541
 30
0.0
 10
240.7934583296853
 20
165.5156156242541
 30
0.0
 10
239.4712703672427
 20
165.5156156242541
 30
0.0
 10
238.3236879707459
 20
165.5156156242541
 30
0.0
 10
237.3726336402391
 20
165.5156156242541
 30
0.0
 10
236.7527984023303
 20
165.5156156242541
 30
0.0
 10
236.3641653825079
 20
165.5156156242541
 30
0.0
 10
236.1280936096063
 20
165.5156156242541
 30
0.0
 10
235.9437266261895
 20
165.5156156242541
 30
0.0
 10
235.8258968969867
 20
165.5156156242541
 30
0.0
 10
235.7554449599617
 20
165.5156156242541
 30
0.0
 10
235.7152354789179
 20
165.5156156242541
 30
0.0
 10
235.706043381015
 20
165.5156156242541
 30
0.0
 10
235.7014449699577
 20
165.5156156242541
 30
0.0
  0
SPLINE
  5
145
330
1F
100
AcDbEntity
  8
0
  6
Continuous
 62
     7
370
    25
100
AcDbSpline
210
0.0
220
0.0
230
1.0
 70
     8
 71
     3
 72
    57
 73
    53
 74
     0
 42
0.000000001
 43
0.00000001
 40
0.0
 40
0.0
 40
0.0
 40
0.0
 40
0.0078124999999989
 40
0.0078124999999989
 40
0.0156249999999978
 40
0.0312499999999972
 40
0.0312499999999972
 40
0.0624999999999974
 40
0.0624999999999974
 40
0.0937499999999977
 40
0.0937499999999977
 40
0.124999999999998
 40
0.124999999999998
 40
0.1874999999999985
 40
0.1874999999999985
 40
0.2187499999999989
 40
0.2187499999999989
 40
0.2499999999999992
 40
0.2499999999999992
 40
0.3124999999999998
 40
0.3124999999999998
 40
0.3437500000000001
 40
0.3437500000000001
 40
0.3750000000000003
 40
0.3750000000000003
 40
0.4062500000000007
 40
0.4062500000000007
 40
0.4375000000000009
 40
0.4375000000000009
 40
0.5000000000000019
 40
0.5000000000000019
 40
0.5312500000000023
 40
0.5312500000000023
 40
0.5625000000000028
 40
0.5625000000000028
 40
0.6250000000000036
 40
0.6250000000000036
 40
0.6562500000000036
 40
0.6562500000000036
 40
0.6875000000000036
 40
0.6875000000000036
 40
0.7500000000000036
 40
0.7500000000000036
 40
0.8125000000000037
 40
0.8125000000000037
 40
0.843750000000003
 40
0.843750000000003
 40
0.8750000000000023
 40
0.8750000000000023
 40
0.9375000000000012
 40
0.9375000000000012
 40
1.0
 40
1.0
 40
1.0
 40
1.0
 10
235.7000000000006
 20
114.8688664409337
 30
0.0
 10
235.7000000000006
 20
114.7365857665368
 30
0.0
 10
235.7016544286489
 20
114.6008166313438
 30
0.0
 10
235.7082512424153
 20
114.3335900642514
 30
0.0
 10
235.7230794054263
 20
113.9335727225899
 30
0.0
 10
235.7526232913257
 20
113.5360090514261
 30
0.0
 10
235.8312024992965
 20
112.7441316724419
 30
0.0
 10
235.9095421961603
 20
112.2205408645362
 30
0.0
 10
236.1182525408276
 20
111.1820347859788
 30
0.0
 10
236.2486166733466
 20
110.6671184289813
 30
0.0
 10
236.5626893192243
 20
109.6461802507523
 30
0.0
 10
236.747260971687
 20
109.138858744032
 30
0.0
 10
237.3694349375987
 20
107.6635578890709
 30
0.0
 10
237.8775118131324
 20
106.7309178085728
 30
0.0
 10
238.7771315925378
 20
105.4069690548955
 30
0.0
 10
239.1013790628727
 20
104.9767142183219
 30
0.0
 10
239.7918359566713
 20
104.1492380016841
 30
0.0
 10
240.1550331686055
 20
103.7552917292558
 30
0.0
 10
241.2968313520442
 20
102.6309562193811
 30
0.0
 10
242.1271087931222
 20
101.9574864307576
 30
0.0
 10
243.4792107167948
 20
101.064791608222
 30
0.0
 10
243.9473339806369
 20
100.7877293508538
 30
0.0
 10
244.8989647486813
 20
100.2854791127841
 30
0.0
 10
245.3849395859897
 20
100.0585823244033
 30
0.0
 10
246.3769906436203
 20
99.6527266571791
 30
0.0
 10
246.8830678979963
 20
99.47377024435396
 30
0.0
 10
247.9156519133317
 20
99.1645778393268
 30
0.0
 10
248.4450203048902
 20
99.03383855509769
 30
0.0
 10
250.0427640163764
 20
98.7218144605198
 30
0.0
 10
251.1136849648786
 20
98.62016850160919
 30
0.0
 10
252.7282696959888
 20
98.61923046140987
 30
0.0
 10
253.267838512372
 20
98.64429647042779
 30
0.0
 10
254.3498549558961
 20
98.74760566535777
 30
0.0
 10
254.8884999905315
 20
98.82573421853265
 30
0.0
 10
256.4752016068148
 20
99.13509737332636
 30
0.0
 10
257.5033586253045
 20
99.4414646800629
 30
0.0
 10
259.0008558761807
 20
100.052122784235
 30
0.0
 10
259.49514152023
 20
100.2825341839914
 30
0.0
 10
260.4506505192856
 20
100.7865013218588
 30
0.0
 10
260.9127272773492
 20
101.0600290626137
 30
0.0
 10
262.2532512811167
 20
101.9434213157217
 30
0.0
 10
263.0864654001596
 20
102.6154446702055
 30
0.0
 10
264.6278217385246
 20
104.1313637457218
 30
0.0
 10
265.3123377340738
 20
104.9523837860591
 30
0.0
 10
266.2105791874831
 20
106.2707159421299
 30
0.0
 10
266.4886430026137
 20
106.7249783043507
 30
0.0
 10
267.0009521032759
 20
107.6639159789449
 30
0.0
 10
267.2358315699238
 20
108.1507032341684
 30
0.0
 10
267.858742407389
 20
109.6265067112302
 30
0.0
 10
268.1710710174723
 20
110.6389168991805
 30
0.0
 10
268.5923530813376
 20
112.7201222955695
 30
0.0
 10
268.6999999999996
 20
113.7954866139335
 30
0.0
 10
268.6999999999996
 20
114.8688664395791
 30
0.0
  0
SPLINE
  5
146
330
1F
100
AcDbEntity
  8
0
  6
Continuous
 62
     7
370
    25
100
AcDbSpline
210
0.0
220
0.0
230
1.0
 70
     8
 71
     3
 72
    58
 73
    54
 74
     0
 42
0.000000001
 43
0.00000001
 40
0.461214321383632
 40
0.461214321383632
 40
0.461214321383632
 40
0.461214321383632
 40
0.494159932028547
 40
0.5383241157902819
 40
0.5625
 40
0.5824916282160619
 40
0.59375
 40
0.594613775010972
 40
0.612357508018326
 40
0.625
 40
0.6313239019872591
 40
0.644580062035662
 40
0.65584916857915
 40
0.65625
 40
0.6798382867495729
 40
0.6875
 40
0.688247419348093
 40
0.71002255284539
 40
0.71875
 40
0.727592573798831
 40
0.740887516461703
 40
0.745294777897582
 40
0.75
 40
0.772290273383391
 40
0.78125
 40
0.79766005045267
 40
0.8125
 40
0.814227358369754
 40
0.831545959014574
 40
0.84375
 40
0.850093940379549
 40
0.875
 40
0.879514759506016
 40
0.879994333773086
 40
0.886497533653438
 40
0.90588757965786
 40
0.90625
 40
0.9300291347823569
 40
0.932771300684794
 40
0.933008612326013
 40
0.9375
 40
0.951274101283185
 40
0.953125
 40
0.957205446653664
 40
0.962624602807593
 40
0.967574439763556
 40
0.968441658349477
 40
0.96875
 40
0.978961104327972
 40
0.984375
 40
0.989480550317272
 40
0.994740273320118
 40
0.997295463601732
 40
0.997295463601732
 40
0.997295463601732
 40
0.997295463601732
 10
235.7000000161485
 20
165.066769124121
 30
0.0
 10
235.7000000169569
 20
163.8505284167416
 30
0.0
 10
235.7000000188373
 20
161.005450789883
 30
0.0
 10
235.7000000203947
 20
157.2601841689121
 30
0.0
 10
235.7000000253978
 20
153.989098493597
 30
0.0
 10
235.7000000263286
 20
151.9403541041613
 30
0.0
 10
235.7000000247125
 20
150.7448202361908
 30
0.0
 10
235.7000000233392
 20
149.6343926545688
 30
0.0
 10
235.7000000222212
 20
148.4695517990109
 30
0.0
 10
235.7000000208269
 20
147.0916279429201
 30
0.0
 10
235.7000000196249
 20
145.8690118666683
 30
0.0
 10
235.7000000185288
 20
144.6898452129881
 30
0.0
 10
235.7000000176648
 20
143.7319279528845
 30
0.0
 10
235.7000000164628
 20
142.3775784113707
 30
0.0
 10
235.7000000154201
 20
141.1587670275085
 30
0.0
 10
235.700000014406
 20
139.9136637720141
 30
0.0
 10
235.7000000134594
 20
138.7422971935305
 30
0.0
 10
235.7000000125066
 20
137.5165314589575
 30
0.0
 10
235.7000000113543
 20
135.9658693545571
 30
0.0
 10
235.7000000104718
 20
134.7577232505429
 30
0.0
 10
235.7000000097352
 20
133.7113617423191
 30
0.0
 10
235.7000000091287
 20
132.8372236677165
 30
0.0
 10
235.7000000082895
 20
131.5993824181999
 30
0.0
 10
235.7000000073662
 20
130.1663975214407
 30
0.0
 10
235.7000000062073
 20
128.2919974806637
 30
0.0
 10
235.7000000052795
 20
126.7412318630237
 30
0.0
 10
235.7000000045797
 20
125.5155470559455
 30
0.0
 10
235.7000000039006
 20
124.2860393154771
 30
0.0
 10
235.7000000033178
 20
123.1863843696975
 30
0.0
 10
235.7000000027357
 20
122.0315151652231
 30
0.0
 10
235.7000000020981
 20
120.7360952209911
 30
0.0
 10
235.7000000016686
 20
119.8088285070951
 30
0.0
 10
235.7000000013746
 20
119.1325431370925
 30
0.0
 10
235.7000000012657
 20
118.8789259753619
 30
0.0
 10
235.700000001029
 20
118.3177970723447
 30
0.0
 10
235.7000000008389
 20
117.8365896963387
 30
0.0
 10
235.7000000005697
 20
117.1272973871305
 30
0.0
 10
235.7000000004383
 20
116.7552509454239
 30
0.0
 10
235.7000000003361
 20
116.4393332990019
 30
0.0
 10
235.7000000003084
 20
116.3527319258457
 30
0.0
 10
235.7000000002433
 20
116.1445038949907
 30
0.0
 10
235.7000000001863
 20
115.9416772419171
 30
0.0
 10
235.7000000001401
 20
115.7649443735221
 30
0.0
 10
235.7000000001156
 20
115.6677911727941
 30
0.0
 10
235.7000000000886
 20
115.5538269760885
 30
0.0
 10
235.7000000000707
 20
115.4713030139787
 30
0.0
 10
235.7000000000621
 20
115.4284951453009
 30
0.0
 10
235.7000000000465
 20
115.3497581157987
 30
0.0
 10
235.7000000000304
 20
115.2503072226699
 30
0.0
 10
235.7000000000149
 20
115.1234718818309
 30
0.0
 10
235.7000000000062
 20
115.0181711638997
 30
0.0
 10
235.7000000000021
 20
114.9354404775087
 30
0.0
 10
235.7000000000008
 20
114.8852730592926
 30
0.0
 10
235.7000000000005
 20
114.8688664409337
 30
0.0
  0
SPLINE
  5
147
330
1F
100
AcDbEntity
  8
0
  6
Continuous
 62
     7
370
    25
100
AcDbSpline
210
0.0
220
0.0
230
1.0
 70
     8
 71
     3
 72
    58
 73
    54
 74
     0
 42
0.000000001
 43
0.00000001
 40
0.461226380822953
 40
0.461226380822953
 40
0.461226380822953
 40
0.461226380822953
 40
0.494159932028547
 40
0.5383241157902819
 40
0.5625
 40
0.5824916282160619
 40
0.59375
 40
0.594613775010972
 40
0.612357508018326
 40
0.625
 40
0.6313239019872591
 40
0.644580062035662
 40
0.65584916857915
 40
0.65625
 40
0.6798382867495729
 40
0.6875
 40
0.688247419348093
 40
0.71002255284539
 40
0.71875
 40
0.727592573798831
 40
0.740887516461703
 40
0.745294777897582
 40
0.75
 40
0.772290273383391
 40
0.78125
 40
0.79766005045267
 40
0.8125
 40
0.814227358369754
 40
0.831545959014574
 40
0.84375
 40
0.850093940379549
 40
0.875
 40
0.879514759506016
 40
0.879994333773086
 40
0.886497533653438
 40
0.90588757965786
 40
0.90625
 40
0.9300291347823569
 40
0.932771300684794
 40
0.933008612326013
 40
0.9375
 40
0.951274101283185
 40
0.953125
 40
0.957205446653664
 40
0.962624602807593
 40
0.967574439763556
 40
0.968441658349477
 40
0.96875
 40
0.978961104327972
 40
0.984375
 40
0.989480550317272
 40
0.994740273320118
 40
0.997295394112398
 40
0.997295394112398
 40
0.997295394112398
 40
0.997295394112398
 10
268.6999999838508
 20
165.0667691241211
 30
0.0
 10
268.6999999830426
 20
163.8509490588766
 30
0.0
 10
268.6999999811626
 20
161.0063606398512
 30
0.0
 10
268.6999999796059
 20
157.2631171074929
 30
0.0
 10
268.6999999746023
 20
153.9886260521944
 30
0.0
 10
268.6999999736716
 20
151.9383255052994
 30
0.0
 10
268.6999999752875
 20
150.7429821111691
 30
0.0
 10
268.6999999766612
 20
149.6326790261995
 30
0.0
 10
268.6999999777789
 20
148.4678288454823
 30
0.0
 10
268.6999999791732
 20
147.0899642389721
 30
0.0
 10
268.6999999803752
 20
145.8674050997937
 30
0.0
 10
268.6999999814714
 20
144.6882812512911
 30
0.0
 10
268.6999999823353
 20
143.7304023464117
 30
0.0
 10
268.6999999835373
 20
142.3761069833451
 30
0.0
 10
268.6999999845806
 20
141.1573441222851
 30
0.0
 10
268.6999999855942
 20
139.9122918427519
 30
0.0
 10
268.6999999865407
 20
138.7409738235775
 30
0.0
 10
268.6999999874936
 20
137.5152596671481
 30
0.0
 10
268.6999999886456
 20
135.9646655351799
 30
0.0
 10
268.6999999895284
 20
134.7565743070861
 30
0.0
 10
268.699999990265
 20
133.7102618786151
 30
0.0
 10
268.6999999908714
 20
132.8361667158087
 30
0.0
 10
268.6999999917106
 20
131.5983867394707
 30
0.0
 10
268.6999999926336
 20
130.1654759350335
 30
0.0
 10
268.6999999937927
 20
128.2911807829731
 30
0.0
 10
268.6999999947208
 20
126.7405074805153
 30
0.0
 10
268.6999999954203
 20
125.5149008585941
 30
0.0
 10
268.6999999960993
 20
124.2854731164493
 30
0.0
 10
268.6999999966824
 20
123.1858913762885
 30
0.0
 10
268.6999999972645
 20
122.0311008180031
 30
0.0
 10
268.699999997902
 20
120.7357699777675
 30
0.0
 10
268.6999999983316
 20
119.8085665258883
 30
0.0
 10
268.6999999986256
 20
119.1323251552371
 30
0.0
 10
268.6999999987345
 20
118.8787243208551
 30
0.0
 10
268.6999999989711
 20
118.3176309679619
 30
0.0
 10
268.6999999991613
 20
117.8364524606759
 30
0.0
 10
268.6999999994305
 20
117.1272010943917
 30
0.0
 10
268.6999999995617
 20
116.7551747352465
 30
0.0
 10
268.6999999996641
 20
116.4392729332385
 30
0.0
 10
268.6999999996917
 20
116.3526758574857
 30
0.0
 10
268.6999999997569
 20
116.1444579747605
 30
0.0
 10
268.6999999998139
 20
115.9416404028061
 30
0.0
 10
268.6999999998601
 20
115.7649151209535
 30
0.0
 10
268.6999999998845
 20
115.6677659978533
 30
0.0
 10
268.6999999999115
 20
115.5538063689411
 30
0.0
 10
268.6999999999294
 20
115.4712857818821
 30
0.0
 10
268.6999999999381
 20
115.4284794026231
 30
0.0
 10
268.6999999999536
 20
115.3497449906729
 30
0.0
 10
268.6999999999698
 20
115.2502959379675
 30
0.0
 10
268.6999999999853
 20
115.1234639870307
 30
0.0
 10
268.699999999994
 20
115.0181660138389
 30
0.0
 10
268.6999999999981
 20
114.9354378718643
 30
0.0
 10
268.6999999999994
 20
114.8852721896329
 30
0.0
 10
268.6999999999996
 20
114.8688664395792
 30
0.0
  0
LINE
  5
148
330
1F
100
AcDbEntity
  8
0
  6
Continuous
 62
     7
370
    25
100
AcDbLine
 10
160.8999967694
 20
247.8167691243
 30
0.0
 11
193.5000009954
 21
247.8167691243
 31
0.0
  0
LINE
  5
149
330
1F
100
AcDbEntity
  8
0
  6
Continuous
 62
     7
370
    25
100
AcDbLine
 10
310.8999990046
 20
247.8167691243
 30
0.0
 11
343.5000032306
 21
247.8167691243
 31
0.0
  0
LINE
  5
14A
330
1F
100
AcDbEntity
  8
0
  6
Continuous
 62
     7
370
    25
100
AcDbLine
 10
192.9999999821
 20
189.3167697799
 30
0.0
 11
161.3999977827
 21
189.3167697799
 31
0.0
  0
LINE
  5
14B
330
1F
100
AcDbEntity
  8
0
  6
Continuous
 62
     7
370
    25
100
AcDbLine
 10
193.5000009954
 20
193.8167677235
 30
0.0
 11
160.8999967694
 21
193.8167677235
 31
0.0
  0
LINE
  5
14C
330
1F
100
AcDbEntity
  8
0
  6
Continuous
 62
     7
370
    25
100
AcDbLine
 10
310.8999990046
 20
193.8167677235
 30
0.0
 11
343.5000032306
 21
193.8167677235
 31
0.0
  0
LINE
  5
14D
330
1F
100
AcDbEntity
  8
0
  6
Continuous
 62
     7
370
    25
100
AcDbLine
 10
268.5000002503
 20
189.7667699468
 30
0.0
 11
235.8999997497
 21
189.7667699468
 31
0.0
  0
LINE
  5
14E
330
1F
100
AcDbEntity
  8
0
  6
Continuous
 62
     7
370
    25
100
AcDbLine
 10
192.4000010014
 20
266.8167685133
 30
0.0
 11
162.0000004888
 21
266.8167685133
 31
0.0
  0
LINE
  5
14F
330
1F
100
AcDbEntity
  8
0
  6
Continuous
 62
     7
370
    25
100
AcDbLine
 10
182.7677637458
 20
265.8167683494
 30
0.0
 11
182.7677637458
 21
248.8167691718
 31
0.0
  0
LINE
  5
150
330
1F
100
AcDbEntity
  8
0
  6
Continuous
 62
     7
370
    25
100
AcDbLine
 10
193.1999996424
 20
248.8167691718
 30
0.0
 11
182.7677637458
 21
248.8167691718
 31
0.0
  0
LINE
  5
151
330
1F
100
AcDbEntity
  8
0
  6
Continuous
 62
     7
370
    25
100
AcDbLine
 10
193.1999996424
 20
265.8167683494
 30
0.0
 11
182.7677637458
 21
265.8167683494
 31
0.0
  0
LINE
  5
152
330
1F
100
AcDbEntity
  8
0
  6
Continuous
 62
     7
370
    25
100
AcDbLine
 10
171.6322377443
 20
248.8167691718
 30
0.0
 11
171.6322377443
 21
265.8167683494
 31
0.0
  0
LINE
  5
153
330
1F
100
AcDbEntity
  8
0
  6
Continuous
 62
     7
370
    25
100
AcDbLine
 10
171.6322377443
 20
248.8167691718
 30
0.0
 11
161.2000018477
 21
248.8167691718
 31
0.0
  0
LINE
  5
154
330
1F
100
AcDbEntity
  8
0
  6
Continuous
 62
     7
370
    25
100
AcDbLine
 10
171.6322377443
 20
265.8167683494
 30
0.0
 11
161.2000018477
 21
265.8167683494
 31
0.0
  0
LINE
  5
155
330
1F
100
AcDbEntity
  8
0
  6
Continuous
 62
     7
370
    25
100
AcDbLine
 10
182.7677637458
 20
248.8167691718
 30
0.0
 11
171.6322377443
 21
248.8167691718
 31
0.0
  0
LINE
  5
156
330
1F
100
AcDbEntity
  8
0
  6
Continuous
 62
     7
370
    25
100
AcDbLine
 10
171.6322377443
 20
265.8167683494
 30
0.0
 11
182.7677637458
 21
265.8167683494
 31
0.0
  0
LINE
  5
157
330
1F
100
AcDbEntity
  8
0
  6
Continuous
 62
     7
370
    25
100
AcDbLine
 10
184.3999996901
 20
173.0167695296
 30
0.0
 11
171.7284768939
 21
173.0167695296
 31
0.0
  0
LINE
  5
158
330
1F
100
AcDbEntity
  8
0
  6
Continuous
 62
     7
370
    25
100
AcDbLine
 10
171.7284768939
 20
173.0167695296
 30
0.0
 11
169.6006581306
 21
173.0167695296
 31
0.0
  0
LINE
  5
159
330
1F
100
AcDbEntity
  8
0
  6
Continuous
 62
     7
370
    25
100
AcDbLine
 10
101.0000035286
 20
182.0167654168
 30
0.0
 11
168.9957305908
 21
182.0167654168
 31
0.0
  0
ARC
  5
15A
330
1F
100
AcDbEntity
  8
0
  6
Continuous
 62
     7
370
    25
100
AcDbCircle
 10
101.0
 20
181.2167691243
 30
0.0
 40
0.7999999999999972
100
AcDbArc
 50
90.0
 51
180.0
  0
LINE
  5
15B
330
1F
100
AcDbEntity
  8
0
  6
Continuous
 62
     7
370
    25
100
AcDbLine
 10
100.2000048876
 20
173.8167681706
 30
0.0
 11
100.2000048876
 21
181.2167667758
 31
0.0
  0
ARC
  5
15C
330
1F
100
AcDbEntity
  8
0
  6
Continuous
 62
     7
370
    25
100
AcDbCircle
 10
101.0
 20
173.8167691243
 30
0.0
 40
0.8000000000000114
100
AcDbArc
 50
180.0
 51
270.0
  0
LINE
  5
15D
330
1F
100
AcDbEntity
  8
0
  6
Continuous
 62
     7
370
    25
100
AcDbLine
 10
169.6006581306
 20
173.0167695296
 30
0.0
 11
101.0000035286
 21
173.0167695296
 31
0.0
  0
ARC
  5
15E
330
1F
100
AcDbEntity
  8
0
  6
Continuous
 62
     7
370
    25
100
AcDbCircle
 10
239.9
 20
189.5667691243
 30
0.0
 40
0.2000000000000171
100
AcDbArc
 50
90.0
 51
180.0
  0
LINE
  5
15F
330
1F
100
AcDbEntity
  8
0
  6
Continuous
 62
     7
370
    25
100
AcDbLine
 10
292.1999991059
 20
292.8167709124
 30
0.0
 11
362.199999404
 21
292.8167709124
 31
0.0
  0
LINE
  5
160
330
1F
100
AcDbEntity
  8
0
  6
Continuous
 62
     7
370
    25
100
AcDbLine
 10
327.2000029802
 20
279.8167706442
 30
0.0
 11
293.0000014722
 21
279.8167706442
 31
0.0
  0
LINE
  5
161
330
1F
100
AcDbEntity
  8
0
  6
Continuous
 62
     7
370
    25
100
AcDbLine
 10
361.4000007629
 20
279.8167706442
 30
0.0
 11
327.2000029802
 21
279.8167706442
 31
0.0
  0
LINE
  5
162
330
1F
100
AcDbEntity
  8
0
  6
Continuous
 62
     7
370
    25
100
AcDbLine
 10
327.2000029802
 20
266.8167685133
 30
0.0
 11
311.9999989986
 21
266.8167685133
 31
0.0
  0
LINE
  5
163
330
1F
100
AcDbEntity
  8
0
  6
Continuous
 62
     7
370
    25
100
AcDbLine
 10
342.3999995112
 20
266.8167685133
 30
0.0
 11
327.2000029802
 21
266.8167685133
 31
0.0
  0
LINE
  5
164
330
1F
100
AcDbEntity
  8
0
  6
Continuous
 62
     7
370
    25
100
AcDbLine
 10
332.6715231061
 20
173.0167695296
 30
0.0
 11
320.0000003099
 21
173.0167695296
 31
0.0
  0
LINE
  5
165
330
1F
100
AcDbEntity
  8
0
  6
Continuous
 62
     7
370
    25
100
AcDbLine
 10
334.7993418694
 20
173.0167695296
 30
0.0
 11
332.6715231061
 21
173.0167695296
 31
0.0
  0
LINE
  5
166
330
1F
100
AcDbEntity
  8
0
  6
Continuous
 62
     7
370
    25
100
AcDbLine
 10
335.4042694092
 20
182.0167654168
 30
0.0
 11
403.3999964714
 21
182.0167654168
 31
0.0
  0
ARC
  5
167
330
1F
100
AcDbEntity
  8
0
  6
Continuous
 62
     7
370
    25
100
AcDbCircle
 10
403.4
 20
181.2167691243
 30
0.0
 40
0.8000000000000114
100
AcDbArc
 50
0.0
 51
90.0
  0
LINE
  5
168
330
1F
100
AcDbEntity
  8
0
  6
Continuous
 62
     7
370
    25
100
AcDbLine
 10
404.1999951124
 20
181.2167667758
 30
0.0
 11
404.1999951124
 21
173.8167681706
 31
0.0
  0
ARC
  5
169
330
1F
100
AcDbEntity
  8
0
  6
Continuous
 62
     7
370
    25
100
AcDbCircle
 10
403.4
 20
173.8167691243
 30
0.0
 40
0.8000000000000114
100
AcDbArc
 50
270.0
 51
0.0
  0
LINE
  5
16A
330
1F
100
AcDbEntity
  8
0
  6
Continuous
 62
     7
370
    25
100
AcDbLine
 10
403.3999964714
 20
173.0167695296
 30
0.0
 11
334.7993418694
 21
173.0167695296
 31
0.0
  0
LINE
  5
16B
330
1F
100
AcDbEntity
  8
0
  6
Continuous
 62
     7
370
    25
100
AcDbLine
 10
321.6322362542
 20
265.8167683494
 30
0.0
 11
311.2000003576
 21
265.8167683494
 31
0.0
  0
LINE
  5
16C
330
1F
100
AcDbEntity
  8
0
  6
Continuous
 62
     7
370
    25
100
AcDbLine
 10
321.6322362542
 20
248.8167691718
 30
0.0
 11
321.6322362542
 21
265.8167683494
 31
0.0
  0
LINE
  5
16D
330
1F
100
AcDbEntity
  8
0
  6
Continuous
 62
     7
370
    25
100
AcDbLine
 10
321.6322362542
 20
248.8167691718
 30
0.0
 11
311.2000003576
 21
248.8167691718
 31
0.0
  0
LINE
  5
16E
330
1F
100
AcDbEntity
  8
0
  6
Continuous
 62
     7
370
    25
100
AcDbLine
 10
343.1999981523
 20
248.8167691718
 30
0.0
 11
332.7677622557
 21
248.8167691718
 31
0.0
  0
LINE
  5
16F
330
1F
100
AcDbEntity
  8
0
  6
Continuous
 62
     7
370
    25
100
AcDbLine
 10
332.7677622557
 20
265.8167683494
 30
0.0
 11
332.7677622557
 21
248.8167691718
 31
0.0
  0
LINE
  5
170
330
1F
100
AcDbEntity
  8
0
  6
Continuous
 62
     7
370
    25
100
AcDbLine
 10
343.1999981523
 20
265.8167683494
 30
0.0
 11
332.7677622557
 21
265.8167683494
 31
0.0
  0
LINE
  5
171
330
1F
100
AcDbEntity
  8
0
  6
Continuous
 62
     7
370
    25
100
AcDbLine
 10
332.7677622557
 20
248.8167691718
 30
0.0
 11
321.6322362542
 21
248.8167691718
 31
0.0
  0
LINE
  5
172
330
1F
100
AcDbEntity
  8
0
  6
Continuous
 62
     7
370
    25
100
AcDbLine
 10
321.6322362542
 20
265.8167683494
 30
0.0
 11
332.7677622557
 21
265.8167683494
 31
0.0
  0
LINE
  5
173
330
1F
100
AcDbEntity
  8
0
  6
Continuous
 62
     7
370
    25
100
AcDbLine
 10
343.0000022173
 20
189.3167697799
 30
0.0
 11
311.4000000179
 21
189.3167697799
 31
0.0
  0
SPLINE
  5
174
330
1F
100
AcDbEntity
  8
0
  6
Continuous
 62
     8
370
    18
100
AcDbSpline
210
0.0
220
0.0
230
1.0
 70
     8
 71
     3
 72
    63
 73
    59
 74
     0
 42
0.000000001
 43
0.00000001
 40
0.0
 40
0.0
 40
0.0
 40
0.0
 40
0.0078125
 40
0.0078125
 40
0.015625
 40
0.03125
 40
0.03125
 40
0.0625
 40
0.0625
 40
0.0937499999999999
 40
0.0937499999999999
 40
0.1249999999999999
 40
0.1249999999999999
 40
0.1874999999999999
 40
0.1874999999999999
 40
0.2187499999999999
 40
0.2187499999999999
 40
0.2499999999999998
 40
0.2499999999999998
 40
0.3124999999999998
 40
0.3124999999999998
 40
0.3437499999999998
 40
0.3437499999999998
 40
0.3749999999999998
 40
0.3749999999999998
 40
0.4062499999999997
 40
0.4062499999999997
 40
0.4374999999999997
 40
0.4374999999999997
 40
0.4999999999999997
 40
0.4999999999999997
 40
0.5312499999999998
 40
0.5312499999999998
 40
0.5624999999999998
 40
0.5624999999999998
 40
0.6249999999999998
 40
0.6249999999999998
 40
0.6562499999999998
 40
0.6562499999999998
 40
0.6874999999999998
 40
0.6874999999999998
 40
0.7499999999999998
 40
0.7499999999999998
 40
0.8124999999999998
 40
0.8124999999999998
 40
0.8437499999999998
 40
0.8437499999999998
 40
0.8749999999999998
 40
0.8749999999999998
 40
0.9374999999999999
 40
0.9374999999999999
 40
0.9687499999999999
 40
0.9687499999999999
 40
0.9843749999999999
 40
0.9843749999999999
 40
0.9921874999999999
 40
0.9921874999999999
 40
1.0
 40
1.0
 40
1.0
 40
1.0
 10
268.6999999838508
 20
165.0667691241211
 30
0.0
 10
268.6999997443168
 20
165.0667685615346
 30
0.0
 10
268.698345428009
 20
165.0667679479869
 30
0.0
 10
268.6917481084448
 20
165.0667666671285
 30
0.0
 10
268.6769188066371
 20
165.0667646409762
 30
0.0
 10
268.6473726360641
 20
165.0667622997161
 30
0.0
 10
268.5687873467515
 20
165.0667572012852
 30
0.0
 10
268.4904415834072
 20
165.0667532472042
 30
0.0
 10
268.2817150204319
 20
165.0667442614643
 30
0.0
 10
268.1513407374699
 20
165.0667392299589
 30
0.0
 10
267.8372434769392
 20
165.0667281360331
 30
0.0
 10
267.6526585306806
 20
165.0667220508435
 30
0.0
 10
267.0304441599211
 20
165.0667027952617
 30
0.0
 10
266.5223362640726
 20
165.0666885204898
 30
0.0
 10
265.6226650605268
 20
165.0666657921168
 30
0.0
 10
265.2983950247286
 20
165.0666579666094
 30
0.0
 10
264.6079162801688
 20
165.0666421557808
 30
0.0
 10
264.2447085728927
 20
165.0666342368352
 30
0.0
 10
263.1028803123189
 20
165.0666106880092
 30
0.0
 10
262.272584670455
 20
165.066595255175
 30
0.0
 10
260.9204590560929
 20
165.0665735949637
 30
0.0
 10
260.4523420755785
 20
165.0665666423247
 30
0.0
 10
259.5007209705298
 20
165.0665537287015
 30
0.0
 10
259.0147511932315
 20
165.0665477266967
 30
0.0
 10
258.0227105599663
 20
165.0665367900135
 30
0.0
 10
257.5166386706553
 20
165.0665318554037
 30
0.0
 10
256.4840655771607
 20
165.0665232190551
 30
0.0
 10
255.9546985571453
 20
165.066519503091
 30
0.0
 10
254.3570255578807
 20
165.0665105745493
 30
0.0
 10
253.2861462101585
 20
165.0665075990246
 30
0.0
 10
251.6716156751675
 20
165.0665075756519
 30
0.0
 10
251.1320635470959
 20
165.0665083038965
 30
0.0
 10
250.0500775425658
 20
165.0665112981106
 30
0.0
 10
249.5114599975544
 20
165.0665135603349
 30
0.0
 10
247.9248161469686
 20
165.0665224200198
 30
0.0
 10
246.896685914786
 20
165.0665311144105
 30
0.0
 10
245.3992136753434
 20
165.0665475821465
 30
0.0
 10
244.9049347734195
 20
165.0665536801624
 30
0.0
 10
243.9494437588962
 20
165.0665666416162
 30
0.0
 10
243.4873730842883
 20
165.0665735060081
 30
0.0
 10
242.1468601137041
 20
165.0665949532074
 30
0.0
 10
241.3136437675254
 20
165.0666103854772
 30
0.0
 10
239.772269611191
 20
165.0666421504152
 30
0.0
 10
239.087732207986
 20
165.0666579921106
 30
0.0
 10
238.189466581331
 20
165.0666806535248
 30
0.0
 10
237.9113947645161
 20
165.0666880303046
 30
0.0
 10
237.399070397251
 20
165.0667022753916
 30
0.0
 10
237.1641820787319
 20
165.0667091667982
 30
0.0
 10
236.5412474786095
 20
165.0667284341661
 30
0.0
 10
236.2289098761888
 20
165.0667395387387
 30
0.0
 10
235.9129462753021
 20
165.0667530892432
 30
0.0
 10
235.8331540746267
 20
165.0667570926807
 30
0.0
 10
235.7531454551015
 20
165.0667622605921
 30
0.0
 10
235.7331831619052
 20
165.0667638380907
 30
0.0
 10
235.7132586592187
 20
165.0667659837067
 30
0.0
 10
235.708284125242
 20
165.0667666623563
 30
0.0
 10
235.701654797691
 20
165.0667679472701
 30
0.0
 10
235.7000002556825
 20
165.0667685616575
 30
0.0
 10
235.7000000161484
 20
165.0667691241211
 30
0.0
  0
LINE
  5
175
330
1F
100
AcDbEntity
  8
0
  6
Continuous
 62
     8
370
    18
100
AcDbLine
 10
235.2000009388
 20
166.0156154048
 30
0.0
 11
269.2000009239
 21
166.0156154048
 31
0.0
  0
LINE
  5
176
330
1F
100
AcDbEntity
  8
0
  6
Continuous
 62
     8
370
    18
100
AcDbLine
 10
160.7000008345
 20
194.0167673838
 30
0.0
 11
193.7000006557
 21
194.0167673838
 31
0.0
  0
LWPOLYLINE
  5
177
330
1F
100
AcDbEntity
  8
0
  6
Continuous
 62
     8
370
    18
100
AcDbPolyline
 90
       14
 70
   128
 43
0.0
 10
177.1999970198
 20
216.7167698008
 10
179.1888550043
 20
219.067234264
 10
181.1487078786
 20
221.3834241938
 10
183.050982666
 20
223.6315642458
 10
184.8679334044
 20
225.7788718653
 10
186.5730658293
 20
227.794032262
 10
188.1415248036
 20
229.647660346
 10
189.5504295945
 20
231.3127291363
 10
190.7792352259
 20
232.7649543968
 10
191.8100230515
 20
233.9831615773
 10
192.6277689755
 20
234.9495856997
 10
193.2205408931
 20
235.6501349223
 10
193.5796961308
 20
236.0745917049
 10
193.7000006557
 20
236.2167692718
  0
SPLINE
  5
178
330
1F
100
AcDbEntity
  8
0
  6
Continuous
 62
     8
370
    18
100
AcDbSpline
210
0.0
220
0.0
230
1.0
 70
     8
 71
     3
 72
    30
 73
    26
 74
     0
 42
0.000000001
 43
0.00000001
 40
0.0
 40
0.0
 40
0.0
 40
0.0
 40
0.0190078927057919
 40
0.0360152421448849
 40
0.0510220381444231
 40
0.0640282728083759
 40
0.0750339411471229
 40
0.1144895742373679
 40
0.149645561384042
 40
0.2273560327323426
 40
0.2959663549005792
 40
0.3690675834404223
 40
0.4359805771861376
 40
0.5671891271486769
 40
0.6299105856402409
 40
0.6884057365470537
 40
0.7456316927884545
 40
0.7994814944030381
 40
0.8519302530883234
 40
0.9021309516874519
 40
0.9219997691318708
 40
0.9416811266043597
 40
0.9612145516132521
 40
0.9806404747186402
 40
1.0
 40
1.0
 40
1.0
 40
1.0
 10
177.2
 20
216.7167691242541
 30
0.0
 10
177.3366681334726
 20
216.5552732413623
 30
0.0
 10
177.5956203485704
 20
216.2492785991484
 30
0.0
 10
177.9624080088499
 20
215.815911366974
 30
0.0
 10
178.2858661106944
 20
215.4336363987309
 30
0.0
 10
178.5660142073448
 20
215.1024521111914
 30
0.0
 10
179.0214645938077
 20
214.5640729518595
 30
0.0
 10
179.6352582313227
 20
213.8388730217024
 30
0.0
 10
180.7234207535055
 20
212.5525632216672
 30
0.0
 10
182.0127561989853
 20
211.0297639315083
 30
0.0
 10
183.5497359378105
 20
209.2122216194516
 30
0.0
 10
184.9859486459638
 20
207.5156522634362
 30
0.0
 10
186.8048328690047
 20
205.3653701179485
 30
0.0
 10
188.4762811491049
 20
203.3901523585264
 30
0.0
 10
189.9576543812511
 20
201.6397593044023
 30
0.0
 10
190.9278954484347
 20
200.4927896288828
 30
0.0
 10
191.7607341261927
 20
199.5088246764252
 30
0.0
 10
192.4587969315497
 20
198.6835550216779
 30
0.0
 10
193.0077419325872
 20
198.0350608061935
 30
0.0
 10
193.3287628745007
 20
197.6554684544366
 30
0.0
 10
193.500839706896
 20
197.4521699944484
 30
0.0
 10
193.5899583662643
 20
197.3468958917832
 30
0.0
 10
193.6531236545361
 20
197.2722480396439
 30
0.0
 10
193.6926705305866
 20
197.225459245151
 30
0.0
 10
193.6975596334566
 20
197.2196625233665
 30
0.0
 10
193.7000000000001
 20
197.2167691242541
 30
0.0
  0
LINE
  5
179
330
1F
100
AcDbEntity
  8
0
  6
Continuous
 62
     8
370
    18
100
AcDbLine
 10
193.7000006557
 20
247.6167691293
 30
0.0
 11
160.7000008345
 21
247.6167691293
 31
0.0
  0
LWPOLYLINE
  5
17A
330
1F
100
AcDbEntity
  8
0
  6
Continuous
 62
     8
370
    18
100
AcDbPolyline
 90
       14
 70
   128
 43
0.0
 10
196.6999992847
 20
233.21676878
 10
196.5578235805
 20
233.0964651865
 10
196.1333640039
 20
232.7373090175
 10
195.4328157127
 20
232.1445380312
 10
194.4663934529
 20
231.3267939699
 10
193.2481862724
 20
230.296002419
 10
191.7959600806
 20
229.0671967876
 10
190.130893153
 20
227.6582938593
 10
188.277259481
 20
226.0898367476
 10
186.2621009469
 20
224.3847005975
 10
184.1147989154
 20
222.5677498591
 10
181.8666532755
 20
220.6654769343
 10
179.5504689336
 20
218.70562406
 10
177.1999970198
 20
216.7167698008
  0
LWPOLYLINE
  5
17B
330
1F
100
AcDbEntity
  8
0
  6
Continuous
 62
     8
370
    18
100
AcDbPolyline
 90
       14
 70
   128
 43
0.0
 10
327.2000029802
 20
216.7167698008
 10
324.8495310664
 20
218.70562406
 10
322.5333467245
 20
220.6654769343
 10
320.2852010846
 20
222.5677498591
 10
318.1378990531
 20
224.3847005975
 10
316.122740519
 20
226.0898367476
 10
314.269106847
 20
227.6582938593
 10
312.6040399194
 20
229.0671967876
 10
311.1518137276
 20
230.296002419
 10
309.9336065471
 20
231.3267939699
 10
308.9671842873
 20
232.1445380312
 10
308.2666359961
 20
232.7373090175
 10
307.8421764195
 20
233.0964651865
 10
307.7000007153
 20
233.21676878
  0
LWPOLYLINE
  5
17C
330
1F
100
AcDbEntity
  8
0
  6
Continuous
 62
     8
370
    18
100
AcDbPolyline
 90
       14
 70
   128
 43
0.0
 10
307.7000007153
 20
200.2167680275
 10
307.8421764195
 20
200.3370725524
 10
308.2666359961
 20
200.6962277901
 10
308.9671842873
 20
201.2889997077
 10
309.9336065471
 20
202.1067456317
 10
311.1518137276
 20
203.1375371826
 10
312.6040399194
 20
204.366342814
 10
314.269106847
 20
205.7752438795
 10
316.122740519
 20
207.3436991286
 10
318.1378990531
 20
209.0488352787
 10
320.2852010846
 20
210.8657897425
 10
322.5333467245
 20
212.7680608046
 10
324.8495310664
 20
214.7279136789
 10
327.2000029802
 20
216.7167698008
  0
SPLINE
  5
17D
330
1F
100
AcDbEntity
  8
0
  6
Continuous
 62
     8
370
    18
100
AcDbSpline
210
0.0
220
0.0
230
1.0
 70
     8
 71
     3
 72
    30
 73
    26
 74
     0
 42
0.000000001
 43
0.00000001
 40
0.0
 40
0.0
 40
0.0
 40
0.0
 40
0.0190206124337398
 40
0.0360343174113595
 40
0.0510411046702627
 40
0.0640409662377765
 40
0.0750338970631131
 40
0.1144741615836189
 40
0.1496455620662709
 40
0.2273560357726325
 40
0.2959663554650525
 40
0.3690675862229633
 40
0.4359805776380014
 40
0.5671891274950982
 40
0.6299105879091759
 40
0.6884057367963599
 40
0.7456316947925731
 40
0.7994814945633305
 40
0.8519302548710089
 40
0.9021309517657515
 40
0.9219997702164356
 40
0.9416811281857476
 40
0.961214553178942
 40
0.9806404757561162
 40
1.0
 40
1.0
 40
1.0
 40
1.0
 10
177.2
 20
216.7167691242541
 30
0.0
 10
177.3616039853701
 20
216.5800095677679
 30
0.0
 10
177.6677607573484
 20
216.3209202621723
 30
0.0
 10
178.1012903832138
 20
215.9539963165377
 30
0.0
 10
178.4835657524745
 20
215.6305395966463
 30
0.0
 10
178.8145884767445
 20
215.3505300698563
 30
0.0
 10
179.352676408311
 20
214.8953289321218
 30
0.0
 10
180.0777675783509
 20
214.2816243155146
 30
0.0
 10
181.3640751679347
 20
213.1934561471204
 30
0.0
 10
182.8870056444838
 20
211.904013428988
 30
0.0
 10
184.7045474256416
 20
210.3670330117738
 30
0.0
 10
186.4011169079521
 20
208.9308204973909
 30
0.0
 10
188.551399007666
 20
207.11193622153
 30
0.0
 10
190.526616782927
 20
205.4404879654086
 30
0.0
 10
192.2770098330011
 20
203.9591147312669
 30
0.0
 10
193.4239795184221
 20
202.9888736564658
 30
0.0
 10
194.4079444578223
 20
202.1560349895827
 30
0.0
 10
195.2332141186039
 20
201.4579721793103
 30
0.0
 10
195.8817083235844
 20
200.9090271863713
 30
0.0
 10
196.2613006791151
 20
200.5880062439707
 30
0.0
 10
196.4645991321752
 20
200.4159294125456
 30
0.0
 10
196.5698732376692
 20
200.3268107525449
 30
0.0
 10
196.644521089997
 20
200.2636454662573
 30
0.0
 10
196.6913098831656
 20
200.2240985929749
 30
0.0
 10
196.6971066022658
 20
200.2192094905454
 30
0.0
 10
196.7000000000001
 20
200.2167691242541
 30
0.0
  0
LWPOLYLINE
  5
17E
330
1F
100
AcDbEntity
  8
0
  6
Continuous
 62
     8
370
    18
100
AcDbPolyline
 90
       14
 70
   128
 43
0.0
 10
252.2
 20
216.7167698008
 10
254.5504651617
 20
214.7279136789
 10
256.8666553244
 20
212.7680608046
 10
259.1147953764
 20
210.8657897425
 10
261.2621020645
 20
209.0488352787
 10
263.2772624612
 20
207.3436991286
 10
265.1308914766
 20
205.7752438795
 10
266.7959593356
 20
204.366342814
 10
268.2481855273
 20
203.1375371826
 10
269.4663927078
 20
202.1067456317
 10
270.4328168303
 20
201.2889997077
 10
271.1333651215
 20
200.6962277901
 10
271.5578228354
 20
200.3370725524
 10
271.7000004023
 20
200.2167680275
  0
LWPOLYLINE
  5
17F
330
1F
100
AcDbEntity
  8
0
  6
Continuous
 62
     8
370
    18
100
AcDbPolyline
 90
       14
 70
   128
 43
0.0
 10
232.6999995977
 20
200.2167680275
 10
232.8421771646
 20
200.3370725524
 10
233.2666348785
 20
200.6962277901
 10
233.9671831697
 20
201.2889997077
 10
234.9336072922
 20
202.1067456317
 10
236.1518144727
 20
203.1375371826
 10
237.6040406644
 20
204.366342814
 10
239.2691085234
 20
205.7752438795
 10
241.1227375388
 20
207.3436991286
 10
243.1378979355
 20
209.0488352787
 10
245.2852046236
 20
210.8657897425
 10
247.5333446756
 20
212.7680608046
 10
249.8495348383
 20
214.7279136789
 10
252.2
 20
216.7167698008
  0
LWPOLYLINE
  5
180
330
1F
100
AcDbEntity
  8
0
  6
Continuous
 62
     8
370
    18
100
AcDbPolyline
 90
       14
 70
   128
 43
0.0
 10
310.6999993443
 20
236.2167692718
 10
310.8203038692
 20
236.0745917049
 10
311.1794591069
 20
235.6501349223
 10
311.7722310245
 20
234.9495856997
 10
312.5899769485
 20
233.9831615773
 10
313.6207647741
 20
232.7649543968
 10
314.8495704055
 20
231.3127291363
 10
316.2584751964
 20
229.647660346
 10
317.8269341707
 20
227.794032262
 10
319.5320665956
 20
225.7788718653
 10
321.349017334
 20
223.6315642458
 10
323.2512921214
 20
221.3834241938
 10
325.2111449957
 20
219.067234264
 10
327.2000029802
 20
216.7167698008
  0
LWPOLYLINE
  5
181
330
1F
100
AcDbEntity
  8
0
  6
Continuous
 62
     8
370
    18
100
AcDbPolyline
 90
       14
 70
   128
 43
0.0
 10
327.2000029802
 20
216.7167698008
 10
325.2111449957
 20
214.3663034749
 10
323.2512921214
 20
212.0501154077
 10
321.349017334
 20
209.8019734931
 10
319.5320665956
 20
207.6546677363
 10
317.8269341707
 20
205.6395054769
 10
316.2584751964
 20
203.7858755302
 10
314.8495704055
 20
202.1208086026
 10
313.6207647741
 20
200.6685824108
 10
312.5899769485
 20
199.4503752303
 10
311.7722310245
 20
198.4839529705
 10
311.1794591069
 20
197.7834046793
 10
310.8203038692
 20
197.3589451027
 10
310.6999993443
 20
197.2167693984
  0
LWPOLYLINE
  5
182
330
1F
100
AcDbEntity
  8
0
  6
Continuous
 62
     8
370
    18
100
AcDbPolyline
 90
       14
 70
   128
 43
0.0
 10
268.6999999106
 20
197.2167693984
 10
268.5796972483
 20
197.3589451027
 10
268.220540148
 20
197.7834046793
 10
267.6277682304
 20
198.4839529705
 10
266.8100241691
 20
199.4503752303
 10
265.7792335495
 20
200.6685824108
 10
264.5504269868
 20
202.1208086026
 10
263.1415240586
 20
203.7858755302
 10
261.5730678782
 20
205.6395054769
 10
259.8679321937
 20
207.6546677363
 10
258.050980524
 20
209.8019734931
 10
256.1487085305
 20
212.0501154077
 10
254.1888551906
 20
214.3663034749
 10
252.2
 20
216.7167698008
  0
LWPOLYLINE
  5
183
330
1F
100
AcDbEntity
  8
0
  6
Continuous
 62
     8
370
    18
100
AcDbPolyline
 90
       14
 70
   128
 43
0.0
 10
252.2
 20
216.7167698008
 10
250.2111448094
 20
214.3663034749
 10
248.2512914695
 20
212.0501154077
 10
246.349019476
 20
209.8019734931
 10
244.5320678063
 20
207.6546677363
 10
242.8269321218
 20
205.6395054769
 10
241.2584759414
 20
203.7858755302
 10
239.8495730132
 20
202.1208086026
 10
238.6207664505
 20
200.6685824108
 10
237.5899758309
 20
199.4503752303
 10
236.7722317696
 20
198.4839529705
 10
236.179459852
 20
197.7834046793
 10
235.8203027517
 20
197.3589451027
 10
235.7000000894
 20
197.2167693984
  0
LINE
  5
184
330
1F
100
AcDbEntity
  8
0
  6
Continuous
 62
     8
370
    18
100
AcDbLine
 10
193.7000006557
 20
193.5167700958
 30
0.0
 11
160.7000008345
 21
193.5167700958
 31
0.0
  0
LINE
  5
185
330
1F
100
AcDbEntity
  8
0
  6
Continuous
 62
     8
370
    18
100
AcDbLine
 10
160.7000008345
 20
190.0167704534
 30
0.0
 11
193.7000006557
 21
190.0167704534
 31
0.0
  0
LINE
  5
186
330
1F
100
AcDbEntity
  8
0
  6
Continuous
 62
     7
370
    25
100
AcDbLine
 10
492.7271000553
 20
390.8188708187
 30
0.0
 11
504.9271016826
 21
390.8188708187
 31
0.0
  0
LINE
  5
187
330
1F
100
AcDbEntity
  8
0
  6
Continuous
 62
     7
370
    25
100
AcDbLine
 10
504.9271016826
 20
460.8188711168
 30
0.0
 11
492.7271000553
 21
460.8188711168
 31
0.0
  0
ARC
  5
188
330
1F
100
AcDbEntity
  8
0
  6
Continuous
 62
     7
370
    25
100
AcDbCircle
 10
504.9271018435
 20
460.0188709677
 30
0.0
 40
0.8000000000000114
100
AcDbArc
 50
0.0
 51
90.0
  0
ARC
  5
189
330
1F
100
AcDbEntity
  8
0
  6
Continuous
 62
     7
370
    25
100
AcDbCircle
 10
504.9271018435
 20
391.6188709677
 30
0.0
 40
0.7999999999999545
100
AcDbArc
 50
270.0
 51
0.0
  0
ARC
  5
18A
330
1F
100
AcDbEntity
  8
0
  6
Continuous
 62
     7
370
    25
100
AcDbCircle
 10
506.5271018435
 20
442.6188709677
 30
0.0
 40
0.8000000000000114
100
AcDbArc
 50
180.0
 51
270.0
  0
ARC
  5
18B
330
1F
100
AcDbEntity
  8
0
  6
Continuous
 62
     7
370
    25
100
AcDbCircle
 10
506.5271018435
 20
409.0188709677
 30
0.0
 40
0.8000000000000114
100
AcDbArc
 50
90.0
 51
180.0
  0
ARC
  5
18C
330
1F
100
AcDbEntity
  8
0
  6
Continuous
 62
     7
370
    25
100
AcDbCircle
 10
537.9271018435
 20
442.1188709677
 30
0.0
 40
0.1999999999999886
100
AcDbArc
 50
90.0
 51
180.0
  0
ARC
  5
18D
330
1F
100
AcDbEntity
  8
0
  6
Continuous
 62
     7
370
    25
100
AcDbCircle
 10
537.9271018435
 20
409.5188709677
 30
0.0
 40
0.1999999999999886
100
AcDbArc
 50
180.0
 51
270.0
  0
LINE
  5
18E
330
1F
100
AcDbEntity
  8
0
  6
Continuous
 62
     7
370
    25
100
AcDbLine
 10
568.827101167
 20
409.3188710571
 30
0.0
 11
591.5271035839
 21
409.3188710571
 31
0.0
  0
LINE
  5
18F
330
1F
100
AcDbEntity
  8
0
  6
Continuous
 62
     7
370
    25
100
AcDbLine
 10
537.9271018384
 20
409.3188710571
 30
0.0
 11
568.827101167
 21
409.3188710571
 31
0.0
  0
LINE
  5
190
330
1F
100
AcDbEntity
  8
0
  6
Continuous
 62
     7
370
    25
100
AcDbLine
 10
568.827101167
 20
442.3188708783
 30
0.0
 11
537.9271018384
 21
442.3188708783
 31
0.0
  0
LINE
  5
191
330
1F
100
AcDbEntity
  8
0
  6
Continuous
 62
     7
370
    25
100
AcDbLine
 10
591.5271035839
 20
442.3188708783
 30
0.0
 11
568.827101167
 21
442.3188708783
 31
0.0
  0
ARC
  5
192
330
1F
100
AcDbEntity
  8
0
  6
Continuous
 62
     7
370
    25
100
AcDbCircle
 10
592.0271018435
 20
409.6188709677
 30
0.0
 40
0.3000000000000114
100
AcDbArc
 50
180.0
 51
270.0
  0
ARC
  5
193
330
1F
100
AcDbEntity
  8
0
  6
Continuous
 62
     7
370
    25
100
AcDbCircle
 10
592.0271018435
 20
442.0188709677
 30
0.0
 40
0.2999999999999545
100
AcDbArc
 50
90.0
 51
180.0
  0
ARC
  5
194
330
1F
100
AcDbEntity
  8
0
  6
Continuous
 62
     7
370
    25
100
AcDbCircle
 10
591.5271018435
 20
409.5188709677
 30
0.0
 40
0.1999999999999886
100
AcDbArc
 50
270.0
 51
0.0
  0
ARC
  5
195
330
1F
100
AcDbEntity
  8
0
  6
Continuous
 62
     7
370
    25
100
AcDbCircle
 10
591.5271018435
 20
442.1188709677
 30
0.0
 40
0.1999999999999886
100
AcDbArc
 50
0.0
 51
90.0
  0
LINE
  5
196
330
1F
100
AcDbEntity
  8
0
  6
Continuous
 62
     7
370
    25
100
AcDbLine
 10
592.0271008719
 20
409.3188710571
 30
0.0
 11
595.5271005143
 21
409.3188710571
 31
0.0
  0
LINE
  5
197
330
1F
100
AcDbEntity
  8
0
  6
Continuous
 62
     7
370
    25
100
AcDbLine
 10
595.5271005143
 20
442.3188708783
 30
0.0
 11
592.0271008719
 21
442.3188708783
 31
0.0
  0
ARC
  5
198
330
1F
100
AcDbEntity
  8
0
  6
Continuous
 62
     7
370
    25
100
AcDbCircle
 10
595.5271018435
 20
441.6188709677
 30
0.0
 40
0.7000000000000455
100
AcDbArc
 50
0.0
 51
90.0
  0
ARC
  5
199
330
1F
100
AcDbEntity
  8
0
  6
Continuous
 62
     7
370
    25
100
AcDbCircle
 10
595.5271018435
 20
410.0188709677
 30
0.0
 40
0.7000000000000455
100
AcDbArc
 50
270.0
 51
0.0
  0
LINE
  5
19A
330
1F
100
AcDbEntity
  8
0
  6
Continuous
 62
     7
370
    25
100
AcDbLine
 10
506.5271026899
 20
409.8188702078
 30
0.0
 11
517.9271019508
 21
409.8188702078
 31
0.0
  0
LINE
  5
19B
330
1F
100
AcDbEntity
  8
0
  6
Continuous
 62
     7
370
    25
100
AcDbLine
 10
517.9271019508
 20
441.8188717277
 30
0.0
 11
506.5271026899
 21
441.8188717277
 31
0.0
  0
ARC
  5
19C
330
1F
100
AcDbEntity
  8
0
  6
Continuous
 62
     7
370
    25
100
AcDbCircle
 10
517.9271018435
 20
441.0188709677
 30
0.0
 40
0.8000000000000682
100
AcDbArc
 50
0.0
 51
90.0
  0
ARC
  5
19D
330
1F
100
AcDbEntity
  8
0
  6
Continuous
 62
     7
370
    25
100
AcDbCircle
 10
517.9271018435
 20
410.6188709677
 30
0.0
 40
0.8000000000000682
100
AcDbArc
 50
270.0
 51
0.0
  0
LINE
  5
19E
330
1F
100
AcDbEntity
  8
0
  6
Continuous
 62
     7
370
    25
100
AcDbLine
 10
519.7271026183
 20
439.039637527
 30
0.0
 11
518.7271024544
 21
439.039637527
 31
0.0
  0
LINE
  5
19F
330
1F
100
AcDbEntity
  8
0
  6
Continuous
 62
     7
370
    25
100
AcDbLine
 10
518.7271024544
 20
412.5981044085
 30
0.0
 11
519.7271026183
 21
412.5981044085
 31
0.0
  0
LINE
  5
1A0
330
1F
100
AcDbEntity
  8
0
  6
Continuous
 62
     7
370
    25
100
AcDbLine
 10
537.7271018435
 20
436.3188708262
 30
0.0
 11
536.727101796
 21
436.3188708262
 31
0.0
  0
LINE
  5
1A1
330
1F
100
AcDbEntity
  8
0
  6
Continuous
 62
     7
370
    25
100
AcDbLine
 10
536.727101796
 20
415.3188711093
 30
0.0
 11
537.7271018435
 21
415.3188711093
 31
0.0
  0
LINE
  5
1A2
330
1F
100
AcDbEntity
  8
0
  6
Continuous
 62
     7
370
    25
100
AcDbLine
 10
604.4289014746
 20
421.3111863532
 30
0.0
 11
604.3836019446
 21
421.3188711615
 31
0.0
  0
LINE
  5
1A3
330
1F
100
AcDbEntity
  8
0
  6
Continuous
 62
     7
370
    25
100
AcDbLine
 10
604.3836019446
 20
430.318870774
 30
0.0
 11
604.4289014746
 21
430.3265555823
 31
0.0
  0
LINE
  5
1A4
330
1F
100
AcDbEntity
  8
0
  6
Continuous
 62
     7
370
    25
100
AcDbLine
 10
596.2271011878
 20
417.8188705878
 30
0.0
 11
611.7271027972
 21
417.8188705878
 31
0.0
  0
LINE
  5
1A5
330
1F
100
AcDbEntity
  8
0
  6
Continuous
 62
     7
370
    25
100
AcDbLine
 10
611.7271027972
 20
433.8188713477
 30
0.0
 11
596.2271011878
 21
433.8188713477
 31
0.0
  0
ARC
  5
1A6
330
1F
100
AcDbEntity
  8
0
  6
Continuous
 62
     7
370
    25
100
AcDbCircle
 10
611.7271018435
 20
433.0188709677
 30
0.0
 40
0.8000000000000682
100
AcDbArc
 50
0.0
 51
90.0
  0
ARC
  5
1A7
330
1F
100
AcDbEntity
  8
0
  6
Continuous
 62
     7
370
    25
100
AcDbCircle
 10
611.7271018435
 20
418.6188709677
 30
0.0
 40
0.8000000000000682
100
AcDbArc
 50
270.0
 51
0.0
  0
SPLINE
  5
1A8
330
1F
100
AcDbEntity
  8
0
  6
Continuous
 62
     7
370
    25
100
AcDbSpline
210
0.0
220
0.0
230
1.0
 70
     8
 71
     3
 72
    13
 73
     9
 74
     0
 42
0.000000001
 43
0.00000001
 40
0.0
 40
0.0
 40
0.0
 40
0.0
 40
0.239453422375188
 40
0.3683601873638758
 40
0.5000002012852419
 40
0.6316387142765731
 40
0.7605423469374109
 40
1.0
 40
1.0
 40
1.0
 40
1.0
 10
596.5282536555643
 20
443.0993955643137
 30
0.0
 10
596.4653566696296
 20
443.0927164181264
 30
0.0
 10
596.36859987537
 20
443.0824416368491
 30
0.0
 10
596.2521914516648
 20
443.0200942847324
 30
0.0
 10
596.1720876249948
 20
442.9555627826165
 30
0.0
 10
596.1075592351212
 20
442.8754582809241
 30
0.0
 10
596.0452052881054
 20
442.7590533077299
 30
0.0
 10
596.0349336006676
 20
442.6622951861677
 30
0.0
 10
596.0282563675756
 20
442.5993964136799
 30
0.0
  0
SPLINE
  5
1A9
330
1F
100
AcDbEntity
  8
0
  6
Continuous
 62
     7
370
    25
100
AcDbSpline
210
0.0
220
0.0
230
1.0
 70
     8
 71
     3
 72
    13
 73
     9
 74
     0
 42
0.000000001
 43
0.00000001
 40
0.0
 40
0.0
 40
0.0
 40
0.0
 40
0.2394580096889871
 40
0.3683591640471782
 40
0.5000003845873439
 40
0.631636408833469
 40
0.7605471130185486
 40
0.9999999999999999
 40
0.9999999999999999
 40
0.9999999999999999
 40
0.9999999999999999
 10
620.0282565761919
 20
442.5993964136799
 30
0.0
 10
620.0215767875724
 20
442.6622945623212
 30
0.0
 10
620.0113012434173
 20
442.7590510228116
 30
0.0
 10
619.9489549907208
 20
442.8754607761416
 30
0.0
 10
619.8844210980154
 20
442.9555599479994
 30
0.0
 10
619.8043208417931
 20
443.020096781265
 30
0.0
 10
619.6879094341803
 20
443.0824398793322
 30
0.0
 10
619.5911521472722
 20
443.0927157721964
 30
0.0
 10
619.5282555629129
 20
443.0993955643137
 30
0.0
  0
ARC
  5
1AA
330
1F
100
AcDbEntity
  8
0
  6
Continuous
 62
     7
370
    25
100
AcDbCircle
 10
654.7211229498
 20
397.5428921529
 30
0.0
 40
0.3000060267412774
100
AcDbArc
 50
191.684608194
 51
280.0002281506
  0
ARC
  5
1AB
330
1F
100
AcDbEntity
  8
0
  6
Continuous
 62
     7
370
    25
100
AcDbCircle
 10
686.628880353
 20
403.1690904495
 30
0.0
 40
0.3000036675713538
100
AcDbArc
 50
279.9992900616
 51
11.6831965299
  0
ARC
  5
1AC
330
1F
100
AcDbEntity
  8
0
  6
Continuous
 62
     7
370
    25
100
AcDbCircle
 10
620.4771018674
 20
442.1170475602
 30
0.0
 40
0.1999969492532589
100
AcDbArc
 50
92.4788788405
 51
180.1856621653
  0
LINE
  5
1AD
330
1F
100
AcDbEntity
  8
0
  6
Continuous
 62
     7
370
    25
100
AcDbLine
 10
619.5282555629
 20
443.0993955643
 30
0.0
 11
596.5282536556
 21
443.0993955643
 31
0.0
  0
LINE
  5
1AE
330
1F
100
AcDbEntity
  8
0
  6
Continuous
 62
     7
370
    25
100
AcDbLine
 10
595.5771013607
 20
442.3188708783
 30
0.0
 11
595.5271005143
 21
442.3188708783
 31
0.0
  0
LINE
  5
1AF
330
1F
100
AcDbEntity
  8
0
  6
Continuous
 62
     7
370
    25
100
AcDbLine
 10
592.0271008719
 20
442.3188708783
 30
0.0
 11
591.5271035839
 21
442.3188708783
 31
0.0
  0
LINE
  5
1B0
330
1F
100
AcDbEntity
  8
0
  6
Continuous
 62
     7
370
    25
100
AcDbLine
 10
595.5271005143
 20
409.3188710571
 30
0.0
 11
595.5771013607
 21
409.3188710571
 31
0.0
  0
LWPOLYLINE
  5
1B1
330
1F
100
AcDbEntity
  8
0
  6
Continuous
 62
     7
370
    25
100
AcDbPolyline
 90
        3
 70
   128
 43
0.0
 10
595.6336214651
 20
442.3107199432
 10
595.6161200513
 20
442.3150282414
 10
595.5771013607
 20
442.3188708783
  0
LWPOLYLINE
  5
1B2
330
1F
100
AcDbEntity
  8
0
  6
Continuous
 62
     7
370
    25
100
AcDbPolyline
 90
        3
 70
   128
 43
0.0
 10
595.5771013607
 20
409.3188710571
 10
595.6161200513
 20
409.3227136941
 10
595.6336214651
 20
409.3270219923
  0
SPLINE
  5
1B3
330
1F
100
AcDbEntity
  8
0
  6
Continuous
 62
     7
370
    25
100
AcDbSpline
210
0.0
220
0.0
230
1.0
 70
     8
 71
     3
 72
    25
 73
    21
 74
     0
 42
0.000000001
 43
0.00000001
 40
0.0
 40
0.0
 40
0.0
 40
0.0
 40
0.1148728838357868
 40
0.2218783488807699
 40
0.3071848157128396
 40
0.3718613216311863
 40
0.4366212204722623
 40
0.4963187014703252
 40
0.5573433216076615
 40
0.6190217612962446
 40
0.6807854289071417
 40
0.7158020308880271
 40
0.74124355986537
 40
0.7631335049031718
 40
0.7889536573450029
 40
0.8319608285381243
 40
0.8608311386884043
 40
0.8939896868678867
 40
0.9403804732690658
 40
1.0
 40
1.0
 40
1.0
 40
1.0
 10
621.9122401882524
 20
409.3205381245573
 30
0.0
 10
623.4347070846264
 20
409.3215650821412
 30
0.0
 10
626.3753701019841
 20
409.3235486629956
 30
0.0
 10
630.4466362148446
 20
409.3204355335246
 30
0.0
 10
633.8526408927866
 20
409.3166504024007
 30
0.0
 10
636.6987014640417
 20
409.3198297390967
 30
0.0
 10
639.2054927736522
 20
409.3198717169284
 30
0.0
 10
641.6633996642023
 20
409.3064937987201
 30
0.0
 10
644.0822530816449
 20
409.3767379969065
 30
0.0
 10
646.5213501429462
 20
408.998077402535
 30
0.0
 10
648.4655597576958
 20
408.1474117185113
 30
0.0
 10
649.8224126335688
 20
407.2557999475426
 30
0.0
 10
650.6555893808111
 20
406.5477769759563
 30
0.0
 10
651.3386070287194
 20
405.8584830880184
 30
0.0
 10
652.1077182901133
 20
404.9316692604358
 30
0.0
 10
652.7902878777288
 20
403.8242028979864
 30
0.0
 10
653.3737478549905
 20
402.5575627200731
 30
0.0
 10
653.7922328234312
 20
401.1776937713811
 30
0.0
 10
654.0951132388726
 20
399.3564343657503
 30
0.0
 10
654.3400329904989
 20
397.9732459940433
 30
0.0
 10
654.4777743030901
 20
397.1953496397694
 30
0.0
  0
SPLINE
  5
1B4
330
1F
100
AcDbEntity
  8
0
  6
Continuous
 62
     7
370
    25
100
AcDbSpline
210
0.0
220
0.0
230
1.0
 70
     8
 71
     3
 72
    29
 73
    25
 74
     0
 42
0.000000001
 43
0.00000001
 40
0.0
 40
0.0
 40
0.0
 40
0.0
 40
0.0448703678894984
 40
0.0989180397661865
 40
0.1414197158212084
 40
0.170878041640391
 40
0.2168798983109188
 40
0.268004378184363
 40
0.3208953964611165
 40
0.3745402536782729
 40
0.4282208301661471
 40
0.47921348825507
 40
0.5171202288614293
 40
0.5565351970594027
 40
0.6004464048175792
 40
0.6457567376479394
 40
0.6844847737644558
 40
0.7053542811853551
 40
0.7252497154252664
 40
0.7532996923928424
 40
0.7901074714307925
 40
0.8484519648423469
 40
0.9186954884158802
 40
1.0
 40
1.0
 40
1.0
 40
1.0
 10
686.9764320064897
 20
402.9257401884755
 30
0.0
 10
686.757241924977
 20
404.2173199242809
 30
0.0
 10
686.2740309726436
 20
407.0646452678625
 30
0.0
 10
685.3855314695245
 20
411.1014894710585
 30
0.0
 10
684.2845300869432
 20
414.6162394720038
 30
0.0
 10
683.0391875021809
 20
417.8289204984332
 30
0.0
 10
681.439927131454
 20
421.1674280855098
 30
0.0
 10
679.150671142931
 20
424.911596248395
 30
0.0
 10
676.3035720619206
 20
428.5445307717627
 30
0.0
 10
672.9489808503306
 20
431.8229010215267
 30
0.0
 10
669.2686680053062
 20
434.6386753499053
 30
0.0
 10
665.667282744663
 20
436.7466131920959
 30
0.0
 10
662.2612678257407
 20
438.3155489997964
 30
0.0
 10
658.9362846309324
 20
439.5400164302075
 30
0.0
 10
655.3156510662883
 20
440.5533130069381
 30
0.0
 10
651.6495341533623
 20
441.2874463581395
 30
0.0
 10
648.6136995879735
 20
441.7041333137051
 30
0.0
 10
646.3043672383948
 20
441.937798658776
 30
0.0
 10
644.3009296158783
 20
442.0916250829696
 30
0.0
 10
641.8295578235013
 20
442.2218201074257
 30
0.0
 10
638.233251629916
 20
442.3141405700762
 30
0.0
 10
633.4040315007775
 20
442.3246312360938
 30
0.0
 10
627.2759495135725
 20
442.3058473329298
 30
0.0
 10
622.8512364616157
 20
442.3132360748196
 30
0.0
 10
620.4774073768968
 20
442.317200085636
 30
0.0
  0
SPLINE
  5
1B5
330
1F
100
AcDbEntity
  8
0
  6
Continuous
 62
     7
370
    25
100
AcDbSpline
210
0.0
220
0.0
230
1.0
 70
     8
 71
     3
 72
    13
 73
     9
 74
     0
 42
0.000000001
 43
0.00000001
 40
0.0
 40
0.0
 40
0.0
 40
0.0
 40
0.0433936041769805
 40
0.283430582362578
 40
0.5304381384333882
 40
0.756810988659519
 40
0.9400901454057861
 40
1.0
 40
1.0
 40
1.0
 40
1.0
 10
620.0455270220156
 20
407.4116714359482
 30
0.0
 10
620.0420116654097
 20
407.4539790264121
 30
0.0
 10
620.0190506878902
 20
407.7303161786483
 30
0.0
 10
620.2137107713866
 20
408.2377910036004
 30
0.0
 10
620.6237073457406
 20
408.8094308711167
 30
0.0
 10
621.1747619542408
 20
409.1580940032005
 30
0.0
 10
621.6191463008519
 20
409.3050146246071
 30
0.0
 10
621.856968067971
 20
409.3059339018004
 30
0.0
 10
621.9155556966181
 20
409.3061603666504
 30
0.0
  0
LINE
  5
1B6
330
1F
100
AcDbEntity
  8
0
  6
Continuous
 62
     7
370
    25
100
AcDbLine
 10
620.0271017362
 20
404.7688704045
 30
0.0
 11
620.0271017362
 21
407.405293739
 31
0.0
  0
LINE
  5
1B7
330
1F
100
AcDbEntity
  8
0
  6
Continuous
 62
     7
370
    25
100
AcDbLine
 10
596.0271015276
 20
408.2621309967
 30
0.0
 11
596.0271015276
 21
404.7688704045
 31
0.0
  0
ARC
  5
1B8
330
1F
100
AcDbEntity
  8
0
  6
Continuous
 62
     7
370
    25
100
AcDbCircle
 10
596.3271018435
 20
404.7688709677
 30
0.0
 40
0.3000000000000682
100
AcDbArc
 50
180.0
 51
270.0
  0
ARC
  5
1B9
330
1F
100
AcDbEntity
  8
0
  6
Continuous
 62
     7
370
    25
100
AcDbCircle
 10
619.7271018435
 20
404.7688709677
 30
0.0
 40
0.3000000000001819
100
AcDbArc
 50
270.0
 51
0.0
  0
LINE
  5
1BA
330
1F
100
AcDbEntity
  8
0
  6
Continuous
 62
     7
370
    25
100
AcDbLine
 10
683.2265696932
 20
398.2813760699
 30
0.0
 11
682.5454227139
 21
402.1444313289
 31
0.0
  0
LINE
  5
1BB
330
1F
100
AcDbEntity
  8
0
  6
Continuous
 62
     7
370
    25
100
AcDbLine
 10
658.9100278427
 20
397.9768764288
 30
0.0
 11
659.5911897231
 21
394.1138193072
 31
0.0
  0
LINE
  5
1BC
330
1F
100
AcDbEntity
  8
0
  6
Continuous
 62
     7
370
    25
100
AcDbLine
 10
619.7771049549
 20
391.4688706459
 30
0.0
 11
619.7771049549
 21
404.4688709141
 31
0.0
  0
LINE
  5
1BD
330
1F
100
AcDbEntity
  8
0
  6
Continuous
 62
     7
370
    25
100
AcDbLine
 10
596.2771020342
 20
404.4688709141
 30
0.0
 11
596.2771020342
 21
391.4688706459
 31
0.0
  0
LINE
  5
1BE
330
1F
100
AcDbEntity
  8
0
  6
Continuous
 62
     7
370
    25
100
AcDbLine
 10
659.5911897231
 20
394.1138193072
 30
0.0
 11
660.6762550284
 21
393.7188901068
 31
0.0
  0
LINE
  5
1BF
330
1F
100
AcDbEntity
  8
0
  6
Continuous
 62
     7
370
    25
100
AcDbLine
 10
682.3420218636
 20
397.5391492308
 30
0.0
 11
683.2265696932
 21
398.2813760699
 31
0.0
  0
LINE
  5
1C0
330
1F
100
AcDbEntity
  8
0
  6
Continuous
 62
     7
370
    25
100
AcDbLine
 10
618.5246027519
 20
388.668871677
 30
0.0
 11
617.7246041108
 21
389.4688703181
 31
0.0
  0
LINE
  5
1C1
330
1F
100
AcDbEntity
  8
0
  6
Continuous
 62
     7
370
    25
100
AcDbLine
 10
598.3296028782
 20
389.4688703181
 30
0.0
 11
597.5296005119
 21
388.668871677
 31
0.0
  0
LINE
  5
1C2
330
1F
100
AcDbEntity
  8
0
  6
Continuous
 62
     7
370
    25
100
AcDbLine
 10
618.5246027519
 20
382.2688713731
 30
0.0
 11
618.5246027519
 21
388.668871677
 31
0.0
  0
LINE
  5
1C3
330
1F
100
AcDbEntity
  8
0
  6
Continuous
 62
     7
370
    25
100
AcDbLine
 10
597.5296005119
 20
388.668871677
 30
0.0
 11
597.5296005119
 21
382.2688713731
 31
0.0
  0
LINE
  5
1C4
330
1F
100
AcDbEntity
  8
0
  6
Continuous
 62
     7
370
    25
100
AcDbLine
 10
620.2770985175
 20
436.3196307854
 30
0.0
 11
620.0282565762
 21
436.3196307854
 31
0.0
  0
ARC
  5
1C5
330
1F
100
AcDbEntity
  8
0
  6
Continuous
 62
     7
370
    25
100
AcDbCircle
 10
617.7771018435
 20
390.9688709677
 30
0.0
 40
0.5
100
AcDbArc
 50
90.0
 51
180.0
  0
ARC
  5
1C6
330
1F
100
AcDbEntity
  8
0
  6
Continuous
 62
     7
370
    25
100
AcDbCircle
 10
598.2771018435
 20
390.9688709677
 30
0.0
 40
0.5000000000001137
100
AcDbArc
 50
0.0
 51
90.0
  0
LINE
  5
1C7
330
1F
100
AcDbEntity
  8
0
  6
Continuous
 62
     7
370
    25
100
AcDbLine
 10
617.2770998885
 20
389.4688703181
 30
0.0
 11
617.2770998885
 21
390.9688696326
 31
0.0
  0
LINE
  5
1C8
330
1F
100
AcDbEntity
  8
0
  6
Continuous
 62
     7
370
    25
100
AcDbLine
 10
598.7771033753
 20
390.9688696326
 30
0.0
 11
598.7771033753
 21
389.4688703181
 31
0.0
  0
LINE
  5
1C9
330
1F
100
AcDbEntity
  8
0
  6
Continuous
 62
     7
370
    25
100
AcDbLine
 10
597.5296005119
 20
382.2688713731
 30
0.0
 11
598.3296028782
 21
381.468872732
 31
0.0
  0
LINE
  5
1CA
330
1F
100
AcDbEntity
  8
0
  6
Continuous
 62
     7
370
    25
100
AcDbLine
 10
617.7246041108
 20
381.468872732
 30
0.0
 11
618.5246027519
 21
382.2688713731
 31
0.0
  0
SPLINE
  5
1CB
330
1F
100
AcDbEntity
  8
0
  6
Continuous
 62
     7
370
    25
100
AcDbSpline
210
0.0
220
0.0
230
1.0
 70
     8
 71
     3
 72
    10
 73
     6
 74
     0
 42
0.000000001
 43
0.00000001
 40
0.0
 40
0.0
 40
0.0
 40
0.0
 40
0.0173732420464248
 40
0.6138453853140492
 40
1.0
 40
1.0
 40
1.0
 40
1.0
 10
595.7836426307077
 20
409.2850063056906
 30
0.0
 10
595.7871138256814
 20
409.2800444414358
 30
0.0
 10
595.9097608831743
 20
409.1047278558935
 30
0.0
 10
596.0233784912464
 20
408.7457920971833
 30
0.0
 10
596.0029931474982
 20
408.3993709521447
 30
0.0
 10
595.9949820746298
 20
408.2632336826285
 30
0.0
  0
LINE
  5
1CC
330
1F
100
AcDbEntity
  8
0
  6
Continuous
 62
     7
370
    25
100
AcDbLine
 10
586.9031540562
 20
409.3087289543
 30
0.0
 11
587.3186021556
 21
409.0688705505
 31
0.0
  0
LINE
  5
1CD
330
1F
100
AcDbEntity
  8
0
  6
Continuous
 62
     7
370
    25
100
AcDbLine
 10
592.2356016446
 20
409.0688705505
 30
0.0
 11
592.651049744
 21
409.3087289543
 31
0.0
  0
LINE
  5
1CE
330
1F
100
AcDbEntity
  8
0
  6
Continuous
 62
     7
370
    25
100
AcDbLine
 10
604.3271041919
 20
430.318870774
 30
0.0
 11
611.7271027972
 21
430.318870774
 31
0.0
  0
ARC
  5
1CF
330
1F
100
AcDbEntity
  8
0
  6
Continuous
 62
     7
370
    25
100
AcDbCircle
 10
604.3271018435
 20
429.5188709677
 30
0.0
 40
0.8000000000000682
100
AcDbArc
 50
90.0
 51
180.0
  0
ARC
  5
1D0
330
1F
100
AcDbEntity
  8
0
  6
Continuous
 62
     7
370
    25
100
AcDbCircle
 10
604.3271018435
 20
422.1188709677
 30
0.0
 40
0.8000000000000682
100
AcDbArc
 50
180.0
 51
270.0
  0
LINE
  5
1D1
330
1F
100
AcDbEntity
  8
0
  6
Continuous
 62
     7
370
    25
100
AcDbLine
 10
611.7271027972
 20
421.3188711615
 30
0.0
 11
604.3271041919
 21
421.3188711615
 31
0.0
  0
LINE
  5
1D2
330
1F
100
AcDbEntity
  8
0
  6
Continuous
 62
     7
370
    25
100
AcDbLine
 10
603.5271055509
 20
422.1188709666
 30
0.0
 11
603.5271055509
 21
429.5188709689
 31
0.0
  0
ARC
  5
1D3
330
1F
100
AcDbEntity
  8
0
  6
Continuous
 62
     7
370
    25
100
AcDbCircle
 10
611.7271018435
 20
429.5188709677
 30
0.0
 40
0.8000000000000682
100
AcDbArc
 50
0.0
 51
90.0
  0
ARC
  5
1D4
330
1F
100
AcDbEntity
  8
0
  6
Continuous
 62
     7
370
    25
100
AcDbCircle
 10
611.7271018435
 20
422.1188709677
 30
0.0
 40
0.8000000000000682
100
AcDbArc
 50
270.0
 51
0.0
  0
LINE
  5
1D5
330
1F
100
AcDbEntity
  8
0
  6
Continuous
 62
     7
370
    25
100
AcDbLine
 10
612.5271014382
 20
429.5188709689
 30
0.0
 11
612.5271014382
 21
422.1188709666
 31
0.0
  0
LINE
  5
1D6
330
1F
100
AcDbEntity
  8
0
  6
Continuous
 62
     7
370
    25
100
AcDbLine
 10
492.7271000553
 20
390.8188708187
 30
0.0
 11
492.7271000553
 21
460.8188711168
 31
0.0
  0
LINE
  5
1D7
330
1F
100
AcDbEntity
  8
0
  6
Continuous
 62
     7
370
    25
100
AcDbLine
 10
505.7271003236
 20
460.0188724757
 30
0.0
 11
505.7271003236
 21
391.6188694597
 31
0.0
  0
LINE
  5
1D8
330
1F
100
AcDbEntity
  8
0
  6
Continuous
 62
     7
370
    25
100
AcDbLine
 10
537.7271018435
 20
409.5188707174
 30
0.0
 11
537.7271018435
 21
442.1188712181
 31
0.0
  0
LINE
  5
1D9
330
1F
100
AcDbEntity
  8
0
  6
Continuous
 62
     7
370
    25
100
AcDbLine
 10
591.7271032442
 20
425.8188709677
 30
0.0
 11
591.7271032442
 21
409.5188707174
 31
0.0
  0
LINE
  5
1DA
330
1F
100
AcDbEntity
  8
0
  6
Continuous
 62
     7
370
    25
100
AcDbLine
 10
591.7271032442
 20
442.1188712181
 30
0.0
 11
591.7271032442
 21
425.8188709677
 31
0.0
  0
LINE
  5
1DB
330
1F
100
AcDbEntity
  8
0
  6
Continuous
 62
     7
370
    25
100
AcDbLine
 10
596.2271011878
 20
425.8188709677
 30
0.0
 11
596.2271011878
 21
410.0188717307
 31
0.0
  0
LINE
  5
1DC
330
1F
100
AcDbEntity
  8
0
  6
Continuous
 62
     7
370
    25
100
AcDbLine
 10
596.2271011878
 20
441.6188702048
 30
0.0
 11
596.2271011878
 21
425.8188709677
 31
0.0
  0
LINE
  5
1DD
330
1F
100
AcDbEntity
  8
0
  6
Continuous
 62
     7
370
    25
100
AcDbLine
 10
518.7271024544
 20
441.0188702927
 30
0.0
 11
518.7271024544
 21
410.6188707114
 31
0.0
  0
LINE
  5
1DE
330
1F
100
AcDbEntity
  8
0
  6
Continuous
 62
     7
370
    25
100
AcDbLine
 10
536.727101796
 20
440.8188706325
 30
0.0
 11
519.7271026183
 21
440.8188706325
 31
0.0
  0
LINE
  5
1DF
330
1F
100
AcDbEntity
  8
0
  6
Continuous
 62
     7
370
    25
100
AcDbLine
 10
536.727101796
 20
440.8188706325
 30
0.0
 11
536.727101796
 21
410.818871303
 31
0.0
  0
LINE
  5
1E0
330
1F
100
AcDbEntity
  8
0
  6
Continuous
 62
     7
370
    25
100
AcDbLine
 10
519.7271026183
 20
410.818871303
 30
0.0
 11
536.727101796
 21
410.818871303
 31
0.0
  0
LINE
  5
1E1
330
1F
100
AcDbEntity
  8
0
  6
Continuous
 62
     7
370
    25
100
AcDbLine
 10
519.7271026183
 20
440.8188706325
 30
0.0
 11
519.7271026183
 21
410.818871303
 31
0.0
  0
LINE
  5
1E2
330
1F
100
AcDbEntity
  8
0
  6
Continuous
 62
     7
370
    25
100
AcDbLine
 10
612.5271014382
 20
422.1188709666
 30
0.0
 11
612.5271014382
 21
421.1388711878
 31
0.0
  0
LINE
  5
1E3
330
1F
100
AcDbEntity
  8
0
  6
Continuous
 62
     7
370
    25
100
AcDbLine
 10
612.5271014382
 20
430.4988707477
 30
0.0
 11
612.5271014382
 21
429.5188709689
 31
0.0
  0
LINE
  5
1E4
330
1F
100
AcDbEntity
  8
0
  6
Continuous
 62
     7
370
    25
100
AcDbLine
 10
612.5271014382
 20
421.1388711878
 30
0.0
 11
612.5271014382
 21
418.6188710914
 31
0.0
  0
LINE
  5
1E5
330
1F
100
AcDbEntity
  8
0
  6
Continuous
 62
     7
370
    25
100
AcDbLine
 10
612.5271014382
 20
433.0188708441
 30
0.0
 11
612.5271014382
 21
430.4988707477
 31
0.0
  0
SPLINE
  5
1E6
330
1F
100
AcDbEntity
  8
0
  6
Continuous
 62
     7
370
    25
100
AcDbSpline
210
0.0
220
0.0
230
1.0
 70
    24
 71
     3
 72
     9
 73
     5
 74
     0
 42
0.000000001
 43
0.00000001
 40
0.0
 40
0.0
 40
0.0
 40
0.0
 40
0.1430528234769937
 40
1.0
 40
1.0
 40
1.0
 40
1.0
 10
596.0282563675756
 20
442.1010606051644
 30
0.0
 10
596.0282563675756
 20
442.1595742020993
 30
0.0
 10
596.0282563675756
 20
442.5686090992281
 30
0.0
 10
596.0282563675756
 20
442.5851886308599
 30
0.0
 10
596.0282563675756
 20
442.5993964136799
 30
0.0
  0
SPLINE
  5
1E7
330
1F
100
AcDbEntity
  8
0
  6
Continuous
 62
     7
370
    25
100
AcDbSpline
210
0.0
220
0.0
230
1.0
 70
    24
 71
     3
 72
    33
 73
    29
 74
     0
 42
0.000000001
 43
0.00000001
 40
0.0
 40
0.0
 40
0.0
 40
0.0
 40
0.0139589707335429
 40
0.0279140104449297
 40
0.0418735465250845
 40
0.0558459982115376
 40
0.0849434795567758
 40
0.114058972112282
 40
0.1442574083670792
 40
0.1744737443494787
 40
0.2368350465025829
 40
0.3008703292268354
 40
0.3662277307912714
 40
0.432506218606492
 40
0.4992686918100651
 40
0.5660584905865573
 40
0.6324178382513562
 40
0.6979063954827325
 40
0.7621180855584424
 40
0.7934093693789066
 40
0.8247184080053772
 40
0.8550404119526706
 40
0.8853803900537911
 40
0.9083328275771693
 40
0.9312336386681532
 40
0.9541201753776194
 40
0.9770298595755966
 40
0.9999999999999999
 40
0.9999999999999999
 40
0.9999999999999999
 40
0.9999999999999999
 10
620.0282553434877
 20
442.5993961369688
 30
0.0
 10
620.0282553434877
 20
442.5984439840757
 30
0.0
 10
620.0282553434877
 20
442.5965399464277
 30
0.0
 10
620.0282553434877
 20
442.5810695310567
 30
0.0
 10
620.0282553434877
 20
442.5563581708155
 30
0.0
 10
620.0282553434877
 20
442.5089685670014
 30
0.0
 10
620.0282553434877
 20
442.4227749273837
 30
0.0
 10
620.0282553434877
 20
442.2738006132408
 30
0.0
 10
620.0282553434877
 20
442.0787472996898
 30
0.0
 10
620.0282553434877
 20
441.7501250445202
 30
0.0
 10
620.0282553434877
 20
441.2130088488796
 30
0.0
 10
620.0282553434877
 20
440.3665447701172
 30
0.0
 10
620.0282553434877
 20
439.3164951078977
 30
0.0
 10
620.0282553434877
 20
438.0738220551277
 30
0.0
 10
620.0282553434877
 20
436.6580442763014
 30
0.0
 10
620.0282553434877
 20
435.0964103309057
 30
0.0
 10
620.0282553434877
 20
433.4221125216501
 30
0.0
 10
620.0282553434877
 20
431.6722371199355
 30
0.0
 10
620.0282553434877
 20
430.1751566902994
 30
0.0
 10
620.0282553434877
 20
428.9732410219237
 30
0.0
 10
620.0282553434877
 20
428.0837900005755
 30
0.0
 10
620.0282553434877
 20
427.1977339470948
 30
0.0
 10
620.0282553434877
 20
426.3892737242975
 30
0.0
 10
620.0282553434877
 20
425.6521893799189
 30
0.0
 10
620.0282553434877
 20
424.9878887596364
 30
0.0
 10
620.0282553434877
 20
424.3259092491878
 30
0.0
 10
620.0282553434877
 20
423.665798941762
 30
0.0
 10
620.0282553434877
 20
423.2289150669422
 30
0.0
 10
620.0282553434877
 20
423.0101852867749
 30
0.0
  0
SPLINE
  5
1E8
330
1F
100
AcDbEntity
  8
0
  6
Continuous
 62
     7
370
    25
100
AcDbSpline
210
0.0
220
0.0
230
1.0
 70
     8
 71
     3
 72
    17
 73
    13
 74
     0
 42
0.000000001
 43
0.00000001
 40
0.0
 40
0.0
 40
0.0
 40
0.0
 40
0.0670800854786259
 40
0.1748627545933624
 40
0.2826435388700663
 40
0.3903951723611501
 40
0.4981530329436973
 40
0.6048691693368013
 40
0.7115793751761262
 40
0.8195641203365389
 40
0.9275504801276026
 40
1.0
 40
1.0
 40
1.0
 40
1.0
 10
670.7271031547899
 20
400.0605449141224
 30
0.0
 10
670.1673438172728
 20
399.9618444987084
 30
0.0
 10
668.7081766297359
 20
399.7045546280165
 30
0.0
 10
666.381441290563
 20
399.2942867646736
 30
0.0
 10
663.8432165926054
 20
398.8467304559039
 30
0.0
 10
661.5074694367223
 20
398.434875091515
 30
0.0
 10
659.4359714342312
 20
398.0696133782848
 30
0.0
 10
657.6952373367435
 20
397.7626737406042
 30
0.0
 10
656.3060968755558
 20
397.5177328092635
 30
0.0
 10
655.3480890389816
 20
397.348807860747
 30
0.0
 10
654.8232031439435
 20
397.2562583286817
 30
0.0
 10
654.8224499964297
 20
397.2561252899953
 30
0.0
 10
654.8221475888605
 20
397.2560718716343
 30
0.0
  0
SPLINE
  5
1E9
330
1F
100
AcDbEntity
  8
0
  6
Continuous
 62
     7
370
    25
100
AcDbSpline
210
0.0
220
0.0
230
1.0
 70
     8
 71
     3
 72
    17
 73
    13
 74
     0
 42
0.000000001
 43
0.00000001
 40
0.0
 40
0.0
 40
0.0
 40
0.0
 40
0.0343629766186753
 40
0.141116520883119
 40
0.2491521088648451
 40
0.357193067733253
 40
0.4643714950994288
 40
0.5715526697023634
 40
0.678679812391141
 40
0.78579967808718
 40
0.892893357507671
 40
0.9999999999999999
 40
0.9999999999999999
 40
0.9999999999999999
 40
0.9999999999999999
 10
686.6320363689775
 20
402.8650142313202
 30
0.0
 10
686.6455748964552
 20
402.8674006048615
 30
0.0
 10
686.7011728126871
 20
402.8772005920806
 30
0.0
 10
686.3486931578875
 20
402.815053428895
 30
0.0
 10
685.5529024676144
 20
402.6747324957983
 30
0.0
 10
684.3053388725107
 20
402.4547556680859
 30
0.0
 10
682.6760662674536
 20
402.167466191334
 30
0.0
 10
680.7203590985154
 20
401.8226268096547
 30
0.0
 10
678.4789022713059
 20
401.4273952064657
 30
0.0
 10
676.022348818465
 20
400.9942417989449
 30
0.0
 10
673.4114511576765
 20
400.5338675694729
 30
0.0
 10
671.621921922265
 20
400.2183254979451
 30
0.0
 10
670.7271031547899
 20
400.0605449141224
 30
0.0
  0
LWPOLYLINE
  5
1EA
330
1F
100
AcDbEntity
  8
0
  6
Continuous
 62
     7
370
    25
100
AcDbPolyline
 90
       14
 70
   128
 43
0.0
 10
620.4773626734
 20
442.2647237838
 10
620.4773626734
 20
442.2110199989
 10
620.4773477723
 20
441.6720021577
 10
620.4773179699
 20
440.6521890373
 10
620.477280717
 20
439.258818707
 10
620.4772434641
 20
437.4456742839
 10
620.4772062112
 20
435.3422021554
 10
620.4771689583
 20
432.9028708921
 10
620.4771317054
 20
430.3311144063
 10
620.4771093537
 20
427.5519542457
 10
620.4771093537
 20
427.1546535488
 10
620.4771019031
 20
425.8184390821
 10
620.4771019031
 20
425.8183790821
 10
620.4771019031
 20
425.8183790821
  0
SPLINE
  5
1EB
330
1F
100
AcDbEntity
  8
0
  6
Continuous
 62
     7
370
    25
100
AcDbSpline
210
0.0
220
0.0
230
1.0
 70
    24
 71
     3
 72
    10
 73
     6
 74
     0
 42
0.000000001
 43
0.00000001
 40
0.0
 40
0.0
 40
0.0
 40
0.0
 40
0.3436960970760159
 40
0.6975651023237179
 40
1.0
 40
1.0
 40
1.0
 40
1.0
 10
620.2770985175486
 20
415.6055899397691
 30
0.0
 10
620.2770985175486
 20
416.3440937623939
 30
0.0
 10
620.2770985175486
 20
417.8429600543836
 30
0.0
 10
620.2770985175486
 20
420.281105957666
 30
0.0
 10
620.2770985175486
 20
421.9808035610972
 30
0.0
 10
620.2770985175486
 20
422.7640502681245
 30
0.0
  0
SPLINE
  5
1EC
330
1F
100
AcDbEntity
  8
0
  6
Continuous
 62
     7
370
    25
100
AcDbSpline
210
0.0
220
0.0
230
1.0
 70
    24
 71
     3
 72
    20
 73
    16
 74
     0
 42
0.000000001
 43
0.00000001
 40
0.0
 40
0.0
 40
0.0
 40
0.0
 40
0.041437390979677
 40
0.082879819110854
 40
0.1243935048956143
 40
0.1660443289605338
 40
0.2078975243339009
 40
0.2500173837883011
 40
0.3749529676589045
 40
0.5000257238300186
 40
0.6243968299063621
 40
0.7499387302767645
 40
0.8333222127032631
 40
0.916529536568708
 40
1.0
 40
1.0
 40
1.0
 40
1.0
 10
620.0282553434877
 20
423.0101852918488
 30
0.0
 10
620.0282553434877
 20
422.9643444696427
 30
0.0
 10
620.0282553434877
 20
422.8726572527955
 30
0.0
 10
620.0282553434877
 20
422.7264620026375
 30
0.0
 10
620.0282553434877
 20
422.5740232798391
 30
0.0
 10
620.0282553434877
 20
422.4147132735784
 30
0.0
 10
620.0282553434877
 20
422.2486935816108
 30
0.0
 10
620.0282553434877
 20
421.9632523347198
 30
0.0
 10
620.0282553434877
 20
421.5392305916124
 30
0.0
 10
620.0282553434877
 20
420.9553464569431
 30
0.0
 10
620.0282553434877
 20
420.3384557943354
 30
0.0
 10
620.0282553434877
 20
419.7687417444261
 30
0.0
 10
620.0282553434877
 20
419.2596431076753
 30
0.0
 10
620.0282553434877
 20
418.8191343553602
 30
0.0
 10
620.0282553434877
 20
418.5239771001764
 30
0.0
 10
620.0282553434877
 20
418.3761654854742
 30
0.0
  0
LINE
  5
1ED
330
1F
100
AcDbEntity
  8
0
  6
Continuous
 62
     7
370
    25
100
AcDbLine
 10
620.0282565762
 20
418.3761656345
 30
0.0
 11
620.0282565762
 21
416.5993958772
 31
0.0
  0
LINE
  5
1EE
330
1F
100
AcDbEntity
  8
0
  6
Continuous
 62
     7
370
    25
100
AcDbLine
 10
619.5282555629
 20
415.0993965627
 30
0.0
 11
596.5282536556
 21
415.0993965627
 31
0.0
  0
ARC
  5
1EF
330
1F
100
AcDbEntity
  8
0
  6
Continuous
 62
     7
370
    25
100
AcDbCircle
 10
619.5282553435
 20
415.5993961255
 30
0.0
 40
0.4999999997889999
100
AcDbArc
 50
269.999998716
 51
0.0000059805
  0
LINE
  5
1F0
330
1F
100
AcDbEntity
  8
0
  6
Continuous
 62
     7
370
    25
100
AcDbLine
 10
620.0282565762
 20
415.5993957133
 30
0.0
 11
620.0282565762
 21
416.5993958772
 31
0.0
  0
ARC
  5
1F1
330
1F
100
AcDbEntity
  8
0
  6
Continuous
 62
     7
370
    25
100
AcDbCircle
 10
596.5282553535
 20
415.5993961355
 30
0.0
 40
0.5000000116492812
100
AcDbArc
 50
232.9646959269
 51
270.000000138
  0
LINE
  5
1F2
330
1F
100
AcDbEntity
  8
0
  6
Continuous
 62
     7
370
    25
100
AcDbLine
 10
666.685908239
 20
395.364810905
 30
0.0
 11
666.0915754248
 21
398.7354628802
 31
0.0
  0
LWPOLYLINE
  5
1F3
330
1F
100
AcDbEntity
  8
0
  6
Continuous
 62
     7
370
    25
100
AcDbPolyline
 90
        8
 70
   128
 43
0.0
 10
666.685908239
 20
395.364810905
 10
664.8384324719
 20
395.0390491695
 10
663.199528258
 20
394.7500672252
 10
661.8212379028
 20
394.5070385994
 10
660.7473112155
 20
394.3176746429
 10
660.0118420531
 20
394.1879935623
 10
659.638180535
 20
394.1221043528
 10
659.5911897231
 20
394.1138193072
  0
LWPOLYLINE
  5
1F4
330
1F
100
AcDbEntity
  8
0
  6
Continuous
 62
     7
370
    25
100
AcDbPolyline
 90
        8
 70
   128
 43
0.0
 10
683.2265696932
 20
398.2813760699
 10
683.179586332
 20
398.2730910243
 10
682.8059248139
 20
398.2072036774
 10
682.0704482008
 20
398.0775207342
 10
680.9965215136
 20
397.8881586404
 10
679.618238609
 20
397.6451281519
 10
677.9793343951
 20
397.3561462076
 10
676.1318586279
 20
397.0303863348
  0
LINE
  5
1F5
330
1F
100
AcDbEntity
  8
0
  6
Continuous
 62
     7
370
    25
100
AcDbLine
 10
675.5375258137
 20
400.40103831
 30
0.0
 11
676.1318586279
 21
397.0303863348
 31
0.0
  0
LWPOLYLINE
  5
1F6
330
1F
100
AcDbEntity
  8
0
  6
Continuous
 62
     7
370
    25
100
AcDbPolyline
 90
        9
 70
   128
 43
0.0
 10
666.0915754248
 20
398.7354628802
 10
667.2279975821
 20
398.9358443828
 10
668.4022686888
 20
399.1429016055
 10
669.60200588
 20
399.354447803
 10
670.8145431687
 20
399.5682496638
 10
672.0270804573
 20
399.7820533873
 10
673.2268176485
 20
399.9935995848
 10
674.4011036564
 20
400.2006568075
 10
675.5375258137
 20
400.40103831
  0
LINE
  5
1F7
330
1F
100
AcDbEntity
  8
0
  6
Continuous
 62
     7
370
    25
100
AcDbLine
 10
619.7771049549
 20
391.4688706459
 30
0.0
 11
596.2771020342
 21
391.4688706459
 31
0.0
  0
LINE
  5
1F8
330
1F
100
AcDbEntity
  8
0
  6
Continuous
 62
     7
370
    25
100
AcDbLine
 10
619.7771049549
 20
404.4688709141
 30
0.0
 11
596.2771020342
 21
404.4688709141
 31
0.0
  0
SPLINE
  5
1F9
330
1F
100
AcDbEntity
  8
0
  6
Continuous
 62
     7
370
    25
100
AcDbSpline
210
0.0
220
0.0
230
1.0
 70
     8
 71
     3
 72
    10
 73
     6
 74
     0
 42
0.000000001
 43
0.00000001
 40
0.0
 40
0.0
 40
0.0
 40
0.0
 40
0.5
 40
0.5
 40
1.0
 40
1.0
 40
1.0
 40
1.0
 10
671.5091395335248
 20
395.6290192204049
 30
0.0
 10
670.7140305204014
 20
395.4888200487866
 30
0.0
 10
669.9004069216186
 20
395.3991369381542
 30
0.0
 10
668.2887025247909
 20
395.3170709684536
 30
0.0
 10
667.4860733414955
 20
395.3229741338732
 30
0.0
 10
666.685911645106
 20
395.3648108372853
 30
0.0
  0
LWPOLYLINE
  5
1FA
330
1F
100
AcDbEntity
  8
0
  6
Continuous
 62
     7
370
    25
100
AcDbPolyline
 90
       10
 70
   128
 43
0.0
 10
671.5091458966
 20
395.6290196688
 10
669.5186040808
 20
395.2780339928
 10
667.5958476473
 20
394.9390009106
 10
665.8063671996
 20
394.6234650971
 10
664.2110786845
 20
394.3421721519
 10
662.8643117358
 20
394.1047035218
 10
661.8119395782
 20
393.9191393615
 10
661.0897920538
 20
393.7918089391
 10
660.7224635292
 20
393.7270373167
 10
660.6762550284
 20
393.7188901068
  0
SPLINE
  5
1FB
330
1F
100
AcDbEntity
  8
0
  6
Continuous
 62
     7
370
    25
100
AcDbSpline
210
0.0
220
0.0
230
1.0
 70
     8
 71
     3
 72
     8
 73
     4
 74
     0
 42
0.000000001
 43
0.00000001
 40
0.0
 40
0.0
 40
0.0
 40
0.0
 40
1.0
 40
1.0
 40
1.0
 40
1.0
 10
676.1318557777033
 20
397.0303856461276
 30
0.0
 10
674.6384232059241
 20
396.3966763806029
 30
0.0
 10
673.103069673264
 20
395.9100721094053
 30
0.0
 10
671.5091395335248
 20
395.6290192204049
 30
0.0
  0
LWPOLYLINE
  5
1FC
330
1F
100
AcDbEntity
  8
0
  6
Continuous
 62
     7
370
    25
100
AcDbPolyline
 90
       10
 70
   128
 43
0.0
 10
682.3420218636
 20
397.5391492308
 10
682.2958133627
 20
397.5310001583
 10
681.9284848381
 20
397.4662303985
 10
681.2063447644
 20
397.3388981135
 10
680.1539651562
 20
397.1533358158
 10
678.8072131087
 20
396.9158653231
 10
677.2119245936
 20
396.6345723779
 10
675.4224292446
 20
396.319038427
 10
673.4996728112
 20
395.9800053449
 10
671.5091458966
 20
395.6290196688
  0
LINE
  5
1FD
330
1F
100
AcDbEntity
  8
0
  6
Continuous
 62
     7
370
    25
100
AcDbLine
 10
617.7246041108
 20
389.4688703181
 30
0.0
 11
598.3296028782
 21
389.4688703181
 31
0.0
  0
LINE
  5
1FE
330
1F
100
AcDbEntity
  8
0
  6
Continuous
 62
     7
370
    25
100
AcDbLine
 10
618.5246027519
 20
388.668871677
 30
0.0
 11
597.5296005119
 21
388.668871677
 31
0.0
  0
LINE
  5
1FF
330
1F
100
AcDbEntity
  8
0
  6
Continuous
 62
     7
370
    25
100
AcDbLine
 10
602.6236332466
 20
382.2688713731
 30
0.0
 11
602.6236332466
 21
386.468871689
 31
0.0
  0
LINE
  5
200
330
1F
100
AcDbEntity
  8
0
  6
Continuous
 62
     7
370
    25
100
AcDbLine
 10
602.6236332466
 20
382.2688713731
 30
0.0
 11
597.5296005119
 21
382.2688713731
 31
0.0
  0
LINE
  5
201
330
1F
100
AcDbEntity
  8
0
  6
Continuous
 62
     7
370
    25
100
AcDbLine
 10
618.5246027519
 20
382.2688713731
 30
0.0
 11
613.4305737425
 21
382.2688713731
 31
0.0
  0
LINE
  5
202
330
1F
100
AcDbEntity
  8
0
  6
Continuous
 62
     7
370
    25
100
AcDbLine
 10
613.4305737425
 20
386.468871689
 30
0.0
 11
613.4305737425
 21
382.2688713731
 31
0.0
  0
LINE
  5
203
330
1F
100
AcDbEntity
  8
0
  6
Continuous
 62
     7
370
    25
100
AcDbLine
 10
602.6236332466
 20
386.468871689
 30
0.0
 11
613.4305737425
 21
386.468871689
 31
0.0
  0
SPLINE
  5
204
330
1F
100
AcDbEntity
  8
0
  6
Continuous
 62
     7
370
    25
100
AcDbSpline
210
0.0
220
0.0
230
1.0
 70
     8
 71
     3
 72
     8
 73
     4
 74
     0
 42
0.000000001
 43
0.00000001
 40
0.0
 40
0.0
 40
0.0
 40
0.0
 40
1.0
 40
1.0
 40
1.0
 40
1.0
 10
604.4157992737769
 20
381.4688709677418
 30
0.0
 10
603.7971569329451
 20
381.6992504134936
 30
0.0
 10
603.2026444818584
 20
381.9708297673404
 30
0.0
 10
602.6236301585429
 20
382.2688709677418
 30
0.0
  0
LINE
  5
205
330
1F
100
AcDbEntity
  8
0
  6
Continuous
 62
     7
370
    25
100
AcDbLine
 10
604.4157959033
 20
381.468872732
 30
0.0
 11
598.3296028782
 21
381.468872732
 31
0.0
  0
SPLINE
  5
206
330
1F
100
AcDbEntity
  8
0
  6
Continuous
 62
     7
370
    25
100
AcDbSpline
210
0.0
220
0.0
230
1.0
 70
     8
 71
     3
 72
     8
 73
     4
 74
     0
 42
0.000000001
 43
0.00000001
 40
0.0
 40
0.0
 40
0.0
 40
0.0
 40
1.0
 40
1.0
 40
1.0
 40
1.0
 10
613.4305735284325
 20
382.2688709677418
 30
0.0
 10
612.8486082287969
 20
381.9693107850125
 30
0.0
 10
612.2534397623523
 20
381.6979071870624
 30
0.0
 10
611.6384044131985
 20
381.4688709677418
 30
0.0
  0
LINE
  5
207
330
1F
100
AcDbEntity
  8
0
  6
Continuous
 62
     7
370
    25
100
AcDbLine
 10
611.6384036352
 20
381.468872732
 30
0.0
 11
604.4157959033
 21
381.468872732
 31
0.0
  0
LINE
  5
208
330
1F
100
AcDbEntity
  8
0
  6
Continuous
 62
     7
370
    25
100
AcDbLine
 10
617.7246041108
 20
381.468872732
 30
0.0
 11
611.6384036352
 21
381.468872732
 31
0.0
  0
LINE
  5
209
330
1F
100
AcDbEntity
  8
0
  6
Continuous
 62
     7
370
    25
100
AcDbLine
 10
591.8436415006
 20
409.3815062256
 30
0.0
 11
591.6724681367
 21
409.3815062256
 31
0.0
  0
LINE
  5
20A
330
1F
100
AcDbEntity
  8
0
  6
Continuous
 62
     7
370
    25
100
AcDbLine
 10
592.2356016446
 20
409.0688705505
 30
0.0
 11
587.3186021556
 21
409.0688705505
 31
0.0
  0
LINE
  5
20B
330
1F
100
AcDbEntity
  8
0
  6
Continuous
 62
     8
370
    18
100
AcDbLine
 10
620.4771019031
 20
425.8183790821
 30
0.0
 11
620.2770985175
 21
425.8183790821
 31
0.0
  0
SPLINE
  5
20C
330
1F
100
AcDbEntity
  8
0
  6
Continuous
 62
     8
370
    18
100
AcDbSpline
210
0.0
220
0.0
230
1.0
 70
     8
 71
     3
 72
    19
 73
    15
 74
     0
 42
0.000000001
 43
0.00000001
 40
0.0
 40
0.0
 40
0.0
 40
0.0
 40
0.03125
 40
0.03125
 40
0.0625
 40
0.125
 40
0.125
 40
0.2499999999999999
 40
0.2499999999999999
 40
0.5000000000000001
 40
0.5000000000000001
 40
0.75
 40
0.75
 40
1.0
 40
1.0
 40
1.0
 40
1.0
 10
620.4771018436207
 20
425.8183790821291
 30
0.0
 10
620.4771013600877
 20
425.7029111078503
 30
0.0
 10
620.4771008883563
 20
425.5843642908311
 30
0.0
 10
620.4771000102846
 20
425.3509674795667
 30
0.0
 10
620.4770987704247
 20
425.0014900492033
 30
0.0
 10
620.4770977627865
 20
424.6538567322703
 30
0.0
 10
620.4770960599833
 20
423.9610327625168
 30
0.0
 10
620.4770953420547
 20
423.5024038381732
 30
0.0
 10
620.4770944463592
 20
422.1362606024078
 30
0.0
 10
620.4770955321897
 20
421.2382691902254
 30
0.0
 10
620.4771009587694
 20
419.4700213345931
 30
0.0
 10
620.4771052766812
 20
418.6121065668719
 30
0.0
 10
620.4771162832897
 20
416.9823179629782
 30
0.0
 10
620.4771229522961
 20
416.2098785841797
 30
0.0
 10
620.4771303828895
 20
415.4801233804355
 30
0.0
  0
LINE
  5
20D
330
1F
100
AcDbEntity
  8
0
  6
Continuous
 62
     8
370
    18
100
AcDbLine
 10
595.5771013607
 20
409.3188710571
 30
0.0
 11
595.5771013607
 21
409.3206591965
 31
0.0
  0
LINE
  5
20E
330
1F
100
AcDbEntity
  8
0
  6
Continuous
 62
     8
370
    18
100
AcDbLine
 10
595.5771013607
 20
442.317082739
 30
0.0
 11
595.5771013607
 21
442.3188708783
 31
0.0
  0
SPLINE
  5
20F
330
1F
100
AcDbEntity
  8
0
  6
Continuous
 62
     8
370
    18
100
AcDbSpline
210
0.0
220
0.0
230
1.0
 70
     8
 71
     3
 72
    12
 73
     8
 74
     0
 42
0.000000001
 43
0.00000001
 40
0.0
 40
0.0
 40
0.0
 40
0.0
 40
0.4999999999999982
 40
0.4999999999999982
 40
0.7499999999999991
 40
0.7499999999999991
 40
1.0
 40
1.0
 40
1.0
 40
1.0
 10
620.4771303828895
 20
415.4801233804355
 30
0.0
 10
620.4771314715576
 20
415.3732057707755
 30
0.0
 10
620.451726298565
 20
415.2671975611368
 30
0.0
 10
620.3590440644033
 20
415.127993887644
 30
0.0
 10
620.3186542028358
 20
415.0849050384055
 30
0.0
 10
620.2120621883992
 20
415.0181715845421
 30
0.0
 10
620.1465787231801
 20
414.9965363707391
 30
0.0
 10
620.0771320891458
 20
414.9965206530917
 30
0.0
  0
SPLINE
  5
210
330
1F
100
AcDbEntity
  8
0
  6
Continuous
 62
     8
370
    18
100
AcDbSpline
210
0.0
220
0.0
230
1.0
 70
     8
 71
     3
 72
    17
 73
    13
 74
     0
 42
0.000000001
 43
0.00000001
 40
0.0
 40
0.0
 40
0.0
 40
0.0
 40
0.0004000000000475
 40
0.0004000000000475
 40
0.0004000000000475
 40
0.0020000000120746
 40
0.0020000000120746
 40
0.0020000000120746
 40
0.0084000000050853
 40
0.0084000000050853
 40
0.0084000000050853
 40
0.0109881046564012
 40
0.0109881046564012
 40
0.0109881046564012
 40
0.0109881046564012
 10
620.0771320891457
 20
414.9965206530917
 30
0.0
 10
619.9437987592123
 20
414.9964904761608
 30
0.0
 10
619.8104654288261
 20
414.9964622092987
 30
0.0
 10
619.6771320979973
 20
414.99643628813
 30
0.0
 10
619.1437987727041
 20
414.9963326034551
 30
0.0
 10
618.6104654363804
 20
414.9962696938867
 30
0.0
 10
618.0771321010253
 20
414.9962651888309
 30
0.0
 10
615.9437987676947
 20
414.9962471686079
 30
0.0
 10
613.8104654342118
 20
414.9962644869149
 30
0.0
 10
611.677132100805
 20
414.9962642357931
 30
0.0
 10
610.8144305493945
 20
414.9962641342418
 30
0.0
 10
609.951728997984
 20
414.9962641539825
 30
0.0
 10
609.0890274465735
 20
414.9962642060402
 30
0.0
  0
SPLINE
  5
211
330
1F
100
AcDbEntity
  8
0
  6
Continuous
 62
     8
370
    18
100
AcDbSpline
210
0.0
220
0.0
230
1.0
 70
     8
 71
     3
 72
    16
 73
    12
 74
     0
 42
0.000000001
 43
0.00000001
 40
0.0
 40
0.0
 40
0.0
 40
0.0
 40
0.0546498190158632
 40
0.2318303965586168
 40
0.3366018008534494
 40
0.4444638431361692
 40
0.572621595942636
 40
0.7043070836750617
 40
0.8019620799232485
 40
0.9020588125769777
 40
1.0
 40
1.0
 40
1.0
 40
1.0
 10
619.9304826070185
 20
407.404803863283
 30
0.0
 10
619.9571831137267
 20
407.3815246149912
 30
0.0
 10
620.0704495283272
 20
407.2827715457175
 30
0.0
 10
619.4367481849985
 20
407.8373230942294
 30
0.0
 10
618.4460753082972
 20
408.6754038459115
 30
0.0
 10
617.3097498173598
 20
409.5969202024817
 30
0.0
 10
615.8523578494527
 20
410.693842179953
 30
0.0
 10
614.2020123164339
 20
411.7836064301014
 30
0.0
 10
612.489377193276
 20
412.6899346413622
 30
0.0
 10
610.7978718993619
 20
413.3784135561185
 30
0.0
 10
609.5529888532349
 20
413.5824923984889
 30
0.0
 10
608.9373222996111
 20
413.6834211708268
 30
0.0
  0
SPLINE
  5
212
330
1F
100
AcDbEntity
  8
0
  6
Continuous
 62
     8
370
    18
100
AcDbSpline
210
0.0
220
0.0
230
1.0
 70
     8
 71
     3
 72
    22
 73
    18
 74
     0
 42
0.000000001
 43
0.00000001
 40
0.0
 40
0.0
 40
0.0
 40
0.0
 40
0.1249999999999996
 40
0.1249999999999996
 40
0.1875000000000008
 40
0.1875000000000008
 40
0.2500000000000021
 40
0.2500000000000021
 40
0.3750000000000018
 40
0.3750000000000018
 40
0.5000000000000016
 40
0.5000000000000016
 40
0.7500000000000011
 40
0.7500000000000011
 40
0.8750000000000006
 40
0.8750000000000006
 40
1.0
 40
1.0
 40
1.0
 40
1.0
 10
607.1168801925332
 20
413.6834212355259
 30
0.0
 10
606.5815280658201
 20
413.6288177331854
 30
0.0
 10
606.0573184268236
 20
413.527477664607
 30
0.0
 10
605.2855063872884
 20
413.3176728587119
 30
0.0
 10
605.0308329414926
 20
413.2380492304911
 30
0.0
 10
604.5358939123696
 20
413.0656110022443
 30
0.0
 10
604.2942098057149
 20
412.9724396034595
 30
0.0
 10
603.5842450950038
 20
412.6761593454136
 30
0.0
 10
603.1309217482686
 20
412.4564544469659
 30
0.0
 10
602.2561800556474
 20
411.989136231157
 30
0.0
 10
601.8340210430681
 20
411.7407610492475
 30
0.0
 10
600.6335912941705
 20
410.9879586123097
 30
0.0
 10
599.9098715572845
 20
410.4713982528015
 30
0.0
 10
598.9216752933733
 20
409.7245671232907
 30
0.0
 10
598.6115551216543
 20
409.4820584231497
 30
0.0
 10
598.0365371777581
 20
409.0224976154133
 30
0.0
 10
597.7704745388914
 20
408.8045284099856
 30
0.0
 10
597.5271018430917
 20
408.6021556181338
 30
0.0
  0
SPLINE
  5
213
330
1F
100
AcDbEntity
  8
0
  6
Continuous
 62
     8
370
    18
100
AcDbSpline
210
0.0
220
0.0
230
1.0
 70
     8
 71
     3
 72
    14
 73
    10
 74
     0
 42
0.000000001
 43
0.00000001
 40
0.0
 40
0.0
 40
0.0
 40
0.0
 40
0.124999999999985
 40
0.124999999999985
 40
0.2499999999999699
 40
0.2499999999999699
 40
0.4999999999999821
 40
0.4999999999999821
 40
1.0
 40
1.0
 40
1.0
 40
1.0
 10
620.0771018434878
 20
415.1278095465613
 30
0.0
 10
620.1022762669727
 20
415.1278211456689
 30
0.0
 10
620.1257532370317
 20
415.1393889826253
 30
0.0
 10
620.1624704694742
 20
415.1695460505405
 30
0.0
 10
620.1771971437479
 20
415.1883537000266
 30
0.0
 10
620.2142804729605
 20
415.2470841446088
 30
0.0
 10
620.2306485952851
 20
415.2905851651045
 30
0.0
 10
620.2679041818297
 20
415.4222793988669
 30
0.0
 10
620.2771018434877
 20
415.5139094814298
 30
0.0
 10
620.2771018434877
 20
415.6055901715486
 30
0.0
  0
SPLINE
  5
214
330
1F
100
AcDbEntity
  8
0
  6
Continuous
 62
     8
370
    18
100
AcDbSpline
210
0.0
220
0.0
230
1.0
 70
     8
 71
     3
 72
     8
 73
     4
 74
     0
 42
0.000000001
 43
0.00000001
 40
0.0
 40
0.0
 40
0.0
 40
0.0
 40
1.0
 40
1.0
 40
1.0
 40
1.0
 10
606.9651766518517
 20
414.9962643503216
 30
0.0
 10
607.6731156552203
 20
415.0018908040335
 30
0.0
 10
608.3810893643614
 20
415.0018907327476
 30
0.0
 10
609.0890274465735
 20
414.9962642060402
 30
0.0
  0
LINE
  5
215
330
1F
100
AcDbEntity
  8
0
  6
Continuous
 62
     8
370
    18
100
AcDbLine
 10
606.9651759673
 20
414.9962646947
 30
0.0
 11
596.2271011878
 21
414.9962646947
 31
0.0
  0
LINE
  5
216
330
1F
100
AcDbEntity
  8
0
  6
Continuous
 62
     8
370
    18
100
AcDbLine
 10
596.2271011878
 20
415.1275513754
 30
0.0
 11
596.3772899915
 21
415.1275532381
 31
0.0
  0
LINE
  5
217
330
1F
100
AcDbEntity
  8
0
  6
Continuous
 62
     8
370
    18
100
AcDbLine
 10
619.6681625654
 20
415.1278046952
 30
0.0
 11
620.0771025826
 21
415.1278093518
 31
0.0
  0
SPLINE
  5
218
330
1F
100
AcDbEntity
  8
0
  6
Continuous
 62
     8
370
    18
100
AcDbSpline
210
0.0
220
0.0
230
1.0
 70
     8
 71
     3
 72
     9
 73
     5
 74
     0
 42
0.000000001
 43
0.00000001
 40
0.0
 40
0.0
 40
0.0
 40
0.0
 40
0.5
 40
1.0
 40
1.0
 40
1.0
 40
1.0
 10
608.93732372208
 20
413.6834210701357
 30
0.0
 10
608.6339164701866
 20
413.7143672876198
 30
0.0
 10
608.0271019636012
 20
413.7478818293957
 30
0.0
 10
607.4202874504888
 20
413.7143674073884
 30
0.0
 10
607.1168801925332
 20
413.6834212355259
 30
0.0
  0
SPLINE
  5
219
330
1F
100
AcDbEntity
  8
0
  6
Continuous
 62
     8
370
    18
100
AcDbSpline
210
0.0
220
0.0
230
1.0
 70
     8
 71
     3
 72
    11
 73
     7
 74
     0
 42
0.000000001
 43
0.00000001
 40
0.0
 40
0.0
 40
0.0
 40
0.0
 40
0.2212973074315796
 40
0.4947997680117029
 40
0.7806450499730073
 40
1.0
 40
1.0
 40
1.0
 40
1.0
 10
597.5271008421297
 20
408.6021550060471
 30
0.0
 10
597.329153421549
 20
408.4642163899354
 30
0.0
 10
596.8865617835459
 20
408.1557987410987
 30
0.0
 10
596.3887138505088
 20
408.0927255437425
 30
0.0
 10
596.0429574633788
 20
408.3140933265249
 30
0.0
 10
596.0965063418535
 20
408.2778622957715
 30
0.0
 10
596.1197569478865
 20
408.2621309967001
 30
0.0
  0
LINE
  5
21A
330
1F
100
AcDbEntity
  8
0
  6
Continuous
 62
     8
370
    18
100
AcDbLine
 10
596.0271015276
 20
404.7688704045
 30
0.0
 11
620.0271017362
 21
404.7688704045
 31
0.0
  0
LINE
  5
21B
330
1F
100
AcDbEntity
  8
0
  6
Continuous
 62
     8
370
    18
100
AcDbLine
 10
617.2770998885
 20
390.9688696326
 30
0.0
 11
598.7771033753
 21
390.9688696326
 31
0.0
  0
ENDSEC
  0
SECTION
  2
OBJECTS
  0
DICTIONARY
  5
C
330
0
100
AcDbDictionary
281
     1
  3
ACAD_DETAILVIEWSTYLE
350
223
  3
ACAD_GROUP
350
D
  3
ACAD_LAYOUT
350
1A
  3
ACAD_MATERIAL
350
43
  3
ACAD_MLEADERSTYLE
350
6B
  3
ACAD_MLINESTYLE
350
17
  3
ACAD_PLOTSETTINGS
350
19
  3
ACAD_PLOTSTYLENAME
350
E
  3
ACAD_SCALELIST
350
47
  3
ACAD_SECTIONVIEWSTYLE
350
224
  3
ACAD_TABLESTYLE
350
69
  3
ACAD_VISUALSTYLE
350
2A
  3
ACDB_RECOMPOSE_DATA
350
220
  3
AcDbVariableDictionary
350
21C
  0
SUN
  5
6D
330
29
100
AcDbSun
 90
        1
290
     0
 63
     7
421
 16777215
 40
1.0
291
     1
 91
  2455826
 92
 54000000
292
     0
 70
     2
 71
   256
280
     1
  0
DICTIONARY
  5
223
102
{ACAD_REACTORS
330
C
102
}
330
C
100
AcDbDictionary
281
     1
  0
DICTIONARY
  5
D
102
{ACAD_REACTORS
330
C
102
}
330
C
100
AcDbDictionary
281
     1
  0
DICTIONARY
  5
1A
102
{ACAD_REACTORS
330
C
102
}
330
C
100
AcDbDictionary
281
     1
  3
Layout1
350
1E
  3
Layout2
350
26
  3
Model
350
22
  0
DICTIONARY
  5
43
102
{ACAD_REACTORS
330
C
102
}
330
C
100
AcDbDictionary
281
     1
  3
ByBlock
350
45
  3
ByLayer
350
44
  3
Global
350
46
  0
DICTIONARY
  5
6B
102
{ACAD_REACTORS
330
C
102
}
330
C
100
AcDbDictionary
281
     1
  3
Standard
350
6C
  0
DICTIONARY
  5
17
102
{ACAD_REACTORS
330
C
102
}
330
C
100
AcDbDictionary
281
     1
  3
Standard
350
18
  0
DICTIONARY
  5
19
102
{ACAD_REACTORS
330
C
102
}
330
C
100
AcDbDictionary
281
     1
  0
ACDBDICTIONARYWDFLT
  5
E
102
{ACAD_REACTORS
330
C
102
}
330
C
100
AcDbDictionary
281
     1
  3
Normal
350
F
100
AcDbDictionaryWithDefault
340
F
  0
DICTIONARY
  5
47
102
{ACAD_REACTORS
330
C
102
}
330
C
100
AcDbDictionary
281
     1
  3
A0
350
48
  3
A1
350
49
  3
A2
350
4A
  3
A3
350
4B
  3
A4
350
4C
  3
A5
350
4D
  3
A6
350
4E
  3
A7
350
4F
  3
A8
350
50
  3
A9
350
51
  3
B0
350
52
  3
B1
350
53
  3
B2
350
54
  3
B3
350
55
  3
B4
350
56
  3
B5
350
57
  3
B6
350
58
  3
B7
350
59
  3
B8
350
5A
  3
B9
350
5B
  3
C0
350
5C
  3
C1
350
5D
  3
C2
350
5E
  3
C3
350
5F
  3
C4
350
60
  3
C5
350
61
  3
C6
350
62
  3
C7
350
63
  3
C8
350
64
  3
C9
350
65
  3
D0
350
66
  3
D1
350
67
  3
D2
350
68
  0
DICTIONARY
  5
224
102
{ACAD_REACTORS
330
C
102
}
330
C
100
AcDbDictionary
281
     1
  0
DICTIONARY
  5
69
102
{ACAD_REACTORS
330
C
102
}
330
C
100
AcDbDictionary
281
     1
  3
Standard
350
6A
  0
DICTIONARY
  5
2A
102
{ACAD_REACTORS
330
C
102
}
330
C
100
AcDbDictionary
281
     1
  3
2dWireframe
350
2F
  3
Basic
350
32
  3
Brighten
350
36
  3
ColorChange
350
3A
  3
Conceptual
350
34
  3
Dim
350
35
  3
EdgeColorOff
350
3D
  3
Facepattern
350
39
  3
Flat
350
2B
  3
FlatWithEdges
350
2C
  3
Gouraud
350
2D
  3
GouraudWithEdges
350
2E
  3
Hidden
350
31
  3
JitterOff
350
3B
  3
Linepattern
350
38
  3
OverhangOff
350
3C
  3
Realistic
350
33
  3
Shaded
350
42
  3
Shaded with edges
350
41
  3
Shades of Gray
350
3E
  3
Sketchy
350
3F
  3
Thicken
350
37
  3
Wireframe
350
30
  3
X-Ray
350
40
  0
XRECORD
  5
220
102
{ACAD_REACTORS
330
C
102
}
330
C
100
AcDbXrecord
280
     1
 90
        1
330
6A
  0
DICTIONARY
  5
21C
102
{ACAD_REACTORS
330
C
102
}
330
C
100
AcDbDictionary
281
     1
  3
CANNOSCALE
350
21D
  3
CMLEADERSTYLE
350
222
  3
CTABLESTYLE
350
221
  0
LAYOUT
  5
1E
102
{ACAD_REACTORS
330
1A
102
}
330
1A
100
AcDbPlotSettings
  1

  2
none_device
  4

  6

 40
0.0
 41
0.0
 42
0.0
 43
0.0
 44
0.0
 45
0.0
 46
0.0
 47
0.0
 48
0.0
 49
0.0
140
0.0
141
0.0
142
1.0
143
1.0
 70
   688
 72
     1
 73
     0
 74
     5
  7

 75
    16
 76
     0
 77
     2
 78
   300
147
1.0
148
0.0
149
0.0
100
AcDbLayout
  1
Layout1
 70
     1
 71
     1
 10
0.0
 20
0.0
 11
420.0
 21
297.0
 12
0.0
 22
0.0
 32
0.0
 14
1.0000000000E+20
 24
1.0000000000E+20
 34
1.0000000000E+20
 15
-1.0000000000E+20
 25
-1.0000000000E+20
 35
-1.0000000000E+20
146
0.0
 13
0.0
 23
0.0
 33
0.0
 16
1.0
 26
0.0
 36
0.0
 17
0.0
 27
1.0
 37
0.0
 76
     0
330
1B
  0
LAYOUT
  5
26
102
{ACAD_REACTORS
330
1A
102
}
330
1A
100
AcDbPlotSettings
  1

  2
none_device
  4

  6

 40
0.0
 41
0.0
 42
0.0
 43
0.0
 44
0.0
 45
0.0
 46
0.0
 47
0.0
 48
0.0
 49
0.0
140
0.0
141
0.0
142
1.0
143
1.0
 70
   688
 72
     1
 73
     0
 74
     5
  7

 75
    16
 76
     0
 77
     2
 78
   300
147
1.0
148
0.0
149
0.0
100
AcDbLayout
  1
Layout2
 70
     1
 71
     2
 10
0.0
 20
0.0
 11
0.0
 21
0.0
 12
0.0
 22
0.0
 32
0.0
 14
0.0
 24
0.0
 34
0.0
 15
0.0
 25
0.0
 35
0.0
146
0.0
 13
0.0
 23
0.0
 33
0.0
 16
1.0
 26
0.0
 36
0.0
 17
0.0
 27
1.0
 37
0.0
 76
     0
330
23
  0
LAYOUT
  5
22
102
{ACAD_REACTORS
330
1A
102
}
330
1A
100
AcDbPlotSettings
  1

  2
none_device
  4
Letter_(8.50_x_11.00_Inches)
  6

 40
6.35
 41
6.35
 42
6.35000508
 43
6.35000508
 44
215.9
 45
279.4
 46
0.0
 47
0.0
 48
0.0
 49
0.0
140
0.0
141
0.0
142
1.0
143
1.0
 70
  1712
 72
     1
 73
     0
 74
     0
  7

 75
     0
 76
     0
 77
     2
 78
   300
147
1.0
148
0.0
149
0.0
100
AcDbLayout
  1
Model
 70
     1
 71
     0
 10
0.0
 20
0.0
 11
841.0
 21
594.0
 12
0.0
 22
0.0
 32
0.0
 14
0.0
 24
0.0
 34
0.0
 15
841.0
 25
594.0
 35
0.0
146
0.0
 13
0.0
 23
0.0
 33
0.0
 16
1.0
 26
0.0
 36
0.0
 17
0.0
 27
1.0
 37
0.0
 76
     0
330
1F
331
29
  0
MATERIAL
  5
45
102
{ACAD_REACTORS
330
43
102
}
330
43
100
AcDbMaterial
  1
ByBlock
 72
     1
 94
      127
  0
MATERIAL
  5
44
102
{ACAD_REACTORS
330
43
102
}
330
43
100
AcDbMaterial
  1
ByLayer
 72
     1
 94
      127
  0
MATERIAL
  5
46
102
{ACAD_REACTORS
330
43
102
}
330
43
100
AcDbMaterial
  1
Global
 72
     1
 94
      127
  0
MLEADERSTYLE
  5
6C
102
{ACAD_REACTORS
330
6B
102
}
330
6B
100
AcDbMLeaderStyle
179
     2
170
     2
171
     1
172
     0
 90
        2
 40
0.0
 41
0.0
173
     1
 91
-1056964608
340
14
 92
       -2
290
     1
 42
2.0
291
     1
 43
8.0
  3
Standard
341
0
 44
4.0
300

342
11
174
     1
178
     6
175
     1
176
     0
 93
-1056964608
 45
4.0
292
     0
297
     0
 46
4.0
343
0
 94
-1056964608
 47
1.0
 49
1.0
140
1.0
293
     1
141
0.0
294
     1
177
     0
142
1.0
295
     0
296
     0
143
3.75
271
     0
272
     9
273
     9
  0
MLINESTYLE
  5
18
102
{ACAD_REACTORS
330
17
102
}
330
17
100
AcDbMlineStyle
  2
Standard
 70
     0
  3

 62
   256
 51
90.0
 52
90.0
 71
     2
 49
0.5
 62
   256
  6
BYLAYER
 49
-0.5
 62
   256
  6
BYLAYER
  0
ACDBPLACEHOLDER
  5
F
102
{ACAD_REACTORS
330
E
102
}
330
E
  0
SCALE
  5
48
102
{ACAD_REACTORS
330
47
102
}
330
47
100
AcDbScale
 70
     0
300
1:1
140
1.0
141
1.0
290
     1
  0
SCALE
  5
49
102
{ACAD_REACTORS
330
47
102
}
330
47
100
AcDbScale
 70
     0
300
1:2
140
1.0
141
2.0
290
     0
  0
SCALE
  5
4A
102
{ACAD_REACTORS
330
47
102
}
330
47
100
AcDbScale
 70
     0
300
1:4
140
1.0
141
4.0
290
     0
  0
SCALE
  5
4B
102
{ACAD_REACTORS
330
47
102
}
330
47
100
AcDbScale
 70
     0
300
1:5
140
1.0
141
5.0
290
     0
  0
SCALE
  5
4C
102
{ACAD_REACTORS
330
47
102
}
330
47
100
AcDbScale
 70
     0
300
1:8
140
1.0
141
8.0
290
     0
  0
SCALE
  5
4D
102
{ACAD_REACTORS
330
47
102
}
330
47
100
AcDbScale
 70
     0
300
1:10
140
1.0
141
10.0
290
     0
  0
SCALE
  5
4E
102
{ACAD_REACTORS
330
47
102
}
330
47
100
AcDbScale
 70
     0
300
1:16
140
1.0
141
16.0
290
     0
  0
SCALE
  5
4F
102
{ACAD_REACTORS
330
47
102
}
330
47
100
AcDbScale
 70
     0
300
1:20
140
1.0
141
20.0
290
     0
  0
SCALE
  5
50
102
{ACAD_REACTORS
330
47
102
}
330
47
100
AcDbScale
 70
     0
300
1:30
140
1.0
141
30.0
290
     0
  0
SCALE
  5
51
102
{ACAD_REACTORS
330
47
102
}
330
47
100
AcDbScale
 70
     0
300
1:40
140
1.0
141
40.0
290
     0
  0
SCALE
  5
52
102
{ACAD_REACTORS
330
47
102
}
330
47
100
AcDbScale
 70
     0
300
1:50
140
1.0
141
50.0
290
     0
  0
SCALE
  5
53
102
{ACAD_REACTORS
330
47
102
}
330
47
100
AcDbScale
 70
     0
300
1:100
140
1.0
141
100.0
290
     0
  0
SCALE
  5
54
102
{ACAD_REACTORS
330
47
102
}
330
47
100
AcDbScale
 70
     0
300
2:1
140
2.0
141
1.0
290
     0
  0
SCALE
  5
55
102
{ACAD_REACTORS
330
47
102
}
330
47
100
AcDbScale
 70
     0
300
4:1
140
4.0
141
1.0
290
     0
  0
SCALE
  5
56
102
{ACAD_REACTORS
330
47
102
}
330
47
100
AcDbScale
 70
     0
300
8:1
140
8.0
141
1.0
290
     0
  0
SCALE
  5
57
102
{ACAD_REACTORS
330
47
102
}
330
47
100
AcDbScale
 70
     0
300
10:1
140
10.0
141
1.0
290
     0
  0
SCALE
  5
58
102
{ACAD_REACTORS
330
47
102
}
330
47
100
AcDbScale
 70
     0
300
100:1
140
100.0
141
1.0
290
     0
  0
SCALE
  5
59
102
{ACAD_REACTORS
330
47
102
}
330
47
100
AcDbScale
 70
     0
300
1/128" = 1'-0"
140
0.0078125
141
12.0
290
     0
  0
SCALE
  5
5A
102
{ACAD_REACTORS
330
47
102
}
330
47
100
AcDbScale
 70
     0
300
1/64" = 1'-0"
140
0.015625
141
12.0
290
     0
  0
SCALE
  5
5B
102
{ACAD_REACTORS
330
47
102
}
330
47
100
AcDbScale
 70
     0
300
1/32" = 1'-0"
140
0.03125
141
12.0
290
     0
  0
SCALE
  5
5C
102
{ACAD_REACTORS
330
47
102
}
330
47
100
AcDbScale
 70
     0
300
1/16" = 1'-0"
140
0.0625
141
12.0
290
     0
  0
SCALE
  5
5D
102
{ACAD_REACTORS
330
47
102
}
330
47
100
AcDbScale
 70
     0
300
3/32" = 1'-0"
140
0.09375
141
12.0
290
     0
  0
SCALE
  5
5E
102
{ACAD_REACTORS
330
47
102
}
330
47
100
AcDbScale
 70
     0
300
1/8" = 1'-0"
140
0.125
141
12.0
290
     0
  0
SCALE
  5
5F
102
{ACAD_REACTORS
330
47
102
}
330
47
100
AcDbScale
 70
     0
300
3/16" = 1'-0"
140
0.1875
141
12.0
290
     0
  0
SCALE
  5
60
102
{ACAD_REACTORS
330
47
102
}
330
47
100
AcDbScale
 70
     0
300
1/4" = 1'-0"
140
0.25
141
12.0
290
     0
  0
SCALE
  5
61
102
{ACAD_REACTORS
330
47
102
}
330
47
100
AcDbScale
 70
     0
300
3/8" = 1'-0"
140
0.375
141
12.0
290
     0
  0
SCALE
  5
62
102
{ACAD_REACTORS
330
47
102
}
330
47
100
AcDbScale
 70
     0
300
1/2" = 1'-0"
140
0.5
141
12.0
290
     0
  0
SCALE
  5
63
102
{ACAD_REACTORS
330
47
102
}
330
47
100
AcDbScale
 70
     0
300
3/4" = 1'-0"
140
0.75
141
12.0
290
     0
  0
SCALE
  5
64
102
{ACAD_REACTORS
330
47
102
}
330
47
100
AcDbScale
 70
     0
300
1" = 1'-0"
140
1.0
141
12.0
290
     0
  0
SCALE
  5
65
102
{ACAD_REACTORS
330
47
102
}
330
47
100
AcDbScale
 70
     0
300
1-1/2" = 1'-0"
140
1.5
141
12.0
290
     0
  0
SCALE
  5
66
102
{ACAD_REACTORS
330
47
102
}
330
47
100
AcDbScale
 70
     0
300
3" = 1'-0"
140
3.0
141
12.0
290
     0
  0
SCALE
  5
67
102
{ACAD_REACTORS
330
47
102
}
330
47
100
AcDbScale
 70
     0
300
6" = 1'-0"
140
6.0
141
12.0
290
     0
  0
SCALE
  5
68
102
{ACAD_REACTORS
330
47
102
}
330
47
100
AcDbScale
 70
     0
300
1'-0" = 1'-0"
140
12.0
141
12.0
290
     0
  0
TABLESTYLE
  5
6A
102
{ACAD_REACTORS
330
69
102
}
102
{ACAD_XDICTIONARY
360
21E
102
}
330
69
100
AcDbTableStyle
  3
Standard
 70
     0
 71
     0
 40
0.06
 41
0.06
280
     0
281
     0
  7
Standard
140
4.5
170
     2
 62
     0
 63
   257
283
     0
 90
        4
 91
        0
  1

274
    -2
284
     1
 64
     0
275
    -2
285
     1
 65
     0
276
    -2
286
     1
 66
     0
277
    -2
287
     1
 67
     0
278
    -2
288
     1
 68
     0
279
    -2
289
     1
 69
     0
  7
Standard
140
6.0
170
     5
 62
     0
 63
   257
283
     0
 90
        4
 91
        0
  1

274
    -2
284
     1
 64
     0
275
    -2
285
     1
 65
     0
276
    -2
286
     1
 66
     0
277
    -2
287
     1
 67
     0
278
    -2
288
     1
 68
     0
279
    -2
289
     1
 69
     0
  7
Standard
140
4.5
170
     5
 62
     0
 63
   257
283
     0
 90
        4
 91
        0
  1

274
    -2
284
     1
 64
     0
275
    -2
285
     1
 65
     0
276
    -2
286
     1
 66
     0
277
    -2
287
     1
 67
     0
278
    -2
288
     1
 68
     0
279
    -2
289
     1
 69
     0
  0
VISUALSTYLE
  5
2F
102
{ACAD_REACTORS
330
2A
102
}
330
2A
100
AcDbVisualStyle
  2
2dWireframe
 70
     4
177
     2
291
     0
 71
     0
176
     1
 72
     2
176
     1
 73
     0
176
     1
 90
        0
176
     1
 40
0.6
176
     1
 41
30.0
176
     1
 62
     5
 63
     7
421
 16777215
176
     1
 74
     1
176
     1
 91
        4
176
     1
 64
     7
176
     1
 65
   257
176
     1
 75
     1
176
     1
175
     1
176
     1
 42
1.0
176
     1
 92
        0
176
     1
 66
   257
176
     1
 43
1.0
176
     1
 76
     1
176
     1
 77
     6
176
     1
 78
     2
176
     1
 67
     7
176
     1
 79
     5
176
     1
170
     0
176
     1
171
     0
176
     1
290
     0
176
     1
 93
        1
176
     1
 44
0.0
176
     1
173
     0
176
     1
  0
VISUALSTYLE
  5
32
102
{ACAD_REACTORS
330
2A
102
}
330
2A
100
AcDbVisualStyle
  2
Basic
 70
     7
177
     2
291
     1
 71
     1
176
     1
 72
     0
176
     1
 73
     1
176
     1
 90
        0
176
     1
 40
0.6
176
     1
 41
30.0
176
     1
 62
     5
 63
     7
421
 16777215
176
     1
 74
     0
176
     1
 91
        4
176
     1
 64
     7
176
     1
 65
   257
176
     1
 75
     1
176
     1
175
     1
176
     1
 42
1.0
176
     1
 92
        8
176
     1
 66
     7
176
     1
 43
1.0
176
     1
 76
     1
176
     1
 77
     6
176
     1
 78
     2
176
     1
 67
     7
176
     1
 79
     5
176
     1
170
     0
176
     1
171
     0
176
     1
290
     0
176
     1
 93
        1
176
     1
 44
0.0
176
     1
173
     0
176
     1
  0
VISUALSTYLE
  5
36
102
{ACAD_REACTORS
330
2A
102
}
330
2A
100
AcDbVisualStyle
  2
Brighten
 70
    12
177
     2
291
     1
 71
     2
176
     1
 72
     2
176
     1
 73
     0
176
     1
 90
        0
176
     1
 40
0.6
176
     1
 41
30.0
176
     1
 62
     5
 63
     7
421
 16777215
176
     1
 74
     1
176
     1
 91
        4
176
     1
 64
     7
176
     1
 65
   257
176
     1
 75
     1
176
     1
175
     1
176
     1
 42
1.0
176
     1
 92
        8
176
     1
 66
     7
176
     1
 43
1.0
176
     1
 76
     1
176
     1
 77
     6
176
     1
 78
     2
176
     1
 67
     7
176
     1
 79
     5
176
     1
170
     0
176
     1
171
     0
176
     1
290
     0
176
     1
 93
        1
176
     1
 44
50.0
176
     1
173
     0
176
     1
  0
VISUALSTYLE
  5
3A
102
{ACAD_REACTORS
330
2A
102
}
330
2A
100
AcDbVisualStyle
  2
ColorChange
 70
    16
177
     2
291
     1
 71
     2
176
     1
 72
     2
176
     1
 73
     3
176
     1
 90
        0
176
     1
 40
0.6
176
     1
 41
30.0
176
     1
 62
     5
 63
     8
421
  8421504
176
     1
 74
     1
176
     1
 91
        4
176
     1
 64
     7
176
     1
 65
   257
176
     1
 75
     1
176
     1
175
     1
176
     1
 42
1.0
176
     1
 92
        8
176
     1
 66
     8
424
  8421504
176
     1
 43
1.0
176
     1
 76
     1
176
     1
 77
     6
176
     1
 78
     2
176
     1
 67
     7
176
     1
 79
     5
176
     1
170
     0
176
     1
171
     0
176
     1
290
     0
176
     1
 93
        1
176
     1
 44
0.0
176
     1
173
     0
176
     1
  0
VISUALSTYLE
  5
34
102
{ACAD_REACTORS
330
2A
102
}
330
2A
100
AcDbVisualStyle
  2
Conceptual
 70
     9
177
     2
291
     0
 71
     3
176
     1
 72
     2
176
     1
 73
     0
176
     1
 90
        0
176
     1
 40
0.6
176
     1
 41
30.0
176
     1
 62
     5
 63
     7
421
 16777215
176
     1
 74
     2
176
     1
 91
        2
176
     1
 64
     7
176
     1
 65
   257
176
     1
 75
     1
176
     1
175
     1
176
     1
 42
179.0
176
     1
 92
        8
176
     1
 66
     7
176
     1
 43
1.0
176
     1
 76
     1
176
     1
 77
     6
176
     1
 78
     2
176
     1
 67
     7
176
     1
 79
     3
176
     1
170
     0
176
     1
171
     0
176
     1
290
     0
176
     1
 93
        1
176
     1
 44
0.0
176
     1
173
     0
176
     1
  0
VISUALSTYLE
  5
35
102
{ACAD_REACTORS
330
2A
102
}
330
2A
100
AcDbVisualStyle
  2
Dim
 70
    11
177
     2
291
     1
 71
     2
176
     1
 72
     2
176
     1
 73
     0
176
     1
 90
        0
176
     1
 40
0.6
176
     1
 41
30.0
176
     1
 62
     5
 63
     7
421
 16777215
176
     1
 74
     1
176
     1
 91
        4
176
     1
 64
     7
176
     1
 65
   257
176
     1
 75
     1
176
     1
175
     1
176
     1
 42
1.0
176
     1
 92
        8
176
     1
 66
     7
176
     1
 43
1.0
176
     1
 76
     1
176
     1
 77
     6
176
     1
 78
     2
176
     1
 67
     7
176
     1
 79
     5
176
     1
170
     0
176
     1
171
     0
176
     1
290
     0
176
     1
 93
        1
176
     1
 44
-50.0
176
     1
173
     0
176
     1
  0
VISUALSTYLE
  5
3D
102
{ACAD_REACTORS
330
2A
102
}
330
2A
100
AcDbVisualStyle
  2
EdgeColorOff
 70
    22
177
     2
291
     1
 71
     2
176
     0
 72
     2
176
     0
 73
     0
176
     0
 90
        0
176
     0
 40
0.6
176
     0
 41
30.0
176
     0
 62
     5
 63
     7
421
 16777215
176
     0
 74
     1
176
     0
 91
        4
176
     0
 64
     7
176
     0
 65
   257
176
     0
 75
     1
176
     0
175
     1
176
     0
 42
1.0
176
     0
 92
        8
176
     2
 66
     7
176
     0
 43
1.0
176
     0
 76
     1
176
     0
 77
     6
176
     0
 78
     2
176
     0
 67
     7
176
     0
 79
     5
176
     0
170
     0
176
     0
171
     0
176
     0
290
     0
176
     0
 93
        1
176
     0
 44
0.0
176
     0
173
     0
176
     0
  0
VISUALSTYLE
  5
39
102
{ACAD_REACTORS
330
2A
102
}
330
2A
100
AcDbVisualStyle
  2
Facepattern
 70
    15
177
     2
291
     1
 71
     2
176
     1
 72
     2
176
     1
 73
     0
176
     1
 90
        0
176
     1
 40
0.6
176
     1
 41
30.0
176
     1
 62
     5
 63
     7
421
 16777215
176
     1
 74
     1
176
     1
 91
        4
176
     1
 64
     7
176
     1
 65
   257
176
     1
 75
     1
176
     1
175
     1
176
     1
 42
1.0
176
     1
 92
        8
176
     1
 66
     7
176
     1
 43
1.0
176
     1
 76
     1
176
     1
 77
     6
176
     1
 78
     2
176
     1
 67
     7
176
     1
 79
     5
176
     1
170
     0
176
     1
171
     0
176
     1
290
     0
176
     1
 93
        1
176
     1
 44
0.0
176
     1
173
     0
176
     1
  0
VISUALSTYLE
  5
2B
102
{ACAD_REACTORS
330
2A
102
}
330
2A
100
AcDbVisualStyle
  2
Flat
 70
     0
177
     2
291
     1
 71
     2
176
     1
 72
     1
176
     1
 73
     1
176
     1
 90
        2
176
     1
 40
0.6
176
     1
 41
30.0
176
     1
 62
     5
 63
     7
421
 16777215
176
     1
 74
     0
176
     1
 91
        0
176
     1
 64
     7
176
     1
 65
   257
176
     1
 75
     1
176
     1
175
     1
176
     1
 42
1.0
176
     1
 92
        8
176
     1
 66
     7
176
     1
 43
1.0
176
     1
 76
     1
176
     1
 77
     6
176
     1
 78
     2
176
     1
 67
     7
176
     1
 79
     5
176
     1
170
     0
176
     1
171
     0
176
     1
290
     0
176
     1
 93
       13
176
     1
 44
0.0
176
     1
173
     0
176
     1
  0
VISUALSTYLE
  5
2C
102
{ACAD_REACTORS
330
2A
102
}
330
2A
100
AcDbVisualStyle
  2
FlatWithEdges
 70
     1
177
     2
291
     1
 71
     2
176
     1
 72
     1
176
     1
 73
     1
176
     1
 90
        2
176
     1
 40
0.6
176
     1
 41
30.0
176
     1
 62
     5
 63
     7
421
 16777215
176
     1
 74
     1
176
     1
 91
        0
176
     1
 64
     7
176
     1
 65
   257
176
     1
 75
     1
176
     1
175
     1
176
     1
 42
1.0
176
     1
 92
        0
176
     1
 66
   257
176
     1
 43
1.0
176
     1
 76
     1
176
     1
 77
     6
176
     1
 78
     2
176
     1
 67
     7
176
     1
 79
     5
176
     1
170
     0
176
     1
171
     0
176
     1
290
     0
176
     1
 93
       13
176
     1
 44
0.0
176
     1
173
     0
176
     1
  0
VISUALSTYLE
  5
2D
102
{ACAD_REACTORS
330
2A
102
}
330
2A
100
AcDbVisualStyle
  2
Gouraud
 70
     2
177
     2
291
     1
 71
     2
176
     1
 72
     2
176
     1
 73
     1
176
     1
 90
        2
176
     1
 40
0.6
176
     1
 41
30.0
176
     1
 62
     5
 63
     7
421
 16777215
176
     1
 74
     0
176
     1
 91
        0
176
     1
 64
     7
176
     1
 65
   257
176
     1
 75
     1
176
     1
175
     1
176
     1
 42
1.0
176
     1
 92
        0
176
     1
 66
     7
176
     1
 43
1.0
176
     1
 76
     1
176
     1
 77
     6
176
     1
 78
     2
176
     1
 67
     7
176
     1
 79
     5
176
     1
170
     0
176
     1
171
     0
176
     1
290
     0
176
     1
 93
       13
176
     1
 44
0.0
176
     1
173
     0
176
     1
  0
VISUALSTYLE
  5
2E
102
{ACAD_REACTORS
330
2A
102
}
330
2A
100
AcDbVisualStyle
  2
GouraudWithEdges
 70
     3
177
     2
291
     1
 71
     2
176
     1
 72
     2
176
     1
 73
     1
176
     1
 90
        2
176
     1
 40
0.6
176
     1
 41
30.0
176
     1
 62
     5
 63
     7
421
 16777215
176
     1
 74
     1
176
     1
 91
        0
176
     1
 64
     7
176
     1
 65
   257
176
     1
 75
     1
176
     1
175
     1
176
     1
 42
1.0
176
     1
 92
        0
176
     1
 66
   257
176
     1
 43
1.0
176
     1
 76
     1
176
     1
 77
     6
176
     1
 78
     2
176
     1
 67
     7
176
     1
 79
     5
176
     1
170
     0
176
     1
171
     0
176
     1
290
     0
176
     1
 93
       13
176
     1
 44
0.0
176
     1
173
     0
176
     1
  0
VISUALSTYLE
  5
31
102
{ACAD_REACTORS
330
2A
102
}
330
2A
100
AcDbVisualStyle
  2
Hidden
 70
     6
177
     2
291
     0
 71
     1
176
     1
 72
     2
176
     1
 73
     2
176
     1
 90
        0
176
     1
 40
0.6
176
     1
 41
30.0
176
     1
 62
     5
 63
     7
421
 16777215
176
     1
 74
     2
176
     1
 91
        2
176
     1
 64
     7
176
     1
 65
   257
176
     1
 75
     2
176
     1
175
     1
176
     1
 42
40.0
176
     1
 92
        0
176
     1
 66
   257
176
     1
 43
1.0
176
     1
 76
     1
176
     1
 77
     6
176
     1
 78
     2
176
     1
 67
     7
176
     1
 79
     3
176
     1
170
     0
176
     1
171
     0
176
     1
290
     0
176
     1
 93
        1
176
     1
 44
0.0
176
     1
173
     0
176
     1
  0
VISUALSTYLE
  5
3B
102
{ACAD_REACTORS
330
2A
102
}
330
2A
100
AcDbVisualStyle
  2
JitterOff
 70
    20
177
     2
291
     1
 71
     2
176
     0
 72
     2
176
     0
 73
     0
176
     0
 90
        0
176
     0
 40
0.6
176
     0
 41
30.0
176
     0
 62
     5
 63
     7
421
 16777215
176
     0
 74
     1
176
     0
 91
        4
176
     0
 64
     7
176
     0
 65
   257
176
     0
 75
     1
176
     0
175
     1
176
     0
 42
1.0
176
     0
 92
       10
176
     2
 66
     7
176
     0
 43
1.0
176
     0
 76
     1
176
     0
 77
     6
176
     0
 78
     2
176
     0
 67
     7
176
     0
 79
     5
176
     0
170
     0
176
     0
171
     0
176
     0
290
     0
176
     0
 93
        1
176
     0
 44
0.0
176
     0
173
     0
176
     0
  0
VISUALSTYLE
  5
38
102
{ACAD_REACTORS
330
2A
102
}
330
2A
100
AcDbVisualStyle
  2
Linepattern
 70
    14
177
     2
291
     1
 71
     2
176
     1
 72
     2
176
     1
 73
     0
176
     1
 90
        0
176
     1
 40
0.6
176
     1
 41
30.0
176
     1
 62
     5
 63
     7
421
 16777215
176
     1
 74
     1
176
     1
 91
        4
176
     1
 64
     7
176
     1
 65
   257
176
     1
 75
     7
176
     1
175
     7
176
     1
 42
1.0
176
     1
 92
        8
176
     1
 66
     7
176
     1
 43
1.0
176
     1
 76
     1
176
     1
 77
     6
176
     1
 78
     2
176
     1
 67
     7
176
     1
 79
     5
176
     1
170
     0
176
     1
171
     0
176
     1
290
     0
176
     1
 93
        1
176
     1
 44
0.0
176
     1
173
     0
176
     1
  0
VISUALSTYLE
  5
3C
102
{ACAD_REACTORS
330
2A
102
}
330
2A
100
AcDbVisualStyle
  2
OverhangOff
 70
    21
177
     2
291
     1
 71
     2
176
     0
 72
     2
176
     0
 73
     0
176
     0
 90
        0
176
     0
 40
0.6
176
     0
 41
30.0
176
     0
 62
     5
 63
     7
421
 16777215
176
     0
 74
     1
176
     0
 91
        4
176
     0
 64
     7
176
     0
 65
   257
176
     0
 75
     1
176
     0
175
     1
176
     0
 42
1.0
176
     0
 92
        9
176
     2
 66
     7
176
     0
 43
1.0
176
     0
 76
     1
176
     0
 77
     6
176
     0
 78
     2
176
     0
 67
     7
176
     0
 79
     5
176
     0
170
     0
176
     0
171
     0
176
     0
290
     0
176
     0
 93
        1
176
     0
 44
0.0
176
     0
173
     0
176
     0
  0
VISUALSTYLE
  5
33
102
{ACAD_REACTORS
330
2A
102
}
330
2A
100
AcDbVisualStyle
  2
Realistic
 70
     8
177
     2
291
     0
 71
     2
176
     1
 72
     3
176
     1
 73
     0
176
     1
 90
        2
176
     1
 40
0.6
176
     1
 41
30.0
176
     1
 62
     5
 63
     7
421
 16777215
176
     1
 74
     0
176
     1
 91
        0
176
     1
 64
     7
176
     1
 65
   257
176
     1
 75
     1
176
     1
175
     1
176
     1
 42
1.0
176
     1
 92
        8
176
     1
 66
   257
176
     1
 43
1.0
176
     1
 76
     1
176
     1
 77
     6
176
     1
 78
     2
176
     1
 67
     7
176
     1
 79
     3
176
     1
170
     0
176
     1
171
     0
176
     1
290
     0
176
     1
 93
       13
176
     1
 44
0.0
176
     1
173
     0
176
     1
  0
VISUALSTYLE
  5
42
102
{ACAD_REACTORS
330
2A
102
}
330
2A
100
AcDbVisualStyle
  2
Shaded
 70
    27
177
     2
291
     0
 71
     2
176
     1
 72
     2
176
     1
 73
     1
176
     1
 90
        2
176
     1
 40
0.6
176
     1
 41
30.0
176
     1
 62
     5
 63
     7
421
 16777215
176
     1
 74
     0
176
     1
 91
        4
176
     1
 64
     7
176
     1
 65
   257
176
     1
 75
     1
176
     1
175
     1
176
     1
 42
1.0
176
     1
 92
        8
176
     1
 66
   257
176
     1
 43
1.0
176
     1
 76
     1
176
     1
 77
     6
176
     1
 78
     2
176
     1
 67
     8
425
  7895160
176
     1
 79
     3
176
     1
170
     0
176
     1
171
     0
176
     1
290
     0
176
     1
 93
        5
176
     1
 44
0.0
176
     1
173
     0
176
     1
  0
VISUALSTYLE
  5
41
102
{ACAD_REACTORS
330
2A
102
}
330
2A
100
AcDbVisualStyle
  2
Shaded with edges
 70
    26
177
     2
291
     0
 71
     2
176
     1
 72
     2
176
     1
 73
     1
176
     1
 90
        2
176
     1
 40
0.6
176
     1
 41
30.0
176
     1
 62
     5
 63
     7
421
 16777215
176
     1
 74
     1
176
     1
 91
       10
176
     1
 64
     7
176
     1
 65
   257
176
     1
 75
     2
176
     1
175
     1
176
     1
 42
1.0
176
     1
 92
        8
176
     1
 66
   257
176
     1
 43
1.0
176
     1
 76
     1
176
     1
 77
     6
176
     1
 78
     2
176
     1
 67
     7
176
     1
 79
     3
176
     1
170
     0
176
     1
171
     0
176
     1
290
     0
176
     1
 93
        5
176
     1
 44
0.0
176
     1
173
     0
176
     1
  0
VISUALSTYLE
  5
3E
102
{ACAD_REACTORS
330
2A
102
}
330
2A
100
AcDbVisualStyle
  2
Shades of Gray
 70
    23
177
     2
291
     0
 71
     2
176
     1
 72
     2
176
     1
 73
     3
176
     1
 90
        0
176
     1
 40
0.6
176
     1
 41
30.0
176
     1
 62
     5
 63
     7
421
 16777215
176
     1
 74
     2
176
     1
 91
        2
176
     1
 64
     7
176
     1
 65
     7
176
     1
 75
     1
176
     1
175
     1
176
     1
 42
40.0
176
     1
 92
        8
176
     1
 66
     7
176
     1
 43
1.0
176
     1
 76
     1
176
     1
 77
     6
176
     1
 78
     2
176
     1
 67
     7
176
     1
 79
     3
176
     1
170
     0
176
     1
171
     0
176
     1
290
     0
176
     1
 93
        1
176
     1
 44
0.0
176
     1
173
     0
176
     1
  0
VISUALSTYLE
  5
3F
102
{ACAD_REACTORS
330
2A
102
}
330
2A
100
AcDbVisualStyle
  2
Sketchy
 70
    24
177
     2
291
     0
 71
     1
176
     1
 72
     2
176
     1
 73
     2
176
     1
 90
        0
176
     1
 40
0.6
176
     1
 41
30.0
176
     1
 62
     5
 63
     7
421
 16777215
176
     1
 74
     2
176
     1
 91
        2
176
     1
 64
     7
176
     1
 65
     7
176
     1
 75
     1
176
     1
175
     1
176
     1
 42
40.0
176
     1
 92
       11
176
     1
 66
     7
176
     1
 43
1.0
176
     1
 76
     1
176
     1
 77
     6
176
     1
 78
     2
176
     1
 67
     7
176
     1
 79
     6
176
     1
170
     0
176
     1
171
     0
176
     1
290
     0
176
     1
 93
        1
176
     1
 44
0.0
176
     1
173
     0
176
     1
  0
VISUALSTYLE
  5
37
102
{ACAD_REACTORS
330
2A
102
}
330
2A
100
AcDbVisualStyle
  2
Thicken
 70
    13
177
     2
291
     1
 71
     2
176
     1
 72
     2
176
     1
 73
     0
176
     1
 90
        0
176
     1
 40
0.6
176
     1
 41
30.0
176
     1
 62
     5
 63
     7
421
 16777215
176
     1
 74
     1
176
     1
 91
        4
176
     1
 64
     7
176
     1
 65
   257
176
     1
 75
     1
176
     1
175
     1
176
     1
 42
1.0
176
     1
 92
       12
176
     1
 66
     7
176
     1
 43
1.0
176
     1
 76
     1
176
     1
 77
     6
176
     1
 78
     2
176
     1
 67
     7
176
     1
 79
     5
176
     1
170
     0
176
     1
171
     0
176
     1
290
     0
176
     1
 93
        1
176
     1
 44
0.0
176
     1
173
     0
176
     1
  0
VISUALSTYLE
  5
30
102
{ACAD_REACTORS
330
2A
102
}
330
2A
100
AcDbVisualStyle
  2
Wireframe
 70
     5
177
     2
291
     0
 71
     0
176
     1
 72
     2
176
     1
 73
     0
176
     1
 90
        0
176
     1
 40
0.6
176
     1
 41
30.0
176
     1
 62
     5
 63
     7
421
 16777215
176
     1
 74
     1
176
     1
 91
        4
176
     1
 64
     7
176
     1
 65
   257
176
     1
 75
     1
176
     1
175
     1
176
     1
 42
1.0
176
     1
 92
        0
176
     1
 66
   257
176
     1
 43
1.0
176
     1
 76
     1
176
     1
 77
     6
176
     1
 78
     2
176
     1
 67
     7
176
     1
 79
     3
176
     1
170
     0
176
     1
171
     0
176
     1
290
     0
176
     1
 93
        1
176
     1
 44
0.0
176
     1
173
     0
176
     1
  0
VISUALSTYLE
  5
40
102
{ACAD_REACTORS
330
2A
102
}
330
2A
100
AcDbVisualStyle
  2
X-Ray
 70
    25
177
     2
291
     0
 71
     2
176
     1
 72
     2
176
     1
 73
     1
176
     1
 90
        1
176
     1
 40
0.5
176
     1
 41
30.0
176
     1
 62
     5
 63
     7
421
 16777215
176
     1
 74
     1
176
     1
 91
        0
176
     1
 64
     7
176
     1
 65
   257
176
     1
 75
     1
176
     1
175
     1
176
     1
 42
1.0
176
     1
 92
        8
176
     1
 66
     7
176
     1
 43
1.0
176
     1
 76
     1
176
     1
 77
     6
176
     1
 78
     2
176
     1
 67
     7
176
     1
 79
     3
176
     1
170
     0
176
     1
171
     0
176
     1
290
     0
176
     1
 93
       13
176
     1
 44
0.0
176
     1
173
     0
176
     1
  0
DICTIONARYVAR
  5
21D
102
{ACAD_REACTORS
330
21C
102
}
330
21C
100
DictionaryVariables
280
     0
  1
1:1
  0
DICTIONARYVAR
  5
222
102
{ACAD_REACTORS
330
21C
102
}
330
21C
100
DictionaryVariables
280
     0
  1
Standard
  0
DICTIONARYVAR
  5
221
102
{ACAD_REACTORS
330
21C
102
}
330
21C
100
DictionaryVariables
280
     0
  1
Standard
  0
DICTIONARY
  5
21E
330
6A
100
AcDbDictionary
280
     1
281
     1
  3
ACAD_ROUNDTRIP_2008_TABLESTYLE_CELLSTYLEMAP
360
21F
  0
CELLSTYLEMAP
  5
21F
102
{ACAD_REACTORS
330
21E
102
}
330
21E
100
AcDbCellStyleMap
 90
        3
300
CELLSTYLE
  1
TABLEFORMAT_BEGIN
 90
        5
170
     1
 91
        0
 92
    32768
 62
   257
 93
        1
300
CONTENTFORMAT
  1
CONTENTFORMAT_BEGIN
 90
        0
 91
        0
 92
        4
 93
        0
300

 40
0.0
140
1.0
 94
        5
 62
     0
340
11
144
6.0
309
CONTENTFORMAT_END
171
     1
301
MARGIN
  1
CELLMARGIN_BEGIN
 40
1.5
 40
1.5
 40
1.5
 40
1.5
 40
1.5
 40
1.5
309
CELLMARGIN_END
 94
        6
 95
        1
302
GRIDFORMAT
  1
GRIDFORMAT_BEGIN
 90
        0
 91
        1
 62
     0
 92
       -2
340
14
 93
        0
 40
0.045
309
GRIDFORMAT_END
 95
        2
302
GRIDFORMAT
  1
GRIDFORMAT_BEGIN
 90
        0
 91
        1
 62
     0
 92
       -2
340
14
 93
        0
 40
0.045
309
GRIDFORMAT_END
 95
        4
302
GRIDFORMAT
  1
GRIDFORMAT_BEGIN
 90
        0
 91
        1
 62
     0
 92
       -2
340
14
 93
        0
 40
0.045
309
GRIDFORMAT_END
 95
        8
302
GRIDFORMAT
  1
GRIDFORMAT_BEGIN
 90
        0
 91
        1
 62
     0
 92
       -2
340
14
 93
        0
 40
0.045
309
GRIDFORMAT_END
 95
       16
302
GRIDFORMAT
  1
GRIDFORMAT_BEGIN
 90
        0
 91
        1
 62
     0
 92
       -2
340
14
 93
        0
 40
0.045
309
GRIDFORMAT_END
 95
       32
302
GRIDFORMAT
  1
GRIDFORMAT_BEGIN
 90
        0
 91
        1
 62
     0
 92
       -2
340
14
 93
        0
 40
0.045
309
GRIDFORMAT_END
309
TABLEFORMAT_END
  1
CELLSTYLE_BEGIN
 90
        1
 91
        1
300
_TITLE
309
CELLSTYLE_END
300
CELLSTYLE
  1
TABLEFORMAT_BEGIN
 90
        5
170
     1
 91
        0
 92
        0
 62
   257
 93
        1
300
CONTENTFORMAT
  1
CONTENTFORMAT_BEGIN
 90
        0
 91
        0
 92
        4
 93
        0
300

 40
0.0
140
1.0
 94
        5
 62
     0
340
11
144
4.5
309
CONTENTFORMAT_END
171
     1
301
MARGIN
  1
CELLMARGIN_BEGIN
 40
1.5
 40
1.5
 40
1.5
 40
1.5
 40
1.5
 40
1.5
309
CELLMARGIN_END
 94
        6
 95
        1
302
GRIDFORMAT
  1
GRIDFORMAT_BEGIN
 90
        0
 91
        1
 62
     0
 92
       -2
340
14
 93
        0
 40
0.045
309
GRIDFORMAT_END
 95
        2
302
GRIDFORMAT
  1
GRIDFORMAT_BEGIN
 90
        0
 91
        1
 62
     0
 92
       -2
340
14
 93
        0
 40
0.045
309
GRIDFORMAT_END
 95
        4
302
GRIDFORMAT
  1
GRIDFORMAT_BEGIN
 90
        0
 91
        1
 62
     0
 92
       -2
340
14
 93
        0
 40
0.045
309
GRIDFORMAT_END
 95
        8
302
GRIDFORMAT
  1
GRIDFORMAT_BEGIN
 90
        0
 91
        1
 62
     0
 92
       -2
340
14
 93
        0
 40
0.045
309
GRIDFORMAT_END
 95
       16
302
GRIDFORMAT
  1
GRIDFORMAT_BEGIN
 90
        0
 91
        1
 62
     0
 92
       -2
340
14
 93
        0
 40
0.045
309
GRIDFORMAT_END
 95
       32
302
GRIDFORMAT
  1
GRIDFORMAT_BEGIN
 90
        0
 91
        1
 62
     0
 92
       -2
340
14
 93
        0
 40
0.045
309
GRIDFORMAT_END
309
TABLEFORMAT_END
  1
CELLSTYLE_BEGIN
 90
        2
 91
        1
300
_HEADER
309
CELLSTYLE_END
300
CELLSTYLE
  1
TABLEFORMAT_BEGIN
 90
        5
170
     1
 91
        0
 92
        0
 62
   257
 93
        1
300
CONTENTFORMAT
  1
CONTENTFORMAT_BEGIN
 90
        0
 91
        0
 92
        4
 93
        0
300

 40
0.0
140
1.0
 94
        2
 62
     0
340
11
144
4.5
309
CONTENTFORMAT_END
171
     1
301
MARGIN
  1
CELLMARGIN_BEGIN
 40
1.5
 40
1.5
 40
1.5
 40
1.5
 40
1.5
 40
1.5
309
CELLMARGIN_END
 94
        6
 95
        1
302
GRIDFORMAT
  1
GRIDFORMAT_BEGIN
 90
        0
 91
        1
 62
     0
 92
       -2
340
14
 93
        0
 40
0.045
309
GRIDFORMAT_END
 95
        2
302
GRIDFORMAT
  1
GRIDFORMAT_BEGIN
 90
        0
 91
        1
 62
     0
 92
       -2
340
14
 93
        0
 40
0.045
309
GRIDFORMAT_END
 95
        4
302
GRIDFORMAT
  1
GRIDFORMAT_BEGIN
 90
        0
 91
        1
 62
     0
 92
       -2
340
14
 93
        0
 40
0.045
309
GRIDFORMAT_END
 95
        8
302
GRIDFORMAT
  1
GRIDFORMAT_BEGIN
 90
        0
 91
        1
 62
     0
 92
       -2
340
14
 93
        0
 40
0.045
309
GRIDFORMAT_END
 95
       16
302
GRIDFORMAT
  1
GRIDFORMAT_BEGIN
 90
        0
 91
        1
 62
     0
 92
       -2
340
14
 93
        0
 40
0.045
309
GRIDFORMAT_END
 95
       32
302
GRIDFORMAT
  1
GRIDFORMAT_BEGIN
 90
        0
 91
        1
 62
     0
 92
       -2
340
14
 93
        0
 40
0.045
309
GRIDFORMAT_END
309
TABLEFORMAT_END
  1
CELLSTYLE_BEGIN
 90
        3
 91
        2
300
_DATA
309
CELLSTYLE_END
  0
ENDSEC
  0
EOF
