  0
SECTION
  2
HEADER
  9
$ACADVER
  1
AC1024
  9
$ACADMAINTVER
 70
     6
  9
$DWGCODEPAGE
  3
ANSI_1252
  9
$INSBASE
 10
0.0
 20
0.0
 30
0.0
  9
$EXTMIN
 10
0.0
 20
0.0
 30
0.0
  9
$EXTMAX
 10
841.0
 20
594.0
 30
0.0
  9
$LIMMIN
 10
0.0
 20
0.0
  9
$LIMMAX
 10
841.0
 20
594.0
  9
$ORTHOMODE
 70
     0
  9
$REGENMODE
 70
     1
  9
$FILLMODE
 70
     1
  9
$QTEXTMODE
 70
     0
  9
$MIRRTEXT
 70
     1
  9
$LTSCALE
 40
1.0
  9
$ATTMODE
 70
     1
  9
$TEXTSIZE
 40
10.0
  9
$TRACEWID
 40
1.0
  9
$TEXTSTYLE
  7
Standard
  9
$CLAYER
  8
0
  9
$CELTYPE
  6
ByLayer
  9
$CECOLOR
 62
   256
  9
$CELTSCALE
 40
1.0
  9
$DISPSILH
 70
     0
  9
$DIMSCALE
 40
1.0
  9
$DIMASZ
 40
2.5
  9
$DIMEXO
 40
0.0
  9
$DIMDLI
 40
3.75
  9
$DIMRND
 40
0.0
  9
$DIMDLE
 40
0.0
  9
$DIMEXE
 40
1.0
  9
$DIMTP
 40
0.0
  9
$DIMTM
 40
0.0
  9
$DIMTXT
 40
3.5
  9
$DIMCEN
 40
2.5
  9
$DIMTSZ
 40
0.0
  9
$DIMTOL
 70
     0
  9
$DIMLIM
 70
     0
  9
$DIMTIH
 70
     1
  9
$DIMTOH
 70
     1
  9
$DIMSE1
 70
     0
  9
$DIMSE2
 70
     0
  9
$DIMTAD
 70
     1
  9
$DIMZIN
 70
     0
  9
$DIMBLK
  1

  9
$DIMASO
 70
     1
  9
$DIMSHO
 70
     1
  9
$DIMPOST
  1

  9
$DIMAPOST
  1

  9
$DIMALT
 70
     0
  9
$DIMALTD
 70
     3
  9
$DIMALTF
 40
0.0393700787
  9
$DIMLFAC
 40
1.0
  9
$DIMTOFL
 70
     1
  9
$DIMTVP
 40
0.0
  9
$DIMTIX
 70
     0
  9
$DIMSOXD
 70
     0
  9
$DIMSAH
 70
     0
  9
$DIMBLK1
  1

  9
$DIMBLK2
  1

  9
$DIMSTYLE
  2
ISO-25
  9
$DIMCLRD
 70
     0
  9
$DIMCLRE
 70
     0
  9
$DIMCLRT
 70
     0
  9
$DIMTFAC
 40
1.0
  9
$DIMGAP
 40
1.5
  9
$DIMJUST
 70
     0
  9
$DIMSD1
 70
     0
  9
$DIMSD2
 70
     0
  9
$DIMTOLJ
 70
     0
  9
$DIMTZIN
 70
     0
  9
$DIMALTZ
 70
     0
  9
$DIMALTTZ
 70
     0
  9
$DIMUPT
 70
     0
  9
$DIMDEC
 70
     2
  9
$DIMTDEC
 70
     2
  9
$DIMALTU
 70
     2
  9
$DIMALTTD
 70
     3
  9
$DIMTXSTY
  7
Standard
  9
$DIMAUNIT
 70
     0
  9
$DIMADEC
 70
     2
  9
$DIMALTRND
 40
0.0
  9
$DIMAZIN
 70
     0
  9
$DIMDSEP
 70
    44
  9
$DIMATFIT
 70
     3
  9
$DIMFRAC
 70
     0
  9
$DIMLDRBLK
  1

  9
$DIMLUNIT
 70
     2
  9
$DIMLWD
 70
    -2
  9
$DIMLWE
 70
    -2
  9
$DIMTMOVE
 70
     0
  9
$DIMFXL
 40
1.0
  9
$DIMFXLON
 70
     0
  9
$DIMJOGANG
 40
0.7853981634
  9
$DIMTFILL
 70
     0
  9
$DIMTFILLCLR
 70
     0
  9
$DIMARCSYM
 70
     0
  9
$DIMLTYPE
  6

  9
$DIMLTEX1
  6

  9
$DIMLTEX2
  6

  9
$DIMTXTDIRECTION
 70
     0
  9
$LUNITS
 70
     2
  9
$LUPREC
 70
     2
  9
$SKETCHINC
 40
1.0
  9
$FILLETRAD
 40
10.0
  9
$AUNITS
 70
     0
  9
$AUPREC
 70
     2
  9
$MENU
  1
.
  9
$ELEVATION
 40
0.0
  9
$PELEVATION
 40
0.0
  9
$THICKNESS
 40
0.0
  9
$LIMCHECK
 70
     0
  9
$CHAMFERA
 40
0.0
  9
$CHAMFERB
 40
0.0
  9
$CHAMFERC
 40
0.0
  9
$CHAMFERD
 40
0.0
  9
$SKPOLY
 70
     0
  9
$TDCREATE
 40
2458754.54150669
  9
$TDUCREATE
 40
2458754.458173356
  9
$TDUPDATE
 40
2458754.541507766
  9
$TDUUPDATE
 40
2458754.458174433
  9
$TDINDWG
 40
0.0000000116
  9
$TDUSRTIMER
 40
0.0000000116
  9
$USRTIMER
 70
     1
  9
$ANGBASE
 50
0.0
  9
$ANGDIR
 70
     0
  9
$PDMODE
 70
     0
  9
$PDSIZE
 40
-1.0
  9
$PLINEWID
 40
0.0
  9
$SPLFRAME
 70
     0
  9
$SPLINETYPE
 70
     6
  9
$SPLINESEGS
 70
     8
  9
$HANDSEED
  5
313
  9
$SURFTAB1
 70
     6
  9
$SURFTAB2
 70
     6
  9
$SURFTYPE
 70
     6
  9
$SURFU
 70
     6
  9
$SURFV
 70
     6
  9
$UCSBASE
  2

  9
$UCSNAME
  2

  9
$UCSORG
 10
0.0
 20
0.0
 30
0.0
  9
$UCSXDIR
 10
1.0
 20
0.0
 30
0.0
  9
$UCSYDIR
 10
0.0
 20
1.0
 30
0.0
  9
$UCSORTHOREF
  2

  9
$UCSORTHOVIEW
 70
     0
  9
$UCSORGTOP
 10
0.0
 20
0.0
 30
0.0
  9
$UCSORGBOTTOM
 10
0.0
 20
0.0
 30
0.0
  9
$UCSORGLEFT
 10
0.0
 20
0.0
 30
0.0
  9
$UCSORGRIGHT
 10
0.0
 20
0.0
 30
0.0
  9
$UCSORGFRONT
 10
0.0
 20
0.0
 30
0.0
  9
$UCSORGBACK
 10
0.0
 20
0.0
 30
0.0
  9
$PUCSBASE
  2

  9
$PUCSNAME
  2

  9
$PUCSORG
 10
0.0
 20
0.0
 30
0.0
  9
$PUCSXDIR
 10
1.0
 20
0.0
 30
0.0
  9
$PUCSYDIR
 10
0.0
 20
1.0
 30
0.0
  9
$PUCSORTHOREF
  2

  9
$PUCSORTHOVIEW
 70
     0
  9
$PUCSORGTOP
 10
0.0
 20
0.0
 30
0.0
  9
$PUCSORGBOTTOM
 10
0.0
 20
0.0
 30
0.0
  9
$PUCSORGLEFT
 10
0.0
 20
0.0
 30
0.0
  9
$PUCSORGRIGHT
 10
0.0
 20
0.0
 30
0.0
  9
$PUCSORGFRONT
 10
0.0
 20
0.0
 30
0.0
  9
$PUCSORGBACK
 10
0.0
 20
0.0
 30
0.0
  9
$USERI1
 70
     0
  9
$USERI2
 70
     0
  9
$USERI3
 70
     0
  9
$USERI4
 70
     0
  9
$USERI5
 70
     0
  9
$USERR1
 40
0.0
  9
$USERR2
 40
0.0
  9
$USERR3
 40
0.0
  9
$USERR4
 40
0.0
  9
$USERR5
 40
0.0
  9
$WORLDVIEW
 70
     1
  9
$SHADEDGE
 70
     3
  9
$SHADEDIF
 70
    70
  9
$TILEMODE
 70
     1
  9
$MAXACTVP
 70
    64
  9
$PINSBASE
 10
0.0
 20
0.0
 30
0.0
  9
$PLIMCHECK
 70
     0
  9
$PEXTMIN
 10
1.0000000000E+20
 20
1.0000000000E+20
 30
1.0000000000E+20
  9
$PEXTMAX
 10
-1.0000000000E+20
 20
-1.0000000000E+20
 30
-1.0000000000E+20
  9
$PLIMMIN
 10
0.0
 20
0.0
  9
$PLIMMAX
 10
420.0
 20
297.0
  9
$UNITMODE
 70
     0
  9
$VISRETAIN
 70
     1
  9
$PLINEGEN
 70
     0
  9
$PSLTSCALE
 70
     1
  9
$TREEDEPTH
 70
  3020
  9
$CMLSTYLE
  2
Standard
  9
$CMLJUST
 70
     0
  9
$CMLSCALE
 40
20.0
  9
$PROXYGRAPHICS
 70
     1
  9
$MEASUREMENT
 70
     1
  9
$CELWEIGHT
370
    -1
  9
$ENDCAPS
280
     0
  9
$JOINSTYLE
280
     0
  9
$LWDISPLAY
290
     1
  9
$INSUNITS
 70
     4
  9
$HYPERLINKBASE
  1

  9
$STYLESHEET
  1

  9
$XEDIT
290
     1
  9
$CEPSNTYPE
380
     0
  9
$PSTYLEMODE
290
     1
  9
$FINGERPRINTGUID
  2
{AD70CCD7-99BD-4373-8E1C-4DC9C27B426D}
  9
$VERSIONGUID
  2
{FAEB1C32-E019-11D5-929B-00C0DF256EC4}
  9
$EXTNAMES
290
     1
  9
$PSVPSCALE
 40
0.0
  9
$OLESTARTUP
290
     0
  9
$SORTENTS
280
   127
  9
$INDEXCTL
280
     0
  9
$HIDETEXT
280
     1
  9
$XCLIPFRAME
280
     2
  9
$HALOGAP
280
     0
  9
$OBSCOLOR
 70
   257
  9
$OBSLTYPE
280
     0
  9
$INTERSECTIONDISPLAY
280
     0
  9
$INTERSECTIONCOLOR
 70
   257
  9
$DIMASSOC
280
     2
  9
$PROJECTNAME
  1

  9
$CAMERADISPLAY
290
     0
  9
$LENSLENGTH
 40
50.0
  9
$CAMERAHEIGHT
 40
0.0
  9
$STEPSPERSEC
 40
2.0
  9
$STEPSIZE
 40
6.0
  9
$3DDWFPREC
 40
2.0
  9
$PSOLWIDTH
 40
5.0
  9
$PSOLHEIGHT
 40
80.0
  9
$LOFTANG1
 40
1.5707963268
  9
$LOFTANG2
 40
1.5707963268
  9
$LOFTMAG1
 40
0.0
  9
$LOFTMAG2
 40
0.0
  9
$LOFTPARAM
 70
     7
  9
$LOFTNORMALS
280
     1
  9
$LATITUDE
 40
37.795
  9
$LONGITUDE
 40
-122.394
  9
$NORTHDIRECTION
 40
0.0
  9
$TIMEZONE
 70
 -8000
  9
$LIGHTGLYPHDISPLAY
280
     1
  9
$TILEMODELIGHTSYNCH
280
     1
  9
$CMATERIAL
347
44
  9
$SOLIDHIST
280
     0
  9
$SHOWHIST
280
     1
  9
$DWFFRAME
280
     2
  9
$DGNFRAME
280
     2
  9
$REALWORLDSCALE
290
     1
  9
$INTERFERECOLOR
 62
   256
  9
$CSHADOW
280
     0
  9
$SHADOWPLANELOCATION
 40
0.0
  0
ENDSEC
  0
SECTION
  2
CLASSES
  0
CLASS
  1
ACDBDICTIONARYWDFLT
  2
AcDbDictionaryWithDefault
  3
ObjectDBX Classes
 90
        0
 91
        4
280
     0
281
     0
  0
CLASS
  1
VISUALSTYLE
  2
AcDbVisualStyle
  3
ObjectDBX Classes
 90
     4095
 91
        4
280
     0
281
     0
  0
CLASS
  1
MATERIAL
  2
AcDbMaterial
  3
ObjectDBX Classes
 90
     1153
 91
        4
280
     0
281
     0
  0
CLASS
  1
SCALE
  2
AcDbScale
  3
ObjectDBX Classes
 90
     1153
 91
        4
280
     0
281
     0
  0
CLASS
  1
TABLESTYLE
  2
AcDbTableStyle
  3
ObjectDBX Classes
 90
     4095
 91
        4
280
     0
281
     0
  0
CLASS
  1
MLEADERSTYLE
  2
AcDbMLeaderStyle
  3
ACDB_MLEADERSTYLE_CLASS
 90
     4095
 91
        4
280
     0
281
     0
  0
CLASS
  1
SUN
  2
AcDbSun
  3
SCENEOE
 90
     1153
 91
        4
280
     0
281
     0
  0
CLASS
  1
DICTIONARYVAR
  2
AcDbDictionaryVar
  3
ObjectDBX Classes
 90
        0
 91
        4
280
     0
281
     0
  0
CLASS
  1
CELLSTYLEMAP
  2
AcDbCellStyleMap
  3
ObjectDBX Classes
 90
     1152
 91
        4
280
     0
281
     0
  0
ENDSEC
  0
SECTION
  2
TABLES
  0
TABLE
  2
VPORT
  5
8
330
0
100
AcDbSymbolTable
 70
     1
  0
VPORT
  5
29
330
8
100
AcDbSymbolTableRecord
100
AcDbViewportTableRecord
  2
*Active
 70
     0
 10
0.0
 20
0.0
 11
1.0
 21
1.0
 12
420.5
 22
297.0
 13
0.0
 23
0.0
 14
10.0
 24
10.0
 15
10.0
 25
10.0
 16
0.0
 26
0.0
 36
1.0
 17
0.0
 27
0.0
 37
0.0
 40
594.0
 41
1.4158249158
 42
50.0
 43
0.0
 44
0.0
 50
0.0
 51
0.0
 71
     0
 72
  2000
 73
     1
 74
     3
 75
     0
 76
     0
 77
     0
 78
     0
281
     0
 65
     1
110
0.0
120
0.0
130
0.0
111
1.0
121
0.0
131
0.0
112
0.0
122
1.0
132
0.0
 79
     0
146
0.0
348
2F
 60
     3
 61
     5
292
     1
282
     1
141
0.0
142
0.0
 63
   250
361
6D
  0
ENDTAB
  0
TABLE
  2
LTYPE
  5
5
330
0
100
AcDbSymbolTable
 70
     6
  0
LTYPE
  5
14
330
5
100
AcDbSymbolTableRecord
100
AcDbLinetypeTableRecord
  2
ByBlock
 70
     0
  3

 72
    65
 73
     0
 40
0.0
  0
LTYPE
  5
15
330
5
100
AcDbSymbolTableRecord
100
AcDbLinetypeTableRecord
  2
ByLayer
 70
     0
  3

 72
    65
 73
     0
 40
0.0
  0
LTYPE
  5
16
330
5
100
AcDbSymbolTableRecord
100
AcDbLinetypeTableRecord
  2
Continuous
 70
     0
  3
Solid line
 72
    65
 73
     0
 40
0.0
  0
LTYPE
  5
6E
330
5
100
AcDbSymbolTableRecord
100
AcDbLinetypeTableRecord
  2
HIDDEN
 70
     0
  3
Hidden __ __ __ __ __ __ __ __ __ __ __ __ __ __
 72
    65
 73
     2
 40
1.905
 49
1.27
 74
     0
 49
-0.635
 74
     0
  0
LTYPE
  5
6F
330
5
100
AcDbSymbolTableRecord
100
AcDbLinetypeTableRecord
  2
PHANTOM
 70
     0
  3
Phantom ______  __  __  ______  __  __  ______
 72
    65
 73
     6
 40
12.7
 49
6.35
 74
     0
 49
-1.27
 74
     0
 49
1.27
 74
     0
 49
-1.27
 74
     0
 49
1.27
 74
     0
 49
-1.27
 74
     0
  0
LTYPE
  5
70
330
5
100
AcDbSymbolTableRecord
100
AcDbLinetypeTableRecord
  2
CENTER
 70
     0
  3
Center ____ _ ____ _ ____ _ ____ _ ____ _ ____
 72
    65
 73
     4
 40
10.16
 49
6.35
 74
     0
 49
-1.27
 74
     0
 49
1.27
 74
     0
 49
-1.27
 74
     0
  0
LTYPE
  5
71
330
5
100
AcDbSymbolTableRecord
100
AcDbLinetypeTableRecord
  2
CENTERX2
 70
     0
  3
Center (2x) ________  __  ________  __  _____
 72
    65
 73
     4
 40
20.32
 49
12.7
 74
     0
 49
-2.54
 74
     0
 49
2.54
 74
     0
 49
-2.54
 74
     0
  0
LTYPE
  5
72
330
5
100
AcDbSymbolTableRecord
100
AcDbLinetypeTableRecord
  2
DOT2
 70
     0
  3
Dot (.5x) ........................................
 72
    65
 73
     2
 40
0.635
 49
0.0
 74
     0
 49
-0.635
 74
     0
  0
ENDTAB
  0
TABLE
  2
LAYER
  5
2
330
0
100
AcDbSymbolTable
 70
     1
  0
LAYER
  5
10
330
2
100
AcDbSymbolTableRecord
100
AcDbLayerTableRecord
  2
0
 70
     0
 62
     7
  6
Continuous
370
    -3
390
F
347
46
  0
ENDTAB
  0
TABLE
  2
STYLE
  5
3
330
0
100
AcDbSymbolTable
 70
     3
  0
STYLE
  5
11
330
3
100
AcDbSymbolTableRecord
100
AcDbTextStyleTableRecord
  2
Standard
 70
     0
 40
0.0
 41
1.0
 50
0.0
 71
     0
 42
10.0
  3
txt
  4

  0
STYLE
  5
76
330
3
100
AcDbSymbolTableRecord
100
AcDbTextStyleTableRecord
  2
SLDTEXTSTYLE0
 70
     0
 40
0.0
 41
0.96
 50
0.0
 71
     0
 42
10.0
  3
ISOCP3
  4

  0
STYLE
  5
8D
330
3
100
AcDbSymbolTableRecord
100
AcDbTextStyleTableRecord
  2
SLDTEXTSTYLE1
 70
     0
 40
0.0
 41
0.605
 50
0.0
 71
     0
 42
10.0
  3
TXT
  4

  0
ENDTAB
  0
TABLE
  2
VIEW
  5
6
330
0
100
AcDbSymbolTable
 70
     0
  0
ENDTAB
  0
TABLE
  2
UCS
  5
7
330
0
100
AcDbSymbolTable
 70
     0
  0
ENDTAB
  0
TABLE
  2
APPID
  5
9
330
0
100
AcDbSymbolTable
 70
     1
  0
APPID
  5
12
330
9
100
AcDbSymbolTableRecord
100
AcDbRegAppTableRecord
  2
ACAD
 70
     0
  0
ENDTAB
  0
TABLE
  2
DIMSTYLE
  5
A
330
0
100
AcDbSymbolTable
 70
     2
100
AcDbDimStyleTable
  0
DIMSTYLE
105
27
330
A
100
AcDbSymbolTableRecord
100
AcDbDimStyleTableRecord
  2
ISO-25
 70
     0
 41
2.5
 42
0.625
 43
3.75
 44
1.25
 73
     0
 74
     0
 77
     1
 78
     8
140
2.5
141
2.5
143
0.0393700787
147
0.625
171
     3
172
     1
178
     0
271
     2
272
     2
274
     3
278
    44
283
     0
284
     8
340
11
  0
DIMSTYLE
105
77
102
{ACAD_REACTORS
330
75
330
82
102
}
330
A
100
AcDbSymbolTableRecord
100
AcDbDimStyleTableRecord
  2
SLDDIMSTYLE0
 70
     0
 41
2.5
 44
0.0
 45
0.000000001
 73
     0
 74
     0
 77
     1
 78
    12
 79
     3
140
6.0
147
1.5
173
     1
178
     0
271
     2
272
     2
276
     2
284
    12
340
76
  0
ENDTAB
  0
TABLE
  2
BLOCK_RECORD
  5
1
330
0
100
AcDbSymbolTable
 70
     3
  0
BLOCK_RECORD
  5
1F
330
1
100
AcDbSymbolTableRecord
100
AcDbBlockTableRecord
  2
*Model_Space
340
22
 70
     0
280
     1
281
     0
  0
BLOCK_RECORD
  5
1B
330
1
100
AcDbSymbolTableRecord
100
AcDbBlockTableRecord
  2
*Paper_Space
340
1E
 70
     0
280
     1
281
     0
  0
BLOCK_RECORD
  5
23
330
1
100
AcDbSymbolTableRecord
100
AcDbBlockTableRecord
  2
*Paper_Space0
340
26
 70
     0
280
     1
281
     0
  0
BLOCK_RECORD
  5
78
330
1
100
AcDbSymbolTableRecord
100
AcDbBlockTableRecord
  2
_D
340
0
 70
     0
280
     1
281
     0
  0
BLOCK_RECORD
  5
83
330
1
100
AcDbSymbolTableRecord
100
AcDbBlockTableRecord
  2
_D_1
340
0
 70
     0
280
     1
281
     0
  0
ENDTAB
  0
ENDSEC
  0
SECTION
  2
BLOCKS
  0
BLOCK
  5
20
330
1F
100
AcDbEntity
  8
0
100
AcDbBlockBegin
  2
*Model_Space
 70
     0
 10
0.0
 20
0.0
 30
0.0
  3
*Model_Space
  1

  0
ENDBLK
  5
21
330
1F
100
AcDbEntity
  8
0
100
AcDbBlockEnd
  0
BLOCK
  5
1C
330
1B
100
AcDbEntity
 67
     1
  8
0
100
AcDbBlockBegin
  2
*Paper_Space
 70
     0
 10
0.0
 20
0.0
 30
0.0
  3
*Paper_Space
  1

  0
ENDBLK
  5
1D
330
1B
100
AcDbEntity
 67
     1
  8
0
100
AcDbBlockEnd
  0
BLOCK
  5
24
330
23
100
AcDbEntity
  8
0
100
AcDbBlockBegin
  2
*Paper_Space0
 70
     0
 10
0.0
 20
0.0
 30
0.0
  3
*Paper_Space0
  1

  0
ENDBLK
  5
25
330
23
100
AcDbEntity
  8
0
100
AcDbBlockEnd
  0
BLOCK
  5
79
330
78
100
AcDbEntity
  8
0
100
AcDbBlockBegin
  2
_D
 70
     0
 10
0.0
 20
0.0
 30
0.0
  3
_D
  1

  0
SOLID
  5
7B
330
78
100
AcDbEntity
  8
0
  6
Continuous
 62
     7
370
    18
100
AcDbTrace
 10
42.7614395004
 20
152.0299240879
 30
0.0
 11
42.4614395004
 21
149.5299240879
 31
0.0
 12
43.0614395004
 22
149.5299240879
 32
0.0
 13
43.0614395004
 23
149.5299240879
 33
0.0
  0
SOLID
  5
7C
330
78
100
AcDbEntity
  8
0
  6
Continuous
 62
     7
370
    18
100
AcDbTrace
 10
42.7614395004
 20
52.0299240879
 30
0.0
 11
43.0614395004
 21
54.5299240879
 31
0.0
 12
42.4614395004
 22
54.5299240879
 32
0.0
 13
42.4614395004
 23
54.5299240879
 33
0.0
  0
LINE
  5
7D
330
78
100
AcDbEntity
  8
0
  6
Continuous
 62
     7
370
    18
100
AcDbLine
 10
56.6850079902
 20
152.0299240879
 30
0.0
 11
41.7614395004
 21
152.0299240879
 31
0.0
  0
LINE
  5
7E
330
78
100
AcDbEntity
  8
0
  6
Continuous
 62
     7
370
    18
100
AcDbLine
 10
56.6850079902
 20
52.0299240879
 30
0.0
 11
41.7614395004
 21
52.0299240879
 31
0.0
  0
LINE
  5
7F
330
78
100
AcDbEntity
  8
0
  6
Continuous
 62
     7
370
    18
100
AcDbLine
 10
42.7614395004
 20
152.0299240879
 30
0.0
 11
42.7614395004
 21
52.0299240879
 31
0.0
  0
MTEXT
  5
80
330
78
100
AcDbEntity
  8
0
  6
Continuous
 62
     7
370
    18
100
AcDbMText
 10
35.0270332946
 20
94.3680541463
 30
0.0
 40
6.0
 41
0.0
 46
0.0
 71
     1
 72
     1
  1
100
  7
SLDTEXTSTYLE0
 11
-7.044195017643634E-15
 21
1.0
 31
0.0
 73
     1
 44
1.0
  0
MTEXT
  5
81
330
78
100
AcDbEntity
  8
0
  6
Continuous
 62
     7
370
    18
100
AcDbMText
 10
35.0270332946
 20
105.7430548466
 30
0.0
 40
6.0
 41
0.0
 46
0.0
 71
     1
 72
     1
  1
mm
  7
SLDTEXTSTYLE0
 11
-7.044195017643634E-15
 21
1.0
 31
0.0
 73
     1
 44
1.0
  0
ENDBLK
  5
7A
330
78
100
AcDbEntity
  8
0
100
AcDbBlockEnd
  0
BLOCK
  5
84
330
83
100
AcDbEntity
  8
0
100
AcDbBlockBegin
  2
_D_1
 70
     0
 10
0.0
 20
0.0
 30
0.0
  3
_D_1
  1

  0
SOLID
  5
86
330
83
100
AcDbEntity
  8
0
  6
Continuous
 62
     7
370
    18
100
AcDbTrace
 10
56.6850079902
 20
38.4602342313
 30
0.0
 11
59.1850079902
 21
38.1602342313
 31
0.0
 12
59.1850079902
 22
38.7602342313
 32
0.0
 13
59.1850079902
 23
38.7602342313
 33
0.0
  0
SOLID
  5
87
330
83
100
AcDbEntity
  8
0
  6
Continuous
 62
     7
370
    18
100
AcDbTrace
 10
156.6850079902
 20
38.4602342313
 30
0.0
 11
154.1850079902
 21
38.7602342313
 31
0.0
 12
154.1850079902
 22
38.1602342313
 32
0.0
 13
154.1850079902
 23
38.1602342313
 33
0.0
  0
LINE
  5
88
330
83
100
AcDbEntity
  8
0
  6
Continuous
 62
     7
370
    18
100
AcDbLine
 10
56.6850079902
 20
52.0299240879
 30
0.0
 11
56.6850079902
 21
37.4602342313
 31
0.0
  0
LINE
  5
89
330
83
100
AcDbEntity
  8
0
  6
Continuous
 62
     7
370
    18
100
AcDbLine
 10
156.6850079902
 20
52.0299240879
 30
0.0
 11
156.6850079902
 21
37.4602342313
 31
0.0
  0
LINE
  5
8A
330
83
100
AcDbEntity
  8
0
  6
Continuous
 62
     7
370
    18
100
AcDbLine
 10
56.6850079902
 20
38.4602342313
 30
0.0
 11
156.6850079902
 21
38.4602342313
 31
0.0
  0
MTEXT
  5
8B
330
83
100
AcDbEntity
  8
0
  6
Continuous
 62
     7
370
    18
100
AcDbMText
 10
93.9626484861
 20
46.1946404371
 30
0.0
 40
6.0
 41
0.0
 46
0.0
 71
     1
 72
     1
  1
100
  7
SLDTEXTSTYLE0
 73
     1
 44
1.0
  0
MTEXT
  5
8C
330
83
100
AcDbEntity
  8
0
  6
Continuous
 62
     7
370
    18
100
AcDbMText
 10
105.3376491864
 20
46.1946404371
 30
0.0
 40
6.0
 41
0.0
 46
0.0
 71
     1
 72
     1
  1
mm
  7
SLDTEXTSTYLE0
 73
     1
 44
1.0
  0
ENDBLK
  5
85
330
83
100
AcDbEntity
  8
0
100
AcDbBlockEnd
  0
ENDSEC
  0
SECTION
  2
ENTITIES
  0
LINE
  5
73
330
1F
100
AcDbEntity
  8
0
  6
Continuous
 62
     7
370
    18
100
AcDbLine
 10
56.6850079902
 20
152.0299240879
 30
0.0
 11
56.6850079902
 21
52.0299240879
 31
0.0
  0
LINE
  5
74
330
1F
100
AcDbEntity
  8
0
  6
Continuous
 62
     7
370
    18
100
AcDbLine
 10
56.6850079902
 20
52.0299240879
 30
0.0
 11
156.6850079902
 21
52.0299240879
 31
0.0
  0
DIMENSION
  5
75
330
1F
100
AcDbEntity
  8
0
  6
Continuous
 62
     7
370
    18
100
AcDbDimension
280
     0
  2
_D
 10
42.7614395004
 20
52.0299240879
 30
0.0
 11
42.7614395004
 21
105.4472211621
 31
0.0
 70
   160
  1
<>mm
 71
     2
 42
-1.0
 73
     0
 74
     0
 75
     0
  3
SLDDIMSTYLE0
100
AcDbAlignedDimension
 13
56.6850079902
 23
152.0299240879
 33
0.0
 14
56.6850079902
 24
52.0299240879
 34
0.0
 50
90.0
100
AcDbRotatedDimension
  0
DIMENSION
  5
82
330
1F
100
AcDbEntity
  8
0
  6
Continuous
 62
     7
370
    18
100
AcDbDimension
280
     0
  2
_D_1
 10
156.6850079902
 20
38.4602342313
 30
0.0
 11
105.0418155019
 21
38.4602342313
 31
0.0
 70
   160
  1
<>mm
 71
     2
 42
-1.0
 73
     0
 74
     0
 75
     0
  3
SLDDIMSTYLE0
100
AcDbAlignedDimension
 13
56.6850079902
 23
52.0299240879
 33
0.0
 14
156.6850079902
 24
52.0299240879
 34
0.0
100
AcDbRotatedDimension
  0
MTEXT
  5
8E
330
1F
100
AcDbEntity
  8
0
  6
Continuous
 62
     7
370
     0
100
AcDbMText
 10
664.658399795
 20
48.4342449499
 30
0.0
 40
10.0
 41
0.0
 46
0.0
 71
     1
 72
     1
  1
KLUDI GmbH & Co KG
  7
SLDTEXTSTYLE1
 73
     1
 44
1.0
  0
MTEXT
  5
8F
330
1F
100
AcDbEntity
  8
0
  6
Continuous
 62
     7
370
     0
100
AcDbMText
 10
349.0758972247
 20
48.4342449499
 30
0.0
 40
10.0
 41
0.0
 46
0.0
 71
     1
 72
     1
  1
20 540 05 20
  7
SLDTEXTSTYLE1
 73
     1
 44
1.0
  0
LINE
  5
90
330
1F
100
AcDbEntity
  8
0
  6
Continuous
 62
     7
370
    25
100
AcDbLine
 10
250.3184175953
 20
392.5458649936
 30
0.0
 11
250.8439778253
 21
392.26131987
 31
0.0
  0
LINE
  5
91
330
1F
100
AcDbEntity
  8
0
  6
Continuous
 62
     7
370
    25
100
AcDbLine
 10
271.7928572461
 20
392.26131987
 30
0.0
 11
272.3184174761
 21
392.5458649936
 31
0.0
  0
LINE
  5
92
330
1F
100
AcDbEntity
  8
0
  6
Continuous
 62
     7
370
    25
100
AcDbLine
 10
273.0684171334
 20
388.6845382693
 30
0.0
 11
273.0684171334
 21
395.3549834731
 31
0.0
  0
LINE
  5
93
330
1F
100
AcDbEntity
  8
0
  6
Continuous
 62
     7
370
    25
100
AcDbLine
 10
249.568417938
 20
395.3478104266
 30
0.0
 11
249.568417938
 21
388.6845382693
 31
0.0
  0
LINE
  5
94
330
1F
100
AcDbEntity
  8
0
  6
Continuous
 62
     7
370
    25
100
AcDbLine
 10
271.8159177243
 20
385.8845393004
 30
0.0
 11
271.0159172207
 21
386.6845379415
 31
0.0
  0
LINE
  5
95
330
1F
100
AcDbEntity
  8
0
  6
Continuous
 62
     7
370
    25
100
AcDbLine
 10
251.6209178507
 20
386.6845379415
 30
0.0
 11
250.820917347
 21
385.8845393004
 31
0.0
  0
LINE
  5
96
330
1F
100
AcDbEntity
  8
0
  6
Continuous
 62
     7
370
    25
100
AcDbLine
 10
271.8159177243
 20
383.6845393124
 30
0.0
 11
271.8159177243
 21
385.8845393004
 31
0.0
  0
LINE
  5
97
330
1F
100
AcDbEntity
  8
0
  6
Continuous
 62
     7
370
    25
100
AcDbLine
 10
250.820917347
 20
385.8845393004
 30
0.0
 11
250.820917347
 21
383.6845393124
 31
0.0
  0
ARC
  5
98
330
1F
100
AcDbEntity
  8
0
  6
Continuous
 62
     7
370
    25
100
AcDbCircle
 10
271.0684175357
 20
388.1845385912
 30
0.0
 40
0.5
100
AcDbArc
 50
90.0
 51
180.0
  0
ARC
  5
99
330
1F
100
AcDbEntity
  8
0
  6
Continuous
 62
     7
370
    25
100
AcDbCircle
 10
251.5684175357
 20
388.1845385912
 30
0.0
 40
0.5
100
AcDbArc
 50
0.0
 51
90.0
  0
LINE
  5
9A
330
1F
100
AcDbEntity
  8
0
  6
Continuous
 62
     7
370
    25
100
AcDbLine
 10
270.5684176549
 20
386.6845379415
 30
0.0
 11
270.5684176549
 21
388.184537256
 31
0.0
  0
LINE
  5
9B
330
1F
100
AcDbEntity
  8
0
  6
Continuous
 62
     7
370
    25
100
AcDbLine
 10
252.0684174165
 20
388.184537256
 30
0.0
 11
252.0684174165
 21
386.6845379415
 31
0.0
  0
LINE
  5
9C
330
1F
100
AcDbEntity
  8
0
  6
Continuous
 62
     7
370
    25
100
AcDbLine
 10
256.2264006488
 20
439.5345385017
 30
0.0
 11
190.8184162244
 21
439.5345385017
 31
0.0
  0
LINE
  5
9D
330
1F
100
AcDbEntity
  8
0
  6
Continuous
 62
     7
370
    25
100
AcDbLine
 10
331.818418847
 20
439.5345385017
 30
0.0
 11
266.4104344226
 21
439.5345385017
 31
0.0
  0
LINE
  5
9E
330
1F
100
AcDbEntity
  8
0
  6
Continuous
 62
     7
370
    25
100
AcDbLine
 10
277.8184174463
 20
406.5345386806
 30
0.0
 11
331.818418847
 21
406.5345386806
 31
0.0
  0
LINE
  5
9F
330
1F
100
AcDbEntity
  8
0
  6
Continuous
 62
     7
370
    25
100
AcDbLine
 10
190.8184162244
 20
406.5345386806
 30
0.0
 11
244.8184176251
 21
406.5345386806
 31
0.0
  0
ARC
  5
A0
330
1F
100
AcDbEntity
  8
0
  6
Continuous
 62
     7
370
    25
100
AcDbCircle
 10
261.3184175411
 20
423.3150637531
 30
0.0
 40
17.00000000383421
100
AcDbArc
 50
348.816730477
 51
191.1832695256
  0
ARC
  5
A1
330
1F
100
AcDbEntity
  8
0
  6
Continuous
 62
     7
370
    25
100
AcDbCircle
 10
244.837418788
 20
420.0567389953
 30
0.0
 40
0.1999999999999958
100
AcDbArc
 50
191.1832695256
 51
212.2838875853
  0
ARC
  5
A2
330
1F
100
AcDbEntity
  8
0
  6
Continuous
 62
     7
370
    25
100
AcDbCircle
 10
277.5206804738
 20
397.5739497635
 30
0.0
 40
0.2977458223050909
100
AcDbArc
 50
269.5646153071
 51
359.5582436326
  0
SPLINE
  5
A3
330
1F
100
AcDbEntity
  8
0
  6
Continuous
 62
     7
370
    25
100
AcDbSpline
210
0.0
220
0.0
230
1.0
 70
     8
 71
     3
 72
    13
 73
     9
 74
     0
 42
0.000000001
 43
0.00000001
 40
0.0
 40
0.0
 40
0.0
 40
0.0
 40
0.015620123623928
 40
0.2481243855951618
 40
0.480624581672692
 40
0.7130618948957509
 40
0.9455126409398451
 40
1.0
 40
1.0
 40
1.0
 40
1.0
 10
245.1973802312877
 20
397.0125290396289
 30
0.0
 10
245.2003389100456
 20
397.0018900195325
 30
0.0
 10
245.2473372800102
 20
396.832890055876
 30
0.0
 10
245.670413821511
 20
396.5103946553334
 30
0.0
 10
246.6046352961417
 20
396.061523084862
 30
0.0
 10
248.0256234469815
 20
395.6536016823703
 30
0.0
 10
249.2840797241865
 20
395.369935945822
 30
0.0
 10
250.1533498282762
 20
395.2452095416
 30
0.0
 10
250.3184175952937
 20
395.2215249481277
 30
0.0
  0
SPLINE
  5
A4
330
1F
100
AcDbEntity
  8
0
  6
Continuous
 62
     7
370
    25
100
AcDbSpline
210
0.0
220
0.0
230
1.0
 70
     8
 71
     3
 72
    12
 73
     8
 74
     0
 42
0.000000001
 43
0.00000001
 40
0.0
 40
0.0
 40
0.0
 40
0.0
 40
0.2143212979669786
 40
0.4555536116191586
 40
0.696769261032902
 40
0.9379260158442128
 40
1.0
 40
1.0
 40
1.0
 40
1.0
 10
272.3184174760844
 20
395.2174494805412
 30
0.0
 10
272.8933318415528
 20
395.3160765675493
 30
0.0
 10
274.1153490561053
 20
395.5257147421786
 30
0.0
 10
275.5633550838911
 20
395.9101081498649
 30
0.0
 10
276.6661463289123
 20
396.3426246436293
 30
0.0
 10
277.2535356852004
 20
396.6879394256088
 30
0.0
 10
277.3324359789759
 20
396.885785819491
 30
0.0
 10
277.3485875591304
 20
396.9262867065744
 30
0.0
  0
SPLINE
  5
A5
330
1F
100
AcDbEntity
  8
0
  6
Continuous
 62
     7
370
    25
100
AcDbSpline
210
0.0
220
0.0
230
1.0
 70
    24
 71
     3
 72
    20
 73
    16
 74
     0
 42
0.000000001
 43
0.00000001
 40
0.0
 40
0.0
 40
0.0
 40
0.0
 40
0.0576547306398492
 40
0.1213497692420257
 40
0.1859859740097333
 40
0.2533143355058235
 40
0.324094980228253
 40
0.3960124678469226
 40
0.4658568607008733
 40
0.5332949022631825
 40
0.6358147248643575
 40
0.7350598222375817
 40
0.8316930553744217
 40
0.9264345575384397
 40
0.9999999999999999
 40
0.9999999999999999
 40
0.9999999999999999
 40
0.9999999999999999
 10
244.818417625096
 20
397.5716541352348
 30
0.0
 10
244.818417625096
 20
398.6838133723558
 30
0.0
 10
244.818417625096
 20
401.0246493330347
 30
0.0
 10
244.818417625096
 20
404.5865704223532
 30
0.0
 10
244.818417625096
 20
408.2165920087037
 30
0.0
 10
244.818417625096
 20
411.7669365651245
 30
0.0
 10
244.818417625096
 20
415.0756257464115
 30
0.0
 10
244.818417625096
 20
417.8263701605469
 30
0.0
 10
244.818417625096
 20
419.8785937044411
 30
0.0
 10
244.818417625096
 20
421.5111902725378
 30
0.0
 10
244.818417625096
 20
422.5360637270246
 30
0.0
 10
244.818417625096
 20
422.9813134007208
 30
0.0
 10
244.818417625096
 20
423.0471790659877
 30
0.0
 10
244.818417625096
 20
423.0313303242325
 30
0.0
 10
244.818417625096
 20
423.0323108476422
 30
0.0
 10
244.818417625096
 20
423.0327394255518
 30
0.0
  0
SPLINE
  5
A6
330
1F
100
AcDbEntity
  8
0
  6
Continuous
 62
     7
370
    25
100
AcDbSpline
210
0.0
220
0.0
230
1.0
 70
     8
 71
     3
 72
    63
 73
    59
 74
     0
 42
0.000000001
 43
0.00000001
 40
0.0
 40
0.0
 40
0.0
 40
0.0
 40
0.0078125
 40
0.0078125
 40
0.015625
 40
0.03125
 40
0.03125
 40
0.0625
 40
0.0625
 40
0.0937499999999999
 40
0.0937499999999999
 40
0.1249999999999999
 40
0.1249999999999999
 40
0.1874999999999999
 40
0.1874999999999999
 40
0.2187499999999999
 40
0.2187499999999999
 40
0.2499999999999998
 40
0.2499999999999998
 40
0.3124999999999998
 40
0.3124999999999998
 40
0.3437499999999998
 40
0.3437499999999998
 40
0.3749999999999998
 40
0.3749999999999998
 40
0.4062499999999997
 40
0.4062499999999997
 40
0.4374999999999997
 40
0.4374999999999997
 40
0.4999999999999997
 40
0.4999999999999997
 40
0.5312499999999998
 40
0.5312499999999998
 40
0.5624999999999998
 40
0.5624999999999998
 40
0.6249999999999998
 40
0.6249999999999998
 40
0.6562499999999998
 40
0.6562499999999998
 40
0.6874999999999998
 40
0.6874999999999998
 40
0.7499999999999998
 40
0.7499999999999998
 40
0.8124999999999998
 40
0.8124999999999998
 40
0.8437499999999998
 40
0.8437499999999998
 40
0.8749999999999998
 40
0.8749999999999998
 40
0.9374999999999999
 40
0.9374999999999999
 40
0.9687499999999999
 40
0.9687499999999999
 40
0.9843749999999999
 40
0.9843749999999999
 40
0.9921874999999999
 40
0.9921874999999999
 40
1.0
 40
1.0
 40
1.0
 40
1.0
 10
277.8184175195398
 20
423.0340462911115
 30
0.0
 10
277.8184172800057
 20
423.1683629446458
 30
0.0
 10
277.816762963698
 20
423.3062218551405
 30
0.0
 10
277.8101656441337
 20
423.5775613973104
 30
0.0
 10
277.7953363423261
 20
423.9837354333225
 30
0.0
 10
277.7657901717531
 20
424.3874177073091
 30
0.0
 10
277.6872048824405
 20
425.1914818393599
 30
0.0
 10
277.6088591190962
 20
425.7231299700495
 30
0.0
 10
277.4001325561209
 20
426.7776160062736
 30
0.0
 10
277.2697582731589
 20
427.3004550151672
 30
0.0
 10
276.9556610126282
 20
428.3371003879378
 30
0.0
 10
276.7710760663696
 20
428.8522224830532
 30
0.0
 10
276.1488616956101
 20
430.3501980631324
 30
0.0
 10
275.6407537997616
 20
431.2971668555759
 30
0.0
 10
274.7410825962158
 20
432.6414482193403
 30
0.0
 10
274.4168125604176
 20
433.0783145212556
 30
0.0
 10
273.7263338158577
 20
433.918474667953
 30
0.0
 10
273.3631261085817
 20
434.3184583001295
 30
0.0
 10
272.2212978480079
 20
435.4600210655481
 30
0.0
 10
271.391002206144
 20
436.1438048951311
 30
0.0
 10
270.0388765917819
 20
437.0501634304856
 30
0.0
 10
269.5707596112675
 20
437.3314566519193
 30
0.0
 10
268.6191385062187
 20
437.8413787810267
 30
0.0
 10
268.1331687289205
 20
438.0717409970853
 30
0.0
 10
267.1411280956553
 20
438.4837940591214
 30
0.0
 10
266.6350562063442
 20
438.6654824030303
 30
0.0
 10
265.6024831128496
 20
438.9793929521903
 30
0.0
 10
265.0731160928343
 20
439.1121264763166
 30
0.0
 10
263.4754430935698
 20
439.428895406624
 30
0.0
 10
262.4045637458475
 20
439.5320847613
 30
0.0
 10
260.7900332108565
 20
439.5330245034165
 30
0.0
 10
260.2504810827849
 20
439.5075715567222
 30
0.0
 10
259.1684950782548
 20
439.4026755506424
 30
0.0
 10
258.6298775332434
 20
439.3233509165613
 30
0.0
 10
257.0432336826576
 20
439.0092525941128
 30
0.0
 10
256.015103450475
 20
438.6981982046726
 30
0.0
 10
254.5176312110324
 20
438.0781913045903
 30
0.0
 10
254.0233523091084
 20
437.8442518647161
 30
0.0
 10
253.0678612945852
 20
437.3325713176808
 30
0.0
 10
252.6057906199773
 20
437.0548560271768
 30
0.0
 10
251.2652776493931
 20
436.1579348294425
 30
0.0
 10
250.4320613032144
 20
435.4756138356273
 30
0.0
 10
248.89068714688
 20
433.9364463738806
 30
0.0
 10
248.206149743675
 20
433.1028182827588
 30
0.0
 10
247.30788411702
 20
431.7642385408985
 30
0.0
 10
247.0298123002051
 20
431.3029977553065
 30
0.0
 10
246.51748793294
 20
430.3496323304848
 30
0.0
 10
246.2825996144209
 20
429.8553601901361
 30
0.0
 10
245.6596650142985
 20
428.3568549858243
 30
0.0
 10
245.3473274118778
 20
427.3288676656535
 30
0.0
 10
245.0313638109911
 20
425.7439416995364
 30
0.0
 10
244.9515716103156
 20
425.2078692343716
 30
0.0
 10
244.8715629907905
 20
424.3944096014778
 30
0.0
 10
244.8516006975942
 20
424.1226171620856
 30
0.0
 10
244.8316761949076
 20
423.7147021213312
 30
0.0
 10
244.826701660931
 20
423.5786637692516
 30
0.0
 10
244.82007233338
 20
423.3064542891153
 30
0.0
 10
244.8184177913715
 20
423.1683633590756
 30
0.0
 10
244.8184175518374
 20
423.0340467055414
 30
0.0
  0
SPLINE
  5
A7
330
1F
100
AcDbEntity
  8
0
  6
Continuous
 62
     7
370
    25
100
AcDbSpline
210
0.0
220
0.0
230
1.0
 70
    24
 71
     3
 72
    21
 73
    17
 74
     0
 42
0.000000001
 43
0.00000001
 40
0.0
 40
0.0
 40
0.0
 40
0.0
 40
0.0464240696644333
 40
0.1262551604381034
 40
0.206740029949648
 40
0.2892796125108944
 40
0.3736334192348645
 40
0.4603291317439774
 40
0.5285730149072421
 40
0.5992521913475027
 40
0.6720291492478206
 40
0.7436558148738434
 40
0.8117892504595912
 40
0.8771985258477398
 40
0.9416554954820663
 40
1.0
 40
1.0
 40
1.0
 40
1.0
 10
277.8184174462821
 20
423.0327455943133
 30
0.0
 10
277.8184174462821
 20
423.0327775894819
 30
0.0
 10
277.8184174462821
 20
423.0328646037221
 30
0.0
 10
277.8184174462821
 20
423.0359192002793
 30
0.0
 10
277.8184174462821
 20
423.0326147238505
 30
0.0
 10
277.8184174462821
 20
422.872889253041
 30
0.0
 10
277.8184174462821
 20
422.3690585940906
 30
0.0
 10
277.8184174462821
 20
421.3957355908753
 30
0.0
 10
277.8184174462821
 20
419.8783100120517
 30
0.0
 10
277.8184174462821
 20
417.8258933730577
 30
0.0
 10
277.8184174462821
 20
415.0751887179098
 30
0.0
 10
277.8184174462821
 20
411.7665435250291
 30
0.0
 10
277.8184174462821
 20
408.2163016109899
 30
0.0
 10
277.8184174462821
 20
404.5863827350603
 30
0.0
 10
277.8184174462821
 20
401.0245554568708
 30
0.0
 10
277.8184174462821
 20
398.6837838012593
 30
0.0
 10
277.8184174462821
 20
397.5716541352348
 30
0.0
  0
LWPOLYLINE
  5
A8
330
1F
100
AcDbEntity
  8
0
  6
Continuous
 62
     7
370
    25
100
AcDbPolyline
 90
        9
 70
   128
 43
0.0
 10
272.3184174761
 20
397.6167059335
 10
272.7524324223
 20
397.416324431
 10
273.0657572761
 20
397.2092672082
 10
273.2550858423
 20
396.9977210107
 10
273.31841764
 20
396.7839172872
 10
273.2550858423
 20
396.5701154264
 10
273.0657572761
 20
396.3585692289
 10
272.7524324223
 20
396.1515120062
 10
272.3184174761
 20
395.9511305037
  0
LINE
  5
A9
330
1F
100
AcDbEntity
  8
0
  6
Continuous
 62
     7
370
    25
100
AcDbLine
 10
272.3184174761
 20
397.6167059335
 30
0.0
 11
272.3184174761
 21
394.2460539582
 31
0.0
  0
LWPOLYLINE
  5
AA
330
1F
100
AcDbEntity
  8
0
  6
Continuous
 62
     7
370
    25
100
AcDbPolyline
 90
       15
 70
   128
 43
0.0
 10
272.3184174761
 20
394.2460539582
 10
271.3769397601
 20
394.5496483537
 10
270.1600364312
 20
394.822127262
 10
268.7010288141
 20
395.056027064
 10
267.039868319
 20
395.2449458482
 10
265.2220405075
 20
395.3837073239
 10
263.2973224759
 20
395.4685154202
 10
261.3184175357
 20
395.4970436933
 10
259.3395125955
 20
395.4685154202
 10
257.4147945638
 20
395.3837073239
 10
255.5969667524
 20
395.2449458482
 10
253.9358062572
 20
395.056027064
 10
252.4767986402
 20
394.822127262
 10
251.2598953113
 20
394.5496483537
 10
250.3184175953
 20
394.2460539582
  0
LINE
  5
AB
330
1F
100
AcDbEntity
  8
0
  6
Continuous
 62
     7
370
    25
100
AcDbLine
 10
250.3184175953
 20
397.6167059335
 30
0.0
 11
250.3184175953
 21
394.2460539582
 31
0.0
  0
LWPOLYLINE
  5
AC
330
1F
100
AcDbEntity
  8
0
  6
Continuous
 62
     7
370
    25
100
AcDbPolyline
 90
        9
 70
   128
 43
0.0
 10
250.3184175953
 20
395.9511305037
 10
249.8844026491
 20
396.1515120062
 10
249.5710777953
 20
396.3585692289
 10
249.3817492291
 20
396.5701154264
 10
249.3184174314
 20
396.7839172872
 10
249.3817492291
 20
396.9977210107
 10
249.5710777953
 20
397.2092672082
 10
249.8844026491
 20
397.416324431
 10
250.3184175953
 20
397.6167059335
  0
LWPOLYLINE
  5
AD
330
1F
100
AcDbEntity
  8
0
  6
Continuous
 62
     7
370
    25
100
AcDbPolyline
 90
       19
 70
   128
 43
0.0
 10
272.3184174761
 20
392.8446872922
 10
272.1513028159
 20
393.1763778272
 10
271.6550364062
 20
393.4979895892
 10
270.8446972906
 20
393.7997511419
 10
269.7449068442
 20
394.0724945458
 10
268.3890813864
 20
394.30793103
 10
266.8184175059
 20
394.4989080372
 10
265.080639198
 20
394.639621565
 10
263.228547447
 20
394.7257968428
 10
261.3184175357
 20
394.7548168542
 10
259.4082876244
 20
394.7257968428
 10
257.5561958734
 20
394.639621565
 10
255.8184175655
 20
394.4989080372
 10
254.2477536849
 20
394.30793103
 10
252.8919282272
 20
394.0724945458
 10
251.7921377808
 20
393.7997511419
 10
250.9817986652
 20
393.4979895892
 10
250.4855322554
 20
393.1763778272
 10
250.3184175953
 20
392.8446872922
  0
SPLINE
  5
AE
330
1F
100
AcDbEntity
  8
0
  6
Continuous
 62
     7
370
    25
100
AcDbSpline
210
0.0
220
0.0
230
1.0
 70
    24
 71
     3
 72
     8
 73
     4
 74
     0
 42
0.000000001
 43
0.00000001
 40
0.0
 40
0.0
 40
0.0
 40
0.0
 40
1.0
 40
1.0
 40
1.0
 40
1.0
 10
250.3184175356891
 20
394.2460532695399
 30
0.0
 10
250.3184175356891
 20
393.6123440040151
 30
0.0
 10
250.3184175356891
 20
393.1257397328176
 30
0.0
 10
250.3184175356891
 20
392.8446868438171
 30
0.0
  0
SPLINE
  5
AF
330
1F
100
AcDbEntity
  8
0
  6
Continuous
 62
     7
370
    25
100
AcDbSpline
210
0.0
220
0.0
230
1.0
 70
    24
 71
     3
 72
     8
 73
     4
 74
     0
 42
0.000000001
 43
0.00000001
 40
0.0
 40
0.0
 40
0.0
 40
0.0
 40
1.0
 40
1.0
 40
1.0
 40
1.0
 10
272.3184175356891
 20
394.2460532695399
 30
0.0
 10
272.3184175356891
 20
393.6123440040151
 30
0.0
 10
272.3184175356891
 20
393.1257397328176
 30
0.0
 10
272.3184175356891
 20
392.8446868438171
 30
0.0
  0
LWPOLYLINE
  5
B0
330
1F
100
AcDbEntity
  8
0
  6
Continuous
 62
     7
370
    25
100
AcDbPolyline
 90
       19
 70
   128
 43
0.0
 10
250.3184175953
 20
392.8446872922
 10
250.4855322554
 20
392.5129967573
 10
250.9817986652
 20
392.1913831326
 10
251.7921377808
 20
391.8896215799
 10
252.8919282272
 20
391.616878176
 10
254.2477536849
 20
391.3814435544
 10
255.8184175655
 20
391.1904665473
 10
257.5561958734
 20
391.0497511568
 10
259.4082876244
 20
390.9635777416
 10
261.3184175357
 20
390.9345577302
 10
263.228547447
 20
390.9635777416
 10
265.080639198
 20
391.0497511568
 10
266.8184175059
 20
391.1904665473
 10
268.3890813864
 20
391.3814435544
 10
269.7449068442
 20
391.616878176
 10
270.8446972906
 20
391.8896215799
 10
271.6550364062
 20
392.1913831326
 10
272.1513028159
 20
392.5129967573
 10
272.3184174761
 20
392.8446872922
  0
SPLINE
  5
B1
330
1F
100
AcDbEntity
  8
0
  6
Continuous
 62
     7
370
    25
100
AcDbSpline
210
0.0
220
0.0
230
1.0
 70
     8
 71
     3
 72
     9
 73
     5
 74
     0
 42
0.000000001
 43
0.00000001
 40
0.0
 40
0.0
 40
0.0
 40
0.0
 40
0.6003461347028359
 40
0.9999999999999999
 40
0.9999999999999999
 40
0.9999999999999999
 40
0.9999999999999999
 10
277.7138094320562
 20
397.3510424437599
 30
0.0
 10
277.6981550186288
 20
397.2661410505531
 30
0.0
 10
277.6720793723932
 20
397.1247203129168
 30
0.0
 10
277.4439908497678
 20
396.9891976906603
 30
0.0
 10
277.3528343900707
 20
396.9350355508403
 30
0.0
  0
SPLINE
  5
B2
330
1F
100
AcDbEntity
  8
0
  6
Continuous
 62
     7
370
    25
100
AcDbSpline
210
0.0
220
0.0
230
1.0
 70
     8
 71
     3
 72
    10
 73
     6
 74
     0
 42
0.000000001
 43
0.00000001
 40
0.0
 40
0.0
 40
0.0
 40
0.0
 40
0.578774947447532
 40
0.805068949446232
 40
1.0
 40
1.0
 40
1.0
 40
1.0
 10
245.1982463612821
 20
397.0096382143573
 30
0.0
 10
245.0846800127612
 20
397.0961923748766
 30
0.0
 10
244.9267105959795
 20
397.2165881649618
 30
0.0
 10
244.8531022420967
 20
397.3693663708294
 30
0.0
 10
244.843840838232
 20
397.4338298283578
 30
0.0
 10
244.8395549222495
 20
397.4636616947727
 30
0.0
  0
LINE
  5
B3
330
1F
100
AcDbEntity
  8
0
  6
Continuous
 62
     7
370
    25
100
AcDbLine
 10
273.0684171334
 20
388.6845382693
 30
0.0
 11
249.568417938
 21
388.6845382693
 31
0.0
  0
SPLINE
  5
B4
330
1F
100
AcDbEntity
  8
0
  6
Continuous
 62
     7
370
    25
100
AcDbSpline
210
0.0
220
0.0
230
1.0
 70
    24
 71
     3
 72
     8
 73
     4
 74
     0
 42
0.000000001
 43
0.00000001
 40
0.0
 40
0.0
 40
0.0
 40
0.0
 40
1.0
 40
1.0
 40
1.0
 40
1.0
 10
270.3184175356891
 20
378.684538591154
 30
0.0
 10
270.3184175356891
 20
378.9149180369058
 30
0.0
 10
270.3184175356891
 20
379.1864973907527
 30
0.0
 10
270.3184175356891
 20
379.484538591154
 30
0.0
  0
LINE
  5
B5
330
1F
100
AcDbEntity
  8
0
  6
Continuous
 62
     7
370
    25
100
AcDbLine
 10
270.3184171483
 20
378.6845403555
 30
0.0
 11
252.3184179231
 21
378.6845403555
 31
0.0
  0
SPLINE
  5
B6
330
1F
100
AcDbEntity
  8
0
  6
Continuous
 62
     7
370
    25
100
AcDbSpline
210
0.0
220
0.0
230
1.0
 70
    24
 71
     3
 72
     8
 73
     4
 74
     0
 42
0.000000001
 43
0.00000001
 40
0.0
 40
0.0
 40
0.0
 40
0.0
 40
1.0
 40
1.0
 40
1.0
 40
1.0
 10
252.3184175356891
 20
379.484538591154
 30
0.0
 10
252.3184175356891
 20
379.1849784084247
 30
0.0
 10
252.3184175356891
 20
378.9135748104747
 30
0.0
 10
252.3184175356891
 20
378.684538591154
 30
0.0
  0
LINE
  5
B7
330
1F
100
AcDbEntity
  8
0
  6
Continuous
 62
     7
370
    25
100
AcDbLine
 10
270.3184171483
 20
379.4845389965
 30
0.0
 11
252.3184179231
 21
379.4845389965
 31
0.0
  0
LINE
  5
B8
330
1F
100
AcDbEntity
  8
0
  6
Continuous
 62
     7
370
    25
100
AcDbLine
 10
271.0159172207
 20
386.6845379415
 30
0.0
 11
251.6209178507
 21
386.6845379415
 31
0.0
  0
LINE
  5
B9
330
1F
100
AcDbEntity
  8
0
  6
Continuous
 62
     7
370
    25
100
AcDbLine
 10
271.8159177243
 20
385.8845393004
 30
0.0
 11
250.820917347
 21
385.8845393004
 31
0.0
  0
LINE
  5
BA
330
1F
100
AcDbEntity
  8
0
  6
Continuous
 62
     7
370
    25
100
AcDbLine
 10
270.3184171483
 20
383.6845393124
 30
0.0
 11
271.8159177243
 21
383.6845393124
 31
0.0
  0
LINE
  5
BB
330
1F
100
AcDbEntity
  8
0
  6
Continuous
 62
     7
370
    25
100
AcDbLine
 10
270.3184171483
 20
379.4845389965
 30
0.0
 11
270.3184171483
 21
383.6845393124
 31
0.0
  0
LINE
  5
BC
330
1F
100
AcDbEntity
  8
0
  6
Continuous
 62
     7
370
    25
100
AcDbLine
 10
252.3184179231
 20
383.6845393124
 30
0.0
 11
252.3184179231
 21
379.4845389965
 31
0.0
  0
LINE
  5
BD
330
1F
100
AcDbEntity
  8
0
  6
Continuous
 62
     7
370
    25
100
AcDbLine
 10
250.820917347
 20
383.6845393124
 30
0.0
 11
252.3184179231
 21
383.6845393124
 31
0.0
  0
LINE
  5
BE
330
1F
100
AcDbEntity
  8
0
  6
Continuous
 62
     7
370
    25
100
AcDbLine
 10
190.8184162244
 20
457.2345400992
 30
0.0
 11
190.8184162244
 21
434.5345386135
 31
0.0
  0
LINE
  5
BF
330
1F
100
AcDbEntity
  8
0
  6
Continuous
 62
     7
370
    25
100
AcDbLine
 10
340.8184147343
 20
457.2345400992
 30
0.0
 11
340.8184147343
 21
434.5345386135
 31
0.0
  0
LINE
  5
C0
330
1F
100
AcDbEntity
  8
0
  6
Continuous
 62
     7
370
    25
100
AcDbLine
 10
190.8184162244
 20
411.5345385688
 30
0.0
 11
190.8184162244
 21
388.8345370832
 31
0.0
  0
LINE
  5
C1
330
1F
100
AcDbEntity
  8
0
  6
Continuous
 62
     7
370
    25
100
AcDbLine
 10
370.5184182986
 20
418.5345387849
 30
0.0
 11
347.818414019
 21
418.5345387849
 31
0.0
  0
LINE
  5
C2
330
1F
100
AcDbEntity
  8
0
  6
Continuous
 62
     7
370
    25
100
AcDbLine
 10
190.0184175834
 20
388.0345384421
 30
0.0
 11
182.6184189781
 21
388.0345384421
 31
0.0
  0
ARC
  5
C3
330
1F
100
AcDbEntity
  8
0
  6
Continuous
 62
     7
370
    25
100
AcDbCircle
 10
340.0184175357
 20
457.2345385912
 30
0.0
 40
0.8000000000000114
100
AcDbArc
 50
0.0
 51
90.0
  0
LINE
  5
C4
330
1F
100
AcDbEntity
  8
0
  6
Continuous
 62
     7
370
    25
100
AcDbLine
 10
220.5184160635
 20
418.5345387849
 30
0.0
 11
197.8184155091
 21
418.5345387849
 31
0.0
  0
ARC
  5
C5
330
1F
100
AcDbEntity
  8
0
  6
Continuous
 62
     7
370
    25
100
AcDbCircle
 10
152.1184175357
 20
419.3345385912
 30
0.0
 40
0.8000000000000114
100
AcDbArc
 50
180.0
 51
270.0
  0
LINE
  5
C6
330
1F
100
AcDbEntity
  8
0
  6
Continuous
 62
     7
370
    25
100
AcDbLine
 10
302.1184190079
 20
427.5345383974
 30
0.0
 11
324.8184195622
 21
427.5345383974
 31
0.0
  0
LINE
  5
C7
330
1F
100
AcDbEntity
  8
0
  6
Continuous
 62
     7
370
    25
100
AcDbLine
 10
301.3184166416
 20
419.33453859
 30
0.0
 11
301.3184166416
 21
426.7345385923
 31
0.0
  0
ARC
  5
C8
330
1F
100
AcDbEntity
  8
0
  6
Continuous
 62
     7
370
    25
100
AcDbCircle
 10
197.8184175357
 20
434.5345385912
 30
0.0
 40
7.0
100
AcDbArc
 50
180.0
 51
270.0
  0
LINE
  5
C9
330
1F
100
AcDbEntity
  8
0
  6
Continuous
 62
     7
370
    25
100
AcDbLine
 10
332.618417488
 20
458.0345387402
 30
0.0
 11
340.0184160933
 21
458.0345387402
 31
0.0
  0
ARC
  5
CA
330
1F
100
AcDbEntity
  8
0
  6
Continuous
 62
     7
370
    25
100
AcDbCircle
 10
220.5184175357
 20
419.3345385912
 30
0.0
 40
0.8000000000000114
100
AcDbArc
 50
270.0
 51
0.0
  0
LINE
  5
CB
330
1F
100
AcDbEntity
  8
0
  6
Continuous
 62
     7
370
    25
100
AcDbLine
 10
221.3184184298
 20
426.7345385923
 30
0.0
 11
221.3184184298
 21
419.33453859
 31
0.0
  0
ARC
  5
CC
330
1F
100
AcDbEntity
  8
0
  6
Continuous
 62
     7
370
    25
100
AcDbCircle
 10
332.6184175357
 20
388.8345385912
 30
0.0
 40
0.8000000000000114
100
AcDbArc
 50
180.0
 51
270.0
  0
LINE
  5
CD
330
1F
100
AcDbEntity
  8
0
  6
Continuous
 62
     7
370
    25
100
AcDbLine
 10
181.8184203371
 20
388.8345370832
 30
0.0
 11
181.8184203371
 21
411.5345385688
 31
0.0
  0
ARC
  5
CE
330
1F
100
AcDbEntity
  8
0
  6
Continuous
 62
     7
370
    25
100
AcDbCircle
 10
347.8184175357
 20
434.5345385912
 30
0.0
 40
7.0
100
AcDbArc
 50
180.0
 51
270.0
  0
ARC
  5
CF
330
1F
100
AcDbEntity
  8
0
  6
Continuous
 62
     7
370
    25
100
AcDbCircle
 10
190.0184175357
 20
457.2345385912
 30
0.0
 40
0.8000000000000114
100
AcDbArc
 50
0.0
 51
90.0
  0
LINE
  5
D0
330
1F
100
AcDbEntity
  8
0
  6
Continuous
 62
     7
370
    25
100
AcDbLine
 10
331.818418847
 20
388.8345370832
 30
0.0
 11
331.818418847
 21
411.5345385688
 31
0.0
  0
ARC
  5
D1
330
1F
100
AcDbEntity
  8
0
  6
Continuous
 62
     7
370
    25
100
AcDbCircle
 10
332.6184175357
 20
457.2345385912
 30
0.0
 40
0.8000000000000114
100
AcDbArc
 50
90.0
 51
180.0
  0
LINE
  5
D2
330
1F
100
AcDbEntity
  8
0
  6
Continuous
 62
     7
370
    25
100
AcDbLine
 10
181.8184203371
 20
434.5345386135
 30
0.0
 11
181.8184203371
 21
457.2345400992
 31
0.0
  0
ARC
  5
D3
330
1F
100
AcDbEntity
  8
0
  6
Continuous
 62
     7
370
    25
100
AcDbCircle
 10
340.0184175357
 20
388.8345385912
 30
0.0
 40
0.8000000000000114
100
AcDbArc
 50
270.0
 51
0.0
  0
LINE
  5
D4
330
1F
100
AcDbEntity
  8
0
  6
Continuous
 62
     7
370
    25
100
AcDbLine
 10
347.818414019
 20
427.5345383974
 30
0.0
 11
370.5184182986
 21
427.5345383974
 31
0.0
  0
LINE
  5
D5
330
1F
100
AcDbEntity
  8
0
  6
Continuous
 62
     7
370
    25
100
AcDbLine
 10
182.6184189781
 20
458.0345387402
 30
0.0
 11
190.0184175834
 21
458.0345387402
 31
0.0
  0
ARC
  5
D6
330
1F
100
AcDbEntity
  8
0
  6
Continuous
 62
     7
370
    25
100
AcDbCircle
 10
174.8184175357
 20
411.5345385912
 30
0.0
 40
7.0
100
AcDbArc
 50
0.0
 51
90.0
  0
ARC
  5
D7
330
1F
100
AcDbEntity
  8
0
  6
Continuous
 62
     7
370
    25
100
AcDbCircle
 10
190.0184175357
 20
388.8345385912
 30
0.0
 40
0.799999999999983
100
AcDbArc
 50
270.0
 51
0.0
  0
LINE
  5
D8
330
1F
100
AcDbEntity
  8
0
  6
Continuous
 62
     7
370
    25
100
AcDbLine
 10
340.0184160933
 20
388.0345384421
 30
0.0
 11
332.618417488
 21
388.0345384421
 31
0.0
  0
ARC
  5
D9
330
1F
100
AcDbEntity
  8
0
  6
Continuous
 62
     7
370
    25
100
AcDbCircle
 10
324.8184175357
 20
411.5345385912
 30
0.0
 40
7.0
100
AcDbArc
 50
0.0
 51
90.0
  0
ARC
  5
DA
330
1F
100
AcDbEntity
  8
0
  6
Continuous
 62
     7
370
    25
100
AcDbCircle
 10
347.8184175357
 20
411.5345385912
 30
0.0
 40
7.0
100
AcDbArc
 50
90.0
 51
180.0
  0
ARC
  5
DB
330
1F
100
AcDbEntity
  8
0
  6
Continuous
 62
     7
370
    25
100
AcDbCircle
 10
302.1184175357
 20
419.3345385912
 30
0.0
 40
0.8000000000000682
100
AcDbArc
 50
180.0
 51
270.0
  0
LINE
  5
DC
330
1F
100
AcDbEntity
  8
0
  6
Continuous
 62
     7
370
    25
100
AcDbLine
 10
197.8184155091
 20
427.5345383974
 30
0.0
 11
220.5184160635
 21
427.5345383974
 31
0.0
  0
LINE
  5
DD
330
1F
100
AcDbEntity
  8
0
  6
Continuous
 62
     7
370
    25
100
AcDbLine
 10
340.8184147343
 20
411.5345385688
 30
0.0
 11
340.8184147343
 21
388.8345370832
 31
0.0
  0
ARC
  5
DE
330
1F
100
AcDbEntity
  8
0
  6
Continuous
 62
     7
370
    25
100
AcDbCircle
 10
324.8184175357
 20
434.5345385912
 30
0.0
 40
7.0
100
AcDbArc
 50
270.0
 51
0.0
  0
LINE
  5
DF
330
1F
100
AcDbEntity
  8
0
  6
Continuous
 62
     7
370
    25
100
AcDbLine
 10
152.1184167727
 20
427.5345383974
 30
0.0
 11
174.8184210524
 21
427.5345383974
 31
0.0
  0
ARC
  5
E0
330
1F
100
AcDbEntity
  8
0
  6
Continuous
 62
     7
370
    25
100
AcDbCircle
 10
302.1184175357
 20
426.7345385912
 30
0.0
 40
0.8000000000000682
100
AcDbArc
 50
90.0
 51
180.0
  0
ARC
  5
E1
330
1F
100
AcDbEntity
  8
0
  6
Continuous
 62
     7
370
    25
100
AcDbCircle
 10
174.8184175357
 20
434.5345385912
 30
0.0
 40
7.0
100
AcDbArc
 50
270.0
 51
0.0
  0
ARC
  5
E2
330
1F
100
AcDbEntity
  8
0
  6
Continuous
 62
     7
370
    25
100
AcDbCircle
 10
152.1184175357
 20
426.7345385912
 30
0.0
 40
0.7999999999999545
100
AcDbArc
 50
90.0
 51
180.0
  0
ARC
  5
E3
330
1F
100
AcDbEntity
  8
0
  6
Continuous
 62
     7
370
    25
100
AcDbCircle
 10
197.8184175357
 20
411.5345385912
 30
0.0
 40
7.0
100
AcDbArc
 50
90.0
 51
180.0
  0
ARC
  5
E4
330
1F
100
AcDbEntity
  8
0
  6
Continuous
 62
     7
370
    25
100
AcDbCircle
 10
370.5184175357
 20
419.3345385912
 30
0.0
 40
0.8000000000000114
100
AcDbArc
 50
270.0
 51
0.0
  0
LINE
  5
E5
330
1F
100
AcDbEntity
  8
0
  6
Continuous
 62
     7
370
    25
100
AcDbLine
 10
151.3184181317
 20
419.33453859
 30
0.0
 11
151.3184181317
 21
426.7345385923
 31
0.0
  0
ARC
  5
E6
330
1F
100
AcDbEntity
  8
0
  6
Continuous
 62
     7
370
    25
100
AcDbCircle
 10
220.5184175357
 20
426.7345385912
 30
0.0
 40
0.799999999999983
100
AcDbArc
 50
0.0
 51
90.0
  0
LINE
  5
E7
330
1F
100
AcDbEntity
  8
0
  6
Continuous
 62
     7
370
    25
100
AcDbLine
 10
324.8184195622
 20
418.5345387849
 30
0.0
 11
302.1184190079
 21
418.5345387849
 31
0.0
  0
LINE
  5
E8
330
1F
100
AcDbEntity
  8
0
  6
Continuous
 62
     7
370
    25
100
AcDbLine
 10
371.3184169396
 20
426.7345385923
 30
0.0
 11
371.3184169396
 21
419.33453859
 31
0.0
  0
LINE
  5
E9
330
1F
100
AcDbEntity
  8
0
  6
Continuous
 62
     7
370
    25
100
AcDbLine
 10
174.8184210524
 20
418.5345387849
 30
0.0
 11
152.1184167727
 21
418.5345387849
 31
0.0
  0
ARC
  5
EA
330
1F
100
AcDbEntity
  8
0
  6
Continuous
 62
     7
370
    25
100
AcDbCircle
 10
182.6184175357
 20
457.2345385912
 30
0.0
 40
0.8000000000000114
100
AcDbArc
 50
90.0
 51
180.0
  0
ARC
  5
EB
330
1F
100
AcDbEntity
  8
0
  6
Continuous
 62
     7
370
    25
100
AcDbCircle
 10
182.6184175357
 20
388.8345385912
 30
0.0
 40
0.8000000000000114
100
AcDbArc
 50
180.0
 51
270.0
  0
LINE
  5
EC
330
1F
100
AcDbEntity
  8
0
  6
Continuous
 62
     7
370
    25
100
AcDbLine
 10
331.818418847
 20
434.5345386135
 30
0.0
 11
331.818418847
 21
457.2345400992
 31
0.0
  0
ARC
  5
ED
330
1F
100
AcDbEntity
  8
0
  6
Continuous
 62
     7
370
    25
100
AcDbCircle
 10
370.5184175357
 20
426.7345385912
 30
0.0
 40
0.7999999999999545
100
AcDbArc
 50
0.0
 51
90.0
  0
ARC
  5
EE
330
1F
100
AcDbEntity
  8
0
  6
Continuous
 62
     7
370
    25
100
AcDbCircle
 10
186.3184175357
 20
423.0345385912
 30
0.0
 40
16.49999999999999
100
AcDbArc
 50
105.8266201319
 51
164.1733798681
  0
ARC
  5
EF
330
1F
100
AcDbEntity
  8
0
  6
Continuous
 62
     7
370
    25
100
AcDbCircle
 10
186.3184175357
 20
423.0345385912
 30
0.0
 40
16.49999999999999
100
AcDbArc
 50
15.8266201319
 51
74.1733798681
  0
ARC
  5
F0
330
1F
100
AcDbEntity
  8
0
  6
Continuous
 62
     7
370
    25
100
AcDbCircle
 10
186.3184175357
 20
423.0345385912
 30
0.0
 40
16.50000000000002
100
AcDbArc
 50
285.8266201319
 51
344.1733798681
  0
ARC
  5
F1
330
1F
100
AcDbEntity
  8
0
  6
Continuous
 62
     7
370
    25
100
AcDbCircle
 10
186.3184175357
 20
423.0345385912
 30
0.0
 40
16.5
100
AcDbArc
 50
195.8266201319
 51
254.1733798681
  0
ARC
  5
F2
330
1F
100
AcDbEntity
  8
0
  6
Continuous
 62
     7
370
    25
100
AcDbCircle
 10
336.3184175357
 20
423.0345385912
 30
0.0
 40
16.49999999999999
100
AcDbArc
 50
105.8266201319
 51
164.1733798681
  0
ARC
  5
F3
330
1F
100
AcDbEntity
  8
0
  6
Continuous
 62
     7
370
    25
100
AcDbCircle
 10
336.3184175357
 20
423.0345385912
 30
0.0
 40
16.49999999999999
100
AcDbArc
 50
15.8266201319
 51
74.1733798681
  0
ARC
  5
F4
330
1F
100
AcDbEntity
  8
0
  6
Continuous
 62
     7
370
    25
100
AcDbCircle
 10
336.3184175357
 20
423.0345385912
 30
0.0
 40
16.5
100
AcDbArc
 50
285.8266201319
 51
344.1733798681
  0
ARC
  5
F5
330
1F
100
AcDbEntity
  8
0
  6
Continuous
 62
     7
370
    25
100
AcDbCircle
 10
336.3184175357
 20
423.0345385912
 30
0.0
 40
16.50000000000002
100
AcDbArc
 50
195.8266201319
 51
254.1733798681
  0
ARC
  5
F6
330
1F
100
AcDbEntity
  8
0
  6
Continuous
 62
     7
370
    25
100
AcDbCircle
 10
336.3184175357
 20
423.0345385912
 30
0.0
 40
25.6
100
AcDbArc
 50
100.1241252261
 51
139.8694607016
  0
ARC
  5
F7
330
1F
100
AcDbEntity
  8
0
  6
Continuous
 62
     7
370
    25
100
AcDbCircle
 10
336.3184175357
 20
423.0345385912
 30
0.0
 40
25.59999999999998
100
AcDbArc
 50
10.1241252261
 51
79.8758747739
  0
ARC
  5
F8
330
1F
100
AcDbEntity
  8
0
  6
Continuous
 62
     7
370
    25
100
AcDbCircle
 10
336.3184175357
 20
423.0345385912
 30
0.0
 40
25.60000000000004
100
AcDbArc
 50
280.1241252261
 51
349.8758747739
  0
ARC
  5
F9
330
1F
100
AcDbEntity
  8
0
  6
Continuous
 62
     7
370
    25
100
AcDbCircle
 10
336.3184175357
 20
423.0345385912
 30
0.0
 40
25.60000000000004
100
AcDbArc
 50
220.1305392984
 51
259.8758747739
  0
ARC
  5
FA
330
1F
100
AcDbEntity
  8
0
  6
Continuous
 62
     7
370
    25
100
AcDbCircle
 10
186.3184175357
 20
423.0345385912
 30
0.0
 40
25.59999999999998
100
AcDbArc
 50
100.1241252261
 51
169.8758747739
  0
ARC
  5
FB
330
1F
100
AcDbEntity
  8
0
  6
Continuous
 62
     7
370
    25
100
AcDbCircle
 10
186.3184175357
 20
423.0345385912
 30
0.0
 40
25.6
100
AcDbArc
 50
40.1305392984
 51
79.8758747739
  0
ARC
  5
FC
330
1F
100
AcDbEntity
  8
0
  6
Continuous
 62
     7
370
    25
100
AcDbCircle
 10
186.3184175357
 20
423.0345385912
 30
0.0
 40
25.60000000000004
100
AcDbArc
 50
280.1241252261
 51
319.8694607016
  0
ARC
  5
FD
330
1F
100
AcDbEntity
  8
0
  6
Continuous
 62
     7
370
    25
100
AcDbCircle
 10
186.3184175357
 20
423.0345385912
 30
0.0
 40
25.60000000000004
100
AcDbArc
 50
190.1241252261
 51
259.8758747739
  0
ARC
  5
FE
330
1F
100
AcDbEntity
  8
0
  6
Continuous
 62
     7
370
    25
100
AcDbCircle
 10
336.3184175357
 20
423.0345385912
 30
0.0
 40
35.00000000000003
100
AcDbArc
 50
97.0475999451
 51
151.8729317814
  0
ARC
  5
FF
330
1F
100
AcDbEntity
  8
0
  6
Continuous
 62
     7
370
    25
100
AcDbCircle
 10
336.3184175357
 20
423.0345385912
 30
0.0
 40
34.99999999999996
100
AcDbArc
 50
7.0475999452
 51
82.9524000549
  0
ARC
  5
100
330
1F
100
AcDbEntity
  8
0
  6
Continuous
 62
     7
370
    25
100
AcDbCircle
 10
336.3184175357
 20
423.0345385912
 30
0.0
 40
35.0
100
AcDbArc
 50
277.0475999451
 51
352.9524000548
  0
ARC
  5
101
330
1F
100
AcDbEntity
  8
0
  6
Continuous
 62
     7
370
    25
100
AcDbCircle
 10
336.3184175357
 20
423.0345385912
 30
0.0
 40
35.00000000000008
100
AcDbArc
 50
208.1270682186
 51
262.9524000549
  0
ARC
  5
102
330
1F
100
AcDbEntity
  8
0
  6
Continuous
 62
     7
370
    25
100
AcDbCircle
 10
186.3184175357
 20
423.0345385912
 30
0.0
 40
34.99999999999997
100
AcDbArc
 50
97.0475999451
 51
172.9524000548
  0
ARC
  5
103
330
1F
100
AcDbEntity
  8
0
  6
Continuous
 62
     7
370
    25
100
AcDbCircle
 10
186.3184175357
 20
423.0345385912
 30
0.0
 40
35.0
100
AcDbArc
 50
28.1270682186
 51
82.9524000549
  0
ARC
  5
104
330
1F
100
AcDbEntity
  8
0
  6
Continuous
 62
     7
370
    25
100
AcDbCircle
 10
186.3184175357
 20
423.0345385912
 30
0.0
 40
35.00000000000007
100
AcDbArc
 50
277.0475999451
 51
331.8729317814
  0
ARC
  5
105
330
1F
100
AcDbEntity
  8
0
  6
Continuous
 62
     7
370
    25
100
AcDbCircle
 10
186.3184175357
 20
423.0345385912
 30
0.0
 40
35.0
100
AcDbArc
 50
187.0475999452
 51
262.9524000549
  0
ARC
  5
106
330
1F
100
AcDbEntity
  8
0
  6
Continuous
 62
     8
370
    18
100
AcDbCircle
 10
245.1444120114
 20
420.2480791038
 30
0.0
 40
0.3468012565018959
100
AcDbArc
 50
204.8292726856
 51
218.9211887565
  0
SPLINE
  5
107
330
1F
100
AcDbEntity
  8
0
  6
Continuous
 62
     8
370
    18
100
AcDbSpline
210
0.0
220
0.0
230
1.0
 70
     8
 71
     3
 72
     8
 73
     4
 74
     0
 42
0.000000001
 43
0.00000001
 40
0.0
 40
0.0
 40
0.0
 40
0.0
 40
1.0
 40
1.0
 40
1.0
 40
1.0
 10
244.8296679790256
 20
420.1024517023677
 30
0.0
 10
244.9110471466248
 20
420.1386611539148
 30
0.0
 10
245.0101374724815
 20
420.1823317360596
 30
0.0
 10
245.1101857918709
 20
420.2258529122007
 30
0.0
  0
ARC
  5
108
330
1F
100
AcDbEntity
  8
0
  6
Continuous
 62
     8
370
    18
100
AcDbCircle
 10
244.837418788
 20
420.0567389953
 30
0.0
 40
0.2000000000000271
100
AcDbArc
 50
212.2838875853
 51
233.229196003
  0
SPLINE
  5
109
330
1F
100
AcDbEntity
  8
0
  6
Continuous
 62
     8
370
    18
100
AcDbSpline
210
0.0
220
0.0
230
1.0
 70
     8
 71
     3
 72
    57
 73
    53
 74
     0
 42
0.000000001
 43
0.00000001
 40
0.0
 40
0.0
 40
0.0
 40
0.0
 40
0.0078124999999989
 40
0.0078124999999989
 40
0.0156249999999978
 40
0.0312499999999972
 40
0.0312499999999972
 40
0.0624999999999974
 40
0.0624999999999974
 40
0.0937499999999977
 40
0.0937499999999977
 40
0.124999999999998
 40
0.124999999999998
 40
0.1874999999999985
 40
0.1874999999999985
 40
0.2187499999999989
 40
0.2187499999999989
 40
0.2499999999999992
 40
0.2499999999999992
 40
0.3124999999999998
 40
0.3124999999999998
 40
0.3437500000000001
 40
0.3437500000000001
 40
0.3750000000000003
 40
0.3750000000000003
 40
0.4062500000000007
 40
0.4062500000000007
 40
0.4375000000000009
 40
0.4375000000000009
 40
0.5000000000000019
 40
0.5000000000000019
 40
0.5312500000000023
 40
0.5312500000000023
 40
0.5625000000000028
 40
0.5625000000000028
 40
0.6250000000000036
 40
0.6250000000000036
 40
0.6562500000000036
 40
0.6562500000000036
 40
0.6875000000000036
 40
0.6875000000000036
 40
0.7500000000000036
 40
0.7500000000000036
 40
0.8125000000000037
 40
0.8125000000000037
 40
0.843750000000003
 40
0.843750000000003
 40
0.8750000000000023
 40
0.8750000000000023
 40
0.9375000000000012
 40
0.9375000000000012
 40
1.0
 40
1.0
 40
1.0
 40
1.0
 10
244.8184175356895
 20
397.5716540736319
 30
0.0
 10
244.8184175356895
 20
397.5949787476563
 30
0.0
 10
244.8200719643378
 20
397.6189185321967
 30
0.0
 10
244.8266687781043
 20
397.6660378311138
 30
0.0
 10
244.8414969411153
 20
397.7365717493834
 30
0.0
 10
244.8710408270147
 20
397.8066730217276
 30
0.0
 10
244.9496200349854
 20
397.94630251258
 30
0.0
 10
245.0279597318493
 20
398.0386257978217
 30
0.0
 10
245.2366700765166
 20
398.2217426426035
 30
0.0
 10
245.3670342090356
 20
398.3125363936945
 30
0.0
 10
245.6811068549133
 20
398.492555553936
 30
0.0
 10
245.865678507376
 20
398.582010133025
 30
0.0
 10
246.4878524732877
 20
398.8421458055161
 30
0.0
 10
246.9959293488214
 20
399.006595633146
 30
0.0
 10
247.8955491282267
 20
399.2400438417008
 30
0.0
 10
248.2197965985617
 20
399.3159094849344
 30
0.0
 10
248.9102534923603
 20
399.4618160774608
 30
0.0
 10
249.2734507042945
 20
399.5312795360643
 30
0.0
 10
250.4152488877332
 20
399.7295305174118
 30
0.0
 10
251.2455263288112
 20
399.8482815958869
 30
0.0
 10
252.5976282524838
 20
400.0056880292337
 30
0.0
 10
253.0657515163259
 20
400.0545416595837
 30
0.0
 10
254.0173822843702
 20
400.1431020726096
 30
0.0
 10
254.5033571216787
 20
400.1831101646607
 30
0.0
 10
255.4954081793093
 20
400.2546735889447
 30
0.0
 10
256.0014854336853
 20
400.2862284863497
 30
0.0
 10
257.0340694490208
 20
400.3407475424502
 30
0.0
 10
257.5634378405792
 20
400.3638004452585
 30
0.0
 10
259.1611815520653
 20
400.4188188063076
 30
0.0
 10
260.2321025005676
 20
400.4367417620945
 30
0.0
 10
261.8466872316778
 20
400.436907164098
 30
0.0
 10
262.3862560480609
 20
400.432487342851
 30
0.0
 10
263.4682724915851
 20
400.4142711130659
 30
0.0
 10
264.0069175262205
 20
400.4004949174094
 30
0.0
 10
265.5936191425038
 20
400.345945752506
 30
0.0
 10
266.6217761609935
 20
400.2919248374728
 30
0.0
 10
268.1192734118697
 20
400.1842491572002
 30
0.0
 10
268.613559055919
 20
400.1436213432661
 30
0.0
 10
269.5690680549746
 20
400.0547581939221
 30
0.0
 10
270.0311448130382
 20
400.0065277952017
 30
0.0
 10
271.3716688168057
 20
399.8507616583253
 30
0.0
 10
272.2048829358486
 20
399.7322656254135
 30
0.0
 10
273.7462392742136
 20
399.4649677932053
 30
0.0
 10
274.4307552697628
 20
399.3201995996439
 30
0.0
 10
275.3289967231721
 20
399.0877417500383
 30
0.0
 10
275.6070605383026
 20
399.0076429308842
 30
0.0
 10
276.1193696389649
 20
398.8420826668877
 30
0.0
 10
276.3542491056128
 20
398.756248829093
 30
0.0
 10
276.977159943078
 20
398.4960245307064
 30
0.0
 10
277.2894885531613
 20
398.3175090860098
 30
0.0
 10
277.7107706170266
 20
397.9505360141769
 30
0.0
 10
277.8184175356886
 20
397.760920077665
 30
0.0
 10
277.8184175356886
 20
397.5716540738707
 30
0.0
  0
SPLINE
  5
10A
330
1F
100
AcDbEntity
  8
0
  6
Continuous
 62
     8
370
    18
100
AcDbSpline
210
0.0
220
0.0
230
1.0
 70
     8
 71
     3
 72
    52
 73
    48
 74
     0
 42
0.000000001
 43
0.00000001
 40
0.0
 40
0.0
 40
0.0
 40
0.0
 40
0.0625000000000012
 40
0.0625000000000012
 40
0.1250000000000023
 40
0.1250000000000023
 40
0.1562500000000029
 40
0.1562500000000029
 40
0.1875000000000034
 40
0.1875000000000034
 40
0.2500000000000032
 40
0.2500000000000032
 40
0.3125000000000029
 40
0.3125000000000029
 40
0.3437500000000032
 40
0.3437500000000032
 40
0.3750000000000035
 40
0.3750000000000035
 40
0.4375000000000041
 40
0.4375000000000041
 40
0.4687500000000043
 40
0.4687500000000043
 40
0.5000000000000043
 40
0.5000000000000043
 40
0.5625000000000047
 40
0.5625000000000047
 40
0.5937500000000048
 40
0.5937500000000048
 40
0.6250000000000048
 40
0.6250000000000048
 40
0.6562500000000048
 40
0.6562500000000048
 40
0.6875000000000048
 40
0.6875000000000048
 40
0.7500000000000046
 40
0.7500000000000046
 40
0.781250000000004
 40
0.781250000000004
 40
0.8125000000000033
 40
0.8125000000000033
 40
0.8750000000000032
 40
0.8750000000000032
 40
0.9062500000000024
 40
0.9062500000000024
 40
0.9375000000000018
 40
0.9375000000000018
 40
1.0
 40
1.0
 40
1.0
 40
1.0
 10
277.5184175356886
 20
397.2762117479662
 30
0.0
 10
277.5184175356886
 20
397.4620381520922
 30
0.0
 10
277.412893891304
 20
397.6480311745875
 30
0.0
 10
276.9994166850794
 20
398.0083465725338
 30
0.0
 10
276.6928196962284
 20
398.1836226384941
 30
0.0
 10
276.0812883795273
 20
398.4391239349453
 30
0.0
 10
275.8506923403792
 20
398.5234003132821
 30
0.0
 10
275.3477165398334
 20
398.68595714696
 30
0.0
 10
275.0747158751514
 20
398.7646027405406
 30
0.0
 10
274.1928292243402
 20
398.9928434305446
 30
0.0
 10
273.5207881106886
 20
399.1349837302225
 30
0.0
 10
272.0074897295818
 20
399.3974412853559
 30
0.0
 10
271.1894464720605
 20
399.5137940733327
 30
0.0
 10
269.8733297070071
 20
399.6667456845817
 30
0.0
 10
269.4196658733302
 20
399.7141051216817
 30
0.0
 10
268.4815510461766
 20
399.8013641631761
 30
0.0
 10
267.996252978471
 20
399.8412596996068
 30
0.0
 10
266.5259769444961
 20
399.9469945115281
 30
0.0
 10
265.5165040603086
 20
400.0000410467142
 30
0.0
 10
263.9586296775973
 20
400.0536055915056
 30
0.0
 10
263.4297713357114
 20
400.0671329947282
 30
0.0
 10
262.3674049417999
 20
400.0850215273505
 30
0.0
 10
261.8376347491521
 20
400.0893627035867
 30
0.0
 10
260.2523690575004
 20
400.0892093609733
 30
0.0
 10
259.2008923293038
 20
400.0716230462158
 30
0.0
 10
257.6321579787715
 20
400.0176161860975
 30
0.0
 10
257.1123923055929
 20
399.9949850706276
 30
0.0
 10
256.0985478403875
 20
399.9414607963069
 30
0.0
 10
255.6016569295519
 20
399.9104804942347
 30
0.0
 10
254.6276165865044
 20
399.8402186099221
 30
0.0
 10
254.1504661200801
 20
399.8009374625677
 30
0.0
 10
253.2161165420183
 20
399.7139856348876
 30
0.0
 10
252.7564949506081
 20
399.666019128661
 30
0.0
 10
251.4289481435372
 20
399.5114714464089
 30
0.0
 10
250.6137465191279
 20
399.3948776506569
 30
0.0
 10
249.4926671095404
 20
399.2002307382746
 30
0.0
 10
249.1360580718187
 20
399.1320304322833
 30
0.0
 10
248.4581210750725
 20
398.9887776774873
 30
0.0
 10
248.1397454494161
 20
398.9142910090444
 30
0.0
 10
247.2564168627636
 20
398.6850871136937
 30
0.0
 10
246.7575334836675
 20
398.5236270503923
 30
0.0
 10
246.146626498368
 20
398.2682184950221
 30
0.0
 10
245.9653987144628
 20
398.1803888634611
 30
0.0
 10
245.6570231944679
 20
398.0036391042426
 30
0.0
 10
245.5290283299918
 20
397.9144942151389
 30
0.0
 10
245.2216645941791
 20
397.6448070749082
 30
0.0
 10
245.1184175356895
 20
397.4620270216036
 30
0.0
 10
245.1184175356895
 20
397.2762117477273
 30
0.0
  0
ARC
  5
10B
330
1F
100
AcDbEntity
  8
0
  6
Continuous
 62
     8
370
    18
100
AcDbCircle
 10
245.1161545976
 20
397.5739497635
 30
0.0
 40
0.297745822305104
100
AcDbArc
 50
180.4417563674
 51
270.4353846929
  0
LINE
  5
10C
330
1F
100
AcDbEntity
  8
0
  6
Continuous
 62
     8
370
    18
100
AcDbLine
 10
245.1184171155
 20
397.2762125375
 30
0.0
 11
245.1973802313
 21
397.0125290396
 31
0.0
  0
LINE
  5
10D
330
1F
100
AcDbEntity
  8
0
  6
Continuous
 62
     8
370
    18
100
AcDbLine
 10
277.3485875591
 20
396.9262867066
 30
0.0
 11
277.5184179559
 21
397.2762125375
 31
0.0
  0
LINE
  5
10E
330
1F
100
AcDbEntity
  8
0
  6
Continuous
 62
     8
370
    18
100
AcDbLine
 10
270.5684176549
 20
388.184537256
 30
0.0
 11
252.0684174165
 21
388.184537256
 31
0.0
  0
LINE
  5
10F
330
1F
100
AcDbEntity
  8
0
  6
Continuous
 62
     8
370
    18
100
AcDbLine
 10
190.0184175834
 20
434.5345386135
 30
0.0
 11
190.0184175834
 21
457.2345400992
 31
0.0
  0
LINE
  5
110
330
1F
100
AcDbEntity
  8
0
  6
Continuous
 62
     8
370
    18
100
AcDbLine
 10
190.0184175834
 20
457.2345400992
 30
0.0
 11
190.8184162244
 21
457.2345400992
 31
0.0
  0
LINE
  5
111
330
1F
100
AcDbEntity
  8
0
  6
Continuous
 62
     8
370
    18
100
AcDbLine
 10
340.0184160933
 20
434.5345386135
 30
0.0
 11
340.0184160933
 21
457.2345400992
 31
0.0
  0
LINE
  5
112
330
1F
100
AcDbEntity
  8
0
  6
Continuous
 62
     8
370
    18
100
AcDbLine
 10
340.0184160933
 20
457.2345400992
 30
0.0
 11
340.8184147343
 21
457.2345400992
 31
0.0
  0
LINE
  5
113
330
1F
100
AcDbEntity
  8
0
  6
Continuous
 62
     8
370
    18
100
AcDbLine
 10
190.8184162244
 20
388.8345370832
 30
0.0
 11
190.0184175834
 21
388.8345370832
 31
0.0
  0
LINE
  5
114
330
1F
100
AcDbEntity
  8
0
  6
Continuous
 62
     8
370
    18
100
AcDbLine
 10
190.0184175834
 20
388.8345370832
 30
0.0
 11
190.0184175834
 21
411.5345385688
 31
0.0
  0
LINE
  5
115
330
1F
100
AcDbEntity
  8
0
  6
Continuous
 62
     8
370
    18
100
AcDbLine
 10
347.818414019
 20
419.33453859
 30
0.0
 11
370.5184182986
 21
419.33453859
 31
0.0
  0
LINE
  5
116
330
1F
100
AcDbEntity
  8
0
  6
Continuous
 62
     8
370
    18
100
AcDbLine
 10
370.5184182986
 20
419.33453859
 30
0.0
 11
370.5184182986
 21
418.5345387849
 31
0.0
  0
LINE
  5
117
330
1F
100
AcDbEntity
  8
0
  6
Continuous
 62
     8
370
    18
100
AcDbLine
 10
182.6184189781
 20
388.0345384421
 30
0.0
 11
182.6184189781
 21
388.8345370832
 31
0.0
  0
LINE
  5
118
330
1F
100
AcDbEntity
  8
0
  6
Continuous
 62
     8
370
    18
100
AcDbLine
 10
182.6184189781
 20
388.8345370832
 30
0.0
 11
190.0184175834
 21
388.8345370832
 31
0.0
  0
LINE
  5
119
330
1F
100
AcDbEntity
  8
0
  6
Continuous
 62
     8
370
    18
100
AcDbLine
 10
190.0184175834
 20
388.0345384421
 30
0.0
 11
190.0184175834
 21
388.8345370832
 31
0.0
  0
LINE
  5
11A
330
1F
100
AcDbEntity
  8
0
  6
Continuous
 62
     8
370
    18
100
AcDbLine
 10
340.0184160933
 20
458.0345387402
 30
0.0
 11
340.0184160933
 21
457.2345400992
 31
0.0
  0
LINE
  5
11B
330
1F
100
AcDbEntity
  8
0
  6
Continuous
 62
     8
370
    18
100
AcDbLine
 10
197.8184155091
 20
419.33453859
 30
0.0
 11
220.5184160635
 21
419.33453859
 31
0.0
  0
LINE
  5
11C
330
1F
100
AcDbEntity
  8
0
  6
Continuous
 62
     8
370
    18
100
AcDbLine
 10
220.5184160635
 20
418.5345387849
 30
0.0
 11
220.5184160635
 21
419.33453859
 31
0.0
  0
LINE
  5
11D
330
1F
100
AcDbEntity
  8
0
  6
Continuous
 62
     8
370
    18
100
AcDbLine
 10
152.1184167727
 20
419.33453859
 30
0.0
 11
151.3184181317
 21
419.33453859
 31
0.0
  0
LINE
  5
11E
330
1F
100
AcDbEntity
  8
0
  6
Continuous
 62
     8
370
    18
100
AcDbLine
 10
152.1184167727
 20
418.5345387849
 30
0.0
 11
152.1184167727
 21
419.33453859
 31
0.0
  0
LINE
  5
11F
330
1F
100
AcDbEntity
  8
0
  6
Continuous
 62
     8
370
    18
100
AcDbLine
 10
324.8184195622
 20
426.7345385923
 30
0.0
 11
302.1184190079
 21
426.7345385923
 31
0.0
  0
LINE
  5
120
330
1F
100
AcDbEntity
  8
0
  6
Continuous
 62
     8
370
    18
100
AcDbLine
 10
302.1184190079
 20
427.5345383974
 30
0.0
 11
302.1184190079
 21
426.7345385923
 31
0.0
  0
LINE
  5
121
330
1F
100
AcDbEntity
  8
0
  6
Continuous
 62
     8
370
    18
100
AcDbLine
 10
301.3184166416
 20
426.7345385923
 30
0.0
 11
302.1184190079
 21
426.7345385923
 31
0.0
  0
LINE
  5
122
330
1F
100
AcDbEntity
  8
0
  6
Continuous
 62
     8
370
    18
100
AcDbLine
 10
302.1184190079
 20
426.7345385923
 30
0.0
 11
302.1184190079
 21
419.33453859
 31
0.0
  0
LINE
  5
123
330
1F
100
AcDbEntity
  8
0
  6
Continuous
 62
     8
370
    18
100
AcDbLine
 10
301.3184166416
 20
419.33453859
 30
0.0
 11
302.1184190079
 21
419.33453859
 31
0.0
  0
ARC
  5
124
330
1F
100
AcDbEntity
  8
0
  6
Continuous
 62
     8
370
    18
100
AcDbCircle
 10
197.8184175357
 20
434.5345385912
 30
0.0
 40
7.799999999999983
100
AcDbArc
 50
180.0
 51
270.0
  0
LINE
  5
125
330
1F
100
AcDbEntity
  8
0
  6
Continuous
 62
     8
370
    18
100
AcDbLine
 10
340.0184160933
 20
457.2345400992
 30
0.0
 11
332.618417488
 21
457.2345400992
 31
0.0
  0
LINE
  5
126
330
1F
100
AcDbEntity
  8
0
  6
Continuous
 62
     8
370
    18
100
AcDbLine
 10
332.618417488
 20
458.0345387402
 30
0.0
 11
332.618417488
 21
457.2345400992
 31
0.0
  0
LINE
  5
127
330
1F
100
AcDbEntity
  8
0
  6
Continuous
 62
     8
370
    18
100
AcDbLine
 10
221.3184184298
 20
419.33453859
 30
0.0
 11
220.5184160635
 21
419.33453859
 31
0.0
  0
LINE
  5
128
330
1F
100
AcDbEntity
  8
0
  6
Continuous
 62
     8
370
    18
100
AcDbLine
 10
220.5184160635
 20
419.33453859
 30
0.0
 11
220.5184160635
 21
426.7345385923
 31
0.0
  0
LINE
  5
129
330
1F
100
AcDbEntity
  8
0
  6
Continuous
 62
     8
370
    18
100
AcDbLine
 10
221.3184184298
 20
426.7345385923
 30
0.0
 11
220.5184160635
 21
426.7345385923
 31
0.0
  0
LINE
  5
12A
330
1F
100
AcDbEntity
  8
0
  6
Continuous
 62
     8
370
    18
100
AcDbLine
 10
332.618417488
 20
388.8345370832
 30
0.0
 11
331.818418847
 21
388.8345370832
 31
0.0
  0
LINE
  5
12B
330
1F
100
AcDbEntity
  8
0
  6
Continuous
 62
     8
370
    18
100
AcDbLine
 10
332.618417488
 20
388.8345370832
 30
0.0
 11
332.618417488
 21
388.0345384421
 31
0.0
  0
LINE
  5
12C
330
1F
100
AcDbEntity
  8
0
  6
Continuous
 62
     8
370
    18
100
AcDbLine
 10
182.6184189781
 20
411.5345385688
 30
0.0
 11
182.6184189781
 21
388.8345370832
 31
0.0
  0
LINE
  5
12D
330
1F
100
AcDbEntity
  8
0
  6
Continuous
 62
     8
370
    18
100
AcDbLine
 10
182.6184189781
 20
388.8345370832
 30
0.0
 11
181.8184203371
 21
388.8345370832
 31
0.0
  0
ARC
  5
12E
330
1F
100
AcDbEntity
  8
0
  6
Continuous
 62
     8
370
    18
100
AcDbCircle
 10
347.8184175357
 20
434.5345385912
 30
0.0
 40
7.800000000000011
100
AcDbArc
 50
180.0
 51
270.0
  0
LINE
  5
12F
330
1F
100
AcDbEntity
  8
0
  6
Continuous
 62
     8
370
    18
100
AcDbLine
 10
190.0184175834
 20
457.2345400992
 30
0.0
 11
190.0184175834
 21
458.0345387402
 31
0.0
  0
LINE
  5
130
330
1F
100
AcDbEntity
  8
0
  6
Continuous
 62
     8
370
    18
100
AcDbLine
 10
332.618417488
 20
411.5345385688
 30
0.0
 11
332.618417488
 21
388.8345370832
 31
0.0
  0
LINE
  5
131
330
1F
100
AcDbEntity
  8
0
  6
Continuous
 62
     8
370
    18
100
AcDbLine
 10
331.818418847
 20
457.2345400992
 30
0.0
 11
332.618417488
 21
457.2345400992
 31
0.0
  0
LINE
  5
132
330
1F
100
AcDbEntity
  8
0
  6
Continuous
 62
     8
370
    18
100
AcDbLine
 10
182.6184189781
 20
457.2345400992
 30
0.0
 11
182.6184189781
 21
434.5345386135
 31
0.0
  0
LINE
  5
133
330
1F
100
AcDbEntity
  8
0
  6
Continuous
 62
     8
370
    18
100
AcDbLine
 10
182.6184189781
 20
457.2345400992
 30
0.0
 11
181.8184203371
 21
457.2345400992
 31
0.0
  0
LINE
  5
134
330
1F
100
AcDbEntity
  8
0
  6
Continuous
 62
     8
370
    18
100
AcDbLine
 10
340.0184160933
 20
388.8345370832
 30
0.0
 11
340.0184160933
 21
388.0345384421
 31
0.0
  0
LINE
  5
135
330
1F
100
AcDbEntity
  8
0
  6
Continuous
 62
     8
370
    18
100
AcDbLine
 10
340.0184160933
 20
388.8345370832
 30
0.0
 11
340.8184147343
 21
388.8345370832
 31
0.0
  0
LINE
  5
136
330
1F
100
AcDbEntity
  8
0
  6
Continuous
 62
     8
370
    18
100
AcDbLine
 10
370.5184182986
 20
427.5345383974
 30
0.0
 11
370.5184182986
 21
426.7345385923
 31
0.0
  0
LINE
  5
137
330
1F
100
AcDbEntity
  8
0
  6
Continuous
 62
     8
370
    18
100
AcDbLine
 10
370.5184182986
 20
426.7345385923
 30
0.0
 11
347.818414019
 21
426.7345385923
 31
0.0
  0
LINE
  5
138
330
1F
100
AcDbEntity
  8
0
  6
Continuous
 62
     8
370
    18
100
AcDbLine
 10
190.0184175834
 20
457.2345400992
 30
0.0
 11
182.6184189781
 21
457.2345400992
 31
0.0
  0
LINE
  5
139
330
1F
100
AcDbEntity
  8
0
  6
Continuous
 62
     8
370
    18
100
AcDbLine
 10
182.6184189781
 20
457.2345400992
 30
0.0
 11
182.6184189781
 21
458.0345387402
 31
0.0
  0
ARC
  5
13A
330
1F
100
AcDbEntity
  8
0
  6
Continuous
 62
     8
370
    18
100
AcDbCircle
 10
174.8184175357
 20
411.5345385912
 30
0.0
 40
7.800000000000011
100
AcDbArc
 50
0.0
 51
90.0
  0
LINE
  5
13B
330
1F
100
AcDbEntity
  8
0
  6
Continuous
 62
     8
370
    18
100
AcDbLine
 10
220.5184160635
 20
426.7345385923
 30
0.0
 11
197.8184155091
 21
426.7345385923
 31
0.0
  0
ARC
  5
13C
330
1F
100
AcDbEntity
  8
0
  6
Continuous
 62
     8
370
    18
100
AcDbCircle
 10
197.8184175357
 20
411.5345385912
 30
0.0
 40
7.800000000000011
100
AcDbArc
 50
90.0
 51
180.0
  0
LINE
  5
13D
330
1F
100
AcDbEntity
  8
0
  6
Continuous
 62
     8
370
    18
100
AcDbLine
 10
152.1184167727
 20
419.33453859
 30
0.0
 11
174.8184210524
 21
419.33453859
 31
0.0
  0
LINE
  5
13E
330
1F
100
AcDbEntity
  8
0
  6
Continuous
 62
     8
370
    18
100
AcDbLine
 10
152.1184167727
 20
426.7345385923
 30
0.0
 11
152.1184167727
 21
419.33453859
 31
0.0
  0
LINE
  5
13F
330
1F
100
AcDbEntity
  8
0
  6
Continuous
 62
     8
370
    18
100
AcDbLine
 10
174.8184210524
 20
426.7345385923
 30
0.0
 11
152.1184167727
 21
426.7345385923
 31
0.0
  0
ARC
  5
140
330
1F
100
AcDbEntity
  8
0
  6
Continuous
 62
     8
370
    18
100
AcDbCircle
 10
174.8184175357
 20
434.5345385912
 30
0.0
 40
7.799999999999983
100
AcDbArc
 50
270.0
 51
0.0
  0
LINE
  5
141
330
1F
100
AcDbEntity
  8
0
  6
Continuous
 62
     8
370
    18
100
AcDbLine
 10
340.0184160933
 20
388.8345370832
 30
0.0
 11
340.0184160933
 21
411.5345385688
 31
0.0
  0
LINE
  5
142
330
1F
100
AcDbEntity
  8
0
  6
Continuous
 62
     8
370
    18
100
AcDbLine
 10
332.618417488
 20
388.8345370832
 30
0.0
 11
340.0184160933
 21
388.8345370832
 31
0.0
  0
ARC
  5
143
330
1F
100
AcDbEntity
  8
0
  6
Continuous
 62
     8
370
    18
100
AcDbCircle
 10
324.8184175357
 20
411.5345385912
 30
0.0
 40
7.800000000000011
100
AcDbArc
 50
0.0
 51
90.0
  0
LINE
  5
144
330
1F
100
AcDbEntity
  8
0
  6
Continuous
 62
     8
370
    18
100
AcDbLine
 10
302.1184190079
 20
419.33453859
 30
0.0
 11
324.8184195622
 21
419.33453859
 31
0.0
  0
ARC
  5
145
330
1F
100
AcDbEntity
  8
0
  6
Continuous
 62
     8
370
    18
100
AcDbCircle
 10
324.8184175357
 20
434.5345385912
 30
0.0
 40
7.800000000000011
100
AcDbArc
 50
270.0
 51
0.0
  0
LINE
  5
146
330
1F
100
AcDbEntity
  8
0
  6
Continuous
 62
     8
370
    18
100
AcDbLine
 10
332.618417488
 20
457.2345400992
 30
0.0
 11
332.618417488
 21
434.5345386135
 31
0.0
  0
LINE
  5
147
330
1F
100
AcDbEntity
  8
0
  6
Continuous
 62
     8
370
    18
100
AcDbLine
 10
370.5184182986
 20
419.33453859
 30
0.0
 11
370.5184182986
 21
426.7345385923
 31
0.0
  0
ARC
  5
148
330
1F
100
AcDbEntity
  8
0
  6
Continuous
 62
     8
370
    18
100
AcDbCircle
 10
347.8184175357
 20
411.5345385912
 30
0.0
 40
7.800000000000011
100
AcDbArc
 50
90.0
 51
180.0
  0
LINE
  5
149
330
1F
100
AcDbEntity
  8
0
  6
Continuous
 62
     8
370
    18
100
AcDbLine
 10
302.1184190079
 20
418.5345387849
 30
0.0
 11
302.1184190079
 21
419.33453859
 31
0.0
  0
LINE
  5
14A
330
1F
100
AcDbEntity
  8
0
  6
Continuous
 62
     8
370
    18
100
AcDbLine
 10
220.5184160635
 20
427.5345383974
 30
0.0
 11
220.5184160635
 21
426.7345385923
 31
0.0
  0
LINE
  5
14B
330
1F
100
AcDbEntity
  8
0
  6
Continuous
 62
     8
370
    18
100
AcDbLine
 10
152.1184167727
 20
426.7345385923
 30
0.0
 11
152.1184167727
 21
427.5345383974
 31
0.0
  0
LINE
  5
14C
330
1F
100
AcDbEntity
  8
0
  6
Continuous
 62
     8
370
    18
100
AcDbLine
 10
152.1184167727
 20
426.7345385923
 30
0.0
 11
151.3184181317
 21
426.7345385923
 31
0.0
  0
LINE
  5
14D
330
1F
100
AcDbEntity
  8
0
  6
Continuous
 62
     8
370
    18
100
AcDbLine
 10
370.5184182986
 20
419.33453859
 30
0.0
 11
371.3184169396
 21
419.33453859
 31
0.0
  0
LINE
  5
14E
330
1F
100
AcDbEntity
  8
0
  6
Continuous
 62
     8
370
    18
100
AcDbLine
 10
370.5184182986
 20
426.7345385923
 30
0.0
 11
371.3184169396
 21
426.7345385923
 31
0.0
  0
SPLINE
  5
14F
330
1F
100
AcDbEntity
  8
0
  6
Continuous
 62
     8
370
    18
100
AcDbSpline
210
0.0
220
0.0
230
1.0
 70
     8
 71
     3
 72
    17
 73
    13
 74
     0
 42
0.000000001
 43
0.00000001
 40
0.0
 40
0.0
 40
0.0
 40
0.0
 40
0.0067437721359391
 40
0.0946796086785718
 40
0.1740794774959346
 40
0.3149160399526055
 40
0.4467224397217988
 40
0.5717560706761119
 40
0.6637004546951055
 40
0.7494493002293617
 40
0.9120034324529451
 40
1.0
 40
1.0
 40
1.0
 40
1.0
 10
190.8184162243869
 20
439.0853672119455
 30
0.0
 10
190.8571838351612
 20
439.0788273977273
 30
0.0
 10
191.4014641197734
 20
438.987011268931
 30
0.0
 10
192.3916509900092
 20
438.7244392682063
 30
0.0
 10
194.1306249938484
 20
438.1880604593529
 30
0.0
 10
196.0777827232558
 20
437.3731312264891
 30
0.0
 10
198.1985810623765
 20
436.1772428980523
 30
0.0
 10
199.9624101966902
 20
434.8731109324017
 30
0.0
 10
201.3977542406054
 20
433.5412499253035
 30
0.0
 10
202.8762706646207
 20
431.8384368954115
 30
0.0
 10
204.2190005839301
 20
429.9126650673621
 30
0.0
 10
204.7855196057977
 20
428.1526706476366
 30
0.0
 10
204.9844882353808
 20
427.534538397439
 30
0.0
  0
SPLINE
  5
150
330
1F
100
AcDbEntity
  8
0
  6
Continuous
 62
     8
370
    18
100
AcDbSpline
210
0.0
220
0.0
230
1.0
 70
     8
 71
     3
 72
    20
 73
    16
 74
     0
 42
0.000000001
 43
0.00000001
 40
0.0
 40
0.0
 40
0.0
 40
0.0
 40
0.0132429292636118
 40
0.0899367102265328
 40
0.1686760241239096
 40
0.252355349718143
 40
0.3378871304043894
 40
0.4296022486230391
 40
0.5219446190432503
 40
0.621624381548014
 40
0.7194646984118709
 40
0.8263577651926737
 40
0.9055560744030172
 40
0.9932718821207541
 40
1.0
 40
1.0
 40
1.0
 40
1.0
 10
205.0648390218284
 20
418.5345387848691
 30
0.0
 10
205.0376750236632
 20
418.4401800510259
 30
0.0
 10
204.8531961532454
 20
417.7993615482555
 30
0.0
 10
204.3416839177592
 20
416.6921071862625
 30
0.0
 10
203.5292511452443
 20
415.2155363172232
 30
0.0
 10
202.5415930746653
 20
413.8335936069718
 30
0.0
 10
201.3956994001761
 20
412.5288431776835
 30
0.0
 10
200.1167864066056
 20
411.3384113963994
 30
0.0
 10
198.6915178247004
 20
410.2475209948996
 30
0.0
 10
197.170619484524
 20
409.2941237428632
 30
0.0
 10
195.5193200415648
 20
408.4575667151602
 30
0.0
 10
193.9407268365585
 20
407.8221646205841
 30
0.0
 10
192.3916415103594
 20
407.344710108517
 30
0.0
 10
191.4014850172939
 20
407.0820676485474
 30
0.0
 10
190.8571913191225
 20
406.9902509280266
 30
0.0
 10
190.8184162243869
 20
406.9837099703626
 30
0.0
  0
ELLIPSE
  5
151
330
1F
100
AcDbEntity
  8
0
  6
Continuous
 62
     8
370
    18
100
AcDbEllipse
 10
261.3184175357
 20
423.0345385912
 30
0.0
 11
19.5
 21
0.0
 31
0.0
210
0.0
220
0.0
230
1.0
 40
0.8461538462
 41
2.070499384753956
 42
3.695139342147564
  0
ELLIPSE
  5
152
330
1F
100
AcDbEntity
  8
0
  6
Continuous
 62
     8
370
    18
100
AcDbEllipse
 10
336.3184175357
 20
423.0345385912
 30
0.0
 11
19.5
 21
0.0
 31
0.0
210
0.0
220
0.0
230
1.0
 40
0.8461538462
 41
3.417819284353397
 42
4.479520802126618
  0
ELLIPSE
  5
153
330
1F
100
AcDbEntity
  8
0
  6
Continuous
 62
     8
370
    18
100
AcDbEllipse
 10
336.3184175357
 20
423.0345385912
 30
0.0
 11
19.5
 21
0.0
 31
0.0
210
0.0
220
0.0
230
1.0
 40
0.8461538462
 41
1.803664505052979
 42
2.865366022826202
  0
ELLIPSE
  5
154
330
1F
100
AcDbEntity
  8
0
  6
Continuous
 62
     8
370
    18
100
AcDbEllipse
 10
261.3184175357
 20
423.0345385912
 30
0.0
 11
19.5
 21
0.0
 31
0.0
210
0.0
220
0.0
230
1.0
 40
0.8461538462
 41
5.728867265625398
 42
7.354278573889199
  0
SPLINE
  5
155
330
1F
100
AcDbEntity
  8
0
  6
Continuous
 62
     7
370
    25
100
AcDbSpline
210
0.0
220
0.0
230
1.0
 70
     8
 71
     3
 72
    13
 73
     9
 74
     0
 42
0.000000001
 43
0.00000001
 40
0.0
 40
0.0
 40
0.0
 40
0.0
 40
0.2394870515136201
 40
0.3683856792283656
 40
0.5000100556586575
 40
0.6316303240172687
 40
0.7605234823586138
 40
0.9999999999999999
 40
0.9999999999999999
 40
0.9999999999999999
 40
0.9999999999999999
 10
278.3184184595611
 20
196.8698189715041
 30
0.0
 10
278.3117403137313
 20
196.9327123307056
 30
0.0
 10
278.30146780308
 20
197.0294566544675
 30
0.0
 10
278.2391119107069
 20
197.1458794593817
 30
0.0
 10
278.1745731344994
 20
197.2259840106724
 30
0.0
 10
278.0944614157715
 20
197.2905154470139
 30
0.0
 10
277.978033042576
 20
197.3528716498234
 30
0.0
 10
277.8812738629427
 20
197.3631404981588
 30
0.0
 10
277.8183708801534
 20
197.3698162594928
 30
0.0
  0
SPLINE
  5
156
330
1F
100
AcDbEntity
  8
0
  6
Continuous
 62
     7
370
    25
100
AcDbSpline
210
0.0
220
0.0
230
1.0
 70
     8
 71
     3
 72
    13
 73
     9
 74
     0
 42
0.000000001
 43
0.00000001
 40
0.0
 40
0.0
 40
0.0
 40
0.0
 40
0.2394765176413862
 40
0.3683696759827312
 40
0.4999899443413424
 40
0.6316143207716343
 40
0.7605129484863798
 40
1.0
 40
1.0
 40
1.0
 40
1.0
 10
244.8184641912248
 20
197.3698162594928
 30
0.0
 10
244.7555612084355
 20
197.3631404981588
 30
0.0
 10
244.6588020288021
 20
197.3528716498234
 30
0.0
 10
244.5423736556066
 20
197.2905154470139
 30
0.0
 10
244.4622619368787
 20
197.2259840106724
 30
0.0
 10
244.3977231606712
 20
197.1458794593817
 30
0.0
 10
244.3353672682981
 20
197.0294566544675
 30
0.0
 10
244.3250947576469
 20
196.9327123307057
 30
0.0
 10
244.3184166118171
 20
196.8698189715042
 30
0.0
  0
SPLINE
  5
157
330
1F
100
AcDbEntity
  8
0
  6
Continuous
 62
     7
370
    25
100
AcDbSpline
210
0.0
220
0.0
230
1.0
 70
     8
 71
     3
 72
    13
 73
     9
 74
     0
 42
0.000000001
 43
0.00000001
 40
0.0
 40
0.0
 40
0.0
 40
0.0
 40
0.2394865174352999
 40
0.3683890744081601
 40
0.5000094711151095
 40
0.63163244045204
 40
0.7605231267689868
 40
1.0
 40
1.0
 40
1.0
 40
1.0
 10
244.3184166118171
 20
173.8698170641555
 30
0.0
 10
244.3250954022487
 20
173.806924108908
 30
0.0
 10
244.33536902204
 20
173.7101792991435
 30
0.0
 10
244.3977206699303
 20
173.5937534924834
 30
0.0
 10
244.4622647650081
 20
173.5136525272936
 30
0.0
 10
244.5423711661075
 20
173.4491155770694
 30
0.0
 10
244.6588043085567
 20
173.3867670761337
 30
0.0
 10
244.7555618309827
 20
173.3764943690576
 30
0.0
 10
244.8184641912248
 20
173.3698160508766
 30
0.0
  0
SPLINE
  5
158
330
1F
100
AcDbEntity
  8
0
  6
Continuous
 62
     7
370
    25
100
AcDbSpline
210
0.0
220
0.0
230
1.0
 70
     8
 71
     3
 72
    13
 73
     9
 74
     0
 42
0.000000001
 43
0.00000001
 40
0.0
 40
0.0
 40
0.0
 40
0.0
 40
0.2394768732310131
 40
0.36836755954796
 40
0.4999905288848905
 40
0.63161092559184
 40
0.7605134825647001
 40
1.0
 40
1.0
 40
1.0
 40
1.0
 10
277.8183708801534
 20
173.3698160508766
 30
0.0
 10
277.8812732403954
 20
173.3764943690576
 30
0.0
 10
277.9780307628214
 20
173.3867670761337
 30
0.0
 10
278.0944639052706
 20
173.4491155770694
 30
0.0
 10
278.1745703063701
 20
173.5136525272936
 30
0.0
 10
278.2391144014478
 20
173.5937534924834
 30
0.0
 10
278.3014660493382
 20
173.7101792991435
 30
0.0
 10
278.3117396691295
 20
173.806924108908
 30
0.0
 10
278.3184184595611
 20
173.8698170641555
 30
0.0
  0
LINE
  5
159
330
1F
100
AcDbEntity
  8
0
  6
Continuous
 62
     7
370
    25
100
AcDbLine
 10
244.3184166118
 20
196.8698189715
 30
0.0
 11
244.3184166118
 21
173.8698170642
 31
0.0
  0
LINE
  5
15A
330
1F
100
AcDbEntity
  8
0
  6
Continuous
 62
     7
370
    25
100
AcDbLine
 10
278.3184184596
 20
173.8698170642
 30
0.0
 11
278.3184184596
 21
196.8698189715
 31
0.0
  0
LINE
  5
15B
330
1F
100
AcDbEntity
  8
0
  6
Continuous
 62
     7
370
    25
100
AcDbLine
 10
221.3184184298
 20
288.4709709445
 30
0.0
 11
221.3184184298
 21
300.6709725717
 31
0.0
  0
LINE
  5
15C
330
1F
100
AcDbEntity
  8
0
  6
Continuous
 62
     7
370
    25
100
AcDbLine
 10
151.3184181317
 20
300.6709725717
 30
0.0
 11
151.3184181317
 21
288.4709709445
 31
0.0
  0
LINE
  5
15D
330
1F
100
AcDbEntity
  8
0
  6
Continuous
 62
     7
370
    25
100
AcDbLine
 10
371.3184169396
 20
288.4709709445
 30
0.0
 11
371.3184169396
 21
300.6709725717
 31
0.0
  0
LINE
  5
15E
330
1F
100
AcDbEntity
  8
0
  6
Continuous
 62
     7
370
    25
100
AcDbLine
 10
301.3184166416
 20
300.6709725717
 30
0.0
 11
301.3184166416
 21
288.4709709445
 31
0.0
  0
ARC
  5
15F
330
1F
100
AcDbEntity
  8
0
  6
Continuous
 62
     7
370
    25
100
AcDbCircle
 10
152.1184175357
 20
288.4709707836
 30
0.0
 40
0.8000000000000114
100
AcDbArc
 50
180.0
 51
270.0
  0
ARC
  5
160
330
1F
100
AcDbEntity
  8
0
  6
Continuous
 62
     7
370
    25
100
AcDbCircle
 10
220.5184175357
 20
288.4709707836
 30
0.0
 40
0.8000000000000114
100
AcDbArc
 50
270.0
 51
0.0
  0
ARC
  5
161
330
1F
100
AcDbEntity
  8
0
  6
Continuous
 62
     7
370
    25
100
AcDbCircle
 10
302.1184175357
 20
288.4709707836
 30
0.0
 40
0.8000000000000682
100
AcDbArc
 50
180.0
 51
270.0
  0
ARC
  5
162
330
1F
100
AcDbEntity
  8
0
  6
Continuous
 62
     7
370
    25
100
AcDbCircle
 10
370.5184175357
 20
288.4709707836
 30
0.0
 40
0.8000000000000114
100
AcDbArc
 50
270.0
 51
0.0
  0
ARC
  5
163
330
1F
100
AcDbEntity
  8
0
  6
Continuous
 62
     7
370
    25
100
AcDbCircle
 10
309.9184175357
 20
286.8709707836
 30
0.0
 40
0.8000000000000114
100
AcDbArc
 50
0.0
 51
90.0
  0
ARC
  5
164
330
1F
100
AcDbEntity
  8
0
  6
Continuous
 62
     7
370
    25
100
AcDbCircle
 10
362.7184175357
 20
286.8709707836
 30
0.0
 40
0.8000000000000114
100
AcDbArc
 50
90.0
 51
180.0
  0
ARC
  5
165
330
1F
100
AcDbEntity
  8
0
  6
Continuous
 62
     7
370
    25
100
AcDbCircle
 10
159.9184175357
 20
286.8709707836
 30
0.0
 40
0.8000000000000114
100
AcDbArc
 50
0.0
 51
90.0
  0
ARC
  5
166
330
1F
100
AcDbEntity
  8
0
  6
Continuous
 62
     7
370
    25
100
AcDbCircle
 10
212.7184175357
 20
286.8709707836
 30
0.0
 40
0.8000000000000114
100
AcDbArc
 50
90.0
 51
180.0
  0
LINE
  5
167
330
1F
100
AcDbEntity
  8
0
  6
Continuous
 62
     7
370
    25
100
AcDbLine
 10
361.9184142813
 20
275.4709706763
 30
0.0
 11
361.9184142813
 21
286.8709699372
 31
0.0
  0
LINE
  5
168
330
1F
100
AcDbEntity
  8
0
  6
Continuous
 62
     7
370
    25
100
AcDbLine
 10
310.7184193
 20
286.8709699372
 30
0.0
 11
310.7184193
 21
275.4709706763
 31
0.0
  0
LINE
  5
169
330
1F
100
AcDbEntity
  8
0
  6
Continuous
 62
     7
370
    25
100
AcDbLine
 10
211.9184157714
 20
275.4709706763
 30
0.0
 11
211.9184157714
 21
286.8709699372
 31
0.0
  0
LINE
  5
16A
330
1F
100
AcDbEntity
  8
0
  6
Continuous
 62
     7
370
    25
100
AcDbLine
 10
160.7184207901
 20
286.8709699372
 30
0.0
 11
160.7184207901
 21
275.4709706763
 31
0.0
  0
ARC
  5
16B
330
1F
100
AcDbEntity
  8
0
  6
Continuous
 62
     7
370
    25
100
AcDbCircle
 10
161.5184175357
 20
275.4709707836
 30
0.0
 40
0.8000000000000114
100
AcDbArc
 50
180.0
 51
270.0
  0
ARC
  5
16C
330
1F
100
AcDbEntity
  8
0
  6
Continuous
 62
     7
370
    25
100
AcDbCircle
 10
211.1184175357
 20
275.4709707836
 30
0.0
 40
0.8000000000000114
100
AcDbArc
 50
270.0
 51
0.0
  0
ARC
  5
16D
330
1F
100
AcDbEntity
  8
0
  6
Continuous
 62
     7
370
    25
100
AcDbCircle
 10
311.5184175357
 20
275.4709707836
 30
0.0
 40
0.8000000000000114
100
AcDbArc
 50
180.0
 51
270.0
  0
ARC
  5
16E
330
1F
100
AcDbEntity
  8
0
  6
Continuous
 62
     7
370
    25
100
AcDbCircle
 10
361.1184175357
 20
275.4709707836
 30
0.0
 40
0.8000000000000682
100
AcDbArc
 50
270.0
 51
0.0
  0
LINE
  5
16F
330
1F
100
AcDbEntity
  8
0
  6
Continuous
 62
     7
370
    25
100
AcDbLine
 10
169.8184183702
 20
255.4709707886
 30
0.0
 11
169.8184183702
 21
201.8709690431
 31
0.0
  0
LINE
  5
170
330
1F
100
AcDbEntity
  8
0
  6
Continuous
 62
     7
370
    25
100
AcDbLine
 10
202.8184181913
 20
244.0709709311
 30
0.0
 11
202.8184181913
 21
255.4709707886
 31
0.0
  0
LINE
  5
171
330
1F
100
AcDbEntity
  8
0
  6
Continuous
 62
     7
370
    25
100
AcDbLine
 10
202.8184181913
 20
201.8709690431
 30
0.0
 11
202.8184181913
 21
205.0709710578
 31
0.0
  0
ARC
  5
172
330
1F
100
AcDbEntity
  8
0
  6
Continuous
 62
     7
370
    25
100
AcDbCircle
 10
205.8184175357
 20
244.0709707836
 30
0.0
 40
3.000000000000014
100
AcDbArc
 50
181.1014529714
 51
268.8513389647
  0
LINE
  5
173
330
1F
100
AcDbEntity
  8
0
  6
Continuous
 62
     7
370
    25
100
AcDbLine
 10
316.8184182509
 20
241.0709704394
 30
0.0
 11
205.8184168204
 21
241.0709704394
 31
0.0
  0
LINE
  5
174
330
1F
100
AcDbEntity
  8
0
  6
Continuous
 62
     7
370
    25
100
AcDbLine
 10
280.818417938
 20
208.0709696869
 30
0.0
 11
316.8184182509
 21
208.0709696869
 31
0.0
  0
LINE
  5
175
330
1F
100
AcDbEntity
  8
0
  6
Continuous
 62
     7
370
    25
100
AcDbLine
 10
205.8184168204
 20
208.0709696869
 30
0.0
 11
241.8184171334
 21
208.0709696869
 31
0.0
  0
SPLINE
  5
176
330
1F
100
AcDbEntity
  8
0
  6
Continuous
 62
     7
370
    25
100
AcDbSpline
210
0.0
220
0.0
230
1.0
 70
     8
 71
     3
 72
    13
 73
     9
 74
     0
 42
0.000000001
 43
0.00000001
 40
0.0
 40
0.0
 40
0.0
 40
0.0
 40
0.2319262220894223
 40
0.3525391208391299
 40
0.4709478912342921
 40
0.5907903966019425
 40
0.7205165774925081
 40
1.0
 40
1.0
 40
1.0
 40
1.0
 10
202.8184181913402
 20
205.0709710577621
 30
0.0
 10
202.8224191870864
 20
205.4584155209026
 30
0.0
 10
202.828500894925
 20
206.0473499207259
 30
0.0
 10
203.0472082137594
 20
206.8053057704144
 30
0.0
 10
203.3526390464574
 20
207.3281734107075
 30
0.0
 10
203.8327934350931
 20
207.7256393488456
 30
0.0
 10
204.6624660044356
 20
208.0536115135769
 30
0.0
 10
205.3493121857805
 20
208.0639254429123
 30
0.0
 10
205.8184168204333
 20
208.0709696868553
 30
0.0
  0
LINE
  5
177
330
1F
100
AcDbEntity
  8
0
  6
Continuous
 62
     7
370
    25
100
AcDbLine
 10
319.81841688
 20
205.0709710578
 30
0.0
 11
319.81841688
 21
201.8709690431
 31
0.0
  0
LINE
  5
178
330
1F
100
AcDbEntity
  8
0
  6
Continuous
 62
     7
370
    25
100
AcDbLine
 10
319.81841688
 20
255.4709707886
 30
0.0
 11
319.81841688
 21
244.0709709311
 31
0.0
  0
LINE
  5
179
330
1F
100
AcDbEntity
  8
0
  6
Continuous
 62
     7
370
    25
100
AcDbLine
 10
352.8184167012
 20
201.8709690431
 30
0.0
 11
352.8184167012
 21
255.4709707886
 31
0.0
  0
ARC
  5
17A
330
1F
100
AcDbEntity
  8
0
  6
Continuous
 62
     7
370
    25
100
AcDbCircle
 10
202.6184175357
 20
255.4709707836
 30
0.0
 40
0.2000000000000171
100
AcDbArc
 50
0.0
 51
90.0
  0
ARC
  5
17B
330
1F
100
AcDbEntity
  8
0
  6
Continuous
 62
     7
370
    25
100
AcDbCircle
 10
170.0184175357
 20
255.4709707836
 30
0.0
 40
0.2000000000000171
100
AcDbArc
 50
90.0
 51
180.0
  0
ARC
  5
17C
330
1F
100
AcDbEntity
  8
0
  6
Continuous
 62
     7
370
    25
100
AcDbCircle
 10
352.6184175357
 20
255.4709707836
 30
0.0
 40
0.2000000000000455
100
AcDbArc
 50
0.0
 51
90.0
  0
ARC
  5
17D
330
1F
100
AcDbEntity
  8
0
  6
Continuous
 62
     7
370
    25
100
AcDbCircle
 10
320.0184175357
 20
255.4709707836
 30
0.0
 40
0.2000000000000171
100
AcDbArc
 50
90.0
 51
180.0
  0
ARC
  5
17E
330
1F
100
AcDbEntity
  8
0
  6
Continuous
 62
     7
370
    25
100
AcDbCircle
 10
316.8184175357
 20
244.0709707836
 30
0.0
 40
2.999999999999986
100
AcDbArc
 50
271.1014529714
 51
358.8513389647
  0
ARC
  5
17F
330
1F
100
AcDbEntity
  8
0
  6
Continuous
 62
     7
370
    25
100
AcDbCircle
 10
241.8184175357
 20
205.0709707836
 30
0.0
 40
2.999999999999995
100
AcDbArc
 50
1.1014529714
 51
88.8513389647
  0
LINE
  5
180
330
1F
100
AcDbEntity
  8
0
  6
Continuous
 62
     7
370
    25
100
AcDbLine
 10
277.8184174463
 20
197.603067861
 30
0.0
 11
277.8184174463
 21
205.0709710578
 31
0.0
  0
LINE
  5
181
330
1F
100
AcDbEntity
  8
0
  6
Continuous
 62
     7
370
    25
100
AcDbLine
 10
244.8184176251
 20
205.0709710578
 30
0.0
 11
244.8184176251
 21
197.603067861
 31
0.0
  0
ARC
  5
182
330
1F
100
AcDbEntity
  8
0
  6
Continuous
 62
     7
370
    25
100
AcDbCircle
 10
280.8184175357
 20
205.0709707836
 30
0.0
 40
3.000000000000024
100
AcDbArc
 50
91.1014529714
 51
178.8513389647
  0
ARC
  5
183
330
1F
100
AcDbEntity
  8
0
  6
Continuous
 62
     7
370
    25
100
AcDbCircle
 10
316.8184175357
 20
205.0709707836
 30
0.0
 40
2.999999999999995
100
AcDbArc
 50
1.1014529714
 51
88.8513389647
  0
ARC
  5
184
330
1F
100
AcDbEntity
  8
0
  6
Continuous
 62
     7
370
    25
100
AcDbCircle
 10
320.1184175357
 20
201.3709707836
 30
0.0
 40
0.3000000000000114
100
AcDbArc
 50
90.0
 51
180.0
  0
ARC
  5
185
330
1F
100
AcDbEntity
  8
0
  6
Continuous
 62
     7
370
    25
100
AcDbCircle
 10
352.5184175357
 20
201.3709707836
 30
0.0
 40
0.3000000000000114
100
AcDbArc
 50
0.0
 51
90.0
  0
ARC
  5
186
330
1F
100
AcDbEntity
  8
0
  6
Continuous
 62
     7
370
    25
100
AcDbCircle
 10
170.1184175357
 20
201.3709707836
 30
0.0
 40
0.3000000000000114
100
AcDbArc
 50
90.0
 51
180.0
  0
ARC
  5
187
330
1F
100
AcDbEntity
  8
0
  6
Continuous
 62
     7
370
    25
100
AcDbCircle
 10
202.5184175357
 20
201.3709707836
 30
0.0
 40
0.3000000000000114
100
AcDbArc
 50
0.0
 51
90.0
  0
LINE
  5
188
330
1F
100
AcDbEntity
  8
0
  6
Continuous
 62
     7
370
    25
100
AcDbLine
 10
169.8184183702
 20
201.3709717551
 30
0.0
 11
169.8184183702
 21
197.8709721128
 31
0.0
  0
LINE
  5
189
330
1F
100
AcDbEntity
  8
0
  6
Continuous
 62
     7
370
    25
100
AcDbLine
 10
202.8184181913
 20
197.8709721128
 30
0.0
 11
202.8184181913
 21
201.3709717551
 31
0.0
  0
LINE
  5
18A
330
1F
100
AcDbEntity
  8
0
  6
Continuous
 62
     7
370
    25
100
AcDbLine
 10
319.81841688
 20
201.3709717551
 30
0.0
 11
319.81841688
 21
197.8709721128
 31
0.0
  0
LINE
  5
18B
330
1F
100
AcDbEntity
  8
0
  6
Continuous
 62
     7
370
    25
100
AcDbLine
 10
352.8184167012
 20
197.8709721128
 30
0.0
 11
352.8184167012
 21
201.3709717551
 31
0.0
  0
ARC
  5
18C
330
1F
100
AcDbEntity
  8
0
  6
Continuous
 62
     7
370
    25
100
AcDbCircle
 10
202.1184175357
 20
197.8709707836
 30
0.0
 40
0.6999999999999886
100
AcDbArc
 50
270.0
 51
0.0
  0
ARC
  5
18D
330
1F
100
AcDbEntity
  8
0
  6
Continuous
 62
     7
370
    25
100
AcDbCircle
 10
170.5184175357
 20
197.8709707836
 30
0.0
 40
0.700000000000017
100
AcDbArc
 50
180.0
 51
270.0
  0
ARC
  5
18E
330
1F
100
AcDbEntity
  8
0
  6
Continuous
 62
     7
370
    25
100
AcDbCircle
 10
352.1184175357
 20
197.8709707836
 30
0.0
 40
0.7000000000000455
100
AcDbArc
 50
270.0
 51
0.0
  0
ARC
  5
18F
330
1F
100
AcDbEntity
  8
0
  6
Continuous
 62
     7
370
    25
100
AcDbCircle
 10
320.5184175357
 20
197.8709707836
 30
0.0
 40
0.6999999999999602
100
AcDbArc
 50
180.0
 51
270.0
  0
ARC
  5
190
330
1F
100
AcDbEntity
  8
0
  6
Continuous
 62
     7
370
    25
100
AcDbCircle
 10
320.0184175357
 20
201.8709707836
 30
0.0
 40
0.1999999999999886
100
AcDbArc
 50
180.0
 51
270.0
  0
ARC
  5
191
330
1F
100
AcDbEntity
  8
0
  6
Continuous
 62
     7
370
    25
100
AcDbCircle
 10
352.6184175357
 20
201.8709707836
 30
0.0
 40
0.2000000000000455
100
AcDbArc
 50
270.0
 51
0.0
  0
ARC
  5
192
330
1F
100
AcDbEntity
  8
0
  6
Continuous
 62
     7
370
    25
100
AcDbCircle
 10
170.0184175357
 20
201.8709707836
 30
0.0
 40
0.2000000000000171
100
AcDbArc
 50
180.0
 51
270.0
  0
ARC
  5
193
330
1F
100
AcDbEntity
  8
0
  6
Continuous
 62
     7
370
    25
100
AcDbCircle
 10
202.6184175357
 20
201.8709707836
 30
0.0
 40
0.1999999999999886
100
AcDbArc
 50
270.0
 51
0.0
  0
LINE
  5
194
330
1F
100
AcDbEntity
  8
0
  6
Continuous
 62
     7
370
    25
100
AcDbLine
 10
202.3184171781
 20
256.6709708311
 30
0.0
 11
202.3184171781
 21
273.6709700087
 31
0.0
  0
LINE
  5
195
330
1F
100
AcDbEntity
  8
0
  6
Continuous
 62
     7
370
    25
100
AcDbLine
 10
320.3184178933
 20
273.6709700087
 30
0.0
 11
320.3184178933
 21
256.6709708311
 31
0.0
  0
LINE
  5
196
330
1F
100
AcDbEntity
  8
0
  6
Continuous
 62
     7
370
    25
100
AcDbLine
 10
352.3184156879
 20
256.6709708311
 30
0.0
 11
352.3184156879
 21
273.6709700087
 31
0.0
  0
LINE
  5
197
330
1F
100
AcDbEntity
  8
0
  6
Continuous
 62
     7
370
    25
100
AcDbLine
 10
170.3184193834
 20
273.6709700087
 30
0.0
 11
170.3184193834
 21
256.6709708311
 31
0.0
  0
LINE
  5
198
330
1F
100
AcDbEntity
  8
0
  6
Continuous
 62
     7
370
    25
100
AcDbLine
 10
199.5394176706
 20
273.6709700087
 30
0.0
 11
199.5394176706
 21
274.6709701726
 31
0.0
  0
LINE
  5
199
330
1F
100
AcDbEntity
  8
0
  6
Continuous
 62
     7
370
    25
100
AcDbLine
 10
173.0974188909
 20
274.6709701726
 30
0.0
 11
173.0974188909
 21
273.6709700087
 31
0.0
  0
LINE
  5
19A
330
1F
100
AcDbEntity
  8
0
  6
Continuous
 62
     7
370
    25
100
AcDbLine
 10
349.5394161805
 20
273.6709700087
 30
0.0
 11
349.5394161805
 21
274.6709701726
 31
0.0
  0
LINE
  5
19B
330
1F
100
AcDbEntity
  8
0
  6
Continuous
 62
     7
370
    25
100
AcDbLine
 10
323.0974174007
 20
274.6709701726
 30
0.0
 11
323.0974174007
 21
273.6709700087
 31
0.0
  0
LINE
  5
19C
330
1F
100
AcDbEntity
  8
0
  6
Continuous
 62
     7
370
    25
100
AcDbLine
 10
196.8184209332
 20
255.6709707836
 30
0.0
 11
196.8184209332
 21
256.6709708311
 31
0.0
  0
LINE
  5
19D
330
1F
100
AcDbEntity
  8
0
  6
Continuous
 62
     7
370
    25
100
AcDbLine
 10
175.8184156283
 20
256.6709708311
 30
0.0
 11
175.8184156283
 21
255.6709707836
 31
0.0
  0
LINE
  5
19E
330
1F
100
AcDbEntity
  8
0
  6
Continuous
 62
     7
370
    25
100
AcDbLine
 10
346.818419443
 20
255.6709707836
 30
0.0
 11
346.818419443
 21
256.6709708311
 31
0.0
  0
LINE
  5
19F
330
1F
100
AcDbEntity
  8
0
  6
Continuous
 62
     7
370
    25
100
AcDbLine
 10
325.8184141382
 20
256.6709708311
 30
0.0
 11
325.8184141382
 21
255.6709707836
 31
0.0
  0
ARC
  5
1A0
330
1F
100
AcDbEntity
  8
0
  6
Continuous
 62
     7
370
    25
100
AcDbCircle
 10
344.7184175357
 20
190.2709707836
 30
0.0
 40
0.4000000000000341
100
AcDbArc
 50
180.0
 51
270.0
  0
ARC
  5
1A1
330
1F
100
AcDbEntity
  8
0
  6
Continuous
 62
     7
370
    25
100
AcDbCircle
 10
327.9184175357
 20
190.2709707836
 30
0.0
 40
0.4000000000000341
100
AcDbArc
 50
270.0
 51
0.0
  0
ARC
  5
1A2
330
1F
100
AcDbEntity
  8
0
  6
Continuous
 62
     7
370
    25
100
AcDbCircle
 10
194.7184175357
 20
190.2709707836
 30
0.0
 40
0.4000000000000057
100
AcDbArc
 50
180.0
 51
270.0
  0
ARC
  5
1A3
330
1F
100
AcDbEntity
  8
0
  6
Continuous
 62
     7
370
    25
100
AcDbCircle
 10
177.9184175357
 20
190.2709707836
 30
0.0
 40
0.4000000000000057
100
AcDbArc
 50
270.0
 51
0.0
  0
LINE
  5
1A4
330
1F
100
AcDbEntity
  8
0
  6
Continuous
 62
     7
370
    25
100
AcDbLine
 10
178.3184206947
 20
197.1709714392
 30
0.0
 11
178.3184206947
 21
190.2709738473
 31
0.0
  0
LINE
  5
1A5
330
1F
100
AcDbEntity
  8
0
  6
Continuous
 62
     7
370
    25
100
AcDbLine
 10
194.3184158668
 20
190.2709738473
 30
0.0
 11
194.3184158668
 21
197.1709714392
 31
0.0
  0
LINE
  5
1A6
330
1F
100
AcDbEntity
  8
0
  6
Continuous
 62
     7
370
    25
100
AcDbLine
 10
328.3184192046
 20
197.1709714392
 30
0.0
 11
328.3184192046
 21
190.2709738473
 31
0.0
  0
LINE
  5
1A7
330
1F
100
AcDbEntity
  8
0
  6
Continuous
 62
     7
370
    25
100
AcDbLine
 10
344.3184143766
 20
190.2709738473
 30
0.0
 11
344.3184143766
 21
197.1709714392
 31
0.0
  0
SPLINE
  5
1A8
330
1F
100
AcDbEntity
  8
0
  6
Continuous
 62
     7
370
    25
100
AcDbSpline
210
0.0
220
0.0
230
1.0
 70
    24
 71
     3
 72
    45
 73
    41
 74
     0
 42
0.000000001
 43
0.00000001
 40
0.0
 40
0.0
 40
0.0
 40
0.0
 40
0.0068523140445195
 40
0.0137015662240337
 40
0.0205508806530305
 40
0.0274033813608569
 40
0.0342621880230307
 40
0.0519338988400258
 40
0.0696156366552276
 40
0.0877494713919183
 40
0.1058935953606362
 40
0.1428781711938998
 40
0.1803545247694336
 40
0.2180739750393517
 40
0.2557779932282087
 40
0.2932086813109442
 40
0.3301191871552669
 40
0.3662830281382372
 40
0.4015014908139959
 40
0.4356085995811911
 40
0.468473517916723
 40
0.5000005778998816
 40
0.5315276378830391
 40
0.564392556218572
 40
0.5984996649857669
 40
0.6337181276615251
 40
0.6698819686444958
 40
0.7067924744888182
 40
0.7442231625715535
 40
0.7819271807604108
 40
0.8196466310303291
 40
0.8571229846058626
 40
0.894107560439126
 40
0.9122413953611906
 40
0.9303855195204132
 40
0.948057230553095
 40
0.9657389685900821
 40
0.9771572120181904
 40
0.9885727360669276
 40
0.9999999999999999
 40
0.9999999999999999
 40
0.9999999999999999
 40
0.9999999999999999
 10
244.8198625056473
 20
197.3698172835807
 30
0.0
 10
244.8221338476432
 20
197.3698172835807
 30
0.0
 10
244.8266755167161
 20
197.3698172835807
 30
0.0
 10
244.8430097323959
 20
197.3698172835808
 30
0.0
 10
244.8663131261074
 20
197.3698172835807
 30
0.0
 10
244.8972707396952
 20
197.3698172835808
 30
0.0
 10
244.9558602965771
 20
197.3698172835807
 30
0.0
 10
245.0620866849133
 20
197.3698172835808
 30
0.0
 10
245.2464392748705
 20
197.3698172835807
 30
0.0
 10
245.4825315095879
 20
197.3698172835807
 30
0.0
 10
245.8711479683133
 20
197.3698172835807
 30
0.0
 10
246.4910508622193
 20
197.3698172835807
 30
0.0
 10
247.4421055915748
 20
197.3698172835807
 30
0.0
 10
248.5896878800602
 20
197.3698172835808
 30
0.0
 10
249.9118758714554
 20
197.3698172835807
 30
0.0
 10
251.3797023097682
 20
197.3698172835807
 30
0.0
 10
252.9591701156284
 20
197.3698172835807
 30
0.0
 10
254.6137360416567
 20
197.3698172835807
 30
0.0
 10
256.3068277763469
 20
197.3698172835807
 30
0.0
 10
258.0040830322041
 20
197.3698172835807
 30
0.0
 10
259.6750848149852
 20
197.3698172835807
 30
0.0
 10
261.3184175356886
 20
197.3698172835807
 30
0.0
 10
262.9617502563949
 20
197.3698172835807
 30
0.0
 10
264.632752039167
 20
197.3698172835807
 30
0.0
 10
266.3300072950588
 20
197.3698172835807
 30
0.0
 10
268.0230990296137
 20
197.3698172835807
 30
0.0
 10
269.6776649561669
 20
197.3698172835807
 30
0.0
 10
271.2571327600094
 20
197.3698172835807
 30
0.0
 10
272.7249592060037
 20
197.3698172835807
 30
0.0
 10
274.0471471684464
 20
197.3698172835807
 30
0.0
 10
275.1947295649433
 20
197.3698172835807
 30
0.0
 10
276.1457838954501
 20
197.3698172835807
 30
0.0
 10
276.7656191333509
 20
197.3698172835807
 30
0.0
 10
277.1542521531757
 20
197.3698172835807
 30
0.0
 10
277.3903239260754
 20
197.3698172835807
 30
0.0
 10
277.5746909095009
 20
197.3698172835807
 30
0.0
 10
277.6925206387018
 20
197.3698172835807
 30
0.0
 10
277.7629725757297
 20
197.3698172835807
 30
0.0
 10
277.8031820567741
 20
197.3698172835807
 30
0.0
 10
277.8123741546751
 20
197.3698172835807
 30
0.0
 10
277.8169725657315
 20
197.3698172835807
 30
0.0
  0
SPLINE
  5
1A9
330
1F
100
AcDbEntity
  8
0
  6
Continuous
 62
     7
370
    25
100
AcDbSpline
210
0.0
220
0.0
230
1.0
 70
    24
 71
     3
 72
    45
 73
    41
 74
     0
 42
0.000000001
 43
0.00000001
 40
0.0
 40
0.0
 40
0.0
 40
0.0
 40
0.0068523140443186
 40
0.0137015662237324
 40
0.0205508806527289
 40
0.027403381360655
 40
0.0342621880230282
 40
0.0519338988402389
 40
0.0696156366552279
 40
0.0877494713923498
 40
0.1058935953606342
 40
0.1428781711938978
 40
0.1803545247694315
 40
0.2180739750393497
 40
0.2557779932282065
 40
0.2932086813109424
 40
0.3301191871552646
 40
0.3662830281382345
 40
0.4015014908139934
 40
0.4356085995811883
 40
0.4684735179167202
 40
0.5000005778998787
 40
0.5315276378830371
 40
0.5643925562185691
 40
0.5984996649857639
 40
0.6337181276615232
 40
0.6698819686444928
 40
0.706792474488815
 40
0.7442231625715512
 40
0.7819271807604076
 40
0.819646631030326
 40
0.8571229846058601
 40
0.8941075604391236
 40
0.9122413953623487
 40
0.9303855195204104
 40
0.9480572305536726
 40
0.9657389685900771
 40
0.9771572120177233
 40
0.988572736066463
 40
1.0
 40
1.0
 40
1.0
 40
1.0
 10
277.8169725657309
 20
173.3698172835807
 30
0.0
 10
277.814701223735
 20
173.3698172835807
 30
0.0
 10
277.8101595546621
 20
173.3698172835807
 30
0.0
 10
277.7938253389823
 20
173.3698172835807
 30
0.0
 10
277.7705219452707
 20
173.3698172835808
 30
0.0
 10
277.7395643316829
 20
173.3698172835807
 30
0.0
 10
277.6809747748016
 20
173.3698172835807
 30
0.0
 10
277.5747483864678
 20
173.3698172835807
 30
0.0
 10
277.3903957965049
 20
173.3698172835807
 30
0.0
 10
277.1543035617855
 20
173.3698172835807
 30
0.0
 10
276.7656871030634
 20
173.3698172835807
 30
0.0
 10
276.1457842091583
 20
173.3698172835807
 30
0.0
 10
275.1947294798035
 20
173.3698172835807
 30
0.0
 10
274.0471471913178
 20
173.3698172835807
 30
0.0
 10
272.7249591999228
 20
173.3698172835807
 30
0.0
 10
271.2571327616099
 20
173.3698172835807
 30
0.0
 10
269.6776649557498
 20
173.3698172835807
 30
0.0
 10
268.0230990297214
 20
173.3698172835807
 30
0.0
 10
266.3300072950312
 20
173.3698172835807
 30
0.0
 10
264.6327520391741
 20
173.3698172835807
 30
0.0
 10
262.961750256393
 20
173.3698172835807
 30
0.0
 10
261.3184175356895
 20
173.3698172835807
 30
0.0
 10
259.6750848149833
 20
173.3698172835807
 30
0.0
 10
258.0040830322111
 20
173.3698172835807
 30
0.0
 10
256.3068277763193
 20
173.3698172835808
 30
0.0
 10
254.6137360417644
 20
173.3698172835807
 30
0.0
 10
252.9591701152112
 20
173.3698172835807
 30
0.0
 10
251.3797023113688
 20
173.3698172835807
 30
0.0
 10
249.9118758653743
 20
173.3698172835807
 30
0.0
 10
248.5896879029317
 20
173.3698172835807
 30
0.0
 10
247.4421055064348
 20
173.3698172835807
 30
0.0
 10
246.4910511759281
 20
173.3698172835807
 30
0.0
 10
245.8712159380193
 20
173.3698172835807
 30
0.0
 10
245.4825829181969
 20
173.3698172835807
 30
0.0
 10
245.2465111452953
 20
173.3698172835807
 30
0.0
 10
245.0621441618785
 20
173.3698172835807
 30
0.0
 10
244.9443144326757
 20
173.3698172835807
 30
0.0
 10
244.8738624956507
 20
173.3698172835807
 30
0.0
 10
244.8336530146069
 20
173.3698172835807
 30
0.0
 10
244.824460916704
 20
173.3698172835807
 30
0.0
 10
244.8198625056466
 20
173.3698172835807
 30
0.0
  0
LINE
  5
1AA
330
1F
100
AcDbEntity
  8
0
  6
Continuous
 62
     7
370
    25
100
AcDbLine
 10
221.3184184298
 20
300.6709725717
 30
0.0
 11
151.3184181317
 21
300.6709725717
 31
0.0
  0
LINE
  5
1AB
330
1F
100
AcDbEntity
  8
0
  6
Continuous
 62
     7
370
    25
100
AcDbLine
 10
371.3184169396
 20
300.6709725717
 30
0.0
 11
301.3184166416
 21
300.6709725717
 31
0.0
  0
LINE
  5
1AC
330
1F
100
AcDbEntity
  8
0
  6
Continuous
 62
     7
370
    25
100
AcDbLine
 10
220.5184160635
 20
287.6709723035
 30
0.0
 11
152.1184167727
 21
287.6709723035
 31
0.0
  0
LINE
  5
1AD
330
1F
100
AcDbEntity
  8
0
  6
Continuous
 62
     7
370
    25
100
AcDbLine
 10
370.5184182986
 20
287.6709723035
 30
0.0
 11
302.1184190079
 21
287.6709723035
 31
0.0
  0
ARC
  5
1AE
330
1F
100
AcDbEntity
  8
0
  6
Continuous
 62
     7
370
    25
100
AcDbCircle
 10
190.0184175357
 20
189.0709707836
 30
0.0
 40
0.8000000000000114
100
AcDbArc
 50
0.0
 51
90.0
  0
LINE
  5
1AF
330
1F
100
AcDbEntity
  8
0
  6
Continuous
 62
     7
370
    25
100
AcDbLine
 10
182.6184189781
 20
189.8709670762
 30
0.0
 11
190.0184175834
 21
189.8709670762
 31
0.0
  0
ARC
  5
1B0
330
1F
100
AcDbEntity
  8
0
  6
Continuous
 62
     7
370
    25
100
AcDbCircle
 10
182.6184175357
 20
189.0709707836
 30
0.0
 40
0.8000000000000114
100
AcDbArc
 50
90.0
 51
180.0
  0
ARC
  5
1B1
330
1F
100
AcDbEntity
  8
0
  6
Continuous
 62
     7
370
    25
100
AcDbCircle
 10
340.0184175357
 20
189.0709707836
 30
0.0
 40
0.8000000000000114
100
AcDbArc
 50
0.0
 51
90.0
  0
LINE
  5
1B2
330
1F
100
AcDbEntity
  8
0
  6
Continuous
 62
     7
370
    25
100
AcDbLine
 10
332.618417488
 20
189.8709670762
 30
0.0
 11
340.0184160933
 21
189.8709670762
 31
0.0
  0
ARC
  5
1B3
330
1F
100
AcDbEntity
  8
0
  6
Continuous
 62
     7
370
    25
100
AcDbCircle
 10
332.6184175357
 20
189.0709707836
 30
0.0
 40
0.8000000000000114
100
AcDbArc
 50
90.0
 51
180.0
  0
LINE
  5
1B4
330
1F
100
AcDbEntity
  8
0
  6
Continuous
 62
     7
370
    25
100
AcDbLine
 10
190.8184162244
 20
189.0709684352
 30
0.0
 11
190.8184162244
 21
181.6709698299
 31
0.0
  0
LINE
  5
1B5
330
1F
100
AcDbEntity
  8
0
  6
Continuous
 62
     7
370
    25
100
AcDbLine
 10
340.8184147343
 20
189.0709684352
 30
0.0
 11
340.8184147343
 21
181.6709698299
 31
0.0
  0
LINE
  5
1B6
330
1F
100
AcDbEntity
  8
0
  6
Continuous
 62
     7
370
    25
100
AcDbLine
 10
331.818418847
 20
181.6709698299
 30
0.0
 11
331.818418847
 21
189.0709684352
 31
0.0
  0
LINE
  5
1B7
330
1F
100
AcDbEntity
  8
0
  6
Continuous
 62
     7
370
    25
100
AcDbLine
 10
181.8184203371
 20
181.6709698299
 30
0.0
 11
181.8184203371
 21
189.0709684352
 31
0.0
  0
ARC
  5
1B8
330
1F
100
AcDbEntity
  8
0
  6
Continuous
 62
     7
370
    25
100
AcDbCircle
 10
190.0184175357
 20
181.6709707836
 30
0.0
 40
0.8000000000000114
100
AcDbArc
 50
270.0
 51
0.0
  0
LINE
  5
1B9
330
1F
100
AcDbEntity
  8
0
  6
Continuous
 62
     7
370
    25
100
AcDbLine
 10
340.0184160933
 20
180.8709711889
 30
0.0
 11
332.618417488
 21
180.8709711889
 31
0.0
  0
ARC
  5
1BA
330
1F
100
AcDbEntity
  8
0
  6
Continuous
 62
     7
370
    25
100
AcDbCircle
 10
340.0184175357
 20
181.6709707836
 30
0.0
 40
0.8000000000000114
100
AcDbArc
 50
270.0
 51
0.0
  0
ARC
  5
1BB
330
1F
100
AcDbEntity
  8
0
  6
Continuous
 62
     7
370
    25
100
AcDbCircle
 10
182.6184175357
 20
181.6709707836
 30
0.0
 40
0.8000000000000114
100
AcDbArc
 50
180.0
 51
270.0
  0
LINE
  5
1BC
330
1F
100
AcDbEntity
  8
0
  6
Continuous
 62
     7
370
    25
100
AcDbLine
 10
190.0184175834
 20
180.8709711889
 30
0.0
 11
182.6184189781
 21
180.8709711889
 31
0.0
  0
ARC
  5
1BD
330
1F
100
AcDbEntity
  8
0
  6
Continuous
 62
     7
370
    25
100
AcDbCircle
 10
332.6184175357
 20
181.6709707836
 30
0.0
 40
0.8000000000000114
100
AcDbArc
 50
180.0
 51
270.0
  0
LINE
  5
1BE
330
1F
100
AcDbEntity
  8
0
  6
Continuous
 62
     7
370
    25
100
AcDbLine
 10
161.5184194311
 20
274.6709701726
 30
0.0
 11
211.1184171304
 21
274.6709701726
 31
0.0
  0
LINE
  5
1BF
330
1F
100
AcDbEntity
  8
0
  6
Continuous
 62
     7
370
    25
100
AcDbLine
 10
311.518417941
 20
274.6709701726
 30
0.0
 11
361.1184156403
 21
274.6709701726
 31
0.0
  0
ARC
  5
1C0
330
1F
100
AcDbEntity
  8
0
  6
Continuous
 62
     7
370
    25
100
AcDbCircle
 10
245.0184175518
 20
172.9209707836
 30
0.0
 40
0.1999999999999886
100
AcDbArc
 50
90.0
 51
180.0000000381
  0
SPLINE
  5
1C1
330
1F
100
AcDbEntity
  8
0
  6
Continuous
 62
     7
370
    25
100
AcDbSpline
210
0.0
220
0.0
230
1.0
 70
    24
 71
     3
 72
    52
 73
    48
 74
     0
 42
0.000000001
 43
0.00000001
 40
0.0
 40
0.0
 40
0.0
 40
0.0
 40
0.0625
 40
0.0625
 40
0.1249999999999999
 40
0.1249999999999999
 40
0.1562499999999999
 40
0.1562499999999999
 40
0.1875
 40
0.1875
 40
0.2499999999999999
 40
0.2499999999999999
 40
0.3124999999999999
 40
0.3124999999999999
 40
0.3437499999999999
 40
0.3437499999999999
 40
0.3749999999999999
 40
0.3749999999999999
 40
0.4374999999999999
 40
0.4374999999999999
 40
0.4687499999999999
 40
0.4687499999999999
 40
0.4999999999999999
 40
0.4999999999999999
 40
0.5624999999999999
 40
0.5624999999999999
 40
0.5937499999999999
 40
0.5937499999999999
 40
0.6249999999999998
 40
0.6249999999999998
 40
0.6562499999999998
 40
0.6562499999999998
 40
0.6874999999999998
 40
0.6874999999999998
 40
0.7499999999999999
 40
0.7499999999999999
 40
0.7812499999999999
 40
0.7812499999999999
 40
0.8124999999999999
 40
0.8124999999999999
 40
0.8749999999999999
 40
0.8749999999999999
 40
0.90625
 40
0.90625
 40
0.9375
 40
0.9375
 40
1.0
 40
1.0
 40
1.0
 40
1.0
 10
245.0184175518374
 20
173.1209707835807
 30
0.0
 10
245.0184175518374
 20
173.1209707835807
 30
0.0
 10
245.1246110576635
 20
173.1209707835807
 30
0.0
 10
245.540678726911
 20
173.1209707835808
 30
0.0
 10
245.8491889348066
 20
173.1209707835808
 30
0.0
 10
246.4645281372318
 20
173.1209707835808
 30
0.0
 10
246.6965580998074
 20
173.1209707835807
 30
0.0
 10
247.2026557662548
 20
173.1209707835807
 30
0.0
 10
247.4773500657077
 20
173.1209707835808
 30
0.0
 10
248.3647066032812
 20
173.1209707835807
 30
0.0
 10
249.0409226559413
 20
173.1209707835807
 30
0.0
 10
250.5635878186378
 20
173.1209707835807
 30
0.0
 10
251.3866889297142
 20
173.1209707835807
 30
0.0
 10
252.7109288841666
 20
173.1209707835807
 30
0.0
 10
253.1673905145516
 20
173.1209707835807
 30
0.0
 10
254.1112846826003
 20
173.1209707835808
 30
0.0
 10
254.5995721399321
 20
173.1209707835807
 30
0.0
 10
256.0788982122099
 20
173.1209707835807
 30
0.0
 10
257.0945734873256
 20
173.1209707835807
 30
0.0
 10
258.6620011842145
 20
173.1209707835807
 30
0.0
 10
259.194094680051
 20
173.1209707835807
 30
0.0
 10
260.2629834080801
 20
173.1209707835808
 30
0.0
 10
260.7960045089869
 20
173.1209707835807
 30
0.0
 10
262.3909932173634
 20
173.1209707835807
 30
0.0
 10
263.4489126045463
 20
173.1209707835807
 30
0.0
 10
265.0272503990265
 20
173.1209707835807
 30
0.0
 10
265.5502176133416
 20
173.1209707835807
 30
0.0
 10
266.5703013612801
 20
173.1209707835807
 30
0.0
 10
267.0702508209921
 20
173.1209707835808
 30
0.0
 10
268.0502878357387
 20
173.1209707835808
 30
0.0
 10
268.5303764241725
 20
173.1209707835807
 30
0.0
 10
269.4704801227481
 20
173.1209707835807
 30
0.0
 10
269.9329309614859
 20
173.1209707835807
 30
0.0
 10
271.2686923412273
 20
173.1209707835807
 30
0.0
 10
272.0889409234876
 20
173.1209707835807
 30
0.0
 10
273.2169614430545
 20
173.1209707835807
 30
0.0
 10
273.5757785489562
 20
173.1209707835807
 30
0.0
 10
274.2579135837844
 20
173.1209707835807
 30
0.0
 10
274.578270682583
 20
173.1209707835807
 30
0.0
 10
275.4670852694438
 20
173.1209707835807
 30
0.0
 10
275.9690664893985
 20
173.1209707835808
 30
0.0
 10
276.5837724021648
 20
173.1209707835808
 30
0.0
 10
276.7661289778341
 20
173.1209707835808
 30
0.0
 10
277.0764296806867
 20
173.1209707835807
 30
0.0
 10
277.205225073595
 20
173.1209707835807
 30
0.0
 10
277.514515213128
 20
173.1209707835808
 30
0.0
 10
277.6184175195402
 20
173.1209707835807
 30
0.0
 10
277.6184175195398
 20
173.1209707835807
 30
0.0
  0
ARC
  5
1C2
330
1F
100
AcDbEntity
  8
0
  6
Continuous
 62
     7
370
    25
100
AcDbCircle
 10
277.6184175195
 20
172.9209707836
 30
0.0
 40
0.1999999999999886
100
AcDbArc
 50
359.9999999619
 51
90.0
  0
SPLINE
  5
1C3
330
1F
100
AcDbEntity
  8
0
  6
Continuous
 62
     7
370
    25
100
AcDbSpline
210
0.0
220
0.0
230
1.0
 70
     8
 71
     3
 72
    57
 73
    53
 74
     0
 42
0.000000001
 43
0.00000001
 40
0.0
 40
0.0
 40
0.0
 40
0.0
 40
0.0078124999999989
 40
0.0078124999999989
 40
0.0156249999999978
 40
0.0312499999999972
 40
0.0312499999999972
 40
0.0624999999999974
 40
0.0624999999999974
 40
0.0937499999999977
 40
0.0937499999999977
 40
0.124999999999998
 40
0.124999999999998
 40
0.1874999999999985
 40
0.1874999999999985
 40
0.2187499999999989
 40
0.2187499999999989
 40
0.2499999999999992
 40
0.2499999999999992
 40
0.3124999999999998
 40
0.3124999999999998
 40
0.3437500000000001
 40
0.3437500000000001
 40
0.3750000000000003
 40
0.3750000000000003
 40
0.4062500000000007
 40
0.4062500000000007
 40
0.4375000000000009
 40
0.4375000000000009
 40
0.5000000000000019
 40
0.5000000000000019
 40
0.5312500000000023
 40
0.5312500000000023
 40
0.5625000000000028
 40
0.5625000000000028
 40
0.6250000000000036
 40
0.6250000000000036
 40
0.6562500000000036
 40
0.6562500000000036
 40
0.6875000000000036
 40
0.6875000000000036
 40
0.7500000000000036
 40
0.7500000000000036
 40
0.8125000000000037
 40
0.8125000000000037
 40
0.843750000000003
 40
0.843750000000003
 40
0.8750000000000023
 40
0.8750000000000023
 40
0.9375000000000012
 40
0.9375000000000012
 40
1.0
 40
1.0
 40
1.0
 40
1.0
 10
244.8184175356895
 20
122.7230681002603
 30
0.0
 10
244.8184175356895
 20
122.5907874258635
 30
0.0
 10
244.8200719643378
 20
122.4550182906705
 30
0.0
 10
244.8266687781043
 20
122.1877917235781
 30
0.0
 10
244.8414969411153
 20
121.7877743819165
 30
0.0
 10
244.8710408270147
 20
121.3902107107527
 30
0.0
 10
244.9496200349854
 20
120.5983333317685
 30
0.0
 10
245.0279597318493
 20
120.0747425238629
 30
0.0
 10
245.2366700765166
 20
119.0362364453054
 30
0.0
 10
245.3670342090356
 20
118.5213200883079
 30
0.0
 10
245.6811068549133
 20
117.5003819100789
 30
0.0
 10
245.865678507376
 20
116.9930604033586
 30
0.0
 10
246.4878524732877
 20
115.5177595483975
 30
0.0
 10
246.9959293488214
 20
114.5851194678994
 30
0.0
 10
247.8955491282267
 20
113.2611707142221
 30
0.0
 10
248.2197965985617
 20
112.8309158776485
 30
0.0
 10
248.9102534923603
 20
112.0034396610108
 30
0.0
 10
249.2734507042945
 20
111.6094933885825
 30
0.0
 10
250.4152488877332
 20
110.4851578787078
 30
0.0
 10
251.2455263288112
 20
109.8116880900842
 30
0.0
 10
252.5976282524838
 20
108.9189932675487
 30
0.0
 10
253.0657515163259
 20
108.6419310101804
 30
0.0
 10
254.0173822843702
 20
108.1396807721107
 30
0.0
 10
254.5033571216787
 20
107.91278398373
 30
0.0
 10
255.4954081793093
 20
107.5069283165057
 30
0.0
 10
256.0014854336853
 20
107.3279719036806
 30
0.0
 10
257.0340694490208
 20
107.0187794986534
 30
0.0
 10
257.5634378405792
 20
106.8880402144243
 30
0.0
 10
259.1611815520653
 20
106.5760161198464
 30
0.0
 10
260.2321025005676
 20
106.4743701609358
 30
0.0
 10
261.8466872316778
 20
106.4734321207365
 30
0.0
 10
262.3862560480609
 20
106.4984981297544
 30
0.0
 10
263.4682724915851
 20
106.6018073246844
 30
0.0
 10
264.0069175262205
 20
106.6799358778593
 30
0.0
 10
265.5936191425038
 20
106.989299032653
 30
0.0
 10
266.6217761609935
 20
107.2956663393895
 30
0.0
 10
268.1192734118697
 20
107.9063244435617
 30
0.0
 10
268.613559055919
 20
108.136735843318
 30
0.0
 10
269.5690680549746
 20
108.6407029811854
 30
0.0
 10
270.0311448130382
 20
108.9142307219404
 30
0.0
 10
271.3716688168057
 20
109.7976229750484
 30
0.0
 10
272.2048829358486
 20
110.4696463295321
 30
0.0
 10
273.7462392742136
 20
111.9855654050484
 30
0.0
 10
274.4307552697628
 20
112.8065854453858
 30
0.0
 10
275.3289967231721
 20
114.1249176014565
 30
0.0
 10
275.6070605383026
 20
114.5791799636773
 30
0.0
 10
276.1193696389649
 20
115.5181176382716
 30
0.0
 10
276.3542491056128
 20
116.0049048934951
 30
0.0
 10
276.977159943078
 20
117.4807083705569
 30
0.0
 10
277.2894885531613
 20
118.4931185585071
 30
0.0
 10
277.7107706170266
 20
120.5743239548962
 30
0.0
 10
277.8184175356886
 20
121.6496882732601
 30
0.0
 10
277.8184175356886
 20
122.7230680989058
 30
0.0
  0
SPLINE
  5
1C4
330
1F
100
AcDbEntity
  8
0
  6
Continuous
 62
     7
370
    25
100
AcDbSpline
210
0.0
220
0.0
230
1.0
 70
     8
 71
     3
 72
    58
 73
    54
 74
     0
 42
0.000000001
 43
0.00000001
 40
0.461214321383632
 40
0.461214321383632
 40
0.461214321383632
 40
0.461214321383632
 40
0.494159932028547
 40
0.5383241157902819
 40
0.5625
 40
0.5824916282160619
 40
0.59375
 40
0.594613775010972
 40
0.612357508018326
 40
0.625
 40
0.6313239019872591
 40
0.644580062035662
 40
0.65584916857915
 40
0.65625
 40
0.6798382867495729
 40
0.6875
 40
0.688247419348093
 40
0.71002255284539
 40
0.71875
 40
0.727592573798831
 40
0.740887516461703
 40
0.745294777897582
 40
0.75
 40
0.772290273383391
 40
0.78125
 40
0.79766005045267
 40
0.8125
 40
0.814227358369754
 40
0.831545959014574
 40
0.84375
 40
0.850093940379549
 40
0.875
 40
0.879514759506016
 40
0.879994333773086
 40
0.886497533653438
 40
0.90588757965786
 40
0.90625
 40
0.9300291347823569
 40
0.932771300684794
 40
0.933008612326013
 40
0.9375
 40
0.951274101283185
 40
0.953125
 40
0.957205446653664
 40
0.962624602807593
 40
0.967574439763556
 40
0.968441658349477
 40
0.96875
 40
0.978961104327972
 40
0.984375
 40
0.989480550317272
 40
0.994740273320118
 40
0.997295463601732
 40
0.997295463601732
 40
0.997295463601732
 40
0.997295463601732
 10
244.8184175518375
 20
172.9209707834477
 30
0.0
 10
244.8184175526459
 20
171.7047300760683
 30
0.0
 10
244.8184175545263
 20
168.8596524492097
 30
0.0
 10
244.8184175560837
 20
165.1143858282387
 30
0.0
 10
244.8184175610868
 20
161.8433001529236
 30
0.0
 10
244.8184175620176
 20
159.7945557634879
 30
0.0
 10
244.8184175604015
 20
158.5990218955174
 30
0.0
 10
244.8184175590282
 20
157.4885943138954
 30
0.0
 10
244.8184175579102
 20
156.3237534583375
 30
0.0
 10
244.8184175565159
 20
154.9458296022467
 30
0.0
 10
244.8184175553139
 20
153.7232135259949
 30
0.0
 10
244.8184175542177
 20
152.5440468723147
 30
0.0
 10
244.8184175533538
 20
151.5861296122111
 30
0.0
 10
244.8184175521518
 20
150.2317800706973
 30
0.0
 10
244.8184175511091
 20
149.0129686868351
 30
0.0
 10
244.818417550095
 20
147.7678654313407
 30
0.0
 10
244.8184175491484
 20
146.5964988528571
 30
0.0
 10
244.8184175481956
 20
145.3707331182841
 30
0.0
 10
244.8184175470433
 20
143.8200710138837
 30
0.0
 10
244.8184175461607
 20
142.6119249098695
 30
0.0
 10
244.8184175454242
 20
141.5655634016457
 30
0.0
 10
244.8184175448177
 20
140.6914253270432
 30
0.0
 10
244.8184175439785
 20
139.4535840775266
 30
0.0
 10
244.8184175430552
 20
138.0205991807673
 30
0.0
 10
244.8184175418963
 20
136.1461991399904
 30
0.0
 10
244.8184175409685
 20
134.5954335223503
 30
0.0
 10
244.8184175402687
 20
133.3697487152721
 30
0.0
 10
244.8184175395896
 20
132.1402409748037
 30
0.0
 10
244.8184175390068
 20
131.0405860290241
 30
0.0
 10
244.8184175384247
 20
129.8857168245497
 30
0.0
 10
244.8184175377871
 20
128.5902968803178
 30
0.0
 10
244.8184175373576
 20
127.6630301664217
 30
0.0
 10
244.8184175370636
 20
126.9867447964191
 30
0.0
 10
244.8184175369547
 20
126.7331276346885
 30
0.0
 10
244.818417536718
 20
126.1719987316713
 30
0.0
 10
244.8184175365279
 20
125.6907913556654
 30
0.0
 10
244.8184175362587
 20
124.9814990464571
 30
0.0
 10
244.8184175361273
 20
124.6094526047505
 30
0.0
 10
244.8184175360251
 20
124.2935349583286
 30
0.0
 10
244.8184175359974
 20
124.2069335851724
 30
0.0
 10
244.8184175359323
 20
123.9987055543173
 30
0.0
 10
244.8184175358753
 20
123.7958789012437
 30
0.0
 10
244.8184175358291
 20
123.6191460328487
 30
0.0
 10
244.8184175358046
 20
123.5219928321207
 30
0.0
 10
244.8184175357776
 20
123.4080286354151
 30
0.0
 10
244.8184175357597
 20
123.3255046733053
 30
0.0
 10
244.8184175357511
 20
123.2826968046275
 30
0.0
 10
244.8184175357355
 20
123.2039597751253
 30
0.0
 10
244.8184175357194
 20
123.1045088819966
 30
0.0
 10
244.8184175357039
 20
122.9776735411575
 30
0.0
 10
244.8184175356952
 20
122.8723728232263
 30
0.0
 10
244.8184175356911
 20
122.7896421368354
 30
0.0
 10
244.8184175356898
 20
122.7394747186193
 30
0.0
 10
244.8184175356895
 20
122.7230681002604
 30
0.0
  0
SPLINE
  5
1C5
330
1F
100
AcDbEntity
  8
0
  6
Continuous
 62
     7
370
    25
100
AcDbSpline
210
0.0
220
0.0
230
1.0
 70
     8
 71
     3
 72
    58
 73
    54
 74
     0
 42
0.000000001
 43
0.00000001
 40
0.461226380822953
 40
0.461226380822953
 40
0.461226380822953
 40
0.461226380822953
 40
0.494159932028547
 40
0.5383241157902819
 40
0.5625
 40
0.5824916282160619
 40
0.59375
 40
0.594613775010972
 40
0.612357508018326
 40
0.625
 40
0.6313239019872591
 40
0.644580062035662
 40
0.65584916857915
 40
0.65625
 40
0.6798382867495729
 40
0.6875
 40
0.688247419348093
 40
0.71002255284539
 40
0.71875
 40
0.727592573798831
 40
0.740887516461703
 40
0.745294777897582
 40
0.75
 40
0.772290273383391
 40
0.78125
 40
0.79766005045267
 40
0.8125
 40
0.814227358369754
 40
0.831545959014574
 40
0.84375
 40
0.850093940379549
 40
0.875
 40
0.879514759506016
 40
0.879994333773086
 40
0.886497533653438
 40
0.90588757965786
 40
0.90625
 40
0.9300291347823569
 40
0.932771300684794
 40
0.933008612326013
 40
0.9375
 40
0.951274101283185
 40
0.953125
 40
0.957205446653664
 40
0.962624602807593
 40
0.967574439763556
 40
0.968441658349477
 40
0.96875
 40
0.978961104327972
 40
0.984375
 40
0.989480550317272
 40
0.994740273320118
 40
0.997295394112398
 40
0.997295394112398
 40
0.997295394112398
 40
0.997295394112398
 10
277.8184175195398
 20
172.9209707834478
 30
0.0
 10
277.8184175187316
 20
171.7051507182032
 30
0.0
 10
277.8184175168516
 20
168.8605622991778
 30
0.0
 10
277.8184175152949
 20
165.1173187668196
 30
0.0
 10
277.8184175102913
 20
161.842827711521
 30
0.0
 10
277.8184175093606
 20
159.7925271646261
 30
0.0
 10
277.8184175109765
 20
158.5971837704957
 30
0.0
 10
277.8184175123502
 20
157.4868806855261
 30
0.0
 10
277.8184175134679
 20
156.3220305048089
 30
0.0
 10
277.8184175148622
 20
154.9441658982987
 30
0.0
 10
277.8184175160642
 20
153.7216067591203
 30
0.0
 10
277.8184175171604
 20
152.5424829106177
 30
0.0
 10
277.8184175180243
 20
151.5846040057383
 30
0.0
 10
277.8184175192263
 20
150.2303086426717
 30
0.0
 10
277.8184175202696
 20
149.0115457816117
 30
0.0
 10
277.8184175212832
 20
147.7664935020785
 30
0.0
 10
277.8184175222297
 20
146.5951754829041
 30
0.0
 10
277.8184175231826
 20
145.3694613264747
 30
0.0
 10
277.8184175243346
 20
143.8188671945065
 30
0.0
 10
277.8184175252174
 20
142.6107759664127
 30
0.0
 10
277.818417525954
 20
141.5644635379417
 30
0.0
 10
277.8184175265604
 20
140.6903683751353
 30
0.0
 10
277.8184175273996
 20
139.4525883987973
 30
0.0
 10
277.8184175283226
 20
138.0196775943601
 30
0.0
 10
277.8184175294817
 20
136.1453824422997
 30
0.0
 10
277.8184175304098
 20
134.5947091398419
 30
0.0
 10
277.8184175311093
 20
133.3691025179207
 30
0.0
 10
277.8184175317883
 20
132.1396747757759
 30
0.0
 10
277.8184175323714
 20
131.0400930356151
 30
0.0
 10
277.8184175329535
 20
129.8853024773298
 30
0.0
 10
277.818417533591
 20
128.5899716370941
 30
0.0
 10
277.8184175340206
 20
127.6627681852149
 30
0.0
 10
277.8184175343146
 20
126.9865268145637
 30
0.0
 10
277.8184175344235
 20
126.7329259801817
 30
0.0
 10
277.81841753466
 20
126.1718326272885
 30
0.0
 10
277.8184175348503
 20
125.6906541200025
 30
0.0
 10
277.8184175351194
 20
124.9814027537183
 30
0.0
 10
277.8184175352507
 20
124.6093763945731
 30
0.0
 10
277.8184175353531
 20
124.2934745925651
 30
0.0
 10
277.8184175353807
 20
124.2068775168124
 30
0.0
 10
277.8184175354459
 20
123.9986596340871
 30
0.0
 10
277.8184175355029
 20
123.7958420621327
 30
0.0
 10
277.8184175355491
 20
123.6191167802801
 30
0.0
 10
277.8184175355735
 20
123.5219676571799
 30
0.0
 10
277.8184175356005
 20
123.4080080282677
 30
0.0
 10
277.8184175356184
 20
123.3254874412087
 30
0.0
 10
277.8184175356271
 20
123.2826810619497
 30
0.0
 10
277.8184175356426
 20
123.2039466499996
 30
0.0
 10
277.8184175356588
 20
123.1044975972942
 30
0.0
 10
277.8184175356743
 20
122.9776656463574
 30
0.0
 10
277.818417535683
 20
122.8723676731655
 30
0.0
 10
277.8184175356871
 20
122.789639531191
 30
0.0
 10
277.8184175356884
 20
122.7394738489595
 30
0.0
 10
277.8184175356886
 20
122.7230680989058
 30
0.0
  0
LINE
  5
1C6
330
1F
100
AcDbEntity
  8
0
  6
Continuous
 62
     7
370
    25
100
AcDbLine
 10
170.0184143051
 20
255.6709707836
 30
0.0
 11
202.6184185311
 21
255.6709707836
 31
0.0
  0
LINE
  5
1C7
330
1F
100
AcDbEntity
  8
0
  6
Continuous
 62
     7
370
    25
100
AcDbLine
 10
320.0184165403
 20
255.6709707836
 30
0.0
 11
352.6184207663
 21
255.6709707836
 31
0.0
  0
LINE
  5
1C8
330
1F
100
AcDbEntity
  8
0
  6
Continuous
 62
     7
370
    25
100
AcDbLine
 10
244.8184176251
 20
197.603067861
 30
0.0
 11
277.8184174463
 21
197.603067861
 31
0.0
  0
LINE
  5
1C9
330
1F
100
AcDbEntity
  8
0
  6
Continuous
 62
     7
370
    25
100
AcDbLine
 10
202.1184175178
 20
197.1709714392
 30
0.0
 11
170.5184153184
 21
197.1709714392
 31
0.0
  0
LINE
  5
1CA
330
1F
100
AcDbEntity
  8
0
  6
Continuous
 62
     7
370
    25
100
AcDbLine
 10
352.118419753
 20
197.1709714392
 30
0.0
 11
320.5184175536
 21
197.1709714392
 31
0.0
  0
LINE
  5
1CB
330
1F
100
AcDbEntity
  8
0
  6
Continuous
 62
     7
370
    25
100
AcDbLine
 10
320.0184165403
 20
201.6709693829
 30
0.0
 11
352.6184207663
 21
201.6709693829
 31
0.0
  0
LINE
  5
1CC
330
1F
100
AcDbEntity
  8
0
  6
Continuous
 62
     7
370
    25
100
AcDbLine
 10
202.6184185311
 20
201.6709693829
 30
0.0
 11
170.0184143051
 21
201.6709693829
 31
0.0
  0
LINE
  5
1CD
330
1F
100
AcDbEntity
  8
0
  6
Continuous
 62
     7
370
    25
100
AcDbLine
 10
191.8861812815
 20
273.6709700087
 30
0.0
 11
191.8861812815
 21
256.6709708311
 31
0.0
  0
LINE
  5
1CE
330
1F
100
AcDbEntity
  8
0
  6
Continuous
 62
     7
370
    25
100
AcDbLine
 10
202.3184171781
 20
273.6709700087
 30
0.0
 11
191.8861812815
 21
273.6709700087
 31
0.0
  0
LINE
  5
1CF
330
1F
100
AcDbEntity
  8
0
  6
Continuous
 62
     7
370
    25
100
AcDbLine
 10
202.3184171781
 20
256.6709708311
 30
0.0
 11
191.8861812815
 21
256.6709708311
 31
0.0
  0
LINE
  5
1D0
330
1F
100
AcDbEntity
  8
0
  6
Continuous
 62
     7
370
    25
100
AcDbLine
 10
330.7506537899
 20
273.6709700087
 30
0.0
 11
320.3184178933
 21
273.6709700087
 31
0.0
  0
LINE
  5
1D1
330
1F
100
AcDbEntity
  8
0
  6
Continuous
 62
     7
370
    25
100
AcDbLine
 10
330.7506537899
 20
256.6709708311
 30
0.0
 11
330.7506537899
 21
273.6709700087
 31
0.0
  0
LINE
  5
1D2
330
1F
100
AcDbEntity
  8
0
  6
Continuous
 62
     7
370
    25
100
AcDbLine
 10
330.7506537899
 20
256.6709708311
 30
0.0
 11
320.3184178933
 21
256.6709708311
 31
0.0
  0
LINE
  5
1D3
330
1F
100
AcDbEntity
  8
0
  6
Continuous
 62
     7
370
    25
100
AcDbLine
 10
352.3184156879
 20
256.6709708311
 30
0.0
 11
341.8861797914
 21
256.6709708311
 31
0.0
  0
LINE
  5
1D4
330
1F
100
AcDbEntity
  8
0
  6
Continuous
 62
     7
370
    25
100
AcDbLine
 10
341.8861797914
 20
273.6709700087
 30
0.0
 11
341.8861797914
 21
256.6709708311
 31
0.0
  0
LINE
  5
1D5
330
1F
100
AcDbEntity
  8
0
  6
Continuous
 62
     7
370
    25
100
AcDbLine
 10
352.3184156879
 20
273.6709700087
 30
0.0
 11
341.8861797914
 21
273.6709700087
 31
0.0
  0
LINE
  5
1D6
330
1F
100
AcDbEntity
  8
0
  6
Continuous
 62
     7
370
    25
100
AcDbLine
 10
180.75065528
 20
256.6709708311
 30
0.0
 11
180.75065528
 21
273.6709700087
 31
0.0
  0
LINE
  5
1D7
330
1F
100
AcDbEntity
  8
0
  6
Continuous
 62
     7
370
    25
100
AcDbLine
 10
191.8861812815
 20
256.6709708311
 30
0.0
 11
180.75065528
 21
256.6709708311
 31
0.0
  0
LINE
  5
1D8
330
1F
100
AcDbEntity
  8
0
  6
Continuous
 62
     7
370
    25
100
AcDbLine
 10
180.75065528
 20
273.6709700087
 30
0.0
 11
191.8861812815
 21
273.6709700087
 31
0.0
  0
LINE
  5
1D9
330
1F
100
AcDbEntity
  8
0
  6
Continuous
 62
     7
370
    25
100
AcDbLine
 10
341.8861797914
 20
256.6709708311
 30
0.0
 11
330.7506537899
 21
256.6709708311
 31
0.0
  0
LINE
  5
1DA
330
1F
100
AcDbEntity
  8
0
  6
Continuous
 62
     7
370
    25
100
AcDbLine
 10
330.7506537899
 20
273.6709700087
 30
0.0
 11
341.8861797914
 21
273.6709700087
 31
0.0
  0
LINE
  5
1DB
330
1F
100
AcDbEntity
  8
0
  6
Continuous
 62
     7
370
    25
100
AcDbLine
 10
180.75065528
 20
256.6709708311
 30
0.0
 11
170.3184193834
 21
256.6709708311
 31
0.0
  0
LINE
  5
1DC
330
1F
100
AcDbEntity
  8
0
  6
Continuous
 62
     7
370
    25
100
AcDbLine
 10
180.75065528
 20
273.6709700087
 30
0.0
 11
170.3184193834
 21
273.6709700087
 31
0.0
  0
LINE
  5
1DD
330
1F
100
AcDbEntity
  8
0
  6
Continuous
 62
     7
370
    25
100
AcDbLine
 10
340.0184160933
 20
189.8709670762
 30
0.0
 11
347.818414019
 21
189.8709670762
 31
0.0
  0
LINE
  5
1DE
330
1F
100
AcDbEntity
  8
0
  6
Continuous
 62
     7
370
    25
100
AcDbLine
 10
324.8184195622
 20
189.8709670762
 30
0.0
 11
332.618417488
 21
189.8709670762
 31
0.0
  0
LINE
  5
1DF
330
1F
100
AcDbEntity
  8
0
  6
Continuous
 62
     7
370
    25
100
AcDbLine
 10
190.0184175834
 20
189.8709670762
 30
0.0
 11
197.8184155091
 21
189.8709670762
 31
0.0
  0
LINE
  5
1E0
330
1F
100
AcDbEntity
  8
0
  6
Continuous
 62
     7
370
    25
100
AcDbLine
 10
174.8184210524
 20
189.8709670762
 30
0.0
 11
182.6184189781
 21
189.8709670762
 31
0.0
  0
LINE
  5
1E1
330
1F
100
AcDbEntity
  8
0
  6
Continuous
 62
     7
370
    25
100
AcDbLine
 10
332.618417488
 20
180.8709711889
 30
0.0
 11
324.8184195622
 21
180.8709711889
 31
0.0
  0
LINE
  5
1E2
330
1F
100
AcDbEntity
  8
0
  6
Continuous
 62
     7
370
    25
100
AcDbLine
 10
182.6184189781
 20
180.8709711889
 30
0.0
 11
174.8184210524
 21
180.8709711889
 31
0.0
  0
LINE
  5
1E3
330
1F
100
AcDbEntity
  8
0
  6
Continuous
 62
     7
370
    25
100
AcDbLine
 10
197.8184155091
 20
180.8709711889
 30
0.0
 11
190.0184175834
 21
180.8709711889
 31
0.0
  0
LINE
  5
1E4
330
1F
100
AcDbEntity
  8
0
  6
Continuous
 62
     7
370
    25
100
AcDbLine
 10
347.818414019
 20
180.8709711889
 30
0.0
 11
340.0184160933
 21
180.8709711889
 31
0.0
  0
ELLIPSE
  5
1E5
330
1F
100
AcDbEntity
  8
0
  6
Continuous
 62
     7
370
    25
100
AcDbEllipse
 10
255.2355748232
 20
173.3209707836
 30
0.0
 11
0.0
 21
0.2000000000000171
 31
0.0
210
0.0
220
0.0
230
1.0
 40
0.4142135624
 41
3.141592653589793
 42
4.712388980384695
  0
ELLIPSE
  5
1E6
330
1F
100
AcDbEntity
  8
0
  6
Continuous
 62
     7
370
    25
100
AcDbEllipse
 10
267.4012602482
 20
173.3209707836
 30
0.0
 11
0.0
 21
0.2000000000000171
 31
0.0
210
0.0
220
0.0
230
1.0
 40
0.4142135624
 41
1.570796326794897
 42
3.141592653589793
  0
ARC
  5
1E7
330
1F
100
AcDbEntity
  8
0
  6
Continuous
 62
     7
370
    25
100
AcDbCircle
 10
248.6184175357
 20
173.3209707836
 30
0.0
 40
0.1999999999999886
100
AcDbArc
 50
270.0
 51
0.0
  0
ARC
  5
1E8
330
1F
100
AcDbEntity
  8
0
  6
Continuous
 62
     7
370
    25
100
AcDbCircle
 10
274.0184175357
 20
173.3209707836
 30
0.0
 40
0.1999999999999886
100
AcDbArc
 50
180.0
 51
270.0
  0
ELLIPSE
  5
1E9
330
1F
100
AcDbEntity
  8
0
  6
Continuous
 62
     7
370
    25
100
AcDbEllipse
 10
267.2355748232
 20
197.4209707836
 30
0.0
 11
0.0
 21
0.1999999999999886
 31
0.0
210
0.0
220
0.0
230
1.0
 40
0.4142135624
 41
4.712388980384695
 42
5.856863147736743
  0
ELLIPSE
  5
1EA
330
1F
100
AcDbEntity
  8
0
  6
Continuous
 62
     7
370
    25
100
AcDbEllipse
 10
255.4012602482
 20
197.4209707836
 30
0.0
 11
0.0
 21
0.1999999999999886
 31
0.0
210
0.0
220
0.0
230
1.0
 40
0.4142135624
 41
0.4263221594423223
 42
1.570796326794897
  0
ARC
  5
1EB
330
1F
100
AcDbEntity
  8
0
  6
Continuous
 62
     7
370
    25
100
AcDbCircle
 10
273.6184175357
 20
197.4209707836
 30
0.0
 40
0.2000000000000455
100
AcDbArc
 50
0.0
 51
65.573539551
  0
ARC
  5
1EC
330
1F
100
AcDbEntity
  8
0
  6
Continuous
 62
     7
370
    25
100
AcDbCircle
 10
249.0184175357
 20
197.4209707836
 30
0.0
 40
0.2000000000000171
100
AcDbArc
 50
114.426460449
 51
180.0
  0
LINE
  5
1ED
330
1F
100
AcDbEntity
  8
0
  6
Continuous
 62
     7
370
    25
100
AcDbLine
 10
152.1184167727
 20
189.8709670762
 30
0.0
 11
174.8184210524
 21
189.8709670762
 31
0.0
  0
ARC
  5
1EE
330
1F
100
AcDbEntity
  8
0
  6
Continuous
 62
     7
370
    25
100
AcDbCircle
 10
302.1184175357
 20
189.0709707836
 30
0.0
 40
0.8000000000000682
100
AcDbArc
 50
90.0
 51
180.0
  0
LINE
  5
1EF
330
1F
100
AcDbEntity
  8
0
  6
Continuous
 62
     7
370
    25
100
AcDbLine
 10
347.818414019
 20
189.8709670762
 30
0.0
 11
370.5184182986
 21
189.8709670762
 31
0.0
  0
LINE
  5
1F0
330
1F
100
AcDbEntity
  8
0
  6
Continuous
 62
     7
370
    25
100
AcDbLine
 10
197.8184155091
 20
189.8709670762
 30
0.0
 11
220.5184160635
 21
189.8709670762
 31
0.0
  0
LINE
  5
1F1
330
1F
100
AcDbEntity
  8
0
  6
Continuous
 62
     7
370
    25
100
AcDbLine
 10
302.1184190079
 20
189.8709670762
 30
0.0
 11
324.8184195622
 21
189.8709670762
 31
0.0
  0
ARC
  5
1F2
330
1F
100
AcDbEntity
  8
0
  6
Continuous
 62
     7
370
    25
100
AcDbCircle
 10
152.1184175357
 20
189.0709707836
 30
0.0
 40
0.8000000000000114
100
AcDbArc
 50
90.0
 51
180.0
  0
ARC
  5
1F3
330
1F
100
AcDbEntity
  8
0
  6
Continuous
 62
     7
370
    25
100
AcDbCircle
 10
220.5184175357
 20
189.0709707836
 30
0.0
 40
0.8000000000000114
100
AcDbArc
 50
0.0
 51
90.0
  0
ARC
  5
1F4
330
1F
100
AcDbEntity
  8
0
  6
Continuous
 62
     7
370
    25
100
AcDbCircle
 10
370.5184175357
 20
189.0709707836
 30
0.0
 40
0.8000000000000114
100
AcDbArc
 50
0.0
 51
90.0
  0
LINE
  5
1F5
330
1F
100
AcDbEntity
  8
0
  6
Continuous
 62
     7
370
    25
100
AcDbLine
 10
151.3184181317
 20
181.6709698299
 30
0.0
 11
151.3184181317
 21
189.0709684352
 31
0.0
  0
LINE
  5
1F6
330
1F
100
AcDbEntity
  8
0
  6
Continuous
 62
     7
370
    25
100
AcDbLine
 10
301.3184166416
 20
181.6709698299
 30
0.0
 11
301.3184166416
 21
189.0709684352
 31
0.0
  0
LINE
  5
1F7
330
1F
100
AcDbEntity
  8
0
  6
Continuous
 62
     7
370
    25
100
AcDbLine
 10
221.3184184298
 20
189.0709684352
 30
0.0
 11
221.3184184298
 21
181.6709698299
 31
0.0
  0
LINE
  5
1F8
330
1F
100
AcDbEntity
  8
0
  6
Continuous
 62
     7
370
    25
100
AcDbLine
 10
371.3184169396
 20
189.0709684352
 30
0.0
 11
371.3184169396
 21
181.6709698299
 31
0.0
  0
LINE
  5
1F9
330
1F
100
AcDbEntity
  8
0
  6
Continuous
 62
     7
370
    25
100
AcDbLine
 10
324.8184195622
 20
180.8709711889
 30
0.0
 11
302.1184190079
 21
180.8709711889
 31
0.0
  0
LINE
  5
1FA
330
1F
100
AcDbEntity
  8
0
  6
Continuous
 62
     7
370
    25
100
AcDbLine
 10
174.8184210524
 20
180.8709711889
 30
0.0
 11
152.1184167727
 21
180.8709711889
 31
0.0
  0
ARC
  5
1FB
330
1F
100
AcDbEntity
  8
0
  6
Continuous
 62
     7
370
    25
100
AcDbCircle
 10
302.1184175357
 20
181.6709707836
 30
0.0
 40
0.8000000000000682
100
AcDbArc
 50
180.0
 51
270.0
  0
ARC
  5
1FC
330
1F
100
AcDbEntity
  8
0
  6
Continuous
 62
     7
370
    25
100
AcDbCircle
 10
370.5184175357
 20
181.6709707836
 30
0.0
 40
0.8000000000000114
100
AcDbArc
 50
270.0
 51
0.0
  0
ARC
  5
1FD
330
1F
100
AcDbEntity
  8
0
  6
Continuous
 62
     7
370
    25
100
AcDbCircle
 10
152.1184175357
 20
181.6709707836
 30
0.0
 40
0.8000000000000114
100
AcDbArc
 50
180.0
 51
270.0
  0
LINE
  5
1FE
330
1F
100
AcDbEntity
  8
0
  6
Continuous
 62
     7
370
    25
100
AcDbLine
 10
370.5184182986
 20
180.8709711889
 30
0.0
 11
347.818414019
 21
180.8709711889
 31
0.0
  0
LINE
  5
1FF
330
1F
100
AcDbEntity
  8
0
  6
Continuous
 62
     7
370
    25
100
AcDbLine
 10
220.5184160635
 20
180.8709711889
 30
0.0
 11
197.8184155091
 21
180.8709711889
 31
0.0
  0
ARC
  5
200
330
1F
100
AcDbEntity
  8
0
  6
Continuous
 62
     7
370
    25
100
AcDbCircle
 10
220.5184175357
 20
181.6709707836
 30
0.0
 40
0.8000000000000114
100
AcDbArc
 50
270.0
 51
0.0
  0
LINE
  5
201
330
1F
100
AcDbEntity
  8
0
  6
Continuous
 62
     8
370
    18
100
AcDbLine
 10
190.0184175834
 20
189.0709684352
 30
0.0
 11
190.0184175834
 21
189.8709670762
 31
0.0
  0
LINE
  5
202
330
1F
100
AcDbEntity
  8
0
  6
Continuous
 62
     8
370
    18
100
AcDbLine
 10
190.0184175834
 20
189.0709684352
 30
0.0
 11
190.8184162244
 21
189.0709684352
 31
0.0
  0
LINE
  5
203
330
1F
100
AcDbEntity
  8
0
  6
Continuous
 62
     8
370
    18
100
AcDbLine
 10
190.0184175834
 20
189.0709684352
 30
0.0
 11
182.6184189781
 21
189.0709684352
 31
0.0
  0
LINE
  5
204
330
1F
100
AcDbEntity
  8
0
  6
Continuous
 62
     8
370
    18
100
AcDbLine
 10
182.6184189781
 20
189.0709684352
 30
0.0
 11
182.6184189781
 21
189.8709670762
 31
0.0
  0
LINE
  5
205
330
1F
100
AcDbEntity
  8
0
  6
Continuous
 62
     8
370
    18
100
AcDbLine
 10
181.8184203371
 20
189.0709684352
 30
0.0
 11
182.6184189781
 21
189.0709684352
 31
0.0
  0
LINE
  5
206
330
1F
100
AcDbEntity
  8
0
  6
Continuous
 62
     8
370
    18
100
AcDbLine
 10
340.0184160933
 20
189.0709684352
 30
0.0
 11
340.8184147343
 21
189.0709684352
 31
0.0
  0
LINE
  5
207
330
1F
100
AcDbEntity
  8
0
  6
Continuous
 62
     8
370
    18
100
AcDbLine
 10
340.0184160933
 20
189.8709670762
 30
0.0
 11
340.0184160933
 21
189.0709684352
 31
0.0
  0
LINE
  5
208
330
1F
100
AcDbEntity
  8
0
  6
Continuous
 62
     8
370
    18
100
AcDbLine
 10
340.0184160933
 20
189.0709684352
 30
0.0
 11
332.618417488
 21
189.0709684352
 31
0.0
  0
LINE
  5
209
330
1F
100
AcDbEntity
  8
0
  6
Continuous
 62
     8
370
    18
100
AcDbLine
 10
332.618417488
 20
189.8709670762
 30
0.0
 11
332.618417488
 21
189.0709684352
 31
0.0
  0
LINE
  5
20A
330
1F
100
AcDbEntity
  8
0
  6
Continuous
 62
     8
370
    18
100
AcDbLine
 10
331.818418847
 20
189.0709684352
 30
0.0
 11
332.618417488
 21
189.0709684352
 31
0.0
  0
LINE
  5
20B
330
1F
100
AcDbEntity
  8
0
  6
Continuous
 62
     8
370
    18
100
AcDbLine
 10
190.0184175834
 20
181.6709698299
 30
0.0
 11
190.0184175834
 21
189.0709684352
 31
0.0
  0
LINE
  5
20C
330
1F
100
AcDbEntity
  8
0
  6
Continuous
 62
     8
370
    18
100
AcDbLine
 10
190.0184175834
 20
181.6709698299
 30
0.0
 11
190.8184162244
 21
181.6709698299
 31
0.0
  0
LINE
  5
20D
330
1F
100
AcDbEntity
  8
0
  6
Continuous
 62
     8
370
    18
100
AcDbLine
 10
332.618417488
 20
189.0709684352
 30
0.0
 11
332.618417488
 21
181.6709698299
 31
0.0
  0
LINE
  5
20E
330
1F
100
AcDbEntity
  8
0
  6
Continuous
 62
     8
370
    18
100
AcDbLine
 10
340.0184160933
 20
181.6709698299
 30
0.0
 11
340.0184160933
 21
189.0709684352
 31
0.0
  0
LINE
  5
20F
330
1F
100
AcDbEntity
  8
0
  6
Continuous
 62
     8
370
    18
100
AcDbLine
 10
332.618417488
 20
181.6709698299
 30
0.0
 11
340.0184160933
 21
181.6709698299
 31
0.0
  0
LINE
  5
210
330
1F
100
AcDbEntity
  8
0
  6
Continuous
 62
     8
370
    18
100
AcDbLine
 10
340.0184160933
 20
181.6709698299
 30
0.0
 11
340.8184147343
 21
181.6709698299
 31
0.0
  0
LINE
  5
211
330
1F
100
AcDbEntity
  8
0
  6
Continuous
 62
     8
370
    18
100
AcDbLine
 10
182.6184189781
 20
189.0709684352
 30
0.0
 11
182.6184189781
 21
181.6709698299
 31
0.0
  0
LINE
  5
212
330
1F
100
AcDbEntity
  8
0
  6
Continuous
 62
     8
370
    18
100
AcDbLine
 10
182.6184189781
 20
181.6709698299
 30
0.0
 11
190.0184175834
 21
181.6709698299
 31
0.0
  0
LINE
  5
213
330
1F
100
AcDbEntity
  8
0
  6
Continuous
 62
     8
370
    18
100
AcDbLine
 10
331.818418847
 20
181.6709698299
 30
0.0
 11
332.618417488
 21
181.6709698299
 31
0.0
  0
LINE
  5
214
330
1F
100
AcDbEntity
  8
0
  6
Continuous
 62
     8
370
    18
100
AcDbLine
 10
181.8184203371
 20
181.6709698299
 30
0.0
 11
182.6184189781
 21
181.6709698299
 31
0.0
  0
LINE
  5
215
330
1F
100
AcDbEntity
  8
0
  6
Continuous
 62
     8
370
    18
100
AcDbLine
 10
190.0184175834
 20
180.8709711889
 30
0.0
 11
190.0184175834
 21
181.6709698299
 31
0.0
  0
LINE
  5
216
330
1F
100
AcDbEntity
  8
0
  6
Continuous
 62
     8
370
    18
100
AcDbLine
 10
340.0184160933
 20
181.6709698299
 30
0.0
 11
340.0184160933
 21
180.8709711889
 31
0.0
  0
LINE
  5
217
330
1F
100
AcDbEntity
  8
0
  6
Continuous
 62
     8
370
    18
100
AcDbLine
 10
332.618417488
 20
181.6709698299
 30
0.0
 11
332.618417488
 21
180.8709711889
 31
0.0
  0
LINE
  5
218
330
1F
100
AcDbEntity
  8
0
  6
Continuous
 62
     8
370
    18
100
AcDbLine
 10
182.6184189781
 20
180.8709711889
 30
0.0
 11
182.6184189781
 21
181.6709698299
 31
0.0
  0
LWPOLYLINE
  5
219
330
1F
100
AcDbEntity
  8
0
  6
Continuous
 62
     8
370
    18
100
AcDbPolyline
 90
       15
 70
   128
 43
0.0
 10
186.3184145555
 20
224.5709714601
 10
188.1658307179
 20
226.7542784223
 10
189.9900159701
 20
228.9101281325
 10
191.7680225238
 20
231.0114116529
 10
193.4774986371
 20
233.031703637
 10
195.0969493851
 20
234.9455957422
 10
196.6059974298
 20
236.7290225932
 10
197.9856810435
 20
238.3595523546
 10
199.2186366483
 20
239.8166847536
 10
200.2893670365
 20
241.0820922935
 10
201.1844052836
 20
242.1398633281
 10
201.8924935624
 20
242.9766957769
 10
202.404728429
 20
243.5820647637
 10
202.7146688565
 20
243.9483585889
 10
202.8184181913
 20
244.0709709311
  0
SPLINE
  5
21A
330
1F
100
AcDbEntity
  8
0
  6
Continuous
 62
     8
370
    18
100
AcDbSpline
210
0.0
220
0.0
230
1.0
 70
     8
 71
     3
 72
    30
 73
    26
 74
     0
 42
0.000000001
 43
0.00000001
 40
0.0
 40
0.0
 40
0.0
 40
0.0
 40
0.0190078927057919
 40
0.0360152421448849
 40
0.0510220381444231
 40
0.0640282728083759
 40
0.0750339411471229
 40
0.1144895742373679
 40
0.149645561384042
 40
0.2273560327323426
 40
0.2959663549005792
 40
0.3690675834404223
 40
0.4359805771861376
 40
0.5671891271486769
 40
0.6299105856402409
 40
0.6884057365470537
 40
0.7456316927884545
 40
0.7994814944030381
 40
0.8519302530883234
 40
0.9021309516874519
 40
0.9219997691318708
 40
0.9416811266043597
 40
0.9612145516132521
 40
0.9806404747186402
 40
1.0
 40
1.0
 40
1.0
 40
1.0
 10
186.318417535689
 20
224.5709707835807
 30
0.0
 10
186.4550856691616
 20
224.4094749006889
 30
0.0
 10
186.7140378842594
 20
224.103480258475
 30
0.0
 10
187.0808255445389
 20
223.6701130263006
 30
0.0
 10
187.4042836463834
 20
223.2878380580575
 30
0.0
 10
187.6844317430338
 20
222.956653770518
 30
0.0
 10
188.1398821294967
 20
222.4182746111861
 30
0.0
 10
188.7536757670117
 20
221.693074681029
 30
0.0
 10
189.8418382891944
 20
220.4067648809938
 30
0.0
 10
191.1311737346743
 20
218.8839655908349
 30
0.0
 10
192.6681534734995
 20
217.0664232787782
 30
0.0
 10
194.1043661816528
 20
215.3698539227628
 30
0.0
 10
195.9232504046937
 20
213.2195717772752
 30
0.0
 10
197.5946986847939
 20
211.2443540178531
 30
0.0
 10
199.07607191694
 20
209.4939609637289
 30
0.0
 10
200.0463129841237
 20
208.3469912882095
 30
0.0
 10
200.8791516618817
 20
207.3630263357518
 30
0.0
 10
201.5772144672387
 20
206.5377566810045
 30
0.0
 10
202.1261594682762
 20
205.8892624655202
 30
0.0
 10
202.4471804101897
 20
205.5096701137633
 30
0.0
 10
202.619257242585
 20
205.306371653775
 30
0.0
 10
202.7083759019532
 20
205.2010975511099
 30
0.0
 10
202.7715411902251
 20
205.1264496989705
 30
0.0
 10
202.8110880662756
 20
205.0796609044776
 30
0.0
 10
202.8159771691456
 20
205.0738641826931
 30
0.0
 10
202.8184175356891
 20
205.0709707835807
 30
0.0
  0
LINE
  5
21B
330
1F
100
AcDbEntity
  8
0
  6
Continuous
 62
     8
370
    18
100
AcDbLine
 10
202.8184181913
 20
255.4709707886
 30
0.0
 11
169.8184183702
 21
255.4709707886
 31
0.0
  0
LWPOLYLINE
  5
21C
330
1F
100
AcDbEntity
  8
0
  6
Continuous
 62
     8
370
    18
100
AcDbPolyline
 90
       16
 70
   128
 43
0.0
 10
205.8184168204
 20
241.0709704394
 10
205.8184168204
 20
241.0709704394
 10
205.6958063408
 20
240.9672220359
 10
205.329513447
 20
240.6572816083
 10
204.7241425976
 20
240.1450458104
 10
203.8873120114
 20
239.4369566003
 10
202.8295381829
 20
238.5419202158
 10
201.5641315743
 20
237.4711898277
 10
200.1069991752
 20
236.2382323602
 10
198.4764656886
 20
234.8585524717
 10
196.6930425629
 20
233.3495007018
 10
194.7791523203
 20
231.7300518165
 10
192.7588603362
 20
230.0205757031
 10
190.6575730905
 20
228.2425654242
 10
188.501725243
 20
226.4183838973
 10
186.3184145555
 20
224.5709714601
  0
LWPOLYLINE
  5
21D
330
1F
100
AcDbEntity
  8
0
  6
Continuous
 62
     8
370
    18
100
AcDbPolyline
 90
       15
 70
   128
 43
0.0
 10
336.3184205159
 20
224.5709714601
 10
334.1351098284
 20
226.4183838973
 10
331.9792619809
 20
228.2425654242
 10
329.8779747352
 20
230.0205757031
 10
327.8576827511
 20
231.7300518165
 10
325.9437925085
 20
233.3495007018
 10
324.1603693828
 20
234.8585524717
 10
322.5298358962
 20
236.2382323602
 10
321.0727034971
 20
237.4711898277
 10
319.8072968885
 20
238.5419202158
 10
318.74952306
 20
239.4369566003
 10
317.9126924738
 20
240.1450458104
 10
317.3073216244
 20
240.6572816083
 10
316.9410287305
 20
240.9672220359
 10
316.8184182509
 20
241.0709704394
  0
LWPOLYLINE
  5
21E
330
1F
100
AcDbEntity
  8
0
  6
Continuous
 62
     8
370
    18
100
AcDbPolyline
 90
       15
 70
   128
 43
0.0
 10
316.8184182509
 20
208.0709696869
 10
316.9410287305
 20
208.1747190217
 10
317.3073216244
 20
208.4846594492
 10
317.9126924738
 20
208.9968943158
 10
318.74952306
 20
209.7049863199
 10
319.8072968885
 20
210.6000208417
 10
321.0727034971
 20
211.6707512299
 10
322.5298358962
 20
212.90371056
 10
324.1603693828
 20
214.2833904484
 10
325.9437925085
 20
215.7924422184
 10
327.8576827511
 20
217.4118892411
 10
329.8779747352
 20
219.1213653544
 10
331.9792619809
 20
220.8993756333
 10
334.1351098284
 20
222.7235571602
 10
336.3184205159
 20
224.5709714601
  0
SPLINE
  5
21F
330
1F
100
AcDbEntity
  8
0
  6
Continuous
 62
     8
370
    18
100
AcDbSpline
210
0.0
220
0.0
230
1.0
 70
     8
 71
     3
 72
    30
 73
    26
 74
     0
 42
0.000000001
 43
0.00000001
 40
0.0
 40
0.0
 40
0.0
 40
0.0
 40
0.0190206124337398
 40
0.0360343174113595
 40
0.0510411046702627
 40
0.0640409662377765
 40
0.0750338970631131
 40
0.1144741615836189
 40
0.1496455620662709
 40
0.2273560357726325
 40
0.2959663554650525
 40
0.3690675862229633
 40
0.4359805776380014
 40
0.5671891274950982
 40
0.6299105879091759
 40
0.6884057367963599
 40
0.7456316947925731
 40
0.7994814945633305
 40
0.8519302548710089
 40
0.9021309517657515
 40
0.9219997702164356
 40
0.9416811281857476
 40
0.961214553178942
 40
0.9806404757561162
 40
1.0
 40
1.0
 40
1.0
 40
1.0
 10
186.318417535689
 20
224.5709707835808
 30
0.0
 10
186.4800215210591
 20
224.4342112270945
 30
0.0
 10
186.7861782930374
 20
224.1751219214989
 30
0.0
 10
187.2197079189028
 20
223.8081979758644
 30
0.0
 10
187.6019832881635
 20
223.4847412559729
 30
0.0
 10
187.9330060124335
 20
223.204731729183
 30
0.0
 10
188.4710939439999
 20
222.7495305914485
 30
0.0
 10
189.1961851140398
 20
222.1358259748413
 30
0.0
 10
190.4824927036236
 20
221.047657806447
 30
0.0
 10
192.0054231801728
 20
219.7582150883146
 30
0.0
 10
193.8229649613306
 20
218.2212346711005
 30
0.0
 10
195.5195344436411
 20
216.7850221567176
 30
0.0
 10
197.669816543355
 20
214.9661378808566
 30
0.0
 10
199.6450343186159
 20
213.2946896247353
 30
0.0
 10
201.3954273686901
 20
211.8133163905936
 30
0.0
 10
202.5423970541111
 20
210.8430753157925
 30
0.0
 10
203.5263619935113
 20
210.0102366489093
 30
0.0
 10
204.3516316542929
 20
209.312173838637
 30
0.0
 10
205.0001258592734
 20
208.7632288456979
 30
0.0
 10
205.3797182148041
 20
208.4422079032973
 30
0.0
 10
205.5830166678642
 20
208.2701310718722
 30
0.0
 10
205.6882907733582
 20
208.1810124118715
 30
0.0
 10
205.762938625686
 20
208.1178471255839
 30
0.0
 10
205.8097274188546
 20
208.0783002523016
 30
0.0
 10
205.8155241379548
 20
208.073411149872
 30
0.0
 10
205.8184175356891
 20
208.0709707835807
 30
0.0
  0
LWPOLYLINE
  5
220
330
1F
100
AcDbEntity
  8
0
  6
Continuous
 62
     8
370
    18
100
AcDbPolyline
 90
       15
 70
   128
 43
0.0
 10
261.3184175357
 20
224.5709714601
 10
263.5017247308
 20
222.7235571602
 10
265.657575605
 20
220.8993756333
 10
267.7588591255
 20
219.1213653544
 10
269.7791506439
 20
217.4118892411
 10
271.6930427491
 20
215.7924422184
 10
273.4764686688
 20
214.2833904484
 10
275.1069993615
 20
212.90371056
 10
276.5641317606
 20
211.6707512299
 10
277.8295393005
 20
210.6000208417
 10
278.8873112663
 20
209.7049863199
 10
279.7241418525
 20
208.9968943158
 10
280.3295127019
 20
208.4846594492
 10
280.6958055958
 20
208.1747190217
 10
280.818417938
 20
208.0709696869
  0
LWPOLYLINE
  5
221
330
1F
100
AcDbEntity
  8
0
  6
Continuous
 62
     8
370
    18
100
AcDbPolyline
 90
       15
 70
   128
 43
0.0
 10
241.8184171334
 20
208.0709696869
 10
241.9410294756
 20
208.1747190217
 10
242.3073223695
 20
208.4846594492
 10
242.9126932189
 20
208.9968943158
 10
243.749523805
 20
209.7049863199
 10
244.8072957709
 20
210.6000208417
 10
246.0727033108
 20
211.6707512299
 10
247.5298357099
 20
212.90371056
 10
249.1603664025
 20
214.2833904484
 10
250.9437923222
 20
215.7924422184
 10
252.8576844275
 20
217.4118892411
 10
254.8779759459
 20
219.1213653544
 10
256.9792594663
 20
220.8993756333
 10
259.1351103406
 20
222.7235571602
 10
261.3184175357
 20
224.5709714601
  0
LWPOLYLINE
  5
222
330
1F
100
AcDbEntity
  8
0
  6
Continuous
 62
     8
370
    18
100
AcDbPolyline
 90
       15
 70
   128
 43
0.0
 10
319.81841688
 20
244.0709709311
 10
319.9221662149
 20
243.9483585889
 10
320.2321066424
 20
243.5820647637
 10
320.744341509
 20
242.9766957769
 10
321.4524297878
 20
242.1398633281
 10
322.3474680349
 20
241.0820922935
 10
323.4181984231
 20
239.8166847536
 10
324.6511540278
 20
238.3595523546
 10
326.0308376416
 20
236.7290225932
 10
327.5398856863
 20
234.9455957422
 10
329.1593364343
 20
233.031703637
 10
330.8688125476
 20
231.0114116529
 10
332.6468191012
 20
228.9101281325
 10
334.4710043534
 20
226.7542784223
 10
336.3184205159
 20
224.5709714601
  0
LWPOLYLINE
  5
223
330
1F
100
AcDbEntity
  8
0
  6
Continuous
 62
     8
370
    18
100
AcDbPolyline
 90
       15
 70
   128
 43
0.0
 10
336.3184205159
 20
224.5709714601
 10
334.4710043534
 20
222.3876626352
 10
332.6468191012
 20
220.2318110624
 10
330.8688125476
 20
218.130527542
 10
329.1593364343
 20
216.1102392832
 10
327.5398856863
 20
214.1963453153
 10
326.0308376416
 20
212.4129184643
 10
324.6511540278
 20
210.782388703
 10
323.4181984231
 20
209.3252563039
 10
322.3474680349
 20
208.0598496953
 10
321.4524297878
 20
207.0020795921
 10
320.744341509
 20
206.1652452806
 10
320.2321066424
 20
205.5598781565
 10
319.9221662149
 20
205.1935815374
 10
319.81841688
 20
205.0709710578
  0
LWPOLYLINE
  5
224
330
1F
100
AcDbEntity
  8
0
  6
Continuous
 62
     8
370
    18
100
AcDbPolyline
 90
       15
 70
   128
 43
0.0
 10
261.3184175357
 20
224.5709714601
 10
259.4710037015
 20
222.3876626352
 10
257.6468221746
 20
220.2318110624
 10
255.868812827
 20
218.130527542
 10
254.1593357823
 20
216.1102392832
 10
252.539888294
 20
214.1963453153
 10
251.0308355927
 20
212.4129184643
 10
249.6511557042
 20
210.782388703
 10
248.4181982368
 20
209.3252563039
 10
247.3474678486
 20
208.0598496953
 10
246.4524314642
 20
207.0020795921
 10
245.7443422541
 20
206.1652452806
 10
245.2321073874
 20
205.5598781565
 10
244.9221669599
 20
205.1935815374
 10
244.8184176251
 20
205.0709710578
  0
LWPOLYLINE
  5
225
330
1F
100
AcDbEntity
  8
0
  6
Continuous
 62
     8
370
    18
100
AcDbPolyline
 90
       15
 70
   128
 43
0.0
 10
277.8184174463
 20
205.0709710578
 10
277.7146681115
 20
205.1935815374
 10
277.4047276839
 20
205.5598781565
 10
276.8924928173
 20
206.1652452806
 10
276.1844036072
 20
207.0020795921
 10
275.2893672228
 20
208.0598496953
 10
274.2186368346
 20
209.3252563039
 10
272.9856793672
 20
210.782388703
 10
271.6059994787
 20
212.4129184643
 10
270.0969467774
 20
214.1963453153
 10
268.477499289
 20
216.1102392832
 10
266.7680222444
 20
218.130527542
 10
264.9900128968
 20
220.2318110624
 10
263.1658313699
 20
222.3876626352
 10
261.3184175357
 20
224.5709714601
  0
LINE
  5
226
330
1F
100
AcDbEntity
  8
0
  6
Continuous
 62
     8
370
    18
100
AcDbLine
 10
347.818414019
 20
189.0709684352
 30
0.0
 11
340.8184147343
 21
189.0709684352
 31
0.0
  0
LINE
  5
227
330
1F
100
AcDbEntity
  8
0
  6
Continuous
 62
     8
370
    18
100
AcDbLine
 10
331.818418847
 20
189.0709684352
 30
0.0
 11
324.8184195622
 21
189.0709684352
 31
0.0
  0
LINE
  5
228
330
1F
100
AcDbEntity
  8
0
  6
Continuous
 62
     8
370
    18
100
AcDbLine
 10
197.8184155091
 20
189.0709684352
 30
0.0
 11
190.8184162244
 21
189.0709684352
 31
0.0
  0
LINE
  5
229
330
1F
100
AcDbEntity
  8
0
  6
Continuous
 62
     8
370
    18
100
AcDbLine
 10
181.8184203371
 20
189.0709684352
 30
0.0
 11
174.8184210524
 21
189.0709684352
 31
0.0
  0
LINE
  5
22A
330
1F
100
AcDbEntity
  8
0
  6
Continuous
 62
     8
370
    18
100
AcDbLine
 10
174.8184210524
 20
181.6709698299
 30
0.0
 11
181.8184203371
 21
181.6709698299
 31
0.0
  0
LINE
  5
22B
330
1F
100
AcDbEntity
  8
0
  6
Continuous
 62
     8
370
    18
100
AcDbLine
 10
324.8184195622
 20
181.6709698299
 30
0.0
 11
331.818418847
 21
181.6709698299
 31
0.0
  0
LINE
  5
22C
330
1F
100
AcDbEntity
  8
0
  6
Continuous
 62
     8
370
    18
100
AcDbLine
 10
340.8184147343
 20
181.6709698299
 30
0.0
 11
347.818414019
 21
181.6709698299
 31
0.0
  0
LINE
  5
22D
330
1F
100
AcDbEntity
  8
0
  6
Continuous
 62
     8
370
    18
100
AcDbLine
 10
190.8184162244
 20
181.6709698299
 30
0.0
 11
197.8184155091
 21
181.6709698299
 31
0.0
  0
LINE
  5
22E
330
1F
100
AcDbEntity
  8
0
  6
Continuous
 62
     8
370
    18
100
AcDbLine
 10
174.8184210524
 20
189.0709684352
 30
0.0
 11
152.1184167727
 21
189.0709684352
 31
0.0
  0
LINE
  5
22F
330
1F
100
AcDbEntity
  8
0
  6
Continuous
 62
     8
370
    18
100
AcDbLine
 10
152.1184167727
 20
189.0709684352
 30
0.0
 11
152.1184167727
 21
189.8709670762
 31
0.0
  0
LINE
  5
230
330
1F
100
AcDbEntity
  8
0
  6
Continuous
 62
     8
370
    18
100
AcDbLine
 10
302.1184190079
 20
189.8709670762
 30
0.0
 11
302.1184190079
 21
189.0709684352
 31
0.0
  0
LINE
  5
231
330
1F
100
AcDbEntity
  8
0
  6
Continuous
 62
     8
370
    18
100
AcDbLine
 10
301.3184166416
 20
189.0709684352
 30
0.0
 11
302.1184190079
 21
189.0709684352
 31
0.0
  0
LINE
  5
232
330
1F
100
AcDbEntity
  8
0
  6
Continuous
 62
     8
370
    18
100
AcDbLine
 10
370.5184182986
 20
189.0709684352
 30
0.0
 11
347.818414019
 21
189.0709684352
 31
0.0
  0
LINE
  5
233
330
1F
100
AcDbEntity
  8
0
  6
Continuous
 62
     8
370
    18
100
AcDbLine
 10
370.5184182986
 20
189.0709684352
 30
0.0
 11
370.5184182986
 21
189.8709670762
 31
0.0
  0
LINE
  5
234
330
1F
100
AcDbEntity
  8
0
  6
Continuous
 62
     8
370
    18
100
AcDbLine
 10
220.5184160635
 20
189.0709684352
 30
0.0
 11
197.8184155091
 21
189.0709684352
 31
0.0
  0
LINE
  5
235
330
1F
100
AcDbEntity
  8
0
  6
Continuous
 62
     8
370
    18
100
AcDbLine
 10
220.5184160635
 20
189.8709670762
 30
0.0
 11
220.5184160635
 21
189.0709684352
 31
0.0
  0
LINE
  5
236
330
1F
100
AcDbEntity
  8
0
  6
Continuous
 62
     8
370
    18
100
AcDbLine
 10
324.8184195622
 20
189.0709684352
 30
0.0
 11
302.1184190079
 21
189.0709684352
 31
0.0
  0
LINE
  5
237
330
1F
100
AcDbEntity
  8
0
  6
Continuous
 62
     8
370
    18
100
AcDbLine
 10
151.3184181317
 20
189.0709684352
 30
0.0
 11
152.1184167727
 21
189.0709684352
 31
0.0
  0
LINE
  5
238
330
1F
100
AcDbEntity
  8
0
  6
Continuous
 62
     8
370
    18
100
AcDbLine
 10
220.5184160635
 20
189.0709684352
 30
0.0
 11
221.3184184298
 21
189.0709684352
 31
0.0
  0
LINE
  5
239
330
1F
100
AcDbEntity
  8
0
  6
Continuous
 62
     8
370
    18
100
AcDbLine
 10
370.5184182986
 20
189.0709684352
 30
0.0
 11
371.3184169396
 21
189.0709684352
 31
0.0
  0
LINE
  5
23A
330
1F
100
AcDbEntity
  8
0
  6
Continuous
 62
     8
370
    18
100
AcDbLine
 10
152.1184167727
 20
189.0709684352
 30
0.0
 11
152.1184167727
 21
181.6709698299
 31
0.0
  0
LINE
  5
23B
330
1F
100
AcDbEntity
  8
0
  6
Continuous
 62
     8
370
    18
100
AcDbLine
 10
151.3184181317
 20
181.6709698299
 30
0.0
 11
152.1184167727
 21
181.6709698299
 31
0.0
  0
LINE
  5
23C
330
1F
100
AcDbEntity
  8
0
  6
Continuous
 62
     8
370
    18
100
AcDbLine
 10
302.1184190079
 20
189.0709684352
 30
0.0
 11
302.1184190079
 21
181.6709698299
 31
0.0
  0
LINE
  5
23D
330
1F
100
AcDbEntity
  8
0
  6
Continuous
 62
     8
370
    18
100
AcDbLine
 10
301.3184166416
 20
181.6709698299
 30
0.0
 11
302.1184190079
 21
181.6709698299
 31
0.0
  0
LINE
  5
23E
330
1F
100
AcDbEntity
  8
0
  6
Continuous
 62
     8
370
    18
100
AcDbLine
 10
220.5184160635
 20
181.6709698299
 30
0.0
 11
220.5184160635
 21
189.0709684352
 31
0.0
  0
LINE
  5
23F
330
1F
100
AcDbEntity
  8
0
  6
Continuous
 62
     8
370
    18
100
AcDbLine
 10
220.5184160635
 20
181.6709698299
 30
0.0
 11
221.3184184298
 21
181.6709698299
 31
0.0
  0
LINE
  5
240
330
1F
100
AcDbEntity
  8
0
  6
Continuous
 62
     8
370
    18
100
AcDbLine
 10
370.5184182986
 20
181.6709698299
 30
0.0
 11
370.5184182986
 21
189.0709684352
 31
0.0
  0
LINE
  5
241
330
1F
100
AcDbEntity
  8
0
  6
Continuous
 62
     8
370
    18
100
AcDbLine
 10
370.5184182986
 20
181.6709698299
 30
0.0
 11
371.3184169396
 21
181.6709698299
 31
0.0
  0
LINE
  5
242
330
1F
100
AcDbEntity
  8
0
  6
Continuous
 62
     8
370
    18
100
AcDbLine
 10
302.1184190079
 20
181.6709698299
 30
0.0
 11
324.8184195622
 21
181.6709698299
 31
0.0
  0
LINE
  5
243
330
1F
100
AcDbEntity
  8
0
  6
Continuous
 62
     8
370
    18
100
AcDbLine
 10
197.8184155091
 20
181.6709698299
 30
0.0
 11
220.5184160635
 21
181.6709698299
 31
0.0
  0
LINE
  5
244
330
1F
100
AcDbEntity
  8
0
  6
Continuous
 62
     8
370
    18
100
AcDbLine
 10
152.1184167727
 20
181.6709698299
 30
0.0
 11
174.8184210524
 21
181.6709698299
 31
0.0
  0
LINE
  5
245
330
1F
100
AcDbEntity
  8
0
  6
Continuous
 62
     8
370
    18
100
AcDbLine
 10
347.818414019
 20
181.6709698299
 30
0.0
 11
370.5184182986
 21
181.6709698299
 31
0.0
  0
LINE
  5
246
330
1F
100
AcDbEntity
  8
0
  6
Continuous
 62
     8
370
    18
100
AcDbLine
 10
302.1184190079
 20
181.6709698299
 30
0.0
 11
302.1184190079
 21
180.8709711889
 31
0.0
  0
LINE
  5
247
330
1F
100
AcDbEntity
  8
0
  6
Continuous
 62
     8
370
    18
100
AcDbLine
 10
152.1184167727
 20
180.8709711889
 30
0.0
 11
152.1184167727
 21
181.6709698299
 31
0.0
  0
LINE
  5
248
330
1F
100
AcDbEntity
  8
0
  6
Continuous
 62
     8
370
    18
100
AcDbLine
 10
370.5184182986
 20
181.6709698299
 30
0.0
 11
370.5184182986
 21
180.8709711889
 31
0.0
  0
LINE
  5
249
330
1F
100
AcDbEntity
  8
0
  6
Continuous
 62
     8
370
    18
100
AcDbLine
 10
220.5184160635
 20
181.6709698299
 30
0.0
 11
220.5184160635
 21
180.8709711889
 31
0.0
  0
SPLINE
  5
24A
330
1F
100
AcDbEntity
  8
0
  6
Continuous
 62
     7
370
    25
100
AcDbSpline
210
0.0
220
0.0
230
1.0
 70
     8
 71
     3
 72
    13
 73
     9
 74
     0
 42
0.000000001
 43
0.00000001
 40
0.0
 40
0.0
 40
0.0
 40
0.0
 40
0.239453422375188
 40
0.3683601873638758
 40
0.5000002012852419
 40
0.6316387142765731
 40
0.7605423469374109
 40
1.0
 40
1.0
 40
1.0
 40
1.0
 10
581.4824367740923
 20
440.315063187726
 30
0.0
 10
581.4195397881576
 20
440.3083840415386
 30
0.0
 10
581.322782993898
 20
440.2981092602613
 30
0.0
 10
581.2063745701928
 20
440.2357619081446
 30
0.0
 10
581.1262707435227
 20
440.1712304060288
 30
0.0
 10
581.0617423536493
 20
440.0911259043364
 30
0.0
 10
580.9993884066334
 20
439.9747209311421
 30
0.0
 10
580.9891167191956
 20
439.8779628095799
 30
0.0
 10
580.9824394861037
 20
439.8150640370922
 30
0.0
  0
SPLINE
  5
24B
330
1F
100
AcDbEntity
  8
0
  6
Continuous
 62
     7
370
    25
100
AcDbSpline
210
0.0
220
0.0
230
1.0
 70
     8
 71
     3
 72
    13
 73
     9
 74
     0
 42
0.000000001
 43
0.00000001
 40
0.0
 40
0.0
 40
0.0
 40
0.0
 40
0.2394580096889871
 40
0.3683591640471782
 40
0.5000003845873439
 40
0.631636408833469
 40
0.7605471130185486
 40
0.9999999999999999
 40
0.9999999999999999
 40
0.9999999999999999
 40
0.9999999999999999
 10
604.9824396947199
 20
439.8150640370922
 30
0.0
 10
604.9757599061004
 20
439.8779621857334
 30
0.0
 10
604.9654843619453
 20
439.9747186462238
 30
0.0
 10
604.9031381092489
 20
440.0911283995538
 30
0.0
 10
604.8386042165434
 20
440.1712275714116
 30
0.0
 10
604.7585039603211
 20
440.2357644046772
 30
0.0
 10
604.6420925527083
 20
440.2981075027445
 30
0.0
 10
604.5453352658001
 20
440.3083833956086
 30
0.0
 10
604.482438681441
 20
440.315063187726
 30
0.0
  0
LINE
  5
24C
330
1F
100
AcDbEntity
  8
0
  6
Continuous
 62
     7
370
    25
100
AcDbLine
 10
604.4824386814
 20
440.3150631877
 30
0.0
 11
597.4812845567
 21
440.3150631877
 31
0.0
  0
LINE
  5
24D
330
1F
100
AcDbEntity
  8
0
  6
Continuous
 62
     7
370
    25
100
AcDbLine
 10
588.4812886694
 20
440.3150631877
 30
0.0
 11
581.4824367741
 21
440.3150631877
 31
0.0
  0
LINE
  5
24E
330
1F
100
AcDbEntity
  8
0
  6
Continuous
 62
     7
370
    25
100
AcDbLine
 10
489.8812848011
 20
458.0345387402
 30
0.0
 11
477.6812831739
 21
458.0345387402
 31
0.0
  0
LINE
  5
24F
330
1F
100
AcDbEntity
  8
0
  6
Continuous
 62
     7
370
    25
100
AcDbLine
 10
477.6812831739
 20
388.0345384421
 30
0.0
 11
489.8812848011
 21
388.0345384421
 31
0.0
  0
ARC
  5
250
330
1F
100
AcDbEntity
  8
0
  6
Continuous
 62
     7
370
    25
100
AcDbCircle
 10
489.881284962
 20
388.8345385912
 30
0.0
 40
0.8000000000000114
100
AcDbArc
 50
270.0
 51
0.0
  0
ARC
  5
251
330
1F
100
AcDbEntity
  8
0
  6
Continuous
 62
     7
370
    25
100
AcDbCircle
 10
489.881284962
 20
457.2345385912
 30
0.0
 40
0.8000000000000114
100
AcDbArc
 50
0.0
 51
90.0
  0
ARC
  5
252
330
1F
100
AcDbEntity
  8
0
  6
Continuous
 62
     7
370
    25
100
AcDbCircle
 10
491.481284962
 20
396.6345385912
 30
0.0
 40
0.8000000000000114
100
AcDbArc
 50
90.0
 51
180.0
  0
ARC
  5
253
330
1F
100
AcDbEntity
  8
0
  6
Continuous
 62
     7
370
    25
100
AcDbCircle
 10
491.481284962
 20
449.4345385912
 30
0.0
 40
0.8000000000000114
100
AcDbArc
 50
180.0
 51
270.0
  0
LINE
  5
254
330
1F
100
AcDbEntity
  8
0
  6
Continuous
 62
     7
370
    25
100
AcDbLine
 10
502.8812850693
 20
448.6345379444
 30
0.0
 11
491.4812858084
 21
448.6345379444
 31
0.0
  0
LINE
  5
255
330
1F
100
AcDbEntity
  8
0
  6
Continuous
 62
     7
370
    25
100
AcDbLine
 10
491.4812858084
 20
397.4345392379
 30
0.0
 11
502.8812850693
 21
397.4345392379
 31
0.0
  0
ARC
  5
256
330
1F
100
AcDbEntity
  8
0
  6
Continuous
 62
     7
370
    25
100
AcDbCircle
 10
502.881284962
 20
398.2345385912
 30
0.0
 40
0.8000000000000114
100
AcDbArc
 50
270.0
 51
0.0
  0
ARC
  5
257
330
1F
100
AcDbEntity
  8
0
  6
Continuous
 62
     7
370
    25
100
AcDbCircle
 10
502.881284962
 20
447.8345385912
 30
0.0
 40
0.8000000000000682
100
AcDbArc
 50
0.0
 51
90.0
  0
LINE
  5
258
330
1F
100
AcDbEntity
  8
0
  6
Continuous
 62
     7
370
    25
100
AcDbLine
 10
553.7812842855
 20
406.5345386806
 30
0.0
 11
576.4812867025
 21
406.5345386806
 31
0.0
  0
LINE
  5
259
330
1F
100
AcDbEntity
  8
0
  6
Continuous
 62
     7
370
    25
100
AcDbLine
 10
522.881284957
 20
406.5345386806
 30
0.0
 11
553.7812842855
 21
406.5345386806
 31
0.0
  0
LINE
  5
25A
330
1F
100
AcDbEntity
  8
0
  6
Continuous
 62
     7
370
    25
100
AcDbLine
 10
553.7812842855
 20
439.5345385017
 30
0.0
 11
522.881284957
 21
439.5345385017
 31
0.0
  0
LINE
  5
25B
330
1F
100
AcDbEntity
  8
0
  6
Continuous
 62
     7
370
    25
100
AcDbLine
 10
576.4812867025
 20
439.5345385017
 30
0.0
 11
553.7812842855
 21
439.5345385017
 31
0.0
  0
ARC
  5
25C
330
1F
100
AcDbEntity
  8
0
  6
Continuous
 62
     7
370
    25
100
AcDbCircle
 10
522.881284962
 20
439.3345385912
 30
0.0
 40
0.1999999999999886
100
AcDbArc
 50
90.0
 51
180.0
  0
ARC
  5
25D
330
1F
100
AcDbEntity
  8
0
  6
Continuous
 62
     7
370
    25
100
AcDbCircle
 10
522.881284962
 20
406.7345385912
 30
0.0
 40
0.1999999999999886
100
AcDbArc
 50
180.0
 51
270.0
  0
LINE
  5
25E
330
1F
100
AcDbEntity
  8
0
  6
Continuous
 62
     7
370
    25
100
AcDbLine
 10
576.9812839905
 20
406.5345386806
 30
0.0
 11
580.4812836328
 21
406.5345386806
 31
0.0
  0
LINE
  5
25F
330
1F
100
AcDbEntity
  8
0
  6
Continuous
 62
     7
370
    25
100
AcDbLine
 10
580.4812836328
 20
439.5345385017
 30
0.0
 11
576.9812839905
 21
439.5345385017
 31
0.0
  0
ARC
  5
260
330
1F
100
AcDbEntity
  8
0
  6
Continuous
 62
     7
370
    25
100
AcDbCircle
 10
576.481284962
 20
406.7345385912
 30
0.0
 40
0.1999999999999886
100
AcDbArc
 50
270.0
 51
0.0
  0
ARC
  5
261
330
1F
100
AcDbEntity
  8
0
  6
Continuous
 62
     7
370
    25
100
AcDbCircle
 10
576.481284962
 20
439.3345385912
 30
0.0
 40
0.1999999999999886
100
AcDbArc
 50
360.0
 51
90.0
  0
ARC
  5
262
330
1F
100
AcDbEntity
  8
0
  6
Continuous
 62
     7
370
    25
100
AcDbCircle
 10
576.981284962
 20
406.8345385912
 30
0.0
 40
0.3000000000000114
100
AcDbArc
 50
180.0
 51
270.0
  0
ARC
  5
263
330
1F
100
AcDbEntity
  8
0
  6
Continuous
 62
     7
370
    25
100
AcDbCircle
 10
576.981284962
 20
439.2345385912
 30
0.0
 40
0.2999999999999545
100
AcDbArc
 50
90.0
 51
180.0
  0
ARC
  5
264
330
1F
100
AcDbEntity
  8
0
  6
Continuous
 62
     7
370
    25
100
AcDbCircle
 10
580.481284962
 20
438.8345385912
 30
0.0
 40
0.7000000000000455
100
AcDbArc
 50
0.0
 51
90.0
  0
ARC
  5
265
330
1F
100
AcDbEntity
  8
0
  6
Continuous
 62
     7
370
    25
100
AcDbCircle
 10
580.481284962
 20
407.2345385912
 30
0.0
 40
0.7000000000000455
100
AcDbArc
 50
270.0
 51
0.0
  0
LINE
  5
266
330
1F
100
AcDbEntity
  8
0
  6
Continuous
 62
     7
370
    25
100
AcDbLine
 10
504.6812857369
 20
436.2555389124
 30
0.0
 11
503.681285573
 21
436.2555389124
 31
0.0
  0
LINE
  5
267
330
1F
100
AcDbEntity
  8
0
  6
Continuous
 62
     7
370
    25
100
AcDbLine
 10
503.681285573
 20
409.8135382699
 30
0.0
 11
504.6812857369
 21
409.8135382699
 31
0.0
  0
LINE
  5
268
330
1F
100
AcDbEntity
  8
0
  6
Continuous
 62
     7
370
    25
100
AcDbLine
 10
522.681284962
 20
433.5345384496
 30
0.0
 11
521.6812849145
 21
433.5345384496
 31
0.0
  0
LINE
  5
269
330
1F
100
AcDbEntity
  8
0
  6
Continuous
 62
     7
370
    25
100
AcDbLine
 10
521.6812849145
 20
412.5345387327
 30
0.0
 11
522.681284962
 21
412.5345387327
 31
0.0
  0
ARC
  5
26A
330
1F
100
AcDbEntity
  8
0
  6
Continuous
 62
     7
370
    25
100
AcDbCircle
 10
588.081284962
 20
431.4345385912
 30
0.0
 40
0.3999999999999773
100
AcDbArc
 50
270.0
 51
0.0
  0
ARC
  5
26B
330
1F
100
AcDbEntity
  8
0
  6
Continuous
 62
     7
370
    25
100
AcDbCircle
 10
588.081284962
 20
414.6345385912
 30
0.0
 40
0.4000000000000341
100
AcDbArc
 50
0.0
 51
90.0
  0
LINE
  5
26C
330
1F
100
AcDbEntity
  8
0
  6
Continuous
 62
     7
370
    25
100
AcDbLine
 10
581.1812843064
 20
415.0345382112
 30
0.0
 11
588.0812818983
 21
415.0345382112
 31
0.0
  0
LINE
  5
26D
330
1F
100
AcDbEntity
  8
0
  6
Continuous
 62
     7
370
    25
100
AcDbLine
 10
588.0812818983
 20
431.0345389711
 30
0.0
 11
581.1812843064
 21
431.0345389711
 31
0.0
  0
ARC
  5
26E
330
1F
100
AcDbEntity
  8
0
  6
Continuous
 62
     7
370
    25
100
AcDbCircle
 10
639.6753060683
 20
394.7585597764
 30
0.0
 40
0.3000060267413334
100
AcDbArc
 50
191.684608194
 51
280.0002281506
  0
ARC
  5
26F
330
1F
100
AcDbEntity
  8
0
  6
Continuous
 62
     7
370
    25
100
AcDbCircle
 10
671.5830634715
 20
400.3847580729
 30
0.0
 40
0.3000036675714295
100
AcDbArc
 50
279.9992900616
 51
11.6831965299
  0
ARC
  5
270
330
1F
100
AcDbEntity
  8
0
  6
Continuous
 62
     7
370
    25
100
AcDbCircle
 10
605.4312849859
 20
439.3327151836
 30
0.0
 40
0.1999969492531972
100
AcDbArc
 50
92.4788788405
 51
180.1856621653
  0
LINE
  5
271
330
1F
100
AcDbEntity
  8
0
  6
Continuous
 62
     7
370
    25
100
AcDbLine
 10
580.7491878846
 20
439.5345385017
 30
0.0
 11
580.4812836328
 21
439.5345385017
 31
0.0
  0
LINE
  5
272
330
1F
100
AcDbEntity
  8
0
  6
Continuous
 62
     7
370
    25
100
AcDbLine
 10
576.9812839905
 20
439.5345385017
 30
0.0
 11
576.4812867025
 21
439.5345385017
 31
0.0
  0
LINE
  5
273
330
1F
100
AcDbEntity
  8
0
  6
Continuous
 62
     7
370
    25
100
AcDbLine
 10
576.4812867025
 20
406.5345386806
 30
0.0
 11
576.9812839905
 21
406.5345386806
 31
0.0
  0
LINE
  5
274
330
1F
100
AcDbEntity
  8
0
  6
Continuous
 62
     7
370
    25
100
AcDbLine
 10
580.4812836328
 20
406.5345386806
 30
0.0
 11
580.7414243797
 21
406.5345386806
 31
0.0
  0
SPLINE
  5
275
330
1F
100
AcDbEntity
  8
0
  6
Continuous
 62
     7
370
    25
100
AcDbSpline
210
0.0
220
0.0
230
1.0
 70
     8
 71
     3
 72
    25
 73
    21
 74
     0
 42
0.000000001
 43
0.00000001
 40
0.0
 40
0.0
 40
0.0
 40
0.0
 40
0.1129688590751439
 40
0.2202045069393503
 40
0.3056944791935509
 40
0.370510112776672
 40
0.4354093186716596
 40
0.4952352167974916
 40
0.5563911089133137
 40
0.61820222703217
 40
0.6800987564098028
 40
0.7151906837038411
 40
0.740686940753838
 40
0.762623973940449
 40
0.7884996689237695
 40
0.8315993541946335
 40
0.8605317681765212
 40
0.8937616447512223
 40
0.940252223831171
 40
1.0
 40
1.0
 40
1.0
 40
1.0
 10
606.9517697075182
 20
406.5362430008726
 30
0.0
 10
608.445787794111
 20
406.5372472955503
 30
0.0
 10
611.3580019990698
 20
406.5392049165811
 30
0.0
 10
615.4008193312987
 20
406.5361010213747
 30
0.0
 10
618.8068240116825
 20
406.5323184045387
 30
0.0
 10
621.6528845824826
 20
406.5354972727239
 30
0.0
 10
624.1596758922014
 20
406.5355393623087
 30
0.0
 10
626.6175827827246
 20
406.5221614163099
 30
0.0
 10
629.0364362001745
 20
406.5924056219142
 30
0.0
 10
631.4755332614737
 20
406.213745025509
 30
0.0
 10
633.419742876224
 20
405.3630793419871
 30
0.0
 10
634.7765957520968
 20
404.4714675709458
 30
0.0
 10
635.6097724993391
 20
403.7634445993702
 30
0.0
 10
636.2927901472474
 20
403.0741507114301
 30
0.0
 10
637.0619014086413
 20
402.1473368838483
 30
0.0
 10
637.744470996257
 20
401.0398705213985
 30
0.0
 10
638.3279309735185
 20
399.7732303434853
 30
0.0
 10
638.7464159419592
 20
398.3933613947934
 30
0.0
 10
639.0492963574006
 20
396.5721019891625
 30
0.0
 10
639.2942161090269
 20
395.1889136174555
 30
0.0
 10
639.4319574216181
 20
394.4110172631816
 30
0.0
  0
SPLINE
  5
276
330
1F
100
AcDbEntity
  8
0
  6
Continuous
 62
     7
370
    25
100
AcDbSpline
210
0.0
220
0.0
230
1.0
 70
     8
 71
     3
 72
    31
 73
    27
 74
     0
 42
0.000000001
 43
0.00000001
 40
0.0
 40
0.0
 40
0.0
 40
0.0
 40
0.0352090737290817
 40
0.079166853431753
 40
0.118835661687597
 40
0.1510959482909994
 40
0.1752048771062683
 40
0.2236114505389141
 40
0.2721500096808457
 40
0.3218421185539066
 40
0.3709019374234273
 40
0.4203999419774186
 40
0.475497323974907
 40
0.5154610003642753
 40
0.5558804545170049
 40
0.6002288793857281
 40
0.6456104456800755
 40
0.6843848935297014
 40
0.7052771348494371
 40
0.7251716404293171
 40
0.7532059156273899
 40
0.7900144953255084
 40
0.832888072582426
 40
0.8816589811164792
 40
0.93858135570936
 40
1.0
 40
1.0
 40
1.0
 40
1.0
 10
671.9306151250178
 20
400.1414078118877
 30
0.0
 10
671.7550642356073
 20
401.1542246487064
 30
0.0
 10
671.3603417944915
 20
403.4315217650862
 30
0.0
 10
670.7067741187078
 20
406.8414464971278
 30
0.0
 10
669.7948131182999
 20
410.1031441271023
 30
0.0
 10
668.8931608386678
 20
412.7597451425472
 30
0.0
 10
667.7448173102639
 20
415.5963780094716
 30
0.0
 10
666.1794874711741
 20
418.7724161616304
 30
0.0
 10
663.8992343829784
 20
422.4050508945664
 30
0.0
 10
661.2191772283771
 20
425.781629000573
 30
0.0
 10
658.1264491585142
 20
428.8241122538939
 30
0.0
 10
654.5921915876987
 20
431.6024428055906
 30
0.0
 10
650.9679884514677
 20
433.7896807922521
 30
0.0
 10
647.380604196294
 20
435.4665867573081
 30
0.0
 10
643.962258103214
 20
436.7342517019828
 30
0.0
 10
640.2997013115775
 20
437.7624725167702
 30
0.0
 10
636.6177921317575
 20
438.5008348212055
 30
0.0
 10
633.5778944043391
 20
438.9186396209078
 30
0.0
 10
631.2665492487718
 20
439.1527653399404
 30
0.0
 10
629.2629008569052
 20
439.3067686595689
 30
0.0
 10
626.7919430690991
 20
439.4373461929091
 30
0.0
 10
623.6476007019844
 20
439.5172496312844
 30
0.0
 10
619.8971038962508
 20
439.5445601226483
 30
0.0
 10
615.5593438866731
 20
439.5300633149332
 30
0.0
 10
610.6801145959506
 20
439.5240552994507
 30
0.0
 10
607.2248682113901
 20
439.5297782862634
 30
0.0
 10
605.4316053965861
 20
439.5327484997587
 30
0.0
  0
SPLINE
  5
277
330
1F
100
AcDbEntity
  8
0
  6
Continuous
 62
     7
370
    25
100
AcDbSpline
210
0.0
220
0.0
230
1.0
 70
     8
 71
     3
 72
    13
 73
     9
 74
     0
 42
0.000000001
 43
0.00000001
 40
0.0
 40
0.0
 40
0.0
 40
0.0
 40
0.0306684152489956
 40
0.2437931525464574
 40
0.4731585317121995
 40
0.6971839626786334
 40
0.8772735332634117
 40
1.0
 40
1.0
 40
1.0
 40
1.0
 10
604.9942190626437
 20
404.56398863519
 30
0.0
 10
604.9902116421567
 20
404.5952363565383
 30
0.0
 10
604.9583553605019
 20
404.8436346006452
 30
0.0
 10
605.1145535142326
 20
405.3275633505665
 30
0.0
 10
605.4707902247407
 20
405.9164946202798
 30
0.0
 10
606.0019979685483
 20
406.3152878108393
 30
0.0
 10
606.5161081766198
 20
406.5099508157959
 30
0.0
 10
606.8275617099808
 20
406.5229860473959
 30
0.0
 10
606.95378881486
 20
406.5282690169887
 30
0.0
  0
ARC
  5
278
330
1F
100
AcDbEntity
  8
0
  6
Continuous
 62
     7
370
    25
100
AcDbCircle
 10
581.281284962
 20
401.9845385912
 30
0.0
 40
0.3000000000000114
100
AcDbArc
 50
180.0
 51
270.0
  0
ARC
  5
279
330
1F
100
AcDbEntity
  8
0
  6
Continuous
 62
     7
370
    25
100
AcDbCircle
 10
604.681284962
 20
401.9845385912
 30
0.0
 40
0.3000000000000682
100
AcDbArc
 50
270.0
 51
0.0
  0
LINE
  5
27A
330
1F
100
AcDbEntity
  8
0
  6
Continuous
 62
     7
370
    25
100
AcDbLine
 10
604.9812848547
 20
401.9845380279
 30
0.0
 11
604.9812848547
 21
404.5594661328
 31
0.0
  0
LINE
  5
27B
330
1F
100
AcDbEntity
  8
0
  6
Continuous
 62
     7
370
    25
100
AcDbLine
 10
580.9812846461
 20
405.4777986201
 30
0.0
 11
580.9812846461
 21
401.9845380279
 31
0.0
  0
LINE
  5
27C
330
1F
100
AcDbEntity
  8
0
  6
Continuous
 62
     7
370
    25
100
AcDbLine
 10
668.1807528117
 20
395.4970436933
 30
0.0
 11
667.4996058324
 21
399.3600989523
 31
0.0
  0
LINE
  5
27D
330
1F
100
AcDbEntity
  8
0
  6
Continuous
 62
     7
370
    25
100
AcDbLine
 10
643.8642109612
 20
395.1925440523
 30
0.0
 11
644.5453728417
 21
391.3294869306
 31
0.0
  0
LINE
  5
27E
330
1F
100
AcDbEntity
  8
0
  6
Continuous
 62
     7
370
    25
100
AcDbLine
 10
604.7312880734
 20
388.6845382693
 30
0.0
 11
604.7312880734
 21
401.6845385375
 31
0.0
  0
LINE
  5
27F
330
1F
100
AcDbEntity
  8
0
  6
Continuous
 62
     7
370
    25
100
AcDbLine
 10
581.2312851528
 20
401.6845385375
 30
0.0
 11
581.2312851528
 21
388.6845382693
 31
0.0
  0
LINE
  5
280
330
1F
100
AcDbEntity
  8
0
  6
Continuous
 62
     7
370
    25
100
AcDbLine
 10
644.5453728417
 20
391.3294869306
 30
0.0
 11
645.6304381469
 21
390.9345577302
 31
0.0
  0
LINE
  5
281
330
1F
100
AcDbEntity
  8
0
  6
Continuous
 62
     7
370
    25
100
AcDbLine
 10
667.2962049821
 20
394.7548168542
 30
0.0
 11
668.1807528117
 21
395.4970436933
 31
0.0
  0
LINE
  5
282
330
1F
100
AcDbEntity
  8
0
  6
Continuous
 62
     7
370
    25
100
AcDbLine
 10
603.4787858704
 20
385.8845393004
 30
0.0
 11
602.6787872294
 21
386.6845379415
 31
0.0
  0
LINE
  5
283
330
1F
100
AcDbEntity
  8
0
  6
Continuous
 62
     7
370
    25
100
AcDbLine
 10
583.2837859968
 20
386.6845379415
 30
0.0
 11
582.4837836304
 21
385.8845393004
 31
0.0
  0
LINE
  5
284
330
1F
100
AcDbEntity
  8
0
  6
Continuous
 62
     7
370
    25
100
AcDbLine
 10
603.4787858704
 20
379.4845389965
 30
0.0
 11
603.4787858704
 21
385.8845393004
 31
0.0
  0
LINE
  5
285
330
1F
100
AcDbEntity
  8
0
  6
Continuous
 62
     7
370
    25
100
AcDbLine
 10
582.4837836304
 20
385.8845393004
 30
0.0
 11
582.4837836304
 21
379.4845389965
 31
0.0
  0
ARC
  5
286
330
1F
100
AcDbEntity
  8
0
  6
Continuous
 62
     7
370
    25
100
AcDbCircle
 10
602.731284962
 20
388.1845385912
 30
0.0
 40
0.5
100
AcDbArc
 50
90.0
 51
180.0
  0
ARC
  5
287
330
1F
100
AcDbEntity
  8
0
  6
Continuous
 62
     7
370
    25
100
AcDbCircle
 10
583.231284962
 20
388.1845385912
 30
0.0
 40
0.5
100
AcDbArc
 50
0.0
 51
90.0
  0
LINE
  5
288
330
1F
100
AcDbEntity
  8
0
  6
Continuous
 62
     7
370
    25
100
AcDbLine
 10
602.231283007
 20
386.6845379415
 30
0.0
 11
602.231283007
 21
388.184537256
 31
0.0
  0
LINE
  5
289
330
1F
100
AcDbEntity
  8
0
  6
Continuous
 62
     7
370
    25
100
AcDbLine
 10
583.7312864939
 20
388.184537256
 30
0.0
 11
583.7312864939
 21
386.6845379415
 31
0.0
  0
LINE
  5
28A
330
1F
100
AcDbEntity
  8
0
  6
Continuous
 62
     7
370
    25
100
AcDbLine
 10
582.4837836304
 20
379.4845389965
 30
0.0
 11
583.2837859968
 21
378.6845403555
 31
0.0
  0
LINE
  5
28B
330
1F
100
AcDbEntity
  8
0
  6
Continuous
 62
     7
370
    25
100
AcDbLine
 10
602.6787872294
 20
378.6845403555
 30
0.0
 11
603.4787858704
 21
379.4845389965
 31
0.0
  0
SPLINE
  5
28C
330
1F
100
AcDbEntity
  8
0
  6
Continuous
 62
     7
370
    25
100
AcDbSpline
210
0.0
220
0.0
230
1.0
 70
     8
 71
     3
 72
    10
 73
     6
 74
     0
 42
0.000000001
 43
0.00000001
 40
0.0
 40
0.0
 40
0.0
 40
0.0
 40
0.0180646370913135
 40
0.6047041225496836
 40
1.0
 40
1.0
 40
1.0
 40
1.0
 10
580.7377884963328
 20
406.5008695068435
 30
0.0
 10
580.7413648177013
 20
406.495669039329
 30
0.0
 10
580.8610802741593
 20
406.3215861541141
 30
0.0
 10
580.9759793299685
 20
405.9644641816553
 30
0.0
 10
580.9577485649853
 20
405.6176417809323
 30
0.0
 10
580.9504094401175
 20
405.4780221375303
 30
0.0
  0
SPLINE
  5
28D
330
1F
100
AcDbEntity
  8
0
  6
Continuous
 62
     7
370
    25
100
AcDbSpline
210
0.0
220
0.0
230
1.0
 70
    24
 71
     3
 72
     9
 73
     5
 74
     0
 42
0.000000001
 43
0.00000001
 40
0.0
 40
0.0
 40
0.0
 40
0.0
 40
0.1430528234769937
 40
1.0
 40
1.0
 40
1.0
 40
1.0
 10
580.9824394861037
 20
439.3167282285766
 30
0.0
 10
580.9824394861037
 20
439.3752418255115
 30
0.0
 10
580.9824394861037
 20
439.7842767226404
 30
0.0
 10
580.9824394861037
 20
439.8008562542722
 30
0.0
 10
580.9824394861037
 20
439.8150640370922
 30
0.0
  0
SPLINE
  5
28E
330
1F
100
AcDbEntity
  8
0
  6
Continuous
 62
     7
370
    25
100
AcDbSpline
210
0.0
220
0.0
230
1.0
 70
    24
 71
     3
 72
    33
 73
    29
 74
     0
 42
0.000000001
 43
0.00000001
 40
0.0
 40
0.0
 40
0.0
 40
0.0
 40
0.0139589707335429
 40
0.0279140104449297
 40
0.0418735465250845
 40
0.0558459982115376
 40
0.0849434795567758
 40
0.114058972112282
 40
0.1442574083670792
 40
0.1744737443494787
 40
0.2368350465025829
 40
0.3008703292268354
 40
0.3662277307912714
 40
0.432506218606492
 40
0.4992686918100651
 40
0.5660584905865573
 40
0.6324178382513562
 40
0.6979063954827325
 40
0.7621180855584424
 40
0.7934093693789066
 40
0.8247184080053772
 40
0.8550404119526706
 40
0.8853803900537911
 40
0.9083328275771693
 40
0.9312336386681532
 40
0.9541201753776194
 40
0.9770298595755966
 40
0.9999999999999999
 40
0.9999999999999999
 40
0.9999999999999999
 40
0.9999999999999999
 10
604.9824384620157
 20
439.8150637603811
 30
0.0
 10
604.9824384620157
 20
439.814111607488
 30
0.0
 10
604.9824384620157
 20
439.81220756984
 30
0.0
 10
604.9824384620157
 20
439.7967371544689
 30
0.0
 10
604.9824384620157
 20
439.7720257942278
 30
0.0
 10
604.9824384620157
 20
439.7246361904136
 30
0.0
 10
604.9824384620157
 20
439.638442550796
 30
0.0
 10
604.9824384620157
 20
439.489468236653
 30
0.0
 10
604.9824384620157
 20
439.294414923102
 30
0.0
 10
604.9824384620157
 20
438.9657926679325
 30
0.0
 10
604.9824384620157
 20
438.4286764722918
 30
0.0
 10
604.9824384620157
 20
437.5822123935295
 30
0.0
 10
604.9824384620157
 20
436.5321627313099
 30
0.0
 10
604.9824384620157
 20
435.2894896785399
 30
0.0
 10
604.9824384620157
 20
433.8737118997136
 30
0.0
 10
604.9824384620157
 20
432.312077954318
 30
0.0
 10
604.9824384620157
 20
430.6377801450624
 30
0.0
 10
604.9824384620157
 20
428.8879047433477
 30
0.0
 10
604.9824384620157
 20
427.3908243137117
 30
0.0
 10
604.9824384620157
 20
426.188908645336
 30
0.0
 10
604.9824384620157
 20
425.2994576239877
 30
0.0
 10
604.9824384620157
 20
424.4134015705071
 30
0.0
 10
604.9824384620157
 20
423.6049413477098
 30
0.0
 10
604.9824384620157
 20
422.8678570033312
 30
0.0
 10
604.9824384620157
 20
422.2035563830486
 30
0.0
 10
604.9824384620157
 20
421.5415768726001
 30
0.0
 10
604.9824384620157
 20
420.8814665651742
 30
0.0
 10
604.9824384620157
 20
420.4445826903544
 30
0.0
 10
604.9824384620157
 20
420.2258529101871
 30
0.0
  0
SPLINE
  5
28F
330
1F
100
AcDbEntity
  8
0
  6
Continuous
 62
     7
370
    25
100
AcDbSpline
210
0.0
220
0.0
230
1.0
 70
    24
 71
     3
 72
    20
 73
    16
 74
     0
 42
0.000000001
 43
0.00000001
 40
0.0
 40
0.0
 40
0.0
 40
0.0
 40
0.041437390979677
 40
0.082879819110854
 40
0.1243935048956143
 40
0.1660443289605338
 40
0.2078975243339009
 40
0.2500173837883011
 40
0.3749529676589045
 40
0.5000257238300186
 40
0.6243968299063621
 40
0.7499387302767645
 40
0.8333222127032631
 40
0.916529536568708
 40
1.0
 40
1.0
 40
1.0
 40
1.0
 10
604.9824384620157
 20
420.225852915261
 30
0.0
 10
604.9824384620157
 20
420.1800120930549
 30
0.0
 10
604.9824384620157
 20
420.0883248762077
 30
0.0
 10
604.9824384620157
 20
419.9421296260498
 30
0.0
 10
604.9824384620157
 20
419.7896909032514
 30
0.0
 10
604.9824384620157
 20
419.6303808969906
 30
0.0
 10
604.9824384620157
 20
419.464361205023
 30
0.0
 10
604.9824384620157
 20
419.178919958132
 30
0.0
 10
604.9824384620157
 20
418.7548982150246
 30
0.0
 10
604.9824384620157
 20
418.1710140803553
 30
0.0
 10
604.9824384620157
 20
417.5541234177477
 30
0.0
 10
604.9824384620157
 20
416.9844093678383
 30
0.0
 10
604.9824384620157
 20
416.4753107310876
 30
0.0
 10
604.9824384620157
 20
416.0348019787724
 30
0.0
 10
604.9824384620157
 20
415.7396447235886
 30
0.0
 10
604.9824384620157
 20
415.5918331088865
 30
0.0
  0
LINE
  5
290
330
1F
100
AcDbEntity
  8
0
  6
Continuous
 62
     7
370
    25
100
AcDbLine
 10
604.9824396947
 20
415.5918332579
 30
0.0
 11
604.9824396947
 21
413.8150635007
 31
0.0
  0
LINE
  5
291
330
1F
100
AcDbEntity
  8
0
  6
Continuous
 62
     7
370
    25
100
AcDbLine
 10
604.4824386814
 20
412.3150641861
 30
0.0
 11
597.4812845567
 21
412.3150641861
 31
0.0
  0
LINE
  5
292
330
1F
100
AcDbEntity
  8
0
  6
Continuous
 62
     7
370
    25
100
AcDbLine
 10
588.4812886694
 20
412.3150641861
 30
0.0
 11
581.4824367741
 21
412.3150641861
 31
0.0
  0
ARC
  5
293
330
1F
100
AcDbEntity
  8
0
  6
Continuous
 62
     7
370
    25
100
AcDbCircle
 10
604.482438462
 20
412.8150637489
 30
0.0
 40
0.4999999997889999
100
AcDbArc
 50
269.999998716
 51
0.0000059805
  0
LINE
  5
294
330
1F
100
AcDbEntity
  8
0
  6
Continuous
 62
     7
370
    25
100
AcDbLine
 10
604.9824396947
 20
412.8150633367
 30
0.0
 11
604.9824396947
 21
413.8150635007
 31
0.0
  0
ARC
  5
295
330
1F
100
AcDbEntity
  8
0
  6
Continuous
 62
     7
370
    25
100
AcDbCircle
 10
581.482438472
 20
412.8150637589
 30
0.0
 40
0.5000000116492127
100
AcDbArc
 50
232.9646959269
 51
270.000000138
  0
LINE
  5
296
330
1F
100
AcDbEntity
  8
0
  6
Continuous
 62
     7
370
    25
100
AcDbLine
 10
477.6812831739
 20
458.0345387402
 30
0.0
 11
477.6812831739
 21
388.0345384421
 31
0.0
  0
LINE
  5
297
330
1F
100
AcDbEntity
  8
0
  6
Continuous
 62
     7
370
    25
100
AcDbLine
 10
490.6812834421
 20
423.0345385912
 30
0.0
 11
490.6812834421
 21
388.8345370832
 31
0.0
  0
LINE
  5
298
330
1F
100
AcDbEntity
  8
0
  6
Continuous
 62
     7
370
    25
100
AcDbLine
 10
490.6812834421
 20
457.2345400992
 30
0.0
 11
490.6812834421
 21
423.0345385912
 31
0.0
  0
LINE
  5
299
330
1F
100
AcDbEntity
  8
0
  6
Continuous
 62
     7
370
    25
100
AcDbLine
 10
596.6812859157
 20
418.5345387849
 30
0.0
 11
589.2812873104
 21
418.5345387849
 31
0.0
  0
LINE
  5
29A
330
1F
100
AcDbEntity
  8
0
  6
Continuous
 62
     7
370
    25
100
AcDbLine
 10
589.2812873104
 20
427.5345383974
 30
0.0
 11
596.6812859157
 21
427.5345383974
 31
0.0
  0
ARC
  5
29B
330
1F
100
AcDbEntity
  8
0
  6
Continuous
 62
     7
370
    25
100
AcDbCircle
 10
589.281284962
 20
419.3345385912
 30
0.0
 40
0.8000000000000114
100
AcDbArc
 50
180.0
 51
270.0
  0
LINE
  5
29C
330
1F
100
AcDbEntity
  8
0
  6
Continuous
 62
     7
370
    25
100
AcDbLine
 10
588.4812886694
 20
419.33453859
 30
0.0
 11
588.4812886694
 21
426.7345385923
 31
0.0
  0
ARC
  5
29D
330
1F
100
AcDbEntity
  8
0
  6
Continuous
 62
     7
370
    25
100
AcDbCircle
 10
589.281284962
 20
426.7345385912
 30
0.0
 40
0.7999999999999545
100
AcDbArc
 50
90.0
 51
180.0
  0
ARC
  5
29E
330
1F
100
AcDbEntity
  8
0
  6
Continuous
 62
     7
370
    25
100
AcDbCircle
 10
596.681284962
 20
426.7345385912
 30
0.0
 40
0.8000000000000682
100
AcDbArc
 50
0.0
 51
90.0
  0
ARC
  5
29F
330
1F
100
AcDbEntity
  8
0
  6
Continuous
 62
     7
370
    25
100
AcDbCircle
 10
596.681284962
 20
419.3345385912
 30
0.0
 40
0.8000000000000682
100
AcDbArc
 50
270.0
 51
0.0
  0
LINE
  5
2A0
330
1F
100
AcDbEntity
  8
0
  6
Continuous
 62
     7
370
    25
100
AcDbLine
 10
597.4812845567
 20
426.7345385923
 30
0.0
 11
597.4812845567
 21
419.33453859
 31
0.0
  0
LINE
  5
2A1
330
1F
100
AcDbEntity
  8
0
  6
Continuous
 62
     7
370
    25
100
AcDbLine
 10
503.681285573
 20
423.0345385912
 30
0.0
 11
503.681285573
 21
398.2345378789
 31
0.0
  0
LINE
  5
2A2
330
1F
100
AcDbEntity
  8
0
  6
Continuous
 62
     7
370
    25
100
AcDbLine
 10
503.681285573
 20
447.8345393034
 30
0.0
 11
503.681285573
 21
423.0345385912
 31
0.0
  0
LINE
  5
2A3
330
1F
100
AcDbEntity
  8
0
  6
Continuous
 62
     7
370
    25
100
AcDbLine
 10
522.681284962
 20
406.7345383408
 30
0.0
 11
522.681284962
 21
439.3345388415
 31
0.0
  0
LINE
  5
2A4
330
1F
100
AcDbEntity
  8
0
  6
Continuous
 62
     7
370
    25
100
AcDbLine
 10
576.6812863627
 20
423.0345385912
 30
0.0
 11
576.6812863627
 21
406.7345383408
 31
0.0
  0
LINE
  5
2A5
330
1F
100
AcDbEntity
  8
0
  6
Continuous
 62
     7
370
    25
100
AcDbLine
 10
576.6812863627
 20
439.3345388415
 30
0.0
 11
576.6812863627
 21
423.0345385912
 31
0.0
  0
LINE
  5
2A6
330
1F
100
AcDbEntity
  8
0
  6
Continuous
 62
     7
370
    25
100
AcDbLine
 10
581.1812843064
 20
423.0345385912
 30
0.0
 11
581.1812843064
 21
407.2345393541
 31
0.0
  0
LINE
  5
2A7
330
1F
100
AcDbEntity
  8
0
  6
Continuous
 62
     7
370
    25
100
AcDbLine
 10
581.1812843064
 20
438.8345378282
 30
0.0
 11
581.1812843064
 21
423.0345385912
 31
0.0
  0
LINE
  5
2A8
330
1F
100
AcDbEntity
  8
0
  6
Continuous
 62
     7
370
    25
100
AcDbLine
 10
521.6812849145
 20
438.0345382559
 30
0.0
 11
504.6812857369
 21
438.0345382559
 31
0.0
  0
LINE
  5
2A9
330
1F
100
AcDbEntity
  8
0
  6
Continuous
 62
     7
370
    25
100
AcDbLine
 10
521.6812849145
 20
438.0345382559
 30
0.0
 11
521.6812849145
 21
408.0345389264
 31
0.0
  0
LINE
  5
2AA
330
1F
100
AcDbEntity
  8
0
  6
Continuous
 62
     7
370
    25
100
AcDbLine
 10
504.6812857369
 20
408.0345389264
 30
0.0
 11
521.6812849145
 21
408.0345389264
 31
0.0
  0
LINE
  5
2AB
330
1F
100
AcDbEntity
  8
0
  6
Continuous
 62
     7
370
    25
100
AcDbLine
 10
504.6812857369
 20
438.0345382559
 30
0.0
 11
504.6812857369
 21
408.0345389264
 31
0.0
  0
LINE
  5
2AC
330
1F
100
AcDbEntity
  8
0
  6
Continuous
 62
     7
370
    25
100
AcDbLine
 10
588.4812886694
 20
411.5345385688
 30
0.0
 11
588.4812886694
 21
419.33453859
 31
0.0
  0
LINE
  5
2AD
330
1F
100
AcDbEntity
  8
0
  6
Continuous
 62
     7
370
    25
100
AcDbLine
 10
588.4812886694
 20
426.7345385923
 30
0.0
 11
588.4812886694
 21
434.5345386135
 31
0.0
  0
LINE
  5
2AE
330
1F
100
AcDbEntity
  8
0
  6
Continuous
 62
     7
370
    25
100
AcDbLine
 10
597.4812845567
 20
419.33453859
 30
0.0
 11
597.4812845567
 21
411.5345385688
 31
0.0
  0
LINE
  5
2AF
330
1F
100
AcDbEntity
  8
0
  6
Continuous
 62
     7
370
    25
100
AcDbLine
 10
597.4812845567
 20
434.5345386135
 30
0.0
 11
597.4812845567
 21
426.7345385923
 31
0.0
  0
LINE
  5
2B0
330
1F
100
AcDbEntity
  8
0
  6
Continuous
 62
     7
370
    25
100
AcDbLine
 10
596.6812859157
 20
388.0345384421
 30
0.0
 11
589.2812873104
 21
388.0345384421
 31
0.0
  0
LINE
  5
2B1
330
1F
100
AcDbEntity
  8
0
  6
Continuous
 62
     7
370
    25
100
AcDbLine
 10
588.4812886694
 20
434.5345386135
 30
0.0
 11
588.4812886694
 21
457.2345400992
 31
0.0
  0
ARC
  5
2B2
330
1F
100
AcDbEntity
  8
0
  6
Continuous
 62
     7
370
    25
100
AcDbCircle
 10
589.281284962
 20
388.8345385912
 30
0.0
 40
0.7999999999999545
100
AcDbArc
 50
180.0
 51
270.0
  0
ARC
  5
2B3
330
1F
100
AcDbEntity
  8
0
  6
Continuous
 62
     7
370
    25
100
AcDbCircle
 10
589.281284962
 20
457.2345385912
 30
0.0
 40
0.8000000000000114
100
AcDbArc
 50
90.0
 51
180.0
  0
LINE
  5
2B4
330
1F
100
AcDbEntity
  8
0
  6
Continuous
 62
     7
370
    25
100
AcDbLine
 10
588.4812886694
 20
388.8345370832
 30
0.0
 11
588.4812886694
 21
411.5345385688
 31
0.0
  0
LINE
  5
2B5
330
1F
100
AcDbEntity
  8
0
  6
Continuous
 62
     7
370
    25
100
AcDbLine
 10
589.2812873104
 20
458.0345387402
 30
0.0
 11
596.6812859157
 21
458.0345387402
 31
0.0
  0
ARC
  5
2B6
330
1F
100
AcDbEntity
  8
0
  6
Continuous
 62
     7
370
    25
100
AcDbCircle
 10
596.681284962
 20
457.2345385912
 30
0.0
 40
0.8000000000000682
100
AcDbArc
 50
0.0
 51
90.0
  0
ARC
  5
2B7
330
1F
100
AcDbEntity
  8
0
  6
Continuous
 62
     7
370
    25
100
AcDbCircle
 10
596.681284962
 20
388.8345385912
 30
0.0
 40
0.8000000000000682
100
AcDbArc
 50
270.0
 51
0.0
  0
LINE
  5
2B8
330
1F
100
AcDbEntity
  8
0
  6
Continuous
 62
     7
370
    25
100
AcDbLine
 10
597.4812845567
 20
457.2345400992
 30
0.0
 11
597.4812845567
 21
434.5345386135
 31
0.0
  0
LINE
  5
2B9
330
1F
100
AcDbEntity
  8
0
  6
Continuous
 62
     7
370
    25
100
AcDbLine
 10
597.4812845567
 20
411.5345385688
 30
0.0
 11
597.4812845567
 21
388.8345370832
 31
0.0
  0
SPLINE
  5
2BA
330
1F
100
AcDbEntity
  8
0
  6
Continuous
 62
     7
370
    25
100
AcDbSpline
210
0.0
220
0.0
230
1.0
 70
     8
 71
     3
 72
    17
 73
    13
 74
     0
 42
0.000000001
 43
0.00000001
 40
0.0
 40
0.0
 40
0.0
 40
0.0
 40
0.0670800854786259
 40
0.1748627545933624
 40
0.2826435388700663
 40
0.3903951723611501
 40
0.4981530329436973
 40
0.6048691693368013
 40
0.7115793751761262
 40
0.8195641203365389
 40
0.9275504801276026
 40
1.0
 40
1.0
 40
1.0
 40
1.0
 10
655.6812862733179
 20
397.2762125375347
 30
0.0
 10
655.1215269358008
 20
397.1775121221207
 30
0.0
 10
653.662359748264
 20
396.9202222514288
 30
0.0
 10
651.335624409091
 20
396.5099543880858
 30
0.0
 10
648.7973997111334
 20
396.0623980793161
 30
0.0
 10
646.4616525552503
 20
395.6505427149273
 30
0.0
 10
644.3901545527592
 20
395.285281001697
 30
0.0
 10
642.6494204552715
 20
394.9783413640164
 30
0.0
 10
641.2602799940837
 20
394.7334004326758
 30
0.0
 10
640.3022721575096
 20
394.5644754841592
 30
0.0
 10
639.7773862624715
 20
394.471925952094
 30
0.0
 10
639.7766331149577
 20
394.4717929134076
 30
0.0
 10
639.7763307073885
 20
394.4717394950466
 30
0.0
  0
SPLINE
  5
2BB
330
1F
100
AcDbEntity
  8
0
  6
Continuous
 62
     7
370
    25
100
AcDbSpline
210
0.0
220
0.0
230
1.0
 70
     8
 71
     3
 72
    17
 73
    13
 74
     0
 42
0.000000001
 43
0.00000001
 40
0.0
 40
0.0
 40
0.0
 40
0.0
 40
0.0343629766186753
 40
0.141116520883119
 40
0.2491521088648451
 40
0.357193067733253
 40
0.4643714950994288
 40
0.5715526697023634
 40
0.678679812391141
 40
0.78579967808718
 40
0.892893357507671
 40
0.9999999999999999
 40
0.9999999999999999
 40
0.9999999999999999
 40
0.9999999999999999
 10
671.5862194875056
 20
400.0806818547325
 30
0.0
 10
671.5997580149832
 20
400.0830682282737
 30
0.0
 10
671.655355931215
 20
400.0928682154928
 30
0.0
 10
671.3028762764155
 20
400.0307210523072
 30
0.0
 10
670.5070855861425
 20
399.8904001192105
 30
0.0
 10
669.2595219910387
 20
399.6704232914981
 30
0.0
 10
667.6302493859816
 20
399.3831338147462
 30
0.0
 10
665.6745422170434
 20
399.0382944330669
 30
0.0
 10
663.4330853898338
 20
398.643062829878
 30
0.0
 10
660.9765319369931
 20
398.2099094223572
 30
0.0
 10
658.3656342762046
 20
397.7495351928852
 30
0.0
 10
656.576105040793
 20
397.4339931213573
 30
0.0
 10
655.6812862733179
 20
397.2762125375347
 30
0.0
  0
LWPOLYLINE
  5
2BC
330
1F
100
AcDbEntity
  8
0
  6
Continuous
 62
     7
370
    25
100
AcDbPolyline
 90
       14
 70
   128
 43
0.0
 10
605.4315457919
 20
439.4803914073
 10
605.4315457919
 20
439.4266876223
 10
605.4315308908
 20
438.8876697811
 10
605.4315010885
 20
437.8678566607
 10
605.4314638356
 20
436.4744863304
 10
605.4314265827
 20
434.6613419073
 10
605.4313893297
 20
432.5578697788
 10
605.4313520768
 20
430.1185385155
 10
605.4313148239
 20
427.5467820297
 10
605.4312924722
 20
424.7676218691
 10
605.4312924722
 20
424.3703211722
 10
605.4312850216
 20
423.0341067055
 10
605.4312850216
 20
423.0340467056
 10
605.4312850216
 20
423.0340467056
  0
SPLINE
  5
2BD
330
1F
100
AcDbEntity
  8
0
  6
Continuous
 62
     7
370
    25
100
AcDbSpline
210
0.0
220
0.0
230
1.0
 70
    24
 71
     3
 72
    17
 73
    13
 74
     0
 42
0.000000001
 43
0.00000001
 40
0.0
 40
0.0
 40
0.0
 40
0.0
 40
0.0670835255003957
 40
0.1748595297291143
 40
0.2826331705820407
 40
0.3903866159293692
 40
0.4981464679687403
 40
0.6048785958770332
 40
0.711604794377641
 40
0.819599598316566
 40
0.9275960453633755
 40
1.0
 40
1.0
 40
1.0
 40
1.0
 10
605.2312816360766
 20
423.0340467055534
 30
0.0
 10
605.2312816360766
 20
423.605955154766
 30
0.0
 10
605.2312816360766
 20
425.096688412022
 30
0.0
 10
605.2312816360766
 20
427.4737029911725
 30
0.0
 10
605.2312816360766
 20
430.0667629630265
 30
0.0
 10
605.2312816360766
 20
432.4530180452099
 30
0.0
 10
605.2312816360766
 20
434.5694265300451
 30
0.0
 10
605.2312816360766
 20
436.3478971758181
 30
0.0
 10
605.2312816360766
 20
437.7670922075966
 30
0.0
 10
605.2312816360766
 20
438.7456928221486
 30
0.0
 10
605.2312816360766
 20
439.281744438374
 30
0.0
 10
605.2312816360766
 20
439.282400758916
 30
0.0
 10
605.2312816360766
 20
439.2826641740875
 30
0.0
  0
SPLINE
  5
2BE
330
1F
100
AcDbEntity
  8
0
  6
Continuous
 62
     7
370
    25
100
AcDbSpline
210
0.0
220
0.0
230
1.0
 70
    24
 71
     3
 72
    14
 73
    10
 74
     0
 42
0.000000001
 43
0.00000001
 40
0.0
 40
0.0
 40
0.0
 40
0.0
 40
0.2500000000000001
 40
0.2500000000000001
 40
0.5000000000000002
 40
0.5000000000000002
 40
0.7500000000000001
 40
0.7500000000000001
 40
1.0
 40
1.0
 40
1.0
 40
1.0
 10
605.2312849620157
 20
412.8212577949609
 30
0.0
 10
605.2312849620157
 20
413.5446258457916
 30
0.0
 10
605.2312849620157
 20
414.3066506877066
 30
0.0
 10
605.2312849620157
 20
415.9052507954862
 30
0.0
 10
605.2312849620157
 20
416.7418381089024
 30
0.0
 10
605.2312849620157
 20
418.4934097725503
 30
0.0
 10
605.2312849620157
 20
419.3839931678854
 30
0.0
 10
605.2312849620157
 20
421.1895871822077
 30
0.0
 10
605.2312849620157
 20
422.1052598018118
 30
0.0
 10
605.2312849620157
 20
423.0340467055414
 30
0.0
  0
LINE
  5
2BF
330
1F
100
AcDbEntity
  8
0
  6
Continuous
 62
     7
370
    25
100
AcDbLine
 10
580.7491878846
 20
439.4812444987
 30
0.0
 11
580.7491878846
 21
439.5345385017
 31
0.0
  0
ELLIPSE
  5
2C0
330
1F
100
AcDbEntity
  8
0
  6
Continuous
 62
     7
370
    25
100
AcDbEllipse
 10
605.031284962
 20
424.1173813036
 30
0.0
 11
0.1999999999999318
 21
0.0
 31
0.0
210
0.0
220
0.0
230
1.0
 40
0.4142135624
 41
4.712388980384695
 42
6.283185307179586
  0
ARC
  5
2C1
330
1F
100
AcDbEntity
  8
0
  6
Continuous
 62
     7
370
    25
100
AcDbCircle
 10
605.031284962
 20
430.7345385912
 30
0.0
 40
0.2000000000000455
100
AcDbArc
 50
270.0
 51
0.0
  0
LINE
  5
2C2
330
1F
100
AcDbEntity
  8
0
  6
Continuous
 62
     7
370
    25
100
AcDbLine
 10
651.6400913575
 20
392.5804785284
 30
0.0
 11
651.0457585433
 21
395.9511305037
 31
0.0
  0
LWPOLYLINE
  5
2C3
330
1F
100
AcDbEntity
  8
0
  6
Continuous
 62
     7
370
    25
100
AcDbPolyline
 90
        8
 70
   128
 43
0.0
 10
651.6400913575
 20
392.5804785284
 10
649.9183217862
 20
392.2768822702
 10
648.3730117658
 20
392.0044052246
 10
647.0465029457
 20
391.7705054226
 10
645.9750945547
 20
391.5815847757
 10
645.1881344298
 20
391.4428251627
 10
644.7071696499
 20
391.358018929
 10
644.5453728417
 20
391.3294869306
  0
LWPOLYLINE
  5
2C4
330
1F
100
AcDbEntity
  8
0
  6
Continuous
 62
     7
370
    25
100
AcDbPolyline
 90
        8
 70
   128
 43
0.0
 10
668.1807528117
 20
395.4970436933
 10
668.0189560035
 20
395.4685154202
 10
667.5379912237
 20
395.3837073239
 10
666.7510310987
 20
395.2449458482
 10
665.6796376088
 20
395.056027064
 10
664.3531213382
 20
394.822127262
 10
662.8078113178
 20
394.5496483537
 10
661.0860417465
 20
394.2460539582
  0
LINE
  5
2C5
330
1F
100
AcDbEntity
  8
0
  6
Continuous
 62
     7
370
    25
100
AcDbLine
 10
660.4917089322
 20
397.6167059335
 30
0.0
 11
661.0860417465
 21
394.2460539582
 31
0.0
  0
LWPOLYLINE
  5
2C6
330
1F
100
AcDbEntity
  8
0
  6
Continuous
 62
     7
370
    25
100
AcDbPolyline
 90
        9
 70
   128
 43
0.0
 10
651.0457585433
 20
395.9511305037
 10
652.1821807006
 20
396.1515120062
 10
653.3564518073
 20
396.3585692289
 10
654.5561889985
 20
396.5701154264
 10
655.7687262872
 20
396.7839172872
 10
656.9812635759
 20
396.9977210107
 10
658.1810007671
 20
397.2092672082
 10
659.355286775
 20
397.416324431
 10
660.4917089322
 20
397.6167059335
  0
LINE
  5
2C7
330
1F
100
AcDbEntity
  8
0
  6
Continuous
 62
     7
370
    25
100
AcDbLine
 10
604.7312880734
 20
388.6845382693
 30
0.0
 11
597.4670986512
 21
388.6845382693
 31
0.0
  0
LINE
  5
2C8
330
1F
100
AcDbEntity
  8
0
  6
Continuous
 62
     7
370
    25
100
AcDbLine
 10
588.4954745749
 20
388.6845382693
 30
0.0
 11
581.2312851528
 21
388.6845382693
 31
0.0
  0
LINE
  5
2C9
330
1F
100
AcDbEntity
  8
0
  6
Continuous
 62
     7
370
    25
100
AcDbLine
 10
604.7312880734
 20
401.6845385375
 30
0.0
 11
597.4812845567
 21
401.6845385375
 31
0.0
  0
LINE
  5
2CA
330
1F
100
AcDbEntity
  8
0
  6
Continuous
 62
     7
370
    25
100
AcDbLine
 10
588.4812886694
 20
401.6845385375
 30
0.0
 11
581.2312851528
 21
401.6845385375
 31
0.0
  0
SPLINE
  5
2CB
330
1F
100
AcDbEntity
  8
0
  6
Continuous
 62
     7
370
    25
100
AcDbSpline
210
0.0
220
0.0
230
1.0
 70
     8
 71
     3
 72
    10
 73
     6
 74
     0
 42
0.000000001
 43
0.00000001
 40
0.0
 40
0.0
 40
0.0
 40
0.0
 40
0.5
 40
0.5
 40
1.0
 40
1.0
 40
1.0
 40
1.0
 10
656.4633226520529
 20
392.8446868438171
 30
0.0
 10
655.6682136389294
 20
392.7044876721989
 30
0.0
 10
654.8545900401466
 20
392.6148045615664
 30
0.0
 10
653.2428856433189
 20
392.5327385918658
 30
0.0
 10
652.4402564600234
 20
392.5386417572855
 30
0.0
 10
651.6400947636339
 20
392.5804784606976
 30
0.0
  0
LWPOLYLINE
  5
2CC
330
1F
100
AcDbEntity
  8
0
  6
Continuous
 62
     7
370
    25
100
AcDbPolyline
 90
       10
 70
   128
 43
0.0
 10
656.4633290151
 20
392.8446872922
 10
654.582206426
 20
392.5129967573
 10
652.7582595924
 20
392.1913831326
 10
651.0468761304
 20
391.8896215799
 10
649.5000759939
 20
391.616878176
 10
648.1648574451
 20
391.3814435544
 10
647.0817665437
 20
391.1904665473
 10
646.2837423065
 20
391.0497511568
 10
645.7950140217
 20
390.9635777416
 10
645.6304381469
 20
390.9345577302
  0
SPLINE
  5
2CD
330
1F
100
AcDbEntity
  8
0
  6
Continuous
 62
     7
370
    25
100
AcDbSpline
210
0.0
220
0.0
230
1.0
 70
     8
 71
     3
 72
     8
 73
     4
 74
     0
 42
0.000000001
 43
0.00000001
 40
0.0
 40
0.0
 40
0.0
 40
0.0
 40
1.0
 40
1.0
 40
1.0
 40
1.0
 10
661.0860388962313
 20
394.2460532695399
 30
0.0
 10
659.5926063244522
 20
393.6123440040151
 30
0.0
 10
658.057252791792
 20
393.1257397328176
 30
0.0
 10
656.4633226520529
 20
392.8446868438171
 30
0.0
  0
LWPOLYLINE
  5
2CE
330
1F
100
AcDbEntity
  8
0
  6
Continuous
 62
     7
370
    25
100
AcDbPolyline
 90
       10
 70
   128
 43
0.0
 10
667.2962049821
 20
394.7548168542
 10
667.1316365579
 20
394.7257968428
 10
666.6429082731
 20
394.639621565
 10
665.8448765853
 20
394.4989080372
 10
664.7618005851
 20
394.30793103
 10
663.4265671352
 20
394.0724945458
 10
661.8797669986
 20
393.7997511419
 10
660.1683835367
 20
393.4979895892
 10
658.344436703
 20
393.1763778272
 10
656.4633290151
 20
392.8446872922
  0
LINE
  5
2CF
330
1F
100
AcDbEntity
  8
0
  6
Continuous
 62
     7
370
    25
100
AcDbLine
 10
602.6787872294
 20
386.6845379415
 30
0.0
 11
583.2837859968
 21
386.6845379415
 31
0.0
  0
LINE
  5
2D0
330
1F
100
AcDbEntity
  8
0
  6
Continuous
 62
     7
370
    25
100
AcDbLine
 10
603.4787858704
 20
385.8845393004
 30
0.0
 11
582.4837836304
 21
385.8845393004
 31
0.0
  0
LINE
  5
2D1
330
1F
100
AcDbEntity
  8
0
  6
Continuous
 62
     7
370
    25
100
AcDbLine
 10
587.5778163651
 20
379.4845389965
 30
0.0
 11
587.5778163651
 21
383.6845393124
 31
0.0
  0
LINE
  5
2D2
330
1F
100
AcDbEntity
  8
0
  6
Continuous
 62
     7
370
    25
100
AcDbLine
 10
587.5778163651
 20
379.4845389965
 30
0.0
 11
582.4837836304
 21
379.4845389965
 31
0.0
  0
LINE
  5
2D3
330
1F
100
AcDbEntity
  8
0
  6
Continuous
 62
     7
370
    25
100
AcDbLine
 10
603.4787858704
 20
379.4845389965
 30
0.0
 11
598.384756861
 21
379.4845389965
 31
0.0
  0
LINE
  5
2D4
330
1F
100
AcDbEntity
  8
0
  6
Continuous
 62
     7
370
    25
100
AcDbLine
 10
598.384756861
 20
383.6845393124
 30
0.0
 11
598.384756861
 21
379.4845389965
 31
0.0
  0
LINE
  5
2D5
330
1F
100
AcDbEntity
  8
0
  6
Continuous
 62
     7
370
    25
100
AcDbLine
 10
587.5778163651
 20
383.6845393124
 30
0.0
 11
598.384756861
 21
383.6845393124
 31
0.0
  0
SPLINE
  5
2D6
330
1F
100
AcDbEntity
  8
0
  6
Continuous
 62
     7
370
    25
100
AcDbSpline
210
0.0
220
0.0
230
1.0
 70
     8
 71
     3
 72
     8
 73
     4
 74
     0
 42
0.000000001
 43
0.00000001
 40
0.0
 40
0.0
 40
0.0
 40
0.0
 40
1.0
 40
1.0
 40
1.0
 40
1.0
 10
589.3699823923049
 20
378.684538591154
 30
0.0
 10
588.7513400514731
 20
378.9149180369058
 30
0.0
 10
588.1568276003865
 20
379.1864973907527
 30
0.0
 10
587.577813277071
 20
379.484538591154
 30
0.0
  0
LINE
  5
2D7
330
1F
100
AcDbEntity
  8
0
  6
Continuous
 62
     7
370
    25
100
AcDbLine
 10
589.3699790219
 20
378.6845403555
 30
0.0
 11
583.2837859968
 21
378.6845403555
 31
0.0
  0
SPLINE
  5
2D8
330
1F
100
AcDbEntity
  8
0
  6
Continuous
 62
     7
370
    25
100
AcDbSpline
210
0.0
220
0.0
230
1.0
 70
     8
 71
     3
 72
     8
 73
     4
 74
     0
 42
0.000000001
 43
0.00000001
 40
0.0
 40
0.0
 40
0.0
 40
0.0
 40
1.0
 40
1.0
 40
1.0
 40
1.0
 10
598.3847566469606
 20
379.484538591154
 30
0.0
 10
597.802791347325
 20
379.1849784084247
 30
0.0
 10
597.2076228808803
 20
378.9135748104747
 30
0.0
 10
596.5925875317265
 20
378.684538591154
 30
0.0
  0
LINE
  5
2D9
330
1F
100
AcDbEntity
  8
0
  6
Continuous
 62
     7
370
    25
100
AcDbLine
 10
596.5925867537
 20
378.6845403555
 30
0.0
 11
589.3699790219
 21
378.6845403555
 31
0.0
  0
LINE
  5
2DA
330
1F
100
AcDbEntity
  8
0
  6
Continuous
 62
     7
370
    25
100
AcDbLine
 10
602.6787872294
 20
378.6845403555
 30
0.0
 11
596.5925867537
 21
378.6845403555
 31
0.0
  0
LINE
  5
2DB
330
1F
100
AcDbEntity
  8
0
  6
Continuous
 62
     8
370
    18
100
AcDbLine
 10
589.2812873104
 20
418.5345387849
 30
0.0
 11
589.2812873104
 21
419.33453859
 31
0.0
  0
LINE
  5
2DC
330
1F
100
AcDbEntity
  8
0
  6
Continuous
 62
     8
370
    18
100
AcDbLine
 10
589.2812873104
 20
419.33453859
 30
0.0
 11
596.6812859157
 21
419.33453859
 31
0.0
  0
LINE
  5
2DD
330
1F
100
AcDbEntity
  8
0
  6
Continuous
 62
     8
370
    18
100
AcDbLine
 10
596.6812859157
 20
418.5345387849
 30
0.0
 11
596.6812859157
 21
419.33453859
 31
0.0
  0
LINE
  5
2DE
330
1F
100
AcDbEntity
  8
0
  6
Continuous
 62
     8
370
    18
100
AcDbLine
 10
596.6812859157
 20
426.7345385923
 30
0.0
 11
589.2812873104
 21
426.7345385923
 31
0.0
  0
LINE
  5
2DF
330
1F
100
AcDbEntity
  8
0
  6
Continuous
 62
     8
370
    18
100
AcDbLine
 10
589.2812873104
 20
426.7345385923
 30
0.0
 11
589.2812873104
 21
427.5345383974
 31
0.0
  0
LINE
  5
2E0
330
1F
100
AcDbEntity
  8
0
  6
Continuous
 62
     8
370
    18
100
AcDbLine
 10
596.6812859157
 20
426.7345385923
 30
0.0
 11
596.6812859157
 21
427.5345383974
 31
0.0
  0
LINE
  5
2E1
330
1F
100
AcDbEntity
  8
0
  6
Continuous
 62
     8
370
    18
100
AcDbLine
 10
589.2812873104
 20
419.33453859
 30
0.0
 11
588.4812886694
 21
419.33453859
 31
0.0
  0
LINE
  5
2E2
330
1F
100
AcDbEntity
  8
0
  6
Continuous
 62
     8
370
    18
100
AcDbLine
 10
589.2812873104
 20
426.7345385923
 30
0.0
 11
589.2812873104
 21
419.33453859
 31
0.0
  0
LINE
  5
2E3
330
1F
100
AcDbEntity
  8
0
  6
Continuous
 62
     8
370
    18
100
AcDbLine
 10
596.6812859157
 20
419.33453859
 30
0.0
 11
596.6812859157
 21
426.7345385923
 31
0.0
  0
LINE
  5
2E4
330
1F
100
AcDbEntity
  8
0
  6
Continuous
 62
     8
370
    18
100
AcDbLine
 10
589.2812873104
 20
426.7345385923
 30
0.0
 11
588.4812886694
 21
426.7345385923
 31
0.0
  0
LINE
  5
2E5
330
1F
100
AcDbEntity
  8
0
  6
Continuous
 62
     8
370
    18
100
AcDbLine
 10
597.4812845567
 20
426.7345385923
 30
0.0
 11
596.6812859157
 21
426.7345385923
 31
0.0
  0
LINE
  5
2E6
330
1F
100
AcDbEntity
  8
0
  6
Continuous
 62
     8
370
    18
100
AcDbLine
 10
597.4812845567
 20
419.33453859
 30
0.0
 11
596.6812859157
 21
419.33453859
 31
0.0
  0
LINE
  5
2E7
330
1F
100
AcDbEntity
  8
0
  6
Continuous
 62
     8
370
    18
100
AcDbLine
 10
596.6812859157
 20
427.5345383974
 30
0.0
 11
596.6812859157
 21
434.5345386135
 31
0.0
  0
LINE
  5
2E8
330
1F
100
AcDbEntity
  8
0
  6
Continuous
 62
     8
370
    18
100
AcDbLine
 10
589.2812873104
 20
434.5345386135
 30
0.0
 11
589.2812873104
 21
427.5345383974
 31
0.0
  0
LINE
  5
2E9
330
1F
100
AcDbEntity
  8
0
  6
Continuous
 62
     8
370
    18
100
AcDbLine
 10
589.2812873104
 20
418.5345387849
 30
0.0
 11
589.2812873104
 21
411.5345385688
 31
0.0
  0
LINE
  5
2EA
330
1F
100
AcDbEntity
  8
0
  6
Continuous
 62
     8
370
    18
100
AcDbLine
 10
596.6812859157
 20
411.5345385688
 30
0.0
 11
596.6812859157
 21
418.5345387849
 31
0.0
  0
LINE
  5
2EB
330
1F
100
AcDbEntity
  8
0
  6
Continuous
 62
     8
370
    18
100
AcDbLine
 10
589.2812873104
 20
388.0345384421
 30
0.0
 11
589.2812873104
 21
388.8345370832
 31
0.0
  0
LINE
  5
2EC
330
1F
100
AcDbEntity
  8
0
  6
Continuous
 62
     8
370
    18
100
AcDbLine
 10
589.2812873104
 20
388.8345370832
 30
0.0
 11
596.6812859157
 21
388.8345370832
 31
0.0
  0
LINE
  5
2ED
330
1F
100
AcDbEntity
  8
0
  6
Continuous
 62
     8
370
    18
100
AcDbLine
 10
596.6812859157
 20
388.0345384421
 30
0.0
 11
596.6812859157
 21
388.8345370832
 31
0.0
  0
LINE
  5
2EE
330
1F
100
AcDbEntity
  8
0
  6
Continuous
 62
     8
370
    18
100
AcDbLine
 10
589.2812873104
 20
457.2345400992
 30
0.0
 11
589.2812873104
 21
434.5345386135
 31
0.0
  0
LINE
  5
2EF
330
1F
100
AcDbEntity
  8
0
  6
Continuous
 62
     8
370
    18
100
AcDbLine
 10
589.2812873104
 20
457.2345400992
 30
0.0
 11
588.4812886694
 21
457.2345400992
 31
0.0
  0
LINE
  5
2F0
330
1F
100
AcDbEntity
  8
0
  6
Continuous
 62
     8
370
    18
100
AcDbLine
 10
596.6812859157
 20
434.5345386135
 30
0.0
 11
596.6812859157
 21
457.2345400992
 31
0.0
  0
LINE
  5
2F1
330
1F
100
AcDbEntity
  8
0
  6
Continuous
 62
     8
370
    18
100
AcDbLine
 10
596.6812859157
 20
457.2345400992
 30
0.0
 11
589.2812873104
 21
457.2345400992
 31
0.0
  0
LINE
  5
2F2
330
1F
100
AcDbEntity
  8
0
  6
Continuous
 62
     8
370
    18
100
AcDbLine
 10
588.4812886694
 20
388.8345370832
 30
0.0
 11
589.2812873104
 21
388.8345370832
 31
0.0
  0
LINE
  5
2F3
330
1F
100
AcDbEntity
  8
0
  6
Continuous
 62
     8
370
    18
100
AcDbLine
 10
589.2812873104
 20
411.5345385688
 30
0.0
 11
589.2812873104
 21
388.8345370832
 31
0.0
  0
LINE
  5
2F4
330
1F
100
AcDbEntity
  8
0
  6
Continuous
 62
     8
370
    18
100
AcDbLine
 10
596.6812859157
 20
388.8345370832
 30
0.0
 11
596.6812859157
 21
411.5345385688
 31
0.0
  0
LINE
  5
2F5
330
1F
100
AcDbEntity
  8
0
  6
Continuous
 62
     8
370
    18
100
AcDbLine
 10
589.2812873104
 20
457.2345400992
 30
0.0
 11
589.2812873104
 21
458.0345387402
 31
0.0
  0
LINE
  5
2F6
330
1F
100
AcDbEntity
  8
0
  6
Continuous
 62
     8
370
    18
100
AcDbLine
 10
596.6812859157
 20
457.2345400992
 30
0.0
 11
596.6812859157
 21
458.0345387402
 31
0.0
  0
LINE
  5
2F7
330
1F
100
AcDbEntity
  8
0
  6
Continuous
 62
     8
370
    18
100
AcDbLine
 10
597.4812845567
 20
457.2345400992
 30
0.0
 11
596.6812859157
 21
457.2345400992
 31
0.0
  0
LINE
  5
2F8
330
1F
100
AcDbEntity
  8
0
  6
Continuous
 62
     8
370
    18
100
AcDbLine
 10
597.4812845567
 20
388.8345370832
 30
0.0
 11
596.6812859157
 21
388.8345370832
 31
0.0
  0
SPLINE
  5
2F9
330
1F
100
AcDbEntity
  8
0
  6
Continuous
 62
     8
370
    18
100
AcDbSpline
210
0.0
220
0.0
230
1.0
 70
     8
 71
     3
 72
    18
 73
    14
 74
     0
 42
0.000000001
 43
0.00000001
 40
0.0
 40
0.0
 40
0.0
 40
0.0
 40
0.0724286590202604
 40
0.178845300730396
 40
0.2884239592879138
 40
0.3936312267969309
 40
0.5018338876971434
 40
0.6080444578221237
 40
0.7173283033791369
 40
0.8235485431356209
 40
0.9329158936751958
 40
0.9560395782619083
 40
1.0
 40
1.0
 40
1.0
 40
1.0
 10
639.431182561236
 20
394.7155038657264
 30
0.0
 10
639.4310089743141
 20
394.7154734444099
 30
0.0
 10
639.4305803428068
 20
394.7153983262235
 30
0.0
 10
639.9583926665912
 20
394.80846624657
 30
0.0
 10
640.9311924045127
 20
394.9799965299502
 30
0.0
 10
642.3460213421848
 20
395.2294712233155
 30
0.0
 10
644.111760177739
 20
395.5408195033868
 30
0.0
 10
646.2258628044353
 20
395.9135924528769
 30
0.0
 10
648.5946760774132
 20
396.3312816472198
 30
0.0
 10
651.1885648275558
 20
396.7886488926924
 30
0.0
 10
653.1916950355226
 20
397.1418562259243
 30
0.0
 10
654.6854356307987
 20
397.4052457995997
 30
0.0
 10
655.2555766474567
 20
397.5057762325334
 30
0.0
 10
655.6291918137842
 20
397.5716541352348
 30
0.0
  0
LWPOLYLINE
  5
2FA
330
1F
100
AcDbEntity
  8
0
  6
Continuous
 62
     8
370
    18
100
AcDbPolyline
 90
        9
 70
   128
 43
0.0
 10
655.6812862733
 20
397.2762125375
 10
655.6802878955
 20
397.2818880173
 10
655.6773225644
 20
397.2987002524
 10
655.6725094894
 20
397.326002905
 10
655.6660274843
 20
397.3627454432
 10
655.6581298688
 20
397.407515982
 10
655.6491295675
 20
397.4585934373
 10
655.6393544057
 20
397.5140164437
 10
655.6291918138
 20
397.5716541352
  0
SPLINE
  5
2FB
330
1F
100
AcDbEntity
  8
0
  6
Continuous
 62
     8
370
    18
100
AcDbSpline
210
0.0
220
0.0
230
1.0
 70
     8
 71
     3
 72
    18
 73
    14
 74
     0
 42
0.000000001
 43
0.00000001
 40
0.0
 40
0.0
 40
0.0
 40
0.0
 40
0.000002341817977
 40
0.105581636620055
 40
0.2142053853962512
 40
0.3197984933731293
 40
0.42845632739266
 40
0.5341167098930336
 40
0.642790203251093
 40
0.7492597231770881
 40
0.8588878973307924
 40
0.96413916904293
 40
0.9999999999999999
 40
0.9999999999999999
 40
0.9999999999999999
 40
0.9999999999999999
 10
655.6291918137842
 20
397.5716541352348
 30
0.0
 10
655.6292116819983
 20
397.5716578605278
 30
0.0
 10
656.5249766754768
 20
397.7396139250554
 30
0.0
 10
658.3521417197406
 20
398.0469946630756
 30
0.0
 10
660.9971825830727
 20
398.5194367128377
 30
0.0
 10
663.5146552470028
 20
398.9617317870302
 30
0.0
 10
665.7865348843092
 20
399.3627621080607
 30
0.0
 10
667.7928276126453
 20
399.7164122971358
 30
0.0
 10
669.4434116673814
 20
400.0074840305705
 30
0.0
 10
670.7273298104913
 20
400.2338660937231
 30
0.0
 10
671.5328171402797
 20
400.3758994550283
 30
0.0
 10
671.8984166146142
 20
400.4403603632915
 30
0.0
 10
671.8416199153168
 20
400.4303457053491
 30
0.0
 10
671.8271861651713
 20
400.4278006794528
 30
0.0
  0
LINE
  5
2FC
330
1F
100
AcDbEntity
  8
0
  6
Continuous
 62
     8
370
    18
100
AcDbLine
 10
605.4312850216
 20
423.0340467056
 30
0.0
 11
605.2312816361
 21
423.0340467056
 31
0.0
  0
SPLINE
  5
2FD
330
1F
100
AcDbEntity
  8
0
  6
Continuous
 62
     8
370
    18
100
AcDbSpline
210
0.0
220
0.0
230
1.0
 70
     8
 71
     3
 72
    19
 73
    15
 74
     0
 42
0.000000001
 43
0.00000001
 40
0.0
 40
0.0
 40
0.0
 40
0.0
 40
0.03125
 40
0.03125
 40
0.0625
 40
0.125
 40
0.125
 40
0.2499999999999999
 40
0.2499999999999999
 40
0.5000000000000001
 40
0.5000000000000001
 40
0.75
 40
0.75
 40
1.0
 40
1.0
 40
1.0
 40
1.0
 10
605.4312849621487
 20
423.0340467055414
 30
0.0
 10
605.4312844786157
 20
422.9185787312625
 30
0.0
 10
605.4312840068843
 20
422.8000319142434
 30
0.0
 10
605.4312831288127
 20
422.566635102979
 30
0.0
 10
605.4312818889528
 20
422.2171576726155
 30
0.0
 10
605.4312808813145
 20
421.8695243556825
 30
0.0
 10
605.4312791785112
 20
421.1767003859291
 30
0.0
 10
605.4312784605827
 20
420.7180714615854
 30
0.0
 10
605.4312775648872
 20
419.3519282258201
 30
0.0
 10
605.4312786507177
 20
418.4539368136377
 30
0.0
 10
605.4312840772974
 20
416.6856889580053
 30
0.0
 10
605.4312883952092
 20
415.8277741902841
 30
0.0
 10
605.4312994018176
 20
414.1979855863904
 30
0.0
 10
605.4313060708241
 20
413.4255462075919
 30
0.0
 10
605.4313135014175
 20
412.6957910038478
 30
0.0
  0
LWPOLYLINE
  5
2FE
330
1F
100
AcDbEntity
  8
0
  6
Continuous
 62
     8
370
    18
100
AcDbPolyline
 90
        9
 70
   128
 43
0.0
 10
605.4313148239
 20
412.6957907173
 10
605.3922886828
 20
412.6981991174
 10
605.3547675589
 20
412.7053367736
 10
605.3201894143
 20
412.7169298771
 10
605.2898730019
 20
412.7325332555
 10
605.2649955133
 20
412.7515462058
 10
605.2465106228
 20
412.7732395026
 10
605.2351261357
 20
412.7967786806
 10
605.2312816361
 20
412.8212575632
  0
SPLINE
  5
2FF
330
1F
100
AcDbEntity
  8
0
  6
Continuous
 62
     8
370
    18
100
AcDbSpline
210
0.0
220
0.0
230
1.0
 70
     8
 71
     3
 72
    12
 73
     8
 74
     0
 42
0.000000001
 43
0.00000001
 40
0.0
 40
0.0
 40
0.0
 40
0.0
 40
0.4999999999999982
 40
0.4999999999999982
 40
0.7499999999999991
 40
0.7499999999999991
 40
1.0
 40
1.0
 40
1.0
 40
1.0
 10
605.4313135014175
 20
412.6957910038478
 30
0.0
 10
605.4313145900857
 20
412.5888733941877
 30
0.0
 10
605.405909417093
 20
412.4828651845491
 30
0.0
 10
605.3132271829313
 20
412.3436615110563
 30
0.0
 10
605.2728373213638
 20
412.3005726618177
 30
0.0
 10
605.1662453069272
 20
412.2338392079543
 30
0.0
 10
605.1007618417082
 20
412.2122039941514
 30
0.0
 10
605.0313152076739
 20
412.2121882765039
 30
0.0
  0
SPLINE
  5
300
330
1F
100
AcDbEntity
  8
0
  6
Continuous
 62
     8
370
    18
100
AcDbSpline
210
0.0
220
0.0
230
1.0
 70
     8
 71
     3
 72
    14
 73
    10
 74
     0
 42
0.000000001
 43
0.00000001
 40
0.0
 40
0.0
 40
0.0
 40
0.0
 40
0.0004000000000475
 40
0.0004000000000475
 40
0.0004000000000475
 40
0.0020000000120746
 40
0.0020000000120746
 40
0.0020000000120746
 40
0.0075500306686716
 40
0.0075500306686716
 40
0.0075500306686716
 40
0.0075500306686716
 10
605.0313152076737
 20
412.2121882765039
 30
0.0
 10
604.8979818777403
 20
412.2121580995731
 30
0.0
 10
604.7646485473541
 20
412.212129832711
 30
0.0
 10
604.6313152165252
 20
412.2121039115423
 30
0.0
 10
604.097981891232
 20
412.2120002268673
 30
0.0
 10
603.5646485549084
 20
412.2119373172989
 30
0.0
 10
603.0313152195533
 20
412.2119328122432
 30
0.0
 10
601.1813049986696
 20
412.2119171852447
 30
0.0
 10
599.3312947776539
 20
412.2119324086584
 30
0.0
 10
597.4812845567043
 20
412.2119320016055
 30
0.0
  0
SPLINE
  5
301
330
1F
100
AcDbEntity
  8
0
  6
Continuous
 62
     8
370
    18
100
AcDbSpline
210
0.0
220
0.0
230
1.0
 70
     8
 71
     3
 72
    15
 73
    11
 74
     0
 42
0.000000001
 43
0.00000001
 40
0.0
 40
0.0
 40
0.0
 40
0.0
 40
0.0686135691246084
 40
0.1780545152375855
 40
0.2910483050526775
 40
0.4220693967396449
 40
0.5569554625186144
 40
0.717222176455176
 40
0.8819004727723719
 40
1.0
 40
1.0
 40
1.0
 40
1.0
 10
604.9545596221262
 20
404.5596523972825
 30
0.0
 10
604.9558003925108
 20
404.5585579234949
 30
0.0
 10
604.9590202333119
 20
404.5557177272743
 30
0.0
 10
604.6994108639445
 20
404.7819809964223
 30
0.0
 10
604.1895913612823
 20
405.2231541602855
 30
0.0
 10
603.3944683623453
 20
405.895776215742
 30
0.0
 10
602.2664358405418
 20
406.8115194825943
 30
0.0
 10
600.8030054552272
 20
407.9076170776609
 30
0.0
 10
599.1811814737476
 20
408.9973468659945
 30
0.0
 10
597.9820786820188
 20
409.6003687044338
 30
0.0
 10
597.4812845567042
 20
409.8522151651458
 30
0.0
  0
SPLINE
  5
302
330
1F
100
AcDbEntity
  8
0
  6
Continuous
 62
     8
370
    18
100
AcDbSpline
210
0.0
220
0.0
230
1.0
 70
     8
 71
     3
 72
    11
 73
     7
 74
     0
 42
0.000000001
 43
0.00000001
 40
0.0
 40
0.0
 40
0.0
 40
0.0
 40
0.1854398013999242
 40
0.4274335011622112
 40
0.6694443956067304
 40
1.0
 40
1.0
 40
1.0
 40
1.0
 10
588.4812886694247
 20
409.8486817272977
 30
0.0
 10
588.0119834812663
 20
409.6153932035221
 30
0.0
 10
586.930248286482
 20
409.077669749627
 30
0.0
 10
585.4555213854629
 20
408.1124571470555
 30
0.0
 10
583.841768554794
 20
406.9333709336139
 30
0.0
 10
582.979240776988
 20
406.2261292610769
 30
0.0
 10
582.4812839606577
 20
405.8178226294593
 30
0.0
  0
LWPOLYLINE
  5
303
330
1F
100
AcDbEntity
  8
0
  6
Continuous
 62
     8
370
    18
100
AcDbPolyline
 90
        9
 70
   128
 43
0.0
 10
605.0313155034
 20
412.2121884319
 10
605.0313155034
 20
412.2262011113
 10
605.0313080529
 20
412.2411525639
 10
605.0313080529
 20
412.2569235804
 10
605.0313006023
 20
412.2733875009
 10
605.0313006023
 20
412.2904130089
 10
605.0312931517
 20
412.3078632
 10
605.0312857011
 20
412.3255983757
 10
605.0312857011
 20
412.3434769752
  0
SPLINE
  5
304
330
1F
100
AcDbEntity
  8
0
  6
Continuous
 62
     8
370
    18
100
AcDbSpline
210
0.0
220
0.0
230
1.0
 70
     8
 71
     3
 72
    14
 73
    10
 74
     0
 42
0.000000001
 43
0.00000001
 40
0.0
 40
0.0
 40
0.0
 40
0.0
 40
0.124999999999985
 40
0.124999999999985
 40
0.2499999999999699
 40
0.2499999999999699
 40
0.4999999999999821
 40
0.4999999999999821
 40
1.0
 40
1.0
 40
1.0
 40
1.0
 10
605.0312849620158
 20
412.3434771699735
 30
0.0
 10
605.0564593855007
 20
412.3434887690811
 30
0.0
 10
605.0799363555598
 20
412.3550566060376
 30
0.0
 10
605.1166535880022
 20
412.3852136739528
 30
0.0
 10
605.1313802622759
 20
412.4040213234388
 30
0.0
 10
605.1684635914885
 20
412.462751768021
 30
0.0
 10
605.1848317138131
 20
412.5062527885167
 30
0.0
 10
605.2220873003578
 20
412.6379470222792
 30
0.0
 10
605.2312849620157
 20
412.7295771048421
 30
0.0
 10
605.2312849620157
 20
412.8212577949608
 30
0.0
  0
LINE
  5
305
330
1F
100
AcDbEntity
  8
0
  6
Continuous
 62
     8
370
    18
100
AcDbLine
 10
605.0312857011
 20
412.3434769752
 30
0.0
 11
605.0312857011
 21
415.44760585
 31
0.0
  0
LINE
  5
306
330
1F
100
AcDbEntity
  8
0
  6
Continuous
 62
     8
370
    18
100
AcDbLine
 10
588.4812886694
 20
412.2119323182
 30
0.0
 11
581.1812843064
 21
412.2119323182
 31
0.0
  0
LINE
  5
307
330
1F
100
AcDbEntity
  8
0
  6
Continuous
 62
     8
370
    18
100
AcDbLine
 10
581.1812843064
 20
412.3432189989
 30
0.0
 11
581.33147311
 21
412.3432208615
 31
0.0
  0
LINE
  5
308
330
1F
100
AcDbEntity
  8
0
  6
Continuous
 62
     8
370
    18
100
AcDbLine
 10
604.6223456839
 20
412.3434723186
 30
0.0
 11
605.0312857011
 21
412.3434769752
 31
0.0
  0
SPLINE
  5
309
330
1F
100
AcDbEntity
  8
0
  6
Continuous
 62
     8
370
    18
100
AcDbSpline
210
0.0
220
0.0
230
1.0
 70
     8
 71
     3
 72
    11
 73
     7
 74
     0
 42
0.000000001
 43
0.00000001
 40
0.0
 40
0.0
 40
0.0
 40
0.0
 40
0.2212973074315796
 40
0.4947997680117029
 40
0.7806450499730073
 40
1.0
 40
1.0
 40
1.0
 40
1.0
 10
582.4812839606577
 20
405.8178226294593
 30
0.0
 10
582.283336540077
 20
405.6798840133476
 30
0.0
 10
581.8407449020739
 20
405.371466364511
 30
0.0
 10
581.3428969690368
 20
405.3083931671547
 30
0.0
 10
580.9971405819068
 20
405.5297609499371
 30
0.0
 10
581.0506894603814
 20
405.4935299191837
 30
0.0
 10
581.0739400664145
 20
405.4777986201124
 30
0.0
  0
ENDSEC
  0
SECTION
  2
OBJECTS
  0
DICTIONARY
  5
C
330
0
100
AcDbDictionary
281
     1
  3
ACAD_DETAILVIEWSTYLE
350
311
  3
ACAD_GROUP
350
D
  3
ACAD_LAYOUT
350
1A
  3
ACAD_MATERIAL
350
43
  3
ACAD_MLEADERSTYLE
350
6B
  3
ACAD_MLINESTYLE
350
17
  3
ACAD_PLOTSETTINGS
350
19
  3
ACAD_PLOTSTYLENAME
350
E
  3
ACAD_SCALELIST
350
47
  3
ACAD_SECTIONVIEWSTYLE
350
312
  3
ACAD_TABLESTYLE
350
69
  3
ACAD_VISUALSTYLE
350
2A
  3
ACDB_RECOMPOSE_DATA
350
30E
  3
AcDbVariableDictionary
350
30A
  0
SUN
  5
6D
330
29
100
AcDbSun
 90
        1
290
     0
 63
     7
421
 16777215
 40
1.0
291
     1
 91
  2455826
 92
 54000000
292
     0
 70
     2
 71
   256
280
     1
  0
DICTIONARY
  5
311
102
{ACAD_REACTORS
330
C
102
}
330
C
100
AcDbDictionary
281
     1
  0
DICTIONARY
  5
D
102
{ACAD_REACTORS
330
C
102
}
330
C
100
AcDbDictionary
281
     1
  0
DICTIONARY
  5
1A
102
{ACAD_REACTORS
330
C
102
}
330
C
100
AcDbDictionary
281
     1
  3
Layout1
350
1E
  3
Layout2
350
26
  3
Model
350
22
  0
DICTIONARY
  5
43
102
{ACAD_REACTORS
330
C
102
}
330
C
100
AcDbDictionary
281
     1
  3
ByBlock
350
45
  3
ByLayer
350
44
  3
Global
350
46
  0
DICTIONARY
  5
6B
102
{ACAD_REACTORS
330
C
102
}
330
C
100
AcDbDictionary
281
     1
  3
Standard
350
6C
  0
DICTIONARY
  5
17
102
{ACAD_REACTORS
330
C
102
}
330
C
100
AcDbDictionary
281
     1
  3
Standard
350
18
  0
DICTIONARY
  5
19
102
{ACAD_REACTORS
330
C
102
}
330
C
100
AcDbDictionary
281
     1
  0
ACDBDICTIONARYWDFLT
  5
E
102
{ACAD_REACTORS
330
C
102
}
330
C
100
AcDbDictionary
281
     1
  3
Normal
350
F
100
AcDbDictionaryWithDefault
340
F
  0
DICTIONARY
  5
47
102
{ACAD_REACTORS
330
C
102
}
330
C
100
AcDbDictionary
281
     1
  3
A0
350
48
  3
A1
350
49
  3
A2
350
4A
  3
A3
350
4B
  3
A4
350
4C
  3
A5
350
4D
  3
A6
350
4E
  3
A7
350
4F
  3
A8
350
50
  3
A9
350
51
  3
B0
350
52
  3
B1
350
53
  3
B2
350
54
  3
B3
350
55
  3
B4
350
56
  3
B5
350
57
  3
B6
350
58
  3
B7
350
59
  3
B8
350
5A
  3
B9
350
5B
  3
C0
350
5C
  3
C1
350
5D
  3
C2
350
5E
  3
C3
350
5F
  3
C4
350
60
  3
C5
350
61
  3
C6
350
62
  3
C7
350
63
  3
C8
350
64
  3
C9
350
65
  3
D0
350
66
  3
D1
350
67
  3
D2
350
68
  0
DICTIONARY
  5
312
102
{ACAD_REACTORS
330
C
102
}
330
C
100
AcDbDictionary
281
     1
  0
DICTIONARY
  5
69
102
{ACAD_REACTORS
330
C
102
}
330
C
100
AcDbDictionary
281
     1
  3
Standard
350
6A
  0
DICTIONARY
  5
2A
102
{ACAD_REACTORS
330
C
102
}
330
C
100
AcDbDictionary
281
     1
  3
2dWireframe
350
2F
  3
Basic
350
32
  3
Brighten
350
36
  3
ColorChange
350
3A
  3
Conceptual
350
34
  3
Dim
350
35
  3
EdgeColorOff
350
3D
  3
Facepattern
350
39
  3
Flat
350
2B
  3
FlatWithEdges
350
2C
  3
Gouraud
350
2D
  3
GouraudWithEdges
350
2E
  3
Hidden
350
31
  3
JitterOff
350
3B
  3
Linepattern
350
38
  3
OverhangOff
350
3C
  3
Realistic
350
33
  3
Shaded
350
42
  3
Shaded with edges
350
41
  3
Shades of Gray
350
3E
  3
Sketchy
350
3F
  3
Thicken
350
37
  3
Wireframe
350
30
  3
X-Ray
350
40
  0
XRECORD
  5
30E
102
{ACAD_REACTORS
330
C
102
}
330
C
100
AcDbXrecord
280
     1
 90
        1
330
6A
  0
DICTIONARY
  5
30A
102
{ACAD_REACTORS
330
C
102
}
330
C
100
AcDbDictionary
281
     1
  3
CANNOSCALE
350
30B
  3
CMLEADERSTYLE
350
310
  3
CTABLESTYLE
350
30F
  0
LAYOUT
  5
1E
102
{ACAD_REACTORS
330
1A
102
}
330
1A
100
AcDbPlotSettings
  1

  2
none_device
  4

  6

 40
0.0
 41
0.0
 42
0.0
 43
0.0
 44
0.0
 45
0.0
 46
0.0
 47
0.0
 48
0.0
 49
0.0
140
0.0
141
0.0
142
1.0
143
1.0
 70
   688
 72
     1
 73
     0
 74
     5
  7

 75
    16
 76
     0
 77
     2
 78
   300
147
1.0
148
0.0
149
0.0
100
AcDbLayout
  1
Layout1
 70
     1
 71
     1
 10
0.0
 20
0.0
 11
420.0
 21
297.0
 12
0.0
 22
0.0
 32
0.0
 14
1.0000000000E+20
 24
1.0000000000E+20
 34
1.0000000000E+20
 15
-1.0000000000E+20
 25
-1.0000000000E+20
 35
-1.0000000000E+20
146
0.0
 13
0.0
 23
0.0
 33
0.0
 16
1.0
 26
0.0
 36
0.0
 17
0.0
 27
1.0
 37
0.0
 76
     0
330
1B
  0
LAYOUT
  5
26
102
{ACAD_REACTORS
330
1A
102
}
330
1A
100
AcDbPlotSettings
  1

  2
none_device
  4

  6

 40
0.0
 41
0.0
 42
0.0
 43
0.0
 44
0.0
 45
0.0
 46
0.0
 47
0.0
 48
0.0
 49
0.0
140
0.0
141
0.0
142
1.0
143
1.0
 70
   688
 72
     1
 73
     0
 74
     5
  7

 75
    16
 76
     0
 77
     2
 78
   300
147
1.0
148
0.0
149
0.0
100
AcDbLayout
  1
Layout2
 70
     1
 71
     2
 10
0.0
 20
0.0
 11
0.0
 21
0.0
 12
0.0
 22
0.0
 32
0.0
 14
0.0
 24
0.0
 34
0.0
 15
0.0
 25
0.0
 35
0.0
146
0.0
 13
0.0
 23
0.0
 33
0.0
 16
1.0
 26
0.0
 36
0.0
 17
0.0
 27
1.0
 37
0.0
 76
     0
330
23
  0
LAYOUT
  5
22
102
{ACAD_REACTORS
330
1A
102
}
330
1A
100
AcDbPlotSettings
  1

  2
none_device
  4
Letter_(8.50_x_11.00_Inches)
  6

 40
6.35
 41
6.35
 42
6.35000508
 43
6.35000508
 44
215.9
 45
279.4
 46
0.0
 47
0.0
 48
0.0
 49
0.0
140
0.0
141
0.0
142
1.0
143
1.0
 70
  1712
 72
     1
 73
     0
 74
     0
  7

 75
     0
 76
     0
 77
     2
 78
   300
147
1.0
148
0.0
149
0.0
100
AcDbLayout
  1
Model
 70
     1
 71
     0
 10
0.0
 20
0.0
 11
841.0
 21
594.0
 12
0.0
 22
0.0
 32
0.0
 14
0.0
 24
0.0
 34
0.0
 15
841.0
 25
594.0
 35
0.0
146
0.0
 13
0.0
 23
0.0
 33
0.0
 16
1.0
 26
0.0
 36
0.0
 17
0.0
 27
1.0
 37
0.0
 76
     0
330
1F
331
29
  0
MATERIAL
  5
45
102
{ACAD_REACTORS
330
43
102
}
330
43
100
AcDbMaterial
  1
ByBlock
 72
     1
 94
      127
  0
MATERIAL
  5
44
102
{ACAD_REACTORS
330
43
102
}
330
43
100
AcDbMaterial
  1
ByLayer
 72
     1
 94
      127
  0
MATERIAL
  5
46
102
{ACAD_REACTORS
330
43
102
}
330
43
100
AcDbMaterial
  1
Global
 72
     1
 94
      127
  0
MLEADERSTYLE
  5
6C
102
{ACAD_REACTORS
330
6B
102
}
330
6B
100
AcDbMLeaderStyle
179
     2
170
     2
171
     1
172
     0
 90
        2
 40
0.0
 41
0.0
173
     1
 91
-1056964608
340
14
 92
       -2
290
     1
 42
2.0
291
     1
 43
8.0
  3
Standard
341
0
 44
4.0
300

342
11
174
     1
178
     6
175
     1
176
     0
 93
-1056964608
 45
4.0
292
     0
297
     0
 46
4.0
343
0
 94
-1056964608
 47
1.0
 49
1.0
140
1.0
293
     1
141
0.0
294
     1
177
     0
142
1.0
295
     0
296
     0
143
3.75
271
     0
272
     9
273
     9
  0
MLINESTYLE
  5
18
102
{ACAD_REACTORS
330
17
102
}
330
17
100
AcDbMlineStyle
  2
Standard
 70
     0
  3

 62
   256
 51
90.0
 52
90.0
 71
     2
 49
0.5
 62
   256
  6
BYLAYER
 49
-0.5
 62
   256
  6
BYLAYER
  0
ACDBPLACEHOLDER
  5
F
102
{ACAD_REACTORS
330
E
102
}
330
E
  0
SCALE
  5
48
102
{ACAD_REACTORS
330
47
102
}
330
47
100
AcDbScale
 70
     0
300
1:1
140
1.0
141
1.0
290
     1
  0
SCALE
  5
49
102
{ACAD_REACTORS
330
47
102
}
330
47
100
AcDbScale
 70
     0
300
1:2
140
1.0
141
2.0
290
     0
  0
SCALE
  5
4A
102
{ACAD_REACTORS
330
47
102
}
330
47
100
AcDbScale
 70
     0
300
1:4
140
1.0
141
4.0
290
     0
  0
SCALE
  5
4B
102
{ACAD_REACTORS
330
47
102
}
330
47
100
AcDbScale
 70
     0
300
1:5
140
1.0
141
5.0
290
     0
  0
SCALE
  5
4C
102
{ACAD_REACTORS
330
47
102
}
330
47
100
AcDbScale
 70
     0
300
1:8
140
1.0
141
8.0
290
     0
  0
SCALE
  5
4D
102
{ACAD_REACTORS
330
47
102
}
330
47
100
AcDbScale
 70
     0
300
1:10
140
1.0
141
10.0
290
     0
  0
SCALE
  5
4E
102
{ACAD_REACTORS
330
47
102
}
330
47
100
AcDbScale
 70
     0
300
1:16
140
1.0
141
16.0
290
     0
  0
SCALE
  5
4F
102
{ACAD_REACTORS
330
47
102
}
330
47
100
AcDbScale
 70
     0
300
1:20
140
1.0
141
20.0
290
     0
  0
SCALE
  5
50
102
{ACAD_REACTORS
330
47
102
}
330
47
100
AcDbScale
 70
     0
300
1:30
140
1.0
141
30.0
290
     0
  0
SCALE
  5
51
102
{ACAD_REACTORS
330
47
102
}
330
47
100
AcDbScale
 70
     0
300
1:40
140
1.0
141
40.0
290
     0
  0
SCALE
  5
52
102
{ACAD_REACTORS
330
47
102
}
330
47
100
AcDbScale
 70
     0
300
1:50
140
1.0
141
50.0
290
     0
  0
SCALE
  5
53
102
{ACAD_REACTORS
330
47
102
}
330
47
100
AcDbScale
 70
     0
300
1:100
140
1.0
141
100.0
290
     0
  0
SCALE
  5
54
102
{ACAD_REACTORS
330
47
102
}
330
47
100
AcDbScale
 70
     0
300
2:1
140
2.0
141
1.0
290
     0
  0
SCALE
  5
55
102
{ACAD_REACTORS
330
47
102
}
330
47
100
AcDbScale
 70
     0
300
4:1
140
4.0
141
1.0
290
     0
  0
SCALE
  5
56
102
{ACAD_REACTORS
330
47
102
}
330
47
100
AcDbScale
 70
     0
300
8:1
140
8.0
141
1.0
290
     0
  0
SCALE
  5
57
102
{ACAD_REACTORS
330
47
102
}
330
47
100
AcDbScale
 70
     0
300
10:1
140
10.0
141
1.0
290
     0
  0
SCALE
  5
58
102
{ACAD_REACTORS
330
47
102
}
330
47
100
AcDbScale
 70
     0
300
100:1
140
100.0
141
1.0
290
     0
  0
SCALE
  5
59
102
{ACAD_REACTORS
330
47
102
}
330
47
100
AcDbScale
 70
     0
300
1/128" = 1'-0"
140
0.0078125
141
12.0
290
     0
  0
SCALE
  5
5A
102
{ACAD_REACTORS
330
47
102
}
330
47
100
AcDbScale
 70
     0
300
1/64" = 1'-0"
140
0.015625
141
12.0
290
     0
  0
SCALE
  5
5B
102
{ACAD_REACTORS
330
47
102
}
330
47
100
AcDbScale
 70
     0
300
1/32" = 1'-0"
140
0.03125
141
12.0
290
     0
  0
SCALE
  5
5C
102
{ACAD_REACTORS
330
47
102
}
330
47
100
AcDbScale
 70
     0
300
1/16" = 1'-0"
140
0.0625
141
12.0
290
     0
  0
SCALE
  5
5D
102
{ACAD_REACTORS
330
47
102
}
330
47
100
AcDbScale
 70
     0
300
3/32" = 1'-0"
140
0.09375
141
12.0
290
     0
  0
SCALE
  5
5E
102
{ACAD_REACTORS
330
47
102
}
330
47
100
AcDbScale
 70
     0
300
1/8" = 1'-0"
140
0.125
141
12.0
290
     0
  0
SCALE
  5
5F
102
{ACAD_REACTORS
330
47
102
}
330
47
100
AcDbScale
 70
     0
300
3/16" = 1'-0"
140
0.1875
141
12.0
290
     0
  0
SCALE
  5
60
102
{ACAD_REACTORS
330
47
102
}
330
47
100
AcDbScale
 70
     0
300
1/4" = 1'-0"
140
0.25
141
12.0
290
     0
  0
SCALE
  5
61
102
{ACAD_REACTORS
330
47
102
}
330
47
100
AcDbScale
 70
     0
300
3/8" = 1'-0"
140
0.375
141
12.0
290
     0
  0
SCALE
  5
62
102
{ACAD_REACTORS
330
47
102
}
330
47
100
AcDbScale
 70
     0
300
1/2" = 1'-0"
140
0.5
141
12.0
290
     0
  0
SCALE
  5
63
102
{ACAD_REACTORS
330
47
102
}
330
47
100
AcDbScale
 70
     0
300
3/4" = 1'-0"
140
0.75
141
12.0
290
     0
  0
SCALE
  5
64
102
{ACAD_REACTORS
330
47
102
}
330
47
100
AcDbScale
 70
     0
300
1" = 1'-0"
140
1.0
141
12.0
290
     0
  0
SCALE
  5
65
102
{ACAD_REACTORS
330
47
102
}
330
47
100
AcDbScale
 70
     0
300
1-1/2" = 1'-0"
140
1.5
141
12.0
290
     0
  0
SCALE
  5
66
102
{ACAD_REACTORS
330
47
102
}
330
47
100
AcDbScale
 70
     0
300
3" = 1'-0"
140
3.0
141
12.0
290
     0
  0
SCALE
  5
67
102
{ACAD_REACTORS
330
47
102
}
330
47
100
AcDbScale
 70
     0
300
6" = 1'-0"
140
6.0
141
12.0
290
     0
  0
SCALE
  5
68
102
{ACAD_REACTORS
330
47
102
}
330
47
100
AcDbScale
 70
     0
300
1'-0" = 1'-0"
140
12.0
141
12.0
290
     0
  0
TABLESTYLE
  5
6A
102
{ACAD_REACTORS
330
69
102
}
102
{ACAD_XDICTIONARY
360
30C
102
}
330
69
100
AcDbTableStyle
  3
Standard
 70
     0
 71
     0
 40
0.06
 41
0.06
280
     0
281
     0
  7
Standard
140
4.5
170
     2
 62
     0
 63
   257
283
     0
 90
        4
 91
        0
  1

274
    -2
284
     1
 64
     0
275
    -2
285
     1
 65
     0
276
    -2
286
     1
 66
     0
277
    -2
287
     1
 67
     0
278
    -2
288
     1
 68
     0
279
    -2
289
     1
 69
     0
  7
Standard
140
6.0
170
     5
 62
     0
 63
   257
283
     0
 90
        4
 91
        0
  1

274
    -2
284
     1
 64
     0
275
    -2
285
     1
 65
     0
276
    -2
286
     1
 66
     0
277
    -2
287
     1
 67
     0
278
    -2
288
     1
 68
     0
279
    -2
289
     1
 69
     0
  7
Standard
140
4.5
170
     5
 62
     0
 63
   257
283
     0
 90
        4
 91
        0
  1

274
    -2
284
     1
 64
     0
275
    -2
285
     1
 65
     0
276
    -2
286
     1
 66
     0
277
    -2
287
     1
 67
     0
278
    -2
288
     1
 68
     0
279
    -2
289
     1
 69
     0
  0
VISUALSTYLE
  5
2F
102
{ACAD_REACTORS
330
2A
102
}
330
2A
100
AcDbVisualStyle
  2
2dWireframe
 70
     4
177
     2
291
     0
 71
     0
176
     1
 72
     2
176
     1
 73
     0
176
     1
 90
        0
176
     1
 40
0.6
176
     1
 41
30.0
176
     1
 62
     5
 63
     7
421
 16777215
176
     1
 74
     1
176
     1
 91
        4
176
     1
 64
     7
176
     1
 65
   257
176
     1
 75
     1
176
     1
175
     1
176
     1
 42
1.0
176
     1
 92
        0
176
     1
 66
   257
176
     1
 43
1.0
176
     1
 76
     1
176
     1
 77
     6
176
     1
 78
     2
176
     1
 67
     7
176
     1
 79
     5
176
     1
170
     0
176
     1
171
     0
176
     1
290
     0
176
     1
 93
        1
176
     1
 44
0.0
176
     1
173
     0
176
     1
  0
VISUALSTYLE
  5
32
102
{ACAD_REACTORS
330
2A
102
}
330
2A
100
AcDbVisualStyle
  2
Basic
 70
     7
177
     2
291
     1
 71
     1
176
     1
 72
     0
176
     1
 73
     1
176
     1
 90
        0
176
     1
 40
0.6
176
     1
 41
30.0
176
     1
 62
     5
 63
     7
421
 16777215
176
     1
 74
     0
176
     1
 91
        4
176
     1
 64
     7
176
     1
 65
   257
176
     1
 75
     1
176
     1
175
     1
176
     1
 42
1.0
176
     1
 92
        8
176
     1
 66
     7
176
     1
 43
1.0
176
     1
 76
     1
176
     1
 77
     6
176
     1
 78
     2
176
     1
 67
     7
176
     1
 79
     5
176
     1
170
     0
176
     1
171
     0
176
     1
290
     0
176
     1
 93
        1
176
     1
 44
0.0
176
     1
173
     0
176
     1
  0
VISUALSTYLE
  5
36
102
{ACAD_REACTORS
330
2A
102
}
330
2A
100
AcDbVisualStyle
  2
Brighten
 70
    12
177
     2
291
     1
 71
     2
176
     1
 72
     2
176
     1
 73
     0
176
     1
 90
        0
176
     1
 40
0.6
176
     1
 41
30.0
176
     1
 62
     5
 63
     7
421
 16777215
176
     1
 74
     1
176
     1
 91
        4
176
     1
 64
     7
176
     1
 65
   257
176
     1
 75
     1
176
     1
175
     1
176
     1
 42
1.0
176
     1
 92
        8
176
     1
 66
     7
176
     1
 43
1.0
176
     1
 76
     1
176
     1
 77
     6
176
     1
 78
     2
176
     1
 67
     7
176
     1
 79
     5
176
     1
170
     0
176
     1
171
     0
176
     1
290
     0
176
     1
 93
        1
176
     1
 44
50.0
176
     1
173
     0
176
     1
  0
VISUALSTYLE
  5
3A
102
{ACAD_REACTORS
330
2A
102
}
330
2A
100
AcDbVisualStyle
  2
ColorChange
 70
    16
177
     2
291
     1
 71
     2
176
     1
 72
     2
176
     1
 73
     3
176
     1
 90
        0
176
     1
 40
0.6
176
     1
 41
30.0
176
     1
 62
     5
 63
     8
421
  8421504
176
     1
 74
     1
176
     1
 91
        4
176
     1
 64
     7
176
     1
 65
   257
176
     1
 75
     1
176
     1
175
     1
176
     1
 42
1.0
176
     1
 92
        8
176
     1
 66
     8
424
  8421504
176
     1
 43
1.0
176
     1
 76
     1
176
     1
 77
     6
176
     1
 78
     2
176
     1
 67
     7
176
     1
 79
     5
176
     1
170
     0
176
     1
171
     0
176
     1
290
     0
176
     1
 93
        1
176
     1
 44
0.0
176
     1
173
     0
176
     1
  0
VISUALSTYLE
  5
34
102
{ACAD_REACTORS
330
2A
102
}
330
2A
100
AcDbVisualStyle
  2
Conceptual
 70
     9
177
     2
291
     0
 71
     3
176
     1
 72
     2
176
     1
 73
     0
176
     1
 90
        0
176
     1
 40
0.6
176
     1
 41
30.0
176
     1
 62
     5
 63
     7
421
 16777215
176
     1
 74
     2
176
     1
 91
        2
176
     1
 64
     7
176
     1
 65
   257
176
     1
 75
     1
176
     1
175
     1
176
     1
 42
179.0
176
     1
 92
        8
176
     1
 66
     7
176
     1
 43
1.0
176
     1
 76
     1
176
     1
 77
     6
176
     1
 78
     2
176
     1
 67
     7
176
     1
 79
     3
176
     1
170
     0
176
     1
171
     0
176
     1
290
     0
176
     1
 93
        1
176
     1
 44
0.0
176
     1
173
     0
176
     1
  0
VISUALSTYLE
  5
35
102
{ACAD_REACTORS
330
2A
102
}
330
2A
100
AcDbVisualStyle
  2
Dim
 70
    11
177
     2
291
     1
 71
     2
176
     1
 72
     2
176
     1
 73
     0
176
     1
 90
        0
176
     1
 40
0.6
176
     1
 41
30.0
176
     1
 62
     5
 63
     7
421
 16777215
176
     1
 74
     1
176
     1
 91
        4
176
     1
 64
     7
176
     1
 65
   257
176
     1
 75
     1
176
     1
175
     1
176
     1
 42
1.0
176
     1
 92
        8
176
     1
 66
     7
176
     1
 43
1.0
176
     1
 76
     1
176
     1
 77
     6
176
     1
 78
     2
176
     1
 67
     7
176
     1
 79
     5
176
     1
170
     0
176
     1
171
     0
176
     1
290
     0
176
     1
 93
        1
176
     1
 44
-50.0
176
     1
173
     0
176
     1
  0
VISUALSTYLE
  5
3D
102
{ACAD_REACTORS
330
2A
102
}
330
2A
100
AcDbVisualStyle
  2
EdgeColorOff
 70
    22
177
     2
291
     1
 71
     2
176
     0
 72
     2
176
     0
 73
     0
176
     0
 90
        0
176
     0
 40
0.6
176
     0
 41
30.0
176
     0
 62
     5
 63
     7
421
 16777215
176
     0
 74
     1
176
     0
 91
        4
176
     0
 64
     7
176
     0
 65
   257
176
     0
 75
     1
176
     0
175
     1
176
     0
 42
1.0
176
     0
 92
        8
176
     2
 66
     7
176
     0
 43
1.0
176
     0
 76
     1
176
     0
 77
     6
176
     0
 78
     2
176
     0
 67
     7
176
     0
 79
     5
176
     0
170
     0
176
     0
171
     0
176
     0
290
     0
176
     0
 93
        1
176
     0
 44
0.0
176
     0
173
     0
176
     0
  0
VISUALSTYLE
  5
39
102
{ACAD_REACTORS
330
2A
102
}
330
2A
100
AcDbVisualStyle
  2
Facepattern
 70
    15
177
     2
291
     1
 71
     2
176
     1
 72
     2
176
     1
 73
     0
176
     1
 90
        0
176
     1
 40
0.6
176
     1
 41
30.0
176
     1
 62
     5
 63
     7
421
 16777215
176
     1
 74
     1
176
     1
 91
        4
176
     1
 64
     7
176
     1
 65
   257
176
     1
 75
     1
176
     1
175
     1
176
     1
 42
1.0
176
     1
 92
        8
176
     1
 66
     7
176
     1
 43
1.0
176
     1
 76
     1
176
     1
 77
     6
176
     1
 78
     2
176
     1
 67
     7
176
     1
 79
     5
176
     1
170
     0
176
     1
171
     0
176
     1
290
     0
176
     1
 93
        1
176
     1
 44
0.0
176
     1
173
     0
176
     1
  0
VISUALSTYLE
  5
2B
102
{ACAD_REACTORS
330
2A
102
}
330
2A
100
AcDbVisualStyle
  2
Flat
 70
     0
177
     2
291
     1
 71
     2
176
     1
 72
     1
176
     1
 73
     1
176
     1
 90
        2
176
     1
 40
0.6
176
     1
 41
30.0
176
     1
 62
     5
 63
     7
421
 16777215
176
     1
 74
     0
176
     1
 91
        0
176
     1
 64
     7
176
     1
 65
   257
176
     1
 75
     1
176
     1
175
     1
176
     1
 42
1.0
176
     1
 92
        8
176
     1
 66
     7
176
     1
 43
1.0
176
     1
 76
     1
176
     1
 77
     6
176
     1
 78
     2
176
     1
 67
     7
176
     1
 79
     5
176
     1
170
     0
176
     1
171
     0
176
     1
290
     0
176
     1
 93
       13
176
     1
 44
0.0
176
     1
173
     0
176
     1
  0
VISUALSTYLE
  5
2C
102
{ACAD_REACTORS
330
2A
102
}
330
2A
100
AcDbVisualStyle
  2
FlatWithEdges
 70
     1
177
     2
291
     1
 71
     2
176
     1
 72
     1
176
     1
 73
     1
176
     1
 90
        2
176
     1
 40
0.6
176
     1
 41
30.0
176
     1
 62
     5
 63
     7
421
 16777215
176
     1
 74
     1
176
     1
 91
        0
176
     1
 64
     7
176
     1
 65
   257
176
     1
 75
     1
176
     1
175
     1
176
     1
 42
1.0
176
     1
 92
        0
176
     1
 66
   257
176
     1
 43
1.0
176
     1
 76
     1
176
     1
 77
     6
176
     1
 78
     2
176
     1
 67
     7
176
     1
 79
     5
176
     1
170
     0
176
     1
171
     0
176
     1
290
     0
176
     1
 93
       13
176
     1
 44
0.0
176
     1
173
     0
176
     1
  0
VISUALSTYLE
  5
2D
102
{ACAD_REACTORS
330
2A
102
}
330
2A
100
AcDbVisualStyle
  2
Gouraud
 70
     2
177
     2
291
     1
 71
     2
176
     1
 72
     2
176
     1
 73
     1
176
     1
 90
        2
176
     1
 40
0.6
176
     1
 41
30.0
176
     1
 62
     5
 63
     7
421
 16777215
176
     1
 74
     0
176
     1
 91
        0
176
     1
 64
     7
176
     1
 65
   257
176
     1
 75
     1
176
     1
175
     1
176
     1
 42
1.0
176
     1
 92
        0
176
     1
 66
     7
176
     1
 43
1.0
176
     1
 76
     1
176
     1
 77
     6
176
     1
 78
     2
176
     1
 67
     7
176
     1
 79
     5
176
     1
170
     0
176
     1
171
     0
176
     1
290
     0
176
     1
 93
       13
176
     1
 44
0.0
176
     1
173
     0
176
     1
  0
VISUALSTYLE
  5
2E
102
{ACAD_REACTORS
330
2A
102
}
330
2A
100
AcDbVisualStyle
  2
GouraudWithEdges
 70
     3
177
     2
291
     1
 71
     2
176
     1
 72
     2
176
     1
 73
     1
176
     1
 90
        2
176
     1
 40
0.6
176
     1
 41
30.0
176
     1
 62
     5
 63
     7
421
 16777215
176
     1
 74
     1
176
     1
 91
        0
176
     1
 64
     7
176
     1
 65
   257
176
     1
 75
     1
176
     1
175
     1
176
     1
 42
1.0
176
     1
 92
        0
176
     1
 66
   257
176
     1
 43
1.0
176
     1
 76
     1
176
     1
 77
     6
176
     1
 78
     2
176
     1
 67
     7
176
     1
 79
     5
176
     1
170
     0
176
     1
171
     0
176
     1
290
     0
176
     1
 93
       13
176
     1
 44
0.0
176
     1
173
     0
176
     1
  0
VISUALSTYLE
  5
31
102
{ACAD_REACTORS
330
2A
102
}
330
2A
100
AcDbVisualStyle
  2
Hidden
 70
     6
177
     2
291
     0
 71
     1
176
     1
 72
     2
176
     1
 73
     2
176
     1
 90
        0
176
     1
 40
0.6
176
     1
 41
30.0
176
     1
 62
     5
 63
     7
421
 16777215
176
     1
 74
     2
176
     1
 91
        2
176
     1
 64
     7
176
     1
 65
   257
176
     1
 75
     2
176
     1
175
     1
176
     1
 42
40.0
176
     1
 92
        0
176
     1
 66
   257
176
     1
 43
1.0
176
     1
 76
     1
176
     1
 77
     6
176
     1
 78
     2
176
     1
 67
     7
176
     1
 79
     3
176
     1
170
     0
176
     1
171
     0
176
     1
290
     0
176
     1
 93
        1
176
     1
 44
0.0
176
     1
173
     0
176
     1
  0
VISUALSTYLE
  5
3B
102
{ACAD_REACTORS
330
2A
102
}
330
2A
100
AcDbVisualStyle
  2
JitterOff
 70
    20
177
     2
291
     1
 71
     2
176
     0
 72
     2
176
     0
 73
     0
176
     0
 90
        0
176
     0
 40
0.6
176
     0
 41
30.0
176
     0
 62
     5
 63
     7
421
 16777215
176
     0
 74
     1
176
     0
 91
        4
176
     0
 64
     7
176
     0
 65
   257
176
     0
 75
     1
176
     0
175
     1
176
     0
 42
1.0
176
     0
 92
       10
176
     2
 66
     7
176
     0
 43
1.0
176
     0
 76
     1
176
     0
 77
     6
176
     0
 78
     2
176
     0
 67
     7
176
     0
 79
     5
176
     0
170
     0
176
     0
171
     0
176
     0
290
     0
176
     0
 93
        1
176
     0
 44
0.0
176
     0
173
     0
176
     0
  0
VISUALSTYLE
  5
38
102
{ACAD_REACTORS
330
2A
102
}
330
2A
100
AcDbVisualStyle
  2
Linepattern
 70
    14
177
     2
291
     1
 71
     2
176
     1
 72
     2
176
     1
 73
     0
176
     1
 90
        0
176
     1
 40
0.6
176
     1
 41
30.0
176
     1
 62
     5
 63
     7
421
 16777215
176
     1
 74
     1
176
     1
 91
        4
176
     1
 64
     7
176
     1
 65
   257
176
     1
 75
     7
176
     1
175
     7
176
     1
 42
1.0
176
     1
 92
        8
176
     1
 66
     7
176
     1
 43
1.0
176
     1
 76
     1
176
     1
 77
     6
176
     1
 78
     2
176
     1
 67
     7
176
     1
 79
     5
176
     1
170
     0
176
     1
171
     0
176
     1
290
     0
176
     1
 93
        1
176
     1
 44
0.0
176
     1
173
     0
176
     1
  0
VISUALSTYLE
  5
3C
102
{ACAD_REACTORS
330
2A
102
}
330
2A
100
AcDbVisualStyle
  2
OverhangOff
 70
    21
177
     2
291
     1
 71
     2
176
     0
 72
     2
176
     0
 73
     0
176
     0
 90
        0
176
     0
 40
0.6
176
     0
 41
30.0
176
     0
 62
     5
 63
     7
421
 16777215
176
     0
 74
     1
176
     0
 91
        4
176
     0
 64
     7
176
     0
 65
   257
176
     0
 75
     1
176
     0
175
     1
176
     0
 42
1.0
176
     0
 92
        9
176
     2
 66
     7
176
     0
 43
1.0
176
     0
 76
     1
176
     0
 77
     6
176
     0
 78
     2
176
     0
 67
     7
176
     0
 79
     5
176
     0
170
     0
176
     0
171
     0
176
     0
290
     0
176
     0
 93
        1
176
     0
 44
0.0
176
     0
173
     0
176
     0
  0
VISUALSTYLE
  5
33
102
{ACAD_REACTORS
330
2A
102
}
330
2A
100
AcDbVisualStyle
  2
Realistic
 70
     8
177
     2
291
     0
 71
     2
176
     1
 72
     3
176
     1
 73
     0
176
     1
 90
        2
176
     1
 40
0.6
176
     1
 41
30.0
176
     1
 62
     5
 63
     7
421
 16777215
176
     1
 74
     0
176
     1
 91
        0
176
     1
 64
     7
176
     1
 65
   257
176
     1
 75
     1
176
     1
175
     1
176
     1
 42
1.0
176
     1
 92
        8
176
     1
 66
   257
176
     1
 43
1.0
176
     1
 76
     1
176
     1
 77
     6
176
     1
 78
     2
176
     1
 67
     7
176
     1
 79
     3
176
     1
170
     0
176
     1
171
     0
176
     1
290
     0
176
     1
 93
       13
176
     1
 44
0.0
176
     1
173
     0
176
     1
  0
VISUALSTYLE
  5
42
102
{ACAD_REACTORS
330
2A
102
}
330
2A
100
AcDbVisualStyle
  2
Shaded
 70
    27
177
     2
291
     0
 71
     2
176
     1
 72
     2
176
     1
 73
     1
176
     1
 90
        2
176
     1
 40
0.6
176
     1
 41
30.0
176
     1
 62
     5
 63
     7
421
 16777215
176
     1
 74
     0
176
     1
 91
        4
176
     1
 64
     7
176
     1
 65
   257
176
     1
 75
     1
176
     1
175
     1
176
     1
 42
1.0
176
     1
 92
        8
176
     1
 66
   257
176
     1
 43
1.0
176
     1
 76
     1
176
     1
 77
     6
176
     1
 78
     2
176
     1
 67
     8
425
  7895160
176
     1
 79
     3
176
     1
170
     0
176
     1
171
     0
176
     1
290
     0
176
     1
 93
        5
176
     1
 44
0.0
176
     1
173
     0
176
     1
  0
VISUALSTYLE
  5
41
102
{ACAD_REACTORS
330
2A
102
}
330
2A
100
AcDbVisualStyle
  2
Shaded with edges
 70
    26
177
     2
291
     0
 71
     2
176
     1
 72
     2
176
     1
 73
     1
176
     1
 90
        2
176
     1
 40
0.6
176
     1
 41
30.0
176
     1
 62
     5
 63
     7
421
 16777215
176
     1
 74
     1
176
     1
 91
       10
176
     1
 64
     7
176
     1
 65
   257
176
     1
 75
     2
176
     1
175
     1
176
     1
 42
1.0
176
     1
 92
        8
176
     1
 66
   257
176
     1
 43
1.0
176
     1
 76
     1
176
     1
 77
     6
176
     1
 78
     2
176
     1
 67
     7
176
     1
 79
     3
176
     1
170
     0
176
     1
171
     0
176
     1
290
     0
176
     1
 93
        5
176
     1
 44
0.0
176
     1
173
     0
176
     1
  0
VISUALSTYLE
  5
3E
102
{ACAD_REACTORS
330
2A
102
}
330
2A
100
AcDbVisualStyle
  2
Shades of Gray
 70
    23
177
     2
291
     0
 71
     2
176
     1
 72
     2
176
     1
 73
     3
176
     1
 90
        0
176
     1
 40
0.6
176
     1
 41
30.0
176
     1
 62
     5
 63
     7
421
 16777215
176
     1
 74
     2
176
     1
 91
        2
176
     1
 64
     7
176
     1
 65
     7
176
     1
 75
     1
176
     1
175
     1
176
     1
 42
40.0
176
     1
 92
        8
176
     1
 66
     7
176
     1
 43
1.0
176
     1
 76
     1
176
     1
 77
     6
176
     1
 78
     2
176
     1
 67
     7
176
     1
 79
     3
176
     1
170
     0
176
     1
171
     0
176
     1
290
     0
176
     1
 93
        1
176
     1
 44
0.0
176
     1
173
     0
176
     1
  0
VISUALSTYLE
  5
3F
102
{ACAD_REACTORS
330
2A
102
}
330
2A
100
AcDbVisualStyle
  2
Sketchy
 70
    24
177
     2
291
     0
 71
     1
176
     1
 72
     2
176
     1
 73
     2
176
     1
 90
        0
176
     1
 40
0.6
176
     1
 41
30.0
176
     1
 62
     5
 63
     7
421
 16777215
176
     1
 74
     2
176
     1
 91
        2
176
     1
 64
     7
176
     1
 65
     7
176
     1
 75
     1
176
     1
175
     1
176
     1
 42
40.0
176
     1
 92
       11
176
     1
 66
     7
176
     1
 43
1.0
176
     1
 76
     1
176
     1
 77
     6
176
     1
 78
     2
176
     1
 67
     7
176
     1
 79
     6
176
     1
170
     0
176
     1
171
     0
176
     1
290
     0
176
     1
 93
        1
176
     1
 44
0.0
176
     1
173
     0
176
     1
  0
VISUALSTYLE
  5
37
102
{ACAD_REACTORS
330
2A
102
}
330
2A
100
AcDbVisualStyle
  2
Thicken
 70
    13
177
     2
291
     1
 71
     2
176
     1
 72
     2
176
     1
 73
     0
176
     1
 90
        0
176
     1
 40
0.6
176
     1
 41
30.0
176
     1
 62
     5
 63
     7
421
 16777215
176
     1
 74
     1
176
     1
 91
        4
176
     1
 64
     7
176
     1
 65
   257
176
     1
 75
     1
176
     1
175
     1
176
     1
 42
1.0
176
     1
 92
       12
176
     1
 66
     7
176
     1
 43
1.0
176
     1
 76
     1
176
     1
 77
     6
176
     1
 78
     2
176
     1
 67
     7
176
     1
 79
     5
176
     1
170
     0
176
     1
171
     0
176
     1
290
     0
176
     1
 93
        1
176
     1
 44
0.0
176
     1
173
     0
176
     1
  0
VISUALSTYLE
  5
30
102
{ACAD_REACTORS
330
2A
102
}
330
2A
100
AcDbVisualStyle
  2
Wireframe
 70
     5
177
     2
291
     0
 71
     0
176
     1
 72
     2
176
     1
 73
     0
176
     1
 90
        0
176
     1
 40
0.6
176
     1
 41
30.0
176
     1
 62
     5
 63
     7
421
 16777215
176
     1
 74
     1
176
     1
 91
        4
176
     1
 64
     7
176
     1
 65
   257
176
     1
 75
     1
176
     1
175
     1
176
     1
 42
1.0
176
     1
 92
        0
176
     1
 66
   257
176
     1
 43
1.0
176
     1
 76
     1
176
     1
 77
     6
176
     1
 78
     2
176
     1
 67
     7
176
     1
 79
     3
176
     1
170
     0
176
     1
171
     0
176
     1
290
     0
176
     1
 93
        1
176
     1
 44
0.0
176
     1
173
     0
176
     1
  0
VISUALSTYLE
  5
40
102
{ACAD_REACTORS
330
2A
102
}
330
2A
100
AcDbVisualStyle
  2
X-Ray
 70
    25
177
     2
291
     0
 71
     2
176
     1
 72
     2
176
     1
 73
     1
176
     1
 90
        1
176
     1
 40
0.5
176
     1
 41
30.0
176
     1
 62
     5
 63
     7
421
 16777215
176
     1
 74
     1
176
     1
 91
        0
176
     1
 64
     7
176
     1
 65
   257
176
     1
 75
     1
176
     1
175
     1
176
     1
 42
1.0
176
     1
 92
        8
176
     1
 66
     7
176
     1
 43
1.0
176
     1
 76
     1
176
     1
 77
     6
176
     1
 78
     2
176
     1
 67
     7
176
     1
 79
     3
176
     1
170
     0
176
     1
171
     0
176
     1
290
     0
176
     1
 93
       13
176
     1
 44
0.0
176
     1
173
     0
176
     1
  0
DICTIONARYVAR
  5
30B
102
{ACAD_REACTORS
330
30A
102
}
330
30A
100
DictionaryVariables
280
     0
  1
1:1
  0
DICTIONARYVAR
  5
310
102
{ACAD_REACTORS
330
30A
102
}
330
30A
100
DictionaryVariables
280
     0
  1
Standard
  0
DICTIONARYVAR
  5
30F
102
{ACAD_REACTORS
330
30A
102
}
330
30A
100
DictionaryVariables
280
     0
  1
Standard
  0
DICTIONARY
  5
30C
330
6A
100
AcDbDictionary
280
     1
281
     1
  3
ACAD_ROUNDTRIP_2008_TABLESTYLE_CELLSTYLEMAP
360
30D
  0
CELLSTYLEMAP
  5
30D
102
{ACAD_REACTORS
330
30C
102
}
330
30C
100
AcDbCellStyleMap
 90
        3
300
CELLSTYLE
  1
TABLEFORMAT_BEGIN
 90
        5
170
     1
 91
        0
 92
    32768
 62
   257
 93
        1
300
CONTENTFORMAT
  1
CONTENTFORMAT_BEGIN
 90
        0
 91
        0
 92
        4
 93
        0
300

 40
0.0
140
1.0
 94
        5
 62
     0
340
11
144
6.0
309
CONTENTFORMAT_END
171
     1
301
MARGIN
  1
CELLMARGIN_BEGIN
 40
1.5
 40
1.5
 40
1.5
 40
1.5
 40
1.5
 40
1.5
309
CELLMARGIN_END
 94
        6
 95
        1
302
GRIDFORMAT
  1
GRIDFORMAT_BEGIN
 90
        0
 91
        1
 62
     0
 92
       -2
340
14
 93
        0
 40
0.045
309
GRIDFORMAT_END
 95
        2
302
GRIDFORMAT
  1
GRIDFORMAT_BEGIN
 90
        0
 91
        1
 62
     0
 92
       -2
340
14
 93
        0
 40
0.045
309
GRIDFORMAT_END
 95
        4
302
GRIDFORMAT
  1
GRIDFORMAT_BEGIN
 90
        0
 91
        1
 62
     0
 92
       -2
340
14
 93
        0
 40
0.045
309
GRIDFORMAT_END
 95
        8
302
GRIDFORMAT
  1
GRIDFORMAT_BEGIN
 90
        0
 91
        1
 62
     0
 92
       -2
340
14
 93
        0
 40
0.045
309
GRIDFORMAT_END
 95
       16
302
GRIDFORMAT
  1
GRIDFORMAT_BEGIN
 90
        0
 91
        1
 62
     0
 92
       -2
340
14
 93
        0
 40
0.045
309
GRIDFORMAT_END
 95
       32
302
GRIDFORMAT
  1
GRIDFORMAT_BEGIN
 90
        0
 91
        1
 62
     0
 92
       -2
340
14
 93
        0
 40
0.045
309
GRIDFORMAT_END
309
TABLEFORMAT_END
  1
CELLSTYLE_BEGIN
 90
        1
 91
        1
300
_TITLE
309
CELLSTYLE_END
300
CELLSTYLE
  1
TABLEFORMAT_BEGIN
 90
        5
170
     1
 91
        0
 92
        0
 62
   257
 93
        1
300
CONTENTFORMAT
  1
CONTENTFORMAT_BEGIN
 90
        0
 91
        0
 92
        4
 93
        0
300

 40
0.0
140
1.0
 94
        5
 62
     0
340
11
144
4.5
309
CONTENTFORMAT_END
171
     1
301
MARGIN
  1
CELLMARGIN_BEGIN
 40
1.5
 40
1.5
 40
1.5
 40
1.5
 40
1.5
 40
1.5
309
CELLMARGIN_END
 94
        6
 95
        1
302
GRIDFORMAT
  1
GRIDFORMAT_BEGIN
 90
        0
 91
        1
 62
     0
 92
       -2
340
14
 93
        0
 40
0.045
309
GRIDFORMAT_END
 95
        2
302
GRIDFORMAT
  1
GRIDFORMAT_BEGIN
 90
        0
 91
        1
 62
     0
 92
       -2
340
14
 93
        0
 40
0.045
309
GRIDFORMAT_END
 95
        4
302
GRIDFORMAT
  1
GRIDFORMAT_BEGIN
 90
        0
 91
        1
 62
     0
 92
       -2
340
14
 93
        0
 40
0.045
309
GRIDFORMAT_END
 95
        8
302
GRIDFORMAT
  1
GRIDFORMAT_BEGIN
 90
        0
 91
        1
 62
     0
 92
       -2
340
14
 93
        0
 40
0.045
309
GRIDFORMAT_END
 95
       16
302
GRIDFORMAT
  1
GRIDFORMAT_BEGIN
 90
        0
 91
        1
 62
     0
 92
       -2
340
14
 93
        0
 40
0.045
309
GRIDFORMAT_END
 95
       32
302
GRIDFORMAT
  1
GRIDFORMAT_BEGIN
 90
        0
 91
        1
 62
     0
 92
       -2
340
14
 93
        0
 40
0.045
309
GRIDFORMAT_END
309
TABLEFORMAT_END
  1
CELLSTYLE_BEGIN
 90
        2
 91
        1
300
_HEADER
309
CELLSTYLE_END
300
CELLSTYLE
  1
TABLEFORMAT_BEGIN
 90
        5
170
     1
 91
        0
 92
        0
 62
   257
 93
        1
300
CONTENTFORMAT
  1
CONTENTFORMAT_BEGIN
 90
        0
 91
        0
 92
        4
 93
        0
300

 40
0.0
140
1.0
 94
        2
 62
     0
340
11
144
4.5
309
CONTENTFORMAT_END
171
     1
301
MARGIN
  1
CELLMARGIN_BEGIN
 40
1.5
 40
1.5
 40
1.5
 40
1.5
 40
1.5
 40
1.5
309
CELLMARGIN_END
 94
        6
 95
        1
302
GRIDFORMAT
  1
GRIDFORMAT_BEGIN
 90
        0
 91
        1
 62
     0
 92
       -2
340
14
 93
        0
 40
0.045
309
GRIDFORMAT_END
 95
        2
302
GRIDFORMAT
  1
GRIDFORMAT_BEGIN
 90
        0
 91
        1
 62
     0
 92
       -2
340
14
 93
        0
 40
0.045
309
GRIDFORMAT_END
 95
        4
302
GRIDFORMAT
  1
GRIDFORMAT_BEGIN
 90
        0
 91
        1
 62
     0
 92
       -2
340
14
 93
        0
 40
0.045
309
GRIDFORMAT_END
 95
        8
302
GRIDFORMAT
  1
GRIDFORMAT_BEGIN
 90
        0
 91
        1
 62
     0
 92
       -2
340
14
 93
        0
 40
0.045
309
GRIDFORMAT_END
 95
       16
302
GRIDFORMAT
  1
GRIDFORMAT_BEGIN
 90
        0
 91
        1
 62
     0
 92
       -2
340
14
 93
        0
 40
0.045
309
GRIDFORMAT_END
 95
       32
302
GRIDFORMAT
  1
GRIDFORMAT_BEGIN
 90
        0
 91
        1
 62
     0
 92
       -2
340
14
 93
        0
 40
0.045
309
GRIDFORMAT_END
309
TABLEFORMAT_END
  1
CELLSTYLE_BEGIN
 90
        3
 91
        2
300
_DATA
309
CELLSTYLE_END
  0
ENDSEC
  0
EOF
