  0
SECTION
  2
HEADER
  9
$ACADVER
  1
AC1024
  9
$ACADMAINTVER
 70
     6
  9
$DWGCODEPAGE
  3
ANSI_1252
  9
$INSBASE
 10
0.0
 20
0.0
 30
0.0
  9
$EXTMIN
 10
0.0
 20
0.0
 30
0.0
  9
$EXTMAX
 10
594.0
 20
841.0
 30
0.0
  9
$LIMMIN
 10
0.0
 20
0.0
  9
$LIMMAX
 10
594.0
 20
841.0
  9
$ORTHOMODE
 70
     0
  9
$REGENMODE
 70
     1
  9
$FILLMODE
 70
     1
  9
$QTEXTMODE
 70
     0
  9
$MIRRTEXT
 70
     1
  9
$LTSCALE
 40
1.0
  9
$ATTMODE
 70
     1
  9
$TEXTSIZE
 40
10.0
  9
$TRACEWID
 40
1.0
  9
$TEXTSTYLE
  7
Standard
  9
$CLAYER
  8
0
  9
$CELTYPE
  6
ByLayer
  9
$CECOLOR
 62
   256
  9
$CELTSCALE
 40
1.0
  9
$DISPSILH
 70
     0
  9
$DIMSCALE
 40
1.0
  9
$DIMASZ
 40
2.5
  9
$DIMEXO
 40
0.0
  9
$DIMDLI
 40
3.75
  9
$DIMRND
 40
0.0
  9
$DIMDLE
 40
0.0
  9
$DIMEXE
 40
1.0
  9
$DIMTP
 40
0.0
  9
$DIMTM
 40
0.0
  9
$DIMTXT
 40
3.5
  9
$DIMCEN
 40
2.5
  9
$DIMTSZ
 40
0.0
  9
$DIMTOL
 70
     0
  9
$DIMLIM
 70
     0
  9
$DIMTIH
 70
     1
  9
$DIMTOH
 70
     1
  9
$DIMSE1
 70
     0
  9
$DIMSE2
 70
     0
  9
$DIMTAD
 70
     1
  9
$DIMZIN
 70
     0
  9
$DIMBLK
  1

  9
$DIMASO
 70
     1
  9
$DIMSHO
 70
     1
  9
$DIMPOST
  1

  9
$DIMAPOST
  1

  9
$DIMALT
 70
     0
  9
$DIMALTD
 70
     3
  9
$DIMALTF
 40
0.0393700787
  9
$DIMLFAC
 40
1.0
  9
$DIMTOFL
 70
     1
  9
$DIMTVP
 40
0.0
  9
$DIMTIX
 70
     0
  9
$DIMSOXD
 70
     0
  9
$DIMSAH
 70
     0
  9
$DIMBLK1
  1

  9
$DIMBLK2
  1

  9
$DIMSTYLE
  2
ISO-25
  9
$DIMCLRD
 70
     0
  9
$DIMCLRE
 70
     0
  9
$DIMCLRT
 70
     0
  9
$DIMTFAC
 40
1.0
  9
$DIMGAP
 40
1.5
  9
$DIMJUST
 70
     0
  9
$DIMSD1
 70
     0
  9
$DIMSD2
 70
     0
  9
$DIMTOLJ
 70
     0
  9
$DIMTZIN
 70
     0
  9
$DIMALTZ
 70
     0
  9
$DIMALTTZ
 70
     0
  9
$DIMUPT
 70
     0
  9
$DIMDEC
 70
     2
  9
$DIMTDEC
 70
     2
  9
$DIMALTU
 70
     2
  9
$DIMALTTD
 70
     3
  9
$DIMTXSTY
  7
Standard
  9
$DIMAUNIT
 70
     0
  9
$DIMADEC
 70
     2
  9
$DIMALTRND
 40
0.0
  9
$DIMAZIN
 70
     0
  9
$DIMDSEP
 70
    44
  9
$DIMATFIT
 70
     3
  9
$DIMFRAC
 70
     0
  9
$DIMLDRBLK
  1

  9
$DIMLUNIT
 70
     2
  9
$DIMLWD
 70
    -2
  9
$DIMLWE
 70
    -2
  9
$DIMTMOVE
 70
     0
  9
$DIMFXL
 40
1.0
  9
$DIMFXLON
 70
     0
  9
$DIMJOGANG
 40
0.7853981634
  9
$DIMTFILL
 70
     0
  9
$DIMTFILLCLR
 70
     0
  9
$DIMARCSYM
 70
     0
  9
$DIMLTYPE
  6

  9
$DIMLTEX1
  6

  9
$DIMLTEX2
  6

  9
$DIMTXTDIRECTION
 70
     0
  9
$LUNITS
 70
     2
  9
$LUPREC
 70
     2
  9
$SKETCHINC
 40
1.0
  9
$FILLETRAD
 40
10.0
  9
$AUNITS
 70
     0
  9
$AUPREC
 70
     2
  9
$MENU
  1
.
  9
$ELEVATION
 40
0.0
  9
$PELEVATION
 40
0.0
  9
$THICKNESS
 40
0.0
  9
$LIMCHECK
 70
     0
  9
$CHAMFERA
 40
10.0
  9
$CHAMFERB
 40
10.0
  9
$CHAMFERC
 40
20.0
  9
$CHAMFERD
 40
0.0
  9
$SKPOLY
 70
     0
  9
$TDCREATE
 40
2456150.465601354
  9
$TDUCREATE
 40
2456150.382268021
  9
$TDUPDATE
 40
2456150.465601366
  9
$TDUUPDATE
 40
2456150.382268033
  9
$TDINDWG
 40
0.0000000116
  9
$TDUSRTIMER
 40
0.0000000116
  9
$USRTIMER
 70
     1
  9
$ANGBASE
 50
0.0
  9
$ANGDIR
 70
     0
  9
$PDMODE
 70
     0
  9
$PDSIZE
 40
-1.0
  9
$PLINEWID
 40
0.0
  9
$SPLFRAME
 70
     0
  9
$SPLINETYPE
 70
     6
  9
$SPLINESEGS
 70
     8
  9
$HANDSEED
  5
16B
  9
$SURFTAB1
 70
     6
  9
$SURFTAB2
 70
     6
  9
$SURFTYPE
 70
     6
  9
$SURFU
 70
     6
  9
$SURFV
 70
     6
  9
$UCSBASE
  2

  9
$UCSNAME
  2

  9
$UCSORG
 10
0.0
 20
0.0
 30
0.0
  9
$UCSXDIR
 10
1.0
 20
0.0
 30
0.0
  9
$UCSYDIR
 10
0.0
 20
1.0
 30
0.0
  9
$UCSORTHOREF
  2

  9
$UCSORTHOVIEW
 70
     0
  9
$UCSORGTOP
 10
0.0
 20
0.0
 30
0.0
  9
$UCSORGBOTTOM
 10
0.0
 20
0.0
 30
0.0
  9
$UCSORGLEFT
 10
0.0
 20
0.0
 30
0.0
  9
$UCSORGRIGHT
 10
0.0
 20
0.0
 30
0.0
  9
$UCSORGFRONT
 10
0.0
 20
0.0
 30
0.0
  9
$UCSORGBACK
 10
0.0
 20
0.0
 30
0.0
  9
$PUCSBASE
  2

  9
$PUCSNAME
  2

  9
$PUCSORG
 10
0.0
 20
0.0
 30
0.0
  9
$PUCSXDIR
 10
1.0
 20
0.0
 30
0.0
  9
$PUCSYDIR
 10
0.0
 20
1.0
 30
0.0
  9
$PUCSORTHOREF
  2

  9
$PUCSORTHOVIEW
 70
     0
  9
$PUCSORGTOP
 10
0.0
 20
0.0
 30
0.0
  9
$PUCSORGBOTTOM
 10
0.0
 20
0.0
 30
0.0
  9
$PUCSORGLEFT
 10
0.0
 20
0.0
 30
0.0
  9
$PUCSORGRIGHT
 10
0.0
 20
0.0
 30
0.0
  9
$PUCSORGFRONT
 10
0.0
 20
0.0
 30
0.0
  9
$PUCSORGBACK
 10
0.0
 20
0.0
 30
0.0
  9
$USERI1
 70
     0
  9
$USERI2
 70
     0
  9
$USERI3
 70
     0
  9
$USERI4
 70
     0
  9
$USERI5
 70
     0
  9
$USERR1
 40
0.0
  9
$USERR2
 40
0.0
  9
$USERR3
 40
0.0
  9
$USERR4
 40
0.0
  9
$USERR5
 40
0.0
  9
$WORLDVIEW
 70
     1
  9
$SHADEDGE
 70
     3
  9
$SHADEDIF
 70
    70
  9
$TILEMODE
 70
     1
  9
$MAXACTVP
 70
    64
  9
$PINSBASE
 10
0.0
 20
0.0
 30
0.0
  9
$PLIMCHECK
 70
     0
  9
$PEXTMIN
 10
1.0000000000E+20
 20
1.0000000000E+20
 30
1.0000000000E+20
  9
$PEXTMAX
 10
-1.0000000000E+20
 20
-1.0000000000E+20
 30
-1.0000000000E+20
  9
$PLIMMIN
 10
0.0
 20
0.0
  9
$PLIMMAX
 10
420.0
 20
297.0
  9
$UNITMODE
 70
     0
  9
$VISRETAIN
 70
     1
  9
$PLINEGEN
 70
     0
  9
$PSLTSCALE
 70
     1
  9
$TREEDEPTH
 70
  3020
  9
$CMLSTYLE
  2
Standard
  9
$CMLJUST
 70
     0
  9
$CMLSCALE
 40
20.0
  9
$PROXYGRAPHICS
 70
     1
  9
$MEASUREMENT
 70
     1
  9
$CELWEIGHT
370
    -1
  9
$ENDCAPS
280
     0
  9
$JOINSTYLE
280
     0
  9
$LWDISPLAY
290
     1
  9
$INSUNITS
 70
     4
  9
$HYPERLINKBASE
  1

  9
$STYLESHEET
  1

  9
$XEDIT
290
     1
  9
$CEPSNTYPE
380
     0
  9
$PSTYLEMODE
290
     1
  9
$FINGERPRINTGUID
  2
{4DCE9FCE-7547-4DCF-9387-DDFF6B5426D7}
  9
$VERSIONGUID
  2
{FAEB1C32-E019-11D5-929B-00C0DF256EC4}
  9
$EXTNAMES
290
     1
  9
$PSVPSCALE
 40
0.0
  9
$OLESTARTUP
290
     0
  9
$SORTENTS
280
   127
  9
$INDEXCTL
280
     0
  9
$HIDETEXT
280
     1
  9
$XCLIPFRAME
280
     2
  9
$HALOGAP
280
     0
  9
$OBSCOLOR
 70
   257
  9
$OBSLTYPE
280
     0
  9
$INTERSECTIONDISPLAY
280
     0
  9
$INTERSECTIONCOLOR
 70
   257
  9
$DIMASSOC
280
     2
  9
$PROJECTNAME
  1

  9
$CAMERADISPLAY
290
     0
  9
$LENSLENGTH
 40
50.0
  9
$CAMERAHEIGHT
 40
0.0
  9
$STEPSPERSEC
 40
2.0
  9
$STEPSIZE
 40
6.0
  9
$3DDWFPREC
 40
2.0
  9
$PSOLWIDTH
 40
5.0
  9
$PSOLHEIGHT
 40
80.0
  9
$LOFTANG1
 40
1.5707963268
  9
$LOFTANG2
 40
1.5707963268
  9
$LOFTMAG1
 40
0.0
  9
$LOFTMAG2
 40
0.0
  9
$LOFTPARAM
 70
     7
  9
$LOFTNORMALS
280
     1
  9
$LATITUDE
 40
37.795
  9
$LONGITUDE
 40
-122.394
  9
$NORTHDIRECTION
 40
0.0
  9
$TIMEZONE
 70
 -8000
  9
$LIGHTGLYPHDISPLAY
280
     1
  9
$TILEMODELIGHTSYNCH
280
     1
  9
$SOLIDHIST
280
     1
  9
$SHOWHIST
280
     1
  9
$DWFFRAME
280
     2
  9
$DGNFRAME
280
     2
  9
$REALWORLDSCALE
290
     1
  9
$INTERFERECOLOR
 62
   256
  9
$CSHADOW
280
     0
  9
$SHADOWPLANELOCATION
 40
0.0
  0
ENDSEC
  0
SECTION
  2
CLASSES
  0
CLASS
  1
ACDBDICTIONARYWDFLT
  2
AcDbDictionaryWithDefault
  3
ObjectDBX Classes
 90
        0
 91
        4
280
     0
281
     0
  0
CLASS
  1
VISUALSTYLE
  2
AcDbVisualStyle
  3
ObjectDBX Classes
 90
     4095
 91
        4
280
     0
281
     0
  0
CLASS
  1
MATERIAL
  2
AcDbMaterial
  3
ObjectDBX Classes
 90
     1153
 91
        4
280
     0
281
     0
  0
ENDSEC
  0
SECTION
  2
TABLES
  0
TABLE
  2
VPORT
  5
8
330
0
100
AcDbSymbolTable
 70
     1
  0
VPORT
  5
29
330
8
100
AcDbSymbolTableRecord
100
AcDbViewportTableRecord
  2
*Active
 70
     0
 10
0.0
 20
0.0
 11
1.0
 21
1.0
 12
297.0
 22
420.5
 13
0.0
 23
0.0
 14
10.0
 24
10.0
 15
10.0
 25
10.0
 16
0.0
 26
0.0
 36
1.0
 17
0.0
 27
0.0
 37
0.0
 40
841.0
 41
0.7063020214
 42
50.0
 43
0.0
 44
0.0
 50
0.0
 51
0.0
 71
     0
 72
  2000
 73
     1
 74
     3
 75
     0
 76
     0
 77
     0
 78
     0
281
     0
 65
     1
110
0.0
120
0.0
130
0.0
111
1.0
121
0.0
131
0.0
112
0.0
122
1.0
132
0.0
 79
     0
146
0.0
 60
     3
 61
     5
292
     1
282
     1
141
0.0
142
0.0
 63
   250
  0
ENDTAB
  0
TABLE
  2
LTYPE
  5
5
330
0
100
AcDbSymbolTable
 70
     6
  0
LTYPE
  5
14
330
5
100
AcDbSymbolTableRecord
100
AcDbLinetypeTableRecord
  2
ByBlock
 70
     0
  3

 72
    65
 73
     0
 40
0.0
  0
LTYPE
  5
15
330
5
100
AcDbSymbolTableRecord
100
AcDbLinetypeTableRecord
  2
ByLayer
 70
     0
  3

 72
    65
 73
     0
 40
0.0
  0
LTYPE
  5
16
330
5
100
AcDbSymbolTableRecord
100
AcDbLinetypeTableRecord
  2
Continuous
 70
     0
  3
Solid line
 72
    65
 73
     0
 40
0.0
  0
LTYPE
  5
3F
330
5
100
AcDbSymbolTableRecord
100
AcDbLinetypeTableRecord
  2
HIDDEN
 70
     0
  3
Hidden __ __ __ __ __ __ __ __ __ __ __ __ __ __
 72
    65
 73
     2
 40
1.905
 49
1.27
 74
     0
 49
-0.635
 74
     0
  0
LTYPE
  5
40
330
5
100
AcDbSymbolTableRecord
100
AcDbLinetypeTableRecord
  2
PHANTOM
 70
     0
  3
Phantom ______  __  __  ______  __  __  ______
 72
    65
 73
     6
 40
12.7
 49
6.35
 74
     0
 49
-1.27
 74
     0
 49
1.27
 74
     0
 49
-1.27
 74
     0
 49
1.27
 74
     0
 49
-1.27
 74
     0
  0
LTYPE
  5
41
330
5
100
AcDbSymbolTableRecord
100
AcDbLinetypeTableRecord
  2
CENTER
 70
     0
  3
Center ____ _ ____ _ ____ _ ____ _ ____ _ ____
 72
    65
 73
     4
 40
10.16
 49
6.35
 74
     0
 49
-1.27
 74
     0
 49
1.27
 74
     0
 49
-1.27
 74
     0
  0
LTYPE
  5
42
330
5
100
AcDbSymbolTableRecord
100
AcDbLinetypeTableRecord
  2
CENTERX2
 70
     0
  3
Center (2x) ________  __  ________  __  _____
 72
    65
 73
     4
 40
20.32
 49
12.7
 74
     0
 49
-2.54
 74
     0
 49
2.54
 74
     0
 49
-2.54
 74
     0
  0
LTYPE
  5
43
330
5
100
AcDbSymbolTableRecord
100
AcDbLinetypeTableRecord
  2
DOT2
 70
     0
  3
Dot (.5x) ........................................
 72
    65
 73
     2
 40
0.635
 49
0.0
 74
     0
 49
-0.635
 74
     0
  0
ENDTAB
  0
TABLE
  2
LAYER
  5
2
330
0
100
AcDbSymbolTable
 70
     1
  0
LAYER
  5
10
330
2
100
AcDbSymbolTableRecord
100
AcDbLayerTableRecord
  2
0
 70
     0
 62
     7
  6
Continuous
370
    -3
390
F
347
3E
  0
ENDTAB
  0
TABLE
  2
STYLE
  5
3
330
0
100
AcDbSymbolTable
 70
     3
  0
STYLE
  5
11
330
3
100
AcDbSymbolTableRecord
100
AcDbTextStyleTableRecord
  2
Standard
 70
     0
 40
0.0
 41
1.0
 50
0.0
 71
     0
 42
2.5
  3
txt
  4

  0
STYLE
  5
47
330
3
100
AcDbSymbolTableRecord
100
AcDbTextStyleTableRecord
  2
SLDTEXTSTYLE0
 70
     0
 40
0.0
 41
0.96
 50
0.0
 71
     0
 42
0.2
  3
ISOCP3
  4

  0
STYLE
  5
5E
330
3
100
AcDbSymbolTableRecord
100
AcDbTextStyleTableRecord
  2
SLDTEXTSTYLE1
 70
     0
 40
0.0
 41
0.605
 50
0.0
 71
     0
 42
0.2
  3
TXT
  4

  0
ENDTAB
  0
TABLE
  2
VIEW
  5
6
330
0
100
AcDbSymbolTable
 70
     0
  0
ENDTAB
  0
TABLE
  2
UCS
  5
7
330
0
100
AcDbSymbolTable
 70
     0
  0
ENDTAB
  0
TABLE
  2
APPID
  5
9
330
0
100
AcDbSymbolTable
 70
     1
  0
APPID
  5
12
330
9
100
AcDbSymbolTableRecord
100
AcDbRegAppTableRecord
  2
ACAD
 70
     0
  0
ENDTAB
  0
TABLE
  2
DIMSTYLE
  5
A
330
0
100
AcDbSymbolTable
 70
     2
100
AcDbDimStyleTable
  0
DIMSTYLE
105
27
330
A
100
AcDbSymbolTableRecord
100
AcDbDimStyleTableRecord
  2
ISO-25
 70
     0
 41
2.5
 42
0.625
 43
3.75
 44
1.25
 73
     0
 74
     0
 77
     1
 78
     8
140
2.5
141
2.5
143
0.0393700787
147
0.625
171
     3
172
     1
178
     0
271
     2
272
     2
274
     3
278
    44
283
     0
284
     8
340
11
  0
DIMSTYLE
105
48
102
{ACAD_REACTORS
330
46
330
53
102
}
330
A
100
AcDbSymbolTableRecord
100
AcDbDimStyleTableRecord
  2
SLDDIMSTYLE0
 70
     0
 41
2.5
 44
0.0
 45
0.000000001
 73
     0
 74
     0
 77
     1
 78
    12
 79
     3
140
6.0
147
1.5
173
     1
178
     0
271
     2
272
     2
276
     2
284
    12
340
47
  0
ENDTAB
  0
TABLE
  2
BLOCK_RECORD
  5
1
330
0
100
AcDbSymbolTable
 70
     3
  0
BLOCK_RECORD
  5
1F
330
1
100
AcDbSymbolTableRecord
100
AcDbBlockTableRecord
  2
*Model_Space
340
22
 70
     0
280
     1
281
     0
  0
BLOCK_RECORD
  5
1B
330
1
100
AcDbSymbolTableRecord
100
AcDbBlockTableRecord
  2
*Paper_Space
340
1E
 70
     0
280
     1
281
     0
  0
BLOCK_RECORD
  5
23
330
1
100
AcDbSymbolTableRecord
100
AcDbBlockTableRecord
  2
*Paper_Space0
340
26
 70
     0
280
     1
281
     0
  0
BLOCK_RECORD
  5
49
330
1
100
AcDbSymbolTableRecord
100
AcDbBlockTableRecord
  2
*D1
340
0
 70
     0
280
     1
281
     0
  0
BLOCK_RECORD
  5
54
330
1
100
AcDbSymbolTableRecord
100
AcDbBlockTableRecord
  2
*D2
340
0
 70
     0
280
     1
281
     0
  0
ENDTAB
  0
ENDSEC
  0
SECTION
  2
BLOCKS
  0
BLOCK
  5
20
330
1F
100
AcDbEntity
  8
0
100
AcDbBlockBegin
  2
*Model_Space
 70
     0
 10
0.0
 20
0.0
 30
0.0
  3
*Model_Space
  1

  0
ENDBLK
  5
21
330
1F
100
AcDbEntity
  8
0
100
AcDbBlockEnd
  0
BLOCK
  5
1C
330
1B
100
AcDbEntity
 67
     1
  8
0
100
AcDbBlockBegin
  2
*Paper_Space
 70
     0
 10
0.0
 20
0.0
 30
0.0
  3
*Paper_Space
  1

  0
ENDBLK
  5
1D
330
1B
100
AcDbEntity
 67
     1
  8
0
100
AcDbBlockEnd
  0
BLOCK
  5
24
330
23
100
AcDbEntity
  8
0
100
AcDbBlockBegin
  2
*Paper_Space0
 70
     0
 10
0.0
 20
0.0
 30
0.0
  3
*Paper_Space0
  1

  0
ENDBLK
  5
25
330
23
100
AcDbEntity
  8
0
100
AcDbBlockEnd
  0
BLOCK
  5
4A
330
49
100
AcDbEntity
  8
0
100
AcDbBlockBegin
  2
*D1
 70
     1
 10
0.0
 20
0.0
 30
0.0
  3
*D1
  1

  0
SOLID
  5
4C
330
49
100
AcDbEntity
  8
0
  6
Continuous
 62
     7
370
     0
100
AcDbTrace
 10
42.7614395004
 20
152.0299240879
 30
0.0
 11
42.4614395004
 21
149.5299240879
 31
0.0
 12
43.0614395004
 22
149.5299240879
 32
0.0
 13
43.0614395004
 23
149.5299240879
 33
0.0
  0
SOLID
  5
4D
330
49
100
AcDbEntity
  8
0
  6
Continuous
 62
     7
370
     0
100
AcDbTrace
 10
42.7614395004
 20
52.0299240879
 30
0.0
 11
43.0614395004
 21
54.5299240879
 31
0.0
 12
42.4614395004
 22
54.5299240879
 32
0.0
 13
42.4614395004
 23
54.5299240879
 33
0.0
  0
LINE
  5
4E
330
49
100
AcDbEntity
  8
0
  6
Continuous
 62
     7
370
     0
100
AcDbLine
 10
56.6850079902
 20
152.0299240879
 30
0.0
 11
41.7614395004
 21
152.0299240879
 31
0.0
  0
LINE
  5
4F
330
49
100
AcDbEntity
  8
0
  6
Continuous
 62
     7
370
     0
100
AcDbLine
 10
56.6850079902
 20
52.0299240879
 30
0.0
 11
41.7614395004
 21
52.0299240879
 31
0.0
  0
LINE
  5
50
330
49
100
AcDbEntity
  8
0
  6
Continuous
 62
     7
370
     0
100
AcDbLine
 10
42.7614395004
 20
152.0299240879
 30
0.0
 11
42.7614395004
 21
52.0299240879
 31
0.0
  0
MTEXT
  5
51
330
49
100
AcDbEntity
  8
0
  6
Continuous
 62
     7
370
     0
100
AcDbMText
 10
35.0270332946
 20
91.6722208134
 30
0.1
 40
6.0
 41
0.0
 46
0.0
 71
     1
 72
     1
  1
100
  7
SLDTEXTSTYLE0
 11
-7.044195017643634E-15
 21
1.0
 31
0.0
 73
     1
 44
1.0
  0
MTEXT
  5
52
330
49
100
AcDbEntity
  8
0
  6
Continuous
 62
     7
370
     0
100
AcDbMText
 10
35.0270332946
 20
108.4388881795
 30
0.1
 40
6.0
 41
0.0
 46
0.0
 71
     1
 72
     1
  1
mm
  7
SLDTEXTSTYLE0
 11
-7.044195017643634E-15
 21
1.0
 31
0.0
 73
     1
 44
1.0
  0
ENDBLK
  5
4B
330
49
100
AcDbEntity
  8
0
100
AcDbBlockEnd
  0
BLOCK
  5
55
330
54
100
AcDbEntity
  8
0
100
AcDbBlockBegin
  2
*D2
 70
     1
 10
0.0
 20
0.0
 30
0.0
  3
*D2
  1

  0
SOLID
  5
57
330
54
100
AcDbEntity
  8
0
  6
Continuous
 62
     7
370
     0
100
AcDbTrace
 10
56.6850079902
 20
38.4602342313
 30
0.0
 11
59.1850079902
 21
38.1602342313
 31
0.0
 12
59.1850079902
 22
38.7602342313
 32
0.0
 13
59.1850079902
 23
38.7602342313
 33
0.0
  0
SOLID
  5
58
330
54
100
AcDbEntity
  8
0
  6
Continuous
 62
     7
370
     0
100
AcDbTrace
 10
156.6850079902
 20
38.4602342313
 30
0.0
 11
154.1850079902
 21
38.7602342313
 31
0.0
 12
154.1850079902
 22
38.1602342313
 32
0.0
 13
154.1850079902
 23
38.1602342313
 33
0.0
  0
LINE
  5
59
330
54
100
AcDbEntity
  8
0
  6
Continuous
 62
     7
370
     0
100
AcDbLine
 10
56.6850079902
 20
52.0299240879
 30
0.0
 11
56.6850079902
 21
37.4602342313
 31
0.0
  0
LINE
  5
5A
330
54
100
AcDbEntity
  8
0
  6
Continuous
 62
     7
370
     0
100
AcDbLine
 10
156.6850079902
 20
52.0299240879
 30
0.0
 11
156.6850079902
 21
37.4602342313
 31
0.0
  0
LINE
  5
5B
330
54
100
AcDbEntity
  8
0
  6
Continuous
 62
     7
370
     0
100
AcDbLine
 10
56.6850079902
 20
38.4602342313
 30
0.0
 11
156.6850079902
 21
38.4602342313
 31
0.0
  0
MTEXT
  5
5C
330
54
100
AcDbEntity
  8
0
  6
Continuous
 62
     7
370
     0
100
AcDbMText
 10
91.2668151533
 20
46.1946404371
 30
0.1
 40
6.0
 41
0.0
 46
0.0
 71
     1
 72
     1
  1
100
  7
SLDTEXTSTYLE0
 73
     1
 44
1.0
  0
MTEXT
  5
5D
330
54
100
AcDbEntity
  8
0
  6
Continuous
 62
     7
370
     0
100
AcDbMText
 10
108.0334825193
 20
46.1946404371
 30
0.1
 40
6.0
 41
0.0
 46
0.0
 71
     1
 72
     1
  1
mm
  7
SLDTEXTSTYLE0
 73
     1
 44
1.0
  0
ENDBLK
  5
56
330
54
100
AcDbEntity
  8
0
100
AcDbBlockEnd
  0
ENDSEC
  0
SECTION
  2
ENTITIES
  0
LINE
  5
44
330
1F
100
AcDbEntity
  8
0
  6
Continuous
 62
     7
370
     0
100
AcDbLine
 10
56.6850079902
 20
152.0299240879
 30
0.0
 11
56.6850079902
 21
52.0299240879
 31
0.0
  0
LINE
  5
45
330
1F
100
AcDbEntity
  8
0
  6
Continuous
 62
     7
370
     0
100
AcDbLine
 10
56.6850079902
 20
52.0299240879
 30
0.0
 11
156.6850079902
 21
52.0299240879
 31
0.0
  0
DIMENSION
  5
46
330
1F
100
AcDbEntity
  8
0
  6
Continuous
 62
     7
370
     0
100
AcDbDimension
280
     0
  2
*D1
 10
42.7614395004
 20
52.0299240879
 30
0.0
 11
42.7614395004
 21
105.4472211621
 31
0.0
 70
   160
  1
<>mm
 71
     2
 42
-1.0
 73
     0
 74
     0
 75
     0
  3
SLDDIMSTYLE0
100
AcDbAlignedDimension
 13
56.6850079902
 23
152.0299240879
 33
0.0
 14
56.6850079902
 24
52.0299240879
 34
0.0
 50
90.0
100
AcDbRotatedDimension
  0
DIMENSION
  5
53
330
1F
100
AcDbEntity
  8
0
  6
Continuous
 62
     7
370
     0
100
AcDbDimension
280
     0
  2
*D2
 10
156.6850079902
 20
38.4602342313
 30
0.0
 11
105.0418155019
 21
38.4602342313
 31
0.0
 70
   160
  1
<>mm
 71
     2
 42
-1.0
 73
     0
 74
     0
 75
     0
  3
SLDDIMSTYLE0
100
AcDbAlignedDimension
 13
56.6850079902
 23
52.0299240879
 33
0.0
 14
156.6850079902
 24
52.0299240879
 34
0.0
100
AcDbRotatedDimension
  0
MTEXT
  5
5F
330
1F
100
AcDbEntity
  8
0
  6
Continuous
 62
     7
370
     0
100
AcDbMText
 10
269.5262325882
 20
46.559894999
 30
0.0
 40
10.0
 41
0.0
 46
0.0
 71
     1
 72
     1
  1
38 245 0575
  7
SLDTEXTSTYLE1
 73
     1
 44
1.0
  0
MTEXT
  5
60
330
1F
100
AcDbEntity
  8
0
  6
Continuous
 62
     7
370
     0
100
AcDbMText
 10
412.8252631579
 20
48.4342449499
 30
0.0
 40
10.0
 41
0.0
 46
0.0
 71
     1
 72
     1
  1
KLUDI GmbH & Co KG
  7
SLDTEXTSTYLE1
 73
     1
 44
1.0
  0
LINE
  5
61
330
1F
100
AcDbEntity
  8
0
  6
Continuous
 62
     7
370
    15
100
AcDbLine
 10
133.248519337
 20
530.5507304897
 30
0.0
 11
133.8399250043
 21
530.7331952086
 31
0.0
  0
LINE
  5
62
330
1F
100
AcDbEntity
  8
0
  6
Continuous
 62
     7
370
    15
100
AcDbLine
 10
119.6461889876
 20
530.7331952086
 30
0.0
 11
120.2375946549
 21
530.5507304897
 31
0.0
  0
LINE
  5
63
330
1F
100
AcDbEntity
  8
0
  6
Continuous
 62
     7
370
    15
100
AcDbLine
 10
138.7790573744
 20
534.8415124049
 30
0.0
 11
138.7790573744
 21
541.6140640905
 31
0.0
  0
LINE
  5
64
330
1F
100
AcDbEntity
  8
0
  6
Continuous
 62
     7
370
    15
100
AcDbLine
 10
114.7070575489
 20
541.6133041313
 30
0.0
 11
114.7070575489
 21
534.8415124049
 31
0.0
  0
LINE
  5
65
330
1F
100
AcDbEntity
  8
0
  6
Continuous
 62
     7
370
    15
100
AcDbLine
 10
139.7822426615
 20
540.5699844291
 30
0.0
 11
139.7822426615
 21
557.525430881
 31
0.0
  0
LINE
  5
66
330
1F
100
AcDbEntity
  8
0
  6
Continuous
 62
     7
370
    15
100
AcDbLine
 10
113.7042419968
 20
557.525430881
 30
0.0
 11
113.7042419968
 21
540.5699844291
 31
0.0
  0
SPLINE
  5
67
330
1F
100
AcDbEntity
  8
0
  6
Continuous
 62
     7
370
    15
100
AcDbSpline
210
0.0
220
0.0
230
1.0
 70
     8
 71
     3
 72
    36
 73
    32
 74
     0
 42
0.00000001
 43
0.00000001
 40
0.0
 40
0.0
 40
0.0
 40
0.0
 40
0.0147867497327873
 40
0.0510319457593356
 40
0.0872997925447548
 40
0.1235445694334588
 40
0.1597511699528533
 40
0.1959013861967713
 40
0.2319817273829164
 40
0.2680255051638114
 40
0.3041534796448285
 40
0.3407778265447384
 40
0.3779449998758342
 40
0.4144984523975523
 40
0.4506766355282291
 40
0.486803358431394
 40
0.5229625196353423
 40
0.5591712750400939
 40
0.5954170876004472
 40
0.6316855093913394
 40
0.6679643534079392
 40
0.704242496929594
 40
0.7405070051848852
 40
0.7767457312644509
 40
0.8129430250475824
 40
0.8490803781777704
 40
0.8851483668624178
 40
0.9211901800520907
 40
0.9573732838472166
 40
0.9941408876112382
 40
1.0
 40
1.0
 40
1.0
 40
1.0
 10
126.5619659779385
 20
530.5572571983381
 30
0.0
 10
126.3498495588272
 20
530.5599933487406
 30
0.0
 10
125.6177945913486
 20
530.5694363352964
 30
0.0
 10
124.379252891054
 20
530.6704946238707
 30
0.0
 10
122.9100888062777
 20
530.8993555616415
 30
0.0
 10
121.560759802677
 20
531.2354099646981
 30
0.0
 10
120.3744206813438
 20
531.664257990404
 30
0.0
 10
119.3885450588065
 20
532.172010942751
 30
0.0
 10
118.6338275073593
 20
532.7403098377805
 30
0.0
 10
118.1324665469099
 20
533.3480554148076
 30
0.0
 10
117.8945235304557
 20
533.9735058298367
 30
0.0
 10
117.9200637391343
 20
534.6057736584788
 30
0.0
 10
118.2180009192218
 20
535.2391500894732
 30
0.0
 10
118.7882174012569
 20
535.84915084415
 30
0.0
 10
119.6048891026387
 20
536.4075937274802
 30
0.0
 10
120.6418824825295
 20
536.8978396415271
 30
0.0
 10
121.8692047890718
 20
537.3051564162037
 30
0.0
 10
123.2495166951322
 20
537.616342852458
 30
0.0
 10
124.7399108378266
 20
537.8210441723662
 30
0.0
 10
126.2935923488113
 20
537.912471022075
 30
0.0
 10
127.8617256999296
 20
537.8875275070037
 30
0.0
 10
129.3949867930533
 20
537.7469672603577
 30
0.0
 10
130.8451070034643
 20
537.495348053295
 30
0.0
 10
132.1664036539459
 20
537.1409415413991
 30
0.0
 10
133.3169730428976
 20
536.6956352787315
 30
0.0
 10
134.2610983328775
 20
536.1747977485377
 30
0.0
 10
134.9672687355261
 20
535.5973031997721
 30
0.0
 10
135.4238173135789
 20
534.984376608927
 30
0.0
 10
135.5913745247248
 20
534.3582009812513
 30
0.0
 10
135.5909268982881
 20
533.9024270005976
 30
0.0
 10
135.4489259226328
 20
533.6601625277322
 30
0.0
 10
135.4294076544955
 20
533.626862876658
 30
0.0
  0
ARC
  5
68
330
1F
100
AcDbEntity
  8
0
  6
Continuous
 62
     7
370
    15
100
AcDbCircle
 10
126.7430571868
 20
535.9529318185
 30
0.0
 40
9.027000000000005
100
AcDbArc
 50
334.8442451889
 51
346.680813553
  0
ARC
  5
69
330
1F
100
AcDbEntity
  8
0
  6
Continuous
 62
     7
370
    15
100
AcDbCircle
 10
126.7430571868
 20
535.9529318185
 30
0.0
 40
9.027000000000061
100
AcDbArc
 50
192.7487163686
 51
193.319186447
  0
LINE
  5
6A
330
1F
100
AcDbEntity
  8
0
  6
Continuous
 62
     7
370
    15
100
AcDbLine
 10
113.7042419968
 20
580.6899861091
 30
0.0
 11
113.7042419968
 21
557.525430881
 31
0.0
  0
LINE
  5
6B
330
1F
100
AcDbEntity
  8
0
  6
Continuous
 62
     7
370
    15
100
AcDbLine
 10
139.7822426615
 20
557.525430881
 30
0.0
 11
139.7822426615
 21
580.6899861091
 31
0.0
  0
SPLINE
  5
6C
330
1F
100
AcDbEntity
  8
0
  6
Continuous
 62
     7
370
    15
100
AcDbSpline
210
0.0
220
0.0
230
1.0
 70
     8
 71
     3
 72
    19
 73
    15
 74
     0
 42
0.00000001
 43
0.00000001
 40
0.0
 40
0.0
 40
0.0
 40
0.0
 40
0.0065557089110211
 40
0.1600461629033187
 40
0.2606745734246338
 40
0.3114985312591921
 40
0.3201732881482651
 40
0.3247865852144702
 40
0.3288970118957608
 40
0.334978948619677
 40
0.3471894233798943
 40
0.3825224266198176
 40
0.5396023132012029
 40
1.0
 40
1.0
 40
1.0
 40
1.0
 10
247.3886014876679
 20
560.1425385853096
 30
0.0
 10
247.3909264389679
 20
560.1451605959311
 30
0.0
 10
247.4476860571215
 20
560.2091723976703
 30
0.0
 10
247.5607529079021
 20
560.2934626929447
 30
0.0
 10
247.6936527991329
 20
560.3865864650018
 30
0.0
 10
247.767871897415
 20
560.4305762481722
 30
0.0
 10
247.7970716684187
 20
560.4470596839662
 30
0.0
 10
247.8029536722481
 20
560.4503418709797
 30
0.0
 10
247.8060949689886
 20
560.4520886045326
 30
0.0
 10
247.8087452764746
 20
560.453560377008
 30
0.0
 10
247.8112494331608
 20
560.4549396530693
 30
0.0
 10
247.8116046487844
 20
560.45512776956
 30
0.0
 10
247.7916305480336
 20
560.4441177788323
 30
0.0
 10
247.700634450681
 20
560.395004786937
 30
0.0
 10
247.6327868161515
 20
560.3583856304928
 30
0.0
  0
LINE
  5
6D
330
1F
100
AcDbEntity
  8
0
  6
Continuous
 62
     7
370
    15
100
AcDbLine
 10
131.5532761609
 20
542.6155376067
 30
0.0
 11
131.5532761609
 21
539.5042571058
 31
0.0
  0
SPLINE
  5
6E
330
1F
100
AcDbEntity
  8
0
  6
Continuous
 62
     7
370
    15
100
AcDbSpline
210
0.0
220
0.0
230
1.0
 70
     8
 71
     3
 72
     8
 73
     4
 74
     0
 42
0.00000001
 43
0.00000001
 40
0.0
 40
0.0
 40
0.0
 40
0.0
 40
1.0
 40
1.0
 40
1.0
 40
1.0
 10
131.5532762047218
 20
539.5042578375466
 30
0.0
 10
129.9677474110001
 20
539.1726903873927
 30
0.0
 10
128.3664318254606
 20
538.9794310215976
 30
0.0
 10
126.7430571868383
 20
538.9794310215976
 30
0.0
  0
SPLINE
  5
6F
330
1F
100
AcDbEntity
  8
0
  6
Continuous
 62
     7
370
    15
100
AcDbSpline
210
0.0
220
0.0
230
1.0
 70
     8
 71
     3
 72
    10
 73
     6
 74
     0
 42
0.00000001
 43
0.00000001
 40
0.0
 40
0.0
 40
0.0
 40
0.0
 40
0.5000000000000001
 40
0.5000000000000001
 40
1.0
 40
1.0
 40
1.0
 40
1.0
 10
126.7430571868383
 20
538.9794310215976
 30
0.0
 10
125.9332602110087
 20
538.9794310215976
 30
0.0
 10
125.1139735657542
 20
539.0275763782838
 30
0.0
 10
123.5076995653327
 20
539.2085184433558
 30
0.0
 10
122.7159209656414
 20
539.3404987388881
 30
0.0
 10
121.9328381689559
 20
539.5042578375462
 30
0.0
  0
LINE
  5
70
330
1F
100
AcDbEntity
  8
0
  6
Continuous
 62
     7
370
    15
100
AcDbLine
 10
121.9328382967
 20
539.5042571058
 30
0.0
 11
121.9328382967
 21
542.6155376067
 31
0.0
  0
LINE
  5
71
330
1F
100
AcDbEntity
  8
0
  6
Continuous
 62
     7
370
    15
100
AcDbLine
 10
121.9328382967
 20
542.6155376067
 30
0.0
 11
131.5532761609
 21
542.6155376067
 31
0.0
  0
LWPOLYLINE
  5
72
330
1F
100
AcDbEntity
  8
0
  6
Continuous
 62
     7
370
    15
100
AcDbPolyline
 90
       19
 70
   128
 43
0.0
 10
126.7430571868
 20
529.6539376309
 10
128.6589175679
 20
529.7247740259
 10
130.5165653566
 20
529.9351337185
 10
132.2595572082
 20
530.2786278358
 10
133.8349331153
 20
530.7448106637
 10
135.1948251931
 20
531.3195260992
 10
136.2979153154
 20
531.9853099814
 10
137.1106861142
 20
532.7219302585
 10
137.6084407775
 20
533.5070053866
 10
137.7760574205
 20
534.3166823318
 10
137.6084407775
 20
535.1263630023
 10
137.1106861142
 20
535.9114381304
 10
136.2979153154
 20
536.6480584075
 10
135.1948251931
 20
537.3138385644
 10
133.8349331153
 20
537.8885539999
 10
132.2595572082
 20
538.3547405531
 10
130.5165653566
 20
538.6982346704
 10
128.6589175679
 20
538.908594363
 10
126.7430571868
 20
538.979430758
  0
LWPOLYLINE
  5
73
330
1F
100
AcDbEntity
  8
0
  6
Continuous
 62
     7
370
    15
100
AcDbPolyline
 90
       14
 70
   128
 43
0.0
 10
133.8399250043
 20
530.7331952086
 10
134.8807049898
 20
531.093669199
 10
136.23172622
 20
531.7121232679
 10
137.3229242844
 20
532.4162664642
 10
138.1244214235
 20
533.1868204107
 10
138.6142700894
 20
534.0026813378
 10
138.7790573744
 20
534.8415124049
 10
138.6142700894
 20
535.6803397467
 10
138.1244214235
 20
536.4962006738
 10
137.3229242844
 20
537.2667546203
 10
136.23172622
 20
537.9708978167
 10
134.8807049898
 20
538.5893518856
 10
133.3068569174
 20
539.105177932
 10
131.5532761609
 20
539.5042571058
  0
LWPOLYLINE
  5
74
330
1F
100
AcDbEntity
  8
0
  6
Continuous
 62
     7
370
    15
100
AcDbPolyline
 90
       14
 70
   128
 43
0.0
 10
121.9328382967
 20
539.5042571058
 10
120.1792575402
 20
539.105177932
 10
118.6054090021
 20
538.5893518856
 10
117.2543887032
 20
537.9708978167
 10
116.1631897075
 20
537.2667546203
 10
115.3616925685
 20
536.4962006738
 10
114.8718439026
 20
535.6803397467
 10
114.7070575489
 20
534.8415124049
 10
114.8718439026
 20
534.0026813378
 10
115.3616925685
 20
533.1868204107
 10
116.1631897075
 20
532.4162664642
 10
117.2543887032
 20
531.7121232679
 10
118.6054090021
 20
531.093669199
 10
119.6461889876
 20
530.7331952086
  0
LWPOLYLINE
  5
75
330
1F
100
AcDbEntity
  8
0
  6
Continuous
 62
     7
370
    15
100
AcDbPolyline
 90
       19
 70
   128
 43
0.0
 10
126.7430571868
 20
538.979430758
 10
124.8271968897
 20
538.908594363
 10
122.9695488682
 20
538.6982346704
 10
121.2265572494
 20
538.3547405531
 10
119.6511813422
 20
537.8885539999
 10
118.2912887988
 20
537.3138385644
 10
117.1881986765
 20
536.6480584075
 10
116.375428809
 20
535.9114381304
 10
115.8776732145
 20
535.1263630023
 10
115.7100575028
 20
534.3166823318
 10
115.8776732145
 20
533.5070053866
 10
116.375428809
 20
532.7219302585
 10
117.1881986765
 20
531.9853099814
 10
118.2912887988
 20
531.3195260992
 10
119.6511813422
 20
530.7448106637
 10
121.2265572494
 20
530.2786278358
 10
122.9695488682
 20
529.9351337185
 10
124.8271968897
 20
529.7247740259
 10
126.7430571868
 20
529.6539376309
  0
LWPOLYLINE
  5
76
330
1F
100
AcDbEntity
  8
0
  6
Continuous
 62
     7
370
    15
100
AcDbPolyline
 90
       13
 70
   128
 43
0.0
 10
126.7430571868
 20
538.2800186803
 10
125.0198450388
 20
538.2125350466
 10
123.3553147858
 20
538.0123826494
 10
121.8061500212
 20
537.6863787701
 10
120.4251057451
 20
537.2456247737
 10
119.259211885
 20
536.7051261296
 10
118.3481711877
 20
536.0832932224
 10
117.723007871
 20
535.4013006022
 10
117.4050124345
 20
534.682375454
 10
117.4050124345
 20
533.9509929349
 10
117.723007871
 20
533.2320640614
 10
118.3481711877
 20
532.5500714412
 10
118.537956102
 20
532.39741277
  0
LWPOLYLINE
  5
77
330
1F
100
AcDbEntity
  8
0
  6
Continuous
 62
     7
370
    15
100
AcDbPolyline
 90
        3
 70
   128
 43
0.0
 10
128.5491338448
 20
538.2058257988
 10
128.4662693023
 20
538.2125350466
 10
126.7430571868
 20
538.2800186803
  0
ARC
  5
78
330
1F
100
AcDbEntity
  8
0
  6
Continuous
 62
     7
370
    15
100
AcDbCircle
 10
126.7430572288
 20
515.6987277828
 30
0.0
 40
27.34324152819867
100
AcDbArc
 50
79.8678079054
 51
100.1321920946
  0
LWPOLYLINE
  5
79
330
1F
100
AcDbEntity
  8
0
  6
Continuous
 62
     7
370
    15
100
AcDbPolyline
 90
       25
 70
   128
 43
0.0
 10
139.7822426615
 20
540.5699844291
 10
139.6294303221
 20
541.4111624291
 10
139.1745779646
 20
542.2326224675
 10
138.4283445759
 20
543.0151122441
 10
137.4082231877
 20
543.7402921548
 10
136.1381236447
 20
544.3911599746
 10
134.6478156728
 20
544.952464365
 10
132.9722308537
 20
545.4110438755
 10
131.1506444571
 20
545.756158494
 10
129.2257520353
 20
545.9797094395
 10
127.242671685
 20
546.0764626792
 10
125.247885192
 20
546.0441495111
 10
123.2881485002
 20
545.883522444
 10
121.4093963599
 20
545.598355197
 10
119.6556651948
 20
545.1953272154
 10
118.0680600909
 20
544.6838821104
 10
116.6837953014
 20
544.0760115912
 10
115.5353143794
 20
543.3859648933
 10
114.6495381353
 20
542.629913502
 10
114.0472276119
 20
541.8255786231
 10
113.7425016595
 20
540.9918139508
 10
113.7425016595
 20
540.1481586328
 10
114.0472276119
 20
539.3143939605
 10
114.6495381353
 20
538.5100590816
 10
114.7070575489
 20
538.4507450094
  0
ARC
  5
7A
330
1F
100
AcDbEntity
  8
0
  6
Continuous
 62
     7
370
    15
100
AcDbCircle
 10
136.6572480315
 20
540.7517970931
 30
0.0
 40
3.130279106143305
100
AcDbArc
 50
312.67460856
 51
356.6702763892
  0
LWPOLYLINE
  5
7B
330
1F
100
AcDbEntity
  8
0
  6
Continuous
 62
     7
370
    15
100
AcDbPolyline
 90
       24
 70
   128
 43
0.0
 10
138.7790573744
 20
539.5259047678
 10
138.9066262154
 20
539.8360016575
 10
139.0272231756
 20
540.6802194943
 10
138.8219410537
 20
541.5215129783
 10
138.2962243615
 20
542.3375638952
 10
137.4640215171
 20
543.1067208579
 10
136.3474076597
 20
543.8085841765
 10
134.9760062976
 20
544.4245273998
 10
133.3861995471
 20
544.9382188549
 10
131.6201628169
 20
545.3360239794
 10
129.7247469874
 20
545.6073927512
 10
127.7502350958
 20
545.7451204588
 10
125.7490089146
 20
545.7455637684
 10
123.7741587201
 20
545.6087003281
 10
121.8780746667
 20
545.3381697466
 10
120.111058185
 20
544.9411394825
 10
118.5199853016
 20
544.4281521072
 10
117.147066815
 20
543.812812381
 10
116.0287234915
 20
543.1114408007
 10
115.1946235431
 20
542.3426489165
 10
114.6668961255
 20
541.5268289676
 10
114.4595399482
 20
540.6856286159
 10
114.5780554024
 20
539.8413586249
 10
114.7070575489
 20
539.5266684523
  0
LWPOLYLINE
  5
7C
330
1F
100
AcDbEntity
  8
0
  6
Continuous
 62
     7
370
    15
100
AcDbPolyline
 90
        3
 70
   128
 43
0.0
 10
138.7790573744
 20
540.8894466987
 10
138.9066262154
 20
541.1995398631
 10
138.923627509
 20
541.2517572572
  0
LWPOLYLINE
  5
7D
330
1F
100
AcDbEntity
  8
0
  6
Continuous
 62
     7
370
    15
100
AcDbPolyline
 90
        3
 70
   128
 43
0.0
 10
114.5628571493
 20
541.2517572572
 10
114.5780554024
 20
541.2048968306
 10
114.7070575489
 20
540.8902103832
  0
LINE
  5
7E
330
1F
100
AcDbEntity
  8
0
  6
Continuous
 62
     7
370
    15
100
AcDbLine
 10
126.7430571868
 20
530.2563207974
 30
0.0
 11
127.6947889809
 21
530.2772308519
 31
0.0
  0
LWPOLYLINE
  5
7F
330
1F
100
AcDbEntity
  8
0
  6
Continuous
 62
     7
370
    15
100
AcDbPolyline
 90
       29
 70
   128
 43
0.0
 10
135.0946446864
 20
532.5268964102
 10
135.5701640231
 20
533.073459827
 10
135.8813580109
 20
533.7770107021
 10
135.8813580109
 20
534.4927470019
 10
135.5701640231
 20
535.1962978771
 10
134.9583735673
 20
535.8637022605
 10
134.0668203292
 20
536.472232156
 10
132.925865425
 20
537.0011674991
 10
131.5743622353
 20
537.432496511
 10
130.0583346264
 20
537.7515266469
 10
128.4294091847
 20
537.9473949602
 10
126.7430571868
 20
538.0134369066
 10
125.0567051565
 20
537.9473949602
 10
123.4277798312
 20
537.7515266469
 10
121.9117522223
 20
537.432496511
 10
120.5602490326
 20
537.0011674991
 10
119.4192941284
 20
536.472232156
 10
118.5277404247
 20
535.8637022605
 10
117.9159509001
 20
535.1962978771
 10
117.6047569124
 20
534.4927470019
 10
117.6047569124
 20
533.7770107021
 10
117.9159509001
 20
533.073459827
 10
118.5277404247
 20
532.4060554435
 10
119.4192941284
 20
531.797525548
 10
120.5602490326
 20
531.268590205
 10
121.9117522223
 20
530.837261193
 10
123.4277798312
 20
530.5182310572
 10
125.0567051565
 20
530.3223590186
 10
126.7430571868
 20
530.2563207974
  0
LWPOLYLINE
  5
80
330
1F
100
AcDbEntity
  8
0
  6
Continuous
 62
     7
370
    15
100
AcDbPolyline
 90
       29
 70
   128
 43
0.0
 10
126.9378400129
 20
530.3634266188
 10
126.7430571868
 20
530.3625288239
 10
125.05377475
 20
530.4307016363
 10
123.4255474509
 20
530.6327502062
 10
121.9172232767
 20
530.9613766899
 10
120.5833178928
 20
531.4047011366
 10
119.4720409794
 20
531.9467010727
 10
118.6235576851
 20
532.5677889218
 10
118.0685341341
 20
533.2455123594
 10
117.8270310147
 20
533.9553813269
 10
117.9077757505
 20
534.6717397502
 10
118.3078505082
 20
535.3686931362
 10
119.0127960389
 20
536.0210510721
 10
119.9971332198
 20
536.6052399209
 10
121.2252855284
 20
537.100144737
 10
122.6528647339
 20
537.4878766766
 10
124.2282739358
 20
537.7544211974
 10
125.8945739927
 20
537.8901446989
 10
127.5915404066
 20
537.8901446989
 10
129.2578405218
 20
537.7544211974
 10
130.8332497237
 20
537.4878766766
 10
132.2608284635
 20
537.100144737
 10
133.4889812378
 20
536.6052399209
 10
134.473317953
 20
536.0210510721
 10
135.1782634837
 20
535.3686931362
 10
135.5783382414
 20
534.6717397502
 10
135.6590829773
 20
533.9553813269
 10
135.4175798578
 20
533.2455123594
 10
135.2891392989
 20
533.0458330741
  0
LINE
  5
81
330
1F
100
AcDbEntity
  8
0
  6
Continuous
 62
     7
370
    15
100
AcDbLine
 10
125.8799587476
 20
530.5317389598
 30
0.0
 11
126.5701177571
 21
530.514583998
 31
0.0
  0
ARC
  5
82
330
1F
100
AcDbEntity
  8
0
  6
Continuous
 62
     7
370
    15
100
AcDbCircle
 10
133.9373244286
 20
534.2458651504
 30
0.0
 40
1.63298324845029
100
AcDbArc
 50
346.8129665205
 51
22.7039241073
  0
LWPOLYLINE
  5
83
330
1F
100
AcDbEntity
  8
0
  6
Continuous
 62
     7
370
    15
100
AcDbPolyline
 90
       11
 70
   128
 43
0.0
 10
118.5228034837
 20
535.6051633885
 10
118.2952711342
 20
535.3279608121
 10
117.9575344531
 20
534.6105146041
 10
117.9575344531
 20
533.8790054252
 10
118.2952711342
 20
533.1615592172
 10
118.9577623253
 20
532.4857543042
 10
119.9195396138
 20
531.8775708606
 10
121.1436294934
 20
531.3603850832
 10
122.5829754939
 20
530.9540825715
 10
124.1822449473
 20
530.6742834678
 10
125.8799587476
 20
530.5317389598
  0
LWPOLYLINE
  5
84
330
1F
100
AcDbEntity
  8
0
  6
Continuous
 62
     7
370
    15
100
AcDbPolyline
 90
       18
 70
   128
 43
0.0
 10
125.8799587476
 20
537.9577810695
 10
127.538668642
 20
537.6667353144
 10
129.155428799
 20
537.2471856704
 10
130.6709509326
 20
536.7145175865
 10
132.0296588337
 20
536.088266485
 10
133.1817281415
 20
535.3913950553
 10
134.0849103389
 20
534.6494550636
 10
134.7060857324
 20
533.8896597555
 10
135.0224746374
 20
533.1398705771
 10
135.0224746374
 20
532.4275838962
 10
134.7060857324
 20
531.7789139977
 10
134.0849103389
 20
531.2176543107
 10
133.1817281415
 20
530.7643870642
 10
132.0296588337
 20
530.4357307782
 10
130.6709509326
 20
530.2437367668
 10
129.155428799
 20
530.1954532793
 10
127.538668642
 20
530.2926386526
 10
125.8799587476
 20
530.5317389598
  0
LINE
  5
85
330
1F
100
AcDbEntity
  8
0
  6
Continuous
 62
     7
370
    15
100
AcDbLine
 10
126.2959427358
 20
533.7132970622
 30
0.0
 11
126.2959427358
 21
533.9090796938
 31
0.0
  0
LINE
  5
86
330
1F
100
AcDbEntity
  8
0
  6
Continuous
 62
     7
370
    15
100
AcDbLine
 10
126.2959427358
 20
533.9090796938
 30
0.0
 11
125.9008378356
 21
534.0701128175
 31
0.0
  0
LINE
  5
87
330
1F
100
AcDbEntity
  8
0
  6
Continuous
 62
     7
370
    15
100
AcDbLine
 10
125.9008378356
 20
534.0701128175
 30
0.0
 11
125.5057330226
 21
534.0353595843
 31
0.0
  0
LINE
  5
88
330
1F
100
AcDbEntity
  8
0
  6
Continuous
 62
     7
370
    15
100
AcDbLine
 10
125.5057330226
 20
534.0353595843
 30
0.0
 11
125.5057330226
 21
533.8395769527
 31
0.0
  0
LINE
  5
89
330
1F
100
AcDbEntity
  8
0
  6
Continuous
 62
     7
370
    15
100
AcDbLine
 10
125.5057330226
 20
533.8395769527
 30
0.0
 11
125.9008378356
 21
533.678543829
 31
0.0
  0
LINE
  5
8A
330
1F
100
AcDbEntity
  8
0
  6
Continuous
 62
     7
370
    15
100
AcDbLine
 10
125.9008378356
 20
533.678543829
 30
0.0
 11
126.2959427358
 21
533.7132970622
 31
0.0
  0
LINE
  5
8B
330
1F
100
AcDbEntity
  8
0
  6
Continuous
 62
     7
370
    15
100
AcDbLine
 10
125.9008378356
 20
534.4127352169
 30
0.0
 11
126.2959427358
 21
534.4474884501
 31
0.0
  0
LINE
  5
8C
330
1F
100
AcDbEntity
  8
0
  6
Continuous
 62
     7
370
    15
100
AcDbLine
 10
126.2959427358
 20
534.4474884501
 30
0.0
 11
126.2959427358
 21
534.6432710817
 31
0.0
  0
LINE
  5
8D
330
1F
100
AcDbEntity
  8
0
  6
Continuous
 62
     7
370
    15
100
AcDbLine
 10
126.2959427358
 20
534.6432710817
 30
0.0
 11
125.9008378356
 21
534.8043042054
 31
0.0
  0
LINE
  5
8E
330
1F
100
AcDbEntity
  8
0
  6
Continuous
 62
     7
370
    15
100
AcDbLine
 10
125.9008378356
 20
534.8043042054
 30
0.0
 11
125.5057330226
 21
534.7695546975
 31
0.0
  0
LINE
  5
8F
330
1F
100
AcDbEntity
  8
0
  6
Continuous
 62
     7
370
    15
100
AcDbLine
 10
125.5057330226
 20
534.7695546975
 30
0.0
 11
125.5057330226
 21
534.5737683406
 31
0.0
  0
LINE
  5
90
330
1F
100
AcDbEntity
  8
0
  6
Continuous
 62
     7
370
    15
100
AcDbLine
 10
125.5057330226
 20
534.5737683406
 30
0.0
 11
125.9008378356
 21
534.4127352169
 31
0.0
  0
LINE
  5
91
330
1F
100
AcDbEntity
  8
0
  6
Continuous
 62
     7
370
    15
100
AcDbLine
 10
126.9873762457
 20
534.1656814148
 30
0.0
 11
126.9873762457
 21
533.9698950579
 31
0.0
  0
LINE
  5
92
330
1F
100
AcDbEntity
  8
0
  6
Continuous
 62
     7
370
    15
100
AcDbLine
 10
126.9873762457
 20
533.9698950579
 30
0.0
 11
127.3824811314
 21
533.8088619342
 31
0.0
  0
LINE
  5
93
330
1F
100
AcDbEntity
  8
0
  6
Continuous
 62
     7
370
    15
100
AcDbLine
 10
127.3824811314
 20
533.8088619342
 30
0.0
 11
127.7775859443
 21
533.8436151674
 31
0.0
  0
LINE
  5
94
330
1F
100
AcDbEntity
  8
0
  6
Continuous
 62
     7
370
    15
100
AcDbLine
 10
127.7775859443
 20
533.8436151674
 30
0.0
 11
127.7775859443
 21
534.0394015243
 31
0.0
  0
LINE
  5
95
330
1F
100
AcDbEntity
  8
0
  6
Continuous
 62
     7
370
    15
100
AcDbLine
 10
127.7775859443
 20
534.0394015243
 30
0.0
 11
127.3824811314
 21
534.2004309228
 31
0.0
  0
LINE
  5
96
330
1F
100
AcDbEntity
  8
0
  6
Continuous
 62
     7
370
    15
100
AcDbLine
 10
127.3824811314
 20
534.2004309228
 30
0.0
 11
126.9873762457
 21
534.1656814148
 31
0.0
  0
LINE
  5
97
330
1F
100
AcDbEntity
  8
0
  6
Continuous
 62
     7
370
    15
100
AcDbLine
 10
126.4934951714
 20
534.6117029717
 30
0.0
 11
126.4934951714
 21
534.4159166148
 31
0.0
  0
LINE
  5
98
330
1F
100
AcDbEntity
  8
0
  6
Continuous
 62
     7
370
    15
100
AcDbLine
 10
126.4934951714
 20
534.4159166148
 30
0.0
 11
126.8886000279
 21
534.254883491
 31
0.0
  0
LINE
  5
99
330
1F
100
AcDbEntity
  8
0
  6
Continuous
 62
     7
370
    15
100
AcDbLine
 10
126.8886000279
 20
534.254883491
 30
0.0
 11
127.2837048845
 21
534.2896367242
 31
0.0
  0
LINE
  5
9A
330
1F
100
AcDbEntity
  8
0
  6
Continuous
 62
     7
370
    15
100
AcDbLine
 10
127.2837048845
 20
534.2896367242
 30
0.0
 11
127.2837048845
 21
534.4854230812
 31
0.0
  0
LINE
  5
9B
330
1F
100
AcDbEntity
  8
0
  6
Continuous
 62
     7
370
    15
100
AcDbLine
 10
127.2837048845
 20
534.4854230812
 30
0.0
 11
126.8886000279
 21
534.6464524796
 31
0.0
  0
LINE
  5
9C
330
1F
100
AcDbEntity
  8
0
  6
Continuous
 62
     7
370
    15
100
AcDbLine
 10
126.8886000279
 20
534.6464524796
 30
0.0
 11
126.4934951714
 21
534.6117029717
 31
0.0
  0
LINE
  5
9D
330
1F
100
AcDbEntity
  8
0
  6
Continuous
 62
     7
370
    15
100
AcDbLine
 10
126.8886000279
 20
533.9122610917
 30
0.0
 11
126.4934951714
 21
533.8775115838
 31
0.0
  0
LINE
  5
9E
330
1F
100
AcDbEntity
  8
0
  6
Continuous
 62
     7
370
    15
100
AcDbLine
 10
126.4934951714
 20
533.8775115838
 30
0.0
 11
126.4934951714
 21
533.6817252269
 31
0.0
  0
LINE
  5
9F
330
1F
100
AcDbEntity
  8
0
  6
Continuous
 62
     7
370
    15
100
AcDbLine
 10
126.4934951714
 20
533.6817252269
 30
0.0
 11
126.8886000279
 21
533.5206921032
 31
0.0
  0
LINE
  5
A0
330
1F
100
AcDbEntity
  8
0
  6
Continuous
 62
     7
370
    15
100
AcDbLine
 10
126.8886000279
 20
533.5206921032
 30
0.0
 11
127.2837048845
 21
533.5554453363
 31
0.0
  0
LINE
  5
A1
330
1F
100
AcDbEntity
  8
0
  6
Continuous
 62
     7
370
    15
100
AcDbLine
 10
127.2837048845
 20
533.5554453363
 30
0.0
 11
127.2837048845
 21
533.751227968
 31
0.0
  0
LINE
  5
A2
330
1F
100
AcDbEntity
  8
0
  6
Continuous
 62
     7
370
    15
100
AcDbLine
 10
127.2837048845
 20
533.751227968
 30
0.0
 11
126.8886000279
 21
533.9122610917
 31
0.0
  0
LINE
  5
A3
330
1F
100
AcDbEntity
  8
0
  6
Continuous
 62
     7
370
    15
100
AcDbLine
 10
125.4298957746
 20
534.1265807679
 30
0.0
 11
125.8020616469
 21
534.159318619
 31
0.0
  0
LINE
  5
A4
330
1F
100
AcDbEntity
  8
0
  6
Continuous
 62
     7
370
    15
100
AcDbLine
 10
125.8020616469
 20
534.159318619
 30
0.0
 11
125.8020616469
 21
534.3551012507
 31
0.0
  0
LINE
  5
A5
330
1F
100
AcDbEntity
  8
0
  6
Continuous
 62
     7
370
    15
100
AcDbLine
 10
125.8020616469
 20
534.3551012507
 30
0.0
 11
125.4298957746
 21
534.5067838957
 31
0.0
  0
LINE
  5
A6
330
1F
100
AcDbEntity
  8
0
  6
Continuous
 62
     7
370
    15
100
AcDbLine
 10
125.4298957746
 20
534.5067838957
 30
0.0
 11
125.4298957746
 21
537.8661799064
 31
0.0
  0
ARC
  5
A7
330
1F
100
AcDbEntity
  8
0
  6
Continuous
 62
     7
370
    15
100
AcDbCircle
 10
129.7358661004
 20
551.3351300501
 30
0.0
 40
21.15771968738277
100
AcDbArc
 50
258.2572599734
 51
259.4993963243
  0
LINE
  5
A8
330
1F
100
AcDbEntity
  8
0
  6
Continuous
 62
     7
370
    15
100
AcDbLine
 10
125.4298957746
 20
530.6202146044
 30
0.0
 11
125.4298957746
 21
534.1265807679
 31
0.0
  0
LWPOLYLINE
  5
A9
330
1F
100
AcDbEntity
  8
0
  6
Continuous
 62
     7
370
    15
100
AcDbPolyline
 90
        8
 70
   128
 43
0.0
 10
117.9385978712
 20
533.9608947566
 10
118.2536149381
 20
533.2680615416
 10
118.8732601685
 20
532.6107750466
 10
119.7748740187
 20
532.0146093895
 10
120.926153565
 20
531.500925385
 10
122.2858482023
 20
531.0881296923
 10
123.8052420767
 20
530.791011714
 10
125.4298957746
 20
530.6202146044
  0
LINE
  5
AA
330
1F
100
AcDbEntity
  8
0
  6
Continuous
 62
     7
370
    15
100
AcDbLine
 10
125.4298957746
 20
534.1265807679
 30
0.0
 11
125.8020616469
 21
534.2160100868
 31
0.0
  0
ARC
  5
AB
330
1F
100
AcDbEntity
  8
0
  6
Continuous
 62
     7
370
    15
100
AcDbCircle
 10
126.7432423292
 20
580.6899861091
 30
0.0
 40
13.039
100
AcDbArc
 50
0.0
 51
180.0
  0
LINE
  5
AC
330
1F
100
AcDbEntity
  8
0
  6
Continuous
 62
     7
370
    15
100
AcDbLine
 10
126.9339529053
 20
534.4879935315
 30
0.0
 11
127.1500089596
 21
534.5399129024
 31
0.0
  0
LINE
  5
AD
330
1F
100
AcDbEntity
  8
0
  6
Continuous
 62
     7
370
    15
100
AcDbLine
 10
126.5265637439
 20
534.5858867099
 30
0.0
 11
126.9339529053
 21
534.4879935315
 31
0.0
  0
LINE
  5
AE
330
1F
100
AcDbEntity
  8
0
  6
Continuous
 62
     7
370
    15
100
AcDbLine
 10
126.5265637439
 20
534.6146124234
 30
0.0
 11
126.5265637439
 21
534.5858867099
 31
0.0
  0
LINE
  5
AF
330
1F
100
AcDbEntity
  8
0
  6
Continuous
 62
     7
370
    15
100
AcDbLine
 10
125.9154800309
 20
534.4879935315
 30
0.0
 11
126.2959427358
 21
534.5794158807
 31
0.0
  0
LINE
  5
B0
330
1F
100
AcDbEntity
  8
0
  6
Continuous
 62
     7
370
    15
100
AcDbLine
 10
125.5080908986
 20
534.5858867099
 30
0.0
 11
125.9154800309
 21
534.4879935315
 31
0.0
  0
LINE
  5
B1
330
1F
100
AcDbEntity
  8
0
  6
Continuous
 62
     7
370
    15
100
AcDbLine
 10
125.5080908986
 20
534.7697595885
 30
0.0
 11
125.5080908986
 21
534.5858867099
 31
0.0
  0
LINE
  5
B2
330
1F
100
AcDbEntity
  8
0
  6
Continuous
 62
     7
370
    15
100
AcDbLine
 10
126.5265637439
 20
534.5858867099
 30
0.0
 11
126.4934951714
 21
534.4159166148
 31
0.0
  0
LINE
  5
B3
330
1F
100
AcDbEntity
  8
0
  6
Continuous
 62
     7
370
    15
100
AcDbLine
 10
125.5080908986
 20
534.5858867099
 30
0.0
 11
125.5057330226
 21
534.5737683406
 31
0.0
  0
LINE
  5
B4
330
1F
100
AcDbEntity
  8
0
  6
Continuous
 62
     7
370
    15
100
AcDbLine
 10
126.9339529053
 20
534.4879935315
 30
0.0
 11
126.8886000279
 21
534.254883491
 31
0.0
  0
LINE
  5
B5
330
1F
100
AcDbEntity
  8
0
  6
Continuous
 62
     7
370
    15
100
AcDbLine
 10
125.9154800309
 20
534.4879935315
 30
0.0
 11
125.9008378356
 21
534.4127352169
 31
0.0
  0
LINE
  5
B6
330
1F
100
AcDbEntity
  8
0
  6
Continuous
 62
     7
370
    15
100
AcDbLine
 10
127.4431893352
 20
534.1208997002
 30
0.0
 11
127.5277607592
 21
534.1412211587
 31
0.0
  0
LINE
  5
B7
330
1F
100
AcDbEntity
  8
0
  6
Continuous
 62
     7
370
    15
100
AcDbLine
 10
127.1846257541
 20
534.1830300918
 30
0.0
 11
127.4431893352
 21
534.1208997002
 31
0.0
  0
LINE
  5
B8
330
1F
100
AcDbEntity
  8
0
  6
Continuous
 62
     7
370
    15
100
AcDbLine
 10
127.0261303679
 20
534.1690900555
 30
0.0
 11
126.9873762457
 21
533.9698950579
 31
0.0
  0
LINE
  5
B9
330
1F
100
AcDbEntity
  8
0
  6
Continuous
 62
     7
370
    15
100
AcDbLine
 10
127.4431893352
 20
534.1208997002
 30
0.0
 11
127.3824811314
 21
533.8088619342
 31
0.0
  0
LINE
  5
BA
330
1F
100
AcDbEntity
  8
0
  6
Continuous
 62
     7
370
    15
100
AcDbLine
 10
126.5265637439
 20
533.851695322
 30
0.0
 11
126.9339529053
 21
533.7538021436
 31
0.0
  0
LINE
  5
BB
330
1F
100
AcDbEntity
  8
0
  6
Continuous
 62
     7
370
    15
100
AcDbLine
 10
126.5265637439
 20
533.8804173102
 30
0.0
 11
126.5265637439
 21
533.851695322
 31
0.0
  0
LINE
  5
BC
330
1F
100
AcDbEntity
  8
0
  6
Continuous
 62
     7
370
    15
100
AcDbLine
 10
126.9339529053
 20
533.7538021436
 30
0.0
 11
127.1500089596
 21
533.8057177892
 31
0.0
  0
LINE
  5
BD
330
1F
100
AcDbEntity
  8
0
  6
Continuous
 62
     7
370
    15
100
AcDbLine
 10
125.9154800309
 20
533.7538021436
 30
0.0
 11
126.2959427358
 21
533.8452244928
 31
0.0
  0
LINE
  5
BE
330
1F
100
AcDbEntity
  8
0
  6
Continuous
 62
     7
370
    15
100
AcDbLine
 10
125.5080908986
 20
533.851695322
 30
0.0
 11
125.9154800309
 21
533.7538021436
 31
0.0
  0
LINE
  5
BF
330
1F
100
AcDbEntity
  8
0
  6
Continuous
 62
     7
370
    15
100
AcDbLine
 10
125.5080908986
 20
534.0355682006
 30
0.0
 11
125.5080908986
 21
533.851695322
 31
0.0
  0
LINE
  5
C0
330
1F
100
AcDbEntity
  8
0
  6
Continuous
 62
     7
370
    15
100
AcDbLine
 10
126.5265637439
 20
533.851695322
 30
0.0
 11
126.4934951714
 21
533.6817252269
 31
0.0
  0
LINE
  5
C1
330
1F
100
AcDbEntity
  8
0
  6
Continuous
 62
     7
370
    15
100
AcDbLine
 10
125.5080908986
 20
533.851695322
 30
0.0
 11
125.5057330226
 21
533.8395769527
 31
0.0
  0
LINE
  5
C2
330
1F
100
AcDbEntity
  8
0
  6
Continuous
 62
     7
370
    15
100
AcDbLine
 10
126.9339529053
 20
533.7538021436
 30
0.0
 11
126.8886000279
 21
533.5206921032
 31
0.0
  0
LINE
  5
C3
330
1F
100
AcDbEntity
  8
0
  6
Continuous
 62
     7
370
    15
100
AcDbLine
 10
125.9154800309
 20
533.7538021436
 30
0.0
 11
125.9008378356
 21
533.678543829
 31
0.0
  0
ARC
  5
C4
330
1F
100
AcDbEntity
  8
0
  6
Continuous
 62
     7
370
    15
100
AcDbCircle
 10
126.7432423292
 20
580.6899861091
 30
0.0
 40
34.85425000000004
100
AcDbArc
 50
180.0
 51
248.0312572874
  0
ARC
  5
C5
330
1F
100
AcDbEntity
  8
0
  6
Continuous
 62
     7
370
    15
100
AcDbCircle
 10
126.7432423292
 20
580.6899861091
 30
0.0
 40
34.85425000000004
100
AcDbArc
 50
291.9687427126
 51
180.0
  0
CIRCLE
  5
C6
330
1F
100
AcDbEntity
  8
0
  6
Continuous
 62
     7
370
    15
100
AcDbCircle
 10
236.7432423771
 20
580.6954538913
 30
0.0
 40
23.06899999999999
  0
ARC
  5
C7
330
1F
100
AcDbEntity
  8
0
  6
Continuous
 62
     7
370
    15
100
AcDbCircle
 10
248.7792423771
 20
558.6979465552
 30
0.0
 40
2.006000000000144
100
AcDbArc
 50
133.9078255618
 51
180.0
  0
ARC
  5
C8
330
1F
100
AcDbEntity
  8
0
  6
Continuous
 62
     7
370
    15
100
AcDbCircle
 10
224.7072423771
 20
558.6979465552
 30
0.0
 40
2.006000000000134
100
AcDbArc
 50
0.0
 51
61.3145979859
  0
LINE
  5
C9
330
1F
100
AcDbEntity
  8
0
  6
Continuous
 62
     7
370
    15
100
AcDbLine
 10
246.773243135
 20
558.697947376
 30
0.0
 11
246.773243135
 21
508.4794546297
 31
0.0
  0
LINE
  5
CA
330
1F
100
AcDbEntity
  8
0
  6
Continuous
 62
     7
370
    15
100
AcDbLine
 10
226.7132403312
 20
508.4794546297
 30
0.0
 11
226.7132403312
 21
558.697947376
 31
0.0
  0
ARC
  5
CB
330
1F
100
AcDbEntity
  8
0
  6
Continuous
 62
     7
370
    15
100
AcDbCircle
 10
231.7282423771
 20
508.4794538913
 30
0.0
 40
5.014999999999986
100
AcDbArc
 50
180.0
 51
270.0
  0
LINE
  5
CC
330
1F
100
AcDbEntity
  8
0
  6
Continuous
 62
     7
370
    15
100
AcDbLine
 10
241.7582424341
 20
503.4644539287
 30
0.0
 11
231.7282410322
 21
503.4644539287
 31
0.0
  0
ARC
  5
CD
330
1F
100
AcDbEntity
  8
0
  6
Continuous
 62
     7
370
    15
100
AcDbCircle
 10
241.7582423771
 20
508.4794538913
 30
0.0
 40
5.014999999999986
100
AcDbArc
 50
270.0
 51
0.0
  0
SPLINE
  5
CE
330
1F
100
AcDbEntity
  8
0
  6
Continuous
 62
     7
370
    15
100
AcDbSpline
210
0.0
220
0.0
230
1.0
 70
     8
 71
     3
 72
     9
 73
     5
 74
     0
 42
0.00000001
 43
0.00000001
 40
0.0
 40
0.0
 40
0.0
 40
0.0
 40
0.5799277007055491
 40
1.0
 40
1.0
 40
1.0
 40
1.0
 10
247.8163616714791
 20
560.4577465733333
 30
0.0
 10
247.8160109441059
 20
560.457548415965
 30
0.0
 10
247.8154061663504
 20
560.4572067227364
 30
0.0
 10
247.7940484630751
 20
560.4455786769303
 30
0.0
 10
247.7850766835526
 20
560.4406940569921
 30
0.0
  0
SPLINE
  5
CF
330
1F
100
AcDbEntity
  8
0
  6
Continuous
 62
     7
370
    15
100
AcDbSpline
210
0.0
220
0.0
230
1.0
 70
     8
 71
     3
 72
    10
 73
     6
 74
     0
 42
0.00000001
 43
0.00000001
 40
0.0
 40
0.0
 40
0.0
 40
0.0
 40
0.1018572639214636
 40
0.7467889453220593
 40
1.0
 40
1.0
 40
1.0
 40
1.0
 10
247.6385014114693
 20
560.361472033505
 30
0.0
 10
247.6312024811378
 20
560.3575530681395
 30
0.0
 10
247.5776887671976
 20
560.3288203111479
 30
0.0
 10
247.4802546775317
 20
560.2770632887979
 30
0.0
 10
247.3747870570704
 20
560.2223934465298
 30
0.0
 10
247.3450528440789
 20
560.2069805195375
 30
0.0
  0
ARC
  5
D0
330
1F
100
AcDbEntity
  8
0
  6
Continuous
 62
     7
370
    15
100
AcDbCircle
 10
236.7432423771
 20
580.6954538913
 30
0.0
 40
34.85425000000004
100
AcDbArc
 50
180.0
 51
253.2755167346
  0
ARC
  5
D1
330
1F
100
AcDbEntity
  8
0
  6
Continuous
 62
     7
370
    15
100
AcDbCircle
 10
236.7432423771
 20
580.6954538913
 30
0.0
 40
34.85425000000004
100
AcDbArc
 50
286.7244832654
 51
180.0
  0
ARC
  5
D2
330
1F
100
AcDbEntity
  8
0
  6
Continuous
 62
     8
370
     0
100
AcDbCircle
 10
126.7432423292
 20
580.6899861091
 30
0.0
 40
33.85125000000004
100
AcDbArc
 50
180.0
 51
247.3447627351
  0
ARC
  5
D3
330
1F
100
AcDbEntity
  8
0
  6
Continuous
 62
     8
370
     0
100
AcDbCircle
 10
126.7432423292
 20
580.6899861091
 30
0.0
 40
33.85125000000004
100
AcDbArc
 50
292.6552372649
 51
180.0
  0
CIRCLE
  5
D4
330
1F
100
AcDbEntity
  8
0
  6
Continuous
 62
     8
370
     0
100
AcDbCircle
 10
236.7432423771
 20
580.6954538913
 30
0.0
 40
21.56450000000001
  0
LWPOLYLINE
  5
D5
330
1F
100
AcDbEntity
  8
0
  6
Continuous
 62
     8
370
     0
100
AcDbPolyline
 90
        9
 70
   128
 43
0.0
 10
245.770245975
 20
557.3016750445
 10
245.629355496
 20
557.6667870214
 10
245.493881589
 20
558.0178676924
 10
245.3690322099
 20
558.3414259186
 10
245.2595980821
 20
558.6250266811
 10
245.1697887836
 20
558.857771643
 10
245.1030539332
 20
559.0307182452
 10
245.0619565306
 20
559.1372168442
 10
245.0480835495
 20
559.1731770715
  0
LWPOLYLINE
  5
D6
330
1F
100
AcDbEntity
  8
0
  6
Continuous
 62
     8
370
     0
100
AcDbPolyline
 90
        9
 70
   128
 43
0.0
 10
227.7162449417
 20
557.3016750445
 10
227.8571279702
 20
557.6667870214
 10
227.9926018772
 20
558.0178676924
 10
228.1174512563
 20
558.3414259186
 10
228.2268853841
 20
558.6250266811
 10
228.3166946826
 20
558.857771643
 10
228.383429533
 20
559.0307182452
 10
228.4245269356
 20
559.1372168442
 10
228.4383999167
 20
559.1731770715
  0
ARC
  5
D7
330
1F
100
AcDbEntity
  8
0
  6
Continuous
 62
     8
370
     0
100
AcDbCircle
 10
241.7582423771
 20
508.4794538913
 30
0.0
 40
4.012
100
AcDbArc
 50
270.0
 51
0.0
  0
LINE
  5
D8
330
1F
100
AcDbEntity
  8
0
  6
Continuous
 62
     8
370
     0
100
AcDbLine
 10
231.7282410322
 20
504.4674510887
 30
0.0
 11
241.7582424341
 21
504.4674510887
 31
0.0
  0
ARC
  5
D9
330
1F
100
AcDbEntity
  8
0
  6
Continuous
 62
     8
370
     0
100
AcDbCircle
 10
231.7282423771
 20
508.4794538913
 30
0.0
 40
4.012
100
AcDbArc
 50
180.0
 51
270.0
  0
LINE
  5
DA
330
1F
100
AcDbEntity
  8
0
  6
Continuous
 62
     8
370
     0
100
AcDbLine
 10
227.7162449417
 20
557.3016750445
 30
0.0
 11
227.7162449417
 21
508.4794546297
 31
0.0
  0
LINE
  5
DB
330
1F
100
AcDbEntity
  8
0
  6
Continuous
 62
     8
370
     0
100
AcDbLine
 10
245.770245975
 20
508.4794546297
 30
0.0
 11
245.770245975
 21
557.3016750445
 31
0.0
  0
ARC
  5
DC
330
1F
100
AcDbEntity
  8
0
  6
Continuous
 62
     8
370
     0
100
AcDbCircle
 10
236.7432423771
 20
580.6954538913
 30
0.0
 40
33.85125000000002
100
AcDbArc
 50
180.0
 51
252.7647147429
  0
ARC
  5
DD
330
1F
100
AcDbEntity
  8
0
  6
Continuous
 62
     8
370
     0
100
AcDbCircle
 10
236.7432423771
 20
580.6954538913
 30
0.0
 40
33.85125000000006
100
AcDbArc
 50
287.2352852571
 51
180.0
  0
LINE
  5
DE
330
1F
100
AcDbEntity
  8
0
  6
Continuous
 62
     7
370
    15
100
AcDbLine
 10
339.3861661367
 20
615.5442344775
 30
0.0
 11
333.3681664131
 21
615.5442344775
 31
0.0
  0
LINE
  5
DF
330
1F
100
AcDbEntity
  8
0
  6
Continuous
 62
     7
370
    15
100
AcDbLine
 10
333.3681664131
 20
545.8357344201
 30
0.0
 11
339.3861661367
 21
545.8357344201
 31
0.0
  0
ARC
  5
E0
330
1F
100
AcDbEntity
  8
0
  6
Continuous
 62
     7
370
    15
100
AcDbCircle
 10
339.3861663711
 20
614.5412361091
 30
0.0
 40
1.003000000000043
100
AcDbArc
 50
0.0
 51
90.0
  0
ARC
  5
E1
330
1F
100
AcDbEntity
  8
0
  6
Continuous
 62
     7
370
    15
100
AcDbCircle
 10
339.3861663711
 20
546.8387361091
 30
0.0
 40
1.003000000000043
100
AcDbArc
 50
270.0
 51
0.0
  0
LINE
  5
E2
330
1F
100
AcDbEntity
  8
0
  6
Continuous
 62
     7
370
    15
100
AcDbLine
 10
340.3891670219
 20
567.6509859791
 30
0.0
 11
495.854164537
 21
567.6509859791
 31
0.0
  0
LINE
  5
E3
330
1F
100
AcDbEntity
  8
0
  6
Continuous
 62
     7
370
    15
100
AcDbLine
 10
495.854164537
 20
593.7289857125
 30
0.0
 11
340.3891670219
 21
593.7289857125
 31
0.0
  0
LINE
  5
E4
330
1F
100
AcDbEntity
  8
0
  6
Continuous
 62
     7
370
    15
100
AcDbLine
 10
551.9390358291
 20
546.0805046191
 30
0.0
 11
544.0325840078
 21
563.035951071
 31
0.0
  0
LINE
  5
E5
330
1F
100
AcDbEntity
  8
0
  6
Continuous
 62
     7
370
    15
100
AcDbLine
 10
520.3978820406
 20
552.014910691
 30
0.0
 11
528.3043338619
 21
535.0594679644
 31
0.0
  0
ARC
  5
E6
330
1F
100
AcDbEntity
  8
0
  6
Continuous
 62
     7
370
    15
100
AcDbCircle
 10
495.8541663711
 20
540.5699861091
 30
0.0
 40
27.08100000000002
100
AcDbArc
 50
25.0
 51
90.0
  0
ARC
  5
E7
330
1F
100
AcDbEntity
  8
0
  6
Continuous
 62
     7
370
    15
100
AcDbCircle
 10
495.8541663711
 20
540.5699861091
 30
0.0
 40
53.15899999999999
100
AcDbArc
 50
25.0
 51
90.0
  0
LINE
  5
E8
330
1F
100
AcDbEntity
  8
0
  6
Continuous
 62
     7
370
    15
100
AcDbLine
 10
551.8583013378
 20
543.0394234886
 30
0.0
 11
550.7079167925
 21
545.5064262083
 31
0.0
  0
LINE
  5
E9
330
1F
100
AcDbEntity
  8
0
  6
Continuous
 62
     7
370
    15
100
AcDbLine
 10
528.8912757002
 20
535.3331613174
 30
0.0
 11
530.0416602455
 21
532.8661585977
 31
0.0
  0
ARC
  5
EA
330
1F
100
AcDbEntity
  8
0
  6
Continuous
 62
     7
370
    15
100
AcDbCircle
 10
534.3279341545
 20
530.4381257736
 30
0.0
 40
0.2006000000000029
100
AcDbArc
 50
204.9999999999
 51
295.0
  0
ARC
  5
EB
330
1F
100
AcDbEntity
  8
0
  6
Continuous
 62
     7
370
    15
100
AcDbCircle
 10
550.9631229548
 20
538.195241706
 30
0.0
 40
0.200600000000037
100
AcDbArc
 50
295.0
 51
25.0000000001
  0
LINE
  5
EC
330
1F
100
AcDbEntity
  8
0
  6
Continuous
 62
     7
370
    15
100
AcDbLine
 10
339.4786241166
 20
615.5497032037
 30
0.0
 11
333.4606243931
 21
615.5497032037
 31
0.0
  0
ARC
  5
ED
330
1F
100
AcDbEntity
  8
0
  6
Continuous
 62
     7
370
    15
100
AcDbCircle
 10
339.4786247855
 20
614.5467038913
 30
0.0
 40
1.003000000000156
100
AcDbArc
 50
0.0
 51
90.0
  0
ARC
  5
EE
330
1F
100
AcDbEntity
  8
0
  6
Continuous
 62
     7
370
    15
100
AcDbCircle
 10
339.4786247855
 20
546.8442038913
 30
0.0
 40
1.003000000000043
100
AcDbArc
 50
270.0
 51
0.0
  0
LINE
  5
EF
330
1F
100
AcDbEntity
  8
0
  6
Continuous
 62
     7
370
    15
100
AcDbLine
 10
385.1151271425
 20
603.7644530466
 30
0.0
 11
355.5823108815
 21
603.7644530466
 31
0.0
  0
LINE
  5
F0
330
1F
100
AcDbEntity
  8
0
  6
Continuous
 62
     7
370
    15
100
AcDbLine
 10
383.610623952
 20
557.6264533033
 30
0.0
 11
385.1151271425
 21
557.6264533033
 31
0.0
  0
LINE
  5
F1
330
1F
100
AcDbEntity
  8
0
  6
Continuous
 62
     7
370
    15
100
AcDbLine
 10
366.058125224
 20
557.6264533033
 30
0.0
 11
373.5806262754
 21
557.6264533033
 31
0.0
  0
LINE
  5
F2
330
1F
100
AcDbEntity
  8
0
  6
Continuous
 62
     7
370
    15
100
AcDbLine
 10
351.5146254264
 20
557.6264533033
 30
0.0
 11
360.0401236378
 21
557.6264533033
 31
0.0
  0
ARC
  5
F3
330
1F
100
AcDbEntity
  8
0
  6
Continuous
 62
     7
370
    15
100
AcDbCircle
 10
385.1151247855
 20
602.2599538913
 30
0.0
 40
1.504500000000064
100
AcDbArc
 50
0.0
 51
90.0
  0
ARC
  5
F4
330
1F
100
AcDbEntity
  8
0
  6
Continuous
 62
     7
370
    15
100
AcDbCircle
 10
385.1151247855
 20
559.1309538913
 30
0.0
 40
1.504500000000121
100
AcDbArc
 50
270.0
 51
360.0
  0
LINE
  5
F5
330
1F
100
AcDbEntity
  8
0
  6
Continuous
 62
     7
370
    15
100
AcDbLine
 10
355.5027275048
 20
603.3131043246
 30
0.0
 11
340.4816250019
 21
603.3131043246
 31
0.0
  0
LINE
  5
F6
330
1F
100
AcDbEntity
  8
0
  6
Continuous
 62
     7
370
    15
100
AcDbLine
 10
340.4816250019
 20
558.077803888
 30
0.0
 11
351.5146254264
 21
558.077803888
 31
0.0
  0
ARC
  5
F7
330
1F
100
AcDbEntity
  8
0
  6
Continuous
 62
     7
370
    15
100
AcDbCircle
 10
383.6106247855
 20
555.6204538913
 30
0.0
 40
2.006000000000029
100
AcDbArc
 50
90.0
 51
180.0
  0
ARC
  5
F8
330
1F
100
AcDbEntity
  8
0
  6
Continuous
 62
     7
370
    15
100
AcDbCircle
 10
373.5806247855
 20
555.6204538913
 30
0.0
 40
2.006000000000029
100
AcDbArc
 50
0.0
 51
90.0
  0
LINE
  5
F9
330
1F
100
AcDbEntity
  8
0
  6
Continuous
 62
     7
370
    15
100
AcDbLine
 10
333.3681664131
 20
580.6899861091
 30
0.0
 11
333.3681664131
 21
545.8357344201
 31
0.0
  0
LINE
  5
FA
330
1F
100
AcDbEntity
  8
0
  6
Continuous
 62
     7
370
    15
100
AcDbLine
 10
333.3681664131
 20
615.5442344775
 30
0.0
 11
333.3681664131
 21
580.6899861091
 31
0.0
  0
LINE
  5
FB
330
1F
100
AcDbEntity
  8
0
  6
Continuous
 62
     7
370
    15
100
AcDbLine
 10
340.3891670219
 20
580.6899861091
 30
0.0
 11
340.3891670219
 21
546.8387353053
 31
0.0
  0
LINE
  5
FC
330
1F
100
AcDbEntity
  8
0
  6
Continuous
 62
     7
370
    15
100
AcDbLine
 10
340.3891670219
 20
614.5412373176
 30
0.0
 11
340.3891670219
 21
580.6899861091
 31
0.0
  0
LWPOLYLINE
  5
FD
330
1F
100
AcDbEntity
  8
0
  6
Continuous
 62
     7
370
    15
100
AcDbPolyline
 90
       22
 70
   128
 43
0.0
 10
551.9390358291
 20
546.0805046191
 10
551.8610729538
 20
546.0441495111
 10
551.5166028105
 20
545.883522444
 10
550.9050591551
 20
545.598355197
 10
550.0407620035
 20
545.1953272154
 10
548.9439620338
 20
544.6838821104
 10
547.6403935514
 20
544.0760115912
 10
546.1605741344
 20
543.3859648933
 10
544.5392085872
 20
542.629913502
 10
542.8143097721
 20
541.8255786231
 10
541.0263045393
 20
540.9918139508
 10
539.2170800529
 20
540.1481586328
 10
537.429059919
 20
539.3143939605
 10
535.7041611038
 20
538.5100590816
 10
534.0828104578
 20
537.7540076902
 10
532.6029910408
 20
537.0639609923
 10
531.2994076572
 20
536.4560904732
 10
530.2026225887
 20
535.9446453681
 10
529.338310536
 20
535.5416173866
 10
528.7267668806
 20
535.2564501395
 10
528.3823116384
 20
535.0958230724
 10
528.3043338619
 20
535.0594679644
  0
LINE
  5
FE
330
1F
100
AcDbEntity
  8
0
  6
Continuous
 62
     7
370
    15
100
AcDbLine
 10
552.4000926576
 20
539.5042571058
 30
0.0
 11
550.9492709003
 21
542.6155376067
 31
0.0
  0
LWPOLYLINE
  5
FF
330
1F
100
AcDbEntity
  8
0
  6
Continuous
 62
     7
370
    15
100
AcDbPolyline
 90
       15
 70
   128
 43
0.0
 10
552.4000926576
 20
539.5042571058
 10
551.5442593656
 20
539.105177932
 10
550.4380716644
 20
538.5893518856
 10
549.1117938124
 20
537.9708978167
 10
547.6017548405
 20
537.2667546203
 10
545.9492905699
 20
536.4962006738
 10
544.1996707283
 20
535.6803397467
 10
542.400802549
 20
534.8415124049
 10
540.6019194685
 20
534.0026813378
 10
538.8522996269
 20
533.1868204107
 10
537.1998502575
 20
532.4162664642
 10
535.6898112856
 20
531.7121232679
 10
534.3635334335
 20
531.093669199
 10
533.2573308311
 20
530.5778431525
 10
532.4014975391
 20
530.1787639787
  0
LINE
  5
100
330
1F
100
AcDbEntity
  8
0
  6
Continuous
 62
     7
370
    15
100
AcDbLine
 10
532.4014975391
 20
530.1787639787
 30
0.0
 11
530.950690683
 21
533.2900444796
 31
0.0
  0
LWPOLYLINE
  5
101
330
1F
100
AcDbEntity
  8
0
  6
Continuous
 62
     7
370
    15
100
AcDbPolyline
 90
        5
 70
   128
 43
0.0
 10
530.0416602455
 20
532.8661585977
 10
530.0992383323
 20
532.8930030396
 10
530.271331843
 20
532.9732569685
 10
530.556152638
 20
533.1060710182
 10
530.950690683
 20
533.2900444796
  0
LWPOLYLINE
  5
102
330
1F
100
AcDbEntity
  8
0
  6
Continuous
 62
     7
370
    15
100
AcDbPolyline
 90
        5
 70
   128
 43
0.0
 10
550.9492709003
 20
542.6155376067
 10
551.3438089453
 20
542.7995110681
 10
551.6286297403
 20
542.9323251178
 10
551.8007381521
 20
543.0125790467
 10
551.8583013378
 20
543.0394234886
  0
SPLINE
  5
103
330
1F
100
AcDbEntity
  8
0
  6
Continuous
 62
     7
370
    15
100
AcDbSpline
210
0.0
220
0.0
230
1.0
 70
    24
 71
     3
 72
    10
 73
     6
 74
     0
 42
0.00000001
 43
0.00000001
 40
0.0
 40
0.0
 40
0.0
 40
0.0
 40
0.5000000000000001
 40
0.5000000000000001
 40
1.0
 40
1.0
 40
1.0
 40
1.0
 10
552.6448223690554
 20
538.9794310215976
 30
0.0
 10
552.6448223690554
 20
538.9794310215976
 30
0.0
 10
552.6223718205282
 20
539.0275763782838
 30
0.0
 10
552.5379971499027
 20
539.2085184433558
 30
0.0
 10
552.4764537273703
 20
539.3404987388881
 30
0.0
 10
552.4000916055736
 20
539.5042578375462
 30
0.0
  0
LWPOLYLINE
  5
104
330
1F
100
AcDbEntity
  8
0
  6
Continuous
 62
     7
370
    15
100
AcDbPolyline
 90
       19
 70
   128
 43
0.0
 10
552.6448293291
 20
538.979430758
 10
552.4929119907
 20
538.908594363
 10
552.0417942367
 20
538.6982346704
 10
551.3051702343
 20
538.3547405531
 10
550.3054364286
 20
537.8885539999
 10
549.0729464851
 20
537.3138385644
 10
547.6451768242
 20
536.6480584075
 10
546.0654898248
 20
535.9114381304
 10
544.3818821274
 20
535.1263630023
 10
542.6455243192
 20
534.3166823318
 10
540.9091665111
 20
533.5070053866
 10
539.2255737148
 20
532.7219302585
 10
537.6458867155
 20
531.9853099814
 10
536.2181021534
 20
531.3195260992
 10
534.985627111
 20
530.7448106637
 10
533.9858933054
 20
530.2786278358
 10
533.2492693029
 20
529.9351337185
 10
532.7981515489
 20
529.7247740259
 10
532.6462342106
 20
529.6539376309
  0
SPLINE
  5
105
330
1F
100
AcDbEntity
  8
0
  6
Continuous
 62
     7
370
    15
100
AcDbSpline
210
0.0
220
0.0
230
1.0
 70
    24
 71
     3
 72
    10
 73
     6
 74
     0
 42
0.00000001
 43
0.00000001
 40
0.0
 40
0.0
 40
0.0
 40
0.0
 40
0.5
 40
0.5
 40
1.0
 40
1.0
 40
1.0
 40
1.0
 10
532.6462347403047
 20
529.6539364580274
 30
0.0
 10
532.6462347403047
 20
529.6539364580274
 30
0.0
 10
532.6237841917773
 20
529.7020818147136
 30
0.0
 10
532.5394095211519
 20
529.8830238797856
 30
0.0
 10
532.4778660986196
 20
530.0150041753178
 30
0.0
 10
532.4015039768228
 20
530.1787632739758
 30
0.0
  0
LWPOLYLINE
  5
106
330
1F
100
AcDbEntity
  8
0
  6
Continuous
 62
     7
370
    15
100
AcDbPolyline
 90
       18
 70
   128
 43
0.0
 10
551.0479016863
 20
538.0134369066
 10
550.9062810503
 20
537.9473949602
 10
550.4862322174
 20
537.7515266469
 10
549.8020603023
 20
537.432496511
 10
548.8770856224
 20
537.0011674991
 10
547.74277943
 20
536.472232156
 10
546.4377804361
 20
535.8637022605
 10
545.0065239034
 20
535.1962978771
 10
543.4977515302
 20
534.4927470019
 10
541.9628574215
 20
533.7770107021
 10
540.4540850483
 20
533.073459827
 10
539.0228285156
 20
532.4060554435
 10
537.7178295217
 20
531.797525548
 10
536.5835233293
 20
531.268590205
 10
535.6585486494
 20
530.837261193
 10
534.9743767343
 20
530.5182310572
 10
534.5543279014
 20
530.3223590186
 10
534.4127072655
 20
530.2563207974
  0
LINE
  5
107
330
1F
100
AcDbEntity
  8
0
  6
Continuous
 62
     7
370
    15
100
AcDbLine
 10
542.9715170227
 20
534.1656814148
 30
0.0
 11
542.5516619049
 21
533.9698950579
 31
0.0
  0
LINE
  5
108
330
1F
100
AcDbEntity
  8
0
  6
Continuous
 62
     7
370
    15
100
AcDbLine
 10
542.5516619049
 20
533.9698950579
 30
0.0
 11
542.3711790405
 21
533.8088619342
 31
0.0
  0
LINE
  5
109
330
1F
100
AcDbEntity
  8
0
  6
Continuous
 62
     7
370
    15
100
AcDbLine
 10
542.3711790405
 20
533.8088619342
 30
0.0
 11
542.6105512939
 21
533.8436151674
 31
0.0
  0
LINE
  5
10A
330
1F
100
AcDbEntity
  8
0
  6
Continuous
 62
     7
370
    15
100
AcDbLine
 10
542.6105512939
 20
533.8436151674
 30
0.0
 11
543.0304064117
 21
534.0394015243
 31
0.0
  0
LINE
  5
10B
330
1F
100
AcDbEntity
  8
0
  6
Continuous
 62
     7
370
    15
100
AcDbLine
 10
543.0304064117
 20
534.0394015243
 30
0.0
 11
543.2108892761
 21
534.2004309228
 31
0.0
  0
LINE
  5
10C
330
1F
100
AcDbEntity
  8
0
  6
Continuous
 62
     7
370
    15
100
AcDbLine
 10
543.2108892761
 20
534.2004309228
 30
0.0
 11
542.9715170227
 21
534.1656814148
 31
0.0
  0
LINE
  5
10D
330
1F
100
AcDbEntity
  8
0
  6
Continuous
 62
     7
370
    15
100
AcDbLine
 10
543.2682587467
 20
534.3857343128
 30
0.0
 11
543.1216015182
 21
534.254883491
 31
0.0
  0
LINE
  5
10E
330
1F
100
AcDbEntity
  8
0
  6
Continuous
 62
     7
370
    15
100
AcDbLine
 10
543.1216015182
 20
534.254883491
 30
0.0
 11
543.3609886728
 21
534.2896367242
 31
0.0
  0
LINE
  5
10F
330
1F
100
AcDbEntity
  8
0
  6
Continuous
 62
     7
370
    15
100
AcDbLine
 10
543.3609886728
 20
534.2896367242
 30
0.0
 11
543.7808437906
 21
534.4854230812
 31
0.0
  0
LINE
  5
110
330
1F
100
AcDbEntity
  8
0
  6
Continuous
 62
     7
370
    15
100
AcDbLine
 10
543.7808437906
 20
534.4854230812
 30
0.0
 11
543.961326655
 21
534.6464524796
 31
0.0
  0
LINE
  5
111
330
1F
100
AcDbEntity
  8
0
  6
Continuous
 62
     7
370
    15
100
AcDbLine
 10
543.961326655
 20
534.6464524796
 30
0.0
 11
543.7668217979
 21
534.6182147791
 31
0.0
  0
LINE
  5
112
330
1F
100
AcDbEntity
  8
0
  6
Continuous
 62
     7
370
    15
100
AcDbLine
 10
542.3868550621
 20
533.9122610917
 30
0.0
 11
542.192350205
 21
533.8840233913
 31
0.0
  0
LINE
  5
113
330
1F
100
AcDbEntity
  8
0
  6
Continuous
 62
     7
370
    15
100
AcDbLine
 10
541.6937871538
 20
533.6515391996
 30
0.0
 11
541.5471299253
 21
533.5206921032
 31
0.0
  0
LINE
  5
114
330
1F
100
AcDbEntity
  8
0
  6
Continuous
 62
     7
370
    15
100
AcDbLine
 10
541.5471299253
 20
533.5206921032
 30
0.0
 11
541.7865021787
 21
533.5554453363
 31
0.0
  0
LINE
  5
115
330
1F
100
AcDbEntity
  8
0
  6
Continuous
 62
     7
370
    15
100
AcDbLine
 10
541.7865021787
 20
533.5554453363
 30
0.0
 11
542.2063572965
 21
533.751227968
 31
0.0
  0
LINE
  5
116
330
1F
100
AcDbEntity
  8
0
  6
Continuous
 62
     7
370
    15
100
AcDbLine
 10
542.2063572965
 20
533.751227968
 30
0.0
 11
542.3868550621
 21
533.9122610917
 31
0.0
  0
LWPOLYLINE
  5
117
330
1F
100
AcDbEntity
  8
0
  6
Continuous
 62
     7
370
    15
100
AcDbPolyline
 90
       18
 70
   128
 43
0.0
 10
550.7053984962
 20
537.8537262609
 10
550.7095708214
 20
537.6667353144
 10
550.4843993746
 20
537.2471856704
 10
549.9744071327
 20
536.7145175865
 10
549.1982801519
 20
536.088266485
 10
548.1845094524
 20
535.3913950553
 10
546.9702585302
 20
534.6494550636
 10
545.6000371538
 20
533.8896597555
 10
544.1241069399
 20
533.1398705771
 10
542.5966038071
 20
532.4275838962
 10
541.0735263191
 20
531.7789139977
 10
539.6107389293
 20
531.2176543107
 10
538.2618709169
 20
530.7643870642
 10
537.0763792358
 20
530.4357307782
 10
536.0977752767
 20
530.2437367668
 10
535.3618963323
 20
530.1954532793
 10
534.895773109
 20
530.2926386526
 10
534.7552104555
 20
530.4160314431
  0
LINE
  5
118
330
1F
100
AcDbEntity
  8
0
  6
Continuous
 62
     7
370
    15
100
AcDbLine
 10
543.7274827324
 20
534.5998677244
 30
0.0
 11
543.7808437906
 21
534.4854230812
 31
0.0
  0
LINE
  5
119
330
1F
100
AcDbEntity
  8
0
  6
Continuous
 62
     7
370
    15
100
AcDbLine
 10
542.1529962383
 20
533.8656763365
 30
0.0
 11
542.2063572965
 21
533.751227968
 31
0.0
  0
LINE
  5
11A
330
1F
100
AcDbEntity
  8
0
  6
Continuous
 62
     7
370
    15
100
AcDbLine
 10
543.3076127134
 20
534.4040813675
 30
0.0
 11
543.3609886728
 21
534.2896367242
 31
0.0
  0
LINE
  5
11B
330
1F
100
AcDbEntity
  8
0
  6
Continuous
 62
     7
370
    15
100
AcDbLine
 10
541.7331411205
 20
533.6698899796
 30
0.0
 11
541.7865021787
 21
533.5554453363
 31
0.0
  0
LINE
  5
11C
330
1F
100
AcDbEntity
  8
0
  6
Continuous
 62
     7
370
    15
100
AcDbLine
 10
542.9715170227
 20
534.1656814148
 30
0.0
 11
543.0304064117
 21
534.0394015243
 31
0.0
  0
LINE
  5
11D
330
1F
100
AcDbEntity
  8
0
  6
Continuous
 62
     7
370
    15
100
AcDbLine
 10
542.5516619049
 20
533.9698950579
 30
0.0
 11
542.6105512939
 21
533.8436151674
 31
0.0
  0
LINE
  5
11E
330
1F
100
AcDbEntity
  8
0
  6
Continuous
 62
     7
370
    15
100
AcDbLine
 10
333.4606243931
 20
615.5497032037
 30
0.0
 11
333.4606243931
 21
615.5442344775
 31
0.0
  0
LINE
  5
11F
330
1F
100
AcDbEntity
  8
0
  6
Continuous
 62
     7
370
    15
100
AcDbLine
 10
340.4816250019
 20
567.6509859791
 30
0.0
 11
340.4816250019
 21
546.8442040315
 31
0.0
  0
LINE
  5
120
330
1F
100
AcDbEntity
  8
0
  6
Continuous
 62
     7
370
    15
100
AcDbLine
 10
340.4816250019
 20
614.5467023184
 30
0.0
 11
340.4816250019
 21
593.7289857125
 31
0.0
  0
LWPOLYLINE
  5
121
330
1F
100
AcDbEntity
  8
0
  6
Continuous
 62
     7
370
    15
100
AcDbPolyline
 90
       10
 70
   128
 43
0.0
 10
355.5823108815
 20
603.7644530466
 10
355.5553509556
 20
603.6115522316
 10
355.4748250805
 20
603.1548763444
 10
355.3418061398
 20
602.4004771193
 10
355.1580524705
 20
601.3583569607
 10
354.9260004125
 20
600.0423292449
 10
354.6487270556
 20
598.4698395064
 10
354.3299092613
 20
596.6617326071
 10
353.9737715088
 20
594.6419779962
 10
353.8127868138
 20
593.7289857125
  0
LINE
  5
122
330
1F
100
AcDbEntity
  8
0
  6
Continuous
 62
     7
370
    15
100
AcDbLine
 10
351.5146254264
 20
567.6509859791
 30
0.0
 11
351.5146254264
 21
557.6264533033
 31
0.0
  0
SPLINE
  5
123
330
1F
100
AcDbEntity
  8
0
  6
Continuous
 62
     7
370
    15
100
AcDbSpline
210
0.0
220
0.0
230
1.0
 70
     8
 71
     3
 72
    38
 73
    34
 74
     0
 42
0.00000001
 43
0.00000001
 40
0.0
 40
0.0
 40
0.0
 40
0.0
 40
0.0625
 40
0.0625
 40
0.125
 40
0.125
 40
0.1875
 40
0.1875
 40
0.25
 40
0.25
 40
0.3125
 40
0.3125
 40
0.375
 40
0.375
 40
0.4375
 40
0.4375
 40
0.5
 40
0.5
 40
0.5625
 40
0.5625
 40
0.625
 40
0.625
 40
0.6875
 40
0.6875
 40
0.75
 40
0.75
 40
0.8125
 40
0.8125
 40
0.875
 40
0.875
 40
0.9375
 40
0.9375
 40
1.0
 40
1.0
 40
1.0
 40
1.0
 10
366.0581247854802
 20
557.6264538912574
 30
0.0
 10
366.0581247854802
 20
557.6264538912574
 30
0.0
 10
366.0385795563617
 20
557.6290263584932
 30
0.0
 10
365.9620370428455
 20
557.6388215023715
 30
0.0
 10
365.9040956988745
 20
557.646160709916
 30
0.0
 10
365.7530223249701
 20
557.6643853283973
 30
0.0
 10
365.660605409203
 20
557.6751859129134
 30
0.0
 10
365.4423012573512
 20
557.6989280585972
 30
0.0
 10
365.3153747408064
 20
557.7119485292145
 30
0.0
 10
365.038138511241
 20
557.7376272199824
 30
0.0
 10
364.8868283122349
 20
557.7504118042143
 30
0.0
 10
364.5580625067249
 20
557.7744003559042
 30
0.0
 10
364.383271458158
 20
557.785369504582
 30
0.0
 10
364.0213666759028
 20
557.8035934698355
 30
0.0
 10
363.8315734619274
 20
557.8109786550013
 30
0.0
 10
363.4431199775385
 20
557.8209656320873
 30
0.0
 10
363.2477731553259
 20
557.8235157980872
 30
0.0
 10
362.8548913034094
 20
557.8235537164026
 30
0.0
 10
362.6553214124153
 20
557.8209587558807
 30
0.0
 10
362.2692752573284
 20
557.8110572007547
 30
0.0
 10
362.081617904798
 20
557.8038045174726
 30
0.0
 10
361.7170784360899
 20
557.7855021461083
 30
0.0
 10
361.5411586848998
 20
557.7744538971742
 30
0.0
 10
361.2153247965338
 20
557.7507137234604
 30
0.0
 10
361.0632184009767
 20
557.7379069950415
 30
0.0
 10
360.7824081840236
 20
557.7119132702986
 30
0.0
 10
360.6580240784193
 20
557.699143280941
 30
0.0
 10
360.4400223325511
 20
557.675454875082
 30
0.0
 10
360.345643716626
 20
557.6644343591181
 30
0.0
 10
360.1944841074911
 20
557.6462017515336
 30
0.0
 10
360.1374180242397
 20
557.6389744036568
 30
0.0
 10
360.0601041174977
 20
557.6290832479958
 30
0.0
 10
360.0401247854802
 20
557.6264538912574
 30
0.0
 10
360.0401247854802
 20
557.6264538912574
 30
0.0
  0
LINE
  5
124
330
1F
100
AcDbEntity
  8
0
  6
Continuous
 62
     7
370
    15
100
AcDbLine
 10
386.6196228824
 20
567.6509859791
 30
0.0
 11
386.6196228824
 21
559.1309546312
 31
0.0
  0
LINE
  5
125
330
1F
100
AcDbEntity
  8
0
  6
Continuous
 62
     7
370
    15
100
AcDbLine
 10
386.6196228824
 20
602.2599535813
 30
0.0
 11
386.6196228824
 21
593.7289857125
 31
0.0
  0
LINE
  5
126
330
1F
100
AcDbEntity
  8
0
  6
Continuous
 62
     7
370
    15
100
AcDbLine
 10
380.6016250215
 20
503.4644539287
 30
0.0
 11
376.5896252058
 21
503.4644539287
 31
0.0
  0
ARC
  5
127
330
1F
100
AcDbEntity
  8
0
  6
Continuous
 62
     7
370
    15
100
AcDbCircle
 10
376.5896247855
 20
504.4674538913
 30
0.0
 40
1.002999999999986
100
AcDbArc
 50
180.0
 51
270.0
  0
LINE
  5
128
330
1F
100
AcDbEntity
  8
0
  6
Continuous
 62
     7
370
    15
100
AcDbLine
 10
375.5866243206
 20
504.4674510887
 30
0.0
 11
375.5866243206
 21
508.4794546297
 31
0.0
  0
LINE
  5
129
330
1F
100
AcDbEntity
  8
0
  6
Continuous
 62
     7
370
    15
100
AcDbLine
 10
381.6046221815
 20
508.4794546297
 30
0.0
 11
381.6046221815
 21
504.4674510887
 31
0.0
  0
ARC
  5
12A
330
1F
100
AcDbEntity
  8
0
  6
Continuous
 62
     7
370
    15
100
AcDbCircle
 10
380.6016247855
 20
504.4674538913
 30
0.0
 40
1.0030000000001
100
AcDbArc
 50
270.0
 51
360.0
  0
LINE
  5
12B
330
1F
100
AcDbEntity
  8
0
  6
Continuous
 62
     7
370
    15
100
AcDbLine
 10
381.6046221815
 20
557.3016750445
 30
0.0
 11
381.6046221815
 21
508.4794546297
 31
0.0
  0
LINE
  5
12C
330
1F
100
AcDbEntity
  8
0
  6
Continuous
 62
     7
370
    15
100
AcDbLine
 10
375.5866243206
 20
508.4794546297
 30
0.0
 11
375.5866243206
 21
557.3016750445
 31
0.0
  0
LINE
  5
12D
330
1F
100
AcDbEntity
  8
0
  6
Continuous
 62
     7
370
    15
100
AcDbLine
 10
366.058125224
 20
557.3255541554
 30
0.0
 11
366.0312584303
 21
557.3255541554
 31
0.0
  0
LINE
  5
12E
330
1F
100
AcDbEntity
  8
0
  6
Continuous
 62
     7
370
    15
100
AcDbLine
 10
366.0312584303
 20
557.2252544394
 30
0.0
 11
366.0312584303
 21
557.3255541554
 31
0.0
  0
LINE
  5
12F
330
1F
100
AcDbEntity
  8
0
  6
Continuous
 62
     7
370
    15
100
AcDbLine
 10
360.0669904314
 20
557.2252544394
 30
0.0
 11
360.0669904314
 21
557.3255541554
 31
0.0
  0
LINE
  5
130
330
1F
100
AcDbEntity
  8
0
  6
Continuous
 62
     7
370
    15
100
AcDbLine
 10
360.0669904314
 20
557.3255541554
 30
0.0
 11
360.0401236378
 21
557.3255541554
 31
0.0
  0
LINE
  5
131
330
1F
100
AcDbEntity
  8
0
  6
Continuous
 62
     7
370
    15
100
AcDbLine
 10
360.0401236378
 20
557.3255541554
 30
0.0
 11
360.0401236378
 21
557.6264533033
 31
0.0
  0
LINE
  5
132
330
1F
100
AcDbEntity
  8
0
  6
Continuous
 62
     7
370
    15
100
AcDbLine
 10
366.058125224
 20
557.3255541554
 30
0.0
 11
366.058125224
 21
557.6264533033
 31
0.0
  0
LINE
  5
133
330
1F
100
AcDbEntity
  8
0
  6
Continuous
 62
     7
370
    15
100
AcDbLine
 10
365.4226577543
 20
556.6234542807
 30
0.0
 11
360.6755948327
 21
556.6234542807
 31
0.0
  0
SPLINE
  5
134
330
1F
100
AcDbEntity
  8
0
  6
Continuous
 62
     7
370
    15
100
AcDbSpline
210
0.0
220
0.0
230
1.0
 70
     8
 71
     3
 72
    10
 73
     6
 74
     0
 42
0.00000001
 43
0.00000001
 40
0.0
 40
0.0
 40
0.0
 40
0.0
 40
0.5
 40
0.5
 40
1.0
 40
1.0
 40
1.0
 40
1.0
 10
360.6755935765006
 20
556.6234538912587
 30
0.0
 10
360.5157419557805
 20
556.6234538912587
 30
0.0
 10
360.3591339225886
 20
556.6874757589723
 30
0.0
 10
360.1338214392867
 20
556.90893028586
 30
0.0
 10
360.0669913947681
 20
557.0653451937665
 30
0.0
 10
360.0669913947681
 20
557.2252538912586
 30
0.0
  0
SPLINE
  5
135
330
1F
100
AcDbEntity
  8
0
  6
Continuous
 62
     7
370
    15
100
AcDbSpline
210
0.0
220
0.0
230
1.0
 70
     8
 71
     3
 72
    10
 73
     6
 74
     0
 42
0.00000001
 43
0.00000001
 40
0.0
 40
0.0
 40
0.0
 40
0.0
 40
0.5
 40
0.5
 40
1.0
 40
1.0
 40
1.0
 40
1.0
 10
366.0312581761923
 20
557.2252538912586
 30
0.0
 10
366.0312581761922
 20
557.0653768370732
 30
0.0
 10
365.9645547113096
 20
556.9092180696875
 30
0.0
 10
365.7396240659413
 20
556.6878125598805
 30
0.0
 10
365.5824818558357
 20
556.6234538912587
 30
0.0
 10
365.4226559944598
 20
556.6234538912587
 30
0.0
  0
LINE
  5
136
330
1F
100
AcDbEntity
  8
0
  6
Continuous
 62
     8
370
     0
100
AcDbLine
 10
339.4786241166
 20
615.5497032037
 30
0.0
 11
339.4786241166
 21
615.5399652948
 31
0.0
  0
SPLINE
  5
137
330
1F
100
AcDbEntity
  8
0
  6
Continuous
 62
     8
370
     0
100
AcDbSpline
210
0.0
220
0.0
230
1.0
 70
     8
 71
     3
 72
    22
 73
    18
 74
     0
 42
0.00000001
 43
0.00000001
 40
0.0
 40
0.0
 40
0.0
 40
0.0
 40
0.125
 40
0.125
 40
0.25
 40
0.25
 40
0.375
 40
0.375
 40
0.5
 40
0.5
 40
0.625
 40
0.625
 40
0.75
 40
0.75
 40
0.875
 40
0.875
 40
1.0
 40
1.0
 40
1.0
 40
1.0
 10
373.5806247854801
 20
559.1731772093076
 30
0.0
 10
373.5806247854801
 20
559.2452011644112
 30
0.0
 10
373.6009214247957
 20
559.3182796801933
 30
0.0
 10
373.6789278733794
 20
559.466250657859
 30
0.0
 10
373.7373614039587
 20
559.5418089649268
 30
0.0
 10
373.8899543454751
 20
559.6910563472062
 30
0.0
 10
373.9826591028349
 20
559.763673416179
 30
0.0
 10
374.1995693028227
 20
559.9040370422247
 30
0.0
 10
374.3254665688526
 20
559.9725038207752
 30
0.0
 10
374.6021139799177
 20
560.0987301035251
 30
0.0
 10
374.7521554978808
 20
560.1564615724553
 30
0.0
 10
375.0757974940614
 20
560.259788969438
 30
0.0
 10
375.251682974266
 20
560.3057619526116
 30
0.0
 10
375.6145420002873
 20
560.3799259368823
 30
0.0
 10
375.8019796044
 20
560.4085305475213
 30
0.0
 10
376.1891899266267
 20
560.4475328550507
 30
0.0
 10
376.3895380053466
 20
560.4577471420826
 30
0.0
 10
376.5896247854801
 20
560.4577471420826
 30
0.0
  0
LINE
  5
138
330
1F
100
AcDbEntity
  8
0
  6
Continuous
 62
     8
370
     0
100
AcDbLine
 10
373.5806262754
 20
557.6264533033
 30
0.0
 11
373.5806262754
 21
559.1731770715
 31
0.0
  0
LINE
  5
139
330
1F
100
AcDbEntity
  8
0
  6
Continuous
 62
     8
370
     0
100
AcDbLine
 10
383.610623952
 20
559.1731770715
 30
0.0
 11
383.610623952
 21
557.6264533033
 31
0.0
  0
SPLINE
  5
13A
330
1F
100
AcDbEntity
  8
0
  6
Continuous
 62
     8
370
     0
100
AcDbSpline
210
0.0
220
0.0
230
1.0
 70
     8
 71
     3
 72
    20
 73
    16
 74
     0
 42
0.00000001
 43
0.00000001
 40
0.0
 40
0.0
 40
0.0
 40
0.0
 40
0.1249999999999971
 40
0.1249999999999971
 40
0.2499999999999942
 40
0.2499999999999942
 40
0.4999999999999929
 40
0.4999999999999929
 40
0.6249999999999947
 40
0.6249999999999947
 40
0.7499999999999964
 40
0.7499999999999964
 40
0.8749999999999982
 40
0.8749999999999982
 40
1.0
 40
1.0
 40
1.0
 40
1.0
 10
380.6016247854801
 20
560.4577471420826
 30
0.0
 10
380.8013101883905
 20
560.4577471420826
 30
0.0
 10
380.9976400632927
 20
560.4478111011945
 30
0.0
 10
381.3838896141853
 20
560.4092352309556
 30
0.0
 10
381.5755132363146
 20
560.3801262287022
 30
0.0
 10
382.1197385474159
 20
560.269024183336
 30
0.0
 10
382.4517873117053
 20
560.1613852869593
 30
0.0
 10
382.8651093660144
 20
559.9728176267278
 30
0.0
 10
382.9909503111565
 20
559.9044943029342
 30
0.0
 10
383.2089379617547
 20
559.7634636228618
 30
0.0
 10
383.3014278922235
 20
559.6908783888327
 30
0.0
 10
383.4531485613621
 20
559.5425803627356
 30
0.0
 10
383.5121500802941
 20
559.4665466550762
 30
0.0
 10
383.5904012541699
 20
559.3181705087424
 30
0.0
 10
383.6106247854801
 20
559.2450615016198
 30
0.0
 10
383.6106247854801
 20
559.1731772093076
 30
0.0
  0
LINE
  5
13B
330
1F
100
AcDbEntity
  8
0
  6
Continuous
 62
     8
370
     0
100
AcDbLine
 10
376.5896252058
 20
560.4577465733
 30
0.0
 11
380.6016250215
 21
560.4577465733
 31
0.0
  0
ARC
  5
13C
330
1F
100
AcDbEntity
  8
0
  6
Continuous
 62
     8
370
     0
100
AcDbCircle
 10
373.6456232751
 20
557.2320142565
 30
0.0
 40
1.942250674875692
100
AcDbArc
 50
2.0554120059
 51
91.9177489558
  0
ARC
  5
13D
330
1F
100
AcDbEntity
  8
0
  6
Continuous
 62
     8
370
     0
100
AcDbCircle
 10
383.5456304813
 20
557.2320066103
 30
0.0
 40
1.942258198752601
100
AcDbArc
 50
88.0823626382
 51
177.9443702534
  0
LINE
  5
13E
330
1F
100
AcDbEntity
  8
0
  6
Continuous
 62
     8
370
     0
100
AcDbLine
 10
360.0669904314
 20
557.2252544394
 30
0.0
 11
366.0312584303
 21
557.2252544394
 31
0.0
  0
LINE
  5
13F
330
1F
100
AcDbEntity
  8
0
  6
Continuous
 62
     7
370
    15
100
AcDbLine
 10
161.5974904952
 20
435.7014045746
 30
0.0
 11
161.5974904952
 21
441.7194042982
 31
0.0
  0
LINE
  5
140
330
1F
100
AcDbEntity
  8
0
  6
Continuous
 62
     7
370
    15
100
AcDbLine
 10
91.8889941631
 20
441.7194042982
 30
0.0
 11
91.8889941631
 21
435.7014045746
 31
0.0
  0
ARC
  5
141
330
1F
100
AcDbEntity
  8
0
  6
Continuous
 62
     7
370
    15
100
AcDbCircle
 10
160.5944923292
 20
435.7014043402
 30
0.0
 40
1.003000000000014
100
AcDbArc
 50
270.0
 51
0.0
  0
ARC
  5
142
330
1F
100
AcDbEntity
  8
0
  6
Continuous
 62
     7
370
    15
100
AcDbCircle
 10
92.8919923292
 20
435.7014043402
 30
0.0
 40
1.003000000000014
100
AcDbArc
 50
180.0
 51
270.0
  0
LINE
  5
143
330
1F
100
AcDbEntity
  8
0
  6
Continuous
 62
     7
370
    15
100
AcDbLine
 10
113.7042419968
 20
434.6984036894
 30
0.0
 11
113.7042419968
 21
279.2334061743
 31
0.0
  0
LINE
  5
144
330
1F
100
AcDbEntity
  8
0
  6
Continuous
 62
     7
370
    15
100
AcDbLine
 10
139.7822426615
 20
279.2334061743
 30
0.0
 11
139.7822426615
 21
434.6984036894
 31
0.0
  0
LINE
  5
145
330
1F
100
AcDbEntity
  8
0
  6
Continuous
 62
     7
370
    15
100
AcDbLine
 10
113.7042419968
 20
279.2334061743
 30
0.0
 11
113.7042419968
 21
242.8723376871
 31
0.0
  0
LINE
  5
146
330
1F
100
AcDbEntity
  8
0
  6
Continuous
 62
     7
370
    15
100
AcDbLine
 10
139.7822426615
 20
242.8723376871
 30
0.0
 11
139.7822426615
 21
279.2334061743
 31
0.0
  0
LINE
  5
147
330
1F
100
AcDbEntity
  8
0
  6
Continuous
 62
     7
370
    15
100
AcDbLine
 10
139.7822426615
 20
234.9658858658
 30
0.0
 11
139.7822426615
 21
242.8723376871
 31
0.0
  0
LINE
  5
148
330
1F
100
AcDbEntity
  8
0
  6
Continuous
 62
     7
370
    15
100
AcDbLine
 10
113.7042419968
 20
242.8723376871
 30
0.0
 11
113.7042419968
 21
234.9658858658
 31
0.0
  0
LINE
  5
149
330
1F
100
AcDbEntity
  8
0
  6
Continuous
 62
     7
370
    15
100
AcDbLine
 10
271.5974898992
 20
435.6089465947
 30
0.0
 11
271.5974898992
 21
441.6269463183
 31
0.0
  0
LINE
  5
14A
330
1F
100
AcDbEntity
  8
0
  6
Continuous
 62
     7
370
    15
100
AcDbLine
 10
201.888993567
 20
441.6269463183
 30
0.0
 11
201.888993567
 21
435.6089465947
 31
0.0
  0
ARC
  5
14B
330
1F
100
AcDbEntity
  8
0
  6
Continuous
 62
     7
370
    15
100
AcDbCircle
 10
270.5944923771
 20
435.6089459259
 30
0.0
 40
1.002999999999986
100
AcDbArc
 50
270.0
 51
0.0
  0
ARC
  5
14C
330
1F
100
AcDbEntity
  8
0
  6
Continuous
 62
     7
370
    15
100
AcDbCircle
 10
202.8919923771
 20
435.6089459259
 30
0.0
 40
1.003000000000014
100
AcDbArc
 50
180.0
 51
270.0
  0
LINE
  5
14D
330
1F
100
AcDbEntity
  8
0
  6
Continuous
 62
     7
370
    15
100
AcDbLine
 10
259.8122360168
 20
389.9724435688
 30
0.0
 11
259.8122360168
 21
423.3724650623
 31
0.0
  0
LINE
  5
14E
330
1F
100
AcDbEntity
  8
0
  6
Continuous
 62
     7
370
    15
100
AcDbLine
 10
213.6742399988
 20
423.3724911393
 30
0.0
 11
213.6742399988
 21
389.9724435688
 31
0.0
  0
ARC
  5
14F
330
1F
100
AcDbEntity
  8
0
  6
Continuous
 62
     7
370
    15
100
AcDbCircle
 10
258.3077423771
 20
389.9724459259
 30
0.0
 40
1.504500000000007
100
AcDbArc
 50
270.0
 51
0.0
  0
ARC
  5
150
330
1F
100
AcDbEntity
  8
0
  6
Continuous
 62
     7
370
    15
100
AcDbCircle
 10
215.1787423771
 20
389.9724459259
 30
0.0
 40
1.504500000000007
100
AcDbArc
 50
180.0
 51
270.0
  0
LINE
  5
151
330
1F
100
AcDbEntity
  8
0
  6
Continuous
 62
     7
370
    15
100
AcDbLine
 10
259.3608947454
 20
423.3727593602
 30
0.0
 11
259.3608947454
 21
434.6059457095
 31
0.0
  0
LINE
  5
152
330
1F
100
AcDbEntity
  8
0
  6
Continuous
 62
     7
370
    15
100
AcDbLine
 10
214.1255887208
 20
434.6059457095
 30
0.0
 11
214.1255887208
 21
423.3727407337
 31
0.0
  0
LINE
  5
153
330
1F
100
AcDbEntity
  8
0
  6
Continuous
 62
     7
370
    15
100
AcDbLine
 10
161.5974904952
 20
441.7194042982
 30
0.0
 11
91.8889941631
 21
441.7194042982
 31
0.0
  0
LINE
  5
154
330
1F
100
AcDbEntity
  8
0
  6
Continuous
 62
     7
370
    15
100
AcDbLine
 10
160.5944933353
 20
434.6984036894
 30
0.0
 11
92.891991323
 21
434.6984036894
 31
0.0
  0
LWPOLYLINE
  5
155
330
1F
100
AcDbEntity
  8
0
  6
Continuous
 62
     7
370
    15
100
AcDbPolyline
 90
       22
 70
   128
 43
0.0
 10
139.7822426615
 20
234.9658858658
 10
139.6294303221
 20
233.1619661928
 10
139.1745779646
 20
231.4003509165
 10
138.4283445759
 20
229.722286451
 10
137.4082231877
 20
228.1671416641
 10
136.1381236447
 20
226.7713498951
 10
134.6478156728
 20
225.5676340939
 10
132.9722308537
 20
224.5842021586
 10
131.1506444571
 20
223.8441061856
 10
129.2257520353
 20
223.3646911265
 10
127.242671685
 20
223.157207358
 10
125.247885192
 20
223.2264977576
 10
123.2881485002
 20
223.5709679009
 10
121.4093963599
 20
224.1825115563
 10
119.6556651948
 20
225.0468087078
 10
118.0680600909
 20
226.1436086775
 10
116.6837953014
 20
227.4471771599
 10
115.5353143794
 20
228.9269965769
 10
114.6495381353
 20
230.5483621241
 10
114.0472276119
 20
232.2732609392
 10
113.7425016595
 20
234.0612661721
 10
113.7042419968
 20
234.9658858658
  0
LINE
  5
156
330
1F
100
AcDbEntity
  8
0
  6
Continuous
 62
     7
370
    15
100
AcDbLine
 10
121.9328382967
 20
222.6874780537
 30
0.0
 11
121.9328382967
 21
223.9821356417
 31
0.0
  0
ARC
  5
157
330
1F
100
AcDbEntity
  8
0
  6
Continuous
 62
     7
370
    15
100
AcDbCircle
 10
125.8876536288
 20
233.2844568636
 30
0.0
 40
11.31090289093688
100
AcDbArc
 50
200.6530402356
 51
249.5343172979
  0
ARC
  5
158
330
1F
100
AcDbEntity
  8
0
  6
Continuous
 62
     7
370
    15
100
AcDbCircle
 10
127.598237987
 20
233.2847249631
 30
0.0
 40
11.31123198486829
100
AcDbArc
 50
290.4662654063
 51
339.3378281238
  0
LINE
  5
159
330
1F
100
AcDbEntity
  8
0
  6
Continuous
 62
     7
370
    15
100
AcDbLine
 10
131.5532761609
 20
223.9820015312
 30
0.0
 11
131.5532761609
 21
222.6874780537
 31
0.0
  0
SPLINE
  5
15A
330
1F
100
AcDbEntity
  8
0
  6
Continuous
 62
     7
370
    15
100
AcDbSpline
210
0.0
220
0.0
230
1.0
 70
     8
 71
     3
 72
     8
 73
     4
 74
     0
 42
0.00000001
 43
0.00000001
 40
0.0
 40
0.0
 40
0.0
 40
0.0
 40
1.0
 40
1.0
 40
1.0
 40
1.0
 10
131.5532762047218
 20
222.6874791057602
 30
0.0
 10
129.9677474110001
 20
222.5328666645586
 30
0.0
 10
128.3664318254606
 20
222.4427483422782
 30
0.0
 10
126.7430571868383
 20
222.4427483422782
 30
0.0
  0
SPLINE
  5
15B
330
1F
100
AcDbEntity
  8
0
  6
Continuous
 62
     7
370
    15
100
AcDbSpline
210
0.0
220
0.0
230
1.0
 70
     8
 71
     3
 72
    10
 73
     6
 74
     0
 42
0.00000001
 43
0.00000001
 40
0.0
 40
0.0
 40
0.0
 40
0.0
 40
0.5000000000000001
 40
0.5000000000000001
 40
1.0
 40
1.0
 40
1.0
 40
1.0
 10
126.7430571868383
 20
222.4427483422782
 30
0.0
 10
125.9332602110087
 20
222.4427483422782
 30
0.0
 10
125.1139735657542
 20
222.4651988908055
 30
0.0
 10
123.5076995653327
 20
222.549573561431
 30
0.0
 10
122.7159209656414
 20
222.6111169839633
 30
0.0
 10
121.9328381689559
 20
222.68747910576
 30
0.0
  0
LINE
  5
15C
330
1F
100
AcDbEntity
  8
0
  6
Continuous
 62
     7
370
    15
100
AcDbLine
 10
271.5974898992
 20
441.6269463183
 30
0.0
 11
201.888993567
 21
441.6269463183
 31
0.0
  0
LINE
  5
15D
330
1F
100
AcDbEntity
  8
0
  6
Continuous
 62
     7
370
    15
100
AcDbLine
 10
270.5944927392
 20
434.6059457095
 30
0.0
 11
202.891990727
 21
434.6059457095
 31
0.0
  0
SPLINE
  5
15E
330
1F
100
AcDbEntity
  8
0
  6
Continuous
 62
     7
370
    15
100
AcDbSpline
210
0.0
220
0.0
230
1.0
 70
     8
 71
     3
 72
    12
 73
     8
 74
     0
 42
0.00000001
 43
0.00000001
 40
0.0
 40
0.0
 40
0.0
 40
0.0
 40
0.5000000000000001
 40
0.5000000000000001
 40
0.75
 40
0.75
 40
1.0
 40
1.0
 40
1.0
 40
1.0
 10
214.0825145125424
 20
422.8110547394157
 30
0.0
 10
213.8096136749769
 20
423.0634163650344
 30
0.0
 10
213.6738520079949
 20
423.253715665942
 30
0.0
 10
213.6744388149163
 20
423.4449292886597
 30
0.0
 10
213.7088967390975
 20
423.4929407215106
 30
0.0
 10
213.8489167984114
 20
423.5570472967427
 30
0.0
 10
213.9546530703493
 20
423.5729459258535
 30
0.0
 10
214.0953261556997
 20
423.5729459258535
 30
0.0
  0
ELLIPSE
  5
15F
330
1F
100
AcDbEntity
  8
0
  6
Continuous
 62
     7
370
    15
100
AcDbEllipse
 10
236.7432423771
 20
423.5729459259
 30
0.0
 11
23.06899999999999
 21
0.0
 31
0.0
210
0.0
220
0.0
230
1.0
 40
0.1763269807
 41
3.330008783510237
 42
6.094769177259294
  0
SPLINE
  5
160
330
1F
100
AcDbEntity
  8
0
  6
Continuous
 62
     7
370
    15
100
AcDbSpline
210
0.0
220
0.0
230
1.0
 70
     8
 71
     3
 72
    12
 73
     8
 74
     0
 42
0.00000001
 43
0.00000001
 40
0.0
 40
0.0
 40
0.0
 40
0.0
 40
0.4999999999999999
 40
0.4999999999999999
 40
0.75
 40
0.75
 40
1.0
 40
1.0
 40
1.0
 40
1.0
 10
259.3911585984951
 20
423.5729459258535
 30
0.0
 10
259.6725193506895
 20
423.5729459258535
 30
0.0
 10
259.8104295760534
 20
423.5099674683375
 30
0.0
 10
259.8131223879095
 20
423.3197270526124
 30
0.0
 10
259.7797510175647
 20
423.2403307749636
 30
0.0
 10
259.6434958663652
 20
423.0490781636842
 30
0.0
 10
259.5404547269139
 20
422.937267054774
 30
0.0
 10
259.4039702416523
 20
422.8110547394157
 30
0.0
  0
ELLIPSE
  5
161
330
1F
100
AcDbEntity
  8
0
  6
Continuous
 62
     7
370
    15
100
AcDbEllipse
 10
236.7432423771
 20
423.5729459259
 30
0.0
 11
22.61764999999997
 21
0.0
 31
0.0
210
0.0
220
0.0
230
1.0
 40
0.1763269807
 41
3.33381527599709
 42
6.090962684772441
  0
LINE
  5
162
330
1F
100
AcDbEntity
  8
0
  6
Continuous
 62
     7
370
    15
100
AcDbLine
 10
215.1787431894
 20
388.4679478289
 30
0.0
 11
258.3077402768
 21
388.4679478289
 31
0.0
  0
SPLINE
  5
163
330
1F
100
AcDbEntity
  8
0
  6
Continuous
 62
     7
370
    15
100
AcDbSpline
210
0.0
220
0.0
230
1.0
 70
     8
 71
     3
 72
    10
 73
     6
 74
     0
 42
0.00000001
 43
0.00000001
 40
0.0
 40
0.0
 40
0.0
 40
0.0
 40
0.1887652246832696
 40
0.5975741345469665
 40
0.9999999999999999
 40
0.9999999999999999
 40
0.9999999999999999
 40
0.9999999999999999
 10
259.3436093983963
 20
423.3727593601947
 30
0.0
 10
259.3471591686792
 20
423.3502292470428
 30
0.0
 10
259.3583966776442
 20
423.2789056603462
 30
0.0
 10
259.2363419273706
 20
423.0957409629493
 30
0.0
 10
259.0411472806738
 20
422.9054521464975
 30
0.0
 10
258.9443178830459
 20
422.8110563637023
 30
0.0
  0
SPLINE
  5
164
330
1F
100
AcDbEntity
  8
0
  6
Continuous
 62
     7
370
    15
100
AcDbSpline
210
0.0
220
0.0
230
1.0
 70
     8
 71
     3
 72
    10
 73
     6
 74
     0
 42
0.00000001
 43
0.00000001
 40
0.0
 40
0.0
 40
0.0
 40
0.0
 40
0.3944380760293285
 40
0.7915323805866715
 40
1.0
 40
1.0
 40
1.0
 40
1.0
 10
214.542165583165
 20
422.8110563637023
 30
0.0
 10
214.4468919061199
 20
422.9037387964716
 30
0.0
 10
214.2557029591554
 20
423.0897278049033
 30
0.0
 10
214.1312594095515
 20
423.2739315321015
 30
0.0
 10
214.1399439704067
 20
423.3474363461939
 30
0.0
 10
214.1429336724594
 20
423.3727407337432
 30
0.0
  0
LINE
  5
165
330
1F
100
AcDbEntity
  8
0
  6
Continuous
 62
     7
370
    15
100
AcDbLine
 10
214.0953244624
 20
423.572945285
 30
0.0
 11
214.1255887208
 21
423.572945285
 31
0.0
  0
LINE
  5
166
330
1F
100
AcDbEntity
  8
0
  6
Continuous
 62
     7
370
    15
100
AcDbLine
 10
259.3608947454
 20
423.572945285
 30
0.0
 11
259.3911590038
 21
423.572945285
 31
0.0
  0
LINE
  5
167
330
1F
100
AcDbEntity
  8
0
  6
Continuous
 62
     8
370
     0
100
AcDbLine
 10
259.4039740024
 20
422.8110563637
 30
0.0
 11
258.944317883
 21
422.8110563637
 31
0.0
  0
LINE
  5
168
330
1F
100
AcDbEntity
  8
0
  6
Continuous
 62
     8
370
     0
100
AcDbLine
 10
214.5421655832
 20
422.8110563637
 30
0.0
 11
214.0825169144
 21
422.8110563637
 31
0.0
  0
ENDSEC
  0
SECTION
  2
OBJECTS
  0
DICTIONARY
  5
C
330
0
100
AcDbDictionary
281
     1
  3
ACAD_GROUP
350
D
  3
ACAD_LAYOUT
350
1A
  3
ACAD_MATERIAL
350
3B
  3
ACAD_MLEADERSTYLE
350
16A
  3
ACAD_MLINESTYLE
350
17
  3
ACAD_PLOTSETTINGS
350
19
  3
ACAD_PLOTSTYLENAME
350
E
  3
ACAD_TABLESTYLE
350
169
  3
ACAD_VISUALSTYLE
350
2A
  0
DICTIONARY
  5
D
102
{ACAD_REACTORS
330
C
102
}
330
C
100
AcDbDictionary
281
     1
  0
DICTIONARY
  5
1A
102
{ACAD_REACTORS
330
C
102
}
330
C
100
AcDbDictionary
281
     1
  3
Layout1
350
1E
  3
Layout2
350
26
  3
Model
350
22
  0
DICTIONARY
  5
3B
102
{ACAD_REACTORS
330
C
102
}
330
C
100
AcDbDictionary
281
     1
  3
ByBlock
350
3D
  3
ByLayer
350
3C
  3
Global
350
3E
  0
DICTIONARY
  5
16A
102
{ACAD_REACTORS
330
C
102
}
330
C
100
AcDbDictionary
281
     1
  0
DICTIONARY
  5
17
102
{ACAD_REACTORS
330
C
102
}
330
C
100
AcDbDictionary
281
     1
  3
Standard
350
18
  0
DICTIONARY
  5
19
102
{ACAD_REACTORS
330
C
102
}
330
C
100
AcDbDictionary
281
     1
  0
ACDBDICTIONARYWDFLT
  5
E
102
{ACAD_REACTORS
330
C
102
}
330
C
100
AcDbDictionary
281
     1
  3
Normal
350
F
100
AcDbDictionaryWithDefault
340
F
  0
DICTIONARY
  5
169
102
{ACAD_REACTORS
330
C
102
}
330
C
100
AcDbDictionary
281
     1
  0
DICTIONARY
  5
2A
102
{ACAD_REACTORS
330
C
102
}
330
C
100
AcDbDictionary
281
     1
  3
2dWireframe
350
2F
  3
3D Hidden
350
31
  3
3dWireframe
350
30
  3
Basic
350
32
  3
Brighten
350
36
  3
ColorChange
350
3A
  3
Conceptual
350
34
  3
Dim
350
35
  3
Facepattern
350
39
  3
Flat
350
2B
  3
FlatWithEdges
350
2C
  3
Gouraud
350
2D
  3
GouraudWithEdges
350
2E
  3
Linepattern
350
38
  3
Realistic
350
33
  3
Thicken
350
37
  0
LAYOUT
  5
1E
102
{ACAD_REACTORS
330
1A
102
}
330
1A
100
AcDbPlotSettings
  1

  2
none_device
  4

  6

 40
0.0
 41
0.0
 42
0.0
 43
0.0
 44
0.0
 45
0.0
 46
0.0
 47
0.0
 48
0.0
 49
0.0
140
0.0
141
0.0
142
1.0
143
1.0
 70
   688
 72
     0
 73
     0
 74
     5
  7

 75
    16
 76
     0
 77
     2
 78
   300
147
1.0
148
0.0
149
0.0
100
AcDbLayout
  1
Layout1
 70
     1
 71
     1
 10
0.0
 20
0.0
 11
420.0
 21
297.0
 12
0.0
 22
0.0
 32
0.0
 14
1.0000000000E+20
 24
1.0000000000E+20
 34
1.0000000000E+20
 15
-1.0000000000E+20
 25
-1.0000000000E+20
 35
-1.0000000000E+20
146
0.0
 13
0.0
 23
0.0
 33
0.0
 16
1.0
 26
0.0
 36
0.0
 17
0.0
 27
1.0
 37
0.0
 76
     0
330
1B
  0
LAYOUT
  5
26
102
{ACAD_REACTORS
330
1A
102
}
330
1A
100
AcDbPlotSettings
  1

  2
none_device
  4

  6

 40
0.0
 41
0.0
 42
0.0
 43
0.0
 44
0.0
 45
0.0
 46
0.0
 47
0.0
 48
0.0
 49
0.0
140
0.0
141
0.0
142
1.0
143
1.0
 70
   688
 72
     0
 73
     0
 74
     5
  7

 75
    16
 76
     0
 77
     2
 78
   300
147
1.0
148
0.0
149
0.0
100
AcDbLayout
  1
Layout2
 70
     1
 71
     2
 10
0.0
 20
0.0
 11
0.0
 21
0.0
 12
0.0
 22
0.0
 32
0.0
 14
0.0
 24
0.0
 34
0.0
 15
0.0
 25
0.0
 35
0.0
146
0.0
 13
0.0
 23
0.0
 33
0.0
 16
1.0
 26
0.0
 36
0.0
 17
0.0
 27
1.0
 37
0.0
 76
     0
330
23
  0
LAYOUT
  5
22
102
{ACAD_REACTORS
330
1A
102
}
330
1A
100
AcDbPlotSettings
  1

  2
none_device
  4

  6

 40
0.0
 41
0.0
 42
0.0
 43
0.0
 44
0.0
 45
0.0
 46
0.0
 47
0.0
 48
0.0
 49
0.0
140
0.0
141
0.0
142
1.0
143
1.0
 70
  1712
 72
     0
 73
     0
 74
     0
  7

 75
     0
 76
     0
 77
     2
 78
   300
147
1.0
148
0.0
149
0.0
100
AcDbLayout
  1
Model
 70
     1
 71
     0
 10
0.0
 20
0.0
 11
594.0
 21
841.0
 12
0.0
 22
0.0
 32
0.0
 14
0.0
 24
0.0
 34
0.0
 15
594.0
 25
841.0
 35
0.0
146
0.0
 13
0.0
 23
0.0
 33
0.0
 16
1.0
 26
0.0
 36
0.0
 17
0.0
 27
1.0
 37
0.0
 76
     0
330
1F
331
29
  0
MATERIAL
  5
3D
102
{ACAD_REACTORS
330
3B
102
}
330
3B
100
AcDbMaterial
  1
ByBlock
 72
     1
 94
      127
  0
MATERIAL
  5
3C
102
{ACAD_REACTORS
330
3B
102
}
330
3B
100
AcDbMaterial
  1
ByLayer
 72
     1
 94
      127
  0
MATERIAL
  5
3E
102
{ACAD_REACTORS
330
3B
102
}
330
3B
100
AcDbMaterial
  1
Global
 72
     1
 94
      127
  0
MLINESTYLE
  5
18
102
{ACAD_REACTORS
330
17
102
}
330
17
100
AcDbMlineStyle
  2
Standard
 70
     0
  3

 62
   256
 51
90.0
 52
90.0
 71
     2
 49
0.5
 62
   256
  6
BYLAYER
 49
-0.5
 62
   256
  6
BYLAYER
  0
ACDBPLACEHOLDER
  5
F
102
{ACAD_REACTORS
330
E
102
}
330
E
  0
VISUALSTYLE
  5
2F
102
{ACAD_REACTORS
330
2A
102
}
330
2A
100
AcDbVisualStyle
  2
2dWireframe
 70
     4
177
     2
291
     0
 71
     0
176
     1
 72
     2
176
     1
 73
     0
176
     1
 90
        0
176
     1
 40
-0.6
176
     1
 41
-30.0
176
     1
 62
     5
 63
     7
421
 16777215
176
     1
 74
     1
176
     1
 91
        4
176
     1
 64
     7
176
     1
 65
   257
176
     1
 75
     1
176
     1
175
     1
176
     1
 42
1.0
176
     1
 92
        0
176
     1
 66
   257
176
     1
 43
1.0
176
     1
 76
     1
176
     1
 77
     6
176
     1
 78
     2
176
     1
 67
     7
176
     1
 79
     5
176
     1
170
     0
176
     1
171
     0
176
     1
290
     0
176
     1
 93
        1
176
     1
 44
0.0
176
     1
173
     0
176
     1
  0
VISUALSTYLE
  5
31
102
{ACAD_REACTORS
330
2A
102
}
330
2A
100
AcDbVisualStyle
  2
3D Hidden
 70
     6
177
     2
291
     0
 71
     1
176
     1
 72
     2
176
     1
 73
     2
176
     1
 90
        0
176
     1
 40
-0.6
176
     1
 41
-30.0
176
     1
 62
     5
 63
     7
421
 16777215
176
     1
 74
     2
176
     1
 91
        2
176
     1
 64
     7
176
     1
 65
   257
176
     1
 75
     2
176
     1
175
     1
176
     1
 42
40.0
176
     1
 92
        0
176
     1
 66
   257
176
     1
 43
1.0
176
     1
 76
     1
176
     1
 77
     6
176
     1
 78
     2
176
     1
 67
     7
176
     1
 79
     3
176
     1
170
     0
176
     1
171
     0
176
     1
290
     0
176
     1
 93
        1
176
     1
 44
0.0
176
     1
173
     0
176
     1
  0
VISUALSTYLE
  5
30
102
{ACAD_REACTORS
330
2A
102
}
330
2A
100
AcDbVisualStyle
  2
3dWireframe
 70
     5
177
     2
291
     0
 71
     0
176
     1
 72
     2
176
     1
 73
     0
176
     1
 90
        0
176
     1
 40
-0.6
176
     1
 41
-30.0
176
     1
 62
     5
 63
     7
421
 16777215
176
     1
 74
     1
176
     1
 91
        4
176
     1
 64
     7
176
     1
 65
   257
176
     1
 75
     1
176
     1
175
     1
176
     1
 42
1.0
176
     1
 92
        0
176
     1
 66
   257
176
     1
 43
1.0
176
     1
 76
     1
176
     1
 77
     6
176
     1
 78
     2
176
     1
 67
     7
176
     1
 79
     5
176
     1
170
     0
176
     1
171
     0
176
     1
290
     0
176
     1
 93
        1
176
     1
 44
0.0
176
     1
173
     0
176
     1
  0
VISUALSTYLE
  5
32
102
{ACAD_REACTORS
330
2A
102
}
330
2A
100
AcDbVisualStyle
  2
Basic
 70
     7
177
     2
291
     1
 71
     1
176
     1
 72
     0
176
     1
 73
     1
176
     1
 90
        0
176
     1
 40
-0.6
176
     1
 41
-30.0
176
     1
 62
     5
 63
     7
421
 16777215
176
     1
 74
     0
176
     1
 91
        4
176
     1
 64
     7
176
     1
 65
   257
176
     1
 75
     1
176
     1
175
     1
176
     1
 42
1.0
176
     1
 92
        8
176
     1
 66
     7
176
     1
 43
1.0
176
     1
 76
     1
176
     1
 77
     6
176
     1
 78
     2
176
     1
 67
     7
176
     1
 79
     5
176
     1
170
     0
176
     1
171
     0
176
     1
290
     0
176
     1
 93
        1
176
     1
 44
0.0
176
     1
173
     0
176
     1
  0
VISUALSTYLE
  5
36
102
{ACAD_REACTORS
330
2A
102
}
330
2A
100
AcDbVisualStyle
  2
Brighten
 70
    12
177
     2
291
     1
 71
     2
176
     1
 72
     2
176
     1
 73
     0
176
     1
 90
        0
176
     1
 40
-0.6
176
     1
 41
-30.0
176
     1
 62
     5
 63
     7
421
 16777215
176
     1
 74
     1
176
     1
 91
        4
176
     1
 64
     7
176
     1
 65
   257
176
     1
 75
     1
176
     1
175
     1
176
     1
 42
1.0
176
     1
 92
        8
176
     1
 66
     7
176
     1
 43
1.0
176
     1
 76
     1
176
     1
 77
     6
176
     1
 78
     2
176
     1
 67
     7
176
     1
 79
     5
176
     1
170
     0
176
     1
171
     0
176
     1
290
     0
176
     1
 93
        1
176
     1
 44
50.0
176
     1
173
     0
176
     1
  0
VISUALSTYLE
  5
3A
102
{ACAD_REACTORS
330
2A
102
}
330
2A
100
AcDbVisualStyle
  2
ColorChange
 70
    16
177
     2
291
     1
 71
     2
176
     1
 72
     2
176
     1
 73
     3
176
     1
 90
        0
176
     1
 40
-0.6
176
     1
 41
-30.0
176
     1
 62
     5
 63
     8
421
  8421504
176
     1
 74
     1
176
     1
 91
        4
176
     1
 64
     7
176
     1
 65
   257
176
     1
 75
     1
176
     1
175
     1
176
     1
 42
1.0
176
     1
 92
        8
176
     1
 66
     8
424
  8421504
176
     1
 43
1.0
176
     1
 76
     1
176
     1
 77
     6
176
     1
 78
     2
176
     1
 67
     7
176
     1
 79
     5
176
     1
170
     0
176
     1
171
     0
176
     1
290
     0
176
     1
 93
        1
176
     1
 44
0.0
176
     1
173
     0
176
     1
  0
VISUALSTYLE
  5
34
102
{ACAD_REACTORS
330
2A
102
}
330
2A
100
AcDbVisualStyle
  2
Conceptual
 70
     9
177
     2
291
     0
 71
     3
176
     1
 72
     2
176
     1
 73
     0
176
     1
 90
        0
176
     1
 40
-0.6
176
     1
 41
-30.0
176
     1
 62
     5
 63
     7
421
 16777215
176
     1
 74
     2
176
     1
 91
        2
176
     1
 64
     7
176
     1
 65
   257
176
     1
 75
     1
176
     1
175
     1
176
     1
 42
40.0
176
     1
 92
        8
176
     1
 66
     7
176
     1
 43
1.0
176
     1
 76
     1
176
     1
 77
     6
176
     1
 78
     2
176
     1
 67
     7
176
     1
 79
     3
176
     1
170
     0
176
     1
171
     0
176
     1
290
     0
176
     1
 93
        1
176
     1
 44
0.0
176
     1
173
     0
176
     1
  0
VISUALSTYLE
  5
35
102
{ACAD_REACTORS
330
2A
102
}
330
2A
100
AcDbVisualStyle
  2
Dim
 70
    11
177
     2
291
     1
 71
     2
176
     1
 72
     2
176
     1
 73
     0
176
     1
 90
        0
176
     1
 40
-0.6
176
     1
 41
-30.0
176
     1
 62
     5
 63
     7
421
 16777215
176
     1
 74
     1
176
     1
 91
        4
176
     1
 64
     7
176
     1
 65
   257
176
     1
 75
     1
176
     1
175
     1
176
     1
 42
1.0
176
     1
 92
        8
176
     1
 66
     7
176
     1
 43
1.0
176
     1
 76
     1
176
     1
 77
     6
176
     1
 78
     2
176
     1
 67
     7
176
     1
 79
     5
176
     1
170
     0
176
     1
171
     0
176
     1
290
     0
176
     1
 93
        1
176
     1
 44
-50.0
176
     1
173
     0
176
     1
  0
VISUALSTYLE
  5
39
102
{ACAD_REACTORS
330
2A
102
}
330
2A
100
AcDbVisualStyle
  2
Facepattern
 70
    15
177
     2
291
     1
 71
     2
176
     1
 72
     2
176
     1
 73
     0
176
     1
 90
        0
176
     1
 40
-0.6
176
     1
 41
-30.0
176
     1
 62
     5
 63
     7
421
 16777215
176
     1
 74
     1
176
     1
 91
        4
176
     1
 64
     7
176
     1
 65
   257
176
     1
 75
     1
176
     1
175
     1
176
     1
 42
1.0
176
     1
 92
        8
176
     1
 66
     7
176
     1
 43
1.0
176
     1
 76
     1
176
     1
 77
     6
176
     1
 78
     2
176
     1
 67
     7
176
     1
 79
     5
176
     1
170
     0
176
     1
171
     0
176
     1
290
     0
176
     1
 93
        1
176
     1
 44
0.0
176
     1
173
     0
176
     1
  0
VISUALSTYLE
  5
2B
102
{ACAD_REACTORS
330
2A
102
}
330
2A
100
AcDbVisualStyle
  2
Flat
 70
     0
177
     2
291
     1
 71
     2
176
     1
 72
     1
176
     1
 73
     1
176
     1
 90
        2
176
     1
 40
-0.6
176
     1
 41
30.0
176
     1
 62
     5
 63
     7
421
 16777215
176
     1
 74
     0
176
     1
 91
        4
176
     1
 64
     7
176
     1
 65
   257
176
     1
 75
     1
176
     1
175
     1
176
     1
 42
1.0
176
     1
 92
        8
176
     1
 66
     7
176
     1
 43
1.0
176
     1
 76
     1
176
     1
 77
     6
176
     1
 78
     2
176
     1
 67
     7
176
     1
 79
     5
176
     1
170
     0
176
     1
171
     0
176
     1
290
     0
176
     1
 93
       13
176
     1
 44
0.0
176
     1
173
     0
176
     1
  0
VISUALSTYLE
  5
2C
102
{ACAD_REACTORS
330
2A
102
}
330
2A
100
AcDbVisualStyle
  2
FlatWithEdges
 70
     1
177
     2
291
     1
 71
     2
176
     1
 72
     1
176
     1
 73
     1
176
     1
 90
        2
176
     1
 40
-0.6
176
     1
 41
30.0
176
     1
 62
     5
 63
     7
421
 16777215
176
     1
 74
     1
176
     1
 91
        4
176
     1
 64
     7
176
     1
 65
   257
176
     1
 75
     1
176
     1
175
     1
176
     1
 42
1.0
176
     1
 92
        0
176
     1
 66
   257
176
     1
 43
1.0
176
     1
 76
     1
176
     1
 77
     6
176
     1
 78
     2
176
     1
 67
     7
176
     1
 79
     5
176
     1
170
     0
176
     1
171
     0
176
     1
290
     0
176
     1
 93
       13
176
     1
 44
0.0
176
     1
173
     0
176
     1
  0
VISUALSTYLE
  5
2D
102
{ACAD_REACTORS
330
2A
102
}
330
2A
100
AcDbVisualStyle
  2
Gouraud
 70
     2
177
     2
291
     1
 71
     2
176
     1
 72
     2
176
     1
 73
     1
176
     1
 90
        2
176
     1
 40
-0.6
176
     1
 41
30.0
176
     1
 62
     5
 63
     7
421
 16777215
176
     1
 74
     0
176
     1
 91
        4
176
     1
 64
     7
176
     1
 65
   257
176
     1
 75
     1
176
     1
175
     1
176
     1
 42
1.0
176
     1
 92
        0
176
     1
 66
     7
176
     1
 43
1.0
176
     1
 76
     1
176
     1
 77
     6
176
     1
 78
     2
176
     1
 67
     7
176
     1
 79
     5
176
     1
170
     0
176
     1
171
     0
176
     1
290
     0
176
     1
 93
       13
176
     1
 44
0.0
176
     1
173
     0
176
     1
  0
VISUALSTYLE
  5
2E
102
{ACAD_REACTORS
330
2A
102
}
330
2A
100
AcDbVisualStyle
  2
GouraudWithEdges
 70
     3
177
     2
291
     1
 71
     2
176
     1
 72
     2
176
     1
 73
     1
176
     1
 90
        2
176
     1
 40
-0.6
176
     1
 41
30.0
176
     1
 62
     5
 63
     7
421
 16777215
176
     1
 74
     1
176
     1
 91
        4
176
     1
 64
     7
176
     1
 65
   257
176
     1
 75
     1
176
     1
175
     1
176
     1
 42
1.0
176
     1
 92
        0
176
     1
 66
   257
176
     1
 43
1.0
176
     1
 76
     1
176
     1
 77
     6
176
     1
 78
     2
176
     1
 67
     7
176
     1
 79
     5
176
     1
170
     0
176
     1
171
     0
176
     1
290
     0
176
     1
 93
       13
176
     1
 44
0.0
176
     1
173
     0
176
     1
  0
VISUALSTYLE
  5
38
102
{ACAD_REACTORS
330
2A
102
}
330
2A
100
AcDbVisualStyle
  2
Linepattern
 70
    14
177
     2
291
     1
 71
     2
176
     1
 72
     2
176
     1
 73
     0
176
     1
 90
        0
176
     1
 40
-0.6
176
     1
 41
-30.0
176
     1
 62
     5
 63
     7
421
 16777215
176
     1
 74
     1
176
     1
 91
        4
176
     1
 64
     7
176
     1
 65
   257
176
     1
 75
     7
176
     1
175
     7
176
     1
 42
1.0
176
     1
 92
        8
176
     1
 66
     7
176
     1
 43
1.0
176
     1
 76
     1
176
     1
 77
     6
176
     1
 78
     2
176
     1
 67
     7
176
     1
 79
     5
176
     1
170
     0
176
     1
171
     0
176
     1
290
     0
176
     1
 93
        1
176
     1
 44
0.0
176
     1
173
     0
176
     1
  0
VISUALSTYLE
  5
33
102
{ACAD_REACTORS
330
2A
102
}
330
2A
100
AcDbVisualStyle
  2
Realistic
 70
     8
177
     2
291
     0
 71
     2
176
     1
 72
     2
176
     1
 73
     0
176
     1
 90
        0
176
     1
 40
-0.6
176
     1
 41
-30.0
176
     1
 62
     5
 63
     7
421
 16777215
176
     1
 74
     1
176
     1
 91
        0
176
     1
 64
     7
176
     1
 65
   257
176
     1
 75
     1
176
     1
175
     1
176
     1
 42
1.0
176
     1
 92
        8
176
     1
 66
     8
424
  7895160
176
     1
 43
1.0
176
     1
 76
     1
176
     1
 77
     6
176
     1
 78
     2
176
     1
 67
     7
176
     1
 79
     5
176
     1
170
     0
176
     1
171
     0
176
     1
290
     0
176
     1
 93
       13
176
     1
 44
0.0
176
     1
173
     0
176
     1
  0
VISUALSTYLE
  5
37
102
{ACAD_REACTORS
330
2A
102
}
330
2A
100
AcDbVisualStyle
  2
Thicken
 70
    13
177
     2
291
     1
 71
     2
176
     1
 72
     2
176
     1
 73
     0
176
     1
 90
        0
176
     1
 40
-0.6
176
     1
 41
-30.0
176
     1
 62
     5
 63
     7
421
 16777215
176
     1
 74
     1
176
     1
 91
        4
176
     1
 64
     7
176
     1
 65
   257
176
     1
 75
     1
176
     1
175
     1
176
     1
 42
1.0
176
     1
 92
       12
176
     1
 66
     7
176
     1
 43
1.0
176
     1
 76
     1
176
     1
 77
     6
176
     1
 78
     2
176
     1
 67
     7
176
     1
 79
     5
176
     1
170
     0
176
     1
171
     0
176
     1
290
     0
176
     1
 93
        1
176
     1
 44
0.0
176
     1
173
     0
176
     1
  0
ENDSEC
  0
EOF
