  0
SECTION
  2
HEADER
  9
$ACADVER
  1
AC1015
  9
$ACADMAINTVER
 70
     6
  9
$DWGCODEPAGE
  3
ANSI_1252
  9
$INSBASE
 10
0.0
 20
0.0
 30
0.0
  9
$EXTMIN
 10
0.0
 20
0.0
 30
0.0
  9
$EXTMAX
 10
594.0
 20
841.0
 30
0.0
  9
$LIMMIN
 10
0.0
 20
0.0
  9
$LIMMAX
 10
594.0
 20
841.0
  9
$ORTHOMODE
 70
     0
  9
$REGENMODE
 70
     1
  9
$FILLMODE
 70
     1
  9
$QTEXTMODE
 70
     0
  9
$MIRRTEXT
 70
     1
  9
$LTSCALE
 40
1.0
  9
$ATTMODE
 70
     1
  9
$TEXTSIZE
 40
10.0
  9
$TRACEWID
 40
1.0
  9
$TEXTSTYLE
  7
Standard
  9
$CLAYER
  8
0
  9
$CELTYPE
  6
ByLayer
  9
$CECOLOR
 62
   256
  9
$CELTSCALE
 40
1.0
  9
$DISPSILH
 70
     0
  9
$DIMSCALE
 40
1.0
  9
$DIMASZ
 40
2.5
  9
$DIMEXO
 40
0.0
  9
$DIMDLI
 40
3.75
  9
$DIMRND
 40
0.0
  9
$DIMDLE
 40
0.0
  9
$DIMEXE
 40
1.0
  9
$DIMTP
 40
0.0
  9
$DIMTM
 40
0.0
  9
$DIMTXT
 40
3.5
  9
$DIMCEN
 40
2.5
  9
$DIMTSZ
 40
0.0
  9
$DIMTOL
 70
     0
  9
$DIMLIM
 70
     0
  9
$DIMTIH
 70
     1
  9
$DIMTOH
 70
     1
  9
$DIMSE1
 70
     0
  9
$DIMSE2
 70
     0
  9
$DIMTAD
 70
     1
  9
$DIMZIN
 70
     0
  9
$DIMBLK
  1

  9
$DIMASO
 70
     1
  9
$DIMSHO
 70
     1
  9
$DIMPOST
  1

  9
$DIMAPOST
  1

  9
$DIMALT
 70
     0
  9
$DIMALTD
 70
     3
  9
$DIMALTF
 40
0.0393700787
  9
$DIMLFAC
 40
1.0
  9
$DIMTOFL
 70
     1
  9
$DIMTVP
 40
0.0
  9
$DIMTIX
 70
     0
  9
$DIMSOXD
 70
     0
  9
$DIMSAH
 70
     0
  9
$DIMBLK1
  1

  9
$DIMBLK2
  1

  9
$DIMSTYLE
  2
ISO-25
  9
$DIMCLRD
 70
     0
  9
$DIMCLRE
 70
     0
  9
$DIMCLRT
 70
     0
  9
$DIMTFAC
 40
1.0
  9
$DIMGAP
 40
1.5
  9
$DIMJUST
 70
     0
  9
$DIMSD1
 70
     0
  9
$DIMSD2
 70
     0
  9
$DIMTOLJ
 70
     0
  9
$DIMTZIN
 70
     0
  9
$DIMALTZ
 70
     0
  9
$DIMALTTZ
 70
     0
  9
$DIMUPT
 70
     0
  9
$DIMDEC
 70
     2
  9
$DIMTDEC
 70
     2
  9
$DIMALTU
 70
     2
  9
$DIMALTTD
 70
     3
  9
$DIMTXSTY
  7
Standard
  9
$DIMAUNIT
 70
     0
  9
$DIMADEC
 70
     2
  9
$DIMALTRND
 40
0.0
  9
$DIMAZIN
 70
     0
  9
$DIMDSEP
 70
    44
  9
$DIMATFIT
 70
     3
  9
$DIMFRAC
 70
     0
  9
$DIMLDRBLK
  1

  9
$DIMLUNIT
 70
     2
  9
$DIMLWD
 70
    -2
  9
$DIMLWE
 70
    -2
  9
$DIMTMOVE
 70
     0
  9
$LUNITS
 70
     2
  9
$LUPREC
 70
     2
  9
$SKETCHINC
 40
1.0
  9
$FILLETRAD
 40
10.0
  9
$AUNITS
 70
     0
  9
$AUPREC
 70
     2
  9
$MENU
  1
.
  9
$ELEVATION
 40
0.0
  9
$PELEVATION
 40
0.0
  9
$THICKNESS
 40
0.0
  9
$LIMCHECK
 70
     0
  9
$CHAMFERA
 40
0.0
  9
$CHAMFERB
 40
0.0
  9
$CHAMFERC
 40
0.0
  9
$CHAMFERD
 40
0.0
  9
$SKPOLY
 70
     0
  9
$TDCREATE
 40
2458015.463349665
  9
$TDUCREATE
 40
2458015.380016331
  9
$TDUPDATE
 40
2458015.463350567
  9
$TDUUPDATE
 40
2458015.380017234
  9
$TDINDWG
 40
0.0000000116
  9
$TDUSRTIMER
 40
0.0000000116
  9
$USRTIMER
 70
     1
  9
$ANGBASE
 50
0.0
  9
$ANGDIR
 70
     0
  9
$PDMODE
 70
     0
  9
$PDSIZE
 40
-1.0
  9
$PLINEWID
 40
0.0
  9
$SPLFRAME
 70
     0
  9
$SPLINETYPE
 70
     6
  9
$SPLINESEGS
 70
     8
  9
$HANDSEED
  5
1B7
  9
$SURFTAB1
 70
     6
  9
$SURFTAB2
 70
     6
  9
$SURFTYPE
 70
     6
  9
$SURFU
 70
     6
  9
$SURFV
 70
     6
  9
$UCSBASE
  2

  9
$UCSNAME
  2

  9
$UCSORG
 10
0.0
 20
0.0
 30
0.0
  9
$UCSXDIR
 10
1.0
 20
0.0
 30
0.0
  9
$UCSYDIR
 10
0.0
 20
1.0
 30
0.0
  9
$UCSORTHOREF
  2

  9
$UCSORTHOVIEW
 70
     0
  9
$UCSORGTOP
 10
0.0
 20
0.0
 30
0.0
  9
$UCSORGBOTTOM
 10
0.0
 20
0.0
 30
0.0
  9
$UCSORGLEFT
 10
0.0
 20
0.0
 30
0.0
  9
$UCSORGRIGHT
 10
0.0
 20
0.0
 30
0.0
  9
$UCSORGFRONT
 10
0.0
 20
0.0
 30
0.0
  9
$UCSORGBACK
 10
0.0
 20
0.0
 30
0.0
  9
$PUCSBASE
  2

  9
$PUCSNAME
  2

  9
$PUCSORG
 10
0.0
 20
0.0
 30
0.0
  9
$PUCSXDIR
 10
1.0
 20
0.0
 30
0.0
  9
$PUCSYDIR
 10
0.0
 20
1.0
 30
0.0
  9
$PUCSORTHOREF
  2

  9
$PUCSORTHOVIEW
 70
     0
  9
$PUCSORGTOP
 10
0.0
 20
0.0
 30
0.0
  9
$PUCSORGBOTTOM
 10
0.0
 20
0.0
 30
0.0
  9
$PUCSORGLEFT
 10
0.0
 20
0.0
 30
0.0
  9
$PUCSORGRIGHT
 10
0.0
 20
0.0
 30
0.0
  9
$PUCSORGFRONT
 10
0.0
 20
0.0
 30
0.0
  9
$PUCSORGBACK
 10
0.0
 20
0.0
 30
0.0
  9
$USERI1
 70
     0
  9
$USERI2
 70
     0
  9
$USERI3
 70
     0
  9
$USERI4
 70
     0
  9
$USERI5
 70
     0
  9
$USERR1
 40
0.0
  9
$USERR2
 40
0.0
  9
$USERR3
 40
0.0
  9
$USERR4
 40
0.0
  9
$USERR5
 40
0.0
  9
$WORLDVIEW
 70
     1
  9
$SHADEDGE
 70
     3
  9
$SHADEDIF
 70
    70
  9
$TILEMODE
 70
     1
  9
$MAXACTVP
 70
    64
  9
$PINSBASE
 10
0.0
 20
0.0
 30
0.0
  9
$PLIMCHECK
 70
     0
  9
$PEXTMIN
 10
1.0000000000E+20
 20
1.0000000000E+20
 30
1.0000000000E+20
  9
$PEXTMAX
 10
-1.0000000000E+20
 20
-1.0000000000E+20
 30
-1.0000000000E+20
  9
$PLIMMIN
 10
0.0
 20
0.0
  9
$PLIMMAX
 10
420.0
 20
297.0
  9
$UNITMODE
 70
     0
  9
$VISRETAIN
 70
     1
  9
$PLINEGEN
 70
     0
  9
$PSLTSCALE
 70
     1
  9
$TREEDEPTH
 70
  3020
  9
$CMLSTYLE
  2
Standard
  9
$CMLJUST
 70
     0
  9
$CMLSCALE
 40
20.0
  9
$PROXYGRAPHICS
 70
     1
  9
$MEASUREMENT
 70
     1
  9
$CELWEIGHT
370
    -1
  9
$ENDCAPS
280
     0
  9
$JOINSTYLE
280
     0
  9
$LWDISPLAY
290
     1
  9
$INSUNITS
 70
     4
  9
$HYPERLINKBASE
  1

  9
$STYLESHEET
  1

  9
$XEDIT
290
     1
  9
$CEPSNTYPE
380
     0
  9
$PSTYLEMODE
290
     1
  9
$FINGERPRINTGUID
  2
{B7C38C71-64F0-48AC-989D-6F19013EC17A}
  9
$VERSIONGUID
  2
{FAEB1C32-E019-11D5-929B-00C0DF256EC4}
  9
$EXTNAMES
290
     1
  9
$PSVPSCALE
 40
0.0
  9
$OLESTARTUP
290
     0
  0
ENDSEC
  0
SECTION
  2
CLASSES
  0
CLASS
  1
ACDBDICTIONARYWDFLT
  2
AcDbDictionaryWithDefault
  3
ObjectDBX Classes
 90
        0
280
     0
281
     0
  0
CLASS
  1
VISUALSTYLE
  2
AcDbVisualStyle
  3
ObjectDBX Classes
 90
     4095
280
     0
281
     0
  0
CLASS
  1
MATERIAL
  2
AcDbMaterial
  3
ObjectDBX Classes
 90
     1153
280
     0
281
     0
  0
CLASS
  1
SCALE
  2
AcDbScale
  3
ObjectDBX Classes
 90
     1153
280
     0
281
     0
  0
CLASS
  1
TABLESTYLE
  2
AcDbTableStyle
  3
ObjectDBX Classes
 90
     4095
280
     0
281
     0
  0
CLASS
  1
MLEADERSTYLE
  2
AcDbMLeaderStyle
  3
ACDB_MLEADERSTYLE_CLASS
 90
     4095
280
     0
281
     0
  0
CLASS
  1
SUN
  2
AcDbSun
  3
SCENEOE
 90
     1153
280
     0
281
     0
  0
CLASS
  1
ACDBPLACEHOLDER
  2
AcDbPlaceHolder
  3
ObjectDBX Classes
 90
        0
280
     0
281
     0
  0
CLASS
  1
LAYOUT
  2
AcDbLayout
  3
ObjectDBX Classes
 90
        0
280
     0
281
     0
  0
ENDSEC
  0
SECTION
  2
TABLES
  0
TABLE
  2
VPORT
  5
8
330
0
100
AcDbSymbolTable
 70
     1
  0
VPORT
  5
29
330
8
100
AcDbSymbolTableRecord
100
AcDbViewportTableRecord
  2
*Active
 70
     0
 10
0.0
 20
0.0
 11
1.0
 21
1.0
 12
297.0
 22
420.5
 13
0.0
 23
0.0
 14
10.0
 24
10.0
 15
10.0
 25
10.0
 16
0.0
 26
0.0
 36
1.0
 17
0.0
 27
0.0
 37
0.0
 40
841.0
 41
0.7063020214
 42
50.0
 43
0.0
 44
0.0
 50
0.0
 51
0.0
 71
     0
 72
  2000
 73
     1
 74
     3
 75
     0
 76
     0
 77
     0
 78
     0
281
     0
 65
     1
110
0.0
120
0.0
130
0.0
111
1.0
121
0.0
131
0.0
112
0.0
122
1.0
132
0.0
 79
     0
146
0.0
  0
ENDTAB
  0
TABLE
  2
LTYPE
  5
5
330
0
100
AcDbSymbolTable
 70
     6
  0
LTYPE
  5
14
330
5
100
AcDbSymbolTableRecord
100
AcDbLinetypeTableRecord
  2
ByBlock
 70
     0
  3

 72
    65
 73
     0
 40
0.0
  0
LTYPE
  5
15
330
5
100
AcDbSymbolTableRecord
100
AcDbLinetypeTableRecord
  2
ByLayer
 70
     0
  3

 72
    65
 73
     0
 40
0.0
  0
LTYPE
  5
16
330
5
100
AcDbSymbolTableRecord
100
AcDbLinetypeTableRecord
  2
Continuous
 70
     0
  3
Solid line
 72
    65
 73
     0
 40
0.0
  0
LTYPE
  5
6E
330
5
100
AcDbSymbolTableRecord
100
AcDbLinetypeTableRecord
  2
HIDDEN
 70
     0
  3
Hidden __ __ __ __ __ __ __ __ __ __ __ __ __ __
 72
    65
 73
     2
 40
1.905
 49
1.27
 74
     0
 49
-0.635
 74
     0
  0
LTYPE
  5
6F
330
5
100
AcDbSymbolTableRecord
100
AcDbLinetypeTableRecord
  2
PHANTOM
 70
     0
  3
Phantom ______  __  __  ______  __  __  ______
 72
    65
 73
     6
 40
12.7
 49
6.35
 74
     0
 49
-1.27
 74
     0
 49
1.27
 74
     0
 49
-1.27
 74
     0
 49
1.27
 74
     0
 49
-1.27
 74
     0
  0
LTYPE
  5
70
330
5
100
AcDbSymbolTableRecord
100
AcDbLinetypeTableRecord
  2
CENTER
 70
     0
  3
Center ____ _ ____ _ ____ _ ____ _ ____ _ ____
 72
    65
 73
     4
 40
10.16
 49
6.35
 74
     0
 49
-1.27
 74
     0
 49
1.27
 74
     0
 49
-1.27
 74
     0
  0
LTYPE
  5
71
330
5
100
AcDbSymbolTableRecord
100
AcDbLinetypeTableRecord
  2
CENTERX2
 70
     0
  3
Center (2x) ________  __  ________  __  _____
 72
    65
 73
     4
 40
20.32
 49
12.7
 74
     0
 49
-2.54
 74
     0
 49
2.54
 74
     0
 49
-2.54
 74
     0
  0
LTYPE
  5
72
330
5
100
AcDbSymbolTableRecord
100
AcDbLinetypeTableRecord
  2
DOT2
 70
     0
  3
Dot (.5x) ........................................
 72
    65
 73
     2
 40
0.635
 49
0.0
 74
     0
 49
-0.635
 74
     0
  0
ENDTAB
  0
TABLE
  2
LAYER
  5
2
330
0
100
AcDbSymbolTable
 70
     1
  0
LAYER
  5
10
330
2
100
AcDbSymbolTableRecord
100
AcDbLayerTableRecord
  2
0
 70
     0
 62
     7
  6
Continuous
370
    -3
390
F
  0
ENDTAB
  0
TABLE
  2
STYLE
  5
3
330
0
100
AcDbSymbolTable
 70
     3
  0
STYLE
  5
11
330
3
100
AcDbSymbolTableRecord
100
AcDbTextStyleTableRecord
  2
Standard
 70
     0
 40
0.0
 41
1.0
 50
0.0
 71
     0
 42
10.0
  3
txt
  4

  0
STYLE
  5
76
330
3
100
AcDbSymbolTableRecord
100
AcDbTextStyleTableRecord
  2
SLDTEXTSTYLE0
 70
     0
 40
0.0
 41
0.96
 50
0.0
 71
     0
 42
10.0
  3
ISOCP3
  4

  0
STYLE
  5
8D
330
3
100
AcDbSymbolTableRecord
100
AcDbTextStyleTableRecord
  2
SLDTEXTSTYLE1
 70
     0
 40
0.0
 41
0.605
 50
0.0
 71
     0
 42
10.0
  3
TXT
  4

  0
ENDTAB
  0
TABLE
  2
VIEW
  5
6
330
0
100
AcDbSymbolTable
 70
     0
  0
ENDTAB
  0
TABLE
  2
UCS
  5
7
330
0
100
AcDbSymbolTable
 70
     0
  0
ENDTAB
  0
TABLE
  2
APPID
  5
9
330
0
100
AcDbSymbolTable
 70
     1
  0
APPID
  5
12
330
9
100
AcDbSymbolTableRecord
100
AcDbRegAppTableRecord
  2
ACAD
 70
     0
  0
ENDTAB
  0
TABLE
  2
DIMSTYLE
  5
A
330
0
100
AcDbSymbolTable
 70
     2
100
AcDbDimStyleTable
  0
DIMSTYLE
105
27
330
A
100
AcDbSymbolTableRecord
100
AcDbDimStyleTableRecord
  2
ISO-25
 70
     0
 41
2.5
 42
0.625
 43
3.75
 44
1.25
 73
     0
 74
     0
 77
     1
 78
     8
140
2.5
141
2.5
143
0.0393700787
147
0.625
171
     3
172
     1
178
     0
271
     2
272
     2
274
     3
278
    44
283
     0
284
     8
340
11
  0
DIMSTYLE
105
77
102
{ACAD_REACTORS
330
75
330
82
102
}
330
A
100
AcDbSymbolTableRecord
100
AcDbDimStyleTableRecord
  2
SLDDIMSTYLE0
 70
     0
 41
2.5
 44
0.0
 45
0.000000001
 73
     0
 74
     0
 77
     1
 78
    12
 79
     3
140
6.0
147
1.5
173
     1
178
     0
271
     2
272
     2
276
     2
284
    12
340
76
  0
ENDTAB
  0
TABLE
  2
BLOCK_RECORD
  5
1
330
0
100
AcDbSymbolTable
 70
     3
  0
BLOCK_RECORD
  5
1F
330
1
100
AcDbSymbolTableRecord
100
AcDbBlockTableRecord
  2
*Model_Space
340
22
  0
BLOCK_RECORD
  5
1B
330
1
100
AcDbSymbolTableRecord
100
AcDbBlockTableRecord
  2
*Paper_Space
340
1E
  0
BLOCK_RECORD
  5
23
330
1
100
AcDbSymbolTableRecord
100
AcDbBlockTableRecord
  2
*Paper_Space0
340
26
  0
BLOCK_RECORD
  5
78
330
1
100
AcDbSymbolTableRecord
100
AcDbBlockTableRecord
  2
_D
340
0
  0
BLOCK_RECORD
  5
83
330
1
100
AcDbSymbolTableRecord
100
AcDbBlockTableRecord
  2
_D_1
340
0
  0
ENDTAB
  0
ENDSEC
  0
SECTION
  2
BLOCKS
  0
BLOCK
  5
20
330
1F
100
AcDbEntity
  8
0
100
AcDbBlockBegin
  2
*Model_Space
 70
     0
 10
0.0
 20
0.0
 30
0.0
  3
*Model_Space
  1

  0
ENDBLK
  5
21
330
1F
100
AcDbEntity
  8
0
100
AcDbBlockEnd
  0
BLOCK
  5
1C
330
1B
100
AcDbEntity
 67
     1
  8
0
100
AcDbBlockBegin
  2
*Paper_Space
 70
     0
 10
0.0
 20
0.0
 30
0.0
  3
*Paper_Space
  1

  0
ENDBLK
  5
1D
330
1B
100
AcDbEntity
 67
     1
  8
0
100
AcDbBlockEnd
  0
BLOCK
  5
24
330
23
100
AcDbEntity
  8
0
100
AcDbBlockBegin
  2
*Paper_Space0
 70
     0
 10
0.0
 20
0.0
 30
0.0
  3
*Paper_Space0
  1

  0
ENDBLK
  5
25
330
23
100
AcDbEntity
  8
0
100
AcDbBlockEnd
  0
BLOCK
  5
79
330
78
100
AcDbEntity
  8
0
100
AcDbBlockBegin
  2
_D
 70
     0
 10
0.0
 20
0.0
 30
0.0
  3
_D
  1

  0
SOLID
  5
7B
330
78
100
AcDbEntity
  8
0
  6
Continuous
 62
     7
370
    18
100
AcDbTrace
 10
42.7614395004
 20
152.0299240879
 30
0.0
 11
42.4614395004
 21
149.5299240879
 31
0.0
 12
43.0614395004
 22
149.5299240879
 32
0.0
 13
43.0614395004
 23
149.5299240879
 33
0.0
  0
SOLID
  5
7C
330
78
100
AcDbEntity
  8
0
  6
Continuous
 62
     7
370
    18
100
AcDbTrace
 10
42.7614395004
 20
52.0299240879
 30
0.0
 11
43.0614395004
 21
54.5299240879
 31
0.0
 12
42.4614395004
 22
54.5299240879
 32
0.0
 13
42.4614395004
 23
54.5299240879
 33
0.0
  0
LINE
  5
7D
330
78
100
AcDbEntity
  8
0
  6
Continuous
 62
     7
370
    18
100
AcDbLine
 10
56.6850079902
 20
152.0299240879
 30
0.0
 11
41.7614395004
 21
152.0299240879
 31
0.0
  0
LINE
  5
7E
330
78
100
AcDbEntity
  8
0
  6
Continuous
 62
     7
370
    18
100
AcDbLine
 10
56.6850079902
 20
52.0299240879
 30
0.0
 11
41.7614395004
 21
52.0299240879
 31
0.0
  0
LINE
  5
7F
330
78
100
AcDbEntity
  8
0
  6
Continuous
 62
     7
370
    18
100
AcDbLine
 10
42.7614395004
 20
152.0299240879
 30
0.0
 11
42.7614395004
 21
52.0299240879
 31
0.0
  0
MTEXT
  5
80
330
78
100
AcDbEntity
  8
0
  6
Continuous
 62
     7
370
    18
100
AcDbMText
 10
35.0270332946
 20
94.3680541463
 30
0.0
 40
6.0
 41
0.0
 71
     1
 72
     1
  1
100
  7
SLDTEXTSTYLE0
 11
-7.044195017643634E-15
 21
1.0
 31
0.0
 73
     1
 44
1.0
  0
MTEXT
  5
81
330
78
100
AcDbEntity
  8
0
  6
Continuous
 62
     7
370
    18
100
AcDbMText
 10
35.0270332946
 20
105.7430548466
 30
0.0
 40
6.0
 41
0.0
 71
     1
 72
     1
  1
mm
  7
SLDTEXTSTYLE0
 11
-7.044195017643634E-15
 21
1.0
 31
0.0
 73
     1
 44
1.0
  0
ENDBLK
  5
7A
330
78
100
AcDbEntity
  8
0
100
AcDbBlockEnd
  0
BLOCK
  5
84
330
83
100
AcDbEntity
  8
0
100
AcDbBlockBegin
  2
_D_1
 70
     0
 10
0.0
 20
0.0
 30
0.0
  3
_D_1
  1

  0
SOLID
  5
86
330
83
100
AcDbEntity
  8
0
  6
Continuous
 62
     7
370
    18
100
AcDbTrace
 10
56.6850079902
 20
38.4602342313
 30
0.0
 11
59.1850079902
 21
38.1602342313
 31
0.0
 12
59.1850079902
 22
38.7602342313
 32
0.0
 13
59.1850079902
 23
38.7602342313
 33
0.0
  0
SOLID
  5
87
330
83
100
AcDbEntity
  8
0
  6
Continuous
 62
     7
370
    18
100
AcDbTrace
 10
156.6850079902
 20
38.4602342313
 30
0.0
 11
154.1850079902
 21
38.7602342313
 31
0.0
 12
154.1850079902
 22
38.1602342313
 32
0.0
 13
154.1850079902
 23
38.1602342313
 33
0.0
  0
LINE
  5
88
330
83
100
AcDbEntity
  8
0
  6
Continuous
 62
     7
370
    18
100
AcDbLine
 10
56.6850079902
 20
52.0299240879
 30
0.0
 11
56.6850079902
 21
37.4602342313
 31
0.0
  0
LINE
  5
89
330
83
100
AcDbEntity
  8
0
  6
Continuous
 62
     7
370
    18
100
AcDbLine
 10
156.6850079902
 20
52.0299240879
 30
0.0
 11
156.6850079902
 21
37.4602342313
 31
0.0
  0
LINE
  5
8A
330
83
100
AcDbEntity
  8
0
  6
Continuous
 62
     7
370
    18
100
AcDbLine
 10
56.6850079902
 20
38.4602342313
 30
0.0
 11
156.6850079902
 21
38.4602342313
 31
0.0
  0
MTEXT
  5
8B
330
83
100
AcDbEntity
  8
0
  6
Continuous
 62
     7
370
    18
100
AcDbMText
 10
93.9626484861
 20
46.1946404371
 30
0.0
 40
6.0
 41
0.0
 71
     1
 72
     1
  1
100
  7
SLDTEXTSTYLE0
 73
     1
 44
1.0
  0
MTEXT
  5
8C
330
83
100
AcDbEntity
  8
0
  6
Continuous
 62
     7
370
    18
100
AcDbMText
 10
105.3376491864
 20
46.1946404371
 30
0.0
 40
6.0
 41
0.0
 71
     1
 72
     1
  1
mm
  7
SLDTEXTSTYLE0
 73
     1
 44
1.0
  0
ENDBLK
  5
85
330
83
100
AcDbEntity
  8
0
100
AcDbBlockEnd
  0
ENDSEC
  0
SECTION
  2
ENTITIES
  0
LINE
  5
73
330
1F
100
AcDbEntity
  8
0
  6
Continuous
 62
     7
370
    18
100
AcDbLine
 10
56.6850079902
 20
152.0299240879
 30
0.0
 11
56.6850079902
 21
52.0299240879
 31
0.0
  0
LINE
  5
74
330
1F
100
AcDbEntity
  8
0
  6
Continuous
 62
     7
370
    18
100
AcDbLine
 10
56.6850079902
 20
52.0299240879
 30
0.0
 11
156.6850079902
 21
52.0299240879
 31
0.0
  0
DIMENSION
  5
75
330
1F
100
AcDbEntity
  8
0
  6
Continuous
 62
     7
370
    18
100
AcDbDimension
  2
_D
 10
42.7614395004
 20
52.0299240879
 30
0.0
 11
42.7614395004
 21
105.4472211621
 31
0.0
 70
   160
  1
<>mm
 71
     2
 42
-1.0
  3
SLDDIMSTYLE0
100
AcDbAlignedDimension
 13
56.6850079902
 23
152.0299240879
 33
0.0
 14
56.6850079902
 24
52.0299240879
 34
0.0
 50
90.0
100
AcDbRotatedDimension
  0
DIMENSION
  5
82
330
1F
100
AcDbEntity
  8
0
  6
Continuous
 62
     7
370
    18
100
AcDbDimension
  2
_D_1
 10
156.6850079902
 20
38.4602342313
 30
0.0
 11
105.0418155019
 21
38.4602342313
 31
0.0
 70
   160
  1
<>mm
 71
     2
 42
-1.0
  3
SLDDIMSTYLE0
100
AcDbAlignedDimension
 13
56.6850079902
 23
52.0299240879
 33
0.0
 14
156.6850079902
 24
52.0299240879
 34
0.0
100
AcDbRotatedDimension
  0
MTEXT
  5
8E
330
1F
100
AcDbEntity
  8
0
  6
Continuous
 62
     7
370
     0
100
AcDbMText
 10
412.8252631579
 20
48.4342449499
 30
0.0
 40
10.0
 41
0.0
 71
     1
 72
     1
  1
KLUDI GmbH & Co KG
  7
SLDTEXTSTYLE1
 73
     1
 44
1.0
  0
MTEXT
  5
8F
330
1F
100
AcDbEntity
  8
0
  6
Continuous
 62
     7
370
     0
100
AcDbMText
 10
210.0873490389
 20
48.4342449499
 30
0.0
 40
10.0
 41
0.0
 71
     1
 72
     1
  1
40 024 05 75
  7
SLDTEXTSTYLE1
 73
     1
 44
1.0
  0
LINE
  5
90
330
1F
100
AcDbEntity
  8
0
  6
Continuous
 62
     7
370
    25
100
AcDbLine
 10
130.3152295174
 20
228.6492809841
 30
0.0
 11
130.3152295174
 21
105.6492775866
 31
0.0
  0
LINE
  5
91
330
1F
100
AcDbEntity
  8
0
  6
Continuous
 62
     7
370
    25
100
AcDbLine
 10
152.3152293982
 20
105.6492775866
 30
0.0
 11
152.3152293982
 21
228.6492809841
 31
0.0
  0
LINE
  5
92
330
1F
100
AcDbEntity
  8
0
  6
Continuous
 62
     7
370
    25
100
AcDbLine
 10
152.3152293982
 20
228.6492809841
 30
0.0
 11
152.3152293982
 21
268.64928009
 31
0.0
  0
LINE
  5
93
330
1F
100
AcDbEntity
  8
0
  6
Continuous
 62
     7
370
    25
100
AcDbLine
 10
130.3152295174
 20
268.64928009
 30
0.0
 11
130.3152295174
 21
228.6492809841
 31
0.0
  0
LINE
  5
94
330
1F
100
AcDbEntity
  8
0
  6
Continuous
 62
     7
370
    25
100
AcDbLine
 10
130.3152295174
 20
105.6492775866
 30
0.0
 11
130.3152295174
 21
105.4492742011
 31
0.0
  0
LINE
  5
95
330
1F
100
AcDbEntity
  8
0
  6
Continuous
 62
     7
370
    25
100
AcDbLine
 10
152.3152293982
 20
105.4492742011
 30
0.0
 11
152.3152293982
 21
105.6492775866
 31
0.0
  0
ARC
  5
96
330
1F
100
AcDbEntity
  8
0
  6
Continuous
 62
     7
370
    25
100
AcDbCircle
 10
131.3152294578
 20
105.44928009
 30
0.0
 40
1.0
100
AcDbArc
 50
180.0
 51
270.0
  0
ARC
  5
97
330
1F
100
AcDbEntity
  8
0
  6
Continuous
 62
     7
370
    25
100
AcDbCircle
 10
151.3152294578
 20
105.44928009
 30
0.0
 40
1.0
100
AcDbArc
 50
270.0
 51
0.0
  0
SPLINE
  5
98
330
1F
100
AcDbEntity
  8
0
  6
Continuous
 62
     7
370
    25
100
AcDbSpline
210
0.0
220
0.0
230
1.0
 70
     8
 71
     3
 72
    13
 73
     9
 74
     0
 42
0.000000001
 43
0.00000001
 40
0.0
 40
0.0
 40
0.0
 40
0.0
 40
0.1553172733867041
 40
0.3926279700195363
 40
0.5360511772002128
 40
0.6881156167842395
 40
0.8511193183674651
 40
1.0
 40
1.0
 40
1.0
 40
1.0
 10
213.7798520149961
 20
264.3723120168894
 30
0.0
 10
213.7755689352268
 20
264.7568549433702
 30
0.0
 10
213.7647416983162
 20
265.7289445591444
 30
0.0
 10
213.7338771813343
 20
267.2120021554159
 30
0.0
 10
213.688659296143
 20
268.811184428296
 30
0.0
 10
213.6383264712509
 20
270.2457668754242
 30
0.0
 10
213.5772237603894
 20
271.6826847405807
 30
0.0
 10
213.5366378055848
 20
272.4481851322128
 30
0.0
 10
213.5172637524381
 20
272.8136033007055
 30
0.0
  0
SPLINE
  5
99
330
1F
100
AcDbEntity
  8
0
  6
Continuous
 62
     7
370
    25
100
AcDbSpline
210
0.0
220
0.0
230
1.0
 70
     8
 71
     3
 72
     9
 73
     5
 74
     0
 42
0.000000001
 43
0.00000001
 40
0.0
 40
0.0
 40
0.0
 40
0.0
 40
0.5126607548342579
 40
1.0
 40
1.0
 40
1.0
 40
1.0
 10
213.8195412578359
 20
258.1597194262891
 30
0.0
 10
213.8179709562754
 20
259.2338556663826
 30
0.0
 10
213.8149079140089
 20
261.3290740539121
 30
0.0
 10
213.7915838333217
 20
263.3644363107511
 30
0.0
 10
213.7802170934454
 20
264.3563482166379
 30
0.0
  0
LINE
  5
9A
330
1F
100
AcDbEntity
  8
0
  6
Continuous
 62
     7
370
    25
100
AcDbLine
 10
213.780313951
 20
251.7810985633
 30
0.0
 11
213.8195412578
 21
258.159860056
 31
0.0
  0
SPLINE
  5
9B
330
1F
100
AcDbEntity
  8
0
  6
Continuous
 62
     7
370
    25
100
AcDbSpline
210
0.0
220
0.0
230
1.0
 70
     8
 71
     3
 72
    12
 73
     8
 74
     0
 42
0.000000001
 43
0.00000001
 40
0.0
 40
0.0
 40
0.0
 40
0.0
 40
0.0856388343782589
 40
0.181413080044681
 40
0.2881558823670626
 40
0.4065017102448251
 40
1.0
 40
1.0
 40
1.0
 40
1.0
 10
212.5373186888471
 20
242.6086738892942
 30
0.0
 10
212.6094570431558
 20
242.6105518057683
 30
0.0
 10
212.7622713725367
 20
242.6145298913426
 30
0.0
 10
212.9688497345018
 20
242.6845282871467
 30
0.0
 10
213.153816019209
 20
242.7951093690108
 30
0.0
 10
213.4989383042597
 20
243.1408121123636
 30
0.0
 10
213.52791830823
 20
243.4668762292177
 30
0.0
 10
213.5520803155675
 20
243.7387313881069
 30
0.0
  0
SPLINE
  5
9C
330
1F
100
AcDbEntity
  8
0
  6
Continuous
 62
     7
370
    25
100
AcDbSpline
210
0.0
220
0.0
230
1.0
 70
     8
 71
     3
 72
    13
 73
     9
 74
     0
 42
0.000000001
 43
0.00000001
 40
0.0
 40
0.0
 40
0.0
 40
0.0
 40
0.3021710580832867
 40
0.5605119323163565
 40
0.669899239624518
 40
0.7741165661734577
 40
0.8817056786218304
 40
1.0
 40
1.0
 40
1.0
 40
1.0
 10
209.5399948181882
 20
245.726045239821
 30
0.0
 10
209.6245223722661
 20
245.321113034968
 30
0.0
 10
209.7813166826501
 20
244.5699844059095
 30
0.0
 10
210.2232833886516
 20
243.7517541906751
 30
0.0
 10
210.7987714943594
 20
243.1833649435767
 30
0.0
 10
211.3124731472453
 20
242.8694993575912
 30
0.0
 10
211.9234315492248
 20
242.6595621478694
 30
0.0
 10
212.3625486063052
 20
242.6252620775323
 30
0.0
 10
212.5925125899091
 20
242.607299257174
 30
0.0
  0
SPLINE
  5
9D
330
1F
100
AcDbEntity
  8
0
  6
Continuous
 62
     7
370
    25
100
AcDbSpline
210
0.0
220
0.0
230
1.0
 70
     8
 71
     3
 72
    11
 73
     7
 74
     0
 42
0.000000001
 43
0.00000001
 40
0.0
 40
0.0
 40
0.0
 40
0.0
 40
0.2495369887455154
 40
0.5154912199553019
 40
0.7789031615731116
 40
1.0
 40
1.0
 40
1.0
 40
1.0
 10
213.5404872121587
 20
243.5379233398586
 30
0.0
 10
213.5744855541103
 20
244.1856703418267
 30
0.0
 10
213.644719016721
 20
245.5237801504991
 30
0.0
 10
213.7143990859394
 20
247.7869157432372
 30
0.0
 10
213.7594573319953
 20
249.917398430016
 30
0.0
 10
213.7738349437232
 20
251.2137295568378
 30
0.0
 10
213.7803959073797
 20
251.8052868732362
 30
0.0
  0
LINE
  5
9E
330
1F
100
AcDbEntity
  8
0
  6
Continuous
 62
     7
370
    25
100
AcDbLine
 10
208.3369495692
 20
252.2535454669
 30
0.0
 11
209.5619889321
 21
245.5959059485
 31
0.0
  0
SPLINE
  5
9F
330
1F
100
AcDbEntity
  8
0
  6
Continuous
 62
     7
370
    25
100
AcDbSpline
210
0.0
220
0.0
230
1.0
 70
     8
 71
     3
 72
    11
 73
     7
 74
     0
 42
0.000000001
 43
0.00000001
 40
0.0
 40
0.0
 40
0.0
 40
0.0
 40
0.0068081807868676
 40
0.5082104458157507
 40
0.8728720360739333
 40
1.0
 40
1.0
 40
1.0
 40
1.0
 10
152.3152293982282
 20
251.4551226236968
 30
0.0
 10
152.3310526598179
 20
251.4562865859994
 30
0.0
 10
153.5122120735412
 20
251.5431729098502
 30
0.0
 10
155.5472003239545
 20
251.6087534468239
 30
0.0
 10
157.8617969880518
 20
251.6501675110682
 30
0.0
 10
159.0081455444681
 20
251.6481340298255
 30
0.0
 10
159.3044774951711
 20
251.6476083734184
 30
0.0
  0
SPLINE
  5
A0
330
1F
100
AcDbEntity
  8
0
  6
Continuous
 62
     7
370
    25
100
AcDbSpline
210
0.0
220
0.0
230
1.0
 70
     8
 71
     3
 72
    12
 73
     8
 74
     0
 42
0.000000001
 43
0.00000001
 40
0.0
 40
0.0
 40
0.0
 40
0.0
 40
0.0931169184936636
 40
0.2250697756378785
 40
0.4250067360128681
 40
0.688651303602274
 40
1.0
 40
1.0
 40
1.0
 40
1.0
 10
159.2966394843831
 20
285.651100818172
 30
0.0
 10
158.782819395335
 20
285.6512616785471
 30
0.0
 10
157.5408821187254
 20
285.651650488756
 30
0.0
 10
155.1959820618788
 20
285.6955148483026
 30
0.0
 10
151.9122256592031
 20
285.8361302446569
 30
0.0
 10
147.6496502026597
 20
286.1811371861227
 30
0.0
 10
144.4888138505195
 20
286.4449988984684
 30
0.0
 10
142.7772767953873
 20
286.5878753551393
 30
0.0
  0
LINE
  5
A1
330
1F
100
AcDbEntity
  8
0
  6
Continuous
 62
     7
370
    25
100
AcDbLine
 10
183.0152312639
 20
285.6492810139
 30
0.0
 11
159.296473709
 21
285.6492810139
 31
0.0
  0
LINE
  5
A2
330
1F
100
AcDbEntity
  8
0
  6
Continuous
 62
     7
370
    25
100
AcDbLine
 10
159.2972653332
 20
251.6492791661
 30
0.0
 11
183.0152312639
 21
251.6492791661
 31
0.0
  0
ARC
  5
A3
330
1F
100
AcDbEntity
  8
0
  6
Continuous
 62
     7
370
    25
100
AcDbCircle
 10
183.0152294578
 20
251.94928009
 30
0.0
 40
0.3000000000000114
100
AcDbArc
 50
270.0
 51
0.0
  0
ARC
  5
A4
330
1F
100
AcDbEntity
  8
0
  6
Continuous
 62
     7
370
    25
100
AcDbCircle
 10
183.0152294578
 20
285.34928009
 30
0.0
 40
0.3000000000000114
100
AcDbArc
 50
0.0
 51
90.0
  0
ARC
  5
A5
330
1F
100
AcDbEntity
  8
0
  6
Continuous
 62
     7
370
    25
100
AcDbCircle
 10
178.5464513234
 20
255.1155709262
 30
0.0
 40
30.00000000000001
100
AcDbArc
 50
72.739287586
 51
79.8849141309
  0
ARC
  5
A6
330
1F
100
AcDbEntity
  8
0
  6
Continuous
 62
     7
370
    25
100
AcDbCircle
 10
178.5464513234
 20
282.1829892538
 30
0.0
 40
30.00000000000001
100
AcDbArc
 50
280.1150858691
 51
287.2552930425
  0
LINE
  5
A7
330
1F
100
AcDbEntity
  8
0
  6
Continuous
 62
     7
370
    25
100
AcDbLine
 10
183.3152288916
 20
252.64927933
 30
0.0
 11
183.8152299049
 21
252.64927933
 31
0.0
  0
LINE
  5
A8
330
1F
100
AcDbEntity
  8
0
  6
Continuous
 62
     7
370
    25
100
AcDbLine
 10
183.8152299049
 20
284.6492808499
 30
0.0
 11
183.3152288916
 21
284.6492808499
 31
0.0
  0
SPLINE
  5
A9
330
1F
100
AcDbEntity
  8
0
  6
Continuous
 62
     7
370
    25
100
AcDbSpline
210
0.0
220
0.0
230
1.0
 70
     8
 71
     3
 72
    13
 73
     9
 74
     0
 42
0.000000001
 43
0.00000001
 40
0.0
 40
0.0
 40
0.0
 40
0.0
 40
0.2604858648386256
 40
0.518409690914817
 40
0.7193607700069535
 40
0.8740278931133066
 40
0.9935421580889726
 40
0.9999999999999999
 40
0.9999999999999999
 40
0.9999999999999999
 40
0.9999999999999999
 10
203.3313850285783
 20
251.8627327122836
 30
0.0
 10
203.8469248662574
 20
251.8925056481841
 30
0.0
 10
204.8729338900909
 20
251.9517586848405
 30
0.0
 10
206.2392747939801
 20
251.9309151063601
 30
0.0
 10
207.3372752137619
 20
251.8189773781088
 30
0.0
 10
208.0423860061741
 20
251.6857898536403
 30
0.0
 10
208.4063264861858
 20
251.590470791656
 30
0.0
 10
208.4596254218617
 20
251.5729041445018
 30
0.0
 10
208.4623577418104
 20
251.5720036068111
 30
0.0
  0
LINE
  5
AA
330
1F
100
AcDbEntity
  8
0
  6
Continuous
 62
     7
370
    25
100
AcDbLine
 10
187.7140442254
 20
251.5112776497
 30
0.0
 11
203.3720093193
 21
251.7862711289
 31
0.0
  0
SPLINE
  5
AB
330
1F
100
AcDbEntity
  8
0
  6
Continuous
 62
     7
370
    25
100
AcDbSpline
210
0.0
220
0.0
230
1.0
 70
     8
 71
     3
 72
    10
 73
     6
 74
     0
 42
0.000000001
 43
0.00000001
 40
0.0
 40
0.0
 40
0.0
 40
0.0
 40
0.1886079493139811
 40
0.5875953428530424
 40
1.0
 40
1.0
 40
1.0
 40
1.0
 10
188.1612206222787
 20
285.4450941273122
 30
0.0
 10
188.0790095607825
 20
285.3871320250594
 30
0.0
 10
187.8228865445368
 20
285.2065550055349
 30
0.0
 10
187.5389374446765
 20
284.6851151618918
 30
0.0
 10
187.4652299875368
 20
284.1832920238251
 30
0.0
 10
187.4277668418661
 20
283.9282313549071
 30
0.0
  0
SPLINE
  5
AC
330
1F
100
AcDbEntity
  8
0
  6
Continuous
 62
     7
370
    25
100
AcDbSpline
210
0.0
220
0.0
230
1.0
 70
     8
 71
     3
 72
    13
 73
     9
 74
     0
 42
0.000000001
 43
0.00000001
 40
0.0
 40
0.0
 40
0.0
 40
0.0
 40
0.1329184531166686
 40
0.2811711959228954
 40
0.4473605990517115
 40
0.6353667029357672
 40
0.8506221364827271
 40
1.0
 40
1.0
 40
1.0
 40
1.0
 10
211.8940206589475
 20
285.9282922187
 30
0.0
 10
210.947905662116
 20
285.91365909375
 30
0.0
 10
208.9465260274446
 20
285.8827046766183
 30
0.0
 10
205.751027274685
 20
285.8520108919388
 30
0.0
 10
202.1540260739986
 20
285.8393690380616
 30
0.0
 10
198.0681713655956
 20
285.8492481954863
 30
0.0
 10
194.0967802969492
 20
285.8754796653513
 30
0.0
 10
191.4720781566026
 20
285.8898089458053
 30
0.0
 10
190.3968269350305
 20
285.8956791647821
 30
0.0
  0
SPLINE
  5
AD
330
1F
100
AcDbEntity
  8
0
  6
Continuous
 62
     7
370
    25
100
AcDbSpline
210
0.0
220
0.0
230
1.0
 70
     8
 71
     3
 72
     9
 73
     5
 74
     0
 42
0.000000001
 43
0.00000001
 40
0.0
 40
0.0
 40
0.0
 40
0.0
 40
0.2065320837583826
 40
1.0
 40
1.0
 40
1.0
 40
1.0
 10
188.9110992076173
 20
285.799494031921
 30
0.0
 10
188.8503837196785
 20
285.7903233774318
 30
0.0
 10
188.5564076611696
 20
285.7459203272024
 30
0.0
 10
188.3430035684858
 20
285.5913612849041
 30
0.0
 10
188.1736742677465
 20
285.4687236436754
 30
0.0
  0
SPLINE
  5
AE
330
1F
100
AcDbEntity
  8
0
  6
Continuous
 62
     7
370
    25
100
AcDbSpline
210
0.0
220
0.0
230
1.0
 70
     8
 71
     3
 72
    10
 73
     6
 74
     0
 42
0.000000001
 43
0.00000001
 40
0.0
 40
0.0
 40
0.0
 40
0.0
 40
0.4913997792726019
 40
0.7391369127755029
 40
1.0
 40
1.0
 40
1.0
 40
1.0
 10
212.7042191447988
 20
284.3130175211578
 30
0.0
 10
212.5852346374033
 20
284.6615670903221
 30
0.0
 10
212.4062645906633
 20
285.1858364599233
 30
0.0
 10
212.0067364061178
 20
285.7727521585971
 30
0.0
 10
211.8207976518683
 20
285.8729436291676
 30
0.0
 10
211.7254289212003
 20
285.9243322351127
 30
0.0
  0
SPLINE
  5
AF
330
1F
100
AcDbEntity
  8
0
  6
Continuous
 62
     7
370
    25
100
AcDbSpline
210
0.0
220
0.0
230
1.0
 70
     8
 71
     3
 72
    10
 73
     6
 74
     0
 42
0.000000001
 43
0.00000001
 40
0.0
 40
0.0
 40
0.0
 40
0.0
 40
0.4350458112825313
 40
0.8701018974936576
 40
1.0
 40
1.0
 40
1.0
 40
1.0
 10
187.4266082765833
 20
252.0167529770284
 30
0.0
 10
187.427585900351
 20
251.9244588614664
 30
0.0
 10
187.429541170976
 20
251.7398684505365
 30
0.0
 10
187.7279976748088
 20
251.5159040223154
 30
0.0
 10
187.8386435635792
 20
251.5262222293884
 30
0.0
 10
187.8640840174928
 20
251.5285946616083
 30
0.0
  0
ARC
  5
B0
330
1F
100
AcDbEntity
  8
0
  6
Continuous
 62
     7
370
    25
100
AcDbCircle
 10
141.3152294578
 20
268.64928009
 30
0.0
 40
11.00000000000006
100
AcDbArc
 50
0.0
 51
180.0
  0
LINE
  5
B1
330
1F
100
AcDbEntity
  8
0
  6
Continuous
 62
     7
370
    25
100
AcDbLine
 10
131.3152296814
 20
104.4492870757
 30
0.0
 11
151.3152292343
 21
104.4492870757
 31
0.0
  0
LINE
  5
B2
330
1F
100
AcDbEntity
  8
0
  6
Continuous
 62
     7
370
    25
100
AcDbLine
 10
213.4786175909
 20
273.4837136419
 30
0.0
 11
213.4904267611
 21
273.2673110628
 31
0.0
  0
LINE
  5
B3
330
1F
100
AcDbEntity
  8
0
  6
Continuous
 62
     7
370
    25
100
AcDbLine
 10
213.5080920877
 20
272.9438403809
 30
0.0
 11
213.5152073922
 21
272.8134999239
 31
0.0
  0
SPLINE
  5
B4
330
1F
100
AcDbEntity
  8
0
  6
Continuous
 62
     7
370
    25
100
AcDbSpline
210
0.0
220
0.0
230
1.0
 70
     8
 71
     3
 72
     8
 73
     4
 74
     0
 42
0.000000001
 43
0.00000001
 40
0.0
 40
0.0
 40
0.0
 40
0.0
 40
0.9683876830552077
 40
0.9683876830552077
 40
0.9683876830552077
 40
0.9683876830552077
 10
209.4762202718516
 20
270.7225655257517
 30
0.0
 10
209.4771616145755
 20
272.8229802705825
 30
0.0
 10
210.5098977618197
 20
274.270424943317
 30
0.0
 10
212.4932323005088
 20
274.3639094284009
 30
0.0
  0
LINE
  5
B5
330
1F
100
AcDbEntity
  8
0
  6
Continuous
 62
     7
370
    25
100
AcDbLine
 10
213.5505156936
 20
243.740879018
 30
0.0
 11
213.5542558851
 21
243.7791638264
 31
0.0
  0
LINE
  5
B6
330
1F
100
AcDbEntity
  8
0
  6
Continuous
 62
     7
370
    25
100
AcDbLine
 10
209.5763312998
 20
245.7282655128
 30
0.0
 11
209.4762178483
 21
246.5902455338
 31
0.0
  0
SPLINE
  5
B7
330
1F
100
AcDbEntity
  8
0
  6
Continuous
 62
     7
370
    25
100
AcDbSpline
210
0.0
220
0.0
230
1.0
 70
     8
 71
     3
 72
    13
 73
     9
 74
     0
 42
0.000000001
 43
0.00000001
 40
0.0
 40
0.0
 40
0.0
 40
0.0
 40
0.1249999999999998
 40
0.1249999999999998
 40
0.2499999999999996
 40
0.2499999999999996
 40
0.5
 40
1.0
 40
1.0
 40
1.0
 40
1.0
 10
212.9546155476294
 20
281.6495443478751
 30
0.0
 10
212.9764510327306
 20
281.3258235108692
 30
0.0
 10
212.9982894379108
 20
280.9952805513188
 30
0.0
 10
213.0419503360713
 20
280.321568590372
 30
0.0
 10
213.0637701968932
 20
279.9779233367915
 30
0.0
 10
213.1292368994849
 20
278.9531303651021
 30
0.0
 10
213.2601648680762
 20
276.903592422909
 30
0.0
 10
213.3910755793587
 20
274.854197668021
 30
0.0
 10
213.4783408153917
 20
273.4879974056288
 30
0.0
  0
ARC
  5
B8
330
1F
100
AcDbEntity
  8
0
  6
Continuous
 62
     7
370
    25
100
AcDbCircle
 10
212.545313683
 20
273.4305696667
 30
0.0
 40
0.9347916315722207
100
AcDbArc
 50
3.5198434376
 51
93.1937754836
  0
ARC
  5
B9
330
1F
100
AcDbEntity
  8
0
  6
Continuous
 62
     7
370
    25
100
AcDbCircle
 10
141.3152294578
 20
268.64928009
 30
0.0
 40
18.00000000000006
100
AcDbArc
 50
307.6698869643
 51
232.3301130357
  0
SPLINE
  5
BA
330
1F
100
AcDbEntity
  8
0
  6
Continuous
 62
     7
370
    25
100
AcDbSpline
210
0.0
220
0.0
230
1.0
 70
     8
 71
     3
 72
     9
 73
     5
 74
     0
 42
0.000000001
 43
0.00000001
 40
0.0
 40
0.0
 40
0.0
 40
0.0
 40
0.7360151219990276
 40
1.0
 40
1.0
 40
1.0
 40
1.0
 10
159.3153162272945
 20
268.6492959493884
 30
0.0
 10
159.3043790451579
 20
268.6492931651397
 30
0.0
 10
159.2895190486583
 20
268.6492893822709
 30
0.0
 10
159.4236778987021
 20
268.6492908677881
 30
0.0
 10
159.4590938063636
 20
268.6492912599422
 30
0.0
  0
SPLINE
  5
BB
330
1F
100
AcDbEntity
  8
0
  6
Continuous
 62
     7
370
    25
100
AcDbSpline
210
0.0
220
0.0
230
1.0
 70
     8
 71
     3
 72
    10
 73
     6
 74
     0
 42
0.000000001
 43
0.00000001
 40
0.0
 40
0.0
 40
0.0
 40
0.0
 40
0.5
 40
0.5
 40
1.0
 40
1.0
 40
1.0
 40
1.0
 10
194.048797544593
 20
265.9289615179235
 30
0.0
 10
193.8894240443735
 20
265.9289615179235
 30
0.0
 10
193.7332844300246
 20
265.9400455464971
 30
0.0
 10
193.5086458624256
 20
265.9783857010636
 30
0.0
 10
193.4420157083692
 20
266.0054656250097
 30
0.0
 10
193.4420157083692
 20
266.0331504245237
 30
0.0
  0
ARC
  5
BC
330
1F
100
AcDbEntity
  8
0
  6
Continuous
 62
     7
370
    25
100
AcDbCircle
 10
196.4152308526
 20
265.594744844
 30
0.0
 40
3.005361838050609
100
AcDbArc
 50
8.38792297
 51
171.61207703
  0
SPLINE
  5
BD
330
1F
100
AcDbEntity
  8
0
  6
Continuous
 62
     7
370
    25
100
AcDbSpline
210
0.0
220
0.0
230
1.0
 70
     8
 71
     3
 72
    10
 73
     6
 74
     0
 42
0.000000001
 43
0.00000001
 40
0.0
 40
0.0
 40
0.0
 40
0.0
 40
0.5
 40
0.5
 40
1.0
 40
1.0
 40
1.0
 40
1.0
 10
199.3884432072966
 20
266.0331504245237
 30
0.0
 10
199.3884432072966
 20
266.0054711033771
 30
0.0
 10
199.321939254273
 20
265.9784355247298
 30
0.0
 10
199.0976813825199
 20
265.9401038564313
 30
0.0
 10
198.941009188995
 20
265.9289615179236
 30
0.0
 10
198.7816613710727
 20
265.9289615179236
 30
0.0
  0
LINE
  5
BE
330
1F
100
AcDbEntity
  8
0
  6
Continuous
 62
     7
370
    25
100
AcDbLine
 10
194.0487960698
 20
265.9289615882
 30
0.0
 11
198.78166191
 21
265.9289615882
 31
0.0
  0
SPLINE
  5
BF
330
1F
100
AcDbEntity
  8
0
  6
Continuous
 62
     7
370
    25
100
AcDbSpline
210
0.0
220
0.0
230
1.0
 70
    24
 71
     3
 72
    32
 73
    28
 74
     0
 42
0.000000001
 43
0.00000001
 40
0.0
 40
0.0
 40
0.0
 40
0.0
 40
0.1249999999999998
 40
0.1249999999999998
 40
0.1874999999999998
 40
0.1874999999999998
 40
0.2499999999999998
 40
0.2499999999999998
 40
0.3749999999999996
 40
0.3749999999999996
 40
0.4374999999999997
 40
0.4374999999999997
 40
0.4999999999999998
 40
0.4999999999999998
 40
0.5624999999999999
 40
0.5624999999999999
 40
0.5937499999999999
 40
0.5937499999999999
 40
0.6249999999999998
 40
0.6249999999999998
 40
0.7499999999999999
 40
0.7499999999999999
 40
0.8124999999999999
 40
0.8124999999999999
 40
0.8749999999999999
 40
0.8749999999999999
 40
1.0
 40
1.0
 40
1.0
 40
1.0
 10
187.4152294578329
 20
254.2840142481027
 30
0.0
 10
187.4152294578329
 20
254.9028499941969
 30
0.0
 10
187.4152294578329
 20
255.6210804726862
 30
0.0
 10
187.4152294578329
 20
256.841244271266
 30
0.0
 10
187.4152294578329
 20
257.2721584138047
 30
0.0
 10
187.4152294578329
 20
258.1835246257431
 30
0.0
 10
187.4152294578329
 20
258.6626483628582
 30
0.0
 10
187.4152294578329
 20
260.1388112431429
 30
0.0
 10
187.4152294578329
 20
261.1838181943185
 30
0.0
 10
187.4152294578329
 20
262.842554013337
 30
0.0
 10
187.4152294578329
 20
263.4141846082168
 30
0.0
 10
187.4152294578329
 20
264.5640029304443
 30
0.0
 10
187.4152294578329
 20
265.1440310941026
 30
0.0
 10
187.4152294578329
 20
266.3142759408721
 30
0.0
 10
187.4152294578329
 20
266.9044921212468
 30
0.0
 10
187.4152294578329
 20
267.7974272050748
 30
0.0
 10
187.4152294578329
 20
268.096345893688
 30
0.0
 10
187.4152294578329
 20
268.6967921683868
 30
0.0
 10
187.4152294578329
 20
268.9986826058575
 30
0.0
 10
187.4152294578329
 20
270.4964985400474
 30
0.0
 10
187.4152294578329
 20
271.6721572380681
 30
0.0
 10
187.4152294578329
 20
273.4022987587849
 30
0.0
 10
187.4152294578329
 20
273.9757793200646
 30
0.0
 10
187.4152294578329
 20
275.1002399291785
 30
0.0
 10
187.4152294578329
 20
275.6464454767603
 30
0.0
 10
187.4152294578329
 20
277.2381064189124
 30
0.0
 10
187.4152294578329
 20
278.2376149789305
 30
0.0
 10
187.4152294578329
 20
279.1728199667186
 30
0.0
  0
ARC
  5
C0
330
1F
100
AcDbEntity
  8
0
  6
Continuous
 62
     7
370
    25
100
AcDbCircle
 10
196.4152308526
 20
265.7010747855
 30
0.0
 40
3.005361860104172
100
AcDbArc
 50
188.3879258214
 51
351.6120741786
  0
SPLINE
  5
C1
330
1F
100
AcDbEntity
  8
0
  6
Continuous
 62
     7
370
    25
100
AcDbSpline
210
0.0
220
0.0
230
1.0
 70
     8
 71
     3
 72
    12
 73
     8
 74
     0
 42
0.000000001
 43
0.00000001
 40
0.0
 40
0.0
 40
0.0
 40
0.0
 40
0.2500000000000066
 40
0.2500000000000066
 40
0.5000000000000131
 40
0.5000000000000131
 40
1.0
 40
1.0
 40
1.0
 40
1.0
 10
193.4420157083692
 20
265.2626690398807
 30
0.0
 10
193.4420157083692
 20
265.2465180389441
 30
0.0
 10
193.4606274547156
 20
265.2306639400333
 30
0.0
 10
193.5321608996256
 20
265.201139723178
 30
0.0
 10
193.5851005924971
 20
265.1876362675388
 30
0.0
 10
193.7814431738801
 20
265.1540975944852
 30
0.0
 10
193.964321924641
 20
265.1411153155138
 30
0.0
 10
194.1502791272517
 20
265.1411153155138
 30
0.0
  0
SPLINE
  5
C2
330
1F
100
AcDbEntity
  8
0
  6
Continuous
 62
     7
370
    25
100
AcDbSpline
210
0.0
220
0.0
230
1.0
 70
     8
 71
     3
 72
    12
 73
     8
 74
     0
 42
0.000000001
 43
0.00000001
 40
0.0
 40
0.0
 40
0.0
 40
0.0
 40
0.25
 40
0.25
 40
0.5
 40
0.5
 40
1.0
 40
1.0
 40
1.0
 40
1.0
 10
198.6801797884141
 20
265.1411153155138
 30
0.0
 10
198.7731733476242
 20
265.1411153155138
 30
0.0
 10
198.8644081782276
 20
265.1442093858778
 30
0.0
 10
199.0355148397169
 20
265.1562717863231
 30
0.0
 10
199.1139763014068
 20
265.1652106401978
 30
0.0
 10
199.3106637367167
 20
265.198758350506
 30
0.0
 10
199.3884432072966
 20
265.2303603857937
 30
0.0
 10
199.3884432072966
 20
265.2626690398807
 30
0.0
  0
LINE
  5
C3
330
1F
100
AcDbEntity
  8
0
  6
Continuous
 62
     7
370
    25
100
AcDbLine
 10
198.680181277
 20
265.1411153098
 30
0.0
 11
194.1502804281
 21
265.1411153098
 31
0.0
  0
LINE
  5
C4
330
1F
100
AcDbEntity
  8
0
  6
Continuous
 62
     7
370
    25
100
AcDbLine
 10
199.3884446444
 20
265.2626689711
 30
0.0
 11
193.4420170607
 21
265.2626689711
 31
0.0
  0
ARC
  5
C5
330
1F
100
AcDbEntity
  8
0
  6
Continuous
 62
     7
370
    25
100
AcDbCircle
 10
196.5045670451
 20
265.6565535594
 30
0.0
 40
2.910662436856753
100
AcDbArc
 50
0.0007588663
 51
7.7789292911
  0
ARC
  5
C6
330
1F
100
AcDbEntity
  8
0
  6
Continuous
 62
     7
370
    25
100
AcDbCircle
 10
196.3249122369
 20
265.6565928428
 30
0.0
 40
2.909683738709741
100
AcDbArc
 50
172.2192187261
 51
180.0000144238
  0
SPLINE
  5
C7
330
1F
100
AcDbEntity
  8
0
  6
Continuous
 62
     7
370
    25
100
AcDbSpline
210
0.0
220
0.0
230
1.0
 70
     8
 71
     3
 72
    38
 73
    34
 74
     0
 42
0.000000001
 43
0.00000001
 40
0.0
 40
0.0
 40
0.0
 40
0.0
 40
0.0625000000000001
 40
0.0625000000000001
 40
0.1250000000000001
 40
0.1250000000000001
 40
0.1875000000000001
 40
0.1875000000000001
 40
0.2500000000000001
 40
0.2500000000000001
 40
0.3125000000000001
 40
0.3125000000000001
 40
0.3750000000000001
 40
0.3750000000000001
 40
0.4375000000000001
 40
0.4375000000000001
 40
0.5000000000000001
 40
0.5000000000000001
 40
0.5625
 40
0.5625
 40
0.625
 40
0.625
 40
0.6874999999999999
 40
0.6874999999999999
 40
0.7499999999999999
 40
0.7499999999999999
 40
0.8124999999999999
 40
0.8124999999999999
 40
0.875
 40
0.875
 40
0.9375
 40
0.9375
 40
1.0
 40
1.0
 40
1.0
 40
1.0
 10
193.4152294578329
 20
265.6565921410848
 30
0.0
 10
193.4152294578329
 20
265.8521659007645
 30
0.0
 10
193.4347533106626
 20
266.0450055632461
 30
0.0
 10
193.511178069546
 20
266.4253883128428
 30
0.0
 10
193.5690340812739
 20
266.6149458007381
 30
0.0
 10
193.7197174243821
 20
266.9768073883313
 30
0.0
 10
193.8118693625382
 20
267.1488798813236
 30
0.0
 10
194.0295147778584
 20
267.4753092000929
 30
0.0
 10
194.1559336114431
 20
267.6299823464589
 30
0.0
 10
194.4320537932429
 20
267.9079407000025
 30
0.0
 10
194.5827866688606
 20
268.0331116202434
 30
0.0
 10
194.9104881737143
 20
268.2547783699721
 30
0.0
 10
195.0844604186746
 20
268.3489259702661
 30
0.0
 10
195.4451827242528
 20
268.5007596630476
 30
0.0
 10
195.6346007767212
 20
268.5594783662816
 30
0.0
 10
196.0219636853171
 20
268.6379806682597
 30
0.0
 10
196.2168409703972
 20
268.6574939193223
 30
0.0
 10
196.608939614363
 20
268.6578332613232
 30
0.0
 10
196.8081398452434
 20
268.6380048957735
 30
0.0
 10
197.1931748052732
 20
268.5602338249651
 30
0.0
 10
197.3803592155536
 20
268.502687843847
 30
0.0
 10
197.7440315554511
 20
268.3501761240638
 30
0.0
 10
197.9191241302509
 20
268.2552900093378
 30
0.0
 10
198.2437416128171
 20
268.0361635885969
 30
0.0
 10
198.3956819429258
 20
267.9106983433641
 30
0.0
 10
198.674997202561
 20
267.6297981060485
 30
0.0
 10
198.7988712433628
 20
267.4780758969164
 30
0.0
 10
199.0161894243987
 20
267.1530365045306
 30
0.0
 10
199.1103834396878
 20
266.9775791582682
 30
0.0
 10
199.2610363741526
 20
266.616084528466
 30
0.0
 10
199.3180160537397
 20
266.4302612719863
 30
0.0
 10
199.3952694953329
 20
266.0485999402862
 30
0.0
 10
199.4152294578329
 20
265.8521666867507
 30
0.0
 10
199.4152294578329
 20
265.6565921410853
 30
0.0
  0
LINE
  5
C8
330
1F
100
AcDbEntity
  8
0
  6
Continuous
 62
     7
370
    25
100
AcDbLine
 10
193.4420170607
 20
266.0331505072
 30
0.0
 11
193.4420170607
 21
266.0505152495
 31
0.0
  0
LINE
  5
C9
330
1F
100
AcDbEntity
  8
0
  6
Continuous
 62
     7
370
    25
100
AcDbLine
 10
199.3884446444
 20
266.0331505072
 30
0.0
 11
199.3884446444
 21
266.0505152495
 31
0.0
  0
ARC
  5
CA
330
1F
100
AcDbEntity
  8
0
  6
Continuous
 62
     7
370
    25
100
AcDbCircle
 10
196.3249167903
 20
265.6565916874
 30
0.0
 40
2.909688292115252
100
AcDbArc
 50
179.9999916737
 51
187.7807751764
  0
ARC
  5
CB
330
1F
100
AcDbEntity
  8
0
  6
Continuous
 62
     7
370
    25
100
AcDbCircle
 10
196.5045624879
 20
265.656630971
 30
0.0
 40
2.910666994050865
100
AcDbArc
 50
352.2210768073
 51
359.9992350352
  0
LINE
  5
CC
330
1F
100
AcDbEntity
  8
0
  6
Continuous
 62
     7
370
    25
100
AcDbLine
 10
183.3152288916
 20
285.3492796608
 30
0.0
 11
183.3152288916
 21
251.9492805191
 31
0.0
  0
SPLINE
  5
CD
330
1F
100
AcDbEntity
  8
0
  6
Continuous
 62
     7
370
    25
100
AcDbSpline
210
0.0
220
0.0
230
1.0
 70
     8
 71
     3
 72
    10
 73
     6
 74
     0
 42
0.000000001
 43
0.00000001
 40
0.0
 40
0.0
 40
0.0
 40
0.0
 40
0.5
 40
0.5
 40
1.0
 40
1.0
 40
1.0
 40
1.0
 10
212.7893258671535
 20
283.9735018304578
 30
0.0
 10
212.8168310618285
 20
283.6001154018269
 30
0.0
 10
212.8443438216281
 20
283.2267292158362
 30
0.0
 10
212.8994377216864
 20
282.4558879652752
 30
0.0
 10
212.9270193517989
 20
282.058304387324
 30
0.0
 10
212.9546130408499
 20
281.6495988221963
 30
0.0
  0
LINE
  5
CE
330
1F
100
AcDbEntity
  8
0
  6
Continuous
 62
     7
370
    25
100
AcDbLine
 10
183.8152299049
 20
252.64927933
 30
0.0
 11
183.8152299049
 21
284.6492808499
 31
0.0
  0
SPLINE
  5
CF
330
1F
100
AcDbEntity
  8
0
  6
Continuous
 62
     7
370
    25
100
AcDbSpline
210
0.0
220
0.0
230
1.0
 70
    24
 71
     3
 72
    10
 73
     6
 74
     0
 42
0.000000001
 43
0.00000001
 40
0.0
 40
0.0
 40
0.0
 40
0.0
 40
0.5
 40
0.5
 40
1.0
 40
1.0
 40
1.0
 40
1.0
 10
187.4152294578329
 20
283.6197739489276
 30
0.0
 10
187.4152294578329
 20
283.0822085484978
 30
0.0
 10
187.4152294578329
 20
282.4434441953113
 30
0.0
 10
187.4152294578329
 20
280.9508667874712
 30
0.0
 10
187.4152294578329
 20
280.1093132999002
 30
0.0
 10
187.4152294578329
 20
279.1726255384649
 30
0.0
  0
SPLINE
  5
D0
330
1F
100
AcDbEntity
  8
0
  6
Continuous
 62
     7
370
    25
100
AcDbSpline
210
0.0
220
0.0
230
1.0
 70
    24
 71
     3
 72
    10
 73
     6
 74
     0
 42
0.000000001
 43
0.00000001
 40
0.0
 40
0.0
 40
0.0
 40
0.0
 40
0.5
 40
0.5
 40
1.0
 40
1.0
 40
1.0
 40
1.0
 10
187.4152294578329
 20
252.0242186555414
 30
0.0
 10
187.4152294578329
 20
252.1598723511086
 30
0.0
 10
187.4152294578329
 20
252.4126004159214
 30
0.0
 10
187.4152294578329
 20
253.1668406524527
 30
0.0
 10
187.4152294578329
 20
253.6644726229861
 30
0.0
 10
187.4152294578329
 20
254.2842787656788
 30
0.0
  0
LINE
  5
D1
330
1F
100
AcDbEntity
  8
0
  6
Continuous
 62
     7
370
    25
100
AcDbLine
 10
187.9096666696
 20
251.5221759864
 30
0.0
 11
187.9282856705
 21
251.5195533821
 31
0.0
  0
LINE
  5
D2
330
1F
100
AcDbEntity
  8
0
  6
Continuous
 62
     7
370
    25
100
AcDbLine
 10
187.4349007728
 20
283.8906515577
 30
0.0
 11
187.41523124
 21
283.6197735929
 31
0.0
  0
ARC
  5
D3
330
1F
100
AcDbEntity
  8
0
  6
Continuous
 62
     7
370
    25
100
AcDbCircle
 10
188.3795952159
 20
285.1775437371
 30
0.0
 40
0.3699142654634278
100
AcDbArc
 50
86.8545839363
 51
125.1914190675
  0
SPLINE
  5
D4
330
1F
100
AcDbEntity
  8
0
  6
Continuous
 62
     7
370
    25
100
AcDbSpline
210
0.0
220
0.0
230
1.0
 70
     8
 71
     3
 72
    14
 73
    10
 74
     0
 42
0.000000001
 43
0.00000001
 40
0.0
 40
0.0
 40
0.0
 40
0.0
 40
0.1250000000000035
 40
0.1250000000000035
 40
0.2500000000000069
 40
0.2500000000000069
 40
0.5000000000000047
 40
0.5000000000000047
 40
1.0
 40
1.0
 40
1.0
 40
1.0
 10
188.3998921540172
 20
285.5469011242016
 30
0.0
 10
188.4378134072204
 20
285.5757311230073
 30
0.0
 10
188.4780969305947
 20
285.6031469755252
 30
0.0
 10
188.5616216092018
 20
285.653995747023
 30
0.0
 10
188.605151910281
 20
285.6776485925623
 30
0.0
 10
188.7410078210109
 20
285.7435070512026
 30
0.0
 10
188.838594873734
 20
285.7806239490053
 30
0.0
 10
189.1521835524014
 20
285.87292181484
 30
0.0
 10
189.3889695740227
 20
285.909128627899
 30
0.0
 10
189.6534423535441
 20
285.9222015226212
 30
0.0
  0
LINE
  5
D5
330
1F
100
AcDbEntity
  8
0
  6
Continuous
 62
     7
370
    25
100
AcDbLine
 10
189.6534415307
 20
285.9222013691
 30
0.0
 11
190.3967338028
 21
285.826001335
 31
0.0
  0
ARC
  5
D6
330
1F
100
AcDbEntity
  8
0
  6
Continuous
 62
     7
370
    25
100
AcDbCircle
 10
141.3152294578
 20
268.64928009
 30
0.0
 40
25.0
100
AcDbArc
 50
42.8436430436
 51
90.0
  0
ARC
  5
D7
330
1F
100
AcDbEntity
  8
0
  6
Continuous
 62
     7
370
    25
100
AcDbCircle
 10
141.3152294578
 20
268.64928009
 30
0.0
 40
25.00000000000008
100
AcDbArc
 50
296.1038811373
 51
317.1563569564
  0
ARC
  5
D8
330
1F
100
AcDbEntity
  8
0
  6
Continuous
 62
     7
370
    25
100
AcDbCircle
 10
141.3152294578
 20
268.64928009
 30
0.0
 40
25.00000000000002
100
AcDbArc
 50
90.0
 51
243.8961188627
  0
SPLINE
  5
D9
330
1F
100
AcDbEntity
  8
0
  6
Continuous
 62
     8
370
    18
100
AcDbSpline
210
0.0
220
0.0
230
1.0
 70
     8
 71
     3
 72
    13
 73
     9
 74
     0
 42
0.000000001
 43
0.00000001
 40
0.0
 40
0.0
 40
0.0
 40
0.0
 40
0.0774149082215317
 40
0.2313556073714766
 40
0.3853884975901354
 40
0.5396565565509456
 40
0.6939820530703661
 40
1.0
 40
1.0
 40
1.0
 40
1.0
 10
213.5152073921934
 20
272.8134999238997
 30
0.0
 10
213.519320414153
 20
272.7469980201713
 30
0.0
 10
213.531612241599
 20
272.5482560894258
 30
0.0
 10
213.5547346191879
 20
271.7765495378307
 30
0.0
 10
213.579625352563
 20
270.4998807062235
 30
0.0
 10
213.5994607843446
 20
268.8066649037563
 30
0.0
 10
213.6157203003248
 20
266.3948445622931
 30
0.0
 10
213.6186176549583
 20
264.608214615496
 30
0.0
 10
213.6205437006727
 20
263.4205343389064
 30
0.0
  0
SPLINE
  5
DA
330
1F
100
AcDbEntity
  8
0
  6
Continuous
 62
     8
370
    18
100
AcDbSpline
210
0.0
220
0.0
230
1.0
 70
     8
 71
     3
 72
    14
 73
    10
 74
     0
 42
0.000000001
 43
0.00000001
 40
0.0
 40
0.0
 40
0.0
 40
0.0
 40
0.25
 40
0.25
 40
0.5
 40
0.5
 40
0.75
 40
0.75
 40
1.0
 40
1.0
 40
1.0
 40
1.0
 10
212.6322718643711
 20
263.2637138747216
 30
0.0
 10
212.7430924960606
 20
263.2633744654594
 30
0.0
 10
212.8627419834573
 20
263.2664360492868
 30
0.0
 10
213.0962559188129
 20
263.2811582043672
 30
0.0
 10
213.2094913106379
 20
263.292866995823
 30
0.0
 10
213.4007217354275
 20
263.3232022803448
 30
0.0
 10
213.4781441634829
 20
263.3417379398387
 30
0.0
 10
213.5838404471721
 20
263.3808254134287
 30
0.0
 10
213.6123327795418
 20
263.4012638791677
 30
0.0
 10
213.6205408631083
 20
263.4204850583768
 30
0.0
  0
SPLINE
  5
DB
330
1F
100
AcDbEntity
  8
0
  6
Continuous
 62
     8
370
    18
100
AcDbSpline
210
0.0
220
0.0
230
1.0
 70
     8
 71
     3
 72
    26
 73
    22
 74
     0
 42
0.000000001
 43
0.00000001
 40
0.0
 40
0.0
 40
0.0
 40
0.0
 40
0.0678485683431966
 40
0.130651317879429
 40
0.1880471858083816
 40
0.2400170534399105
 40
0.2867758216693039
 40
0.3285575802801323
 40
0.3656443777765529
 40
0.3982984221237676
 40
0.4267363743347318
 40
0.4511226759560107
 40
0.4715701018070572
 40
0.488146224636752
 40
0.5008837497436988
 40
0.578209412009765
 40
0.657135289591555
 40
0.7387678668123221
 40
0.8234605356536318
 40
0.9109250911680279
 40
1.0
 40
1.0
 40
1.0
 40
1.0
 10
212.6322718433012
 20
263.2637637523546
 30
0.0
 10
212.6321096826174
 20
263.6160467970993
 30
0.0
 10
212.6317974209506
 20
264.2944140078807
 30
0.0
 10
212.6305368715961
 20
265.2762337287699
 30
0.0
 10
212.6282217296696
 20
266.1804619773164
 30
0.0
 10
212.6245677585478
 20
267.0037785606979
 30
0.0
 10
212.6203922460514
 20
267.7437599524337
 30
0.0
 10
212.6161982692562
 20
268.399584180244
 30
0.0
 10
212.6121006867163
 20
268.972965437939
 30
0.0
 10
212.6082277612899
 20
269.4672613393139
 30
0.0
 10
212.6046540946702
 20
269.8867955208414
 30
0.0
 10
212.6014355435503
 20
270.23636637431
 30
0.0
 10
212.5985869398261
 20
270.5208651456127
 30
0.0
 10
212.5961648870104
 20
270.7449664397315
 30
0.0
 10
212.590325089785
 20
271.2131635332084
 30
0.0
 10
212.5801676565609
 20
271.894082223459
 30
0.0
 10
212.5658502449648
 20
272.6744380155089
 30
0.0
 10
212.5500734755512
 20
273.2950436092472
 30
0.0
 10
212.5323998650274
 20
273.7512165236855
 30
0.0
 10
212.5134271446981
 20
274.0911246666064
 30
0.0
 10
212.5002002883799
 20
274.2695992422256
 30
0.0
 10
212.4935265340155
 20
274.3596505325191
 30
0.0
  0
SPLINE
  5
DC
330
1F
100
AcDbEntity
  8
0
  6
Continuous
 62
     8
370
    18
100
AcDbSpline
210
0.0
220
0.0
230
1.0
 70
     8
 71
     3
 72
    14
 73
    10
 74
     0
 42
0.000000001
 43
0.00000001
 40
0.0
 40
0.0
 40
0.0
 40
0.0
 40
0.25
 40
0.25
 40
0.5
 40
0.5
 40
0.75
 40
0.75
 40
1.0
 40
1.0
 40
1.0
 40
1.0
 10
212.4935266541897
 20
274.3596495207503
 30
0.0
 10
212.6042747169786
 20
274.3648258963546
 30
0.0
 10
212.724598115711
 20
274.3506502866322
 30
0.0
 10
212.9599929504841
 20
274.2719048502912
 30
0.0
 10
213.074372746476
 20
274.2070036888546
 30
0.0
 10
213.2664741805096
 20
274.0361878924955
 30
0.0
 10
213.343556869925
 20
273.9308414080347
 30
0.0
 10
213.4466388319946
 20
273.7086146840552
 30
0.0
 10
213.4729054592164
 20
273.5924430522402
 30
0.0
 10
213.4786141713499
 20
273.4837137966177
 30
0.0
  0
SPLINE
  5
DD
330
1F
100
AcDbEntity
  8
0
  6
Continuous
 62
     8
370
    18
100
AcDbSpline
210
0.0
220
0.0
230
1.0
 70
     8
 71
     3
 72
    15
 73
    11
 74
     0
 42
0.000000001
 43
0.00000001
 40
0.0
 40
0.0
 40
0.0
 40
0.0
 40
0.2499999999999999
 40
0.2499999999999999
 40
0.4999999999999999
 40
0.4999999999999999
 40
0.7499999999999998
 40
0.7499999999999998
 40
0.8124999999999998
 40
1.0
 40
1.0
 40
1.0
 40
1.0
 10
209.4762202718516
 20
270.7225655257517
 30
0.0
 10
209.4999417605939
 20
270.5720905459937
 30
0.0
 10
209.5225010991065
 20
270.2706830894977
 30
0.0
 10
209.563492439809
 20
269.4373012074458
 30
0.0
 10
209.5819244419989
 20
268.9053267818901
 30
0.0
 10
209.6128580741932
 20
267.6821089461356
 30
0.0
 10
209.6253597041976
 20
266.9908655359367
 30
0.0
 10
209.6361533616727
 20
266.0718293980466
 30
0.0
 10
209.6438216116467
 20
265.3256041127062
 30
0.0
 10
209.6473977781136
 20
264.5443055753046
 30
0.0
 10
209.6473977781136
 20
263.9536423865567
 30
0.0
  0
SPLINE
  5
DE
330
1F
100
AcDbEntity
  8
0
  6
Continuous
 62
     8
370
    18
100
AcDbSpline
210
0.0
220
0.0
230
1.0
 70
     8
 71
     3
 72
     8
 73
     4
 74
     0
 42
0.000000001
 43
0.00000001
 40
0.0
 40
0.0
 40
0.0
 40
0.0
 40
0.9713459882870077
 40
0.9713459882870077
 40
0.9713459882870077
 40
0.9713459882870077
 10
209.6473977781136
 20
263.9536423865567
 30
0.0
 10
209.7107864034709
 20
263.5827671761206
 30
0.0
 10
210.6759394850494
 20
263.2769656783359
 30
0.0
 10
212.6305828775274
 20
263.2637750756039
 30
0.0
  0
SPLINE
  5
DF
330
1F
100
AcDbEntity
  8
0
  6
Continuous
 62
     8
370
    18
100
AcDbSpline
210
0.0
220
0.0
230
1.0
 70
     8
 71
     3
 72
     8
 73
     4
 74
     0
 42
0.000000001
 43
0.00000001
 40
0.0
 40
0.0
 40
0.0
 40
0.0
 40
1.0
 40
1.0
 40
1.0
 40
1.0
 10
213.6205496590911
 20
263.4164703180455
 30
0.0
 10
213.6247646450083
 20
261.3534385070692
 30
0.0
 10
213.6268120521153
 20
259.272601175906
 30
0.0
 10
213.6267150372441
 20
257.1741491845129
 30
0.0
  0
ARC
  5
E0
330
1F
100
AcDbEntity
  8
0
  6
Continuous
 62
     8
370
    18
100
AcDbCircle
 10
212.8575150773
 20
258.8567399008
 30
0.0
 40
1.850074771709537
100
AcDbArc
 50
263.1110369675
 51
294.5675479562
  0
LINE
  5
E1
330
1F
100
AcDbEntity
  8
0
  6
Continuous
 62
     8
370
    18
100
AcDbLine
 10
212.6356067481
 20
257.0200320521
 30
0.0
 11
212.6322763386
 21
263.2598607057
 31
0.0
  0
SPLINE
  5
E2
330
1F
100
AcDbEntity
  8
0
  6
Continuous
 62
     8
370
    18
100
AcDbSpline
210
0.0
220
0.0
230
1.0
 70
     8
 71
     3
 72
     8
 73
     4
 74
     0
 42
0.000000001
 43
0.00000001
 40
0.0
 40
0.0
 40
0.0
 40
0.0
 40
0.9713459882870077
 40
0.9713459882870077
 40
0.9713459882870077
 40
0.9713459882870077
 10
209.6473977781136
 20
251.3561129106174
 30
0.0
 10
209.7107864034709
 20
250.9852377001813
 30
0.0
 10
210.6759394850494
 20
250.7835536526252
 30
0.0
 10
212.6305828775274
 20
250.7763298151701
 30
0.0
  0
LINE
  5
E3
330
1F
100
AcDbEntity
  8
0
  6
Continuous
 62
     8
370
    18
100
AcDbLine
 10
209.6473949375
 20
251.3561137208
 30
0.0
 11
209.6473949375
 21
263.9536424727
 31
0.0
  0
SPLINE
  5
E4
330
1F
100
AcDbEntity
  8
0
  6
Continuous
 62
     8
370
    18
100
AcDbSpline
210
0.0
220
0.0
230
1.0
 70
     8
 71
     3
 72
     8
 73
     4
 74
     0
 42
0.000000001
 43
0.00000001
 40
0.0
 40
0.0
 40
0.0
 40
0.0
 40
1.0
 40
1.0
 40
1.0
 40
1.0
 10
212.6322742578182
 20
250.7802264769217
 30
0.0
 10
212.6345092772043
 20
252.8601548981852
 30
0.0
 10
212.6356090357548
 20
254.9400856996581
 30
0.0
 10
212.635603158557
 20
257.0200220511391
 30
0.0
  0
SPLINE
  5
E5
330
1F
100
AcDbEntity
  8
0
  6
Continuous
 62
     8
370
    18
100
AcDbSpline
210
0.0
220
0.0
230
1.0
 70
     8
 71
     3
 72
     9
 73
     5
 74
     0
 42
0.000000001
 43
0.00000001
 40
0.0
 40
0.0
 40
0.0
 40
0.0
 40
0.2246219698097757
 40
1.0
 40
1.0
 40
1.0
 40
1.0
 10
213.7704940857664
 20
264.3742496335059
 30
0.0
 10
213.7748526255549
 20
264.301178138519
 30
0.0
 10
213.794256514641
 20
263.9758693762076
 30
0.0
 10
213.6964151758197
 20
263.6607821926089
 30
0.0
 10
213.6205511512533
 20
263.416470512852
 30
0.0
  0
SPLINE
  5
E6
330
1F
100
AcDbEntity
  8
0
  6
Continuous
 62
     8
370
    18
100
AcDbSpline
210
0.0
220
0.0
230
1.0
 70
     8
 71
     3
 72
     9
 73
     5
 74
     0
 42
0.000000001
 43
0.00000001
 40
0.0
 40
0.0
 40
0.0
 40
0.0
 40
0.8462008343873049
 40
1.0
 40
1.0
 40
1.0
 40
1.0
 10
213.6267127814069
 20
257.1741491743475
 30
0.0
 10
213.719833965103
 20
257.452020648407
 30
0.0
 10
213.8298801620716
 20
257.7803959734688
 30
0.0
 10
213.8148106820454
 20
258.109151510992
 30
0.0
 10
213.8124930085912
 20
258.1597138383537
 30
0.0
  0
SPLINE
  5
E7
330
1F
100
AcDbEntity
  8
0
  6
Continuous
 62
     8
370
    18
100
AcDbSpline
210
0.0
220
0.0
230
1.0
 70
     8
 71
     3
 72
     8
 73
     4
 74
     0
 42
0.000000001
 43
0.00000001
 40
0.0
 40
0.0
 40
0.0
 40
0.0
 40
1.0
 40
1.0
 40
1.0
 40
1.0
 10
213.6267150372441
 20
257.174149184513
 30
0.0
 10
213.6267253491436
 20
255.0935717646693
 30
0.0
 10
213.6247198968349
 20
253.0131861945152
 30
0.0
 10
213.620549659091
 20
250.9329574195309
 30
0.0
  0
SPLINE
  5
E8
330
1F
100
AcDbEntity
  8
0
  6
Continuous
 62
     8
370
    18
100
AcDbSpline
210
0.0
220
0.0
230
1.0
 70
     8
 71
     3
 72
    14
 73
    10
 74
     0
 42
0.000000001
 43
0.00000001
 40
0.0
 40
0.0
 40
0.0
 40
0.0
 40
0.25
 40
0.25
 40
0.5
 40
0.5
 40
0.75
 40
0.75
 40
1.0
 40
1.0
 40
1.0
 40
1.0
 10
213.620549659091
 20
250.9329574195309
 30
0.0
 10
213.6123399285581
 20
250.9137679324388
 30
0.0
 10
213.5838459725263
 20
250.8934443477047
 30
0.0
 10
213.4781473238687
 20
250.8547868147998
 30
0.0
 10
213.400724148522
 20
250.8365671174346
 30
0.0
 10
213.2094930941453
 20
250.8070137164762
 30
0.0
 10
213.0962577966155
 20
250.7957685012863
 30
0.0
 10
212.8627441794565
 20
250.7820031882557
 30
0.0
 10
212.7430948888364
 20
250.7794322866219
 30
0.0
 10
212.6322742578182
 20
250.7802264769217
 30
0.0
  0
SPLINE
  5
E9
330
1F
100
AcDbEntity
  8
0
  6
Continuous
 62
     8
370
    18
100
AcDbSpline
210
0.0
220
0.0
230
1.0
 70
     8
 71
     3
 72
     9
 73
     5
 74
     0
 42
0.000000001
 43
0.00000001
 40
0.0
 40
0.0
 40
0.0
 40
0.0
 40
0.1208714179304965
 40
1.0
 40
1.0
 40
1.0
 40
1.0
 10
213.7741448702589
 20
251.7834305950551
 30
0.0
 10
213.7757726678162
 20
251.7498057640727
 30
0.0
 10
213.7892398512508
 20
251.4716189804797
 30
0.0
 10
213.699470209297
 20
251.184964309888
 30
0.0
 10
213.6205511512533
 20
250.9329579957872
 30
0.0
  0
SPLINE
  5
EA
330
1F
100
AcDbEntity
  8
0
  6
Continuous
 62
     8
370
    18
100
AcDbSpline
210
0.0
220
0.0
230
1.0
 70
     8
 71
     3
 72
    13
 73
     9
 74
     0
 42
0.000000001
 43
0.00000001
 40
0.0
 40
0.0
 40
0.0
 40
0.0
 40
0.3030865416033994
 40
0.4668425522514723
 40
0.6364200548741171
 40
0.8058462758081548
 40
0.9694813569472067
 40
1.0
 40
1.0
 40
1.0
 40
1.0
 10
212.6322688879743
 20
250.776324439898
 30
0.0
 10
212.631273311525
 20
249.53405030345
 30
0.0
 10
212.6297398305328
 20
247.6205822049085
 30
0.0
 10
212.6148263949054
 20
245.253386549078
 30
0.0
 10
212.5948399471336
 20
243.7177540323967
 30
0.0
 10
212.5690499152983
 20
242.8638230726378
 30
0.0
 10
212.5494516037409
 20
242.5489715059616
 30
0.0
 10
212.5389925321209
 20
242.6360742020019
 30
0.0
 10
212.5373484911695
 20
242.6497657039314
 30
0.0
  0
SPLINE
  5
EB
330
1F
100
AcDbEntity
  8
0
  6
Continuous
 62
     8
370
    18
100
AcDbSpline
210
0.0
220
0.0
230
1.0
 70
     8
 71
     3
 72
    19
 73
    15
 74
     0
 42
0.000000001
 43
0.00000001
 40
0.0
 40
0.0
 40
0.0
 40
0.0
 40
0.25
 40
0.375
 40
0.375
 40
0.5
 40
0.5
 40
0.625
 40
0.625
 40
0.75
 40
0.75
 40
0.875
 40
0.875
 40
1.0
 40
1.0
 40
1.0
 40
1.0
 10
213.6205407451506
 20
250.928895740296
 30
0.0
 10
213.6190514690845
 20
250.1929667855069
 30
0.0
 10
213.617282789295
 20
249.0817301933272
 30
0.0
 10
213.6134056254488
 20
248.0044019132498
 30
0.0
 10
213.6100404824809
 20
247.2987096905651
 30
0.0
 10
213.6079281185084
 20
246.9506094227928
 30
0.0
 10
213.6027245529689
 20
246.2795834761255
 30
0.0
 10
213.5996645659595
 20
245.9582738621814
 30
0.0
 10
213.592582582786
 20
245.3582702540191
 30
0.0
 10
213.5885596621139
 20
245.0787762283989
 30
0.0
 10
213.5798040536134
 20
244.5864329984069
 30
0.0
 10
213.5750725663892
 20
244.3758264982663
 30
0.0
 10
213.5649840372056
 20
244.0248583502795
 30
0.0
 10
213.5596620779558
 20
243.8844082965251
 30
0.0
 10
213.5542558873351
 20
243.7791632061159
 30
0.0
  0
SPLINE
  5
EC
330
1F
100
AcDbEntity
  8
0
  6
Continuous
 62
     8
370
    18
100
AcDbSpline
210
0.0
220
0.0
230
1.0
 70
     8
 71
     3
 72
    25
 73
    21
 74
     0
 42
0.000000001
 43
0.00000001
 40
0.0
 40
0.0
 40
0.0
 40
0.0
 40
0.0250589759447465
 40
0.0500575582109446
 40
0.0750335794281373
 40
0.100024974686602
 40
0.1250696092155614
 40
0.1875614723609774
 40
0.2500981875039306
 40
0.312590050649201
 40
0.3751267657923226
 40
0.5000068718782872
 40
0.624886977964253
 40
0.6873788411074878
 40
0.7499155562526264
 40
0.8124074193962505
 40
0.8749441345410184
 40
0.9166288318971606
 40
0.9582555339258156
 40
1.0
 40
1.0
 40
1.0
 40
1.0
 10
209.6473977781136
 20
251.3561129106174
 30
0.0
 10
209.6473723593605
 20
251.2813366867923
 30
0.0
 10
209.6473215831149
 20
251.1319644544564
 30
0.0
 10
209.6469132601318
 20
250.9103448323162
 30
0.0
 10
209.646261525631
 20
250.6910310599778
 30
0.0
 10
209.6453425888422
 20
250.4741575528863
 30
0.0
 10
209.643577211956
 20
250.1531400379596
 30
0.0
 10
209.6403221013306
 20
249.7358919266238
 30
0.0
 10
209.6346706412429
 20
249.2397375388825
 30
0.0
 10
209.6275048264306
 20
248.7728183183563
 30
0.0
 10
209.616013778117
 20
248.1964484630846
 30
0.0
 10
209.5981996769017
 20
247.5700247216311
 30
0.0
 10
209.5764594678951
 20
247.0951706289495
 30
0.0
 10
209.5572447385862
 20
246.8166075896165
 30
0.0
 10
209.5420282863302
 20
246.6602653471303
 30
0.0
 10
209.5261678508065
 20
246.5575945695613
 30
0.0
 10
209.5116241911363
 20
246.5153340990924
 30
0.0
 10
209.4986860017215
 20
246.5145264626575
 30
0.0
 10
209.4874861650729
 20
246.5368640241909
 30
0.0
 10
209.4799791042347
 20
246.5724353276393
 30
0.0
 10
209.4762202718516
 20
246.5902461020809
 30
0.0
  0
LINE
  5
ED
330
1F
100
AcDbEntity
  8
0
  6
Continuous
 62
     8
370
    18
100
AcDbLine
 10
208.2855331125
 20
252.9702149519
 30
0.0
 11
209.4762178483
 21
246.5902455338
 31
0.0
  0
SPLINE
  5
EE
330
1F
100
AcDbEntity
  8
0
  6
Continuous
 62
     8
370
    18
100
AcDbSpline
210
0.0
220
0.0
230
1.0
 70
     8
 71
     3
 72
    11
 73
     7
 74
     0
 42
0.000000001
 43
0.00000001
 40
0.0
 40
0.0
 40
0.0
 40
0.0
 40
0.125
 40
0.25
 40
0.375
 40
0.5
 40
0.5
 40
0.5
 40
0.5
 10
208.2855340766731
 20
252.97021556791
 30
0.0
 10
208.3057933082673
 20
253.7590564840586
 30
0.0
 10
208.3419196107588
 20
255.4704221698681
 30
0.0
 10
208.3817235686318
 20
258.3691577585818
 30
0.0
 10
208.4059330168669
 20
261.5302159067568
 30
0.0
 10
208.4114037480056
 20
263.7570371023008
 30
0.0
 10
208.4114037480055
 20
264.8864518218762
 30
0.0
  0
SPLINE
  5
EF
330
1F
100
AcDbEntity
  8
0
  6
Continuous
 62
     8
370
    18
100
AcDbSpline
210
0.0
220
0.0
230
1.0
 70
     8
 71
     3
 72
    23
 73
    19
 74
     0
 42
0.000000001
 43
0.00000001
 40
0.0
 40
0.0
 40
0.0
 40
0.0
 40
0.0313039980728353
 40
0.0625695616560748
 40
0.0938090852712915
 40
0.125034994448263
 40
0.156259730969901
 40
0.1874957380203814
 40
0.2187554453248989
 40
0.2500512543696443
 40
0.3750255712466471
 40
0.5000263511179884
 40
0.6249949244172099
 40
0.7499910790258867
 40
0.8125267088683363
 40
0.8749736977766809
 40
0.9374316206037931
 40
1.0
 40
1.0
 40
1.0
 40
1.0
 10
208.2855340766731
 20
278.2755687568749
 30
0.0
 10
208.2880508149694
 20
278.1467561376772
 30
0.0
 10
208.2930812015557
 20
277.8892890531144
 30
0.0
 10
208.3003617092363
 20
277.498580392103
 30
0.0
 10
208.3074406099917
 20
277.1049476702091
 30
0.0
 10
208.3142994152106
 20
276.7080445692013
 30
0.0
 10
208.3209430719366
 20
276.3079635404788
 30
0.0
 10
208.3273702410638
 20
275.9046818584112
 30
0.0
 10
208.3335813161252
 20
275.4981991634843
 30
0.0
 10
208.3455535560426
 20
274.6800593122983
 30
0.0
 10
208.3618314227663
 20
273.4332423056589
 30
0.0
 10
208.37975636025
 20
271.7408345561729
 30
0.0
 10
208.3938368617115
 20
270.0286315922753
 30
0.0
 10
208.4022561712132
 20
268.5940807171615
 30
0.0
 10
208.4069968528484
 20
267.4479244645687
 30
0.0
 10
208.4095216512528
 20
266.5904407935334
 30
0.0
 10
208.4111024799267
 20
265.7356501640039
 30
0.0
 10
208.4112977528092
 20
265.1697168642248
 30
0.0
 10
208.411395475509
 20
264.8865002227353
 30
0.0
  0
LINE
  5
F0
330
1F
100
AcDbEntity
  8
0
  6
Continuous
 62
     8
370
    18
100
AcDbLine
 10
208.2855331125
 20
278.2755689883
 30
0.0
 11
209.4762178483
 21
270.7225654927
 31
0.0
  0
SPLINE
  5
F1
330
1F
100
AcDbEntity
  8
0
  6
Continuous
 62
     8
370
    18
100
AcDbSpline
210
0.0
220
0.0
230
1.0
 70
     8
 71
     3
 72
    14
 73
    10
 74
     0
 42
0.000000001
 43
0.00000001
 40
0.0
 40
0.0
 40
0.0
 40
0.0
 40
0.5000000000000004
 40
0.5000000000000004
 40
0.7500000000000002
 40
0.7500000000000002
 40
0.8750000000000001
 40
0.8750000000000001
 40
1.0
 40
1.0
 40
1.0
 40
1.0
 10
212.4932322933236
 20
274.3639094280622
 30
0.0
 10
212.4056321814158
 20
275.7314128570472
 30
0.0
 10
212.318451535844
 20
277.0988951318302
 30
0.0
 10
212.188294625709
 20
279.1500873580055
 30
0.0
 10
212.14497977749
 20
279.8338145069069
 30
0.0
 10
212.0802130159136
 20
280.8593946414227
 30
0.0
 10
212.0586490391479
 20
281.2033992197111
 30
0.0
 10
212.0157161499678
 20
281.8771623587691
 30
0.0
 10
211.9943889995837
 20
282.2074750500268
 30
0.0
 10
211.9731730222834
 20
282.5312090088421
 30
0.0
  0
SPLINE
  5
F2
330
1F
100
AcDbEntity
  8
0
  6
Continuous
 62
     8
370
    18
100
AcDbSpline
210
0.0
220
0.0
230
1.0
 70
     8
 71
     3
 72
    14
 73
    10
 74
     0
 42
0.000000001
 43
0.00000001
 40
0.0
 40
0.0
 40
0.0
 40
0.0
 40
0.25
 40
0.25
 40
0.5
 40
0.5
 40
0.75
 40
0.75
 40
1.0
 40
1.0
 40
1.0
 40
1.0
 10
211.9731743701073
 20
282.5311571735975
 30
0.0
 10
212.0839981543145
 20
282.5345023861668
 30
0.0
 10
212.2037713929085
 20
282.5185557440302
 30
0.0
 10
212.4373784754469
 20
282.4373307186403
 30
0.0
 10
212.5505607005158
 20
282.3717587513503
 30
0.0
 10
212.7409535534143
 20
282.2006937036635
 30
0.0
 10
212.8175738689905
 20
282.095731573711
 30
0.0
 10
212.920954872325
 20
281.8741983435315
 30
0.0
 10
212.9479308274177
 20
281.7582996794817
 30
0.0
 10
212.9546247641132
 20
281.6494078367882
 30
0.0
  0
SPLINE
  5
F3
330
1F
100
AcDbEntity
  8
0
  6
Continuous
 62
     8
370
    18
100
AcDbSpline
210
0.0
220
0.0
230
1.0
 70
     8
 71
     3
 72
    42
 73
    38
 74
     0
 42
0.000000001
 43
0.00000001
 40
0.0
 40
0.0
 40
0.0
 40
0.0
 40
0.024997757995072
 40
0.0496114380972495
 40
0.0738530896451391
 40
0.0977040124089097
 40
0.1249568632632002
 40
0.1779139835438727
 40
0.218599973946117
 40
0.2451543209303344
 40
0.2582784801489424
 40
0.3100051152953531
 40
0.348151238776227
 40
0.3607558431533526
 40
0.3857999518799201
 40
0.4629765015569892
 40
0.4757852780943729
 40
0.5013553190927815
 40
0.5396878100942044
 40
0.5653008753833012
 40
0.59098884460629
 40
0.6112019143974462
 40
0.6179514220775186
 40
0.6449919538281809
 40
0.6995752818112603
 40
0.7129237934561753
 40
0.7397764946302959
 40
0.7532594606437059
 40
0.7600108320198758
 40
0.7803729150208534
 40
0.8334762920819558
 40
0.8464362531787126
 40
0.8725631452571448
 40
0.8856399348715852
 40
0.8988145293933817
 40
0.948883523662055
 40
0.9999999999999999
 40
0.9999999999999999
 40
0.9999999999999999
 40
0.9999999999999999
 10
211.9723781418727
 20
282.5311279316373
 30
0.0
 10
211.9139426032825
 20
282.5285631248865
 30
0.0
 10
211.7979693585614
 20
282.5234729183421
 30
0.0
 10
211.6260919068576
 20
282.5085471937419
 30
0.0
 10
211.4578888409836
 20
282.4883615581374
 30
0.0
 10
211.2850433681253
 20
282.4611231165525
 30
0.0
 10
211.0491285826275
 20
282.4141909461028
 30
0.0
 10
210.781315933691
 20
282.3421505720976
 30
0.0
 10
210.5258652735699
 20
282.2501137375181
 30
0.0
 10
210.3613248236233
 20
282.1789823990339
 30
0.0
 10
210.178828367033
 20
282.0918299681753
 30
0.0
 10
209.9818650813423
 20
281.9821459409471
 30
0.0
 10
209.7997942893362
 20
281.8586281447962
 30
0.0
 10
209.6712029409707
 20
281.7617177879861
 30
0.0
 10
209.4833187788132
 20
281.6088534596947
 30
0.0
 10
209.3138765452647
 20
281.4398230599418
 30
0.0
 10
209.160997665817
 20
281.2592191056315
 30
0.0
 10
209.0642537927492
 20
281.1362698542748
 30
0.0
 10
208.9605360584207
 20
280.9873103943202
 30
0.0
 10
208.8656831223736
 20
280.8332556791182
 30
0.0
 10
208.795625837535
 20
280.7074257148455
 30
0.0
 10
208.7476821190055
 20
280.6130508808993
 30
0.0
 10
208.7006224516387
 20
280.5152490904956
 30
0.0
 10
208.6279860815689
 20
280.353268771329
 30
0.0
 10
208.5607912429836
 20
280.1744538802633
 30
0.0
 10
208.5022697131172
 20
279.9928574124242
 30
0.0
 10
208.4719375800733
 20
279.888966934759
 30
0.0
 10
208.447737788779
 20
279.7970060263492
 30
0.0
 10
208.4279114492957
 20
279.7173982729256
 30
0.0
 10
208.391426267131
 20
279.5591809895273
 30
0.0
 10
208.3598412362791
 20
279.386222731415
 30
0.0
 10
208.3331696650081
 20
279.199811638747
 30
0.0
 10
208.3203944049863
 20
279.0937017839469
 30
0.0
 10
208.3098173795104
 20
278.9866161324548
 30
0.0
 10
208.2966201372321
 20
278.8300583003376
 30
0.0
 10
208.2837801026057
 20
278.5937309187253
 30
0.0
 10
208.284933009082
 20
278.3823660202409
 30
0.0
 10
208.2855154298214
 20
278.2755895357586
 30
0.0
  0
LINE
  5
F4
330
1F
100
AcDbEntity
  8
0
  6
Continuous
 62
     8
370
    18
100
AcDbLine
 10
208.2855331125
 20
252.9702149519
 30
0.0
 11
208.3893867554
 21
252.2615436652
 31
0.0
  0
SPLINE
  5
F5
330
1F
100
AcDbEntity
  8
0
  6
Continuous
 62
     8
370
    18
100
AcDbSpline
210
0.0
220
0.0
230
1.0
 70
     8
 71
     3
 72
    15
 73
    11
 74
     0
 42
0.000000001
 43
0.00000001
 40
0.0
 40
0.0
 40
0.0
 40
0.0
 40
0.1474035250496621
 40
0.2884370140612962
 40
0.4230928124437884
 40
0.5513595390955174
 40
0.6731999035193755
 40
0.7886026228262107
 40
0.8975360068502837
 40
0.9999999999999999
 40
0.9999999999999999
 40
0.9999999999999999
 40
0.9999999999999999
 10
211.9729205179754
 20
282.5311466021413
 30
0.0
 10
211.9651594735148
 20
282.6525234059804
 30
0.0
 10
211.9499727777458
 20
282.8900317210895
 30
0.0
 10
211.9305668616072
 20
283.2316593434313
 30
0.0
 10
211.9137124758625
 20
283.5531726434025
 30
0.0
 10
211.8996045591855
 20
283.8540755727547
 30
0.0
 10
211.8855870156725
 20
284.1375092480677
 30
0.0
 10
211.8720829365606
 20
284.4027789113628
 30
0.0
 10
211.8570189682464
 20
284.652721281777
 30
0.0
 10
211.8453338154449
 20
284.8132933003575
 30
0.0
 10
211.8396700393252
 20
284.8911223180673
 30
0.0
  0
ARC
  5
F6
330
1F
100
AcDbEntity
  8
0
  6
Continuous
 62
     8
370
    18
100
AcDbCircle
 10
196.4152289899
 20
265.4979573786
 30
0.0
 40
2.405362632530075
100
AcDbArc
 50
10.3222751712
 51
169.6777248288
  0
ARC
  5
F7
330
1F
100
AcDbEntity
  8
0
  6
Continuous
 62
     8
370
    18
100
AcDbCircle
 10
196.4152308526
 20
265.5708840979
 30
0.0
 40
2.305363666837962
100
AcDbArc
 50
190.7440059501
 51
349.2559940499
  0
LINE
  5
F8
330
1F
100
AcDbEntity
  8
0
  6
Continuous
 62
     8
370
    18
100
AcDbLine
 10
198.8152305009
 20
265.6565921103
 30
0.0
 11
199.4152294817
 21
265.6565921103
 31
0.0
  0
LINE
  5
F9
330
1F
100
AcDbEntity
  8
0
  6
Continuous
 62
     8
370
    18
100
AcDbLine
 10
198.7393873157
 20
265.9289615882
 30
0.0
 11
198.8152305009
 21
265.6565921103
 31
0.0
  0
LINE
  5
FA
330
1F
100
AcDbEntity
  8
0
  6
Continuous
 62
     8
370
    18
100
AcDbLine
 10
194.0152312042
 20
265.6565921103
 30
0.0
 11
198.8152305009
 21
265.6565921103
 31
0.0
  0
LINE
  5
FB
330
1F
100
AcDbEntity
  8
0
  6
Continuous
 62
     8
370
    18
100
AcDbLine
 10
194.0152312042
 20
265.6565921103
 30
0.0
 11
194.0910743894
 21
265.9289615882
 31
0.0
  0
LINE
  5
FC
330
1F
100
AcDbEntity
  8
0
  6
Continuous
 62
     8
370
    18
100
AcDbLine
 10
193.4152284982
 20
265.6565921103
 30
0.0
 11
194.0152312042
 21
265.6565921103
 31
0.0
  0
ARC
  5
FD
330
1F
100
AcDbEntity
  8
0
  6
Continuous
 62
     8
370
    18
100
AcDbCircle
 10
187.8139818373
 20
252.0254970261
 30
0.0
 40
0.3987526471162011
100
AcDbArc
 50
180.1837144825
 51
270.53325222
  0
SPLINE
  5
FE
330
1F
100
AcDbEntity
  8
0
  6
Continuous
 62
     8
370
    18
100
AcDbSpline
210
0.0
220
0.0
230
1.0
 70
     8
 71
     3
 72
     9
 73
     5
 74
     0
 42
0.000000001
 43
0.00000001
 40
0.0
 40
0.0
 40
0.0
 40
0.0
 40
0.6377516107193651
 40
0.9999999999999999
 40
0.9999999999999999
 40
0.9999999999999999
 40
0.9999999999999999
 10
187.8176929774061
 20
251.6267616489082
 30
0.0
 10
187.8213110449474
 20
251.5859676801164
 30
0.0
 10
187.8269842059091
 20
251.5220023868797
 30
0.0
 10
187.8876797914766
 20
251.5221298229227
 30
0.0
 10
187.9096666695848
 20
251.522175986424
 30
0.0
  0
SPLINE
  5
FF
330
1F
100
AcDbEntity
  8
0
  6
Continuous
 62
     8
370
    18
100
AcDbSpline
210
0.0
220
0.0
230
1.0
 70
     8
 71
     3
 72
    10
 73
     6
 74
     0
 42
0.000000001
 43
0.00000001
 40
0.0
 40
0.0
 40
0.0
 40
0.0
 40
0.4217406213265985
 40
0.8510272297948427
 40
1.0
 40
1.0
 40
1.0
 40
1.0
 10
211.8396463217512
 20
284.8914396205097
 30
0.0
 10
211.8263333108327
 20
285.0533264555246
 30
0.0
 10
211.7994690861666
 20
285.3799966830917
 30
0.0
 10
211.7556578993814
 20
285.8781045463954
 30
0.0
 10
211.7300809692672
 20
285.8917976159867
 30
0.0
 10
211.7234917702451
 20
285.8953252622038
 30
0.0
  0
LINE
  5
100
330
1F
100
AcDbEntity
  8
0
  6
Continuous
 62
     7
370
    25
100
AcDbLine
 10
131.8152297633
 20
601.4117735834
 30
0.0
 11
131.8152297633
 21
593.176214716
 31
0.0
  0
LINE
  5
101
330
1F
100
AcDbEntity
  8
0
  6
Continuous
 62
     7
370
    25
100
AcDbLine
 10
150.8152291524
 20
593.176214716
 30
0.0
 11
150.8152291524
 21
601.3560134382
 31
0.0
  0
LINE
  5
102
330
1F
100
AcDbEntity
  8
0
  6
Continuous
 62
     7
370
    25
100
AcDbLine
 10
152.3152293982
 20
566.9726121636
 30
0.0
 11
152.3152293982
 21
606.9726038189
 31
0.0
  0
LINE
  5
103
330
1F
100
AcDbEntity
  8
0
  6
Continuous
 62
     7
370
    25
100
AcDbLine
 10
130.3152295174
 20
606.9726038189
 30
0.0
 11
130.3152295174
 21
566.9726121636
 31
0.0
  0
LINE
  5
104
330
1F
100
AcDbEntity
  8
0
  6
Continuous
 62
     7
370
    25
100
AcDbLine
 10
116.3152290853
 20
377.161878387
 30
0.0
 11
116.3152290853
 21
373.9726050775
 31
0.0
  0
LINE
  5
105
330
1F
100
AcDbEntity
  8
0
  6
Continuous
 62
     7
370
    25
100
AcDbLine
 10
166.3152298304
 20
373.9726050775
 30
0.0
 11
166.3152298304
 21
377.161878387
 31
0.0
  0
ARC
  5
106
330
1F
100
AcDbEntity
  8
0
  6
Continuous
 62
     7
370
    25
100
AcDbCircle
 10
165.3152294578
 20
377.1618784439
 30
0.0
 40
1.0
100
AcDbArc
 50
0.0
 51
63.5200440425
  0
ARC
  5
107
330
1F
100
AcDbEntity
  8
0
  6
Continuous
 62
     7
370
    25
100
AcDbCircle
 10
117.3152294578
 20
377.1618784439
 30
0.0
 40
1.0
100
AcDbArc
 50
116.4799559575
 51
180.0
  0
ARC
  5
108
330
1F
100
AcDbEntity
  8
0
  6
Continuous
 62
     7
370
    25
100
AcDbCircle
 10
116.5152294578
 20
373.9726050825
 30
0.0
 40
0.2000000000000028
100
AcDbArc
 50
180.0
 51
270.0
  0
ARC
  5
109
330
1F
100
AcDbEntity
  8
0
  6
Continuous
 62
     7
370
    25
100
AcDbCircle
 10
166.1152294578
 20
373.9726050825
 30
0.0
 40
0.1999999999999886
100
AcDbArc
 50
270.0
 51
0.0
  0
LINE
  5
10A
330
1F
100
AcDbEntity
  8
0
  6
Continuous
 62
     7
370
    25
100
AcDbLine
 10
213.1889986219
 20
435.3532295139
 30
0.0
 11
213.7923838916
 21
491.9657695503
 31
0.0
  0
ARC
  5
10B
330
1F
100
AcDbEntity
  8
0
  6
Continuous
 62
     7
370
    25
100
AcDbCircle
 10
128.4623471294
 20
354.7846183879
 30
0.0
 40
26.00000000000005
100
AcDbArc
 50
104.6430576274
 51
116.4799559575
  0
ARC
  5
10C
330
1F
100
AcDbEntity
  8
0
  6
Continuous
 62
     7
370
    25
100
AcDbCircle
 10
154.1681117862
 20
354.7846183879
 30
0.0
 40
26.00000000000005
100
AcDbArc
 50
63.5200440425
 51
75.3569423726
  0
ARC
  5
10D
330
1F
100
AcDbEntity
  8
0
  6
Continuous
 62
     7
370
    25
100
AcDbCircle
 10
160.4880247335
 20
378.9726050825
 30
0.0
 40
1.000000000000067
100
AcDbArc
 50
75.3569423726
 51
90.0
  0
ARC
  5
10E
330
1F
100
AcDbEntity
  8
0
  6
Continuous
 62
     7
370
    25
100
AcDbCircle
 10
122.1424341822
 20
378.9726050825
 30
0.0
 40
1.000000000000071
100
AcDbArc
 50
90.0
 51
104.6430576274
  0
LINE
  5
10F
330
1F
100
AcDbEntity
  8
0
  6
Continuous
 62
     7
370
    25
100
AcDbLine
 10
159.315228683
 20
460.772587678
 30
0.0
 11
159.315228683
 21
473.2644248219
 31
0.0
  0
LINE
  5
110
330
1F
100
AcDbEntity
  8
0
  6
Continuous
 62
     7
370
    25
100
AcDbLine
 10
159.315228683
 20
380.1726049208
 30
0.0
 11
159.315228683
 21
410.7726167352
 31
0.0
  0
LINE
  5
111
330
1F
100
AcDbEntity
  8
0
  6
Continuous
 62
     7
370
    25
100
AcDbLine
 10
123.3152302327
 20
473.2644248219
 30
0.0
 11
123.3152302327
 21
380.1726049208
 31
0.0
  0
SPLINE
  5
112
330
1F
100
AcDbEntity
  8
0
  6
Continuous
 62
     7
370
    25
100
AcDbSpline
210
0.0
220
0.0
230
1.0
 70
     8
 71
     3
 72
    14
 73
    10
 74
     0
 42
0.000000001
 43
0.00000001
 40
0.0
 40
0.0
 40
0.0
 40
0.0
 40
0.2010040221240962
 40
0.3843950085673614
 40
0.5209856886879076
 40
0.6243707549508883
 40
0.7393912027604391
 40
0.8899755093108188
 40
1.0
 40
1.0
 40
1.0
 40
1.0
 10
167.2453193338886
 20
452.7865934581911
 30
0.0
 10
166.5783549120067
 20
452.7842391977425
 30
0.0
 10
165.3028690189676
 20
452.7797369695992
 30
0.0
 10
163.5670288252234
 20
453.0781243414963
 30
0.0
 10
162.2278274015545
 20
453.6104985864542
 30
0.0
 10
161.242616217085
 20
454.3015396063581
 30
0.0
 10
160.4294039695192
 20
455.2314562642952
 30
0.0
 10
159.8314819648863
 20
456.3629936188247
 30
0.0
 10
159.6749201889541
 20
457.2266140682074
 30
0.0
 10
159.6088225366846
 20
457.591219565407
 30
0.0
  0
SPLINE
  5
113
330
1F
100
AcDbEntity
  8
0
  6
Continuous
 62
     7
370
    25
100
AcDbSpline
210
0.0
220
0.0
230
1.0
 70
     8
 71
     3
 72
    17
 73
    13
 74
     0
 42
0.000000001
 43
0.00000001
 40
0.0
 40
0.0
 40
0.0
 40
0.0
 40
0.1197144736398826
 40
0.2579978233529105
 40
0.3718140722121702
 40
0.4665361195661835
 40
0.5467894829476362
 40
0.615451100147519
 40
0.7208245306692816
 40
0.8118752611309674
 40
0.9469141557280292
 40
0.9999999999999999
 40
0.9999999999999999
 40
0.9999999999999999
 40
0.9999999999999999
 10
159.3052653940692
 20
410.8143139095461
 30
0.0
 10
159.2996948390178
 20
411.3497627657018
 30
0.0
 10
159.2876896817929
 20
412.503713789373
 30
0.0
 10
159.485440069253
 20
414.1640053578496
 30
0.0
 10
159.9711167648703
 20
415.6523327887244
 30
0.0
 10
160.656673164328
 20
416.7678157493659
 30
0.0
 10
161.449428350226
 20
417.541106300951
 30
0.0
 10
162.4267193545107
 20
418.1529463766446
 30
0.0
 10
163.5822947508082
 20
418.5462355393492
 30
0.0
 10
164.9815188243398
 20
418.746781548728
 30
0.0
 10
166.2054710321172
 20
418.8059173378812
 30
0.0
 10
167.0257906311498
 20
418.7855366225767
 30
0.0
 10
167.2572719278112
 20
418.7797855050718
 30
0.0
  0
ARC
  5
114
330
1F
100
AcDbEntity
  8
0
  6
Continuous
 62
     7
370
    25
100
AcDbCircle
 10
159.1152294578
 20
380.1726050825
 30
0.0
 40
0.2000000000000171
100
AcDbArc
 50
270.0
 51
0.0
  0
ARC
  5
115
330
1F
100
AcDbEntity
  8
0
  6
Continuous
 62
     7
370
    25
100
AcDbCircle
 10
123.5152294578
 20
380.1726050825
 30
0.0
 40
0.2000000000000028
100
AcDbArc
 50
180.0
 51
270.0
  0
ARC
  5
116
330
1F
100
AcDbEntity
  8
0
  6
Continuous
 62
     7
370
    25
100
AcDbCircle
 10
124.3152294578
 20
473.2644271246
 30
0.0
 40
1.0
100
AcDbArc
 50
125.6847825153
 51
180.0
  0
ARC
  5
117
330
1F
100
AcDbEntity
  8
0
  6
Continuous
 62
     7
370
    25
100
AcDbCircle
 10
158.3152294578
 20
473.2644271246
 30
0.0
 40
1.0
100
AcDbArc
 50
0.0
 51
54.3152174847
  0
LINE
  5
118
330
1F
100
AcDbEntity
  8
0
  6
Continuous
 62
     7
370
    25
100
AcDbLine
 10
213.7976738038
 20
492.1936455579
 30
0.0
 11
213.8194965544
 21
495.1570096822
 31
0.0
  0
ARC
  5
119
330
1F
100
AcDbEntity
  8
0
  6
Continuous
 62
     7
370
    25
100
AcDbCircle
 10
143.5649711321
 20
446.4605571526
 30
0.0
 40
34.00000000000001
100
AcDbArc
 50
112.9357270896
 51
125.6847825153
  0
ARC
  5
11A
330
1F
100
AcDbEntity
  8
0
  6
Continuous
 62
     7
370
    25
100
AcDbCircle
 10
139.0654877836
 20
446.4605571526
 30
0.0
 40
34.00000000000003
100
AcDbArc
 50
54.3152174847
 51
67.0642729104
  0
LINE
  5
11B
330
1F
100
AcDbEntity
  8
0
  6
Continuous
 62
     7
370
    25
100
AcDbLine
 10
183.0152312639
 20
452.7726087184
 30
0.0
 11
167.315220681
 21
452.7726087184
 31
0.0
  0
LINE
  5
11C
330
1F
100
AcDbEntity
  8
0
  6
Continuous
 62
     7
370
    25
100
AcDbLine
 10
167.3152039172
 20
418.7726068707
 30
0.0
 11
183.0152312639
 21
418.7726068707
 31
0.0
  0
ARC
  5
11D
330
1F
100
AcDbEntity
  8
0
  6
Continuous
 62
     7
370
    25
100
AcDbCircle
 10
183.0152294578
 20
419.0726050825
 30
0.0
 40
0.3000000000000114
100
AcDbArc
 50
270.0
 51
0.0
  0
ARC
  5
11E
330
1F
100
AcDbEntity
  8
0
  6
Continuous
 62
     7
370
    25
100
AcDbCircle
 10
183.0152294578
 20
452.4726050825
 30
0.0
 40
0.3000000000000114
100
AcDbArc
 50
0.0
 51
90.0
  0
SPLINE
  5
11F
330
1F
100
AcDbEntity
  8
0
  6
Continuous
 62
     7
370
    25
100
AcDbSpline
210
0.0
220
0.0
230
1.0
 70
     8
 71
     3
 72
    15
 73
    11
 74
     0
 42
0.000000001
 43
0.00000001
 40
0.0
 40
0.0
 40
0.0
 40
0.0
 40
0.1022900852683294
 40
0.2907209994108935
 40
0.4405202809761017
 40
0.555838090431122
 40
0.6394178830951659
 40
0.7319171212128093
 40
0.8517558982831593
 40
1.0
 40
1.0
 40
1.0
 40
1.0
 10
195.3340920033231
 20
418.9029287011778
 30
0.0
 10
195.9121797644032
 20
418.9346255364437
 30
0.0
 10
197.5551762601782
 20
419.0247118395541
 30
0.0
 10
200.0402992403007
 20
419.2233350842474
 30
0.0
 10
202.5935224702707
 20
419.4357166406383
 30
0.0
 10
204.5514745118185
 20
419.5989772270591
 30
0.0
 10
206.1618301811975
 20
419.7182482323921
 30
0.0
 10
207.7456214144622
 20
419.8063406432952
 30
0.0
 10
209.6551099950232
 20
419.8634767284776
 30
0.0
 10
211.0430648106538
 20
419.8660622841214
 30
0.0
 10
211.810574156262
 20
419.8674920411264
 30
0.0
  0
SPLINE
  5
120
330
1F
100
AcDbEntity
  8
0
  6
Continuous
 62
     7
370
    25
100
AcDbSpline
210
0.0
220
0.0
230
1.0
 70
     8
 71
     3
 72
    11
 73
     7
 74
     0
 42
0.000000001
 43
0.00000001
 40
0.0
 40
0.0
 40
0.0
 40
0.0
 40
0.2414117602444324
 40
0.5000125010621781
 40
0.758608307087804
 40
1.0
 40
1.0
 40
1.0
 40
1.0
 10
211.6639541806951
 20
419.8685127706682
 30
0.0
 10
211.7812889819894
 20
419.8812683200155
 30
0.0
 10
212.0243130475832
 20
419.9076876383004
 30
0.0
 10
212.3427748602863
 20
420.1118164835683
 30
0.0
 10
212.5753774637816
 20
420.4101221846635
 30
0.0
 10
212.6242618119584
 20
420.6497515138272
 30
0.0
 10
212.6478629531637
 20
420.7654434652483
 30
0.0
  0
LINE
  5
121
330
1F
100
AcDbEntity
  8
0
  6
Continuous
 62
     7
370
    25
100
AcDbLine
 10
195.4151431443
 20
418.9076113911
 30
0.0
 11
195.4771394255
 21
418.9060169668
 31
0.0
  0
LINE
  5
122
330
1F
100
AcDbEntity
  8
0
  6
Continuous
 62
     7
370
    25
100
AcDbLine
 10
183.3152288916
 20
419.7726051719
 30
0.0
 11
183.8152299049
 21
419.7726051719
 31
0.0
  0
LINE
  5
123
330
1F
100
AcDbEntity
  8
0
  6
Continuous
 62
     7
370
    25
100
AcDbLine
 10
183.8152299049
 20
451.7726066919
 30
0.0
 11
183.3152288916
 21
451.7726066919
 31
0.0
  0
ARC
  5
124
330
1F
100
AcDbEntity
  8
0
  6
Continuous
 62
     7
370
    25
100
AcDbCircle
 10
178.5464513234
 20
422.2388959188
 30
0.0
 40
29.99999999999998
100
AcDbArc
 50
72.5184092263
 51
79.8849141309
  0
ARC
  5
125
330
1F
100
AcDbEntity
  8
0
  6
Continuous
 62
     7
370
    25
100
AcDbCircle
 10
178.5464513234
 20
449.3063142463
 30
0.0
 40
30.00000000000003
100
AcDbArc
 50
280.1150858691
 51
298.2110403762
  0
SPLINE
  5
126
330
1F
100
AcDbEntity
  8
0
  6
Continuous
 62
     7
370
    25
100
AcDbSpline
210
0.0
220
0.0
230
1.0
 70
     8
 71
     3
 72
    14
 73
    10
 74
     0
 42
0.000000001
 43
0.00000001
 40
0.0
 40
0.0
 40
0.0
 40
0.0
 40
0.099532232070507
 40
0.2873377296233168
 40
0.4586803878905781
 40
0.6128342594074582
 40
0.750309106500416
 40
0.8762505390703924
 40
1.0
 40
1.0
 40
1.0
 40
1.0
 10
207.9152765097394
 20
454.1183623881494
 30
0.0
 10
207.8811787999937
 20
454.1407106567311
 30
0.0
 10
207.7827427627434
 20
454.2052274531667
 30
0.0
 10
207.4685561791674
 20
454.0425125589266
 30
0.0
 10
206.9549290567209
 20
453.7472253178441
 30
0.0
 10
206.2739108751077
 20
453.3987958167806
 30
0.0
 10
205.4223972505181
 20
453.1211639139501
 30
0.0
 10
204.4001871243063
 20
452.9998795198711
 30
0.0
 10
203.6392943220562
 20
452.9991334179116
 30
0.0
 10
203.2621877612844
 20
452.9987636418497
 30
0.0
  0
SPLINE
  5
127
330
1F
100
AcDbEntity
  8
0
  6
Continuous
 62
     7
370
    25
100
AcDbSpline
210
0.0
220
0.0
230
1.0
 70
     8
 71
     3
 72
    14
 73
    10
 74
     0
 42
0.000000001
 43
0.00000001
 40
0.0
 40
0.0
 40
0.0
 40
0.0
 40
0.1605449687515112
 40
0.3455256200593761
 40
0.5341694256948623
 40
0.65426246809015
 40
0.7646534914693432
 40
0.8802988156561596
 40
1.0
 40
1.0
 40
1.0
 40
1.0
 10
212.6320975246206
 20
420.6066417904054
 30
0.0
 10
212.7032356161586
 20
421.4345358877672
 30
0.0
 10
212.8563393439156
 20
423.2163333714192
 30
0.0
 10
212.97624403101
 20
425.8008523592909
 30
0.0
 10
213.053964254514
 20
427.8801834755128
 30
0.0
 10
213.1096651571292
 20
429.8488389246029
 30
0.0
 10
213.1491490407738
 20
431.809346347171
 30
0.0
 10
213.1762115707578
 20
433.7744609373229
 30
0.0
 10
213.1901547033687
 20
435.1140700619634
 30
0.0
 10
213.197246414639
 20
435.7954177470361
 30
0.0
  0
ARC
  5
128
330
1F
100
AcDbEntity
  8
0
  6
Continuous
 62
     7
370
    25
100
AcDbCircle
 10
187.8152313167
 20
452.6049500944
 30
0.0
 40
0.4000000766725707
100
AcDbArc
 50
90.2044807736
 51
180.0002565688
  0
LINE
  5
129
330
1F
100
AcDbEntity
  8
0
  6
Continuous
 62
     7
370
    25
100
AcDbLine
 10
193.4517437937
 20
453.0025932403
 30
0.0
 11
187.7224931838
 21
453.0049029203
 31
0.0
  0
LINE
  5
12A
330
1F
100
AcDbEntity
  8
0
  6
Continuous
 62
     7
370
    25
100
AcDbLine
 10
203.2621877613
 20
452.9987040372
 30
0.0
 11
199.3733199658
 21
453.0002388568
 31
0.0
  0
SPLINE
  5
12B
330
1F
100
AcDbEntity
  8
0
  6
Continuous
 62
     7
370
    25
100
AcDbSpline
210
0.0
220
0.0
230
1.0
 70
     8
 71
     3
 72
     9
 73
     5
 74
     0
 42
0.000000001
 43
0.00000001
 40
0.0
 40
0.0
 40
0.0
 40
0.0
 40
0.4721540740137892
 40
1.0
 40
1.0
 40
1.0
 40
1.0
 10
213.8194816531911
 20
495.1343077631151
 30
0.0
 10
213.8150810930522
 20
496.0029723795646
 30
0.0
 10
213.805760914786
 20
497.8427629569601
 30
0.0
 10
213.7566326756677
 20
499.2234601304114
 30
0.0
 10
213.7307005347982
 20
499.9522555084383
 30
0.0
  0
LINE
  5
12C
330
1F
100
AcDbEntity
  8
0
  6
Continuous
 62
     7
370
    25
100
AcDbLine
 10
130.3152295174
 20
566.9726121636
 30
0.0
 11
130.3152295174
 21
477.7726072283
 31
0.0
  0
LINE
  5
12D
330
1F
100
AcDbEntity
  8
0
  6
Continuous
 62
     7
370
    25
100
AcDbLine
 10
152.3152293982
 20
477.7726072283
 30
0.0
 11
152.3152293982
 21
566.9726121636
 31
0.0
  0
SPLINE
  5
12E
330
1F
100
AcDbEntity
  8
0
  6
Continuous
 62
     7
370
    25
100
AcDbSpline
210
0.0
220
0.0
230
1.0
 70
     8
 71
     3
 72
    14
 73
    10
 74
     0
 42
0.000000001
 43
0.00000001
 40
0.0
 40
0.0
 40
0.0
 40
0.0
 40
0.0196785881719696
 40
0.2089817925572061
 40
0.358588594021294
 40
0.489096685998228
 40
0.6448018498316208
 40
0.8388130493055285
 40
1.0
 40
1.0
 40
1.0
 40
1.0
 10
159.9292589696422
 20
415.1682059676801
 30
0.0
 10
159.9431936036914
 20
415.2257874530895
 30
0.0
 10
160.0911760085662
 20
415.8372887423998
 30
0.0
 10
160.7494158011129
 20
416.7490513597104
 30
0.0
 10
161.7820357104283
 20
417.6637439971806
 30
0.0
 10
162.9294535893202
 20
418.2438495267963
 30
0.0
 10
164.3380899183953
 20
418.637431011622
 30
0.0
 10
165.8693197305634
 20
418.7800622085952
 30
0.0
 10
166.9226037919056
 20
418.7789545159324
 30
0.0
 10
167.4005782576576
 20
418.778451851145
 30
0.0
  0
LINE
  5
12F
330
1F
100
AcDbEntity
  8
0
  6
Continuous
 62
     7
370
    25
100
AcDbLine
 10
166.9681949886
 20
452.8196591349
 30
0.0
 11
164.5793693485
 21
452.9622781487
 31
0.0
  0
LINE
  5
130
330
1F
100
AcDbEntity
  8
0
  6
Continuous
 62
     7
370
    25
100
AcDbLine
 10
160.7793553146
 20
454.895375988
 30
0.0
 11
160.2325423034
 21
455.7825389714
 31
0.0
  0
LINE
  5
131
330
1F
100
AcDbEntity
  8
0
  6
Continuous
 62
     7
370
    25
100
AcDbLine
 10
167.3042683276
 20
452.7995947213
 30
0.0
 11
166.9681949886
 21
452.8196591349
 31
0.0
  0
SPLINE
  5
132
330
1F
100
AcDbEntity
  8
0
  6
Continuous
 62
     7
370
    25
100
AcDbSpline
210
0.0
220
0.0
230
1.0
 70
     8
 71
     3
 72
    11
 73
     7
 74
     0
 42
0.000000001
 43
0.00000001
 40
0.0
 40
0.0
 40
0.0
 40
0.0
 40
0.2404901164209708
 40
0.4973212731050743
 40
0.7555386884796305
 40
1.0
 40
1.0
 40
1.0
 40
1.0
 10
213.6143597187772
 20
502.3137468309557
 30
0.0
 10
213.5936764097964
 20
502.4338004385003
 30
0.0
 10
213.5509043836214
 20
502.6820651648577
 30
0.0
 10
213.3157908561443
 20
502.9954369488709
 30
0.0
 10
212.9867559001719
 20
503.2031863604644
 30
0.0
 10
212.7440649743671
 20
503.2217108227101
 30
0.0
 10
212.6260402025953
 20
503.2307195873415
 30
0.0
  0
SPLINE
  5
133
330
1F
100
AcDbEntity
  8
0
  6
Continuous
 62
     7
370
    25
100
AcDbSpline
210
0.0
220
0.0
230
1.0
 70
     8
 71
     3
 72
    15
 73
    11
 74
     0
 42
0.000000001
 43
0.00000001
 40
0.0
 40
0.0
 40
0.0
 40
0.0
 40
0.1695103419362364
 40
0.2495712882732365
 40
0.331770745615613
 40
0.4192258229098808
 40
0.5126284132521935
 40
0.7157052710961649
 40
0.9302002282112597
 40
0.9999999999999999
 40
0.9999999999999999
 40
0.9999999999999999
 40
0.9999999999999999
 10
212.6654388727918
 20
503.2315838546907
 30
0.0
 10
212.2894186371608
 20
503.1932283300537
 30
0.0
 10
211.735801356048
 20
503.1367572169245
 30
0.0
 10
211.0838924927498
 20
502.7898768858635
 30
0.0
 10
210.6570625377025
 20
502.4335937672115
 30
0.0
 10
210.2977313990189
 20
501.9665442263988
 30
0.0
 10
209.9164074139548
 20
501.1977215166795
 30
0.0
 10
209.6761559162866
 20
500.1063665120083
 30
0.0
 10
209.6249629132009
 20
499.0789676613282
 30
0.0
 10
209.6100965274421
 20
498.6183530189958
 30
0.0
 10
209.6064465465322
 20
498.5052633495485
 30
0.0
  0
LINE
  5
134
330
1F
100
AcDbEntity
  8
0
  6
Continuous
 62
     7
370
    25
100
AcDbLine
 10
213.7325631799
 20
499.8995799036
 30
0.0
 11
213.6086600246
 21
502.3962843628
 31
0.0
  0
SPLINE
  5
135
330
1F
100
AcDbEntity
  8
0
  6
Continuous
 62
     7
370
    25
100
AcDbSpline
210
0.0
220
0.0
230
1.0
 70
     8
 71
     3
 72
    13
 73
     9
 74
     0
 42
0.000000001
 43
0.00000001
 40
0.0
 40
0.0
 40
0.0
 40
0.0
 40
0.200480890117486
 40
0.4327406759602614
 40
0.6711401974256972
 40
0.8382247188305968
 40
0.9764969540468281
 40
1.0
 40
1.0
 40
1.0
 40
1.0
 10
196.3766405703798
 20
453.8571077795183
 30
0.0
 10
196.1221281975538
 20
453.8537194079485
 30
0.0
 10
195.5727598453262
 20
453.8464055627104
 30
0.0
 10
194.8065697820174
 20
453.7706371812693
 30
0.0
 10
194.2330384838404
 20
453.6594564593874
 30
0.0
 10
193.8663497858707
 20
453.5261607726377
 30
0.0
 10
193.6394031257817
 20
453.3734238008871
 30
0.0
 10
193.5473040421894
 20
453.2457475164477
 30
0.0
 10
193.5339236976877
 20
453.2271984429514
 30
0.0
  0
SPLINE
  5
136
330
1F
100
AcDbEntity
  8
0
  6
Continuous
 62
     7
370
    25
100
AcDbSpline
210
0.0
220
0.0
230
1.0
 70
     8
 71
     3
 72
    13
 73
     9
 74
     0
 42
0.000000001
 43
0.00000001
 40
0.0
 40
0.0
 40
0.0
 40
0.0
 40
0.1477605296254309
 40
0.2692730541859334
 40
0.5231010246843585
 40
0.7413120764466158
 40
0.9700625609424405
 40
0.9999999999999999
 40
0.9999999999999999
 40
0.9999999999999999
 40
0.9999999999999999
 10
199.2965342821851
 20
453.2271984429514
 30
0.0
 10
199.2009312555315
 20
453.3249967674744
 30
0.0
 10
199.0267080103812
 20
453.5032206382561
 30
0.0
 10
198.6652237716537
 20
453.6348335523531
 30
0.0
 10
198.1557699631713
 20
453.7549827947769
 30
0.0
 10
197.3637062280079
 20
453.8339619142949
 30
0.0
 10
196.7445456651815
 20
453.8676637442935
 30
0.0
 10
196.4148012373945
 20
453.8582026886742
 30
0.0
 10
196.3766405703798
 20
453.8571077795183
 30
0.0
  0
LINE
  5
137
330
1F
100
AcDbEntity
  8
0
  6
Continuous
 62
     7
370
    25
100
AcDbLine
 10
209.476329607
 20
494.5791128488
 30
0.0
 11
208.2849445166
 21
455.1499474259
 31
0.0
  0
CIRCLE
  5
138
330
1F
100
AcDbEntity
  8
0
  6
Continuous
 62
     7
370
    25
100
AcDbCircle
 10
141.3152294578
 20
606.9726050825
 30
0.0
 40
11.0
  0
LWPOLYLINE
  5
139
330
1F
100
AcDbEntity
  8
0
  6
Continuous
 62
     7
370
    25
100
AcDbPolyline
 90
       34
 70
   128
 43
0.0
 10
141.3152294578
 20
594.3339753361
 10
143.113116256
 20
594.3130541058
 10
144.8460228155
 20
594.2510354729
 10
146.4513169946
 20
594.1501844139
 10
147.8709799582
 20
594.0141219111
 10
149.0537009547
 20
593.8477802487
 10
149.9567332091
 20
593.6571645947
 10
150.5474394532
 20
593.4491592856
 10
150.8044695827
 20
593.2313043089
 10
150.7185327234
 20
593.0114525767
 10
150.2927376302
 20
592.7975464077
 10
149.5424706834
 20
592.5973344059
 10
148.4948505992
 20
592.4180436344
 10
147.1877398314
 20
592.2661560984
 10
145.6683815802
 20
592.1471554251
 10
143.99168872
 20
592.0653480501
 10
142.2182618869
 20
592.0236993046
 10
140.4121970288
 20
592.0236993046
 10
138.6387701957
 20
592.0653480501
 10
136.9620773355
 20
592.1471554251
 10
135.4427190842
 20
592.2661560984
 10
134.1356083164
 20
592.4180436344
 10
133.0879882323
 20
592.5973344059
 10
132.3377212854
 20
592.7975464077
 10
131.9119261923
 20
593.0114525767
 10
131.825989333
 20
593.2313043089
 10
132.0830194624
 20
593.4491592856
 10
132.6737257066
 20
593.6571645947
 10
133.576757961
 20
593.8477802487
 10
134.7594789574
 20
594.0141219111
 10
136.179141921
 20
594.1501844139
 10
137.7844361002
 20
594.2510354729
 10
139.5173426597
 20
594.3130541058
 10
141.3152294578
 20
594.3339753361
  0
LINE
  5
13A
330
1F
100
AcDbEntity
  8
0
  6
Continuous
 62
     7
370
    25
100
AcDbLine
 10
141.3152294578
 20
373.7726050825
 30
0.0
 11
116.5152287456
 21
373.7726050825
 31
0.0
  0
LINE
  5
13B
330
1F
100
AcDbEntity
  8
0
  6
Continuous
 62
     7
370
    25
100
AcDbLine
 10
166.1152301701
 20
373.7726050825
 30
0.0
 11
141.3152294578
 21
373.7726050825
 31
0.0
  0
LINE
  5
13C
330
1F
100
AcDbEntity
  8
0
  6
Continuous
 62
     7
370
    25
100
AcDbLine
 10
213.7957962575
 20
492.0827436657
 30
0.0
 11
213.1972464146
 21
435.795417747
 31
0.0
  0
SPLINE
  5
13D
330
1F
100
AcDbEntity
  8
0
  6
Continuous
 62
     7
370
    25
100
AcDbSpline
210
0.0
220
0.0
230
1.0
 70
     8
 71
     3
 72
    15
 73
    11
 74
     0
 42
0.000000001
 43
0.00000001
 40
0.0
 40
0.0
 40
0.0
 40
0.0
 40
0.2499999999999999
 40
0.2499999999999999
 40
0.4999999999999999
 40
0.4999999999999999
 40
0.7499999999999998
 40
0.7499999999999998
 40
0.8124999999999998
 40
1.0
 40
1.0
 40
1.0
 40
1.0
 10
209.4762202718516
 20
494.5726008008764
 30
0.0
 10
209.4999417605939
 20
495.3576580716806
 30
0.0
 10
209.5225010991065
 20
496.0763408968269
 30
0.0
 10
209.563492439809
 20
497.3318416331628
 30
0.0
 10
209.5819244419989
 20
497.8686595443525
 30
0.0
 10
209.6128580741932
 20
498.7113144301349
 30
0.0
 10
209.6253597041976
 20
499.0171514047277
 30
0.0
 10
209.6361533616727
 20
499.2243870234452
 30
0.0
 10
209.6438216116467
 20
499.3551633985147
 30
0.0
 10
209.6473977781136
 20
499.3397517911354
 30
0.0
 10
209.6473977781136
 20
499.2356019344479
 30
0.0
  0
LINE
  5
13E
330
1F
100
AcDbEntity
  8
0
  6
Continuous
 62
     7
370
    25
100
AcDbLine
 10
122.1424343409
 20
379.9726052606
 30
0.0
 11
160.4880245747
 21
379.9726052606
 31
0.0
  0
SPLINE
  5
13F
330
1F
100
AcDbEntity
  8
0
  6
Continuous
 62
     7
370
    25
100
AcDbSpline
210
0.0
220
0.0
230
1.0
 70
     8
 71
     3
 72
     8
 73
     4
 74
     0
 42
0.000000001
 43
0.00000001
 40
0.0
 40
0.0
 40
0.0
 40
0.0
 40
1.0
 40
1.0
 40
1.0
 40
1.0
 10
188.0102575888399
 20
432.7849134222346
 30
0.0
 10
187.6056422854987
 20
434.3853087126046
 30
0.0
 10
187.4152294578329
 20
436.0174452704528
 30
0.0
 10
187.4152294578329
 20
437.6787901533389
 30
0.0
  0
LINE
  5
140
330
1F
100
AcDbEntity
  8
0
  6
Continuous
 62
     7
370
    25
100
AcDbLine
 10
167.2566907825
 20
418.8446390839
 30
0.0
 11
167.3152039172
 21
418.7726068707
 31
0.0
  0
SPLINE
  5
141
330
1F
100
AcDbEntity
  8
0
  6
Continuous
 62
     7
370
    25
100
AcDbSpline
210
0.0
220
0.0
230
1.0
 70
     8
 71
     3
 72
    13
 73
     9
 74
     0
 42
0.000000001
 43
0.00000001
 40
0.0
 40
0.0
 40
0.0
 40
0.0
 40
0.0608418657456929
 40
0.2312720790395931
 40
0.4021464030289283
 40
0.5819417001606318
 40
0.7808707987180347
 40
1.0
 40
1.0
 40
1.0
 40
1.0
 10
159.9438509317413
 20
415.1630464406168
 30
0.0
 10
159.9989134421562
 20
415.3339515457376
 30
0.0
 10
160.2082170377106
 20
415.9835959722415
 30
0.0
 10
160.9260365299458
 20
416.9669377936161
 30
0.0
 10
162.1545391211557
 20
417.9155119929266
 30
0.0
 10
163.6884142009934
 20
418.491543535557
 30
0.0
 10
165.4364699490831
 20
418.765547037365
 30
0.0
 10
166.6691793930895
 20
418.7700690021217
 30
0.0
 10
167.3153156759516
 20
418.7724392326032
 30
0.0
  0
SPLINE
  5
142
330
1F
100
AcDbEntity
  8
0
  6
Continuous
 62
     7
370
    25
100
AcDbSpline
210
0.0
220
0.0
230
1.0
 70
     8
 71
     3
 72
    10
 73
     6
 74
     0
 42
0.000000001
 43
0.00000001
 40
0.0
 40
0.0
 40
0.0
 40
0.0
 40
0.2690214615343317
 40
0.6120485794139524
 40
1.0
 40
1.0
 40
1.0
 40
1.0
 10
160.2006705822721
 20
455.7696122141039
 30
0.0
 10
160.0092368989391
 20
456.1900792393805
 30
0.0
 10
159.5737076542917
 20
457.1466804118044
 30
0.0
 10
159.3305790687794
 20
458.8606382293117
 30
0.0
 10
159.3206774650955
 20
460.1096833570208
 30
0.0
 10
159.315422398068
 20
460.772587677971
 30
0.0
  0
SPLINE
  5
143
330
1F
100
AcDbEntity
  8
0
  6
Continuous
 62
     7
370
    25
100
AcDbSpline
210
0.0
220
0.0
230
1.0
 70
     8
 71
     3
 72
     8
 73
     4
 74
     0
 42
0.000000001
 43
0.00000001
 40
0.0
 40
0.0
 40
0.0
 40
0.0
 40
1.0
 40
1.0
 40
1.0
 40
1.0
 10
189.2890737170999
 20
429.2729899463354
 30
0.0
 10
188.7495580579674
 20
430.3822045232932
 30
0.0
 10
188.3223464647218
 20
431.5504937532268
 30
0.0
 10
188.0102575888399
 20
432.7849134222336
 30
0.0
  0
LINE
  5
144
330
1F
100
AcDbEntity
  8
0
  6
Continuous
 62
     7
370
    25
100
AcDbLine
 10
130.3152295174
 20
477.7726072283
 30
0.0
 11
152.3152293982
 21
477.7726072283
 31
0.0
  0
SPLINE
  5
145
330
1F
100
AcDbEntity
  8
0
  6
Continuous
 62
     7
370
    25
100
AcDbSpline
210
0.0
220
0.0
230
1.0
 70
    24
 71
     3
 72
    10
 73
     6
 74
     0
 42
0.000000001
 43
0.00000001
 40
0.0
 40
0.0
 40
0.0
 40
0.0
 40
0.5
 40
0.5
 40
1.0
 40
1.0
 40
1.0
 40
1.0
 10
187.4152294578329
 20
437.6787901533389
 30
0.0
 10
187.4152294578329
 20
438.8778207710544
 30
0.0
 10
187.4152294578329
 20
440.0510781462326
 30
0.0
 10
187.4152294578329
 20
442.3428245201456
 30
0.0
 10
187.4152294578329
 20
443.4361297078387
 30
0.0
 10
187.4152294578329
 20
444.4719181248151
 30
0.0
  0
LINE
  5
146
330
1F
100
AcDbEntity
  8
0
  6
Continuous
 62
     7
370
    25
100
AcDbLine
 10
183.3152288916
 20
452.4726036401
 30
0.0
 11
183.3152288916
 21
419.0726044984
 31
0.0
  0
SPLINE
  5
147
330
1F
100
AcDbEntity
  8
0
  6
Continuous
 62
     7
370
    25
100
AcDbSpline
210
0.0
220
0.0
230
1.0
 70
     8
 71
     3
 72
    28
 73
    24
 74
     0
 42
0.000000001
 43
0.00000001
 40
0.0
 40
0.0
 40
0.0
 40
0.0
 40
0.1250000000000002
 40
0.1250000000000002
 40
0.1875000000000003
 40
0.1875000000000003
 40
0.2500000000000005
 40
0.2500000000000005
 40
0.3750000000000009
 40
0.3750000000000009
 40
0.4375000000000009
 40
0.4375000000000009
 40
0.5000000000000009
 40
0.5000000000000009
 40
0.5625000000000009
 40
0.5625000000000009
 40
0.6250000000000009
 40
0.6250000000000009
 40
0.7500000000000006
 40
0.7500000000000006
 40
0.8750000000000002
 40
0.8750000000000002
 40
1.0
 40
1.0
 40
1.0
 40
1.0
 10
195.0443057406753
 20
419.0822465437821
 30
0.0
 10
194.9700307652678
 20
419.1051599452588
 30
0.0
 10
194.8759026011996
 20
419.1719222070944
 30
0.0
 10
194.699952286439
 20
419.3488342099165
 30
0.0
 10
194.6352085016291
 20
419.4209538027138
 30
0.0
 10
194.4934841377861
 20
419.5943624291561
 30
0.0
 10
194.4165608556172
 20
419.6954298889293
 30
0.0
 10
194.1658972404066
 20
420.0457750482237
 30
0.0
 10
193.972180091433
 20
420.3423923268909
 30
0.0
 10
193.6360106516106
 20
420.8953628577891
 30
0.0
 10
193.5175105326232
 20
421.0957539825415
 30
0.0
 10
193.2710274852616
 20
421.5223468186784
 30
0.0
 10
193.142634793893
 20
421.7492191370058
 30
0.0
 10
192.8761857440112
 20
422.228432364325
 30
0.0
 10
192.7381076980847
 20
422.4808304304858
 30
0.0
 10
192.4527433569606
 20
423.0098948998596
 30
0.0
 10
192.3047410387835
 20
423.2879112301133
 30
0.0
 10
191.8550734461996
 20
424.1420332603264
 30
0.0
 10
191.5473645713624
 20
424.7386579672623
 30
0.0
 10
190.9201508782963
 20
425.9723800720631
 30
0.0
 10
190.6006071782442
 20
426.6096108761305
 30
0.0
 10
189.9518437674328
 20
427.9172715407353
 30
0.0
 10
189.6226905877635
 20
428.5874731285394
 30
0.0
 10
189.2890737170999
 20
429.2729899463354
 30
0.0
  0
LINE
  5
148
330
1F
100
AcDbEntity
  8
0
  6
Continuous
 62
     7
370
    25
100
AcDbLine
 10
183.8152299049
 20
419.7726051719
 30
0.0
 11
183.8152299049
 21
451.7726066919
 31
0.0
  0
LINE
  5
149
330
1F
100
AcDbEntity
  8
0
  6
Continuous
 62
     7
370
    25
100
AcDbLine
 10
208.2855331125
 20
455.1671135636
 30
0.0
 11
208.1606837334
 21
454.3088588329
 31
0.0
  0
SPLINE
  5
14A
330
1F
100
AcDbEntity
  8
0
  6
Continuous
 62
     7
370
    25
100
AcDbSpline
210
0.0
220
0.0
230
1.0
 70
    24
 71
     3
 72
    14
 73
    10
 74
     0
 42
0.000000001
 43
0.00000001
 40
0.0
 40
0.0
 40
0.0
 40
0.0
 40
0.1610882437297761
 40
0.3268475683424347
 40
0.3532572585790877
 40
0.5145821579247931
 40
0.6805995585042751
 40
0.8416310122062255
 40
1.0
 40
1.0
 40
1.0
 40
1.0
 10
187.4152312400117
 20
444.4720733375704
 30
0.0
 10
187.4152312400117
 20
445.2440676209526
 30
0.0
 10
187.4152312400118
 20
446.8104417302949
 30
0.0
 10
187.4152312400117
 20
448.2331671333638
 30
0.0
 10
187.4152312400118
 20
449.5113685009993
 30
0.0
 10
187.4152312400117
 20
450.6387963931429
 30
0.0
 10
187.4152312400117
 20
451.7666148851404
 30
0.0
 10
187.4152312400117
 20
452.4789167878415
 30
0.0
 10
187.4152312400117
 20
452.5563032576781
 30
0.0
 10
187.4152312400117
 20
452.5946739525949
 30
0.0
  0
LINE
  5
14B
330
1F
100
AcDbEntity
  8
0
  6
Continuous
 62
     7
370
    25
100
AcDbLine
 10
193.4152284982
 20
452.7449819656
 30
0.0
 11
193.4961120012
 21
452.8144437285
 31
0.0
  0
SPLINE
  5
14C
330
1F
100
AcDbEntity
  8
0
  6
Continuous
 62
     7
370
    25
100
AcDbSpline
210
0.0
220
0.0
230
1.0
 70
     8
 71
     3
 72
     8
 73
     4
 74
     0
 42
0.000000001
 43
0.00000001
 40
0.0
 40
0.0
 40
0.0
 40
0.0
 40
1.0
 40
1.0
 40
1.0
 40
1.0
 10
199.3934558776155
 20
452.803784566228
 30
0.0
 10
199.4079699177834
 20
452.7855326128681
 30
0.0
 10
199.4152294578329
 20
452.7659436934084
 30
0.0
 10
199.4152294578329
 20
452.7449818389337
 30
0.0
  0
SPLINE
  5
14D
330
1F
100
AcDbEntity
  8
0
  6
Continuous
 62
     7
370
    25
100
AcDbSpline
210
0.0
220
0.0
230
1.0
 70
     8
 71
     3
 72
    38
 73
    34
 74
     0
 42
0.000000001
 43
0.00000001
 40
0.0
 40
0.0
 40
0.0
 40
0.0
 40
0.0625
 40
0.0625
 40
0.125
 40
0.125
 40
0.1875
 40
0.1875
 40
0.25
 40
0.25
 40
0.3125
 40
0.3125
 40
0.375
 40
0.375
 40
0.4375
 40
0.4375
 40
0.5
 40
0.5
 40
0.5625
 40
0.5625
 40
0.625
 40
0.625
 40
0.6875
 40
0.6875
 40
0.75
 40
0.75
 40
0.8125
 40
0.8125
 40
0.875
 40
0.875
 40
0.9375
 40
0.9375
 40
1.0
 40
1.0
 40
1.0
 40
1.0
 10
199.4152294578329
 20
452.7449818389328
 30
0.0
 10
199.4152294578329
 20
452.7104968242788
 30
0.0
 10
199.3957055329134
 20
452.6731028342247
 30
0.0
 10
199.3192819567332
 20
452.5931793649216
 30
0.0
 10
199.2614270212176
 20
452.5501402380331
 30
0.0
 10
199.1107505821028
 20
452.4625295604039
 30
0.0
 10
199.0186034961585
 20
452.4181017841045
 30
0.0
 10
198.8009686612106
 20
452.3296099505187
 30
0.0
 10
198.6745583292663
 20
452.2854032578363
 30
0.0
 10
198.3984521623281
 20
452.2030082787734
 30
0.0
 10
198.2477242180354
 20
452.1643183020816
 30
0.0
 10
197.9200232627282
 20
452.0940484458387
 30
0.0
 10
197.7460531795806
 20
452.0632178090812
 30
0.0
 10
197.3853261387355
 20
452.0127960845306
 30
0.0
 10
197.1959004459324
 20
451.9928638867397
 30
0.0
 10
196.808530997859
 20
451.9661394711169
 30
0.0
 10
196.6136507017542
 20
451.9594484178041
 30
0.0
 10
196.2215472988074
 20
451.959502366991
 30
0.0
 10
196.0223496074938
 20
451.9664733403836
 30
0.0
 10
195.6373260523719
 20
451.9932442596809
 30
0.0
 10
195.4501445823345
 20
452.0129082880843
 30
0.0
 10
195.0864717165007
 20
452.0637389943996
 30
0.0
 10
194.9113877572248
 20
452.0948513777988
 30
0.0
 10
194.586769424754
 20
452.1643495055239
 30
0.0
 10
194.4348201431564
 20
452.203138344844
 30
0.0
 10
194.1554962954343
 20
452.2863032164019
 30
0.0
 10
194.0316158731144
 20
452.3295759940264
 30
0.0
 10
193.8142853666876
 20
452.4175569695157
 30
0.0
 10
193.720085471021
 20
452.4627746515754
 30
0.0
 10
193.5694260954201
 20
452.5501193575732
 30
0.0
 10
193.5124444085385
 20
452.5922662418917
 30
0.0
 10
193.4351890153014
 20
452.6724291086346
 30
0.0
 10
193.4152294578329
 20
452.7104968788985
 30
0.0
 10
193.4152294578329
 20
452.7449818389362
 30
0.0
  0
ARC
  5
14E
330
1F
100
AcDbEntity
  8
0
  6
Continuous
 62
     7
370
    25
100
AcDbCircle
 10
193.528932926
 20
452.7489366072
 30
0.0
 40
0.1137731783060581
100
AcDbArc
 50
181.9919451233
 51
220.187231208
  0
ARC
  5
14F
330
1F
100
AcDbEntity
  8
0
  6
Continuous
 62
     7
370
    25
100
AcDbCircle
 10
199.3014947288
 20
452.7489436393
 30
0.0
 40
0.1138037296158516
100
AcDbArc
 50
319.821126353
 51
358.0050473391
  0
SPLINE
  5
150
330
1F
100
AcDbEntity
  8
0
  6
Continuous
 62
     7
370
    25
100
AcDbSpline
210
0.0
220
0.0
230
1.0
 70
     8
 71
     3
 72
    12
 73
     8
 74
     0
 42
0.000000001
 43
0.00000001
 40
0.0
 40
0.0
 40
0.0
 40
0.0
 40
0.2500000000000066
 40
0.2500000000000066
 40
0.5000000000000131
 40
0.5000000000000131
 40
1.0
 40
1.0
 40
1.0
 40
1.0
 10
193.4420157083692
 20
452.6755225678652
 30
0.0
 10
193.4420157083692
 20
452.7671194458454
 30
0.0
 10
193.4606274547156
 20
452.8570325087651
 30
0.0
 10
193.5321608996256
 20
453.0244726630549
 30
0.0
 10
193.5851005924971
 20
453.1010545655228
 30
0.0
 10
193.7814431738801
 20
453.2912618322662
 30
0.0
 10
193.964321924641
 20
453.3648879949737
 30
0.0
 10
194.1502791272517
 20
453.3648879949737
 30
0.0
  0
SPLINE
  5
151
330
1F
100
AcDbEntity
  8
0
  6
Continuous
 62
     7
370
    25
100
AcDbSpline
210
0.0
220
0.0
230
1.0
 70
     8
 71
     3
 72
    12
 73
     8
 74
     0
 42
0.000000001
 43
0.00000001
 40
0.0
 40
0.0
 40
0.0
 40
0.0
 40
0.25
 40
0.25
 40
0.5
 40
0.5
 40
1.0
 40
1.0
 40
1.0
 40
1.0
 10
198.6801797884141
 20
453.3648879949737
 30
0.0
 10
198.7731733476242
 20
453.3648879949737
 30
0.0
 10
198.8644081782276
 20
453.34734064997
 30
0.0
 10
199.0355148397169
 20
453.2789313776231
 30
0.0
 10
199.1139763014068
 20
453.2282366181558
 30
0.0
 10
199.3106637367167
 20
453.037978098595
 30
0.0
 10
199.3884432072966
 20
452.8587540504053
 30
0.0
 10
199.3884432072966
 20
452.6755225678652
 30
0.0
  0
LINE
  5
152
330
1F
100
AcDbEntity
  8
0
  6
Continuous
 62
     7
370
    25
100
AcDbLine
 10
198.680181277
 20
453.3648851724
 30
0.0
 11
194.1502804281
 21
453.3648851724
 31
0.0
  0
ARC
  5
153
330
1F
100
AcDbEntity
  8
0
  6
Continuous
 62
     7
370
    25
100
AcDbCircle
 10
193.528932926
 20
452.7410273239
 30
0.0
 40
0.1137731783060809
100
AcDbArc
 50
139.812768792
 51
178.0080548766
  0
ARC
  5
154
330
1F
100
AcDbEntity
  8
0
  6
Continuous
 62
     7
370
    25
100
AcDbCircle
 10
199.3014947288
 20
452.7410202919
 30
0.0
 40
0.1138037296158999
100
AcDbArc
 50
1.9949526609
 51
40.1788736471
  0
SPLINE
  5
155
330
1F
100
AcDbEntity
  8
0
  6
Continuous
 62
     7
370
    25
100
AcDbSpline
210
0.0
220
0.0
230
1.0
 70
     8
 71
     3
 72
    10
 73
     6
 74
     0
 42
0.000000001
 43
0.00000001
 40
0.0
 40
0.0
 40
0.0
 40
0.0
 40
0.5
 40
0.5
 40
1.0
 40
1.0
 40
1.0
 40
1.0
 10
194.048797544593
 20
453.5038065371073
 30
0.0
 10
193.8894240443735
 20
453.5038065371073
 30
0.0
 10
193.7332844300246
 20
453.4409458873699
 30
0.0
 10
193.5086458624256
 20
453.2235080658158
 30
0.0
 10
193.4420157083692
 20
453.0699301854639
 30
0.0
 10
193.4420157083692
 20
452.9129218853
 30
0.0
  0
LINE
  5
156
330
1F
100
AcDbEntity
  8
0
  6
Continuous
 62
     7
370
    25
100
AcDbLine
 10
194.0487960698
 20
453.5038086982
 30
0.0
 11
198.78166191
 21
453.5038086982
 31
0.0
  0
SPLINE
  5
157
330
1F
100
AcDbEntity
  8
0
  6
Continuous
 62
     7
370
    25
100
AcDbSpline
210
0.0
220
0.0
230
1.0
 70
     8
 71
     3
 72
    10
 73
     6
 74
     0
 42
0.000000001
 43
0.00000001
 40
0.0
 40
0.0
 40
0.0
 40
0.0
 40
0.5
 40
0.5
 40
1.0
 40
1.0
 40
1.0
 40
1.0
 10
199.3884432072966
 20
452.9129218853
 30
0.0
 10
199.3884432072966
 20
453.0698991160982
 30
0.0
 10
199.321939254273
 20
453.2232255017634
 30
0.0
 10
199.0976813825199
 20
453.4406151953004
 30
0.0
 10
198.941009188995
 20
453.5038065371073
 30
0.0
 10
198.7816613710727
 20
453.5038065371073
 30
0.0
  0
LINE
  5
158
330
1F
100
AcDbEntity
  8
0
  6
Continuous
 62
     7
370
    25
100
AcDbLine
 10
199.3884446444
 20
452.9129255028
 30
0.0
 11
199.3884446444
 21
452.8144437285
 31
0.0
  0
LINE
  5
159
330
1F
100
AcDbEntity
  8
0
  6
Continuous
 62
     7
370
    25
100
AcDbLine
 10
193.4420170607
 20
452.9129255028
 30
0.0
 11
193.4420170607
 21
452.8144437285
 31
0.0
  0
SPLINE
  5
15A
330
1F
100
AcDbEntity
  8
0
  6
Continuous
 62
     8
370
    18
100
AcDbSpline
210
0.0
220
0.0
230
1.0
 70
     8
 71
     3
 72
    18
 73
    14
 74
     0
 42
0.000000001
 43
0.00000001
 40
0.0
 40
0.0
 40
0.0
 40
0.0
 40
0.2499999999999998
 40
0.2499999999999998
 40
0.3749999999999998
 40
0.3749999999999998
 40
0.4999999999999997
 40
0.4999999999999997
 40
0.6249999999999996
 40
0.6249999999999996
 40
0.7499999999999996
 40
0.7499999999999996
 40
1.0
 40
1.0
 40
1.0
 40
1.0
 10
212.4935265340155
 20
489.6614135516267
 30
0.0
 10
212.5091872855371
 20
490.8497224675194
 30
0.0
 10
212.5251746199381
 20
492.0667462792459
 30
0.0
 10
212.5508367085139
 20
494.0478596575093
 30
0.0
 10
212.5597807976032
 20
494.7329514395385
 30
0.0
 10
212.5772787012369
 20
496.0556482683338
 30
0.0
 10
212.586072732285
 20
496.7122792047436
 30
0.0
 10
212.6016321598086
 20
497.870691712733
 30
0.0
 10
212.608393218491
 20
498.3707929488397
 30
0.0
 10
212.6189042827159
 20
499.1721301472126
 30
0.0
 10
212.6227832144887
 20
499.4863754489962
 30
0.0
 10
212.6303942045147
 20
500.1979099481219
 30
0.0
 10
212.6317691321837
 20
500.4146153130289
 30
0.0
 10
212.6322718433012
 20
500.6243457609756
 30
0.0
  0
SPLINE
  5
15B
330
1F
100
AcDbEntity
  8
0
  6
Continuous
 62
     8
370
    18
100
AcDbSpline
210
0.0
220
0.0
230
1.0
 70
     8
 71
     3
 72
    14
 73
    10
 74
     0
 42
0.000000001
 43
0.00000001
 40
0.0
 40
0.0
 40
0.0
 40
0.0
 40
0.25
 40
0.25
 40
0.5
 40
0.5
 40
0.75
 40
0.75
 40
1.0
 40
1.0
 40
1.0
 40
1.0
 10
213.620549659091
 20
499.7475138118058
 30
0.0
 10
213.6123399285581
 20
499.856401021345
 30
0.0
 10
213.5838459725263
 20
499.971956786998
 30
0.0
 10
213.4781473238687
 20
500.1923625706817
 30
0.0
 10
213.400724148522
 20
500.2965674443756
 30
0.0
 10
213.2094930941453
 20
500.4663673937038
 30
0.0
 10
213.0962577966155
 20
500.5314540565699
 30
0.0
 10
212.8627441794565
 20
500.6122453024946
 30
0.0
 10
212.7430948888364
 20
500.6282304931826
 30
0.0
 10
212.6322742578182
 20
500.6250340116781
 30
0.0
  0
SPLINE
  5
15C
330
1F
100
AcDbEntity
  8
0
  6
Continuous
 62
     8
370
    18
100
AcDbSpline
210
0.0
220
0.0
230
1.0
 70
     8
 71
     3
 72
    18
 73
    14
 74
     0
 42
0.000000001
 43
0.00000001
 40
0.0
 40
0.0
 40
0.0
 40
0.0
 40
0.25
 40
0.25
 40
0.375
 40
0.375
 40
0.5
 40
0.5
 40
0.625
 40
0.625
 40
0.75
 40
0.75
 40
1.0
 40
1.0
 40
1.0
 40
1.0
 10
213.6205407451506
 20
499.7467906132592
 30
0.0
 10
213.6181579036908
 20
499.5371370998629
 30
0.0
 10
213.6165690619556
 20
499.3204984268363
 30
0.0
 10
213.60771363445
 20
498.6710082612745
 30
0.0
 10
213.6035383460955
 20
498.3895311835714
 30
0.0
 10
213.5928403067855
 20
497.6857301650091
 30
0.0
 10
213.5861925014794
 20
497.2542874791763
 30
0.0
 10
213.5713400760374
 20
496.2720963942177
 30
0.0
 10
213.5629058044192
 20
495.7086986459055
 30
0.0
 10
213.5456059970411
 20
494.5502928844449
 30
0.0
 10
213.5365578745744
 20
493.9424477885426
 30
0.0
 10
213.5100461980109
 20
492.1440200966113
 30
0.0
 10
213.4929733410361
 20
490.9665501351306
 30
0.0
 10
213.4786141740895
 20
489.7918730087699
 30
0.0
  0
SPLINE
  5
15D
330
1F
100
AcDbEntity
  8
0
  6
Continuous
 62
     8
370
    18
100
AcDbSpline
210
0.0
220
0.0
230
1.0
 70
     8
 71
     3
 72
    25
 73
    21
 74
     0
 42
0.000000001
 43
0.00000001
 40
0.0
 40
0.0
 40
0.0
 40
0.0
 40
0.0250589759447465
 40
0.0500575582109446
 40
0.0750335794281373
 40
0.100024974686602
 40
0.1250696092155614
 40
0.1875614723609774
 40
0.2500981875039306
 40
0.312590050649201
 40
0.3751267657923226
 40
0.5000068718782872
 40
0.624886977964253
 40
0.6873788411074878
 40
0.7499155562526264
 40
0.8124074193962505
 40
0.8749441345410184
 40
0.9166288318971606
 40
0.9582555339258156
 40
1.0
 40
1.0
 40
1.0
 40
1.0
 10
209.6473977781136
 20
497.0143175975695
 30
0.0
 10
209.6473723593605
 20
497.0002628727326
 30
0.0
 10
209.6473215831149
 20
496.9721872958128
 30
0.0
 10
209.6469132601318
 20
496.9191397061295
 30
0.0
 10
209.646261525631
 20
496.8581707921976
 30
0.0
 10
209.6453425888422
 20
496.7884902946765
 30
0.0
 10
209.643577211956
 20
496.6714869018818
 30
0.0
 10
209.6403221013306
 20
496.4865467726534
 30
0.0
 10
209.6346706412429
 20
496.2057063493521
 30
0.0
 10
209.6275048264306
 20
495.8782098240936
 30
0.0
 10
209.616013778117
 20
495.3834337497218
 30
0.0
 10
209.5981996769017
 20
494.6634994098144
 30
0.0
 10
209.5764594678951
 20
493.8359658412093
 30
0.0
 10
209.5572447385862
 20
493.129448639601
 30
0.0
 10
209.5420282863302
 20
492.5812764568751
 30
0.0
 10
209.5261678508065
 20
492.0205352180417
 30
0.0
 10
209.5116241911363
 20
491.5154971746337
 30
0.0
 10
209.4986860017215
 20
491.0726967966936
 30
0.0
 10
209.4874861650729
 20
490.6934523013238
 30
0.0
 10
209.4799791042347
 20
490.4428832652425
 30
0.0
 10
209.4762202718516
 20
490.3174217794081
 30
0.0
  0
SPLINE
  5
15E
330
1F
100
AcDbEntity
  8
0
  6
Continuous
 62
     8
370
    18
100
AcDbSpline
210
0.0
220
0.0
230
1.0
 70
     8
 71
     3
 72
     8
 73
     4
 74
     0
 42
0.000000001
 43
0.00000001
 40
0.0
 40
0.0
 40
0.0
 40
0.0
 40
0.9713459882870077
 40
0.9713459882870077
 40
0.9713459882870077
 40
0.9713459882870077
 10
209.6473977781136
 20
497.0143175975695
 30
0.0
 10
209.7107864034709
 20
499.1176554358627
 30
0.0
 10
210.6759394850494
 20
500.5658815671868
 30
0.0
 10
212.6305828775274
 20
500.6242956397849
 30
0.0
  0
SPLINE
  5
15F
330
1F
100
AcDbEntity
  8
0
  6
Continuous
 62
     8
370
    18
100
AcDbSpline
210
0.0
220
0.0
230
1.0
 70
     8
 71
     3
 72
    12
 73
     8
 74
     0
 42
0.000000001
 43
0.00000001
 40
0.0
 40
0.0
 40
0.0
 40
0.0
 40
0.2500000000000002
 40
0.2500000000000002
 40
0.5000000000000004
 40
0.5000000000000004
 40
1.0
 40
1.0
 40
1.0
 40
1.0
 10
211.9731730222834
 20
446.621940238964
 30
0.0
 10
212.016603635458
 20
450.2059270935043
 30
0.0
 10
212.0600971917323
 20
453.7942479603766
 30
0.0
 10
212.1469553538626
 20
460.9631996530872
 30
0.0
 10
212.1903338107019
 20
464.5476766684448
 30
0.0
 10
212.3203912457863
 20
475.3011143909844
 30
0.0
 10
212.406931731197
 20
482.4700827788994
 30
0.0
 10
212.4932322933236
 20
489.6390648942127
 30
0.0
  0
SPLINE
  5
160
330
1F
100
AcDbEntity
  8
0
  6
Continuous
 62
     8
370
    18
100
AcDbSpline
210
0.0
220
0.0
230
1.0
 70
     8
 71
     3
 72
    12
 73
     8
 74
     0
 42
0.000000001
 43
0.00000001
 40
0.0
 40
0.0
 40
0.0
 40
0.0
 40
0.5
 40
0.5
 40
0.75
 40
0.75
 40
1.0
 40
1.0
 40
1.0
 40
1.0
 10
213.4783408153917
 20
489.7695101162156
 30
0.0
 10
213.3910749729939
 20
482.6007121024429
 30
0.0
 10
213.3037941281115
 20
475.4318850371744
 30
0.0
 10
213.1728547738312
 20
464.6786148970319
 30
0.0
 10
213.1292060440817
 20
461.0941885767313
 30
0.0
 10
213.0419017274399
 20
453.9253235138834
 30
0.0
 10
212.9982635208962
 20
450.3408628099048
 30
0.0
 10
212.9546155476293
 20
446.7621042879862
 30
0.0
  0
SPLINE
  5
161
330
1F
100
AcDbEntity
  8
0
  6
Continuous
 62
     8
370
    18
100
AcDbSpline
210
0.0
220
0.0
230
1.0
 70
     8
 71
     3
 72
    14
 73
    10
 74
     0
 42
0.000000001
 43
0.00000001
 40
0.0
 40
0.0
 40
0.0
 40
0.0
 40
0.25
 40
0.25
 40
0.5
 40
0.5
 40
0.75
 40
0.75
 40
1.0
 40
1.0
 40
1.0
 40
1.0
 10
212.9546155476293
 20
446.7621042879862
 30
0.0
 10
212.9479225742572
 20
446.7434798385601
 30
0.0
 10
212.9209002781877
 20
446.7238846928202
 30
0.0
 10
212.8174910430837
 20
446.6870291688273
 30
0.0
 10
212.7408663177495
 20
446.6698855850349
 30
0.0
 10
212.5504864927918
 20
446.6426966193757
 30
0.0
 10
212.4373211786664
 20
446.6327354673248
 30
0.0
 10
212.2037478239378
 20
446.6214650511623
 30
0.0
 10
212.0839904177235
 20
446.6200979532097
 30
0.0
 10
211.9731730222834
 20
446.621940238964
 30
0.0
  0
SPLINE
  5
162
330
1F
100
AcDbEntity
  8
0
  6
Continuous
 62
     8
370
    18
100
AcDbSpline
210
0.0
220
0.0
230
1.0
 70
     8
 71
     3
 72
    22
 73
    18
 74
     0
 42
0.000000001
 43
0.00000001
 40
0.0
 40
0.0
 40
0.0
 40
0.0
 40
0.039540111997141
 40
0.0738928396861876
 40
0.1032841845461284
 40
0.1278961895085297
 40
0.1960523840831162
 40
0.2549435416222389
 40
0.3832897385117682
 40
0.5114432134766645
 40
0.6400383091754546
 40
0.7056676792876427
 40
0.7688387903123437
 40
0.8330597633262582
 40
0.8971899290307772
 40
0.948007435091915
 40
0.9999999999999999
 40
0.9999999999999999
 40
0.9999999999999999
 40
0.9999999999999999
 10
208.2855340766731
 20
450.7050956536298
 30
0.0
 10
208.2847411606153
 20
450.6377300188902
 30
0.0
 10
208.283259353504
 20
450.5118366463947
 30
0.0
 10
208.2907661440831
 20
450.3333884467912
 30
0.0
 10
208.302510238587
 20
450.1795621309656
 30
0.0
 10
208.3258688790482
 20
449.9655648776048
 30
0.0
 10
208.3701846504303
 20
449.6974800963303
 30
0.0
 10
208.4829807214968
 20
449.243058497028
 30
0.0
 10
208.6971209196477
 20
448.6805011718628
 30
0.0
 10
209.1023696252638
 20
448.0190684497978
 30
0.0
 10
209.5778175336284
 20
447.5211084083216
 30
0.0
 10
210.0370997244622
 20
447.1887917438349
 30
0.0
 10
210.4176885794326
 20
446.9789502835621
 30
0.0
 10
210.8249713375428
 20
446.8154100583151
 30
0.0
 10
211.2264918315871
 20
446.7081956343238
 30
0.0
 10
211.610842926411
 20
446.6440655880183
 30
0.0
 10
211.8509509077194
 20
446.6293917015183
 30
0.0
 10
211.9723770451146
 20
446.6219709013076
 30
0.0
  0
LINE
  5
163
330
1F
100
AcDbEntity
  8
0
  6
Continuous
 62
     8
370
    18
100
AcDbLine
 10
208.2855331125
 20
450.7050949545
 30
0.0
 11
209.4762178483
 21
490.3174254508
 31
0.0
  0
SPLINE
  5
164
330
1F
100
AcDbEntity
  8
0
  6
Continuous
 62
     8
370
    18
100
AcDbSpline
210
0.0
220
0.0
230
1.0
 70
     8
 71
     3
 72
     9
 73
     5
 74
     0
 42
0.000000001
 43
0.00000001
 40
0.094302948924579
 40
0.094302948924579
 40
0.094302948924579
 40
0.094302948924579
 40
0.969302948924579
 40
1.0
 40
1.0
 40
1.0
 40
1.0
 10
213.7529462310325
 20
491.3036128364803
 30
0.0
 10
213.7824790182545
 20
494.0248054383243
 30
0.0
 10
213.8303943161949
 20
496.8400524454976
 30
0.0
 10
213.6277376722486
 20
499.6522041308166
 30
0.0
 10
213.6205489626639
 20
499.7475138030222
 30
0.0
  0
LINE
  5
165
330
1F
100
AcDbEntity
  8
0
  6
Continuous
 62
     8
370
    18
100
AcDbLine
 10
166.3152298304
 20
377.161878387
 30
0.0
 11
116.3152290853
 21
377.161878387
 31
0.0
  0
SPLINE
  5
166
330
1F
100
AcDbEntity
  8
0
  6
Continuous
 62
     8
370
    18
100
AcDbSpline
210
0.0
220
0.0
230
1.0
 70
     8
 71
     3
 72
     8
 73
     4
 74
     0
 42
0.000000001
 43
0.00000001
 40
0.0
 40
0.0
 40
0.0
 40
0.0
 40
0.3538592396975055
 40
0.3538592396975055
 40
0.3538592396975055
 40
0.3538592396975055
 10
213.7529462310324
 20
491.3036128364794
 30
0.0
 10
213.7837989414912
 20
491.6485826733457
 30
0.0
 10
213.7992252967206
 20
492.0157404379329
 30
0.0
 10
213.7992252967206
 20
492.4050861302409
 30
0.0
  0
SPLINE
  5
167
330
1F
100
AcDbEntity
  8
0
  6
Continuous
 62
     8
370
    18
100
AcDbSpline
210
0.0
220
0.0
230
1.0
 70
     8
 71
     3
 72
    10
 73
     6
 74
     0
 42
0.000000001
 43
0.00000001
 40
0.0
 40
0.0
 40
0.0
 40
0.0
 40
0.5
 40
0.5
 40
1.0
 40
1.0
 40
1.0
 40
1.0
 10
212.9546130408499
 20
446.7628490131273
 30
0.0
 10
212.9270085635439
 20
444.4801991538274
 30
0.0
 10
212.8991439593223
 20
442.1995001334336
 30
0.0
 10
212.8443738261028
 20
437.6445137151836
 30
0.0
 10
212.8170029801767
 20
435.3688175096881
 30
0.0
 10
212.7893258671537
 20
433.0926364019205
 30
0.0
  0
LINE
  5
168
330
1F
100
AcDbEntity
  8
0
  6
Continuous
 62
     8
370
    18
100
AcDbLine
 10
160.7408209117
 20
379.9401244545
 30
0.0
 11
121.8896380039
 21
379.9401244545
 31
0.0
  0
SPLINE
  5
169
330
1F
100
AcDbEntity
  8
0
  6
Continuous
 62
     8
370
    18
100
AcDbSpline
210
0.0
220
0.0
230
1.0
 70
     8
 71
     3
 72
    11
 73
     7
 74
     0
 42
0.000000001
 43
0.00000001
 40
0.0
 40
0.0
 40
0.0
 40
0.0
 40
0.125
 40
0.25
 40
0.375
 40
0.5
 40
0.5
 40
0.5
 40
0.5
 10
208.2855340766731
 20
450.7050956536298
 30
0.0
 10
208.3057933082673
 20
451.537324467595
 30
0.0
 10
208.3419196107588
 20
453.0750839173737
 30
0.0
 10
208.3817235686318
 20
454.948033391091
 30
0.0
 10
208.4059330168669
 20
456.3336979973617
 30
0.0
 10
208.4114037480056
 20
456.913518342348
 30
0.0
 10
208.4114037480055
 20
457.1126646298184
 30
0.0
  0
SPLINE
  5
16A
330
1F
100
AcDbEntity
  8
0
  6
Continuous
 62
     8
370
    18
100
AcDbSpline
210
0.0
220
0.0
230
1.0
 70
     8
 71
     3
 72
    23
 73
    19
 74
     0
 42
0.000000001
 43
0.00000001
 40
0.0
 40
0.0
 40
0.0
 40
0.0
 40
0.0313039980728353
 40
0.0625695616560748
 40
0.0938090852712915
 40
0.125034994448263
 40
0.156259730969901
 40
0.1874957380203814
 40
0.2187554453248989
 40
0.2500512543696443
 40
0.3750255712466471
 40
0.5000263511179884
 40
0.6249949244172099
 40
0.7499910790258867
 40
0.8125267088683363
 40
0.8749736977766809
 40
0.9374316206037931
 40
1.0
 40
1.0
 40
1.0
 40
1.0
 10
208.2855340766731
 20
455.1671121772015
 30
0.0
 10
208.2880508149694
 20
455.230504923142
 30
0.0
 10
208.2930812015557
 20
455.3572125825422
 30
0.0
 10
208.3003617092363
 20
455.5374101927408
 30
0.0
 10
208.3074406099917
 20
455.7101945767944
 30
0.0
 10
208.3142994152106
 20
455.8748721133235
 30
0.0
 10
208.3209430719366
 20
456.0316283586127
 30
0.0
 10
208.3273702410638
 20
456.1804134903102
 30
0.0
 10
208.3335813161252
 20
456.3212409090863
 30
0.0
 10
208.3455535560426
 20
456.5865904431244
 30
0.0
 10
208.3618314227663
 20
456.9236622683402
 30
0.0
 10
208.37975636025
 20
457.2385161255866
 30
0.0
 10
208.3938368617115
 20
457.4183487647687
 30
0.0
 10
208.4022561712132
 20
457.4534509809842
 30
0.0
 10
208.4069968528484
 20
457.4135470043625
 30
0.0
 10
208.4095216512528
 20
457.3487311465827
 30
0.0
 10
208.4111024799267
 20
457.2520938386745
 30
0.0
 10
208.4112977528092
 20
457.1589854555462
 30
0.0
 10
208.411395475509
 20
457.1123901349061
 30
0.0
  0
LINE
  5
16B
330
1F
100
AcDbEntity
  8
0
  6
Continuous
 62
     8
370
    18
100
AcDbLine
 10
208.2855331125
 20
455.1671135636
 30
0.0
 11
209.4762178483
 21
494.5726010413
 31
0.0
  0
LINE
  5
16C
330
1F
100
AcDbEntity
  8
0
  6
Continuous
 62
     8
370
    18
100
AcDbLine
 10
209.6473949375
 20
497.0143202157
 30
0.0
 11
209.6473949375
 21
499.235599062
 31
0.0
  0
SPLINE
  5
16D
330
1F
100
AcDbEntity
  8
0
  6
Continuous
 62
     8
370
    18
100
AcDbSpline
210
0.0
220
0.0
230
1.0
 70
     8
 71
     3
 72
    10
 73
     6
 74
     0
 42
0.000000001
 43
0.00000001
 40
0.0
 40
0.0
 40
0.0
 40
0.0
 40
0.5
 40
0.5
 40
1.0
 40
1.0
 40
1.0
 40
1.0
 10
211.8396700393253
 20
432.9308464348453
 30
0.0
 10
211.8667781025056
 20
435.2106749119981
 30
0.0
 10
211.8812604783229
 20
437.488473376158
 30
0.0
 10
211.9216901595361
 20
442.0521888238795
 30
0.0
 10
211.9474632792079
 20
444.3377511573933
 30
0.0
 10
211.9729205179754
 20
446.6219441895194
 30
0.0
  0
LINE
  5
16E
330
1F
100
AcDbEntity
  8
0
  6
Continuous
 62
     8
370
    18
100
AcDbLine
 10
141.3152294578
 20
473.2644248219
 30
0.0
 11
123.3152302327
 21
473.2644248219
 31
0.0
  0
LINE
  5
16F
330
1F
100
AcDbEntity
  8
0
  6
Continuous
 62
     8
370
    18
100
AcDbLine
 10
159.315228683
 20
473.2644248219
 30
0.0
 11
141.3152294578
 21
473.2644248219
 31
0.0
  0
SPLINE
  5
170
330
1F
100
AcDbEntity
  8
0
  6
Continuous
 62
     8
370
    18
100
AcDbSpline
210
0.0
220
0.0
230
1.0
 70
     8
 71
     3
 72
    42
 73
    38
 74
     0
 42
0.000000001
 43
0.00000001
 40
0.0
 40
0.0
 40
0.0
 40
0.0
 40
0.0613362569323847
 40
0.0826120200104545
 40
0.104365109850023
 40
0.1266427298075092
 40
0.1474586694519553
 40
0.1705040398238549
 40
0.1958025474036114
 40
0.2233721404359097
 40
0.2532265649607189
 40
0.2984594404423096
 40
0.3345934509648873
 40
0.346501622245085
 40
0.3569527244059588
 40
0.3659474309478679
 40
0.3734865668300026
 40
0.3795714526567625
 40
0.4470541519003195
 40
0.5063546741095963
 40
0.5655602339776256
 40
0.5783444034915516
 40
0.5914708078016842
 40
0.6049541277106559
 40
0.6188078162062702
 40
0.6330446057440181
 40
0.6511268523398632
 40
0.6782595809642262
 40
0.701383540958891
 40
0.7285344950134215
 40
0.759712498760287
 40
0.7966298248583128
 40
0.8299794746110982
 40
0.8597905013211469
 40
0.8861041009577635
 40
0.9514949883913484
 40
1.0
 40
1.0
 40
1.0
 40
1.0
 10
167.3152206810489
 20
452.7726087184107
 30
0.0
 10
167.2630533434399
 20
452.710187065191
 30
0.0
 10
167.1927906741152
 20
452.6261131564987
 30
0.0
 10
166.8331247247102
 20
452.1739716795923
 30
0.0
 10
166.5588643709576
 20
451.8246786822168
 30
0.0
 10
166.2326332378648
 20
451.4035534233769
 30
0.0
 10
165.8487644400096
 20
450.908850050565
 30
0.0
 10
165.4041329937971
 20
450.3256367513176
 30
0.0
 10
164.8784017108962
 20
449.6106544745427
 30
0.0
 10
164.2724251851245
 20
448.7478635632835
 30
0.0
 10
163.4795330277997
 20
447.5758422634506
 30
0.0
 10
162.6080006710796
 20
446.1634209335848
 30
0.0
 10
161.892999337655
 20
444.8595592876308
 30
0.0
 10
161.4526590419549
 20
444.0029933381691
 30
0.0
 10
161.2198356773842
 20
443.5340406748903
 30
0.0
 10
161.0232492753219
 20
443.1229271027517
 30
0.0
 10
160.8621847909002
 20
442.7727425662157
 30
0.0
 10
160.312295738401
 20
441.4954899833358
 30
0.0
 10
159.5852993560872
 20
439.2255656566689
 30
0.0
 10
159.1626020789502
 20
435.784124616502
 30
0.0
 10
159.4571969643671
 20
433.3466574322356
 30
0.0
 10
159.8049443167698
 20
431.8466657116333
 30
0.0
 10
159.9903499037396
 20
431.1643456235372
 30
0.0
 10
160.2040323642693
 20
430.4781089198468
 30
0.0
 10
160.446974121038
 20
429.7897642774553
 30
0.0
 10
160.7371405461914
 20
429.0440959915921
 30
0.0
 10
161.160075603261
 20
428.1213284784008
 30
0.0
 10
161.6718179328524
 20
427.1052665273384
 30
0.0
 10
162.2626561444095
 20
426.0090004932001
 30
0.0
 10
162.8914592424267
 20
424.9163307584188
 30
0.0
 10
163.6381176316608
 20
423.7303285761995
 30
0.0
 10
164.4187361246056
 20
422.5820558415466
 30
0.0
 10
165.138344970922
 20
421.5741983075446
 30
0.0
 10
165.7349055077762
 20
420.7833051509257
 30
0.0
 10
166.4481268884554
 20
419.8628220526735
 30
0.0
 10
167.097709382507
 20
419.0349419658761
 30
0.0
 10
167.2092070915619
 20
418.9014777029685
 30
0.0
 10
167.2566907825246
 20
418.8446390838777
 30
0.0
  0
SPLINE
  5
171
330
1F
100
AcDbEntity
  8
0
  6
Continuous
 62
     8
370
    18
100
AcDbSpline
210
0.0
220
0.0
230
1.0
 70
     8
 71
     3
 72
    13
 73
     9
 74
     0
 42
0.000000001
 43
0.00000001
 40
0.0
 40
0.0
 40
0.0
 40
0.0
 40
0.2267822094427352
 40
0.4324609166096237
 40
0.619037766088749
 40
0.7966511692544844
 40
0.9762826632894313
 40
1.0
 40
1.0
 40
1.0
 40
1.0
 10
167.3152542086616
 20
452.7727353782808
 30
0.0
 10
166.6968265335691
 20
452.7748246779842
 30
0.0
 10
165.517519744538
 20
452.7788088549926
 30
0.0
 10
163.8425760106819
 20
453.0217344708087
 30
0.0
 10
162.3570627717423
 20
453.5324369393531
 30
0.0
 10
161.1378112719622
 20
454.3862732542802
 30
0.0
 10
160.4254208391174
 20
455.1926280873753
 30
0.0
 10
160.2241460193093
 20
455.7093455219604
 30
0.0
 10
160.2006705822721
 20
455.7696122141039
 30
0.0
  0
SPLINE
  5
172
330
1F
100
AcDbEntity
  8
0
  6
Continuous
 62
     8
370
    18
100
AcDbSpline
210
0.0
220
0.0
230
1.0
 70
     8
 71
     3
 72
     8
 73
     4
 74
     0
 42
0.000000001
 43
0.00000001
 40
0.0
 40
0.0
 40
0.0
 40
0.0
 40
1.0
 40
1.0
 40
1.0
 40
1.0
 10
212.6322742578182
 20
500.6250340116781
 30
0.0
 10
212.6345092772043
 20
500.9918485186968
 30
0.0
 10
212.6356090357548
 20
501.3586278778763
 30
0.0
 10
212.635603158557
 20
501.7253766027717
 30
0.0
  0
SPLINE
  5
173
330
1F
100
AcDbEntity
  8
0
  6
Continuous
 62
     8
370
    18
100
AcDbSpline
210
0.0
220
0.0
230
1.0
 70
     8
 71
     3
 72
     8
 73
     4
 74
     0
 42
0.000000001
 43
0.00000001
 40
0.0
 40
0.0
 40
0.0
 40
0.0
 40
1.0
 40
1.0
 40
1.0
 40
1.0
 10
213.6267150372441
 20
500.8513063644849
 30
0.0
 10
213.6267253491436
 20
500.484449627477
 30
0.0
 10
213.6247198968349
 20
500.1165600679993
 30
0.0
 10
213.620549659091
 20
499.7475138118058
 30
0.0
  0
SPLINE
  5
174
330
1F
100
AcDbEntity
  8
0
  6
Continuous
 62
     8
370
    18
100
AcDbSpline
210
0.0
220
0.0
230
1.0
 70
     8
 71
     3
 72
     8
 73
     4
 74
     0
 42
0.000000001
 43
0.00000001
 40
0.0
 40
0.0
 40
0.0
 40
0.0
 40
0.9713459882870077
 40
0.9713459882870077
 40
0.9713459882870077
 40
0.9713459882870077
 10
209.6473977781136
 20
499.2356019344479
 30
0.0
 10
209.7107864034709
 20
501.338939772741
 30
0.0
 10
210.6759394850494
 20
502.7688071884272
 30
0.0
 10
212.6305828775274
 20
502.8261691593195
 30
0.0
  0
LINE
  5
175
330
1F
100
AcDbEntity
  8
0
  6
Continuous
 62
     8
370
    18
100
AcDbLine
 10
212.6356067481
 20
501.7253744812
 30
0.0
 11
212.6322763386
 21
502.8255272122
 31
0.0
  0
SPLINE
  5
176
330
1F
100
AcDbEntity
  8
0
  6
Continuous
 62
     8
370
    18
100
AcDbSpline
210
0.0
220
0.0
230
1.0
 70
     8
 71
     3
 72
     9
 73
     5
 74
     0
 42
0.000000001
 43
0.00000001
 40
0.0
 40
0.0
 40
0.0
 40
0.0
 40
0.8306117687218783
 40
1.0
 40
1.0
 40
1.0
 40
1.0
 10
213.626712781407
 20
500.8513021679079
 30
0.0
 10
213.7192868041039
 20
499.2754049120419
 30
0.0
 10
213.8307396225962
 20
497.3781319438405
 30
0.0
 10
213.8147155581981
 20
495.4786672415269
 30
0.0
 10
213.8120012702718
 20
495.1569202752268
 30
0.0
  0
SPLINE
  5
177
330
1F
100
AcDbEntity
  8
0
  6
Continuous
 62
     8
370
    18
100
AcDbSpline
210
0.0
220
0.0
230
1.0
 70
     8
 71
     3
 72
    32
 73
    28
 74
     0
 42
0.000000001
 43
0.00000001
 40
0.0
 40
0.0
 40
0.0
 40
0.0
 40
0.0625000000000002
 40
0.0625000000000002
 40
0.1250000000000005
 40
0.1250000000000005
 40
0.1875000000000007
 40
0.1875000000000007
 40
0.250000000000001
 40
0.250000000000001
 40
0.3750000000000011
 40
0.3750000000000011
 40
0.4375000000000012
 40
0.4375000000000012
 40
0.5000000000000013
 40
0.5000000000000013
 40
0.5625000000000014
 40
0.5625000000000014
 40
0.6250000000000016
 40
0.6250000000000016
 40
0.6875000000000018
 40
0.6875000000000018
 40
0.7500000000000019
 40
0.7500000000000019
 40
0.8750000000000009
 40
0.8750000000000009
 40
1.0
 40
1.0
 40
1.0
 40
1.0
 10
211.6722528460886
 20
419.9156653842842
 30
0.0
 10
211.6685602917875
 20
419.8837330360167
 30
0.0
 10
211.6651480063497
 20
419.865045929997
 30
0.0
 10
211.6592629736365
 20
419.8704878822673
 30
0.0
 10
211.6568134685957
 20
419.8951894609019
 30
0.0
 10
211.6530112273544
 20
420.000565828989
 30
0.0
 10
211.6516612760327
 20
420.0801610983829
 30
0.0
 10
211.6502828051929
 20
420.3026374946936
 30
0.0
 10
211.6502683719704
 20
420.4470763966318
 30
0.0
 10
211.6525899020149
 20
420.9725775519719
 30
0.0
 10
211.6575781657245
 20
421.4433739732803
 30
0.0
 10
211.6700224654018
 20
422.3159177141291
 30
0.0
 10
211.6749425949766
 20
422.6339745278572
 30
0.0
 10
211.6858020933527
 20
423.3041720179333
 30
0.0
 10
211.6917665368758
 20
423.6573384856449
 30
0.0
 10
211.7046489573023
 20
424.3937215222228
 30
0.0
 10
211.7115356367275
 20
424.7748634332443
 30
0.0
 10
211.7254524966065
 20
425.5394798824288
 30
0.0
 10
211.7324871882075
 20
425.9239213536707
 30
0.0
 10
211.7464186002995
 20
426.6914570533257
 30
0.0
 10
211.7532763417252
 20
427.0731679557296
 30
0.0
 10
211.7663462013196
 20
427.8227194832488
 30
0.0
 10
211.7725276154614
 20
428.1896113820616
 30
0.0
 10
211.7903262931393
 20
429.2841842645822
 30
0.0
 10
211.8014083239895
 20
430.0112414562693
 30
0.0
 10
211.8219232052448
 20
431.4698400939313
 30
0.0
 10
211.831301662858
 20
432.1994398455001
 30
0.0
 10
211.8396500177354
 20
432.9293497605354
 30
0.0
  0
SPLINE
  5
178
330
1F
100
AcDbEntity
  8
0
  6
Continuous
 62
     8
370
    18
100
AcDbSpline
210
0.0
220
0.0
230
1.0
 70
     8
 71
     3
 72
    16
 73
    12
 74
     0
 42
0.000000001
 43
0.00000001
 40
0.0
 40
0.0
 40
0.0
 40
0.0
 40
0.045038216115404
 40
0.1407540630556303
 40
0.2368594373365984
 40
0.3324201639246916
 40
0.4286471715056066
 40
0.5247005959484821
 40
0.6203310017874664
 40
0.8104111253775247
 40
1.0
 40
1.0
 40
1.0
 40
1.0
 10
212.6481088223234
 20
420.8335417719042
 30
0.0
 10
212.6477359205849
 20
420.805677082456
 30
0.0
 10
212.6465705228551
 20
420.7185939651859
 30
0.0
 10
212.6473218089858
 20
420.972335695614
 30
0.0
 10
212.6519003868631
 20
421.5348367566398
 30
0.0
 10
212.6629831111471
 20
422.4763379856407
 30
0.0
 10
212.6790205317982
 20
423.7105048350881
 30
0.0
 10
212.6975029581022
 20
425.1638668272585
 30
0.0
 10
212.7234750229949
 20
427.2466793337031
 30
0.0
 10
212.7513791357984
 20
429.9153590480225
 30
0.0
 10
212.7766837432891
 20
432.034448822561
 30
0.0
 10
212.7893196763769
 20
433.0926227779543
 30
0.0
  0
LINE
  5
179
330
1F
100
AcDbEntity
  8
0
  6
Continuous
 62
     8
370
    18
100
AcDbLine
 10
203.2621877613
 20
452.9337126227
 30
0.0
 11
203.2621877613
 21
452.744885108
 31
0.0
  0
SPLINE
  5
17A
330
1F
100
AcDbEntity
  8
0
  6
Continuous
 62
     8
370
    18
100
AcDbSpline
210
0.0
220
0.0
230
1.0
 70
     8
 71
     3
 72
     8
 73
     4
 74
     0
 42
0.000000001
 43
0.00000001
 40
0.0
 40
0.0
 40
0.0
 40
0.0
 40
1.0
 40
1.0
 40
1.0
 40
1.0
 10
213.6205496590911
 20
501.9486939498361
 30
0.0
 10
213.6247646450083
 20
501.5860532690432
 30
0.0
 10
213.6268120521153
 20
501.2202460945079
 30
0.0
 10
213.6267150372441
 20
500.851306364485
 30
0.0
  0
SPLINE
  5
17B
330
1F
100
AcDbEntity
  8
0
  6
Continuous
 62
     8
370
    18
100
AcDbSpline
210
0.0
220
0.0
230
1.0
 70
     8
 71
     3
 72
    14
 73
    10
 74
     0
 42
0.000000001
 43
0.00000001
 40
0.0
 40
0.0
 40
0.0
 40
0.0
 40
0.25
 40
0.25
 40
0.5
 40
0.5
 40
0.75
 40
0.75
 40
1.0
 40
1.0
 40
1.0
 40
1.0
 10
212.6322718643711
 20
502.8262095763471
 30
0.0
 10
212.7430924960606
 20
502.8294863644711
 30
0.0
 10
212.8627419834573
 20
502.813587644347
 30
0.0
 10
213.0962559188129
 20
502.7329643135737
 30
0.0
 10
213.2094913106379
 20
502.667958623233
 30
0.0
 10
213.4007217354275
 20
502.4982946023478
 30
0.0
 10
213.4781441634829
 20
502.3941443003076
 30
0.0
 10
213.5838404471721
 20
502.1738125518038
 30
0.0
 10
213.6123327795418
 20
502.0582764439434
 30
0.0
 10
213.6205408631083
 20
501.9493946796931
 30
0.0
  0
LINE
  5
17C
330
1F
100
AcDbEntity
  8
0
  6
Continuous
 62
     8
370
    18
100
AcDbLine
 10
213.6978062215
 20
499.8726684065
 30
0.0
 11
213.6205511513
 21
501.948698184
 31
0.0
  0
ARC
  5
17D
330
1F
100
AcDbEntity
  8
0
  6
Continuous
 62
     8
370
    18
100
AcDbCircle
 10
196.4152308526
 20
460.8589346003
 30
0.0
 40
8.70679455689437
100
AcDbArc
 50
250.0328075283
 51
289.9671924717
  0
ARC
  5
17E
330
1F
100
AcDbEntity
  8
0
  6
Continuous
 62
     8
370
    18
100
AcDbCircle
 10
196.4152308526
 20
459.9728928092
 30
0.0
 40
6.985396578140391
100
AcDbArc
 50
251.0804158649
 51
288.9195841351
  0
LINE
  5
17F
330
1F
100
AcDbEntity
  8
0
  6
Continuous
 62
     8
370
    18
100
AcDbLine
 10
213.6130186143
 20
502.2430110188
 30
0.0
 11
213.6205437007
 21
501.9493985386
 31
0.0
  0
LINE
  5
180
330
1F
100
AcDbEntity
  8
0
  6
Continuous
 62
     8
370
    18
100
AcDbLine
 10
212.632268888
 20
502.8262126656
 30
0.0
 11
212.6256751241
 21
503.2082337351
 31
0.0
  0
ARC
  5
181
330
1F
100
AcDbEntity
  8
0
  6
Continuous
 62
     8
370
    18
100
AcDbCircle
 10
196.4152289899
 20
446.6706629259
 30
0.0
 40
7.231312876049296
100
AcDbArc
 50
70.8981728064
 51
109.1018271936
  0
ARC
  5
182
330
1F
100
AcDbEntity
  8
0
  6
Continuous
 62
     7
370
    25
100
AcDbCircle
 10
345.4885547458
 20
377.1618784439
 30
0.0
 40
1.000000000000057
100
AcDbArc
 50
0.0
 51
63.5200440425
  0
ARC
  5
183
330
1F
100
AcDbEntity
  8
0
  6
Continuous
 62
     7
370
    25
100
AcDbCircle
 10
297.4885547458
 20
377.1618784439
 30
0.0
 40
1.0
100
AcDbArc
 50
116.4799559575
 51
180.0
  0
LINE
  5
184
330
1F
100
AcDbEntity
  8
0
  6
Continuous
 62
     7
370
    25
100
AcDbLine
 10
296.4885543733
 20
377.161878387
 30
0.0
 11
296.4885543733
 21
373.9726050775
 31
0.0
  0
LINE
  5
185
330
1F
100
AcDbEntity
  8
0
  6
Continuous
 62
     7
370
    25
100
AcDbLine
 10
346.4885551183
 20
373.9726050775
 30
0.0
 11
346.4885551183
 21
377.161878387
 31
0.0
  0
ARC
  5
186
330
1F
100
AcDbEntity
  8
0
  6
Continuous
 62
     7
370
    25
100
AcDbCircle
 10
296.6885547458
 20
373.9726050825
 30
0.0
 40
0.1999999999999886
100
AcDbArc
 50
180.0
 51
270.0
  0
ARC
  5
187
330
1F
100
AcDbEntity
  8
0
  6
Continuous
 62
     7
370
    25
100
AcDbCircle
 10
346.2885547458
 20
373.9726050825
 30
0.0
 40
0.1999999999999886
100
AcDbArc
 50
270.0
 51
0.0
  0
ARC
  5
188
330
1F
100
AcDbEntity
  8
0
  6
Continuous
 62
     7
370
    25
100
AcDbCircle
 10
308.6356724174
 20
354.7846183879
 30
0.0
 40
26.00000000000004
100
AcDbArc
 50
104.6430576274
 51
116.4799559575
  0
ARC
  5
189
330
1F
100
AcDbEntity
  8
0
  6
Continuous
 62
     7
370
    25
100
AcDbCircle
 10
334.3414370742
 20
354.7846183879
 30
0.0
 40
26.00000000000004
100
AcDbArc
 50
63.5200440425
 51
75.3569423726
  0
ARC
  5
18A
330
1F
100
AcDbEntity
  8
0
  6
Continuous
 62
     7
370
    25
100
AcDbCircle
 10
340.6613500215
 20
378.9726050825
 30
0.0
 40
1.0
100
AcDbArc
 50
75.3569423726
 51
90.0
  0
ARC
  5
18B
330
1F
100
AcDbEntity
  8
0
  6
Continuous
 62
     7
370
    25
100
AcDbCircle
 10
302.3157594702
 20
378.9726050825
 30
0.0
 40
1.00000000000006
100
AcDbArc
 50
90.0
 51
104.6430576274
  0
ARC
  5
18C
330
1F
100
AcDbEntity
  8
0
  6
Continuous
 62
     7
370
    25
100
AcDbCircle
 10
304.4885547458
 20
473.2644271246
 30
0.0
 40
1.0
100
AcDbArc
 50
125.6847825153
 51
180.0
  0
ARC
  5
18D
330
1F
100
AcDbEntity
  8
0
  6
Continuous
 62
     7
370
    25
100
AcDbCircle
 10
338.4885547458
 20
473.2644271246
 30
0.0
 40
1.0
100
AcDbArc
 50
0.0
 51
54.3152174847
  0
LINE
  5
18E
330
1F
100
AcDbEntity
  8
0
  6
Continuous
 62
     7
370
    25
100
AcDbLine
 10
339.488553971
 20
380.1726049208
 30
0.0
 11
339.488553971
 21
473.2644248219
 31
0.0
  0
LINE
  5
18F
330
1F
100
AcDbEntity
  8
0
  6
Continuous
 62
     7
370
    25
100
AcDbLine
 10
303.4885555207
 20
473.2644248219
 30
0.0
 11
303.4885555207
 21
380.1726049208
 31
0.0
  0
ARC
  5
190
330
1F
100
AcDbEntity
  8
0
  6
Continuous
 62
     7
370
    25
100
AcDbCircle
 10
339.2885547458
 20
380.1726050825
 30
0.0
 40
0.2000000000000455
100
AcDbArc
 50
270.0
 51
0.0
  0
ARC
  5
191
330
1F
100
AcDbEntity
  8
0
  6
Continuous
 62
     7
370
    25
100
AcDbCircle
 10
303.6885547458
 20
380.1726050825
 30
0.0
 40
0.1999999999999886
100
AcDbArc
 50
180.0
 51
270.0
  0
ARC
  5
192
330
1F
100
AcDbEntity
  8
0
  6
Continuous
 62
     7
370
    25
100
AcDbCircle
 10
323.7382964201
 20
446.4605571526
 30
0.0
 40
34.00000000000003
100
AcDbArc
 50
112.9357270896
 51
125.6847825153
  0
ARC
  5
193
330
1F
100
AcDbEntity
  8
0
  6
Continuous
 62
     7
370
    25
100
AcDbCircle
 10
319.2388130716
 20
446.4605571526
 30
0.0
 40
34.00000000000004
100
AcDbArc
 50
54.3152174847
 51
67.0642729104
  0
LINE
  5
194
330
1F
100
AcDbEntity
  8
0
  6
Continuous
 62
     7
370
    25
100
AcDbLine
 10
310.4885548054
 20
566.9726121636
 30
0.0
 11
310.4885548054
 21
477.7726072283
 31
0.0
  0
LINE
  5
195
330
1F
100
AcDbEntity
  8
0
  6
Continuous
 62
     7
370
    25
100
AcDbLine
 10
332.4885546862
 20
477.7726072283
 30
0.0
 11
332.4885546862
 21
566.9726121636
 31
0.0
  0
ARC
  5
196
330
1F
100
AcDbEntity
  8
0
  6
Continuous
 62
     7
370
    25
100
AcDbCircle
 10
361.4885547458
 20
566.9726050825
 30
0.0
 40
29.0
100
AcDbArc
 50
90.0
 51
180.0
  0
ARC
  5
197
330
1F
100
AcDbEntity
  8
0
  6
Continuous
 62
     7
370
    25
100
AcDbCircle
 10
361.4885547458
 20
566.9726050825
 30
0.0
 40
51.0
100
AcDbArc
 50
90.0
 51
180.0
  0
LINE
  5
198
330
1F
100
AcDbEntity
  8
0
  6
Continuous
 62
     7
370
    25
100
AcDbLine
 10
480.410526663
 20
595.9726113291
 30
0.0
 11
484.4885572492
 21
595.9726113291
 31
0.0
  0
LINE
  5
199
330
1F
100
AcDbEntity
  8
0
  6
Continuous
 62
     7
370
    25
100
AcDbLine
 10
361.4885538517
 20
595.9726113291
 30
0.0
 11
461.3483503162
 21
595.9726113291
 31
0.0
  0
LINE
  5
19A
330
1F
100
AcDbEntity
  8
0
  6
Continuous
 62
     7
370
    25
100
AcDbLine
 10
484.4885572492
 20
617.9726112099
 30
0.0
 11
361.4885538517
 21
617.9726112099
 31
0.0
  0
LINE
  5
19B
330
1F
100
AcDbEntity
  8
0
  6
Continuous
 62
     7
370
    25
100
AcDbLine
 10
484.4885572492
 20
595.9726113291
 30
0.0
 11
484.6885606348
 21
595.9726113291
 31
0.0
  0
LINE
  5
19C
330
1F
100
AcDbEntity
  8
0
  6
Continuous
 62
     7
370
    25
100
AcDbLine
 10
484.6885606348
 20
617.9726112099
 30
0.0
 11
484.4885572492
 21
617.9726112099
 31
0.0
  0
ARC
  5
19D
330
1F
100
AcDbEntity
  8
0
  6
Continuous
 62
     7
370
    25
100
AcDbCircle
 10
484.6885547458
 20
596.9726050825
 30
0.0
 40
1.0
100
AcDbArc
 50
270.0
 51
0.0
  0
ARC
  5
19E
330
1F
100
AcDbEntity
  8
0
  6
Continuous
 62
     7
370
    25
100
AcDbCircle
 10
484.6885547458
 20
616.9726050825
 30
0.0
 40
1.0
100
AcDbArc
 50
0.0
 51
90.0
  0
LINE
  5
19F
330
1F
100
AcDbEntity
  8
0
  6
Continuous
 62
     7
370
    25
100
AcDbLine
 10
461.2597331106
 20
596.0386830778
 30
0.0
 11
461.7533489763
 21
592.0184540959
 31
0.0
  0
LINE
  5
1A0
330
1F
100
AcDbEntity
  8
0
  6
Continuous
 62
     7
370
    25
100
AcDbLine
 10
480.6117221414
 20
594.3339753361
 30
0.0
 11
480.410526663
 21
595.9726113291
 31
0.0
  0
LINE
  5
1A1
330
1F
100
AcDbEntity
  8
0
  6
Continuous
 62
     7
370
    25
100
AcDbLine
 10
339.488553971
 20
442.8273651214
 30
0.0
 11
339.8920122235
 21
444.8329124065
 31
0.0
  0
LINE
  5
1A2
330
1F
100
AcDbEntity
  8
0
  6
Continuous
 62
     7
370
    25
100
AcDbLine
 10
347.17659761
 20
489.638401887
 30
0.0
 11
347.1801999657
 21
489.6607610793
 31
0.0
  0
LINE
  5
1A3
330
1F
100
AcDbEntity
  8
0
  6
Continuous
 62
     7
370
    25
100
AcDbLine
 10
346.2885554581
 20
373.7726050825
 30
0.0
 11
296.6885540335
 21
373.7726050825
 31
0.0
  0
LINE
  5
1A4
330
1F
100
AcDbEntity
  8
0
  6
Continuous
 62
     7
370
    25
100
AcDbLine
 10
302.3157596289
 20
379.9726052606
 30
0.0
 11
340.6613498627
 21
379.9726052606
 31
0.0
  0
LINE
  5
1A5
330
1F
100
AcDbEntity
  8
0
  6
Continuous
 62
     7
370
    25
100
AcDbLine
 10
310.4885548054
 20
477.7726072283
 30
0.0
 11
332.4885546862
 21
477.7726072283
 31
0.0
  0
SPLINE
  5
1A6
330
1F
100
AcDbEntity
  8
0
  6
Continuous
 62
     7
370
    25
100
AcDbSpline
210
0.0
220
0.0
230
1.0
 70
     8
 71
     3
 72
    22
 73
    18
 74
     0
 42
0.000000001
 43
0.00000001
 40
0.0
 40
0.0
 40
0.0
 40
0.0
 40
0.0796029672276743
 40
0.1587928102784026
 40
0.2156632420538276
 40
0.2741418724291044
 40
0.3927259718548335
 40
0.4611674302980392
 40
0.516655978523545
 40
0.5724030105831486
 40
0.6476848461954527
 40
0.7059406850784873
 40
0.7658427842525221
 40
0.8246344597397817
 40
0.8856264889420755
 40
0.9691106271719261
 40
1.0
 40
1.0
 40
1.0
 40
1.0
 10
480.4105266629656
 20
595.972611329094
 30
0.0
 10
480.333407123897
 20
596.0326722305673
 30
0.0
 10
480.1795682814195
 20
596.1524823289211
 30
0.0
 10
479.1779738441408
 20
596.9192031567228
 30
0.0
 10
478.017528267922
 20
597.7766939785652
 30
0.0
 10
476.3707872455452
 20
598.9368467561201
 30
0.0
 10
474.3342788785929
 20
600.2412393792704
 30
0.0
 10
471.9924138543851
 20
601.2378864617067
 30
0.0
 10
470.0535519345834
 20
601.5291138546163
 30
0.0
 10
468.0548964919265
 20
601.1410645584245
 30
0.0
 10
466.325143091566
 20
600.2021860473377
 30
0.0
 10
464.8257351566939
 20
599.1226499991137
 30
0.0
 10
463.6379631915359
 20
598.1443150783388
 30
0.0
 10
462.6217050784086
 20
597.2426474307975
 30
0.0
 10
461.7665551634619
 20
596.4501450567177
 30
0.0
 10
461.2484715858531
 20
595.9541115843581
 30
0.0
 10
461.3271116400959
 20
596.0292876002719
 30
0.0
 10
461.3483503161867
 20
596.0495907278215
 30
0.0
  0
LINE
  5
1A7
330
1F
100
AcDbEntity
  8
0
  6
Continuous
 62
     7
370
    25
100
AcDbLine
 10
485.6885477601
 20
606.9726038189
 30
0.0
 11
485.6885477601
 21
616.9726091833
 31
0.0
  0
LINE
  5
1A8
330
1F
100
AcDbEntity
  8
0
  6
Continuous
 62
     7
370
    25
100
AcDbLine
 10
485.6885477601
 20
596.9725984545
 30
0.0
 11
485.6885477601
 21
606.9726038189
 31
0.0
  0
LWPOLYLINE
  5
1A9
330
1F
100
AcDbEntity
  8
0
  6
Continuous
 62
     7
370
    25
100
AcDbPolyline
 90
       18
 70
   128
 43
0.0
 10
461.7533489763
 20
592.0184540959
 10
461.7960408031
 20
592.0236993046
 10
462.13529554
 20
592.0653480501
 10
462.8015413581
 20
592.1471554251
 10
463.770697981
 20
592.2661560984
 10
465.0077327787
 20
592.4180436344
 10
466.4679422676
 20
592.5973344059
 10
468.0985465347
 20
592.7975464077
 10
469.8406263887
 20
593.0114525767
 10
471.6311946212
 20
593.2313043089
 10
473.4055503904
 20
593.4491592856
 10
475.0995590984
 20
593.6571645947
 10
476.652006775
 20
593.8477802487
 10
478.0067607461
 20
594.0141219111
 10
479.1148706972
 20
594.1501844139
 10
479.936297208
 20
594.2510354729
 10
480.4413273632
 20
594.3130541058
 10
480.6117221414
 20
594.3339753361
  0
LINE
  5
1AA
330
1F
100
AcDbEntity
  8
0
  6
Continuous
 62
     7
370
    25
100
AcDbLine
 10
340.2101650535
 20
446.6219458194
 30
0.0
 11
339.8873351215
 21
444.8337543221
 31
0.0
  0
SPLINE
  5
1AB
330
1F
100
AcDbEntity
  8
0
  6
Continuous
 62
     7
370
    25
100
AcDbSpline
210
0.0
220
0.0
230
1.0
 70
     8
 71
     3
 72
    12
 73
     8
 74
     0
 42
0.000000001
 43
0.00000001
 40
0.0
 40
0.0
 40
0.0
 40
0.0
 40
0.2500000000000002
 40
0.2500000000000002
 40
0.5000000000000004
 40
0.5000000000000004
 40
1.0
 40
1.0
 40
1.0
 40
1.0
 10
340.2102299988683
 20
446.621940238964
 30
0.0
 10
340.8247884861246
 20
450.2059270935042
 30
0.0
 10
341.4038637439822
 20
453.7942479603765
 30
0.0
 10
342.5582954374396
 20
460.9631996530871
 30
0.0
 10
343.135498967016
 20
464.5476766684447
 30
0.0
 10
344.8670878190955
 20
475.3011143909844
 30
0.0
 10
346.0214386058568
 20
482.4700827788994
 30
0.0
 10
347.1757242620803
 20
489.6390648942127
 30
0.0
  0
SPLINE
  5
1AC
330
1F
100
AcDbEntity
  8
0
  6
Continuous
 62
     7
370
    25
100
AcDbSpline
210
0.0
220
0.0
230
1.0
 70
     8
 71
     3
 72
    18
 73
    14
 74
     0
 42
0.000000001
 43
0.00000001
 40
0.0
 40
0.0
 40
0.0
 40
0.0
 40
0.2499999999999998
 40
0.2499999999999998
 40
0.3749999999999998
 40
0.3749999999999998
 40
0.4999999999999997
 40
0.4999999999999997
 40
0.6249999999999996
 40
0.6249999999999996
 40
0.7499999999999996
 40
0.7499999999999996
 40
1.0
 40
1.0
 40
1.0
 40
1.0
 10
347.1793262861826
 20
489.6614135516267
 30
0.0
 10
347.3707253724298
 20
490.8497224675194
 30
0.0
 10
347.5671504476183
 20
492.0667462792459
 30
0.0
 10
347.5006806488997
 20
494.0478596575092
 30
0.0
 10
347.4058314844705
 20
494.7329514395384
 30
0.0
 10
347.0182970746952
 20
496.0556482683338
 30
0.0
 10
346.7175136301692
 20
496.7122792047436
 30
0.0
 10
345.8936063235761
 20
497.870691712733
 30
0.0
 10
345.3716593059459
 20
498.3707929488397
 30
0.0
 10
344.2469119760623
 20
499.1721301472126
 30
0.0
 10
343.6300251328608
 20
499.4863754489962
 30
0.0
 10
341.7811031949407
 20
500.1979099481218
 30
0.0
 10
340.5515918775127
 20
500.4146153130288
 30
0.0
 10
339.3615112133035
 20
500.6243457609755
 30
0.0
  0
LINE
  5
1AD
330
1F
100
AcDbEntity
  8
0
  6
Continuous
 62
     7
370
    25
100
AcDbLine
 10
333.1178027837
 20
501.7253744812
 30
0.0
 11
332.4885546862
 21
501.8363285275
 31
0.0
  0
SPLINE
  5
1AE
330
1F
100
AcDbEntity
  8
0
  6
Continuous
 62
     7
370
    25
100
AcDbSpline
210
0.0
220
0.0
230
1.0
 70
     8
 71
     3
 72
     8
 73
     4
 74
     0
 42
0.000000001
 43
0.00000001
 40
0.0
 40
0.0
 40
0.0
 40
0.0
 40
1.0
 40
1.0
 40
1.0
 40
1.0
 10
339.3576083588807
 20
500.625034011678
 30
0.0
 10
337.2776799376172
 20
500.9918485186968
 30
0.0
 10
335.1977491361443
 20
501.3586278778763
 30
0.0
 10
333.1178127846633
 20
501.7253766027716
 30
0.0
  0
LINE
  5
1AF
330
1F
100
AcDbEntity
  8
0
  6
Continuous
 62
     7
370
    25
100
AcDbLine
 10
347.1757240294
 20
489.6390649886
 30
0.0
 11
347.176077932
 21
489.6381262155
 31
0.0
  0
LINE
  5
1B0
330
1F
100
AcDbEntity
  8
0
  6
Continuous
 62
     8
370
    18
100
AcDbLine
 10
346.4885551183
 20
377.161878387
 30
0.0
 11
296.4885543733
 21
377.161878387
 31
0.0
  0
LINE
  5
1B1
330
1F
100
AcDbEntity
  8
0
  6
Continuous
 62
     8
370
    18
100
AcDbLine
 10
340.9141461997
 20
379.9401244545
 30
0.0
 11
302.0629632919
 21
379.9401244545
 31
0.0
  0
LINE
  5
1B2
330
1F
100
AcDbEntity
  8
0
  6
Continuous
 62
     8
370
    18
100
AcDbLine
 10
339.488553971
 20
473.2644248219
 30
0.0
 11
303.4885555207
 21
473.2644248219
 31
0.0
  0
LINE
  5
1B3
330
1F
100
AcDbEntity
  8
0
  6
Continuous
 62
     8
370
    18
100
AcDbLine
 10
484.4885572492
 20
617.9726112099
 30
0.0
 11
484.4885572492
 21
595.9726113291
 31
0.0
  0
LINE
  5
1B4
330
1F
100
AcDbEntity
  8
0
  6
Continuous
 62
     8
370
    18
100
AcDbLine
 10
484.6885606348
 20
606.9726038189
 30
0.0
 11
484.6885606348
 21
617.9726112099
 31
0.0
  0
LINE
  5
1B5
330
1F
100
AcDbEntity
  8
0
  6
Continuous
 62
     8
370
    18
100
AcDbLine
 10
484.6885606348
 20
595.9726113291
 30
0.0
 11
484.6885606348
 21
606.9726038189
 31
0.0
  0
SPLINE
  5
1B6
330
1F
100
AcDbEntity
  8
0
  6
Continuous
 62
     8
370
    18
100
AcDbSpline
210
0.0
220
0.0
230
1.0
 70
     8
 71
     3
 72
    11
 73
     7
 74
     0
 42
0.000000001
 43
0.00000001
 40
0.0
 40
0.0
 40
0.0
 40
0.0
 40
0.1713428584971856
 40
0.4677660336383149
 40
0.7631389795248147
 40
1.0
 40
1.0
 40
1.0
 40
1.0
 10
339.4885539709528
 20
447.7836403460656
 30
0.0
 10
339.5659254235276
 20
447.6673489089612
 30
0.0
 10
339.7771495025772
 20
447.3498732653449
 30
0.0
 10
340.0113779958313
 20
446.9616647649335
 30
0.0
 10
340.1731935850108
 20
446.6867229299005
 30
0.0
 10
340.1988110389435
 20
446.6419109330881
 30
0.0
 10
340.2102116196354
 20
446.6219681711351
 30
0.0
  0
ENDSEC
  0
SECTION
  2
OBJECTS
  0
DICTIONARY
  5
C
330
0
100
AcDbDictionary
281
     1
  3
ACAD_GROUP
350
D
  3
ACAD_LAYOUT
350
1A
  3
ACAD_MLINESTYLE
350
17
  3
ACAD_PLOTSETTINGS
350
19
  3
ACAD_PLOTSTYLENAME
350
E
  3
ACAD_SCALELIST
350
47
  0
DICTIONARY
  5
D
102
{ACAD_REACTORS
330
C
102
}
330
C
100
AcDbDictionary
281
     1
  0
DICTIONARY
  5
1A
102
{ACAD_REACTORS
330
C
102
}
330
C
100
AcDbDictionary
281
     1
  3
Layout1
350
1E
  3
Layout2
350
26
  3
Model
350
22
  0
DICTIONARY
  5
17
102
{ACAD_REACTORS
330
C
102
}
330
C
100
AcDbDictionary
281
     1
  3
Standard
350
18
  0
DICTIONARY
  5
19
102
{ACAD_REACTORS
330
C
102
}
330
C
100
AcDbDictionary
281
     1
  0
ACDBDICTIONARYWDFLT
  5
E
102
{ACAD_REACTORS
330
C
102
}
330
C
100
AcDbDictionary
281
     1
  3
Normal
350
F
100
AcDbDictionaryWithDefault
340
F
  0
DICTIONARY
  5
47
102
{ACAD_REACTORS
330
C
102
}
330
C
100
AcDbDictionary
281
     1
  3
A0
350
48
  3
A1
350
49
  3
A2
350
4A
  3
A3
350
4B
  3
A4
350
4C
  3
A5
350
4D
  3
A6
350
4E
  3
A7
350
4F
  3
A8
350
50
  3
A9
350
51
  3
B0
350
52
  3
B1
350
53
  3
B2
350
54
  3
B3
350
55
  3
B4
350
56
  3
B5
350
57
  3
B6
350
58
  3
B7
350
59
  3
B8
350
5A
  3
B9
350
5B
  3
C0
350
5C
  3
C1
350
5D
  3
C2
350
5E
  3
C3
350
5F
  3
C4
350
60
  3
C5
350
61
  3
C6
350
62
  3
C7
350
63
  3
C8
350
64
  3
C9
350
65
  3
D0
350
66
  3
D1
350
67
  3
D2
350
68
  0
LAYOUT
  5
1E
102
{ACAD_REACTORS
330
1A
102
}
330
1A
100
AcDbPlotSettings
  1

  2
none_device
  4

  6

 40
0.0
 41
0.0
 42
0.0
 43
0.0
 44
0.0
 45
0.0
 46
0.0
 47
0.0
 48
0.0
 49
0.0
140
0.0
141
0.0
142
1.0
143
1.0
 70
   688
 72
     1
 73
     0
 74
     5
  7

 75
    16
147
1.0
148
0.0
149
0.0
100
AcDbLayout
  1
Layout1
 70
     1
 71
     1
 10
0.0
 20
0.0
 11
420.0
 21
297.0
 12
0.0
 22
0.0
 32
0.0
 14
1.0000000000E+20
 24
1.0000000000E+20
 34
1.0000000000E+20
 15
-1.0000000000E+20
 25
-1.0000000000E+20
 35
-1.0000000000E+20
146
0.0
 13
0.0
 23
0.0
 33
0.0
 16
1.0
 26
0.0
 36
0.0
 17
0.0
 27
1.0
 37
0.0
 76
     0
330
1B
  0
LAYOUT
  5
26
102
{ACAD_REACTORS
330
1A
102
}
330
1A
100
AcDbPlotSettings
  1

  2
none_device
  4

  6

 40
0.0
 41
0.0
 42
0.0
 43
0.0
 44
0.0
 45
0.0
 46
0.0
 47
0.0
 48
0.0
 49
0.0
140
0.0
141
0.0
142
1.0
143
1.0
 70
   688
 72
     1
 73
     0
 74
     5
  7

 75
    16
147
1.0
148
0.0
149
0.0
100
AcDbLayout
  1
Layout2
 70
     1
 71
     2
 10
0.0
 20
0.0
 11
0.0
 21
0.0
 12
0.0
 22
0.0
 32
0.0
 14
0.0
 24
0.0
 34
0.0
 15
0.0
 25
0.0
 35
0.0
146
0.0
 13
0.0
 23
0.0
 33
0.0
 16
1.0
 26
0.0
 36
0.0
 17
0.0
 27
1.0
 37
0.0
 76
     0
330
23
  0
LAYOUT
  5
22
102
{ACAD_REACTORS
330
1A
102
}
330
1A
100
AcDbPlotSettings
  1

  2
none_device
  4
Letter_(8.50_x_11.00_Inches)
  6

 40
6.35
 41
6.35
 42
6.35000508
 43
6.35000508
 44
215.9
 45
279.4
 46
0.0
 47
0.0
 48
0.0
 49
0.0
140
0.0
141
0.0
142
1.0
143
1.0
 70
  1712
 72
     1
 73
     0
 74
     0
  7

 75
     0
147
1.0
148
0.0
149
0.0
100
AcDbLayout
  1
Model
 70
     1
 71
     0
 10
0.0
 20
0.0
 11
594.0
 21
841.0
 12
0.0
 22
0.0
 32
0.0
 14
0.0
 24
0.0
 34
0.0
 15
594.0
 25
841.0
 35
0.0
146
0.0
 13
0.0
 23
0.0
 33
0.0
 16
1.0
 26
0.0
 36
0.0
 17
0.0
 27
1.0
 37
0.0
 76
     0
330
1F
331
29
  0
MLINESTYLE
  5
18
102
{ACAD_REACTORS
330
17
102
}
330
17
100
AcDbMlineStyle
  2
Standard
 70
     0
  3

 62
   256
 51
90.0
 52
90.0
 71
     2
 49
0.5
 62
   256
  6
BYLAYER
 49
-0.5
 62
   256
  6
BYLAYER
  0
ACDBPLACEHOLDER
  5
F
102
{ACAD_REACTORS
330
E
102
}
330
E
  0
SCALE
  5
48
102
{ACAD_REACTORS
330
47
102
}
330
47
100
AcDbScale
 70
     0
300
1:1
140
1.0
141
1.0
290
     1
  0
SCALE
  5
49
102
{ACAD_REACTORS
330
47
102
}
330
47
100
AcDbScale
 70
     0
300
1:2
140
1.0
141
2.0
290
     0
  0
SCALE
  5
4A
102
{ACAD_REACTORS
330
47
102
}
330
47
100
AcDbScale
 70
     0
300
1:4
140
1.0
141
4.0
290
     0
  0
SCALE
  5
4B
102
{ACAD_REACTORS
330
47
102
}
330
47
100
AcDbScale
 70
     0
300
1:5
140
1.0
141
5.0
290
     0
  0
SCALE
  5
4C
102
{ACAD_REACTORS
330
47
102
}
330
47
100
AcDbScale
 70
     0
300
1:8
140
1.0
141
8.0
290
     0
  0
SCALE
  5
4D
102
{ACAD_REACTORS
330
47
102
}
330
47
100
AcDbScale
 70
     0
300
1:10
140
1.0
141
10.0
290
     0
  0
SCALE
  5
4E
102
{ACAD_REACTORS
330
47
102
}
330
47
100
AcDbScale
 70
     0
300
1:16
140
1.0
141
16.0
290
     0
  0
SCALE
  5
4F
102
{ACAD_REACTORS
330
47
102
}
330
47
100
AcDbScale
 70
     0
300
1:20
140
1.0
141
20.0
290
     0
  0
SCALE
  5
50
102
{ACAD_REACTORS
330
47
102
}
330
47
100
AcDbScale
 70
     0
300
1:30
140
1.0
141
30.0
290
     0
  0
SCALE
  5
51
102
{ACAD_REACTORS
330
47
102
}
330
47
100
AcDbScale
 70
     0
300
1:40
140
1.0
141
40.0
290
     0
  0
SCALE
  5
52
102
{ACAD_REACTORS
330
47
102
}
330
47
100
AcDbScale
 70
     0
300
1:50
140
1.0
141
50.0
290
     0
  0
SCALE
  5
53
102
{ACAD_REACTORS
330
47
102
}
330
47
100
AcDbScale
 70
     0
300
1:100
140
1.0
141
100.0
290
     0
  0
SCALE
  5
54
102
{ACAD_REACTORS
330
47
102
}
330
47
100
AcDbScale
 70
     0
300
2:1
140
2.0
141
1.0
290
     0
  0
SCALE
  5
55
102
{ACAD_REACTORS
330
47
102
}
330
47
100
AcDbScale
 70
     0
300
4:1
140
4.0
141
1.0
290
     0
  0
SCALE
  5
56
102
{ACAD_REACTORS
330
47
102
}
330
47
100
AcDbScale
 70
     0
300
8:1
140
8.0
141
1.0
290
     0
  0
SCALE
  5
57
102
{ACAD_REACTORS
330
47
102
}
330
47
100
AcDbScale
 70
     0
300
10:1
140
10.0
141
1.0
290
     0
  0
SCALE
  5
58
102
{ACAD_REACTORS
330
47
102
}
330
47
100
AcDbScale
 70
     0
300
100:1
140
100.0
141
1.0
290
     0
  0
SCALE
  5
59
102
{ACAD_REACTORS
330
47
102
}
330
47
100
AcDbScale
 70
     0
300
1/128" = 1'-0"
140
0.0078125
141
12.0
290
     0
  0
SCALE
  5
5A
102
{ACAD_REACTORS
330
47
102
}
330
47
100
AcDbScale
 70
     0
300
1/64" = 1'-0"
140
0.015625
141
12.0
290
     0
  0
SCALE
  5
5B
102
{ACAD_REACTORS
330
47
102
}
330
47
100
AcDbScale
 70
     0
300
1/32" = 1'-0"
140
0.03125
141
12.0
290
     0
  0
SCALE
  5
5C
102
{ACAD_REACTORS
330
47
102
}
330
47
100
AcDbScale
 70
     0
300
1/16" = 1'-0"
140
0.0625
141
12.0
290
     0
  0
SCALE
  5
5D
102
{ACAD_REACTORS
330
47
102
}
330
47
100
AcDbScale
 70
     0
300
3/32" = 1'-0"
140
0.09375
141
12.0
290
     0
  0
SCALE
  5
5E
102
{ACAD_REACTORS
330
47
102
}
330
47
100
AcDbScale
 70
     0
300
1/8" = 1'-0"
140
0.125
141
12.0
290
     0
  0
SCALE
  5
5F
102
{ACAD_REACTORS
330
47
102
}
330
47
100
AcDbScale
 70
     0
300
3/16" = 1'-0"
140
0.1875
141
12.0
290
     0
  0
SCALE
  5
60
102
{ACAD_REACTORS
330
47
102
}
330
47
100
AcDbScale
 70
     0
300
1/4" = 1'-0"
140
0.25
141
12.0
290
     0
  0
SCALE
  5
61
102
{ACAD_REACTORS
330
47
102
}
330
47
100
AcDbScale
 70
     0
300
3/8" = 1'-0"
140
0.375
141
12.0
290
     0
  0
SCALE
  5
62
102
{ACAD_REACTORS
330
47
102
}
330
47
100
AcDbScale
 70
     0
300
1/2" = 1'-0"
140
0.5
141
12.0
290
     0
  0
SCALE
  5
63
102
{ACAD_REACTORS
330
47
102
}
330
47
100
AcDbScale
 70
     0
300
3/4" = 1'-0"
140
0.75
141
12.0
290
     0
  0
SCALE
  5
64
102
{ACAD_REACTORS
330
47
102
}
330
47
100
AcDbScale
 70
     0
300
1" = 1'-0"
140
1.0
141
12.0
290
     0
  0
SCALE
  5
65
102
{ACAD_REACTORS
330
47
102
}
330
47
100
AcDbScale
 70
     0
300
1-1/2" = 1'-0"
140
1.5
141
12.0
290
     0
  0
SCALE
  5
66
102
{ACAD_REACTORS
330
47
102
}
330
47
100
AcDbScale
 70
     0
300
3" = 1'-0"
140
3.0
141
12.0
290
     0
  0
SCALE
  5
67
102
{ACAD_REACTORS
330
47
102
}
330
47
100
AcDbScale
 70
     0
300
6" = 1'-0"
140
6.0
141
12.0
290
     0
  0
SCALE
  5
68
102
{ACAD_REACTORS
330
47
102
}
330
47
100
AcDbScale
 70
     0
300
1'-0" = 1'-0"
140
12.0
141
12.0
290
     0
  0
ENDSEC
  0
EOF
