  0
SECTION
  2
HEADER
  9
$ACADVER
  1
AC1032
  9
$ACADMAINTVER
 90
        4
  9
$DWGCODEPAGE
  3
ANSI_1252
  9
$LASTSAVEDBY
  1
MKramer
  9
$REQUIREDVERSIONS
160
                 0
  9
$INSBASE
 10
0.0
 20
0.0
 30
0.0
  9
$EXTMIN
 10
35.33953329457836
 20
37.46023423127906
 30
0.0
  9
$EXTMAX
 10
540.0556814623574
 20
704.271319643372
 30
0.0
  9
$LIMMIN
 10
0.0
 20
0.0
  9
$LIMMAX
 10
594.0
 20
841.0
  9
$ORTHOMODE
 70
     0
  9
$REGENMODE
 70
     1
  9
$FILLMODE
 70
     1
  9
$QTEXTMODE
 70
     0
  9
$MIRRTEXT
 70
     1
  9
$LTSCALE
 40
1.0
  9
$ATTMODE
 70
     1
  9
$TEXTSIZE
 40
10.0
  9
$TRACEWID
 40
1.0
  9
$TEXTSTYLE
  7
Standard
  9
$CLAYER
  8
0
  9
$CELTYPE
  6
ByLayer
  9
$CECOLOR
 62
   256
  9
$CELTSCALE
 40
1.0
  9
$DISPSILH
 70
     0
  9
$DIMSCALE
 40
1.0
  9
$DIMASZ
 40
2.5
  9
$DIMEXO
 40
0.0
  9
$DIMDLI
 40
3.75
  9
$DIMRND
 40
0.0
  9
$DIMDLE
 40
0.0
  9
$DIMEXE
 40
1.0
  9
$DIMTP
 40
0.0
  9
$DIMTM
 40
0.0
  9
$DIMTXT
 40
3.5
  9
$DIMCEN
 40
2.5
  9
$DIMTSZ
 40
0.0
  9
$DIMTOL
 70
     0
  9
$DIMLIM
 70
     0
  9
$DIMTIH
 70
     1
  9
$DIMTOH
 70
     1
  9
$DIMSE1
 70
     0
  9
$DIMSE2
 70
     0
  9
$DIMTAD
 70
     1
  9
$DIMZIN
 70
     0
  9
$DIMBLK
  1

  9
$DIMASO
 70
     1
  9
$DIMSHO
 70
     1
  9
$DIMPOST
  1

  9
$DIMAPOST
  1

  9
$DIMALT
 70
     0
  9
$DIMALTD
 70
     3
  9
$DIMALTF
 40
0.0393700787401575
  9
$DIMLFAC
 40
1.0
  9
$DIMTOFL
 70
     1
  9
$DIMTVP
 40
0.0
  9
$DIMTIX
 70
     0
  9
$DIMSOXD
 70
     0
  9
$DIMSAH
 70
     0
  9
$DIMBLK1
  1

  9
$DIMBLK2
  1

  9
$DIMSTYLE
  2
ISO-25
  9
$DIMCLRD
 70
     0
  9
$DIMCLRE
 70
     0
  9
$DIMCLRT
 70
     0
  9
$DIMTFAC
 40
1.0
  9
$DIMGAP
 40
1.5
  9
$DIMJUST
 70
     0
  9
$DIMSD1
 70
     0
  9
$DIMSD2
 70
     0
  9
$DIMTOLJ
 70
     0
  9
$DIMTZIN
 70
     0
  9
$DIMALTZ
 70
     0
  9
$DIMALTTZ
 70
     0
  9
$DIMUPT
 70
     0
  9
$DIMDEC
 70
     2
  9
$DIMTDEC
 70
     2
  9
$DIMALTU
 70
     2
  9
$DIMALTTD
 70
     3
  9
$DIMTXSTY
  7
Standard
  9
$DIMAUNIT
 70
     0
  9
$DIMADEC
 70
     2
  9
$DIMALTRND
 40
0.0
  9
$DIMAZIN
 70
     0
  9
$DIMDSEP
 70
    44
  9
$DIMATFIT
 70
     3
  9
$DIMFRAC
 70
     0
  9
$DIMLDRBLK
  1

  9
$DIMLUNIT
 70
     2
  9
$DIMLWD
 70
    -2
  9
$DIMLWE
 70
    -2
  9
$DIMTMOVE
 70
     0
  9
$DIMFXL
 40
1.0
  9
$DIMFXLON
 70
     0
  9
$DIMJOGANG
 40
0.7853981633974483
  9
$DIMTFILL
 70
     0
  9
$DIMTFILLCLR
 70
     0
  9
$DIMARCSYM
 70
     0
  9
$DIMLTYPE
  6

  9
$DIMLTEX1
  6

  9
$DIMLTEX2
  6

  9
$DIMTXTDIRECTION
 70
     0
  9
$LUNITS
 70
     2
  9
$LUPREC
 70
     2
  9
$SKETCHINC
 40
1.0
  9
$FILLETRAD
 40
10.0
  9
$AUNITS
 70
     0
  9
$AUPREC
 70
     2
  9
$MENU
  1
.
  9
$ELEVATION
 40
0.0
  9
$PELEVATION
 40
0.0
  9
$THICKNESS
 40
0.0
  9
$LIMCHECK
 70
     0
  9
$CHAMFERA
 40
0.0
  9
$CHAMFERB
 40
0.0
  9
$CHAMFERC
 40
0.0
  9
$CHAMFERD
 40
0.0
  9
$SKPOLY
 70
     0
  9
$TDCREATE
 40
2458731.432244734
  9
$TDUCREATE
 40
2458731.390578067
  9
$TDUPDATE
 40
2459958.43673066
  9
$TDUUPDATE
 40
2459958.395063993
  9
$TDINDWG
 40
0.000257963
  9
$TDUSRTIMER
 40
0.0002586806
  9
$USRTIMER
 70
     1
  9
$ANGBASE
 50
0.0
  9
$ANGDIR
 70
     0
  9
$PDMODE
 70
     0
  9
$PDSIZE
 40
-1.0
  9
$PLINEWID
 40
0.0
  9
$SPLFRAME
 70
     0
  9
$SPLINETYPE
 70
     6
  9
$SPLINESEGS
 70
     8
  9
$HANDSEED
  5
464
  9
$SURFTAB1
 70
     6
  9
$SURFTAB2
 70
     6
  9
$SURFTYPE
 70
     6
  9
$SURFU
 70
     6
  9
$SURFV
 70
     6
  9
$UCSBASE
  2

  9
$UCSNAME
  2

  9
$UCSORG
 10
0.0
 20
0.0
 30
0.0
  9
$UCSXDIR
 10
1.0
 20
0.0
 30
0.0
  9
$UCSYDIR
 10
0.0
 20
1.0
 30
0.0
  9
$UCSORTHOREF
  2

  9
$UCSORTHOVIEW
 70
     0
  9
$UCSORGTOP
 10
0.0
 20
0.0
 30
0.0
  9
$UCSORGBOTTOM
 10
0.0
 20
0.0
 30
0.0
  9
$UCSORGLEFT
 10
0.0
 20
0.0
 30
0.0
  9
$UCSORGRIGHT
 10
0.0
 20
0.0
 30
0.0
  9
$UCSORGFRONT
 10
0.0
 20
0.0
 30
0.0
  9
$UCSORGBACK
 10
0.0
 20
0.0
 30
0.0
  9
$PUCSBASE
  2

  9
$PUCSNAME
  2

  9
$PUCSORG
 10
0.0
 20
0.0
 30
0.0
  9
$PUCSXDIR
 10
1.0
 20
0.0
 30
0.0
  9
$PUCSYDIR
 10
0.0
 20
1.0
 30
0.0
  9
$PUCSORTHOREF
  2

  9
$PUCSORTHOVIEW
 70
     0
  9
$PUCSORGTOP
 10
0.0
 20
0.0
 30
0.0
  9
$PUCSORGBOTTOM
 10
0.0
 20
0.0
 30
0.0
  9
$PUCSORGLEFT
 10
0.0
 20
0.0
 30
0.0
  9
$PUCSORGRIGHT
 10
0.0
 20
0.0
 30
0.0
  9
$PUCSORGFRONT
 10
0.0
 20
0.0
 30
0.0
  9
$PUCSORGBACK
 10
0.0
 20
0.0
 30
0.0
  9
$USERI1
 70
     0
  9
$USERI2
 70
     0
  9
$USERI3
 70
     0
  9
$USERI4
 70
     0
  9
$USERI5
 70
     0
  9
$USERR1
 40
0.0
  9
$USERR2
 40
0.0
  9
$USERR3
 40
0.0
  9
$USERR4
 40
0.0
  9
$USERR5
 40
0.0
  9
$WORLDVIEW
 70
     1
  9
$SHADEDGE
 70
     3
  9
$SHADEDIF
 70
    70
  9
$TILEMODE
 70
     1
  9
$MAXACTVP
 70
    64
  9
$PINSBASE
 10
0.0
 20
0.0
 30
0.0
  9
$PLIMCHECK
 70
     0
  9
$PEXTMIN
 10
1.000000000000000E+20
 20
1.000000000000000E+20
 30
1.000000000000000E+20
  9
$PEXTMAX
 10
-1.000000000000000E+20
 20
-1.000000000000000E+20
 30
-1.000000000000000E+20
  9
$PLIMMIN
 10
0.0
 20
0.0
  9
$PLIMMAX
 10
0.0
 20
0.0
  9
$UNITMODE
 70
     0
  9
$VISRETAIN
 70
     1
  9
$PLINEGEN
 70
     0
  9
$PSLTSCALE
 70
     1
  9
$TREEDEPTH
 70
  3020
  9
$CMLSTYLE
  2
Standard
  9
$CMLJUST
 70
     0
  9
$CMLSCALE
 40
20.0
  9
$PROXYGRAPHICS
 70
     1
  9
$MEASUREMENT
 70
     1
  9
$CELWEIGHT
370
    -1
  9
$ENDCAPS
280
     0
  9
$JOINSTYLE
280
     0
  9
$LWDISPLAY
290
     1
  9
$INSUNITS
 70
     4
  9
$HYPERLINKBASE
  1

  9
$STYLESHEET
  1

  9
$XEDIT
290
     1
  9
$CEPSNTYPE
380
     0
  9
$PSTYLEMODE
290
     1
  9
$FINGERPRINTGUID
  2
{82D3813A-5F56-409B-BF97-2C65865A2231}
  9
$VERSIONGUID
  2
{FAEB1C32-E019-11D5-929B-00C0DF256EC4}
  9
$EXTNAMES
290
     1
  9
$PSVPSCALE
 40
0.0
  9
$OLESTARTUP
290
     0
  9
$SORTENTS
280
   127
  9
$INDEXCTL
280
     0
  9
$HIDETEXT
280
     1
  9
$XCLIPFRAME
280
     2
  9
$HALOGAP
280
     0
  9
$OBSCOLOR
 70
   257
  9
$OBSLTYPE
280
     0
  9
$INTERSECTIONDISPLAY
280
     0
  9
$INTERSECTIONCOLOR
 70
   257
  9
$DIMASSOC
280
     2
  9
$PROJECTNAME
  1

  9
$CAMERADISPLAY
290
     0
  9
$LENSLENGTH
 40
50.0
  9
$CAMERAHEIGHT
 40
0.0
  9
$STEPSPERSEC
 40
2.0
  9
$STEPSIZE
 40
6.0
  9
$3DDWFPREC
 40
2.0
  9
$PSOLWIDTH
 40
0.25
  9
$PSOLHEIGHT
 40
4.0
  9
$LOFTANG1
 40
1.570796326794897
  9
$LOFTANG2
 40
1.570796326794897
  9
$LOFTMAG1
 40
0.0
  9
$LOFTMAG2
 40
0.0
  9
$LOFTPARAM
 70
     7
  9
$LOFTNORMALS
280
     1
  9
$LATITUDE
 40
37.795
  9
$LONGITUDE
 40
-122.394
  9
$NORTHDIRECTION
 40
0.0
  9
$TIMEZONE
 70
 -8000
  9
$LIGHTGLYPHDISPLAY
280
     1
  9
$TILEMODELIGHTSYNCH
280
     1
  9
$SOLIDHIST
280
     0
  9
$SHOWHIST
280
     1
  9
$DWFFRAME
280
     2
  9
$DGNFRAME
280
     2
  9
$REALWORLDSCALE
290
     1
  9
$INTERFERECOLOR
 62
   256
  9
$CSHADOW
280
     0
  9
$SHADOWPLANELOCATION
 40
0.0
  0
ENDSEC
  0
SECTION
  2
CLASSES
  0
CLASS
  1
ACDBDICTIONARYWDFLT
  2
AcDbDictionaryWithDefault
  3
ObjectDBX Classes
 90
        0
 91
        3
280
     0
281
     0
  0
CLASS
  1
VISUALSTYLE
  2
AcDbVisualStyle
  3
ObjectDBX Classes
 90
     4095
 91
        3
280
     0
281
     0
  0
CLASS
  1
MATERIAL
  2
AcDbMaterial
  3
ObjectDBX Classes
 90
     1153
 91
        3
280
     0
281
     0
  0
CLASS
  1
SCALE
  2
AcDbScale
  3
ObjectDBX Classes
 90
     1153
 91
        3
280
     0
281
     0
  0
CLASS
  1
TABLESTYLE
  2
AcDbTableStyle
  3
ObjectDBX Classes
 90
     4095
 91
        3
280
     0
281
     0
  0
CLASS
  1
MLEADERSTYLE
  2
AcDbMLeaderStyle
  3
ACDB_MLEADERSTYLE_CLASS
 90
     4095
 91
        3
280
     0
281
     0
  0
CLASS
  1
SUN
  2
AcDbSun
  3
SCENEOE
 90
     1153
 91
        3
280
     0
281
     0
  0
CLASS
  1
ACDBPLACEHOLDER
  2
AcDbPlaceHolder
  3
ObjectDBX Classes
 90
        0
 91
        1
280
     0
281
     0
  0
CLASS
  1
LAYOUT
  2
AcDbLayout
  3
ObjectDBX Classes
 90
        0
 91
        1
280
     0
281
     0
  0
CLASS
  1
DICTIONARYVAR
  2
AcDbDictionaryVar
  3
ObjectDBX Classes
 90
        0
 91
        3
280
     0
281
     0
  0
CLASS
  1
CELLSTYLEMAP
  2
AcDbCellStyleMap
  3
ObjectDBX Classes
 90
     1152
 91
        3
280
     0
281
     0
  0
ENDSEC
  0
SECTION
  2
TABLES
  0
TABLE
  2
VPORT
  5
8
330
0
100
AcDbSymbolTable
 70
     1
  0
VPORT
  5
29
330
8
100
AcDbSymbolTableRecord
100
AcDbViewportTableRecord
  2
*Active
 70
     0
 10
0.0
 20
0.0
 11
1.0
 21
1.0
 12
297.0
 22
420.5
 13
0.0
 23
0.0
 14
10.0
 24
10.0
 15
10.0
 25
10.0
 16
0.0
 26
0.0
 36
1.0
 17
0.0
 27
0.0
 37
0.0
 40
841.0
 41
0.7063020214030915
 42
50.0
 43
0.0
 44
0.0
 50
0.0
 51
0.0
 71
     0
 72
  2000
 73
     1
 74
     3
 75
     0
 76
     0
 77
     0
 78
     0
281
     0
 65
     1
110
0.0
120
0.0
130
0.0
111
1.0
121
0.0
131
0.0
112
0.0
122
1.0
132
0.0
 79
     0
146
0.0
348
43B
 60
     3
 61
     5
292
     1
282
     1
141
0.0
142
0.0
 63
   256
  0
ENDTAB
  0
TABLE
  2
LTYPE
  5
5
330
0
100
AcDbSymbolTable
 70
     6
  0
LTYPE
  5
14
330
5
100
AcDbSymbolTableRecord
100
AcDbLinetypeTableRecord
  2
ByBlock
 70
     0
  3

 72
    65
 73
     0
 40
0.0
  0
LTYPE
  5
15
330
5
100
AcDbSymbolTableRecord
100
AcDbLinetypeTableRecord
  2
ByLayer
 70
     0
  3

 72
    65
 73
     0
 40
0.0
  0
LTYPE
  5
16
330
5
100
AcDbSymbolTableRecord
100
AcDbLinetypeTableRecord
  2
Continuous
 70
     0
  3
Solid line
 72
    65
 73
     0
 40
0.0
  0
LTYPE
  5
6E
330
5
100
AcDbSymbolTableRecord
100
AcDbLinetypeTableRecord
  2
HIDDEN
 70
     0
  3
Hidden __ __ __ __ __ __ __ __ __ __ __ __ __ __
 72
    65
 73
     2
 40
1.905
 49
1.27
 74
     0
 49
-0.635
 74
     0
  0
LTYPE
  5
6F
330
5
100
AcDbSymbolTableRecord
100
AcDbLinetypeTableRecord
  2
PHANTOM
 70
     0
  3
Phantom ______  __  __  ______  __  __  ______
 72
    65
 73
     6
 40
12.7
 49
6.35
 74
     0
 49
-1.27
 74
     0
 49
1.27
 74
     0
 49
-1.27
 74
     0
 49
1.27
 74
     0
 49
-1.27
 74
     0
  0
LTYPE
  5
70
330
5
100
AcDbSymbolTableRecord
100
AcDbLinetypeTableRecord
  2
CENTER
 70
     0
  3
Center ____ _ ____ _ ____ _ ____ _ ____ _ ____
 72
    65
 73
     4
 40
10.16
 49
6.35
 74
     0
 49
-1.27
 74
     0
 49
1.27
 74
     0
 49
-1.27
 74
     0
  0
LTYPE
  5
71
330
5
100
AcDbSymbolTableRecord
100
AcDbLinetypeTableRecord
  2
CENTERX2
 70
     0
  3
Center (2x) ________  __  ________  __  _____
 72
    65
 73
     4
 40
20.32
 49
12.7
 74
     0
 49
-2.54
 74
     0
 49
2.54
 74
     0
 49
-2.54
 74
     0
  0
LTYPE
  5
72
330
5
100
AcDbSymbolTableRecord
100
AcDbLinetypeTableRecord
  2
DOT2
 70
     0
  3
Dot (.5x) ........................................
 72
    65
 73
     2
 40
0.635
 49
0.0
 74
     0
 49
-0.635
 74
     0
  0
ENDTAB
  0
TABLE
  2
LAYER
  5
2
330
0
100
AcDbSymbolTable
 70
     1
  0
LAYER
  5
10
330
2
100
AcDbSymbolTableRecord
100
AcDbLayerTableRecord
  2
0
 70
     0
 62
     7
  6
Continuous
370
    -3
390
F
347
452
348
0
  0
ENDTAB
  0
TABLE
  2
STYLE
  5
3
330
0
100
AcDbSymbolTable
 70
     3
  0
STYLE
  5
11
330
3
100
AcDbSymbolTableRecord
100
AcDbTextStyleTableRecord
  2
Standard
 70
     0
 40
0.0
 41
1.0
 50
0.0
 71
     0
 42
10.0
  3
txt
  4

  0
STYLE
  5
76
330
3
100
AcDbSymbolTableRecord
100
AcDbTextStyleTableRecord
  2
SLDTEXTSTYLE0
 70
     0
 40
0.0
 41
0.96
 50
0.0
 71
     0
 42
10.0
  3
ISOCP3
  4

  0
STYLE
  5
8D
330
3
100
AcDbSymbolTableRecord
100
AcDbTextStyleTableRecord
  2
SLDTEXTSTYLE1
 70
     0
 40
0.0
 41
0.605
 50
0.0
 71
     0
 42
10.0
  3
TXT
  4

  0
ENDTAB
  0
TABLE
  2
VIEW
  5
6
330
0
100
AcDbSymbolTable
 70
     0
  0
ENDTAB
  0
TABLE
  2
UCS
  5
7
330
0
100
AcDbSymbolTable
 70
     0
  0
ENDTAB
  0
TABLE
  2
APPID
  5
9
330
0
100
AcDbSymbolTable
 70
     1
  0
APPID
  5
12
330
9
100
AcDbSymbolTableRecord
100
AcDbRegAppTableRecord
  2
ACAD
 70
     0
  0
ENDTAB
  0
TABLE
  2
DIMSTYLE
  5
A
330
0
100
AcDbSymbolTable
 70
     2
100
AcDbDimStyleTable
  0
DIMSTYLE
105
27
330
A
100
AcDbSymbolTableRecord
100
AcDbDimStyleTableRecord
  2
ISO-25
 70
     0
 41
2.5
 42
0.625
 43
3.75
 44
1.25
 73
     0
 74
     0
 77
     1
 78
     8
140
2.5
141
2.5
143
0.03937007874016
147
0.625
171
     3
172
     1
178
     0
271
     2
272
     2
274
     3
278
    44
283
     0
284
     8
340
11
  0
DIMSTYLE
105
77
102
{ACAD_REACTORS
330
75
330
82
102
}
330
A
100
AcDbSymbolTableRecord
100
AcDbDimStyleTableRecord
  2
SLDDIMSTYLE0
 70
     0
 41
2.5
 44
0.0
 45
0.000000001
 73
     0
 74
     0
 77
     1
 78
    12
 79
     3
140
6.0
147
1.5
173
     1
178
     0
271
     2
272
     2
276
     2
284
    12
340
76
  0
ENDTAB
  0
TABLE
  2
BLOCK_RECORD
  5
1
330
0
100
AcDbSymbolTable
 70
     3
  0
BLOCK_RECORD
  5
1F
102
{ACAD_XDICTIONARY
360
458
102
}
330
1
100
AcDbSymbolTableRecord
100
AcDbBlockTableRecord
  2
*Model_Space
340
22
 70
     0
280
     1
281
     0
  0
BLOCK_RECORD
  5
1B
330
1
100
AcDbSymbolTableRecord
100
AcDbBlockTableRecord
  2
*Paper_Space
340
1E
 70
     0
280
     1
281
     0
  0
BLOCK_RECORD
  5
23
330
1
100
AcDbSymbolTableRecord
100
AcDbBlockTableRecord
  2
*Paper_Space0
340
26
 70
     0
280
     1
281
     0
  0
BLOCK_RECORD
  5
78
330
1
100
AcDbSymbolTableRecord
100
AcDbBlockTableRecord
  2
_D
340
0
 70
     0
280
     1
281
     0
  0
BLOCK_RECORD
  5
83
330
1
100
AcDbSymbolTableRecord
100
AcDbBlockTableRecord
  2
_D_1
340
0
 70
     0
280
     1
281
     0
  0
ENDTAB
  0
ENDSEC
  0
SECTION
  2
BLOCKS
  0
BLOCK
  5
20
330
1F
100
AcDbEntity
  8
0
100
AcDbBlockBegin
  2
*Model_Space
 70
     0
 10
0.0
 20
0.0
 30
0.0
  3
*Model_Space
  1

  0
ENDBLK
  5
21
330
1F
100
AcDbEntity
  8
0
100
AcDbBlockEnd
  0
BLOCK
  5
1C
330
1B
100
AcDbEntity
 67
     1
  8
0
100
AcDbBlockBegin
  2
*Paper_Space
 70
     0
 10
0.0
 20
0.0
 30
0.0
  3
*Paper_Space
  1

  0
ENDBLK
  5
1D
330
1B
100
AcDbEntity
 67
     1
  8
0
100
AcDbBlockEnd
  0
BLOCK
  5
24
330
23
100
AcDbEntity
  8
0
100
AcDbBlockBegin
  2
*Paper_Space0
 70
     0
 10
0.0
 20
0.0
 30
0.0
  3
*Paper_Space0
  1

  0
ENDBLK
  5
25
330
23
100
AcDbEntity
  8
0
100
AcDbBlockEnd
  0
BLOCK
  5
79
330
78
100
AcDbEntity
  8
0
100
AcDbBlockBegin
  2
_D
 70
     0
 10
0.0
 20
0.0
 30
0.0
  3
_D
  1

  0
SOLID
  5
7B
330
78
100
AcDbEntity
  8
0
  6
Continuous
 62
     7
370
    18
100
AcDbTrace
 10
42.76143950037947
 20
152.0299240878882
 30
0.0
 11
42.46143950037947
 21
149.5299240878882
 31
0.0
 12
43.06143950037946
 22
149.5299240878882
 32
0.0
 13
43.06143950037946
 23
149.5299240878882
 33
0.0
  0
SOLID
  5
7C
330
78
100
AcDbEntity
  8
0
  6
Continuous
 62
     7
370
    18
100
AcDbTrace
 10
42.76143950037948
 20
52.0299240878882
 30
0.0
 11
43.06143950037948
 21
54.5299240878882
 31
0.0
 12
42.46143950037948
 22
54.5299240878882
 32
0.0
 13
42.46143950037948
 23
54.5299240878882
 33
0.0
  0
LINE
  5
7D
330
78
100
AcDbEntity
  8
0
  6
Continuous
 62
     7
370
    18
100
AcDbLine
 10
56.68500799020809
 20
152.0299240878882
 30
0.0
 11
41.76143950037947
 21
152.0299240878882
 31
0.0
  0
LINE
  5
7E
330
78
100
AcDbEntity
  8
0
  6
Continuous
 62
     7
370
    18
100
AcDbLine
 10
56.68500799020809
 20
52.0299240878882
 30
0.0
 11
41.76143950037948
 21
52.0299240878882
 31
0.0
  0
LINE
  5
7F
330
78
100
AcDbEntity
  8
0
  6
Continuous
 62
     7
370
    18
100
AcDbLine
 10
42.76143950037947
 20
152.0299240878882
 30
0.0
 11
42.76143950037948
 21
52.0299240878882
 31
0.0
  0
MTEXT
  5
80
330
78
100
AcDbEntity
  8
0
  6
Continuous
 62
     7
370
    18
100
AcDbMText
 10
35.02703329457841
 20
94.36805414627584
 30
0.0
 40
6.0
 41
0.0
 46
0.0
 71
     1
 72
     1
  1
100
  7
SLDTEXTSTYLE0
 11
-7.044195017643634E-15
 21
1.0
 31
0.0
 73
     1
 44
1.0
  0
MTEXT
  5
81
330
78
100
AcDbEntity
  8
0
  6
Continuous
 62
     7
370
    18
100
AcDbMText
 10
35.02703329457832
 20
105.7430548466304
 30
0.0
 40
6.0
 41
0.0
 46
0.0
 71
     1
 72
     1
  1
mm
  7
SLDTEXTSTYLE0
 11
-7.044195017643634E-15
 21
1.0
 31
0.0
 73
     1
 44
1.0
  0
ENDBLK
  5
7A
330
78
100
AcDbEntity
  8
0
100
AcDbBlockEnd
  0
BLOCK
  5
84
330
83
100
AcDbEntity
  8
0
100
AcDbBlockBegin
  2
_D_1
 70
     0
 10
0.0
 20
0.0
 30
0.0
  3
_D_1
  1

  0
SOLID
  5
86
330
83
100
AcDbEntity
  8
0
  6
Continuous
 62
     7
370
    18
100
AcDbTrace
 10
56.68500799020809
 20
38.46023423127903
 30
0.0
 11
59.18500799020809
 21
38.16023423127903
 31
0.0
 12
59.18500799020809
 22
38.76023423127903
 32
0.0
 13
59.18500799020809
 23
38.76023423127903
 33
0.0
  0
SOLID
  5
87
330
83
100
AcDbEntity
  8
0
  6
Continuous
 62
     7
370
    18
100
AcDbTrace
 10
156.6850079902081
 20
38.46023423127903
 30
0.0
 11
154.1850079902081
 21
38.76023423127903
 31
0.0
 12
154.1850079902081
 22
38.16023423127903
 32
0.0
 13
154.1850079902081
 23
38.16023423127903
 33
0.0
  0
LINE
  5
88
330
83
100
AcDbEntity
  8
0
  6
Continuous
 62
     7
370
    18
100
AcDbLine
 10
56.68500799020809
 20
52.0299240878882
 30
0.0
 11
56.68500799020809
 21
37.46023423127903
 31
0.0
  0
LINE
  5
89
330
83
100
AcDbEntity
  8
0
  6
Continuous
 62
     7
370
    18
100
AcDbLine
 10
156.6850079902081
 20
52.0299240878882
 30
0.0
 11
156.6850079902081
 21
37.46023423127903
 31
0.0
  0
LINE
  5
8A
330
83
100
AcDbEntity
  8
0
  6
Continuous
 62
     7
370
    18
100
AcDbLine
 10
56.68500799020809
 20
38.46023423127903
 30
0.0
 11
156.6850079902081
 21
38.46023423127903
 31
0.0
  0
MTEXT
  5
8B
330
83
100
AcDbEntity
  8
0
  6
Continuous
 62
     7
370
    18
100
AcDbMText
 10
93.96264848609466
 20
46.19464043708015
 30
0.0
 40
6.0
 41
0.0
 46
0.0
 71
     1
 72
     1
  1
100
  7
SLDTEXTSTYLE0
 73
     1
 44
1.0
  0
MTEXT
  5
8C
330
83
100
AcDbEntity
  8
0
  6
Continuous
 62
     7
370
    18
100
AcDbMText
 10
105.3376491864492
 20
46.19464043708015
 30
0.0
 40
6.0
 41
0.0
 46
0.0
 71
     1
 72
     1
  1
mm
  7
SLDTEXTSTYLE0
 73
     1
 44
1.0
  0
ENDBLK
  5
85
330
83
100
AcDbEntity
  8
0
100
AcDbBlockEnd
  0
ENDSEC
  0
SECTION
  2
ENTITIES
  0
LINE
  5
73
330
1F
100
AcDbEntity
  8
0
  6
Continuous
 62
     7
370
    18
100
AcDbLine
 10
56.68500799020809
 20
152.0299240878882
 30
0.0
 11
56.68500799020809
 21
52.0299240878882
 31
0.0
  0
LINE
  5
74
330
1F
100
AcDbEntity
  8
0
  6
Continuous
 62
     7
370
    18
100
AcDbLine
 10
56.68500799020809
 20
52.0299240878882
 30
0.0
 11
156.6850079902081
 21
52.0299240878882
 31
0.0
  0
DIMENSION
  5
75
330
1F
100
AcDbEntity
  8
0
  6
Continuous
 62
     7
370
    18
100
AcDbDimension
280
     0
  2
_D
 10
42.76143950037947
 20
52.0299240878882
 30
0.0
 11
42.76143950037947
 21
105.4472211621264
 31
0.0
 70
   160
  1
<>mm
 71
     2
 42
-1.0
 73
     0
 74
     0
 75
     0
  3
SLDDIMSTYLE0
100
AcDbAlignedDimension
 13
56.68500799020809
 23
152.0299240878882
 33
0.0
 14
56.68500799020809
 24
52.0299240878882
 34
0.0
 50
90.0000000000002
100
AcDbRotatedDimension
  0
DIMENSION
  5
82
330
1F
100
AcDbEntity
  8
0
  6
Continuous
 62
     7
370
    18
100
AcDbDimension
280
     0
  2
_D_1
 10
156.6850079902081
 20
38.46023423127903
 30
0.0
 11
105.0418155019452
 21
38.46023423127903
 31
0.0
 70
   160
  1
<>mm
 71
     2
 42
-1.0
 73
     0
 74
     0
 75
     0
  3
SLDDIMSTYLE0
100
AcDbAlignedDimension
 13
56.68500799020809
 23
52.0299240878882
 33
0.0
 14
156.6850079902081
 24
52.0299240878882
 34
0.0
100
AcDbRotatedDimension
  0
MTEXT
  5
8E
330
1F
100
AcDbEntity
  8
0
  6
Continuous
 62
     7
370
     0
100
AcDbMText
 10
412.8252631578944
 20
48.43424494991444
 30
0.0
 40
10.0
 41
0.0
 46
0.0
 71
     1
 72
     1
  1
KLUDI GmbH & Co KG
  7
SLDTEXTSTYLE1
 73
     1
 44
1.0
  0
MTEXT
  5
8F
330
1F
100
AcDbEntity
  8
0
  6
Continuous
 62
     7
370
     0
100
AcDbMText
 10
210.0873490388933
 20
48.43424494991442
 30
0.0
 40
10.0
 41
0.0
 46
10.0
 71
     1
 72
     1
  1
{38 286 .. 76}
  7
SLDTEXTSTYLE1
 73
     1
 44
1.0
  0
SPLINE
  5
90
330
1F
100
AcDbEntity
  8
0
  6
Continuous
 62
     7
370
    25
100
AcDbSpline
210
0.0
220
0.0
230
1.0
 70
     8
 71
     3
 72
    18
 73
    14
 74
     0
 42
0.000000001
 43
0.00000001
 40
0.0
 40
0.0
 40
0.0
 40
0.0
 40
0.0393705397173963
 40
0.1316763536300064
 40
0.2240201719044073
 40
0.317932070947935
 40
0.4140686491137801
 40
0.5120286957635763
 40
0.610869677462678
 40
0.70963634832991
 40
0.8080156855744287
 40
0.9060176705082869
 40
1.0
 40
1.0
 40
1.0
 40
1.0
 10
162.9138411703616
 20
620.9996671832737
 30
0.0
 10
162.9034429246957
 20
620.8037228514909
 30
0.0
 10
162.8686655738325
 20
620.1483791526529
 30
0.0
 10
163.1452746317146
 20
619.0445928383202
 30
0.0
 10
163.7160624746326
 20
617.7421703889164
 30
0.0
 10
164.5897994863681
 20
616.5239402926397
 30
0.0
 10
165.7313862530723
 20
615.4066900592462
 30
0.0
 10
167.130053568891
 20
614.4134310644457
 30
0.0
 10
168.7518238171041
 20
613.5705754126644
 30
0.0
 10
170.5540119817031
 20
612.8984022763904
 30
0.0
 10
172.4892423000369
 20
612.4161447531712
 30
0.0
 10
174.4858473452828
 20
612.1180187093562
 30
0.0
 10
175.8357477560326
 20
612.0816378262343
 30
0.0
 10
176.4965662482291
 20
612.0638282455143
 30
0.0
  0
SPLINE
  5
91
330
1F
100
AcDbEntity
  8
0
  6
Continuous
 62
     7
370
    25
100
AcDbSpline
210
0.0
220
0.0
230
1.0
 70
     8
 71
     3
 72
    18
 73
    14
 74
     0
 42
0.000000001
 43
0.00000001
 40
0.0
 40
0.0
 40
0.0
 40
0.0
 40
0.0521600139877453
 40
0.1503148702987539
 40
0.248811754265553
 40
0.3478071668487082
 40
0.4474884068536076
 40
0.547937891775949
 40
0.6489980385973818
 40
0.7498120800607145
 40
0.8490412078121515
 40
0.9455877073274016
 40
1.0
 40
1.0
 40
1.0
 40
1.0
 10
176.4965662482291
 20
612.0638282455143
 30
0.0
 10
176.8616495415781
 20
612.0694781323944
 30
0.0
 10
177.9137475701734
 20
612.085759991785
 30
0.0
 10
179.6405347870864
 20
612.2660402345836
 30
0.0
 10
181.6176235878642
 20
612.665802967399
 30
0.0
 10
183.4851482156078
 20
613.2594011416156
 30
0.0
 10
185.2017252546726
 20
614.036035004118
 30
0.0
 10
186.7279154729365
 20
614.9874588746106
 30
0.0
 10
188.0205055780896
 20
616.100079791057
 30
0.0
 10
189.042309875815
 20
617.3517892639331
 30
0.0
 10
189.7349414420444
 20
618.7070650142786
 30
0.0
 10
190.0927159592817
 20
619.9241192821951
 30
0.0
 10
190.0828481319166
 20
620.673635978093
 30
0.0
 10
190.0792913260966
 20
620.9437952793774
 30
0.0
  0
LINE
  5
92
330
1F
100
AcDbEntity
  8
0
  6
Continuous
 62
     7
370
    25
100
AcDbLine
 10
190.1188250380664
 20
620.9717349566158
 30
0.0
 11
190.1188250380664
 21
625.6630824364361
 31
0.0
  0
LINE
  5
93
330
1F
100
AcDbEntity
  8
0
  6
Continuous
 62
     7
370
    25
100
AcDbLine
 10
162.8743074583917
 20
625.6630824364361
 30
0.0
 11
162.8743074583917
 21
620.9717349566158
 31
0.0
  0
LINE
  5
94
330
1F
100
AcDbEntity
  8
0
  6
Continuous
 62
     7
370
    25
100
AcDbLine
 10
183.8465663354009
 20
619.2031310356792
 30
0.0
 11
183.8465663354009
 21
619.2430586970981
 31
0.0
  0
LINE
  5
95
330
1F
100
AcDbEntity
  8
0
  6
Continuous
 62
     7
370
    25
100
AcDbLine
 10
169.1465661610573
 20
619.2430586970981
 30
0.0
 11
169.1465661610573
 21
619.2031310356792
 31
0.0
  0
SPLINE
  5
96
330
1F
100
AcDbEntity
  8
0
  6
Continuous
 62
     7
370
    25
100
AcDbSpline
210
0.0
220
0.0
230
1.0
 70
     8
 71
     3
 72
    14
 73
    10
 74
     0
 42
0.000000001
 43
0.00000001
 40
0.0
 40
0.0
 40
0.0
 40
0.0
 40
0.1648041356840426
 40
0.3059146040749455
 40
0.4299310993054508
 40
0.5946469576014098
 40
0.7432013928661133
 40
0.8798592911093371
 40
0.9999999999999999
 40
0.9999999999999999
 40
0.9999999999999999
 40
0.9999999999999999
 10
190.1193009439021
 20
625.6630824364361
 30
0.0
 10
190.1192883400888
 20
626.8980188086992
 30
0.0
 10
190.1192649444954
 20
629.1903464242082
 30
0.0
 10
190.1193971240328
 20
632.0763300092189
 30
0.0
 10
190.1194177916231
 20
634.5925933010391
 30
0.0
 10
190.1186332689839
 20
636.5974219115678
 30
0.0
 10
190.1107381843291
 20
637.9241258734774
 30
0.0
 10
190.0946447061234
 20
638.5969220983369
 30
0.0
 10
190.0624467712865
 20
638.6701844374339
 30
0.0
 10
190.0473832833677
 20
638.704459504002
 30
0.0
  0
SPLINE
  5
97
330
1F
100
AcDbEntity
  8
0
  6
Continuous
 62
     7
370
    25
100
AcDbSpline
210
0.0
220
0.0
230
1.0
 70
     8
 71
     3
 72
    15
 73
    11
 74
     0
 42
0.000000001
 43
0.00000001
 40
0.0
 40
0.0
 40
0.0
 40
0.0
 40
0.1206864087252403
 40
0.2354050221336499
 40
0.3573494477556806
 40
0.488548387142785
 40
0.5957642083160768
 40
0.7138686801004215
 40
0.8469392765269574
 40
1.0
 40
1.0
 40
1.0
 40
1.0
 10
163.0672309297233
 20
637.7529756582912
 30
0.0
 10
163.0383252081822
 20
637.7373434457929
 30
0.0
 10
162.9819431176796
 20
637.7068520145865
 30
0.0
 10
162.9403255542038
 20
637.1722212137281
 30
0.0
 10
162.9093436479299
 20
636.2824472645557
 30
0.0
 10
162.8925068769316
 20
634.9671840159929
 30
0.0
 10
162.8825579479225
 20
633.2876255159621
 30
0.0
 10
162.877109290557
 20
631.2843895689682
 30
0.0
 10
162.8742261084607
 20
628.7339461464893
 30
0.0
 10
162.8739690573518
 20
626.7332944956948
 30
0.0
 10
162.8738315525561
 20
625.6630824364361
 30
0.0
  0
ARC
  5
98
330
1F
100
AcDbEntity
  8
0
  6
Continuous
 62
     7
370
    25
100
AcDbCircle
 10
176.4965662482291
 20
620.8004006978276
 30
0.0
 40
7.000000000000017
100
AcDbArc
 50
339.0377331972163
 51
339.5855010773211
  0
ARC
  5
99
330
1F
100
AcDbEntity
  8
0
  6
Continuous
 62
     7
370
    25
100
AcDbCircle
 10
176.4965662482291
 20
620.8004006978276
 30
0.0
 40
7.00000000000003
100
AcDbArc
 50
200.4144989226805
 51
200.9622668027852
  0
LINE
  5
9A
330
1F
100
AcDbEntity
  8
0
  6
Continuous
 62
     7
370
    25
100
AcDbLine
 10
200.4965664568453
 20
379.7331036485371
 30
0.0
 11
200.4965664568453
 21
673.7713248885807
 31
0.0
  0
LINE
  5
9B
330
1F
100
AcDbEntity
  8
0
  6
Continuous
 62
     7
370
    25
100
AcDbLine
 10
152.4965660396128
 20
673.7713248885807
 30
0.0
 11
152.4965660396128
 21
379.7331036485371
 31
0.0
  0
LINE
  5
9C
330
1F
100
AcDbEntity
  8
0
  6
Continuous
 62
     7
370
    25
100
AcDbLine
 10
200.4965664568453
 20
677.5604666627582
 30
0.0
 11
200.4965664568453
 21
702.7713240541157
 31
0.0
  0
LINE
  5
9D
330
1F
100
AcDbEntity
  8
0
  6
Continuous
 62
     7
370
    25
100
AcDbLine
 10
152.4965660396128
 20
702.7713240541157
 30
0.0
 11
152.4965660396128
 21
677.5639982379612
 31
0.0
  0
ARC
  5
9E
330
1F
100
AcDbEntity
  8
0
  6
Continuous
 62
     7
370
    25
100
AcDbCircle
 10
199.9965662482291
 20
673.7713175302998
 30
0.0
 40
0.5000000000001137
100
AcDbArc
 50
0.0
 51
90.0
  0
ARC
  5
9F
330
1F
100
AcDbEntity
  8
0
  6
Continuous
 62
     7
370
    25
100
AcDbCircle
 10
152.9965662482291
 20
673.7713175302998
 30
0.0
 40
0.5000000000001137
100
AcDbArc
 50
90.0
 51
180.0
  0
ARC
  5
A0
330
1F
100
AcDbEntity
  8
0
  6
Continuous
 62
     7
370
    25
100
AcDbCircle
 10
200.1965662482291
 20
379.7331079877553
 30
0.0
 40
0.3000000000000398
100
AcDbArc
 50
270.0000000000008
 51
0.0
  0
ARC
  5
A1
330
1F
100
AcDbEntity
  8
0
  6
Continuous
 62
     7
370
    25
100
AcDbCircle
 10
152.7965662482291
 20
379.7331079877553
 30
0.0
 40
0.3000000000000114
100
AcDbArc
 50
180.0
 51
270.0000000000008
  0
ARC
  5
A2
330
1F
100
AcDbEntity
  8
0
  6
Continuous
 62
     7
370
    25
100
AcDbCircle
 10
153.9965662482292
 20
702.7713175302997
 30
0.0
 40
1.5
100
AcDbArc
 50
90.0
 51
180.0
  0
ARC
  5
A3
330
1F
100
AcDbEntity
  8
0
  6
Continuous
 62
     7
370
    25
100
AcDbCircle
 10
198.9965662482292
 20
702.7713175302997
 30
0.0
 40
1.5
100
AcDbArc
 50
0.0
 51
90.0
  0
ARC
  5
A4
330
1F
100
AcDbEntity
  8
0
  6
Continuous
 62
     7
370
    25
100
AcDbCircle
 10
200.0935320452718
 20
674.4713175302999
 30
0.0
 40
0.1999999999999977
100
AcDbArc
 50
270.0000000000008
 51
26.6421673927058
  0
ARC
  5
A5
330
1F
100
AcDbEntity
  8
0
  6
Continuous
 62
     7
370
    25
100
AcDbCircle
 10
152.8996004511863
 20
674.4713175302999
 30
0.0
 40
0.1999999999999723
100
AcDbArc
 50
153.3578326072906
 51
270.0000000000008
  0
ARC
  5
A6
330
1F
100
AcDbEntity
  8
0
  6
Continuous
 62
     7
370
    25
100
AcDbCircle
 10
176.4965662482291
 20
662.6331079877552
 30
0.0
 40
26.60000000000001
100
AcDbArc
 50
146.6118111875458
 51
153.3578326072987
  0
ARC
  5
A7
330
1F
100
AcDbEntity
  8
0
  6
Continuous
 62
     7
370
    25
100
AcDbCircle
 10
176.4965662482291
 20
662.6331079877552
 30
0.0
 40
26.60000000000003
100
AcDbArc
 50
26.64216739270133
 51
33.38818881245416
  0
LWPOLYLINE
  5
A8
330
1F
100
AcDbEntity
  8
0
  6
Continuous
 62
     7
370
    25
100
AcDbPolyline
 90
       33
 70
   128
 43
0.0
 10
176.4965662482291
 20
624.835874275082
 10
178.3743105811163
 20
624.7245700515446
 10
180.1798941782772
 20
624.394948915356
 10
181.8439298990279
 20
623.8596619523701
 10
183.302469060859
 20
623.1392951167759
 10
184.4994611787706
 20
622.2615273154911
 10
185.3889068338185
 20
621.260087326878
 10
185.9366241592079
 20
620.1734573997196
 10
186.121566196075
 20
619.0434054888424
 10
185.9366241592079
 20
617.9133461273846
 10
185.3889068338185
 20
616.8267236508068
 10
184.4994611787706
 20
615.8252762116131
 10
183.302469060859
 20
614.9475084103283
 10
181.8439298990279
 20
614.2271415747341
 10
180.1798941782772
 20
613.6918620623287
 10
178.3743105811163
 20
613.3622334755596
 10
176.496566248229
 20
613.2509367026028
 10
174.6188219153418
 20
613.3622334755596
 10
172.813238318181
 20
613.6918620623287
 10
171.1492025974303
 20
614.2271415747341
 10
169.6906634355991
 20
614.9475084103283
 10
168.4936713176876
 20
615.8252762116131
 10
167.6042256626397
 20
616.8267236508068
 10
167.0565083372503
 20
617.9133461273846
 10
166.8715663003831
 20
619.0434054888424
 10
167.0565083372503
 20
620.1734573997196
 10
167.6042256626397
 20
621.260087326878
 10
168.4936713176876
 20
622.2615273154911
 10
169.6906634355991
 20
623.1392951167759
 10
171.1492025974303
 20
623.8596619523701
 10
172.813238318181
 20
624.394948915356
 10
174.6188219153418
 20
624.7245700515446
 10
176.4965662482291
 20
624.835874275082
  0
LWPOLYLINE
  5
A9
330
1F
100
AcDbEntity
  8
0
  6
Continuous
 62
     7
370
    25
100
AcDbPolyline
 90
        9
 70
   128
 43
0.0
 10
182.7407804998665
 20
623.4514818943676
 10
183.1256923946648
 20
623.2325689352688
 10
184.2915937054067
 20
622.3775999106106
 10
185.1579369726687
 20
621.4021698988613
 10
185.6914283457308
 20
620.3437627710041
 10
185.8715666207581
 20
619.2430586970981
 10
185.6914283457308
 20
618.1423620737728
 10
185.1579369726687
 20
617.0839549459156
 10
184.3387186276823
 20
616.1513881243404
  0
ARC
  5
AA
330
1F
100
AcDbEntity
  8
0
  6
Continuous
 62
     7
370
    25
100
AcDbCircle
 10
177.0737050875793
 20
625.9035930276607
 30
0.0
 40
12.25448174453469
100
AcDbArc
 50
277.0282574384337
 51
298.5138746954726
  0
ARC
  5
AB
330
1F
100
AcDbEntity
  8
0
  6
Continuous
 62
     7
370
    25
100
AcDbCircle
 10
176.3994877185137
 20
627.8942443493023
 30
0.0
 40
14.29352708580977
100
AcDbArc
 50
250.826681928064
 51
270.3891434748004
  0
LINE
  5
AC
330
1F
100
AcDbEntity
  8
0
  6
Continuous
 62
     7
370
    25
100
AcDbLine
 10
176.4965662482291
 20
624.809849397057
 30
0.0
 11
176.4965662482291
 21
624.5702610768017
 31
0.0
  0
ARC
  5
AD
330
1F
100
AcDbEntity
  8
0
  6
Continuous
 62
     7
370
    25
100
AcDbCircle
 10
176.4899141339183
 20
609.4222617735194
 30
0.0
 40
15.14800076389177
100
AcDbArc
 50
89.97483905017981
 51
97.8538763836742
  0
LINE
  5
AE
330
1F
100
AcDbEntity
  8
0
  6
Continuous
 62
     7
370
    25
100
AcDbLine
 10
174.4199832650929
 20
624.667759374493
 30
0.0
 11
174.4199832650929
 21
624.4281710542377
 31
0.0
  0
ARC
  5
AF
330
1F
100
AcDbEntity
  8
0
  6
Continuous
 62
     7
370
    25
100
AcDbCircle
 10
176.48981933301
 20
609.663235567219
 30
0.0
 40
15.14661533251254
100
AcDbArc
 50
89.97447814108412
 51
97.85423729276991
  0
ARC
  5
B0
330
1F
100
AcDbEntity
  8
0
  6
Continuous
 62
     7
370
    25
100
AcDbCircle
 10
176.4906168314058
 20
610.458884176773
 30
0.0
 40
13.50956501291128
100
AcDbArc
 50
89.97476776748678
 51
97.85428234298121
  0
LINE
  5
B1
330
1F
100
AcDbEntity
  8
0
  6
Continuous
 62
     7
370
    25
100
AcDbLine
 10
174.6444786881193
 20
623.8417135037121
 30
0.0
 11
174.4199832650929
 21
624.4281710542377
 31
0.0
  0
LINE
  5
B2
330
1F
100
AcDbEntity
  8
0
  6
Continuous
 62
     7
370
    25
100
AcDbLine
 10
176.4965662482291
 20
624.5702610768017
 30
0.0
 11
176.4965662482291
 21
623.9684478796657
 31
0.0
  0
LWPOLYLINE
  5
B3
330
1F
100
AcDbEntity
  8
0
  6
Continuous
 62
     7
370
    25
100
AcDbPolyline
 90
        8
 70
   128
 43
0.0
 10
176.4965662482291
 20
623.6664013422665
 10
174.8610373801648
 20
623.5554994500812
 10
173.3075207780211
 20
623.2283519066509
 10
171.9139162200599
 20
622.7013648904499
 10
170.7501047971755
 20
622.0009656108555
 10
169.8744450445383
 20
621.1622761048015
 10
169.3308460275739
 20
620.2273474491772
 10
169.1465661610573
 20
619.2430586970981
  0
LWPOLYLINE
  5
B4
330
1F
100
AcDbEntity
  8
0
  6
Continuous
 62
     7
370
    25
100
AcDbPolyline
 90
        8
 70
   128
 43
0.0
 10
183.8465663354009
 20
619.2430586970981
 10
183.6622864688843
 20
620.2273474491772
 10
183.1186874519198
 20
621.1622761048015
 10
182.2430276992827
 20
622.0009656108555
 10
181.0792162763982
 20
622.7013648904499
 10
179.685611718437
 20
623.2283519066509
 10
178.1320951162934
 20
623.5554994500812
 10
176.4965662482291
 20
623.6664013422665
  0
ARC
  5
B5
330
1F
100
AcDbEntity
  8
0
  6
Continuous
 62
     7
370
    25
100
AcDbCircle
 10
173.6857498745691
 20
616.8945380970587
 30
0.0
 40
7.308319944157561
100
AcDbArc
 50
120.6882409766819
 51
133.506707040035
  0
LINE
  5
B6
330
1F
100
AcDbEntity
  8
0
  6
Continuous
 62
     7
370
    25
100
AcDbLine
 10
170.6629353324979
 20
622.7538318790134
 30
0.0
 11
169.9558286677211
 21
623.1793792403873
 31
0.0
  0
ARC
  5
B7
330
1F
100
AcDbEntity
  8
0
  6
Continuous
 62
     7
370
    25
100
AcDbCircle
 10
171.3544356658726
 20
619.2530189514663
 30
0.0
 40
3.107885333458356
100
AcDbArc
 50
180.1836237357087
 51
201.2135825722828
  0
LINE
  5
B8
330
1F
100
AcDbEntity
  8
0
  6
Continuous
 62
     7
370
    25
100
AcDbLine
 10
168.2465662929326
 20
619.2430586970981
 30
0.0
 11
167.2465661290198
 21
619.2430586970981
 31
0.0
  0
ARC
  5
B9
330
1F
100
AcDbEntity
  8
0
  6
Continuous
 62
     7
370
    25
100
AcDbCircle
 10
175.2363424021256
 20
623.4094962477905
 30
0.0
 40
8.936190601038387
100
AcDbArc
 50
239.2172082280683
 51
249.6001731155413
  0
LINE
  5
BA
330
1F
100
AcDbEntity
  8
0
  6
Continuous
 62
     7
370
    25
100
AcDbLine
 10
170.6629353324979
 20
615.7322929657635
 30
0.0
 11
169.9558286677211
 21
615.3067456043896
 31
0.0
  0
LINE
  5
BB
330
1F
100
AcDbEntity
  8
0
  6
Continuous
 62
     7
370
    25
100
AcDbLine
 10
178.5731492313652
 20
613.8183654702839
 30
0.0
 11
178.3486538083389
 21
614.404815570229
 31
0.0
  0
ARC
  5
BC
330
1F
100
AcDbEntity
  8
0
  6
Continuous
 62
     7
370
    25
100
AcDbCircle
 10
176.5025346810897
 20
627.788161241261
 30
0.0
 40
13.51007391476185
100
AcDbArc
 50
269.9746880715462
 51
277.8539032081184
  0
LINE
  5
BD
330
1F
100
AcDbEntity
  8
0
  6
Continuous
 62
     7
370
    25
100
AcDbLine
 10
184.3387186276823
 20
616.2909076965984
 30
0.0
 11
183.4909179928809
 21
616.6100607670483
 31
0.0
  0
ARC
  5
BE
330
1F
100
AcDbEntity
  8
0
  6
Continuous
 62
     7
370
    25
100
AcDbCircle
 10
179.0039136780752
 20
621.337147798205
 30
0.0
 40
6.517557788099387
100
AcDbArc
 50
300.6876352160433
 51
313.5074366931444
  0
ARC
  5
BF
330
1F
100
AcDbEntity
  8
0
  6
Continuous
 62
     7
370
    25
100
AcDbCircle
 10
182.2619935824414
 20
619.2318971227514
 30
0.0
 40
3.484590660993518
100
AcDbArc
 50
0.1835257734907159
 51
21.21360006649663
  0
LINE
  5
C0
330
1F
100
AcDbEntity
  8
0
  6
Continuous
 62
     7
370
    25
100
AcDbLine
 10
185.5104611936121
 20
620.4927818335232
 30
0.0
 11
184.5359857875019
 21
620.3576730049786
 31
0.0
  0
ARC
  5
C1
330
1F
100
AcDbEntity
  8
0
  6
Continuous
 62
     7
370
    25
100
AcDbCircle
 10
177.9097744923564
 20
614.5720535816721
 30
0.0
 40
10.01886281424306
100
AcDbArc
 50
59.21702837939484
 51
69.60050893204667
  0
LINE
  5
C2
330
1F
100
AcDbEntity
  8
0
  6
Continuous
 62
     7
370
    25
100
AcDbLine
 10
181.4019866037279
 20
623.962584272736
 30
0.0
 11
180.8716710406452
 21
623.4523685134586
 31
0.0
  0
ARC
  5
C3
330
1F
100
AcDbEntity
  8
0
  6
Continuous
 62
     7
370
    25
100
AcDbCircle
 10
177.7569388027306
 20
614.8374326566588
 30
0.0
 40
8.935770994816645
100
AcDbArc
 50
59.21671534229497
 51
69.60018985264804
  0
LINE
  5
C4
330
1F
100
AcDbEntity
  8
0
  6
Continuous
 62
     7
370
    25
100
AcDbLine
 10
180.8716710406452
 20
623.2127801932033
 30
0.0
 11
181.4019866037279
 21
623.7229959524807
 31
0.0
  0
ARC
  5
C5
330
1F
100
AcDbEntity
  8
0
  6
Continuous
 62
     7
370
    25
100
AcDbCircle
 10
177.9096232700997
 20
614.3322313953596
 30
0.0
 40
10.01913472418411
100
AcDbArc
 50
59.21694808839547
 51
69.60016454928356
  0
LINE
  5
C6
330
1F
100
AcDbEntity
  8
0
  6
Continuous
 62
     7
370
    25
100
AcDbLine
 10
183.0373038287371
 20
622.9397834695515
 30
0.0
 11
182.3301971639603
 21
622.5142361081776
 31
0.0
  0
LINE
  5
C7
330
1F
100
AcDbEntity
  8
0
  6
Continuous
 62
     7
370
    25
100
AcDbLine
 10
183.0373038287371
 20
623.1793792403873
 30
0.0
 11
183.0373038287371
 21
622.9397834695515
 31
0.0
  0
LINE
  5
C8
330
1F
100
AcDbEntity
  8
0
  6
Continuous
 62
     7
370
    25
100
AcDbLine
 10
181.4019866037279
 20
623.962584272736
 30
0.0
 11
181.4019866037279
 21
623.7229959524807
 31
0.0
  0
LINE
  5
C9
330
1F
100
AcDbEntity
  8
0
  6
Continuous
 62
     7
370
    25
100
AcDbLine
 10
180.8716710406452
 20
623.4523685134586
 30
0.0
 11
180.8716710406452
 21
623.2127801932033
 31
0.0
  0
LWPOLYLINE
  5
CA
330
1F
100
AcDbEntity
  8
0
  6
Continuous
 62
     7
370
    25
100
AcDbPolyline
 90
       14
 70
   128
 43
0.0
 10
169.7906446392744
 20
619.0978245295223
 10
170.020311114481
 20
618.1507067240414
 10
170.6140143546372
 20
617.2627465285
 10
171.5383822779267
 20
616.483855382317
 10
172.7414552337586
 20
615.8578203476604
 10
174.1556068631917
 20
615.4198305166897
 10
175.7013463979683
 20
615.1944951571163
 10
177.2917860984898
 20
615.1944951571163
 10
178.8375256332665
 20
615.4198305166897
 10
180.2516772626995
 20
615.8578203476604
 10
181.4547502185314
 20
616.483855382317
 10
182.379118141821
 20
617.2627465285
 10
182.9728213819771
 20
618.1507067240414
 10
183.2024878571837
 20
619.0978245295223
  0
LWPOLYLINE
  5
CB
330
1F
100
AcDbEntity
  8
0
  6
Continuous
 62
     7
370
    25
100
AcDbPolyline
 90
       14
 70
   128
 43
0.0
 10
183.2024878571837
 20
619.0978245295223
 10
183.0436889763086
 20
620.0825156129536
 10
182.4917159724145
 20
621.0143969811138
 10
181.5797169442385
 20
621.8375147737202
 10
180.3624599455952
 20
622.5024194873508
 10
178.9130444853663
 20
622.9691983617481
 10
177.3185124370366
 20
623.2098074115452
 10
175.6746200594216
 20
623.2098074115452
 10
174.0800880110919
 20
622.9691983617481
 10
172.630672550863
 20
622.5024194873508
 10
171.4134155522197
 20
621.8375147737202
 10
170.5014165240436
 20
621.0143969811138
 10
169.9494435201495
 20
620.0825156129536
 10
169.7906446392744
 20
619.0978245295223
  0
LWPOLYLINE
  5
CC
330
1F
100
AcDbEntity
  8
0
  6
Continuous
 62
     7
370
    25
100
AcDbPolyline
 90
       29
 70
   128
 43
0.0
 10
176.4965662482291
 20
614.7797883905109
 10
174.8610373801648
 20
614.8906902826961
 10
173.3075207780211
 20
615.2178378261265
 10
171.9139162200599
 20
615.7448248423275
 10
170.7501047971755
 20
616.4452241219219
 10
169.8744450445383
 20
617.2839136279758
 10
169.3308460275739
 20
618.2188422836002
 10
169.1465661610573
 20
619.2031310356792
 10
169.3308460275739
 20
620.1874123371776
 10
169.8744450445383
 20
621.1223484433826
 10
170.7501047971755
 20
621.9610379494366
 10
171.9139162200599
 20
622.661437229031
 10
173.3075207780211
 20
623.188424245232
 10
174.8610373801648
 20
623.5155643380817
 10
176.4965662482291
 20
623.6264736808475
 10
178.1320951162934
 20
623.5155643380817
 10
179.685611718437
 20
623.188424245232
 10
181.0792162763982
 20
622.661437229031
 10
182.2430276992827
 20
621.9610379494366
 10
183.1186874519198
 20
621.1223484433826
 10
183.6622864688843
 20
620.1874123371776
 10
183.8465663354009
 20
619.2031310356792
 10
183.6622864688843
 20
618.2188422836002
 10
183.1186874519198
 20
617.2839136279758
 10
182.2430276992827
 20
616.4452241219219
 10
181.0792162763982
 20
615.7448248423275
 10
179.685611718437
 20
615.2178378261265
 10
178.1320951162934
 20
614.8906902826961
 10
176.4965662482291
 20
614.7797883905109
  0
LWPOLYLINE
  5
CD
330
1F
100
AcDbEntity
  8
0
  6
Continuous
 62
     7
370
    25
100
AcDbPolyline
 90
       14
 70
   128
 43
0.0
 10
169.7906446392744
 20
619.0978245295223
 10
170.020311114481
 20
619.8123054064449
 10
170.6140143546372
 20
620.4821498550114
 10
171.5383822779267
 20
621.0697249926266
 10
172.7414552337586
 20
621.5419874943432
 10
174.1556068631917
 20
621.8723909414944
 10
175.7013463979683
 20
622.0423759378132
 10
177.2917860984898
 20
622.0423759378132
 10
178.8375256332665
 20
621.8723909414944
 10
180.2516772626995
 20
621.5419874943432
 10
181.4547502185314
 20
621.0697249926266
 10
182.379118141821
 20
620.4821498550114
 10
182.9728213819771
 20
619.8123054064449
 10
183.2024878571837
 20
619.0978245295223
  0
LINE
  5
CE
330
1F
100
AcDbEntity
  8
0
  6
Continuous
 62
     7
370
    25
100
AcDbLine
 10
182.8965660865515
 20
618.9671040929493
 30
0.0
 11
183.1932957033723
 21
618.9671040929493
 31
0.0
  0
LINE
  5
CF
330
1F
100
AcDbEntity
  8
0
  6
Continuous
 62
     7
370
    25
100
AcDbLine
 10
182.8965660865515
 20
618.9671040929493
 30
0.0
 11
182.8965660865515
 21
619.1232310093578
 31
0.0
  0
LINE
  5
D0
330
1F
100
AcDbEntity
  8
0
  6
Continuous
 62
     7
370
    25
100
AcDbLine
 10
182.8965660865515
 20
619.1232310093578
 30
0.0
 11
182.4965663003831
 21
619.2280755795177
 31
0.0
  0
LINE
  5
D1
330
1F
100
AcDbEntity
  8
0
  6
Continuous
 62
     7
370
    25
100
AcDbLine
 10
182.4965663003831
 20
619.2280755795177
 30
0.0
 11
182.0965660485535
 21
619.1232310093578
 31
0.0
  0
LINE
  5
D2
330
1F
100
AcDbEntity
  8
0
  6
Continuous
 62
     7
370
    25
100
AcDbLine
 10
182.0965660485535
 20
619.1232310093578
 30
0.0
 11
182.0965660485535
 21
618.9671040929493
 31
0.0
  0
LINE
  5
D3
330
1F
100
AcDbEntity
  8
0
  6
Continuous
 62
     7
370
    25
100
AcDbLine
 10
181.8965663883
 20
618.9671040929493
 30
0.0
 11
182.0965660485535
 21
618.9671040929493
 31
0.0
  0
LINE
  5
D4
330
1F
100
AcDbEntity
  8
0
  6
Continuous
 62
     7
370
    25
100
AcDbLine
 10
181.8965663883
 20
618.9671040929493
 30
0.0
 11
181.8965663883
 21
619.1232310093578
 31
0.0
  0
LINE
  5
D5
330
1F
100
AcDbEntity
  8
0
  6
Continuous
 62
     7
370
    25
100
AcDbLine
 10
181.8965663883
 20
619.1232310093578
 30
0.0
 11
181.4965661364704
 21
619.2280755795177
 31
0.0
  0
LINE
  5
D6
330
1F
100
AcDbEntity
  8
0
  6
Continuous
 62
     7
370
    25
100
AcDbLine
 10
181.4965661364704
 20
619.2280755795177
 30
0.0
 11
181.096566350302
 21
619.1232310093578
 31
0.0
  0
LINE
  5
D7
330
1F
100
AcDbEntity
  8
0
  6
Continuous
 62
     7
370
    25
100
AcDbLine
 10
181.096566350302
 20
619.1232310093578
 30
0.0
 11
181.096566350302
 21
618.9671040929493
 31
0.0
  0
LINE
  5
D8
330
1F
100
AcDbEntity
  8
0
  6
Continuous
 62
     7
370
    25
100
AcDbLine
 10
180.8965662243872
 20
618.9671040929493
 30
0.0
 11
181.096566350302
 21
618.9671040929493
 31
0.0
  0
LINE
  5
D9
330
1F
100
AcDbEntity
  8
0
  6
Continuous
 62
     7
370
    25
100
AcDbLine
 10
180.8965662243872
 20
618.9671040929493
 30
0.0
 11
180.8965662243872
 21
619.1232310093578
 31
0.0
  0
LINE
  5
DA
330
1F
100
AcDbEntity
  8
0
  6
Continuous
 62
     7
370
    25
100
AcDbLine
 10
180.8965662243872
 20
619.1232310093578
 30
0.0
 11
180.4965664382189
 21
619.2280755795177
 31
0.0
  0
LINE
  5
DB
330
1F
100
AcDbEntity
  8
0
  6
Continuous
 62
     7
370
    25
100
AcDbLine
 10
180.4965664382189
 20
619.2280755795177
 30
0.0
 11
180.0965661863893
 21
619.1232310093578
 31
0.0
  0
LINE
  5
DC
330
1F
100
AcDbEntity
  8
0
  6
Continuous
 62
     7
370
    25
100
AcDbLine
 10
180.0965661863893
 20
619.1232310093578
 30
0.0
 11
180.0965661863893
 21
618.9671040929493
 31
0.0
  0
LINE
  5
DD
330
1F
100
AcDbEntity
  8
0
  6
Continuous
 62
     7
370
    25
100
AcDbLine
 10
179.8965662933051
 20
618.9671040929493
 30
0.0
 11
180.0965661863893
 21
618.9671040929493
 31
0.0
  0
LINE
  5
DE
330
1F
100
AcDbEntity
  8
0
  6
Continuous
 62
     7
370
    25
100
AcDbLine
 10
179.8965662933051
 20
618.9671040929493
 30
0.0
 11
179.8965662933051
 21
619.1232310093578
 31
0.0
  0
LINE
  5
DF
330
1F
100
AcDbEntity
  8
0
  6
Continuous
 62
     7
370
    25
100
AcDbLine
 10
179.8965662933051
 20
619.1232310093578
 30
0.0
 11
179.4965662743061
 21
619.2280755795177
 31
0.0
  0
LINE
  5
E0
330
1F
100
AcDbEntity
  8
0
  6
Continuous
 62
     7
370
    25
100
AcDbLine
 10
179.4965662743061
 20
619.2280755795177
 30
0.0
 11
179.0965662553071
 21
619.1232310093578
 31
0.0
  0
LINE
  5
E1
330
1F
100
AcDbEntity
  8
0
  6
Continuous
 62
     7
370
    25
100
AcDbLine
 10
179.0965662553071
 20
619.1232310093578
 30
0.0
 11
179.0965662553071
 21
618.9671040929493
 31
0.0
  0
LINE
  5
E2
330
1F
100
AcDbEntity
  8
0
  6
Continuous
 62
     7
370
    25
100
AcDbLine
 10
177.8965661983102
 20
618.9671040929493
 30
0.0
 11
179.0965662553071
 21
618.9671040929493
 31
0.0
  0
LINE
  5
E3
330
1F
100
AcDbEntity
  8
0
  6
Continuous
 62
     7
370
    25
100
AcDbLine
 10
177.8965661983102
 20
618.9671040929493
 30
0.0
 11
177.8965661983102
 21
619.1232310093578
 31
0.0
  0
LINE
  5
E4
330
1F
100
AcDbEntity
  8
0
  6
Continuous
 62
     7
370
    25
100
AcDbLine
 10
177.8965661983102
 20
619.1232310093578
 30
0.0
 11
177.4965662957265
 21
619.2280755795177
 31
0.0
  0
LINE
  5
E5
330
1F
100
AcDbEntity
  8
0
  6
Continuous
 62
     7
370
    25
100
AcDbLine
 10
177.4965662957265
 20
619.2280755795177
 30
0.0
 11
177.0965662767275
 21
619.1232310093578
 31
0.0
  0
LINE
  5
E6
330
1F
100
AcDbEntity
  8
0
  6
Continuous
 62
     7
370
    25
100
AcDbLine
 10
177.0965662767275
 20
619.1232310093578
 30
0.0
 11
177.0965662767275
 21
618.9671040929493
 31
0.0
  0
LINE
  5
E7
330
1F
100
AcDbEntity
  8
0
  6
Continuous
 62
     7
370
    25
100
AcDbLine
 10
175.8965662197306
 20
618.9671040929493
 30
0.0
 11
177.0965662767275
 21
618.9671040929493
 31
0.0
  0
LINE
  5
E8
330
1F
100
AcDbEntity
  8
0
  6
Continuous
 62
     7
370
    25
100
AcDbLine
 10
175.8965662197306
 20
618.9671040929493
 30
0.0
 11
175.8965662197306
 21
619.1232310093578
 31
0.0
  0
LINE
  5
E9
330
1F
100
AcDbEntity
  8
0
  6
Continuous
 62
     7
370
    25
100
AcDbLine
 10
175.8965662197306
 20
619.1232310093578
 30
0.0
 11
175.4965662007316
 21
619.2280755795177
 31
0.0
  0
LINE
  5
EA
330
1F
100
AcDbEntity
  8
0
  6
Continuous
 62
     7
370
    25
100
AcDbLine
 10
175.4965662007316
 20
619.2280755795177
 30
0.0
 11
175.096566298148
 21
619.1232310093578
 31
0.0
  0
LINE
  5
EB
330
1F
100
AcDbEntity
  8
0
  6
Continuous
 62
     7
370
    25
100
AcDbLine
 10
175.096566298148
 20
619.1232310093578
 30
0.0
 11
175.096566298148
 21
618.9671040929493
 31
0.0
  0
LINE
  5
EC
330
1F
100
AcDbEntity
  8
0
  6
Continuous
 62
     7
370
    25
100
AcDbLine
 10
174.8965662886485
 20
618.9671040929493
 30
0.0
 11
175.096566298148
 21
618.9671040929493
 31
0.0
  0
LINE
  5
ED
330
1F
100
AcDbEntity
  8
0
  6
Continuous
 62
     7
370
    25
100
AcDbLine
 10
174.8965662886485
 20
618.9671040929493
 30
0.0
 11
174.8965662886485
 21
619.1232310093578
 31
0.0
  0
LINE
  5
EE
330
1F
100
AcDbEntity
  8
0
  6
Continuous
 62
     7
370
    25
100
AcDbLine
 10
174.8965662886485
 20
619.1232310093578
 30
0.0
 11
174.4965661532342
 21
619.2280755795177
 31
0.0
  0
LINE
  5
EF
330
1F
100
AcDbEntity
  8
0
  6
Continuous
 62
     7
370
    25
100
AcDbLine
 10
174.4965661532342
 20
619.2280755795177
 30
0.0
 11
174.0965661342352
 21
619.1232310093578
 31
0.0
  0
LINE
  5
F0
330
1F
100
AcDbEntity
  8
0
  6
Continuous
 62
     7
370
    25
100
AcDbLine
 10
174.0965661342352
 20
619.1232310093578
 30
0.0
 11
174.0965661342352
 21
618.9671040929493
 31
0.0
  0
LINE
  5
F1
330
1F
100
AcDbEntity
  8
0
  6
Continuous
 62
     7
370
    25
100
AcDbLine
 10
173.896566241151
 20
618.9671040929493
 30
0.0
 11
174.0965661342352
 21
618.9671040929493
 31
0.0
  0
LINE
  5
F2
330
1F
100
AcDbEntity
  8
0
  6
Continuous
 62
     7
370
    25
100
AcDbLine
 10
173.896566241151
 20
618.9671040929493
 30
0.0
 11
173.896566241151
 21
619.1232310093578
 31
0.0
  0
LINE
  5
F3
330
1F
100
AcDbEntity
  8
0
  6
Continuous
 62
     7
370
    25
100
AcDbLine
 10
173.896566241151
 20
619.1232310093578
 30
0.0
 11
173.496566222152
 21
619.2280755795177
 31
0.0
  0
LINE
  5
F4
330
1F
100
AcDbEntity
  8
0
  6
Continuous
 62
     7
370
    25
100
AcDbLine
 10
173.496566222152
 20
619.2280755795177
 30
0.0
 11
173.0965662031531
 21
619.1232310093578
 31
0.0
  0
LINE
  5
F5
330
1F
100
AcDbEntity
  8
0
  6
Continuous
 62
     7
370
    25
100
AcDbLine
 10
173.0965662031531
 20
619.1232310093578
 30
0.0
 11
173.0965662031531
 21
618.9671040929493
 31
0.0
  0
LINE
  5
F6
330
1F
100
AcDbEntity
  8
0
  6
Continuous
 62
     7
370
    25
100
AcDbLine
 10
172.8965663100689
 20
618.9671040929493
 30
0.0
 11
173.0965662031531
 21
618.9671040929493
 31
0.0
  0
LINE
  5
F7
330
1F
100
AcDbEntity
  8
0
  6
Continuous
 62
     7
370
    25
100
AcDbLine
 10
172.8965663100689
 20
618.9671040929493
 30
0.0
 11
172.8965663100689
 21
619.1232310093578
 31
0.0
  0
LINE
  5
F8
330
1F
100
AcDbEntity
  8
0
  6
Continuous
 62
     7
370
    25
100
AcDbLine
 10
172.8965663100689
 20
619.1232310093578
 30
0.0
 11
172.4965660582393
 21
619.2280755795177
 31
0.0
  0
LINE
  5
F9
330
1F
100
AcDbEntity
  8
0
  6
Continuous
 62
     7
370
    25
100
AcDbLine
 10
172.4965660582393
 20
619.2280755795177
 30
0.0
 11
172.0965662720709
 21
619.1232310093578
 31
0.0
  0
LINE
  5
FA
330
1F
100
AcDbEntity
  8
0
  6
Continuous
 62
     7
370
    25
100
AcDbLine
 10
172.0965662720709
 20
619.1232310093578
 30
0.0
 11
172.0965662720709
 21
618.9671040929493
 31
0.0
  0
LINE
  5
FB
330
1F
100
AcDbEntity
  8
0
  6
Continuous
 62
     7
370
    25
100
AcDbLine
 10
171.8965661461561
 20
618.9671040929493
 30
0.0
 11
172.0965662720709
 21
618.9671040929493
 31
0.0
  0
LINE
  5
FC
330
1F
100
AcDbEntity
  8
0
  6
Continuous
 62
     7
370
    25
100
AcDbLine
 10
171.8965661461561
 20
618.9671040929493
 30
0.0
 11
171.8965661461561
 21
619.1232310093578
 31
0.0
  0
LINE
  5
FD
330
1F
100
AcDbEntity
  8
0
  6
Continuous
 62
     7
370
    25
100
AcDbLine
 10
171.8965661461561
 20
619.1232310093578
 30
0.0
 11
171.4965663599878
 21
619.2280755795177
 31
0.0
  0
LINE
  5
FE
330
1F
100
AcDbEntity
  8
0
  6
Continuous
 62
     7
370
    25
100
AcDbLine
 10
171.4965663599878
 20
619.2280755795177
 30
0.0
 11
171.0965661081582
 21
619.1232310093578
 31
0.0
  0
LINE
  5
FF
330
1F
100
AcDbEntity
  8
0
  6
Continuous
 62
     7
370
    25
100
AcDbLine
 10
171.0965661081582
 20
619.1232310093578
 30
0.0
 11
171.0965661081582
 21
618.9671040929493
 31
0.0
  0
LINE
  5
100
330
1F
100
AcDbEntity
  8
0
  6
Continuous
 62
     7
370
    25
100
AcDbLine
 10
170.8965664479046
 20
618.9671040929493
 30
0.0
 11
171.0965661081582
 21
618.9671040929493
 31
0.0
  0
LINE
  5
101
330
1F
100
AcDbEntity
  8
0
  6
Continuous
 62
     7
370
    25
100
AcDbLine
 10
170.8965664479046
 20
618.9671040929493
 30
0.0
 11
170.8965664479046
 21
619.1232310093578
 31
0.0
  0
LINE
  5
102
330
1F
100
AcDbEntity
  8
0
  6
Continuous
 62
     7
370
    25
100
AcDbLine
 10
170.8965664479046
 20
619.1232310093578
 30
0.0
 11
170.496566196075
 21
619.2280755795177
 31
0.0
  0
LINE
  5
103
330
1F
100
AcDbEntity
  8
0
  6
Continuous
 62
     7
370
    25
100
AcDbLine
 10
170.496566196075
 20
619.2280755795177
 30
0.0
 11
170.0965664099067
 21
619.1232310093578
 31
0.0
  0
LINE
  5
104
330
1F
100
AcDbEntity
  8
0
  6
Continuous
 62
     7
370
    25
100
AcDbLine
 10
170.0965664099067
 20
619.1232310093578
 30
0.0
 11
170.0965664099067
 21
618.9671040929493
 31
0.0
  0
LINE
  5
105
330
1F
100
AcDbEntity
  8
0
  6
Continuous
 62
     7
370
    25
100
AcDbLine
 10
169.7998367930859
 20
618.9671040929493
 30
0.0
 11
170.0965664099067
 21
618.9671040929493
 31
0.0
  0
LINE
  5
106
330
1F
100
AcDbEntity
  8
0
  6
Continuous
 62
     7
370
    25
100
AcDbLine
 10
175.4965662007316
 20
620.3795032061275
 30
0.0
 11
175.8965662197306
 21
620.4843477762874
 31
0.0
  0
LINE
  5
107
330
1F
100
AcDbEntity
  8
0
  6
Continuous
 62
     7
370
    25
100
AcDbLine
 10
175.8965662197306
 20
620.4843477762874
 30
0.0
 11
175.8965662197306
 21
620.6940369166073
 31
0.0
  0
LINE
  5
108
330
1F
100
AcDbEntity
  8
0
  6
Continuous
 62
     7
370
    25
100
AcDbLine
 10
175.8965662197306
 20
620.6940369166073
 30
0.0
 11
175.4965662007316
 21
620.7988814867672
 31
0.0
  0
LINE
  5
109
330
1F
100
AcDbEntity
  8
0
  6
Continuous
 62
     7
370
    25
100
AcDbLine
 10
175.4965662007316
 20
620.7988814867672
 30
0.0
 11
175.096566298148
 21
620.6940369166073
 31
0.0
  0
LINE
  5
10A
330
1F
100
AcDbEntity
  8
0
  6
Continuous
 62
     7
370
    25
100
AcDbLine
 10
175.096566298148
 20
620.6940369166073
 30
0.0
 11
175.096566298148
 21
620.4843477762874
 31
0.0
  0
LINE
  5
10B
330
1F
100
AcDbEntity
  8
0
  6
Continuous
 62
     7
370
    25
100
AcDbLine
 10
175.096566298148
 20
620.4843477762874
 30
0.0
 11
175.4965662007316
 21
620.3795032061275
 31
0.0
  0
LINE
  5
10C
330
1F
100
AcDbEntity
  8
0
  6
Continuous
 62
     7
370
    25
100
AcDbLine
 10
172.3965662281125
 20
620.3018011010822
 30
0.0
 11
171.9965664419442
 21
620.4066456712421
 31
0.0
  0
LINE
  5
10D
330
1F
100
AcDbEntity
  8
0
  6
Continuous
 62
     7
370
    25
100
AcDbLine
 10
171.9965664419442
 20
620.4066456712421
 30
0.0
 11
171.5965661901145
 21
620.3018011010822
 31
0.0
  0
LINE
  5
10E
330
1F
100
AcDbEntity
  8
0
  6
Continuous
 62
     7
370
    25
100
AcDbLine
 10
171.5965661901145
 20
620.3018011010822
 30
0.0
 11
171.5965661901145
 21
620.0921119607624
 31
0.0
  0
LINE
  5
10F
330
1F
100
AcDbEntity
  8
0
  6
Continuous
 62
     7
370
    25
100
AcDbLine
 10
171.5965661901145
 20
620.0921119607624
 30
0.0
 11
171.9965664419442
 21
619.9872673906025
 31
0.0
  0
LINE
  5
110
330
1F
100
AcDbEntity
  8
0
  6
Continuous
 62
     7
370
    25
100
AcDbLine
 10
171.9965664419442
 20
619.9872673906025
 30
0.0
 11
172.3965662281125
 21
620.0921119607624
 31
0.0
  0
LINE
  5
111
330
1F
100
AcDbEntity
  8
0
  6
Continuous
 62
     7
370
    25
100
AcDbLine
 10
172.3965662281125
 20
620.0921119607624
 30
0.0
 11
172.3965662281125
 21
620.3018011010822
 31
0.0
  0
LINE
  5
112
330
1F
100
AcDbEntity
  8
0
  6
Continuous
 62
     7
370
    25
100
AcDbLine
 10
173.3965661591946
 20
620.3018011010822
 30
0.0
 11
172.9965661401957
 21
620.4066456712421
 31
0.0
  0
LINE
  5
113
330
1F
100
AcDbEntity
  8
0
  6
Continuous
 62
     7
370
    25
100
AcDbLine
 10
172.9965661401957
 20
620.4066456712421
 30
0.0
 11
172.5965663540273
 21
620.3018011010822
 31
0.0
  0
LINE
  5
114
330
1F
100
AcDbEntity
  8
0
  6
Continuous
 62
     7
370
    25
100
AcDbLine
 10
172.5965663540273
 20
620.3018011010822
 30
0.0
 11
172.5965663540273
 21
620.0921119607624
 31
0.0
  0
LINE
  5
115
330
1F
100
AcDbEntity
  8
0
  6
Continuous
 62
     7
370
    25
100
AcDbLine
 10
172.5965663540273
 20
620.0921119607624
 30
0.0
 11
172.9965661401957
 21
619.9872673906025
 31
0.0
  0
LINE
  5
116
330
1F
100
AcDbEntity
  8
0
  6
Continuous
 62
     7
370
    25
100
AcDbLine
 10
172.9965661401957
 20
619.9872673906025
 30
0.0
 11
173.3965661591946
 21
620.0921119607624
 31
0.0
  0
LINE
  5
117
330
1F
100
AcDbEntity
  8
0
  6
Continuous
 62
     7
370
    25
100
AcDbLine
 10
173.3965661591946
 20
620.0921119607624
 30
0.0
 11
173.3965661591946
 21
620.3018011010822
 31
0.0
  0
LINE
  5
118
330
1F
100
AcDbEntity
  8
0
  6
Continuous
 62
     7
370
    25
100
AcDbLine
 10
174.3965663231074
 20
620.3018011010822
 30
0.0
 11
173.9965663041084
 21
620.4066456712421
 31
0.0
  0
LINE
  5
119
330
1F
100
AcDbEntity
  8
0
  6
Continuous
 62
     7
370
    25
100
AcDbLine
 10
173.9965663041084
 20
620.4066456712421
 30
0.0
 11
173.5965662851094
 21
620.3018011010822
 31
0.0
  0
LINE
  5
11A
330
1F
100
AcDbEntity
  8
0
  6
Continuous
 62
     7
370
    25
100
AcDbLine
 10
173.5965662851094
 20
620.3018011010822
 30
0.0
 11
173.5965662851094
 21
620.0921119607624
 31
0.0
  0
LINE
  5
11B
330
1F
100
AcDbEntity
  8
0
  6
Continuous
 62
     7
370
    25
100
AcDbLine
 10
173.5965662851094
 20
620.0921119607624
 30
0.0
 11
173.9965663041084
 21
619.9872673906025
 31
0.0
  0
LINE
  5
11C
330
1F
100
AcDbEntity
  8
0
  6
Continuous
 62
     7
370
    25
100
AcDbLine
 10
173.9965663041084
 20
619.9872673906025
 30
0.0
 11
174.3965663231074
 21
620.0921119607624
 31
0.0
  0
LINE
  5
11D
330
1F
100
AcDbEntity
  8
0
  6
Continuous
 62
     7
370
    25
100
AcDbLine
 10
174.3965663231074
 20
620.0921119607624
 30
0.0
 11
174.3965663231074
 21
620.3018011010822
 31
0.0
  0
LINE
  5
11E
330
1F
100
AcDbEntity
  8
0
  6
Continuous
 62
     7
370
    25
100
AcDbLine
 10
175.3965662541895
 20
620.3018011010822
 30
0.0
 11
174.9965662351906
 21
620.4066456712421
 31
0.0
  0
LINE
  5
11F
330
1F
100
AcDbEntity
  8
0
  6
Continuous
 62
     7
370
    25
100
AcDbLine
 10
174.9965662351906
 20
620.4066456712421
 30
0.0
 11
174.5965662161916
 21
620.3018011010822
 31
0.0
  0
LINE
  5
120
330
1F
100
AcDbEntity
  8
0
  6
Continuous
 62
     7
370
    25
100
AcDbLine
 10
174.5965662161916
 20
620.3018011010822
 30
0.0
 11
174.5965662161916
 21
620.0921119607624
 31
0.0
  0
LINE
  5
121
330
1F
100
AcDbEntity
  8
0
  6
Continuous
 62
     7
370
    25
100
AcDbLine
 10
174.5965662161916
 20
620.0921119607624
 30
0.0
 11
174.9965662351906
 21
619.9872673906025
 31
0.0
  0
LINE
  5
122
330
1F
100
AcDbEntity
  8
0
  6
Continuous
 62
     7
370
    25
100
AcDbLine
 10
174.9965662351906
 20
619.9872673906025
 30
0.0
 11
175.3965662541895
 21
620.0921119607624
 31
0.0
  0
LINE
  5
123
330
1F
100
AcDbEntity
  8
0
  6
Continuous
 62
     7
370
    25
100
AcDbLine
 10
175.3965662541895
 20
620.0921119607624
 30
0.0
 11
175.3965662541895
 21
620.3018011010822
 31
0.0
  0
LINE
  5
124
330
1F
100
AcDbEntity
  8
0
  6
Continuous
 62
     7
370
    25
100
AcDbLine
 10
175.3965662541895
 20
621.087204054707
 30
0.0
 11
174.9965662351906
 21
621.1920486248669
 31
0.0
  0
LINE
  5
125
330
1F
100
AcDbEntity
  8
0
  6
Continuous
 62
     7
370
    25
100
AcDbLine
 10
174.9965662351906
 20
621.1920486248669
 30
0.0
 11
174.5965662161916
 21
621.087204054707
 31
0.0
  0
LINE
  5
126
330
1F
100
AcDbEntity
  8
0
  6
Continuous
 62
     7
370
    25
100
AcDbLine
 10
174.5965662161916
 20
621.087204054707
 30
0.0
 11
174.5965662161916
 21
620.8775149143871
 31
0.0
  0
LINE
  5
127
330
1F
100
AcDbEntity
  8
0
  6
Continuous
 62
     7
370
    25
100
AcDbLine
 10
174.5965662161916
 20
620.8775149143871
 30
0.0
 11
174.9965662351906
 21
620.7726703442272
 31
0.0
  0
LINE
  5
128
330
1F
100
AcDbEntity
  8
0
  6
Continuous
 62
     7
370
    25
100
AcDbLine
 10
174.9965662351906
 20
620.7726703442272
 30
0.0
 11
175.3965662541895
 21
620.8775149143871
 31
0.0
  0
LINE
  5
129
330
1F
100
AcDbEntity
  8
0
  6
Continuous
 62
     7
370
    25
100
AcDbLine
 10
175.3965662541895
 20
620.8775149143871
 30
0.0
 11
175.3965662541895
 21
621.087204054707
 31
0.0
  0
LINE
  5
12A
330
1F
100
AcDbEntity
  8
0
  6
Continuous
 62
     7
370
    25
100
AcDbLine
 10
175.9965662244803
 20
620.7726703442272
 30
0.0
 11
176.3965662507553
 21
620.8775149143871
 31
0.0
  0
LINE
  5
12B
330
1F
100
AcDbEntity
  8
0
  6
Continuous
 62
     7
370
    25
100
AcDbLine
 10
176.3965662507553
 20
620.8775149143871
 30
0.0
 11
176.3965662507553
 21
621.087204054707
 31
0.0
  0
LINE
  5
12C
330
1F
100
AcDbEntity
  8
0
  6
Continuous
 62
     7
370
    25
100
AcDbLine
 10
176.3965662507553
 20
621.087204054707
 30
0.0
 11
175.9965662244803
 21
621.1920486248669
 31
0.0
  0
LINE
  5
12D
330
1F
100
AcDbEntity
  8
0
  6
Continuous
 62
     7
370
    25
100
AcDbLine
 10
175.9965662244803
 20
621.1920486248669
 30
0.0
 11
175.596566263689
 21
621.087204054707
 31
0.0
  0
LINE
  5
12E
330
1F
100
AcDbEntity
  8
0
  6
Continuous
 62
     7
370
    25
100
AcDbLine
 10
175.596566263689
 20
621.087204054707
 30
0.0
 11
175.596566263689
 21
620.8775149143871
 31
0.0
  0
LINE
  5
12F
330
1F
100
AcDbEntity
  8
0
  6
Continuous
 62
     7
370
    25
100
AcDbLine
 10
175.596566263689
 20
620.8775149143871
 30
0.0
 11
175.9965662244803
 21
620.7726703442272
 31
0.0
  0
LINE
  5
130
330
1F
100
AcDbEntity
  8
0
  6
Continuous
 62
     7
370
    25
100
AcDbLine
 10
172.4965660582393
 20
620.3795032061275
 30
0.0
 11
172.8965663100689
 21
620.4843477762874
 31
0.0
  0
LINE
  5
131
330
1F
100
AcDbEntity
  8
0
  6
Continuous
 62
     7
370
    25
100
AcDbLine
 10
172.8965663100689
 20
620.4843477762874
 30
0.0
 11
172.8965663100689
 21
620.6940369166073
 31
0.0
  0
LINE
  5
132
330
1F
100
AcDbEntity
  8
0
  6
Continuous
 62
     7
370
    25
100
AcDbLine
 10
172.8965663100689
 20
620.6940369166073
 30
0.0
 11
172.4965660582393
 21
620.7988814867672
 31
0.0
  0
LINE
  5
133
330
1F
100
AcDbEntity
  8
0
  6
Continuous
 62
     7
370
    25
100
AcDbLine
 10
172.4965660582393
 20
620.7988814867672
 30
0.0
 11
172.0965662720709
 21
620.6940369166073
 31
0.0
  0
LINE
  5
134
330
1F
100
AcDbEntity
  8
0
  6
Continuous
 62
     7
370
    25
100
AcDbLine
 10
172.0965662720709
 20
620.6940369166073
 30
0.0
 11
172.0965662720709
 21
620.4843477762874
 31
0.0
  0
LINE
  5
135
330
1F
100
AcDbEntity
  8
0
  6
Continuous
 62
     7
370
    25
100
AcDbLine
 10
172.0965662720709
 20
620.4843477762874
 30
0.0
 11
172.4965660582393
 21
620.3795032061275
 31
0.0
  0
LINE
  5
136
330
1F
100
AcDbEntity
  8
0
  6
Continuous
 62
     7
370
    25
100
AcDbLine
 10
173.496566222152
 20
620.3795032061275
 30
0.0
 11
173.896566241151
 21
620.4843477762874
 31
0.0
  0
LINE
  5
137
330
1F
100
AcDbEntity
  8
0
  6
Continuous
 62
     7
370
    25
100
AcDbLine
 10
173.896566241151
 20
620.4843477762874
 30
0.0
 11
173.896566241151
 21
620.6940369166073
 31
0.0
  0
LINE
  5
138
330
1F
100
AcDbEntity
  8
0
  6
Continuous
 62
     7
370
    25
100
AcDbLine
 10
173.896566241151
 20
620.6940369166073
 30
0.0
 11
173.496566222152
 21
620.7988814867672
 31
0.0
  0
LINE
  5
139
330
1F
100
AcDbEntity
  8
0
  6
Continuous
 62
     7
370
    25
100
AcDbLine
 10
173.496566222152
 20
620.7988814867672
 30
0.0
 11
173.0965662031531
 21
620.6940369166073
 31
0.0
  0
LINE
  5
13A
330
1F
100
AcDbEntity
  8
0
  6
Continuous
 62
     7
370
    25
100
AcDbLine
 10
173.0965662031531
 20
620.6940369166073
 30
0.0
 11
173.0965662031531
 21
620.4843477762874
 31
0.0
  0
LINE
  5
13B
330
1F
100
AcDbEntity
  8
0
  6
Continuous
 62
     7
370
    25
100
AcDbLine
 10
173.0965662031531
 20
620.4843477762874
 30
0.0
 11
173.496566222152
 21
620.3795032061275
 31
0.0
  0
LINE
  5
13C
330
1F
100
AcDbEntity
  8
0
  6
Continuous
 62
     7
370
    25
100
AcDbLine
 10
174.4965661532342
 20
620.3795032061275
 30
0.0
 11
174.8965662886485
 21
620.4843477762874
 31
0.0
  0
LINE
  5
13D
330
1F
100
AcDbEntity
  8
0
  6
Continuous
 62
     7
370
    25
100
AcDbLine
 10
174.8965662886485
 20
620.4843477762874
 30
0.0
 11
174.8965662886485
 21
620.6940369166073
 31
0.0
  0
LINE
  5
13E
330
1F
100
AcDbEntity
  8
0
  6
Continuous
 62
     7
370
    25
100
AcDbLine
 10
174.8965662886485
 20
620.6940369166073
 30
0.0
 11
174.4965661532342
 21
620.7988814867672
 31
0.0
  0
LINE
  5
13F
330
1F
100
AcDbEntity
  8
0
  6
Continuous
 62
     7
370
    25
100
AcDbLine
 10
174.4965661532342
 20
620.7988814867672
 30
0.0
 11
174.0965661342352
 21
620.6940369166073
 31
0.0
  0
LINE
  5
140
330
1F
100
AcDbEntity
  8
0
  6
Continuous
 62
     7
370
    25
100
AcDbLine
 10
174.0965661342352
 20
620.6940369166073
 30
0.0
 11
174.0965661342352
 21
620.4843477762874
 31
0.0
  0
LINE
  5
141
330
1F
100
AcDbEntity
  8
0
  6
Continuous
 62
     7
370
    25
100
AcDbLine
 10
174.0965661342352
 20
620.4843477762874
 30
0.0
 11
174.4965661532342
 21
620.3795032061275
 31
0.0
  0
LINE
  5
142
330
1F
100
AcDbEntity
  8
0
  6
Continuous
 62
     7
370
    25
100
AcDbLine
 10
175.9965662244803
 20
619.2018644369778
 30
0.0
 11
176.3965662507553
 21
619.3067090071377
 31
0.0
  0
LINE
  5
143
330
1F
100
AcDbEntity
  8
0
  6
Continuous
 62
     7
370
    25
100
AcDbLine
 10
176.3965662507553
 20
619.3067090071377
 30
0.0
 11
176.3965662507553
 21
619.5163981474575
 31
0.0
  0
LINE
  5
144
330
1F
100
AcDbEntity
  8
0
  6
Continuous
 62
     7
370
    25
100
AcDbLine
 10
176.3965662507553
 20
619.5163981474575
 30
0.0
 11
175.9965662244803
 21
619.6212427176174
 31
0.0
  0
LINE
  5
145
330
1F
100
AcDbEntity
  8
0
  6
Continuous
 62
     7
370
    25
100
AcDbLine
 10
175.9965662244803
 20
619.6212427176174
 30
0.0
 11
175.596566263689
 21
619.5163981474575
 31
0.0
  0
LINE
  5
146
330
1F
100
AcDbEntity
  8
0
  6
Continuous
 62
     7
370
    25
100
AcDbLine
 10
175.596566263689
 20
619.5163981474575
 30
0.0
 11
175.596566263689
 21
619.3067090071377
 31
0.0
  0
LINE
  5
147
330
1F
100
AcDbEntity
  8
0
  6
Continuous
 62
     7
370
    25
100
AcDbLine
 10
175.596566263689
 20
619.3067090071377
 30
0.0
 11
175.9965662244803
 21
619.2018644369778
 31
0.0
  0
LINE
  5
148
330
1F
100
AcDbEntity
  8
0
  6
Continuous
 62
     7
370
    25
100
AcDbLine
 10
175.3965662541895
 20
619.5163981474575
 30
0.0
 11
174.9965662351906
 21
619.6212427176174
 31
0.0
  0
LINE
  5
149
330
1F
100
AcDbEntity
  8
0
  6
Continuous
 62
     7
370
    25
100
AcDbLine
 10
174.9965662351906
 20
619.6212427176174
 30
0.0
 11
174.5965662161916
 21
619.5163981474575
 31
0.0
  0
LINE
  5
14A
330
1F
100
AcDbEntity
  8
0
  6
Continuous
 62
     7
370
    25
100
AcDbLine
 10
174.5965662161916
 20
619.5163981474575
 30
0.0
 11
174.5965662161916
 21
619.3067090071377
 31
0.0
  0
LINE
  5
14B
330
1F
100
AcDbEntity
  8
0
  6
Continuous
 62
     7
370
    25
100
AcDbLine
 10
174.5965662161916
 20
619.3067090071377
 30
0.0
 11
174.9965662351906
 21
619.2018644369778
 31
0.0
  0
LINE
  5
14C
330
1F
100
AcDbEntity
  8
0
  6
Continuous
 62
     7
370
    25
100
AcDbLine
 10
174.9965662351906
 20
619.2018644369778
 30
0.0
 11
175.3965662541895
 21
619.3067090071377
 31
0.0
  0
LINE
  5
14D
330
1F
100
AcDbEntity
  8
0
  6
Continuous
 62
     7
370
    25
100
AcDbLine
 10
175.3965662541895
 20
619.3067090071377
 30
0.0
 11
175.3965662541895
 21
619.5163981474575
 31
0.0
  0
LINE
  5
14E
330
1F
100
AcDbEntity
  8
0
  6
Continuous
 62
     7
370
    25
100
AcDbLine
 10
174.3965663231074
 20
619.5163981474575
 30
0.0
 11
173.9965663041084
 21
619.6212427176174
 31
0.0
  0
LINE
  5
14F
330
1F
100
AcDbEntity
  8
0
  6
Continuous
 62
     7
370
    25
100
AcDbLine
 10
173.9965663041084
 20
619.6212427176174
 30
0.0
 11
173.5965662851094
 21
619.5163981474575
 31
0.0
  0
LINE
  5
150
330
1F
100
AcDbEntity
  8
0
  6
Continuous
 62
     7
370
    25
100
AcDbLine
 10
173.5965662851094
 20
619.5163981474575
 30
0.0
 11
173.5965662851094
 21
619.3067090071377
 31
0.0
  0
LINE
  5
151
330
1F
100
AcDbEntity
  8
0
  6
Continuous
 62
     7
370
    25
100
AcDbLine
 10
173.5965662851094
 20
619.3067090071377
 30
0.0
 11
173.9965663041084
 21
619.2018644369778
 31
0.0
  0
LINE
  5
152
330
1F
100
AcDbEntity
  8
0
  6
Continuous
 62
     7
370
    25
100
AcDbLine
 10
173.9965663041084
 20
619.2018644369778
 30
0.0
 11
174.3965663231074
 21
619.3067090071377
 31
0.0
  0
LINE
  5
153
330
1F
100
AcDbEntity
  8
0
  6
Continuous
 62
     7
370
    25
100
AcDbLine
 10
174.3965663231074
 20
619.3067090071377
 30
0.0
 11
174.3965663231074
 21
619.5163981474575
 31
0.0
  0
LINE
  5
154
330
1F
100
AcDbEntity
  8
0
  6
Continuous
 62
     7
370
    25
100
AcDbLine
 10
173.3965661591946
 20
619.5163981474575
 30
0.0
 11
172.9965661401957
 21
619.6212427176174
 31
0.0
  0
LINE
  5
155
330
1F
100
AcDbEntity
  8
0
  6
Continuous
 62
     7
370
    25
100
AcDbLine
 10
172.9965661401957
 20
619.6212427176174
 30
0.0
 11
172.5965663540273
 21
619.5163981474575
 31
0.0
  0
LINE
  5
156
330
1F
100
AcDbEntity
  8
0
  6
Continuous
 62
     7
370
    25
100
AcDbLine
 10
172.5965663540273
 20
619.5163981474575
 30
0.0
 11
172.5965663540273
 21
619.3067090071377
 31
0.0
  0
LINE
  5
157
330
1F
100
AcDbEntity
  8
0
  6
Continuous
 62
     7
370
    25
100
AcDbLine
 10
172.5965663540273
 20
619.3067090071377
 30
0.0
 11
172.9965661401957
 21
619.2018644369778
 31
0.0
  0
LINE
  5
158
330
1F
100
AcDbEntity
  8
0
  6
Continuous
 62
     7
370
    25
100
AcDbLine
 10
172.9965661401957
 20
619.2018644369778
 30
0.0
 11
173.3965661591946
 21
619.3067090071377
 31
0.0
  0
LINE
  5
159
330
1F
100
AcDbEntity
  8
0
  6
Continuous
 62
     7
370
    25
100
AcDbLine
 10
173.3965661591946
 20
619.3067090071377
 30
0.0
 11
173.3965661591946
 21
619.5163981474575
 31
0.0
  0
LINE
  5
15A
330
1F
100
AcDbEntity
  8
0
  6
Continuous
 62
     7
370
    25
100
AcDbLine
 10
172.3965662281125
 20
619.5163981474575
 30
0.0
 11
171.9965664419442
 21
619.6212427176174
 31
0.0
  0
LINE
  5
15B
330
1F
100
AcDbEntity
  8
0
  6
Continuous
 62
     7
370
    25
100
AcDbLine
 10
171.9965664419442
 20
619.6212427176174
 30
0.0
 11
171.5965661901145
 21
619.5163981474575
 31
0.0
  0
LINE
  5
15C
330
1F
100
AcDbEntity
  8
0
  6
Continuous
 62
     7
370
    25
100
AcDbLine
 10
171.5965661901145
 20
619.5163981474575
 30
0.0
 11
171.5965661901145
 21
619.3067090071377
 31
0.0
  0
LINE
  5
15D
330
1F
100
AcDbEntity
  8
0
  6
Continuous
 62
     7
370
    25
100
AcDbLine
 10
171.5965661901145
 20
619.3067090071377
 30
0.0
 11
171.9965664419442
 21
619.2018644369778
 31
0.0
  0
LINE
  5
15E
330
1F
100
AcDbEntity
  8
0
  6
Continuous
 62
     7
370
    25
100
AcDbLine
 10
171.9965664419442
 20
619.2018644369778
 30
0.0
 11
172.3965662281125
 21
619.3067090071377
 31
0.0
  0
LINE
  5
15F
330
1F
100
AcDbEntity
  8
0
  6
Continuous
 62
     7
370
    25
100
AcDbLine
 10
172.3965662281125
 20
619.3067090071377
 30
0.0
 11
172.3965662281125
 21
619.5163981474575
 31
0.0
  0
LINE
  5
160
330
1F
100
AcDbEntity
  8
0
  6
Continuous
 62
     7
370
    25
100
AcDbLine
 10
171.3965660641997
 20
619.5163981474575
 30
0.0
 11
170.9965662780314
 21
619.6212427176174
 31
0.0
  0
LINE
  5
161
330
1F
100
AcDbEntity
  8
0
  6
Continuous
 62
     7
370
    25
100
AcDbLine
 10
170.9965662780314
 20
619.6212427176174
 30
0.0
 11
170.5965660262018
 21
619.5163981474575
 31
0.0
  0
LINE
  5
162
330
1F
100
AcDbEntity
  8
0
  6
Continuous
 62
     7
370
    25
100
AcDbLine
 10
170.5965660262018
 20
619.5163981474575
 30
0.0
 11
170.5965660262018
 21
619.3067090071377
 31
0.0
  0
LINE
  5
163
330
1F
100
AcDbEntity
  8
0
  6
Continuous
 62
     7
370
    25
100
AcDbLine
 10
170.5965660262018
 20
619.3067090071377
 30
0.0
 11
170.9965662780314
 21
619.2018644369778
 31
0.0
  0
LINE
  5
164
330
1F
100
AcDbEntity
  8
0
  6
Continuous
 62
     7
370
    25
100
AcDbLine
 10
170.9965662780314
 20
619.2018644369778
 30
0.0
 11
171.3965660641997
 21
619.3067090071377
 31
0.0
  0
LINE
  5
165
330
1F
100
AcDbEntity
  8
0
  6
Continuous
 62
     7
370
    25
100
AcDbLine
 10
171.3965660641997
 20
619.3067090071377
 30
0.0
 11
171.3965660641997
 21
619.5163981474575
 31
0.0
  0
LINE
  5
166
330
1F
100
AcDbEntity
  8
0
  6
Continuous
 62
     7
370
    25
100
AcDbLine
 10
175.9965662244803
 20
619.9872673906025
 30
0.0
 11
176.3965662507553
 21
620.0921119607624
 31
0.0
  0
LINE
  5
167
330
1F
100
AcDbEntity
  8
0
  6
Continuous
 62
     7
370
    25
100
AcDbLine
 10
176.3965662507553
 20
620.0921119607624
 30
0.0
 11
176.3965662507553
 21
620.3018011010822
 31
0.0
  0
LINE
  5
168
330
1F
100
AcDbEntity
  8
0
  6
Continuous
 62
     7
370
    25
100
AcDbLine
 10
176.3965662507553
 20
620.3018011010822
 30
0.0
 11
175.9965662244803
 21
620.4066456712421
 31
0.0
  0
LINE
  5
169
330
1F
100
AcDbEntity
  8
0
  6
Continuous
 62
     7
370
    25
100
AcDbLine
 10
175.9965662244803
 20
620.4066456712421
 30
0.0
 11
175.596566263689
 21
620.3018011010822
 31
0.0
  0
LINE
  5
16A
330
1F
100
AcDbEntity
  8
0
  6
Continuous
 62
     7
370
    25
100
AcDbLine
 10
175.596566263689
 20
620.3018011010822
 30
0.0
 11
175.596566263689
 21
620.0921119607624
 31
0.0
  0
LINE
  5
16B
330
1F
100
AcDbEntity
  8
0
  6
Continuous
 62
     7
370
    25
100
AcDbLine
 10
175.596566263689
 20
620.0921119607624
 30
0.0
 11
175.9965662244803
 21
619.9872673906025
 31
0.0
  0
LINE
  5
16C
330
1F
100
AcDbEntity
  8
0
  6
Continuous
 62
     7
370
    25
100
AcDbLine
 10
171.4965663599878
 20
619.5941002525028
 30
0.0
 11
171.8965661461561
 21
619.6989448226627
 31
0.0
  0
LINE
  5
16D
330
1F
100
AcDbEntity
  8
0
  6
Continuous
 62
     7
370
    25
100
AcDbLine
 10
171.8965661461561
 20
619.6989448226627
 30
0.0
 11
171.8965661461561
 21
619.9086339629825
 31
0.0
  0
LINE
  5
16E
330
1F
100
AcDbEntity
  8
0
  6
Continuous
 62
     7
370
    25
100
AcDbLine
 10
171.8965661461561
 20
619.9086339629825
 30
0.0
 11
171.4965663599878
 21
620.0134785331425
 31
0.0
  0
LINE
  5
16F
330
1F
100
AcDbEntity
  8
0
  6
Continuous
 62
     7
370
    25
100
AcDbLine
 10
171.4965663599878
 20
620.0134785331425
 30
0.0
 11
171.0965661081582
 21
619.9086339629825
 31
0.0
  0
LINE
  5
170
330
1F
100
AcDbEntity
  8
0
  6
Continuous
 62
     7
370
    25
100
AcDbLine
 10
171.0965661081582
 20
619.9086339629825
 30
0.0
 11
171.0965661081582
 21
619.6989448226627
 31
0.0
  0
LINE
  5
171
330
1F
100
AcDbEntity
  8
0
  6
Continuous
 62
     7
370
    25
100
AcDbLine
 10
171.0965661081582
 20
619.6989448226627
 30
0.0
 11
171.4965663599878
 21
619.5941002525028
 31
0.0
  0
LINE
  5
172
330
1F
100
AcDbEntity
  8
0
  6
Continuous
 62
     7
370
    25
100
AcDbLine
 10
172.4965660582393
 20
619.5941002525028
 30
0.0
 11
172.8965663100689
 21
619.6989448226627
 31
0.0
  0
LINE
  5
173
330
1F
100
AcDbEntity
  8
0
  6
Continuous
 62
     7
370
    25
100
AcDbLine
 10
172.8965663100689
 20
619.6989448226627
 30
0.0
 11
172.8965663100689
 21
619.9086339629825
 31
0.0
  0
LINE
  5
174
330
1F
100
AcDbEntity
  8
0
  6
Continuous
 62
     7
370
    25
100
AcDbLine
 10
172.8965663100689
 20
619.9086339629825
 30
0.0
 11
172.4965660582393
 21
620.0134785331425
 31
0.0
  0
LINE
  5
175
330
1F
100
AcDbEntity
  8
0
  6
Continuous
 62
     7
370
    25
100
AcDbLine
 10
172.4965660582393
 20
620.0134785331425
 30
0.0
 11
172.0965662720709
 21
619.9086339629825
 31
0.0
  0
LINE
  5
176
330
1F
100
AcDbEntity
  8
0
  6
Continuous
 62
     7
370
    25
100
AcDbLine
 10
172.0965662720709
 20
619.9086339629825
 30
0.0
 11
172.0965662720709
 21
619.6989448226627
 31
0.0
  0
LINE
  5
177
330
1F
100
AcDbEntity
  8
0
  6
Continuous
 62
     7
370
    25
100
AcDbLine
 10
172.0965662720709
 20
619.6989448226627
 30
0.0
 11
172.4965660582393
 21
619.5941002525028
 31
0.0
  0
LINE
  5
178
330
1F
100
AcDbEntity
  8
0
  6
Continuous
 62
     7
370
    25
100
AcDbLine
 10
173.496566222152
 20
619.5941002525028
 30
0.0
 11
173.896566241151
 21
619.6989448226627
 31
0.0
  0
LINE
  5
179
330
1F
100
AcDbEntity
  8
0
  6
Continuous
 62
     7
370
    25
100
AcDbLine
 10
173.896566241151
 20
619.6989448226627
 30
0.0
 11
173.896566241151
 21
619.9086339629825
 31
0.0
  0
LINE
  5
17A
330
1F
100
AcDbEntity
  8
0
  6
Continuous
 62
     7
370
    25
100
AcDbLine
 10
173.896566241151
 20
619.9086339629825
 30
0.0
 11
173.496566222152
 21
620.0134785331425
 31
0.0
  0
LINE
  5
17B
330
1F
100
AcDbEntity
  8
0
  6
Continuous
 62
     7
370
    25
100
AcDbLine
 10
173.496566222152
 20
620.0134785331425
 30
0.0
 11
173.0965662031531
 21
619.9086339629825
 31
0.0
  0
LINE
  5
17C
330
1F
100
AcDbEntity
  8
0
  6
Continuous
 62
     7
370
    25
100
AcDbLine
 10
173.0965662031531
 20
619.9086339629825
 30
0.0
 11
173.0965662031531
 21
619.6989448226627
 31
0.0
  0
LINE
  5
17D
330
1F
100
AcDbEntity
  8
0
  6
Continuous
 62
     7
370
    25
100
AcDbLine
 10
173.0965662031531
 20
619.6989448226627
 30
0.0
 11
173.496566222152
 21
619.5941002525028
 31
0.0
  0
LINE
  5
17E
330
1F
100
AcDbEntity
  8
0
  6
Continuous
 62
     7
370
    25
100
AcDbLine
 10
174.4965661532342
 20
619.5941002525028
 30
0.0
 11
174.8965662886485
 21
619.6989448226627
 31
0.0
  0
LINE
  5
17F
330
1F
100
AcDbEntity
  8
0
  6
Continuous
 62
     7
370
    25
100
AcDbLine
 10
174.8965662886485
 20
619.6989448226627
 30
0.0
 11
174.8965662886485
 21
619.9086339629825
 31
0.0
  0
LINE
  5
180
330
1F
100
AcDbEntity
  8
0
  6
Continuous
 62
     7
370
    25
100
AcDbLine
 10
174.8965662886485
 20
619.9086339629825
 30
0.0
 11
174.4965661532342
 21
620.0134785331425
 31
0.0
  0
LINE
  5
181
330
1F
100
AcDbEntity
  8
0
  6
Continuous
 62
     7
370
    25
100
AcDbLine
 10
174.4965661532342
 20
620.0134785331425
 30
0.0
 11
174.0965661342352
 21
619.9086339629825
 31
0.0
  0
LINE
  5
182
330
1F
100
AcDbEntity
  8
0
  6
Continuous
 62
     7
370
    25
100
AcDbLine
 10
174.0965661342352
 20
619.9086339629825
 30
0.0
 11
174.0965661342352
 21
619.6989448226627
 31
0.0
  0
LINE
  5
183
330
1F
100
AcDbEntity
  8
0
  6
Continuous
 62
     7
370
    25
100
AcDbLine
 10
174.0965661342352
 20
619.6989448226627
 30
0.0
 11
174.4965661532342
 21
619.5941002525028
 31
0.0
  0
LINE
  5
184
330
1F
100
AcDbEntity
  8
0
  6
Continuous
 62
     7
370
    25
100
AcDbLine
 10
174.3965663231074
 20
621.087204054707
 30
0.0
 11
173.9965663041084
 21
621.1920486248669
 31
0.0
  0
LINE
  5
185
330
1F
100
AcDbEntity
  8
0
  6
Continuous
 62
     7
370
    25
100
AcDbLine
 10
173.9965663041084
 20
621.1920486248669
 30
0.0
 11
173.5965662851094
 21
621.087204054707
 31
0.0
  0
LINE
  5
186
330
1F
100
AcDbEntity
  8
0
  6
Continuous
 62
     7
370
    25
100
AcDbLine
 10
173.5965662851094
 20
621.087204054707
 30
0.0
 11
173.5965662851094
 21
620.8775149143871
 31
0.0
  0
LINE
  5
187
330
1F
100
AcDbEntity
  8
0
  6
Continuous
 62
     7
370
    25
100
AcDbLine
 10
173.5965662851094
 20
620.8775149143871
 30
0.0
 11
173.9965663041084
 21
620.7726703442272
 31
0.0
  0
LINE
  5
188
330
1F
100
AcDbEntity
  8
0
  6
Continuous
 62
     7
370
    25
100
AcDbLine
 10
173.9965663041084
 20
620.7726703442272
 30
0.0
 11
174.3965663231074
 21
620.8775149143871
 31
0.0
  0
LINE
  5
189
330
1F
100
AcDbEntity
  8
0
  6
Continuous
 62
     7
370
    25
100
AcDbLine
 10
174.3965663231074
 20
620.8775149143871
 30
0.0
 11
174.3965663231074
 21
621.087204054707
 31
0.0
  0
LINE
  5
18A
330
1F
100
AcDbEntity
  8
0
  6
Continuous
 62
     7
370
    25
100
AcDbLine
 10
173.3965661591946
 20
621.087204054707
 30
0.0
 11
172.9965661401957
 21
621.1920486248669
 31
0.0
  0
LINE
  5
18B
330
1F
100
AcDbEntity
  8
0
  6
Continuous
 62
     7
370
    25
100
AcDbLine
 10
172.9965661401957
 20
621.1920486248669
 30
0.0
 11
172.5965663540273
 21
621.087204054707
 31
0.0
  0
LINE
  5
18C
330
1F
100
AcDbEntity
  8
0
  6
Continuous
 62
     7
370
    25
100
AcDbLine
 10
172.5965663540273
 20
621.087204054707
 30
0.0
 11
172.5965663540273
 21
620.8775149143871
 31
0.0
  0
LINE
  5
18D
330
1F
100
AcDbEntity
  8
0
  6
Continuous
 62
     7
370
    25
100
AcDbLine
 10
172.5965663540273
 20
620.8775149143871
 30
0.0
 11
172.9965661401957
 21
620.7726703442272
 31
0.0
  0
LINE
  5
18E
330
1F
100
AcDbEntity
  8
0
  6
Continuous
 62
     7
370
    25
100
AcDbLine
 10
172.9965661401957
 20
620.7726703442272
 30
0.0
 11
173.3965661591946
 21
620.8775149143871
 31
0.0
  0
LINE
  5
18F
330
1F
100
AcDbEntity
  8
0
  6
Continuous
 62
     7
370
    25
100
AcDbLine
 10
173.3965661591946
 20
620.8775149143871
 30
0.0
 11
173.3965661591946
 21
621.087204054707
 31
0.0
  0
LINE
  5
190
330
1F
100
AcDbEntity
  8
0
  6
Continuous
 62
     7
370
    25
100
AcDbLine
 10
175.4965662007316
 20
621.1649061597523
 30
0.0
 11
175.8965662197306
 21
621.2697507299122
 31
0.0
  0
LINE
  5
191
330
1F
100
AcDbEntity
  8
0
  6
Continuous
 62
     7
370
    25
100
AcDbLine
 10
175.8965662197306
 20
621.2697507299122
 30
0.0
 11
175.8965662197306
 21
621.479439870232
 31
0.0
  0
LINE
  5
192
330
1F
100
AcDbEntity
  8
0
  6
Continuous
 62
     7
370
    25
100
AcDbLine
 10
175.8965662197306
 20
621.479439870232
 30
0.0
 11
175.4965662007316
 21
621.5842844403919
 31
0.0
  0
LINE
  5
193
330
1F
100
AcDbEntity
  8
0
  6
Continuous
 62
     7
370
    25
100
AcDbLine
 10
175.4965662007316
 20
621.5842844403919
 30
0.0
 11
175.096566298148
 21
621.479439870232
 31
0.0
  0
LINE
  5
194
330
1F
100
AcDbEntity
  8
0
  6
Continuous
 62
     7
370
    25
100
AcDbLine
 10
175.096566298148
 20
621.479439870232
 30
0.0
 11
175.096566298148
 21
621.2697507299122
 31
0.0
  0
LINE
  5
195
330
1F
100
AcDbEntity
  8
0
  6
Continuous
 62
     7
370
    25
100
AcDbLine
 10
175.096566298148
 20
621.2697507299122
 30
0.0
 11
175.4965662007316
 21
621.1649061597523
 31
0.0
  0
LINE
  5
196
330
1F
100
AcDbEntity
  8
0
  6
Continuous
 62
     7
370
    25
100
AcDbLine
 10
174.4965661532342
 20
621.1649061597523
 30
0.0
 11
174.8965662886485
 21
621.2697507299122
 31
0.0
  0
LINE
  5
197
330
1F
100
AcDbEntity
  8
0
  6
Continuous
 62
     7
370
    25
100
AcDbLine
 10
174.8965662886485
 20
621.2697507299122
 30
0.0
 11
174.8965662886485
 21
621.479439870232
 31
0.0
  0
LINE
  5
198
330
1F
100
AcDbEntity
  8
0
  6
Continuous
 62
     7
370
    25
100
AcDbLine
 10
174.8965662886485
 20
621.479439870232
 30
0.0
 11
174.4965661532342
 21
621.5842844403919
 31
0.0
  0
LINE
  5
199
330
1F
100
AcDbEntity
  8
0
  6
Continuous
 62
     7
370
    25
100
AcDbLine
 10
174.4965661532342
 20
621.5842844403919
 30
0.0
 11
174.0965661342352
 21
621.479439870232
 31
0.0
  0
LINE
  5
19A
330
1F
100
AcDbEntity
  8
0
  6
Continuous
 62
     7
370
    25
100
AcDbLine
 10
174.0965661342352
 20
621.479439870232
 30
0.0
 11
174.0965661342352
 21
621.2697507299122
 31
0.0
  0
LINE
  5
19B
330
1F
100
AcDbEntity
  8
0
  6
Continuous
 62
     7
370
    25
100
AcDbLine
 10
174.0965661342352
 20
621.2697507299122
 30
0.0
 11
174.4965661532342
 21
621.1649061597523
 31
0.0
  0
LINE
  5
19C
330
1F
100
AcDbEntity
  8
0
  6
Continuous
 62
     7
370
    25
100
AcDbLine
 10
173.496566222152
 20
621.1649061597523
 30
0.0
 11
173.896566241151
 21
621.2697507299122
 31
0.0
  0
LINE
  5
19D
330
1F
100
AcDbEntity
  8
0
  6
Continuous
 62
     7
370
    25
100
AcDbLine
 10
173.896566241151
 20
621.2697507299122
 30
0.0
 11
173.896566241151
 21
621.479439870232
 31
0.0
  0
LINE
  5
19E
330
1F
100
AcDbEntity
  8
0
  6
Continuous
 62
     7
370
    25
100
AcDbLine
 10
173.896566241151
 20
621.479439870232
 30
0.0
 11
173.496566222152
 21
621.5842844403919
 31
0.0
  0
LINE
  5
19F
330
1F
100
AcDbEntity
  8
0
  6
Continuous
 62
     7
370
    25
100
AcDbLine
 10
173.496566222152
 20
621.5842844403919
 30
0.0
 11
173.0965662031531
 21
621.479439870232
 31
0.0
  0
LINE
  5
1A0
330
1F
100
AcDbEntity
  8
0
  6
Continuous
 62
     7
370
    25
100
AcDbLine
 10
173.0965662031531
 20
621.479439870232
 30
0.0
 11
173.0965662031531
 21
621.2697507299122
 31
0.0
  0
LINE
  5
1A1
330
1F
100
AcDbEntity
  8
0
  6
Continuous
 62
     7
370
    25
100
AcDbLine
 10
173.0965662031531
 20
621.2697507299122
 30
0.0
 11
173.496566222152
 21
621.1649061597523
 31
0.0
  0
LINE
  5
1A2
330
1F
100
AcDbEntity
  8
0
  6
Continuous
 62
     7
370
    25
100
AcDbLine
 10
176.5965662457029
 20
619.5163981474575
 30
0.0
 11
176.5965662457029
 21
619.3067090071377
 31
0.0
  0
LINE
  5
1A3
330
1F
100
AcDbEntity
  8
0
  6
Continuous
 62
     7
370
    25
100
AcDbLine
 10
176.5965662457029
 20
619.3067090071377
 30
0.0
 11
176.9965662719778
 21
619.2018644369778
 31
0.0
  0
LINE
  5
1A4
330
1F
100
AcDbEntity
  8
0
  6
Continuous
 62
     7
370
    25
100
AcDbLine
 10
176.9965662719778
 20
619.2018644369778
 30
0.0
 11
177.3965662327691
 21
619.3067090071377
 31
0.0
  0
LINE
  5
1A5
330
1F
100
AcDbEntity
  8
0
  6
Continuous
 62
     7
370
    25
100
AcDbLine
 10
177.3965662327691
 20
619.3067090071377
 30
0.0
 11
177.3965662327691
 21
619.5163981474575
 31
0.0
  0
LINE
  5
1A6
330
1F
100
AcDbEntity
  8
0
  6
Continuous
 62
     7
370
    25
100
AcDbLine
 10
177.3965662327691
 20
619.5163981474575
 30
0.0
 11
176.9965662719778
 21
619.6212427176174
 31
0.0
  0
LINE
  5
1A7
330
1F
100
AcDbEntity
  8
0
  6
Continuous
 62
     7
370
    25
100
AcDbLine
 10
176.9965662719778
 20
619.6212427176174
 30
0.0
 11
176.5965662457029
 21
619.5163981474575
 31
0.0
  0
LINE
  5
1A8
330
1F
100
AcDbEntity
  8
0
  6
Continuous
 62
     7
370
    25
100
AcDbLine
 10
177.5965662422686
 20
619.3067090071377
 30
0.0
 11
177.9965662612676
 21
619.2018644369778
 31
0.0
  0
LINE
  5
1A9
330
1F
100
AcDbEntity
  8
0
  6
Continuous
 62
     7
370
    25
100
AcDbLine
 10
177.9965662612676
 20
619.2018644369778
 30
0.0
 11
178.3965662802666
 21
619.3067090071377
 31
0.0
  0
LINE
  5
1AA
330
1F
100
AcDbEntity
  8
0
  6
Continuous
 62
     7
370
    25
100
AcDbLine
 10
178.3965662802666
 20
619.3067090071377
 30
0.0
 11
178.3965662802666
 21
619.5163981474575
 31
0.0
  0
LINE
  5
1AB
330
1F
100
AcDbEntity
  8
0
  6
Continuous
 62
     7
370
    25
100
AcDbLine
 10
178.3965662802666
 20
619.5163981474575
 30
0.0
 11
177.9965662612676
 21
619.6212427176174
 31
0.0
  0
LINE
  5
1AC
330
1F
100
AcDbEntity
  8
0
  6
Continuous
 62
     7
370
    25
100
AcDbLine
 10
177.9965662612676
 20
619.6212427176174
 30
0.0
 11
177.5965662422686
 21
619.5163981474575
 31
0.0
  0
LINE
  5
1AD
330
1F
100
AcDbEntity
  8
0
  6
Continuous
 62
     7
370
    25
100
AcDbLine
 10
177.5965662422686
 20
619.5163981474575
 30
0.0
 11
177.5965662422686
 21
619.3067090071377
 31
0.0
  0
LINE
  5
1AE
330
1F
100
AcDbEntity
  8
0
  6
Continuous
 62
     7
370
    25
100
AcDbLine
 10
178.5965661733507
 20
619.3067090071377
 30
0.0
 11
178.9965661923497
 21
619.2018644369778
 31
0.0
  0
LINE
  5
1AF
330
1F
100
AcDbEntity
  8
0
  6
Continuous
 62
     7
370
    25
100
AcDbLine
 10
178.9965661923497
 20
619.2018644369778
 30
0.0
 11
179.3965662113487
 21
619.3067090071377
 31
0.0
  0
LINE
  5
1B0
330
1F
100
AcDbEntity
  8
0
  6
Continuous
 62
     7
370
    25
100
AcDbLine
 10
179.3965662113487
 20
619.3067090071377
 30
0.0
 11
179.3965662113487
 21
619.5163981474575
 31
0.0
  0
LINE
  5
1B1
330
1F
100
AcDbEntity
  8
0
  6
Continuous
 62
     7
370
    25
100
AcDbLine
 10
179.3965662113487
 20
619.5163981474575
 30
0.0
 11
178.9965661923497
 21
619.6212427176174
 31
0.0
  0
LINE
  5
1B2
330
1F
100
AcDbEntity
  8
0
  6
Continuous
 62
     7
370
    25
100
AcDbLine
 10
178.9965661923497
 20
619.6212427176174
 30
0.0
 11
178.5965661733507
 21
619.5163981474575
 31
0.0
  0
LINE
  5
1B3
330
1F
100
AcDbEntity
  8
0
  6
Continuous
 62
     7
370
    25
100
AcDbLine
 10
178.5965661733507
 20
619.5163981474575
 30
0.0
 11
178.5965661733507
 21
619.3067090071377
 31
0.0
  0
LINE
  5
1B4
330
1F
100
AcDbEntity
  8
0
  6
Continuous
 62
     7
370
    25
100
AcDbLine
 10
179.5965663372635
 20
619.3067090071377
 30
0.0
 11
179.9965663562625
 21
619.2018644369778
 31
0.0
  0
LINE
  5
1B5
330
1F
100
AcDbEntity
  8
0
  6
Continuous
 62
     7
370
    25
100
AcDbLine
 10
179.9965663562625
 20
619.2018644369778
 30
0.0
 11
180.3965661424308
 21
619.3067090071377
 31
0.0
  0
LINE
  5
1B6
330
1F
100
AcDbEntity
  8
0
  6
Continuous
 62
     7
370
    25
100
AcDbLine
 10
180.3965661424308
 20
619.3067090071377
 30
0.0
 11
180.3965661424308
 21
619.5163981474575
 31
0.0
  0
LINE
  5
1B7
330
1F
100
AcDbEntity
  8
0
  6
Continuous
 62
     7
370
    25
100
AcDbLine
 10
180.3965661424308
 20
619.5163981474575
 30
0.0
 11
179.9965663562625
 21
619.6212427176174
 31
0.0
  0
LINE
  5
1B8
330
1F
100
AcDbEntity
  8
0
  6
Continuous
 62
     7
370
    25
100
AcDbLine
 10
179.9965663562625
 20
619.6212427176174
 30
0.0
 11
179.5965663372635
 21
619.5163981474575
 31
0.0
  0
LINE
  5
1B9
330
1F
100
AcDbEntity
  8
0
  6
Continuous
 62
     7
370
    25
100
AcDbLine
 10
179.5965663372635
 20
619.5163981474575
 30
0.0
 11
179.5965663372635
 21
619.3067090071377
 31
0.0
  0
LINE
  5
1BA
330
1F
100
AcDbEntity
  8
0
  6
Continuous
 62
     7
370
    25
100
AcDbLine
 10
180.5965662683456
 20
619.3067090071377
 30
0.0
 11
180.996566054514
 21
619.2018644369778
 31
0.0
  0
LINE
  5
1BB
330
1F
100
AcDbEntity
  8
0
  6
Continuous
 62
     7
370
    25
100
AcDbLine
 10
180.996566054514
 20
619.2018644369778
 30
0.0
 11
181.3965663063436
 21
619.3067090071377
 31
0.0
  0
LINE
  5
1BC
330
1F
100
AcDbEntity
  8
0
  6
Continuous
 62
     7
370
    25
100
AcDbLine
 10
181.3965663063436
 20
619.3067090071377
 30
0.0
 11
181.3965663063436
 21
619.5163981474575
 31
0.0
  0
LINE
  5
1BD
330
1F
100
AcDbEntity
  8
0
  6
Continuous
 62
     7
370
    25
100
AcDbLine
 10
181.3965663063436
 20
619.5163981474575
 30
0.0
 11
180.996566054514
 21
619.6212427176174
 31
0.0
  0
LINE
  5
1BE
330
1F
100
AcDbEntity
  8
0
  6
Continuous
 62
     7
370
    25
100
AcDbLine
 10
180.996566054514
 20
619.6212427176174
 30
0.0
 11
180.5965662683456
 21
619.5163981474575
 31
0.0
  0
LINE
  5
1BF
330
1F
100
AcDbEntity
  8
0
  6
Continuous
 62
     7
370
    25
100
AcDbLine
 10
180.5965662683456
 20
619.5163981474575
 30
0.0
 11
180.5965662683456
 21
619.3067090071377
 31
0.0
  0
LINE
  5
1C0
330
1F
100
AcDbEntity
  8
0
  6
Continuous
 62
     7
370
    25
100
AcDbLine
 10
181.5965664322584
 20
619.3067090071377
 30
0.0
 11
181.9965662184268
 21
619.2018644369778
 31
0.0
  0
LINE
  5
1C1
330
1F
100
AcDbEntity
  8
0
  6
Continuous
 62
     7
370
    25
100
AcDbLine
 10
181.9965662184268
 20
619.2018644369778
 30
0.0
 11
182.3965664702564
 21
619.3067090071377
 31
0.0
  0
LINE
  5
1C2
330
1F
100
AcDbEntity
  8
0
  6
Continuous
 62
     7
370
    25
100
AcDbLine
 10
182.3965664702564
 20
619.3067090071377
 30
0.0
 11
182.3965664702564
 21
619.5163981474575
 31
0.0
  0
LINE
  5
1C3
330
1F
100
AcDbEntity
  8
0
  6
Continuous
 62
     7
370
    25
100
AcDbLine
 10
182.3965664702564
 20
619.5163981474575
 30
0.0
 11
181.9965662184268
 21
619.6212427176174
 31
0.0
  0
LINE
  5
1C4
330
1F
100
AcDbEntity
  8
0
  6
Continuous
 62
     7
370
    25
100
AcDbLine
 10
181.9965662184268
 20
619.6212427176174
 30
0.0
 11
181.5965664322584
 21
619.5163981474575
 31
0.0
  0
LINE
  5
1C5
330
1F
100
AcDbEntity
  8
0
  6
Continuous
 62
     7
370
    25
100
AcDbLine
 10
181.5965664322584
 20
619.5163981474575
 30
0.0
 11
181.5965664322584
 21
619.3067090071377
 31
0.0
  0
LINE
  5
1C6
330
1F
100
AcDbEntity
  8
0
  6
Continuous
 62
     7
370
    25
100
AcDbLine
 10
182.4965663003831
 20
620.0134785331425
 30
0.0
 11
182.0965660485535
 21
619.9086339629825
 31
0.0
  0
LINE
  5
1C7
330
1F
100
AcDbEntity
  8
0
  6
Continuous
 62
     7
370
    25
100
AcDbLine
 10
182.0965660485535
 20
619.9086339629825
 30
0.0
 11
182.0965660485535
 21
619.6989448226627
 31
0.0
  0
LINE
  5
1C8
330
1F
100
AcDbEntity
  8
0
  6
Continuous
 62
     7
370
    25
100
AcDbLine
 10
182.0965660485535
 20
619.6989448226627
 30
0.0
 11
182.4965663003831
 21
619.5941002525028
 31
0.0
  0
LINE
  5
1C9
330
1F
100
AcDbEntity
  8
0
  6
Continuous
 62
     7
370
    25
100
AcDbLine
 10
182.4965663003831
 20
619.5941002525028
 30
0.0
 11
182.8302913094967
 21
619.6815775192913
 31
0.0
  0
ARC
  5
1CA
330
1F
100
AcDbEntity
  8
0
  6
Continuous
 62
     7
370
    25
100
AcDbCircle
 10
181.0799838732445
 20
618.7844363275043
 30
0.0
 40
1.966834624314065
100
AcDbArc
 50
27.13795583074092
 51
37.22581273458895
  0
LINE
  5
1CB
330
1F
100
AcDbEntity
  8
0
  6
Continuous
 62
     7
370
    25
100
AcDbLine
 10
182.6460906053989
 20
619.9742884792026
 30
0.0
 11
182.4965663003831
 21
620.0134785331425
 31
0.0
  0
LINE
  5
1CC
330
1F
100
AcDbEntity
  8
0
  6
Continuous
 62
     7
370
    25
100
AcDbLine
 10
181.4965661364704
 20
620.7988814867672
 30
0.0
 11
181.096566350302
 21
620.6940369166073
 31
0.0
  0
LINE
  5
1CD
330
1F
100
AcDbEntity
  8
0
  6
Continuous
 62
     7
370
    25
100
AcDbLine
 10
181.096566350302
 20
620.6940369166073
 30
0.0
 11
181.096566350302
 21
620.4843477762874
 31
0.0
  0
LINE
  5
1CE
330
1F
100
AcDbEntity
  8
0
  6
Continuous
 62
     7
370
    25
100
AcDbLine
 10
181.096566350302
 20
620.4843477762874
 30
0.0
 11
181.4965661364704
 21
620.3795032061275
 31
0.0
  0
LINE
  5
1CF
330
1F
100
AcDbEntity
  8
0
  6
Continuous
 62
     7
370
    25
100
AcDbLine
 10
181.4965661364704
 20
620.3795032061275
 30
0.0
 11
181.8965663883
 21
620.4843477762874
 31
0.0
  0
LINE
  5
1D0
330
1F
100
AcDbEntity
  8
0
  6
Continuous
 62
     7
370
    25
100
AcDbLine
 10
181.8965663883
 20
620.4843477762874
 30
0.0
 11
181.8965663883
 21
620.6609265364345
 31
0.0
  0
ARC
  5
1D1
330
1F
100
AcDbEntity
  8
0
  6
Continuous
 62
     7
370
    25
100
AcDbCircle
 10
179.3733511485727
 20
616.9361256990284
 30
0.0
 40
4.498972818803648
100
AcDbArc
 50
55.88591654719875
 51
57.15220574132558
  0
LINE
  5
1D2
330
1F
100
AcDbEntity
  8
0
  6
Continuous
 62
     7
370
    25
100
AcDbLine
 10
181.8136353726595
 20
620.7157777107891
 30
0.0
 11
181.4965661364704
 21
620.7988814867672
 31
0.0
  0
LINE
  5
1D3
330
1F
100
AcDbEntity
  8
0
  6
Continuous
 62
     7
370
    25
100
AcDbLine
 10
171.0965661081582
 20
620.4843477762874
 30
0.0
 11
171.4965663599878
 21
620.3795032061275
 31
0.0
  0
LINE
  5
1D4
330
1F
100
AcDbEntity
  8
0
  6
Continuous
 62
     7
370
    25
100
AcDbLine
 10
171.4965663599878
 20
620.3795032061275
 30
0.0
 11
171.8965661461561
 21
620.4843477762874
 31
0.0
  0
LINE
  5
1D5
330
1F
100
AcDbEntity
  8
0
  6
Continuous
 62
     7
370
    25
100
AcDbLine
 10
171.8965661461561
 20
620.4843477762874
 30
0.0
 11
171.8965661461561
 21
620.6940369166073
 31
0.0
  0
LINE
  5
1D6
330
1F
100
AcDbEntity
  8
0
  6
Continuous
 62
     7
370
    25
100
AcDbLine
 10
171.8965661461561
 20
620.6940369166073
 30
0.0
 11
171.4965663599878
 21
620.7988814867672
 31
0.0
  0
LINE
  5
1D7
330
1F
100
AcDbEntity
  8
0
  6
Continuous
 62
     7
370
    25
100
AcDbLine
 10
171.4965663599878
 20
620.7988814867672
 30
0.0
 11
171.1794971237987
 21
620.7157777107891
 31
0.0
  0
ARC
  5
1D8
330
1F
100
AcDbEntity
  8
0
  6
Continuous
 62
     7
370
    25
100
AcDbCircle
 10
173.6197813478855
 20
616.9361256990284
 30
0.0
 40
4.49897281880368
100
AcDbArc
 50
122.8477942586751
 51
124.1140834528019
  0
LINE
  5
1D9
330
1F
100
AcDbEntity
  8
0
  6
Continuous
 62
     7
370
    25
100
AcDbLine
 10
171.0965661081582
 20
620.6609265364345
 30
0.0
 11
171.0965661081582
 21
620.4843477762874
 31
0.0
  0
LINE
  5
1DA
330
1F
100
AcDbEntity
  8
0
  6
Continuous
 62
     7
370
    25
100
AcDbLine
 10
171.5965661901145
 20
620.8775149143871
 30
0.0
 11
171.9965664419442
 21
620.7726703442272
 31
0.0
  0
LINE
  5
1DB
330
1F
100
AcDbEntity
  8
0
  6
Continuous
 62
     7
370
    25
100
AcDbLine
 10
171.9965664419442
 20
620.7726703442272
 30
0.0
 11
172.3965662281125
 21
620.8775149143871
 31
0.0
  0
LINE
  5
1DC
330
1F
100
AcDbEntity
  8
0
  6
Continuous
 62
     7
370
    25
100
AcDbLine
 10
172.3965662281125
 20
620.8775149143871
 30
0.0
 11
172.3965662281125
 21
621.087204054707
 31
0.0
  0
LINE
  5
1DD
330
1F
100
AcDbEntity
  8
0
  6
Continuous
 62
     7
370
    25
100
AcDbLine
 10
172.3965662281125
 20
621.087204054707
 30
0.0
 11
172.0605431805461
 21
621.1752848185238
 31
0.0
  0
ARC
  5
1DE
330
1F
100
AcDbEntity
  8
0
  6
Continuous
 62
     7
370
    25
100
AcDbCircle
 10
174.5812890646964
 20
615.2070600154121
 30
0.0
 40
6.478724188676167
100
AcDbArc
 50
112.8973036399906
 51
117.4320337713985
  0
LINE
  5
1DF
330
1F
100
AcDbEntity
  8
0
  6
Continuous
 62
     7
370
    25
100
AcDbLine
 10
171.5965661901145
 20
620.9573031819996
 30
0.0
 11
171.5965661901145
 21
620.8775149143871
 31
0.0
  0
LINE
  5
1E0
330
1F
100
AcDbEntity
  8
0
  6
Continuous
 62
     7
370
    25
100
AcDbLine
 10
181.9965662184268
 20
620.4066456712421
 30
0.0
 11
181.5965664322584
 21
620.3018011010822
 31
0.0
  0
LINE
  5
1E1
330
1F
100
AcDbEntity
  8
0
  6
Continuous
 62
     7
370
    25
100
AcDbLine
 10
181.5965664322584
 20
620.3018011010822
 30
0.0
 11
181.5965664322584
 21
620.0921119607624
 31
0.0
  0
LINE
  5
1E2
330
1F
100
AcDbEntity
  8
0
  6
Continuous
 62
     7
370
    25
100
AcDbLine
 10
181.5965664322584
 20
620.0921119607624
 30
0.0
 11
181.9965662184268
 21
619.9872673906025
 31
0.0
  0
LINE
  5
1E3
330
1F
100
AcDbEntity
  8
0
  6
Continuous
 62
     7
370
    25
100
AcDbLine
 10
181.9965662184268
 20
619.9872673906025
 30
0.0
 11
182.3965664702564
 21
620.0921119607624
 31
0.0
  0
LINE
  5
1E4
330
1F
100
AcDbEntity
  8
0
  6
Continuous
 62
     7
370
    25
100
AcDbLine
 10
182.3965664702564
 20
620.0921119607624
 30
0.0
 11
182.3965664702564
 21
620.2567101873096
 31
0.0
  0
ARC
  5
1E5
330
1F
100
AcDbEntity
  8
0
  6
Continuous
 62
     7
370
    25
100
AcDbCircle
 10
180.2785081558742
 20
618.0987489173139
 30
0.0
 40
3.023734093124787
100
AcDbArc
 50
45.5346571830186
 51
47.2437923836275
  0
LINE
  5
1E6
330
1F
100
AcDbEntity
  8
0
  6
Continuous
 62
     7
370
    25
100
AcDbLine
 10
182.331261665663
 20
620.318922535294
 30
0.0
 11
181.9965662184268
 21
620.4066456712421
 31
0.0
  0
LINE
  5
1E7
330
1F
100
AcDbEntity
  8
0
  6
Continuous
 62
     7
370
    25
100
AcDbLine
 10
172.4965660582393
 20
621.1649061597523
 30
0.0
 11
172.8965663100689
 21
621.2697507299122
 31
0.0
  0
LINE
  5
1E8
330
1F
100
AcDbEntity
  8
0
  6
Continuous
 62
     7
370
    25
100
AcDbLine
 10
172.8965663100689
 20
621.2697507299122
 30
0.0
 11
172.8965663100689
 21
621.4753942049679
 31
0.0
  0
ARC
  5
1E9
330
1F
100
AcDbEntity
  8
0
  6
Continuous
 62
     7
370
    25
100
AcDbCircle
 10
175.340746713315
 20
613.3383295484515
 30
0.0
 40
8.496224989249058
100
AcDbArc
 50
106.7190160977773
 51
111.5857626242809
  0
LINE
  5
1EA
330
1F
100
AcDbEntity
  8
0
  6
Continuous
 62
     7
370
    25
100
AcDbLine
 10
172.2150407481103
 20
621.2386967099842
 30
0.0
 11
172.4965660582393
 21
621.1649061597523
 31
0.0
  0
LINE
  5
1EB
330
1F
100
AcDbEntity
  8
0
  6
Continuous
 62
     7
370
    25
100
AcDbLine
 10
174.5965662161916
 20
621.6629178680118
 30
0.0
 11
174.9965662351906
 21
621.5580732978519
 31
0.0
  0
LINE
  5
1EC
330
1F
100
AcDbEntity
  8
0
  6
Continuous
 62
     7
370
    25
100
AcDbLine
 10
174.9965662351906
 20
621.5580732978519
 30
0.0
 11
175.3965662541895
 21
621.6629178680118
 31
0.0
  0
LINE
  5
1ED
330
1F
100
AcDbEntity
  8
0
  6
Continuous
 62
     7
370
    25
100
AcDbLine
 10
175.3965662541895
 20
621.6629178680118
 30
0.0
 11
175.3965662541895
 21
621.8726070083317
 31
0.0
  0
LINE
  5
1EE
330
1F
100
AcDbEntity
  8
0
  6
Continuous
 62
     7
370
    25
100
AcDbLine
 10
175.3965662541895
 20
621.8726070083317
 30
0.0
 11
175.2399663423284
 21
621.9136597074207
 31
0.0
  0
ARC
  5
1EF
330
1F
100
AcDbEntity
  8
0
  6
Continuous
 62
     7
370
    25
100
AcDbCircle
 10
176.4237804715798
 20
608.6472012091946
 30
0.0
 40
13.31917178272628
100
AcDbArc
 50
95.09920411747056
 51
97.88508970859989
  0
LINE
  5
1F0
330
1F
100
AcDbEntity
  8
0
  6
Continuous
 62
     7
370
    25
100
AcDbLine
 10
174.5965662161916
 20
621.8404428518947
 30
0.0
 11
174.5965662161916
 21
621.6629178680118
 31
0.0
  0
LINE
  5
1F1
330
1F
100
AcDbEntity
  8
0
  6
Continuous
 62
     7
370
    25
100
AcDbLine
 10
182.5965661305099
 20
619.5163981474575
 30
0.0
 11
182.5965661305099
 21
619.3067090071377
 31
0.0
  0
LINE
  5
1F2
330
1F
100
AcDbEntity
  8
0
  6
Continuous
 62
     7
370
    25
100
AcDbLine
 10
182.5965661305099
 20
619.3067090071377
 30
0.0
 11
182.9835162247627
 21
619.2052842534717
 31
0.0
  0
ARC
  5
1F3
330
1F
100
AcDbEntity
  8
0
  6
Continuous
 62
     7
370
    25
100
AcDbCircle
 10
181.5229808627854
 20
618.9955284194028
 30
0.0
 40
1.475520604231691
100
AcDbArc
 50
8.172691691058764
 51
23.7198445993227
  0
LINE
  5
1F4
330
1F
100
AcDbEntity
  8
0
  6
Continuous
 62
     7
370
    25
100
AcDbLine
 10
182.8738543885856
 20
619.5890785611805
 30
0.0
 11
182.5965661305099
 21
619.5163981474575
 31
0.0
  0
LINE
  5
1F5
330
1F
100
AcDbEntity
  8
0
  6
Continuous
 62
     7
370
    25
100
AcDbLine
 10
182.0965660485535
 20
620.4843477762874
 30
0.0
 11
182.1578880521565
 21
620.4682768739399
 31
0.0
  0
ARC
  5
1F6
330
1F
100
AcDbEntity
  8
0
  6
Continuous
 62
     7
370
    25
100
AcDbCircle
 10
179.8770022097796
 20
617.6343186763153
 30
0.0
 40
3.637823427798397
100
AcDbArc
 50
51.17146218520615
 51
52.40072623665263
  0
LINE
  5
1F7
330
1F
100
AcDbEntity
  8
0
  6
Continuous
 62
     7
370
    25
100
AcDbLine
 10
182.0965660485535
 20
620.516556636208
 30
0.0
 11
182.0965660485535
 21
620.4843477762874
 31
0.0
  0
LINE
  5
1F8
330
1F
100
AcDbEntity
  8
0
  6
Continuous
 62
     7
370
    25
100
AcDbLine
 10
170.3965663659482
 20
619.3067090071377
 30
0.0
 11
170.3965663659482
 21
619.5163981474575
 31
0.0
  0
LINE
  5
1F9
330
1F
100
AcDbEntity
  8
0
  6
Continuous
 62
     7
370
    25
100
AcDbLine
 10
170.3965663659482
 20
619.5163981474575
 30
0.0
 11
170.1192781078725
 21
619.5890785611805
 31
0.0
  0
ARC
  5
1FA
330
1F
100
AcDbEntity
  8
0
  6
Continuous
 62
     7
370
    25
100
AcDbCircle
 10
171.4701516336728
 20
618.9955284194028
 30
0.0
 40
1.475520604231719
100
AcDbArc
 50
156.2801554006778
 51
171.8273083089414
  0
LINE
  5
1FB
330
1F
100
AcDbEntity
  8
0
  6
Continuous
 62
     7
370
    25
100
AcDbLine
 10
170.0096162716954
 20
619.2052842534717
 30
0.0
 11
170.3965663659482
 21
619.3067090071377
 31
0.0
  0
LINE
  5
1FC
330
1F
100
AcDbEntity
  8
0
  6
Continuous
 62
     7
370
    25
100
AcDbLine
 10
170.5965660262018
 20
620.0921119607624
 30
0.0
 11
170.9965662780314
 21
619.9872673906025
 31
0.0
  0
LINE
  5
1FD
330
1F
100
AcDbEntity
  8
0
  6
Continuous
 62
     7
370
    25
100
AcDbLine
 10
170.9965662780314
 20
619.9872673906025
 30
0.0
 11
171.3965660641997
 21
620.0921119607624
 31
0.0
  0
LINE
  5
1FE
330
1F
100
AcDbEntity
  8
0
  6
Continuous
 62
     7
370
    25
100
AcDbLine
 10
171.3965660641997
 20
620.0921119607624
 30
0.0
 11
171.3965660641997
 21
620.3018011010822
 31
0.0
  0
LINE
  5
1FF
330
1F
100
AcDbEntity
  8
0
  6
Continuous
 62
     7
370
    25
100
AcDbLine
 10
171.3965660641997
 20
620.3018011010822
 30
0.0
 11
170.9965662780314
 21
620.4066456712421
 31
0.0
  0
LINE
  5
200
330
1F
100
AcDbEntity
  8
0
  6
Continuous
 62
     7
370
    25
100
AcDbLine
 10
170.9965662780314
 20
620.4066456712421
 30
0.0
 11
170.6618708307951
 21
620.318922535294
 31
0.0
  0
ARC
  5
201
330
1F
100
AcDbEntity
  8
0
  6
Continuous
 62
     7
370
    25
100
AcDbCircle
 10
172.7146243405839
 20
618.0987489173139
 30
0.0
 40
3.023734093124768
100
AcDbArc
 50
132.7562076163721
 51
134.465342816981
  0
LINE
  5
202
330
1F
100
AcDbEntity
  8
0
  6
Continuous
 62
     7
370
    25
100
AcDbLine
 10
170.5965660262018
 20
620.2567101873096
 30
0.0
 11
170.5965660262018
 21
620.0921119607624
 31
0.0
  0
LINE
  5
203
330
1F
100
AcDbEntity
  8
0
  6
Continuous
 62
     7
370
    25
100
AcDbLine
 10
170.496566196075
 20
619.5941002525028
 30
0.0
 11
170.8965664479046
 21
619.6989448226627
 31
0.0
  0
LINE
  5
204
330
1F
100
AcDbEntity
  8
0
  6
Continuous
 62
     7
370
    25
100
AcDbLine
 10
170.8965664479046
 20
619.6989448226627
 30
0.0
 11
170.8965664479046
 21
619.9086339629825
 31
0.0
  0
LINE
  5
205
330
1F
100
AcDbEntity
  8
0
  6
Continuous
 62
     7
370
    25
100
AcDbLine
 10
170.8965664479046
 20
619.9086339629825
 30
0.0
 11
170.496566196075
 21
620.0134785331425
 31
0.0
  0
LINE
  5
206
330
1F
100
AcDbEntity
  8
0
  6
Continuous
 62
     7
370
    25
100
AcDbLine
 10
170.496566196075
 20
620.0134785331425
 30
0.0
 11
170.3470418910592
 21
619.9742884792026
 31
0.0
  0
ARC
  5
207
330
1F
100
AcDbEntity
  8
0
  6
Continuous
 62
     7
370
    25
100
AcDbCircle
 10
171.9131486232136
 20
618.7844363275043
 30
0.0
 40
1.966834624314065
100
AcDbArc
 50
142.7741872654111
 51
152.8620441692591
  0
LINE
  5
208
330
1F
100
AcDbEntity
  8
0
  6
Continuous
 62
     7
370
    25
100
AcDbLine
 10
170.1628411869615
 20
619.6815775192913
 30
0.0
 11
170.496566196075
 21
619.5941002525028
 31
0.0
  0
LINE
  5
209
330
1F
100
AcDbEntity
  8
0
  6
Continuous
 62
     7
370
    25
100
AcDbLine
 10
179.0965662553071
 20
620.6940369166073
 30
0.0
 11
179.0965662553071
 21
620.4843477762874
 31
0.0
  0
LINE
  5
20A
330
1F
100
AcDbEntity
  8
0
  6
Continuous
 62
     7
370
    25
100
AcDbLine
 10
179.0965662553071
 20
620.4843477762874
 30
0.0
 11
179.4965662743061
 21
620.3795032061275
 31
0.0
  0
LINE
  5
20B
330
1F
100
AcDbEntity
  8
0
  6
Continuous
 62
     7
370
    25
100
AcDbLine
 10
179.4965662743061
 20
620.3795032061275
 30
0.0
 11
179.8965662933051
 21
620.4843477762874
 31
0.0
  0
LINE
  5
20C
330
1F
100
AcDbEntity
  8
0
  6
Continuous
 62
     7
370
    25
100
AcDbLine
 10
179.8965662933051
 20
620.4843477762874
 30
0.0
 11
179.8965662933051
 21
620.6940369166073
 31
0.0
  0
LINE
  5
20D
330
1F
100
AcDbEntity
  8
0
  6
Continuous
 62
     7
370
    25
100
AcDbLine
 10
179.8965662933051
 20
620.6940369166073
 30
0.0
 11
179.4965662743061
 21
620.7988814867672
 31
0.0
  0
LINE
  5
20E
330
1F
100
AcDbEntity
  8
0
  6
Continuous
 62
     7
370
    25
100
AcDbLine
 10
179.4965662743061
 20
620.7988814867672
 30
0.0
 11
179.0965662553071
 21
620.6940369166073
 31
0.0
  0
LINE
  5
20F
330
1F
100
AcDbEntity
  8
0
  6
Continuous
 62
     7
370
    25
100
AcDbLine
 10
180.0965661863893
 20
620.6940369166073
 30
0.0
 11
180.0965661863893
 21
620.4843477762874
 31
0.0
  0
LINE
  5
210
330
1F
100
AcDbEntity
  8
0
  6
Continuous
 62
     7
370
    25
100
AcDbLine
 10
180.0965661863893
 20
620.4843477762874
 30
0.0
 11
180.4965664382189
 21
620.3795032061275
 31
0.0
  0
LINE
  5
211
330
1F
100
AcDbEntity
  8
0
  6
Continuous
 62
     7
370
    25
100
AcDbLine
 10
180.4965664382189
 20
620.3795032061275
 30
0.0
 11
180.8965662243872
 21
620.4843477762874
 31
0.0
  0
LINE
  5
212
330
1F
100
AcDbEntity
  8
0
  6
Continuous
 62
     7
370
    25
100
AcDbLine
 10
180.8965662243872
 20
620.4843477762874
 30
0.0
 11
180.8965662243872
 21
620.6940369166073
 31
0.0
  0
LINE
  5
213
330
1F
100
AcDbEntity
  8
0
  6
Continuous
 62
     7
370
    25
100
AcDbLine
 10
180.8965662243872
 20
620.6940369166073
 30
0.0
 11
180.4965664382189
 21
620.7988814867672
 31
0.0
  0
LINE
  5
214
330
1F
100
AcDbEntity
  8
0
  6
Continuous
 62
     7
370
    25
100
AcDbLine
 10
180.4965664382189
 20
620.7988814867672
 30
0.0
 11
180.0965661863893
 21
620.6940369166073
 31
0.0
  0
LINE
  5
215
330
1F
100
AcDbEntity
  8
0
  6
Continuous
 62
     7
370
    25
100
AcDbLine
 10
176.5965662457029
 20
621.087204054707
 30
0.0
 11
176.5965662457029
 21
620.8775149143871
 31
0.0
  0
LINE
  5
216
330
1F
100
AcDbEntity
  8
0
  6
Continuous
 62
     7
370
    25
100
AcDbLine
 10
176.5965662457029
 20
620.8775149143871
 30
0.0
 11
176.9965662719778
 21
620.7726703442272
 31
0.0
  0
LINE
  5
217
330
1F
100
AcDbEntity
  8
0
  6
Continuous
 62
     7
370
    25
100
AcDbLine
 10
176.9965662719778
 20
620.7726703442272
 30
0.0
 11
177.3965662327691
 21
620.8775149143871
 31
0.0
  0
LINE
  5
218
330
1F
100
AcDbEntity
  8
0
  6
Continuous
 62
     7
370
    25
100
AcDbLine
 10
177.3965662327691
 20
620.8775149143871
 30
0.0
 11
177.3965662327691
 21
621.087204054707
 31
0.0
  0
LINE
  5
219
330
1F
100
AcDbEntity
  8
0
  6
Continuous
 62
     7
370
    25
100
AcDbLine
 10
177.3965662327691
 20
621.087204054707
 30
0.0
 11
176.9965662719778
 21
621.1920486248669
 31
0.0
  0
LINE
  5
21A
330
1F
100
AcDbEntity
  8
0
  6
Continuous
 62
     7
370
    25
100
AcDbLine
 10
176.9965662719778
 20
621.1920486248669
 30
0.0
 11
176.5965662457029
 21
621.087204054707
 31
0.0
  0
LINE
  5
21B
330
1F
100
AcDbEntity
  8
0
  6
Continuous
 62
     7
370
    25
100
AcDbLine
 10
177.5965662422686
 20
620.8775149143871
 30
0.0
 11
177.9965662612676
 21
620.7726703442272
 31
0.0
  0
LINE
  5
21C
330
1F
100
AcDbEntity
  8
0
  6
Continuous
 62
     7
370
    25
100
AcDbLine
 10
177.9965662612676
 20
620.7726703442272
 30
0.0
 11
178.3965662802666
 21
620.8775149143871
 31
0.0
  0
LINE
  5
21D
330
1F
100
AcDbEntity
  8
0
  6
Continuous
 62
     7
370
    25
100
AcDbLine
 10
178.3965662802666
 20
620.8775149143871
 30
0.0
 11
178.3965662802666
 21
621.087204054707
 31
0.0
  0
LINE
  5
21E
330
1F
100
AcDbEntity
  8
0
  6
Continuous
 62
     7
370
    25
100
AcDbLine
 10
178.3965662802666
 20
621.087204054707
 30
0.0
 11
177.9965662612676
 21
621.1920486248669
 31
0.0
  0
LINE
  5
21F
330
1F
100
AcDbEntity
  8
0
  6
Continuous
 62
     7
370
    25
100
AcDbLine
 10
177.9965662612676
 20
621.1920486248669
 30
0.0
 11
177.5965662422686
 21
621.087204054707
 31
0.0
  0
LINE
  5
220
330
1F
100
AcDbEntity
  8
0
  6
Continuous
 62
     7
370
    25
100
AcDbLine
 10
177.5965662422686
 20
621.087204054707
 30
0.0
 11
177.5965662422686
 21
620.8775149143871
 31
0.0
  0
LINE
  5
221
330
1F
100
AcDbEntity
  8
0
  6
Continuous
 62
     7
370
    25
100
AcDbLine
 10
178.5965661733507
 20
620.8775149143871
 30
0.0
 11
178.9965661923497
 21
620.7726703442272
 31
0.0
  0
LINE
  5
222
330
1F
100
AcDbEntity
  8
0
  6
Continuous
 62
     7
370
    25
100
AcDbLine
 10
178.9965661923497
 20
620.7726703442272
 30
0.0
 11
179.3965662113487
 21
620.8775149143871
 31
0.0
  0
LINE
  5
223
330
1F
100
AcDbEntity
  8
0
  6
Continuous
 62
     7
370
    25
100
AcDbLine
 10
179.3965662113487
 20
620.8775149143871
 30
0.0
 11
179.3965662113487
 21
621.087204054707
 31
0.0
  0
LINE
  5
224
330
1F
100
AcDbEntity
  8
0
  6
Continuous
 62
     7
370
    25
100
AcDbLine
 10
179.3965662113487
 20
621.087204054707
 30
0.0
 11
178.9965661923497
 21
621.1920486248669
 31
0.0
  0
LINE
  5
225
330
1F
100
AcDbEntity
  8
0
  6
Continuous
 62
     7
370
    25
100
AcDbLine
 10
178.9965661923497
 20
621.1920486248669
 30
0.0
 11
178.5965661733507
 21
621.087204054707
 31
0.0
  0
LINE
  5
226
330
1F
100
AcDbEntity
  8
0
  6
Continuous
 62
     7
370
    25
100
AcDbLine
 10
178.5965661733507
 20
621.087204054707
 30
0.0
 11
178.5965661733507
 21
620.8775149143871
 31
0.0
  0
LINE
  5
227
330
1F
100
AcDbEntity
  8
0
  6
Continuous
 62
     7
370
    25
100
AcDbLine
 10
178.0965662078097
 20
620.6940369166073
 30
0.0
 11
178.0965662078097
 21
620.4843477762874
 31
0.0
  0
LINE
  5
228
330
1F
100
AcDbEntity
  8
0
  6
Continuous
 62
     7
370
    25
100
AcDbLine
 10
178.0965662078097
 20
620.4843477762874
 30
0.0
 11
178.496566343224
 21
620.3795032061275
 31
0.0
  0
LINE
  5
229
330
1F
100
AcDbEntity
  8
0
  6
Continuous
 62
     7
370
    25
100
AcDbLine
 10
178.496566343224
 20
620.3795032061275
 30
0.0
 11
178.896566362223
 21
620.4843477762874
 31
0.0
  0
LINE
  5
22A
330
1F
100
AcDbEntity
  8
0
  6
Continuous
 62
     7
370
    25
100
AcDbLine
 10
178.896566362223
 20
620.4843477762874
 30
0.0
 11
178.896566362223
 21
620.6940369166073
 31
0.0
  0
LINE
  5
22B
330
1F
100
AcDbEntity
  8
0
  6
Continuous
 62
     7
370
    25
100
AcDbLine
 10
178.896566362223
 20
620.6940369166073
 30
0.0
 11
178.496566343224
 21
620.7988814867672
 31
0.0
  0
LINE
  5
22C
330
1F
100
AcDbEntity
  8
0
  6
Continuous
 62
     7
370
    25
100
AcDbLine
 10
178.496566343224
 20
620.7988814867672
 30
0.0
 11
178.0965662078097
 21
620.6940369166073
 31
0.0
  0
LINE
  5
22D
330
1F
100
AcDbEntity
  8
0
  6
Continuous
 62
     7
370
    25
100
AcDbLine
 10
177.0965662767275
 20
620.6940369166073
 30
0.0
 11
177.0965662767275
 21
620.4843477762874
 31
0.0
  0
LINE
  5
22E
330
1F
100
AcDbEntity
  8
0
  6
Continuous
 62
     7
370
    25
100
AcDbLine
 10
177.0965662767275
 20
620.4843477762874
 30
0.0
 11
177.4965662957265
 21
620.3795032061275
 31
0.0
  0
LINE
  5
22F
330
1F
100
AcDbEntity
  8
0
  6
Continuous
 62
     7
370
    25
100
AcDbLine
 10
177.4965662957265
 20
620.3795032061275
 30
0.0
 11
177.8965661983102
 21
620.4843477762874
 31
0.0
  0
LINE
  5
230
330
1F
100
AcDbEntity
  8
0
  6
Continuous
 62
     7
370
    25
100
AcDbLine
 10
177.8965661983102
 20
620.4843477762874
 30
0.0
 11
177.8965661983102
 21
620.6940369166073
 31
0.0
  0
LINE
  5
231
330
1F
100
AcDbEntity
  8
0
  6
Continuous
 62
     7
370
    25
100
AcDbLine
 10
177.8965661983102
 20
620.6940369166073
 30
0.0
 11
177.4965662957265
 21
620.7988814867672
 31
0.0
  0
LINE
  5
232
330
1F
100
AcDbEntity
  8
0
  6
Continuous
 62
     7
370
    25
100
AcDbLine
 10
177.4965662957265
 20
620.7988814867672
 30
0.0
 11
177.0965662767275
 21
620.6940369166073
 31
0.0
  0
LINE
  5
233
330
1F
100
AcDbEntity
  8
0
  6
Continuous
 62
     7
370
    25
100
AcDbLine
 10
176.0965662583339
 20
620.4843477762874
 30
0.0
 11
176.4965662482278
 21
620.3795032061275
 31
0.0
  0
LINE
  5
234
330
1F
100
AcDbEntity
  8
0
  6
Continuous
 62
     7
370
    25
100
AcDbLine
 10
176.4965662482278
 20
620.3795032061275
 30
0.0
 11
176.8965662381242
 21
620.4843477762874
 31
0.0
  0
LINE
  5
235
330
1F
100
AcDbEntity
  8
0
  6
Continuous
 62
     7
370
    25
100
AcDbLine
 10
176.8965662381242
 20
620.4843477762874
 30
0.0
 11
176.8965662381242
 21
620.6940369166073
 31
0.0
  0
LINE
  5
236
330
1F
100
AcDbEntity
  8
0
  6
Continuous
 62
     7
370
    25
100
AcDbLine
 10
176.8965662381242
 20
620.6940369166073
 30
0.0
 11
176.4965662482291
 21
620.7988814867672
 31
0.0
  0
LINE
  5
237
330
1F
100
AcDbEntity
  8
0
  6
Continuous
 62
     7
370
    25
100
AcDbLine
 10
176.4965662482291
 20
620.7988814867672
 30
0.0
 11
176.0965662583339
 21
620.6940369166073
 31
0.0
  0
LINE
  5
238
330
1F
100
AcDbEntity
  8
0
  6
Continuous
 62
     7
370
    25
100
AcDbLine
 10
176.0965662583339
 20
620.6940369166073
 30
0.0
 11
176.0965662583339
 21
620.4843477762874
 31
0.0
  0
LINE
  5
239
330
1F
100
AcDbEntity
  8
0
  6
Continuous
 62
     7
370
    25
100
AcDbLine
 10
175.596566263689
 20
621.8726070083317
 30
0.0
 11
175.596566263689
 21
621.6629178680118
 31
0.0
  0
LINE
  5
23A
330
1F
100
AcDbEntity
  8
0
  6
Continuous
 62
     7
370
    25
100
AcDbLine
 10
175.596566263689
 20
621.6629178680118
 30
0.0
 11
175.9965662244803
 21
621.5580732978519
 31
0.0
  0
LINE
  5
23B
330
1F
100
AcDbEntity
  8
0
  6
Continuous
 62
     7
370
    25
100
AcDbLine
 10
175.9965662244803
 20
621.5580732978519
 30
0.0
 11
176.3965662507553
 21
621.6629178680118
 31
0.0
  0
LINE
  5
23C
330
1F
100
AcDbEntity
  8
0
  6
Continuous
 62
     7
370
    25
100
AcDbLine
 10
176.3965662507553
 20
621.6629178680118
 30
0.0
 11
176.3965662507553
 21
621.8726070083317
 31
0.0
  0
LINE
  5
23D
330
1F
100
AcDbEntity
  8
0
  6
Continuous
 62
     7
370
    25
100
AcDbLine
 10
176.3965662507553
 20
621.8726070083317
 30
0.0
 11
176.0537370905376
 21
621.9624684609112
 31
0.0
  0
ARC
  5
23E
330
1F
100
AcDbEntity
  8
0
  6
Continuous
 62
     7
370
    25
100
AcDbCircle
 10
176.5044017983234
 20
607.4563049353316
 30
0.0
 40
14.51316226429305
100
AcDbArc
 50
91.77944245913298
 51
92.30226948709507
  0
LINE
  5
23F
330
1F
100
AcDbEntity
  8
0
  6
Continuous
 62
     7
370
    25
100
AcDbLine
 10
175.9213881782352
 20
621.9577522433933
 30
0.0
 11
175.596566263689
 21
621.8726070083317
 31
0.0
  0
LINE
  5
240
330
1F
100
AcDbEntity
  8
0
  6
Continuous
 62
     7
370
    25
100
AcDbLine
 10
179.0965662553071
 20
621.479439870232
 30
0.0
 11
179.0965662553071
 21
621.2697507299122
 31
0.0
  0
LINE
  5
241
330
1F
100
AcDbEntity
  8
0
  6
Continuous
 62
     7
370
    25
100
AcDbLine
 10
179.0965662553071
 20
621.2697507299122
 30
0.0
 11
179.4965662743061
 21
621.1649061597523
 31
0.0
  0
LINE
  5
242
330
1F
100
AcDbEntity
  8
0
  6
Continuous
 62
     7
370
    25
100
AcDbLine
 10
179.4965662743061
 20
621.1649061597523
 30
0.0
 11
179.8965662933051
 21
621.2697507299122
 31
0.0
  0
LINE
  5
243
330
1F
100
AcDbEntity
  8
0
  6
Continuous
 62
     7
370
    25
100
AcDbLine
 10
179.8965662933051
 20
621.2697507299122
 30
0.0
 11
179.8965662933051
 21
621.479439870232
 31
0.0
  0
LINE
  5
244
330
1F
100
AcDbEntity
  8
0
  6
Continuous
 62
     7
370
    25
100
AcDbLine
 10
179.8965662933051
 20
621.479439870232
 30
0.0
 11
179.4965662743061
 21
621.5842844403919
 31
0.0
  0
LINE
  5
245
330
1F
100
AcDbEntity
  8
0
  6
Continuous
 62
     7
370
    25
100
AcDbLine
 10
179.4965662743061
 20
621.5842844403919
 30
0.0
 11
179.0965662553071
 21
621.479439870232
 31
0.0
  0
LINE
  5
246
330
1F
100
AcDbEntity
  8
0
  6
Continuous
 62
     7
370
    25
100
AcDbLine
 10
178.0965662078097
 20
621.479439870232
 30
0.0
 11
178.0965662078097
 21
621.2697507299122
 31
0.0
  0
LINE
  5
247
330
1F
100
AcDbEntity
  8
0
  6
Continuous
 62
     7
370
    25
100
AcDbLine
 10
178.0965662078097
 20
621.2697507299122
 30
0.0
 11
178.496566343224
 21
621.1649061597523
 31
0.0
  0
LINE
  5
248
330
1F
100
AcDbEntity
  8
0
  6
Continuous
 62
     7
370
    25
100
AcDbLine
 10
178.496566343224
 20
621.1649061597523
 30
0.0
 11
178.896566362223
 21
621.2697507299122
 31
0.0
  0
LINE
  5
249
330
1F
100
AcDbEntity
  8
0
  6
Continuous
 62
     7
370
    25
100
AcDbLine
 10
178.896566362223
 20
621.2697507299122
 30
0.0
 11
178.896566362223
 21
621.479439870232
 31
0.0
  0
LINE
  5
24A
330
1F
100
AcDbEntity
  8
0
  6
Continuous
 62
     7
370
    25
100
AcDbLine
 10
178.896566362223
 20
621.479439870232
 30
0.0
 11
178.496566343224
 21
621.5842844403919
 31
0.0
  0
LINE
  5
24B
330
1F
100
AcDbEntity
  8
0
  6
Continuous
 62
     7
370
    25
100
AcDbLine
 10
178.496566343224
 20
621.5842844403919
 30
0.0
 11
178.0965662078097
 21
621.479439870232
 31
0.0
  0
LINE
  5
24C
330
1F
100
AcDbEntity
  8
0
  6
Continuous
 62
     7
370
    25
100
AcDbLine
 10
177.0965662767275
 20
621.479439870232
 30
0.0
 11
177.0965662767275
 21
621.2697507299122
 31
0.0
  0
LINE
  5
24D
330
1F
100
AcDbEntity
  8
0
  6
Continuous
 62
     7
370
    25
100
AcDbLine
 10
177.0965662767275
 20
621.2697507299122
 30
0.0
 11
177.4965662957265
 21
621.1649061597523
 31
0.0
  0
LINE
  5
24E
330
1F
100
AcDbEntity
  8
0
  6
Continuous
 62
     7
370
    25
100
AcDbLine
 10
177.4965662957265
 20
621.1649061597523
 30
0.0
 11
177.8965661983102
 21
621.2697507299122
 31
0.0
  0
LINE
  5
24F
330
1F
100
AcDbEntity
  8
0
  6
Continuous
 62
     7
370
    25
100
AcDbLine
 10
177.8965661983102
 20
621.2697507299122
 30
0.0
 11
177.8965661983102
 21
621.479439870232
 31
0.0
  0
LINE
  5
250
330
1F
100
AcDbEntity
  8
0
  6
Continuous
 62
     7
370
    25
100
AcDbLine
 10
177.8965661983102
 20
621.479439870232
 30
0.0
 11
177.4965662957265
 21
621.5842844403919
 31
0.0
  0
LINE
  5
251
330
1F
100
AcDbEntity
  8
0
  6
Continuous
 62
     7
370
    25
100
AcDbLine
 10
177.4965662957265
 20
621.5842844403919
 30
0.0
 11
177.0965662767275
 21
621.479439870232
 31
0.0
  0
LINE
  5
252
330
1F
100
AcDbEntity
  8
0
  6
Continuous
 62
     7
370
    25
100
AcDbLine
 10
176.0965662583339
 20
621.2697507299122
 30
0.0
 11
176.4965662482278
 21
621.1649061597523
 31
0.0
  0
LINE
  5
253
330
1F
100
AcDbEntity
  8
0
  6
Continuous
 62
     7
370
    25
100
AcDbLine
 10
176.4965662482278
 20
621.1649061597523
 30
0.0
 11
176.8965662381242
 21
621.2697507299122
 31
0.0
  0
LINE
  5
254
330
1F
100
AcDbEntity
  8
0
  6
Continuous
 62
     7
370
    25
100
AcDbLine
 10
176.8965662381242
 20
621.2697507299122
 30
0.0
 11
176.8965662381242
 21
621.479439870232
 31
0.0
  0
LINE
  5
255
330
1F
100
AcDbEntity
  8
0
  6
Continuous
 62
     7
370
    25
100
AcDbLine
 10
176.8965662381242
 20
621.479439870232
 30
0.0
 11
176.4965662482291
 21
621.5842844403919
 31
0.0
  0
LINE
  5
256
330
1F
100
AcDbEntity
  8
0
  6
Continuous
 62
     7
370
    25
100
AcDbLine
 10
176.4965662482291
 20
621.5842844403919
 30
0.0
 11
176.0965662583339
 21
621.479439870232
 31
0.0
  0
LINE
  5
257
330
1F
100
AcDbEntity
  8
0
  6
Continuous
 62
     7
370
    25
100
AcDbLine
 10
176.0965662583339
 20
621.479439870232
 30
0.0
 11
176.0965662583339
 21
621.2697507299122
 31
0.0
  0
LINE
  5
258
330
1F
100
AcDbEntity
  8
0
  6
Continuous
 62
     7
370
    25
100
AcDbLine
 10
179.5965663372635
 20
620.8775149143871
 30
0.0
 11
179.9965663562625
 21
620.7726703442272
 31
0.0
  0
LINE
  5
259
330
1F
100
AcDbEntity
  8
0
  6
Continuous
 62
     7
370
    25
100
AcDbLine
 10
179.9965663562625
 20
620.7726703442272
 30
0.0
 11
180.3965661424308
 21
620.8775149143871
 31
0.0
  0
LINE
  5
25A
330
1F
100
AcDbEntity
  8
0
  6
Continuous
 62
     7
370
    25
100
AcDbLine
 10
180.3965661424308
 20
620.8775149143871
 30
0.0
 11
180.3965661424308
 21
621.087204054707
 31
0.0
  0
LINE
  5
25B
330
1F
100
AcDbEntity
  8
0
  6
Continuous
 62
     7
370
    25
100
AcDbLine
 10
180.3965661424308
 20
621.087204054707
 30
0.0
 11
179.9965663562625
 21
621.1920486248669
 31
0.0
  0
LINE
  5
25C
330
1F
100
AcDbEntity
  8
0
  6
Continuous
 62
     7
370
    25
100
AcDbLine
 10
179.9965663562625
 20
621.1920486248669
 30
0.0
 11
179.5965663372635
 21
621.087204054707
 31
0.0
  0
LINE
  5
25D
330
1F
100
AcDbEntity
  8
0
  6
Continuous
 62
     7
370
    25
100
AcDbLine
 10
179.5965663372635
 20
621.087204054707
 30
0.0
 11
179.5965663372635
 21
620.8775149143871
 31
0.0
  0
LINE
  5
25E
330
1F
100
AcDbEntity
  8
0
  6
Continuous
 62
     7
370
    25
100
AcDbLine
 10
179.0965662553071
 20
619.9086339629825
 30
0.0
 11
179.0965662553071
 21
619.6989448226627
 31
0.0
  0
LINE
  5
25F
330
1F
100
AcDbEntity
  8
0
  6
Continuous
 62
     7
370
    25
100
AcDbLine
 10
179.0965662553071
 20
619.6989448226627
 30
0.0
 11
179.4965662743061
 21
619.5941002525028
 31
0.0
  0
LINE
  5
260
330
1F
100
AcDbEntity
  8
0
  6
Continuous
 62
     7
370
    25
100
AcDbLine
 10
179.4965662743061
 20
619.5941002525028
 30
0.0
 11
179.8965662933051
 21
619.6989448226627
 31
0.0
  0
LINE
  5
261
330
1F
100
AcDbEntity
  8
0
  6
Continuous
 62
     7
370
    25
100
AcDbLine
 10
179.8965662933051
 20
619.6989448226627
 30
0.0
 11
179.8965662933051
 21
619.9086339629825
 31
0.0
  0
LINE
  5
262
330
1F
100
AcDbEntity
  8
0
  6
Continuous
 62
     7
370
    25
100
AcDbLine
 10
179.8965662933051
 20
619.9086339629825
 30
0.0
 11
179.4965662743061
 21
620.0134785331425
 31
0.0
  0
LINE
  5
263
330
1F
100
AcDbEntity
  8
0
  6
Continuous
 62
     7
370
    25
100
AcDbLine
 10
179.4965662743061
 20
620.0134785331425
 30
0.0
 11
179.0965662553071
 21
619.9086339629825
 31
0.0
  0
LINE
  5
264
330
1F
100
AcDbEntity
  8
0
  6
Continuous
 62
     7
370
    25
100
AcDbLine
 10
180.0965661863893
 20
619.9086339629825
 30
0.0
 11
180.0965661863893
 21
619.6989448226627
 31
0.0
  0
LINE
  5
265
330
1F
100
AcDbEntity
  8
0
  6
Continuous
 62
     7
370
    25
100
AcDbLine
 10
180.0965661863893
 20
619.6989448226627
 30
0.0
 11
180.4965664382189
 21
619.5941002525028
 31
0.0
  0
LINE
  5
266
330
1F
100
AcDbEntity
  8
0
  6
Continuous
 62
     7
370
    25
100
AcDbLine
 10
180.4965664382189
 20
619.5941002525028
 30
0.0
 11
180.8965662243872
 21
619.6989448226627
 31
0.0
  0
LINE
  5
267
330
1F
100
AcDbEntity
  8
0
  6
Continuous
 62
     7
370
    25
100
AcDbLine
 10
180.8965662243872
 20
619.6989448226627
 30
0.0
 11
180.8965662243872
 21
619.9086339629825
 31
0.0
  0
LINE
  5
268
330
1F
100
AcDbEntity
  8
0
  6
Continuous
 62
     7
370
    25
100
AcDbLine
 10
180.8965662243872
 20
619.9086339629825
 30
0.0
 11
180.4965664382189
 21
620.0134785331425
 31
0.0
  0
LINE
  5
269
330
1F
100
AcDbEntity
  8
0
  6
Continuous
 62
     7
370
    25
100
AcDbLine
 10
180.4965664382189
 20
620.0134785331425
 30
0.0
 11
180.0965661863893
 21
619.9086339629825
 31
0.0
  0
LINE
  5
26A
330
1F
100
AcDbEntity
  8
0
  6
Continuous
 62
     7
370
    25
100
AcDbLine
 10
181.096566350302
 20
619.9086339629825
 30
0.0
 11
181.096566350302
 21
619.6989448226627
 31
0.0
  0
LINE
  5
26B
330
1F
100
AcDbEntity
  8
0
  6
Continuous
 62
     7
370
    25
100
AcDbLine
 10
181.096566350302
 20
619.6989448226627
 30
0.0
 11
181.4965661364704
 21
619.5941002525028
 31
0.0
  0
LINE
  5
26C
330
1F
100
AcDbEntity
  8
0
  6
Continuous
 62
     7
370
    25
100
AcDbLine
 10
181.4965661364704
 20
619.5941002525028
 30
0.0
 11
181.8965663883
 21
619.6989448226627
 31
0.0
  0
LINE
  5
26D
330
1F
100
AcDbEntity
  8
0
  6
Continuous
 62
     7
370
    25
100
AcDbLine
 10
181.8965663883
 20
619.6989448226627
 30
0.0
 11
181.8965663883
 21
619.9086339629825
 31
0.0
  0
LINE
  5
26E
330
1F
100
AcDbEntity
  8
0
  6
Continuous
 62
     7
370
    25
100
AcDbLine
 10
181.8965663883
 20
619.9086339629825
 30
0.0
 11
181.4965661364704
 21
620.0134785331425
 31
0.0
  0
LINE
  5
26F
330
1F
100
AcDbEntity
  8
0
  6
Continuous
 62
     7
370
    25
100
AcDbLine
 10
181.4965661364704
 20
620.0134785331425
 30
0.0
 11
181.096566350302
 21
619.9086339629825
 31
0.0
  0
LINE
  5
270
330
1F
100
AcDbEntity
  8
0
  6
Continuous
 62
     7
370
    25
100
AcDbLine
 10
180.5965662683456
 20
621.087204054707
 30
0.0
 11
180.5965662683456
 21
620.8775149143871
 31
0.0
  0
LINE
  5
271
330
1F
100
AcDbEntity
  8
0
  6
Continuous
 62
     7
370
    25
100
AcDbLine
 10
180.5965662683456
 20
620.8775149143871
 30
0.0
 11
180.996566054514
 21
620.7726703442272
 31
0.0
  0
LINE
  5
272
330
1F
100
AcDbEntity
  8
0
  6
Continuous
 62
     7
370
    25
100
AcDbLine
 10
180.996566054514
 20
620.7726703442272
 30
0.0
 11
181.3965663063436
 21
620.8775149143871
 31
0.0
  0
LINE
  5
273
330
1F
100
AcDbEntity
  8
0
  6
Continuous
 62
     7
370
    25
100
AcDbLine
 10
181.3965663063436
 20
620.8775149143871
 30
0.0
 11
181.3965663063436
 21
620.9573031819996
 31
0.0
  0
ARC
  5
274
330
1F
100
AcDbEntity
  8
0
  6
Continuous
 62
     7
370
    25
100
AcDbCircle
 10
178.4118434317618
 20
615.2070600154121
 30
0.0
 40
6.478724188676154
100
AcDbArc
 50
62.56796622860173
 51
67.10269636000963
  0
LINE
  5
275
330
1F
100
AcDbEntity
  8
0
  6
Continuous
 62
     7
370
    25
100
AcDbLine
 10
180.9325893159121
 20
621.1752848185238
 30
0.0
 11
180.5965662683456
 21
621.087204054707
 31
0.0
  0
LINE
  5
276
330
1F
100
AcDbEntity
  8
0
  6
Continuous
 62
     7
370
    25
100
AcDbLine
 10
178.5965661733507
 20
621.6629178680118
 30
0.0
 11
178.9965661923497
 21
621.5580732978519
 31
0.0
  0
LINE
  5
277
330
1F
100
AcDbEntity
  8
0
  6
Continuous
 62
     7
370
    25
100
AcDbLine
 10
178.9965661923497
 20
621.5580732978519
 30
0.0
 11
179.3892464815735
 21
621.6610030687984
 31
0.0
  0
ARC
  5
278
330
1F
100
AcDbEntity
  8
0
  6
Continuous
 62
     7
370
    25
100
AcDbCircle
 10
176.7893997987776
 20
610.0969297474729
 30
0.0
 40
11.85272097684904
100
AcDbArc
 50
77.32937790872549
 51
81.2299940979743
  0
LINE
  5
279
330
1F
100
AcDbEntity
  8
0
  6
Continuous
 62
     7
370
    25
100
AcDbLine
 10
178.5965661733507
 20
621.8110726631817
 30
0.0
 11
178.5965661733507
 21
621.6629178680118
 31
0.0
  0
LINE
  5
27A
330
1F
100
AcDbEntity
  8
0
  6
Continuous
 62
     7
370
    25
100
AcDbLine
 10
178.0965662078097
 20
619.9086339629825
 30
0.0
 11
178.0965662078097
 21
619.6989448226627
 31
0.0
  0
LINE
  5
27B
330
1F
100
AcDbEntity
  8
0
  6
Continuous
 62
     7
370
    25
100
AcDbLine
 10
178.0965662078097
 20
619.6989448226627
 30
0.0
 11
178.496566343224
 21
619.5941002525028
 31
0.0
  0
LINE
  5
27C
330
1F
100
AcDbEntity
  8
0
  6
Continuous
 62
     7
370
    25
100
AcDbLine
 10
178.496566343224
 20
619.5941002525028
 30
0.0
 11
178.896566362223
 21
619.6989448226627
 31
0.0
  0
LINE
  5
27D
330
1F
100
AcDbEntity
  8
0
  6
Continuous
 62
     7
370
    25
100
AcDbLine
 10
178.896566362223
 20
619.6989448226627
 30
0.0
 11
178.896566362223
 21
619.9086339629825
 31
0.0
  0
LINE
  5
27E
330
1F
100
AcDbEntity
  8
0
  6
Continuous
 62
     7
370
    25
100
AcDbLine
 10
178.896566362223
 20
619.9086339629825
 30
0.0
 11
178.496566343224
 21
620.0134785331425
 31
0.0
  0
LINE
  5
27F
330
1F
100
AcDbEntity
  8
0
  6
Continuous
 62
     7
370
    25
100
AcDbLine
 10
178.496566343224
 20
620.0134785331425
 30
0.0
 11
178.0965662078097
 21
619.9086339629825
 31
0.0
  0
LINE
  5
280
330
1F
100
AcDbEntity
  8
0
  6
Continuous
 62
     7
370
    25
100
AcDbLine
 10
177.0965662767275
 20
619.9086339629825
 30
0.0
 11
177.0965662767275
 21
619.6989448226627
 31
0.0
  0
LINE
  5
281
330
1F
100
AcDbEntity
  8
0
  6
Continuous
 62
     7
370
    25
100
AcDbLine
 10
177.0965662767275
 20
619.6989448226627
 30
0.0
 11
177.4965662957265
 21
619.5941002525028
 31
0.0
  0
LINE
  5
282
330
1F
100
AcDbEntity
  8
0
  6
Continuous
 62
     7
370
    25
100
AcDbLine
 10
177.4965662957265
 20
619.5941002525028
 30
0.0
 11
177.8965661983102
 21
619.6989448226627
 31
0.0
  0
LINE
  5
283
330
1F
100
AcDbEntity
  8
0
  6
Continuous
 62
     7
370
    25
100
AcDbLine
 10
177.8965661983102
 20
619.6989448226627
 30
0.0
 11
177.8965661983102
 21
619.9086339629825
 31
0.0
  0
LINE
  5
284
330
1F
100
AcDbEntity
  8
0
  6
Continuous
 62
     7
370
    25
100
AcDbLine
 10
177.8965661983102
 20
619.9086339629825
 30
0.0
 11
177.4965662957265
 21
620.0134785331425
 31
0.0
  0
LINE
  5
285
330
1F
100
AcDbEntity
  8
0
  6
Continuous
 62
     7
370
    25
100
AcDbLine
 10
177.4965662957265
 20
620.0134785331425
 30
0.0
 11
177.0965662767275
 21
619.9086339629825
 31
0.0
  0
LINE
  5
286
330
1F
100
AcDbEntity
  8
0
  6
Continuous
 62
     7
370
    25
100
AcDbLine
 10
176.0965662583339
 20
619.6989448226627
 30
0.0
 11
176.4965662482279
 21
619.5941002525028
 31
0.0
  0
LINE
  5
287
330
1F
100
AcDbEntity
  8
0
  6
Continuous
 62
     7
370
    25
100
AcDbLine
 10
176.4965662482279
 20
619.5941002525028
 30
0.0
 11
176.8965662381242
 21
619.6989448226627
 31
0.0
  0
LINE
  5
288
330
1F
100
AcDbEntity
  8
0
  6
Continuous
 62
     7
370
    25
100
AcDbLine
 10
176.8965662381242
 20
619.6989448226627
 30
0.0
 11
176.8965662381242
 21
619.9086339629825
 31
0.0
  0
LINE
  5
289
330
1F
100
AcDbEntity
  8
0
  6
Continuous
 62
     7
370
    25
100
AcDbLine
 10
176.8965662381242
 20
619.9086339629825
 30
0.0
 11
176.4965662482291
 21
620.0134785331425
 31
0.0
  0
LINE
  5
28A
330
1F
100
AcDbEntity
  8
0
  6
Continuous
 62
     7
370
    25
100
AcDbLine
 10
176.4965662482291
 20
620.0134785331425
 30
0.0
 11
176.0965662583339
 21
619.9086339629825
 31
0.0
  0
LINE
  5
28B
330
1F
100
AcDbEntity
  8
0
  6
Continuous
 62
     7
370
    25
100
AcDbLine
 10
176.0965662583339
 20
619.9086339629825
 30
0.0
 11
176.0965662583339
 21
619.6989448226627
 31
0.0
  0
LINE
  5
28C
330
1F
100
AcDbEntity
  8
0
  6
Continuous
 62
     7
370
    25
100
AcDbLine
 10
177.5965662422686
 20
620.0921119607624
 30
0.0
 11
177.9965662612676
 21
619.9872673906025
 31
0.0
  0
LINE
  5
28D
330
1F
100
AcDbEntity
  8
0
  6
Continuous
 62
     7
370
    25
100
AcDbLine
 10
177.9965662612676
 20
619.9872673906025
 30
0.0
 11
178.3965662802666
 21
620.0921119607624
 31
0.0
  0
LINE
  5
28E
330
1F
100
AcDbEntity
  8
0
  6
Continuous
 62
     7
370
    25
100
AcDbLine
 10
178.3965662802666
 20
620.0921119607624
 30
0.0
 11
178.3965662802666
 21
620.3018011010822
 31
0.0
  0
LINE
  5
28F
330
1F
100
AcDbEntity
  8
0
  6
Continuous
 62
     7
370
    25
100
AcDbLine
 10
178.3965662802666
 20
620.3018011010822
 30
0.0
 11
177.9965662612676
 21
620.4066456712421
 31
0.0
  0
LINE
  5
290
330
1F
100
AcDbEntity
  8
0
  6
Continuous
 62
     7
370
    25
100
AcDbLine
 10
177.9965662612676
 20
620.4066456712421
 30
0.0
 11
177.5965662422686
 21
620.3018011010822
 31
0.0
  0
LINE
  5
291
330
1F
100
AcDbEntity
  8
0
  6
Continuous
 62
     7
370
    25
100
AcDbLine
 10
177.5965662422686
 20
620.3018011010822
 30
0.0
 11
177.5965662422686
 21
620.0921119607624
 31
0.0
  0
LINE
  5
292
330
1F
100
AcDbEntity
  8
0
  6
Continuous
 62
     7
370
    25
100
AcDbLine
 10
178.5965661733507
 20
620.0921119607624
 30
0.0
 11
178.9965661923497
 21
619.9872673906025
 31
0.0
  0
LINE
  5
293
330
1F
100
AcDbEntity
  8
0
  6
Continuous
 62
     7
370
    25
100
AcDbLine
 10
178.9965661923497
 20
619.9872673906025
 30
0.0
 11
179.3965662113487
 21
620.0921119607624
 31
0.0
  0
LINE
  5
294
330
1F
100
AcDbEntity
  8
0
  6
Continuous
 62
     7
370
    25
100
AcDbLine
 10
179.3965662113487
 20
620.0921119607624
 30
0.0
 11
179.3965662113487
 21
620.3018011010822
 31
0.0
  0
LINE
  5
295
330
1F
100
AcDbEntity
  8
0
  6
Continuous
 62
     7
370
    25
100
AcDbLine
 10
179.3965662113487
 20
620.3018011010822
 30
0.0
 11
178.9965661923497
 21
620.4066456712421
 31
0.0
  0
LINE
  5
296
330
1F
100
AcDbEntity
  8
0
  6
Continuous
 62
     7
370
    25
100
AcDbLine
 10
178.9965661923497
 20
620.4066456712421
 30
0.0
 11
178.5965661733507
 21
620.3018011010822
 31
0.0
  0
LINE
  5
297
330
1F
100
AcDbEntity
  8
0
  6
Continuous
 62
     7
370
    25
100
AcDbLine
 10
178.5965661733507
 20
620.3018011010822
 30
0.0
 11
178.5965661733507
 21
620.0921119607624
 31
0.0
  0
LINE
  5
298
330
1F
100
AcDbEntity
  8
0
  6
Continuous
 62
     7
370
    25
100
AcDbLine
 10
176.5965662457029
 20
621.8726070083317
 30
0.0
 11
176.5965662457029
 21
621.6629178680118
 31
0.0
  0
LINE
  5
299
330
1F
100
AcDbEntity
  8
0
  6
Continuous
 62
     7
370
    25
100
AcDbLine
 10
176.5965662457029
 20
621.6629178680118
 30
0.0
 11
176.9965662719778
 21
621.5580732978519
 31
0.0
  0
LINE
  5
29A
330
1F
100
AcDbEntity
  8
0
  6
Continuous
 62
     7
370
    25
100
AcDbLine
 10
176.9965662719778
 20
621.5580732978519
 30
0.0
 11
177.3965662327691
 21
621.6629178680118
 31
0.0
  0
LINE
  5
29B
330
1F
100
AcDbEntity
  8
0
  6
Continuous
 62
     7
370
    25
100
AcDbLine
 10
177.3965662327691
 20
621.6629178680118
 30
0.0
 11
177.3965662327691
 21
621.8726070083317
 31
0.0
  0
LINE
  5
29C
330
1F
100
AcDbEntity
  8
0
  6
Continuous
 62
     7
370
    25
100
AcDbLine
 10
177.3965662327691
 20
621.8726070083317
 30
0.0
 11
177.0717443182229
 21
621.9577522433933
 31
0.0
  0
ARC
  5
29D
330
1F
100
AcDbEntity
  8
0
  6
Continuous
 62
     7
370
    25
100
AcDbCircle
 10
176.4887306981348
 20
607.4563049353316
 30
0.0
 40
14.51316226429305
100
AcDbArc
 50
87.69773051290481
 51
88.22055754086692
  0
LINE
  5
29E
330
1F
100
AcDbEntity
  8
0
  6
Continuous
 62
     7
370
    25
100
AcDbLine
 10
176.9393954059205
 20
621.9624684609112
 30
0.0
 11
176.5965662457029
 21
621.8726070083317
 31
0.0
  0
LINE
  5
29F
330
1F
100
AcDbEntity
  8
0
  6
Continuous
 62
     7
370
    25
100
AcDbLine
 10
180.5965662683456
 20
620.0921119607624
 30
0.0
 11
180.996566054514
 21
619.9872673906025
 31
0.0
  0
LINE
  5
2A0
330
1F
100
AcDbEntity
  8
0
  6
Continuous
 62
     7
370
    25
100
AcDbLine
 10
180.996566054514
 20
619.9872673906025
 30
0.0
 11
181.3965663063436
 21
620.0921119607624
 31
0.0
  0
LINE
  5
2A1
330
1F
100
AcDbEntity
  8
0
  6
Continuous
 62
     7
370
    25
100
AcDbLine
 10
181.3965663063436
 20
620.0921119607624
 30
0.0
 11
181.3965663063436
 21
620.3018011010822
 31
0.0
  0
LINE
  5
2A2
330
1F
100
AcDbEntity
  8
0
  6
Continuous
 62
     7
370
    25
100
AcDbLine
 10
181.3965663063436
 20
620.3018011010822
 30
0.0
 11
180.996566054514
 21
620.4066456712421
 31
0.0
  0
LINE
  5
2A3
330
1F
100
AcDbEntity
  8
0
  6
Continuous
 62
     7
370
    25
100
AcDbLine
 10
180.996566054514
 20
620.4066456712421
 30
0.0
 11
180.5965662683456
 21
620.3018011010822
 31
0.0
  0
LINE
  5
2A4
330
1F
100
AcDbEntity
  8
0
  6
Continuous
 62
     7
370
    25
100
AcDbLine
 10
180.5965662683456
 20
620.3018011010822
 30
0.0
 11
180.5965662683456
 21
620.0921119607624
 31
0.0
  0
LINE
  5
2A5
330
1F
100
AcDbEntity
  8
0
  6
Continuous
 62
     7
370
    25
100
AcDbLine
 10
179.5965663372635
 20
620.0921119607624
 30
0.0
 11
179.9965663562625
 21
619.9872673906025
 31
0.0
  0
LINE
  5
2A6
330
1F
100
AcDbEntity
  8
0
  6
Continuous
 62
     7
370
    25
100
AcDbLine
 10
179.9965663562625
 20
619.9872673906025
 30
0.0
 11
180.3965661424308
 21
620.0921119607624
 31
0.0
  0
LINE
  5
2A7
330
1F
100
AcDbEntity
  8
0
  6
Continuous
 62
     7
370
    25
100
AcDbLine
 10
180.3965661424308
 20
620.0921119607624
 30
0.0
 11
180.3965661424308
 21
620.3018011010822
 31
0.0
  0
LINE
  5
2A8
330
1F
100
AcDbEntity
  8
0
  6
Continuous
 62
     7
370
    25
100
AcDbLine
 10
180.3965661424308
 20
620.3018011010822
 30
0.0
 11
179.9965663562625
 21
620.4066456712421
 31
0.0
  0
LINE
  5
2A9
330
1F
100
AcDbEntity
  8
0
  6
Continuous
 62
     7
370
    25
100
AcDbLine
 10
179.9965663562625
 20
620.4066456712421
 30
0.0
 11
179.5965663372635
 21
620.3018011010822
 31
0.0
  0
LINE
  5
2AA
330
1F
100
AcDbEntity
  8
0
  6
Continuous
 62
     7
370
    25
100
AcDbLine
 10
179.5965663372635
 20
620.3018011010822
 30
0.0
 11
179.5965663372635
 21
620.0921119607624
 31
0.0
  0
LINE
  5
2AB
330
1F
100
AcDbEntity
  8
0
  6
Continuous
 62
     7
370
    25
100
AcDbLine
 10
176.5965662457029
 20
620.3018011010822
 30
0.0
 11
176.5965662457029
 21
620.0921119607624
 31
0.0
  0
LINE
  5
2AC
330
1F
100
AcDbEntity
  8
0
  6
Continuous
 62
     7
370
    25
100
AcDbLine
 10
176.5965662457029
 20
620.0921119607624
 30
0.0
 11
176.9965662719778
 21
619.9872673906025
 31
0.0
  0
LINE
  5
2AD
330
1F
100
AcDbEntity
  8
0
  6
Continuous
 62
     7
370
    25
100
AcDbLine
 10
176.9965662719778
 20
619.9872673906025
 30
0.0
 11
177.3965662327691
 21
620.0921119607624
 31
0.0
  0
LINE
  5
2AE
330
1F
100
AcDbEntity
  8
0
  6
Continuous
 62
     7
370
    25
100
AcDbLine
 10
177.3965662327691
 20
620.0921119607624
 30
0.0
 11
177.3965662327691
 21
620.3018011010822
 31
0.0
  0
LINE
  5
2AF
330
1F
100
AcDbEntity
  8
0
  6
Continuous
 62
     7
370
    25
100
AcDbLine
 10
177.3965662327691
 20
620.3018011010822
 30
0.0
 11
176.9965662719778
 21
620.4066456712421
 31
0.0
  0
LINE
  5
2B0
330
1F
100
AcDbEntity
  8
0
  6
Continuous
 62
     7
370
    25
100
AcDbLine
 10
176.9965662719778
 20
620.4066456712421
 30
0.0
 11
176.5965662457029
 21
620.3018011010822
 31
0.0
  0
LINE
  5
2B1
330
1F
100
AcDbEntity
  8
0
  6
Continuous
 62
     7
370
    25
100
AcDbLine
 10
177.5965662422686
 20
621.8726070083317
 30
0.0
 11
177.5965662422686
 21
621.6629178680118
 31
0.0
  0
LINE
  5
2B2
330
1F
100
AcDbEntity
  8
0
  6
Continuous
 62
     7
370
    25
100
AcDbLine
 10
177.5965662422686
 20
621.6629178680118
 30
0.0
 11
177.9965662612676
 21
621.5580732978519
 31
0.0
  0
LINE
  5
2B3
330
1F
100
AcDbEntity
  8
0
  6
Continuous
 62
     7
370
    25
100
AcDbLine
 10
177.9965662612676
 20
621.5580732978519
 30
0.0
 11
178.3965662802666
 21
621.6629178680118
 31
0.0
  0
LINE
  5
2B4
330
1F
100
AcDbEntity
  8
0
  6
Continuous
 62
     7
370
    25
100
AcDbLine
 10
178.3965662802666
 20
621.6629178680118
 30
0.0
 11
178.3965662802666
 21
621.8404428518947
 31
0.0
  0
ARC
  5
2B5
330
1F
100
AcDbEntity
  8
0
  6
Continuous
 62
     7
370
    25
100
AcDbCircle
 10
176.5693520248784
 20
608.6472012091946
 30
0.0
 40
13.31917178272627
100
AcDbArc
 50
82.11491029140025
 51
84.90079588252956
  0
LINE
  5
2B6
330
1F
100
AcDbEntity
  8
0
  6
Continuous
 62
     7
370
    25
100
AcDbLine
 10
177.7531661541297
 20
621.9136597074207
 30
0.0
 11
177.5965662422686
 21
621.8726070083317
 31
0.0
  0
LINE
  5
2B7
330
1F
100
AcDbEntity
  8
0
  6
Continuous
 62
     7
370
    25
100
AcDbLine
 10
180.0965661863893
 20
621.2697507299122
 30
0.0
 11
180.4965664382189
 21
621.1649061597523
 31
0.0
  0
LINE
  5
2B8
330
1F
100
AcDbEntity
  8
0
  6
Continuous
 62
     7
370
    25
100
AcDbLine
 10
180.4965664382189
 20
621.1649061597523
 30
0.0
 11
180.7780917483478
 21
621.2386967099842
 31
0.0
  0
ARC
  5
2B9
330
1F
100
AcDbEntity
  8
0
  6
Continuous
 62
     7
370
    25
100
AcDbCircle
 10
177.6523857831432
 20
613.3383295484515
 30
0.0
 40
8.496224989249058
100
AcDbArc
 50
68.41423737571914
 51
73.28098390222273
  0
LINE
  5
2BA
330
1F
100
AcDbEntity
  8
0
  6
Continuous
 62
     7
370
    25
100
AcDbLine
 10
180.0965661863893
 20
621.4753942049679
 30
0.0
 11
180.0965661863893
 21
621.2697507299122
 31
0.0
  0
LINE
  5
2BB
330
1F
100
AcDbEntity
  8
0
  6
Continuous
 62
     7
370
    25
100
AcDbLine
 10
173.9965663041084
 20
621.5580732978519
 30
0.0
 11
174.3965663231074
 21
621.6629178680118
 31
0.0
  0
LINE
  5
2BC
330
1F
100
AcDbEntity
  8
0
  6
Continuous
 62
     7
370
    25
100
AcDbLine
 10
174.3965663231074
 20
621.6629178680118
 30
0.0
 11
174.3965663231074
 21
621.8110726631817
 31
0.0
  0
ARC
  5
2BD
330
1F
100
AcDbEntity
  8
0
  6
Continuous
 62
     7
370
    25
100
AcDbCircle
 10
176.2037326976805
 20
610.096929747473
 30
0.0
 40
11.85272097684893
100
AcDbArc
 50
98.77000590202564
 51
102.6706220912745
  0
LINE
  5
2BE
330
1F
100
AcDbEntity
  8
0
  6
Continuous
 62
     7
370
    25
100
AcDbLine
 10
173.6038860148846
 20
621.6610030687984
 30
0.0
 11
173.9965663041084
 21
621.5580732978519
 31
0.0
  0
ARC
  5
2BF
330
1F
100
AcDbEntity
  8
0
  6
Continuous
 62
     7
370
    25
100
AcDbCircle
 10
173.9895223097039
 20
616.9089398246406
 30
0.0
 40
6.518092308578498
100
AcDbArc
 50
120.6879489699425
 51
133.5066549915119
  0
LINE
  5
2C0
330
1F
100
AcDbEntity
  8
0
  6
Continuous
 62
     7
370
    25
100
AcDbLine
 10
169.5022145035773
 20
621.6364757574734
 30
0.0
 11
168.6544138687759
 21
621.9556288279232
 31
0.0
  0
ARC
  5
2C1
330
1F
100
AcDbEntity
  8
0
  6
Continuous
 62
     7
370
    25
100
AcDbCircle
 10
173.6853540568432
 20
616.6554256139725
 30
0.0
 40
7.307702325976571
100
AcDbArc
 50
120.6875060712126
 51
133.5070245863466
  0
LINE
  5
2C2
330
1F
100
AcDbEntity
  8
0
  6
Continuous
 62
     7
370
    25
100
AcDbLine
 10
169.9558286677211
 20
622.9397834695515
 30
0.0
 11
170.6629353324979
 21
622.5142361081776
 31
0.0
  0
LINE
  5
2C3
330
1F
100
AcDbEntity
  8
0
  6
Continuous
 62
     7
370
    25
100
AcDbLine
 10
169.9558286677211
 20
623.1793792403873
 30
0.0
 11
169.9558286677211
 21
622.9397834695515
 31
0.0
  0
LINE
  5
2C4
330
1F
100
AcDbEntity
  8
0
  6
Continuous
 62
     7
370
    25
100
AcDbLine
 10
168.6544138687759
 20
622.1952171481785
 30
0.0
 11
168.6544138687759
 21
621.9556288279232
 31
0.0
  0
LINE
  5
2C5
330
1F
100
AcDbEntity
  8
0
  6
Continuous
 62
     7
370
    25
100
AcDbLine
 10
170.6629353324979
 20
622.5142361081776
 30
0.0
 11
170.6629353324979
 21
622.7538318790134
 31
0.0
  0
LINE
  5
2C6
330
1F
100
AcDbEntity
  8
0
  6
Continuous
 62
     7
370
    25
100
AcDbLine
 10
175.9965662244803
 20
621.9605834640201
 30
0.0
 11
175.9965662244803
 21
621.5580732978519
 31
0.0
  0
LINE
  5
2C7
330
1F
100
AcDbEntity
  8
0
  6
Continuous
 62
     7
370
    25
100
AcDbLine
 10
173.9965663041084
 20
621.7423336065945
 30
0.0
 11
173.9965663041084
 21
621.5580732978519
 31
0.0
  0
LINE
  5
2C8
330
1F
100
AcDbEntity
  8
0
  6
Continuous
 62
     7
370
    25
100
AcDbLine
 10
174.9965662351906
 20
621.8896762884792
 30
0.0
 11
174.9965662351906
 21
621.5580732978519
 31
0.0
  0
LINE
  5
2C9
330
1F
100
AcDbEntity
  8
0
  6
Continuous
 62
     7
370
    25
100
AcDbLine
 10
176.9965662719778
 20
621.9605834640201
 30
0.0
 11
176.9965662719778
 21
621.5580732978519
 31
0.0
  0
LINE
  5
2CA
330
1F
100
AcDbEntity
  8
0
  6
Continuous
 62
     7
370
    25
100
AcDbLine
 10
177.9965662612676
 20
621.8896762884792
 30
0.0
 11
177.9965662612676
 21
621.5580732978519
 31
0.0
  0
LINE
  5
2CB
330
1F
100
AcDbEntity
  8
0
  6
Continuous
 62
     7
370
    25
100
AcDbLine
 10
178.9965661923497
 20
621.7423336065945
 30
0.0
 11
178.9965661923497
 21
621.5580732978519
 31
0.0
  0
LINE
  5
2CC
330
1F
100
AcDbEntity
  8
0
  6
Continuous
 62
     7
370
    25
100
AcDbLine
 10
176.4965662482278
 20
621.5842844403919
 30
0.0
 11
176.4965662482278
 21
621.1649061597523
 31
0.0
  0
LINE
  5
2CD
330
1F
100
AcDbEntity
  8
0
  6
Continuous
 62
     7
370
    25
100
AcDbLine
 10
172.4965660582393
 20
621.3443980969128
 30
0.0
 11
172.4965660582393
 21
621.1649061597523
 31
0.0
  0
LINE
  5
2CE
330
1F
100
AcDbEntity
  8
0
  6
Continuous
 62
     7
370
    25
100
AcDbLine
 10
173.496566222152
 20
621.5842844403919
 30
0.0
 11
173.496566222152
 21
621.1649061597523
 31
0.0
  0
LINE
  5
2CF
330
1F
100
AcDbEntity
  8
0
  6
Continuous
 62
     7
370
    25
100
AcDbLine
 10
175.4965662007316
 20
621.5842844403919
 30
0.0
 11
175.4965662007316
 21
621.1649061597523
 31
0.0
  0
LINE
  5
2D0
330
1F
100
AcDbEntity
  8
0
  6
Continuous
 62
     7
370
    25
100
AcDbLine
 10
174.4965661532342
 20
621.5842844403919
 30
0.0
 11
174.4965661532342
 21
621.1649061597523
 31
0.0
  0
LINE
  5
2D1
330
1F
100
AcDbEntity
  8
0
  6
Continuous
 62
     7
370
    25
100
AcDbLine
 10
178.496566343224
 20
621.5842844403919
 30
0.0
 11
178.496566343224
 21
621.1649061597523
 31
0.0
  0
LINE
  5
2D2
330
1F
100
AcDbEntity
  8
0
  6
Continuous
 62
     7
370
    25
100
AcDbLine
 10
177.4965662957265
 20
621.5842844403919
 30
0.0
 11
177.4965662957265
 21
621.1649061597523
 31
0.0
  0
LINE
  5
2D3
330
1F
100
AcDbEntity
  8
0
  6
Continuous
 62
     7
370
    25
100
AcDbLine
 10
179.4965662743061
 20
621.5842844403919
 30
0.0
 11
179.4965662743061
 21
621.1649061597523
 31
0.0
  0
LINE
  5
2D4
330
1F
100
AcDbEntity
  8
0
  6
Continuous
 62
     7
370
    25
100
AcDbLine
 10
180.4965664382189
 20
621.3443980969128
 30
0.0
 11
180.4965664382189
 21
621.1649061597523
 31
0.0
  0
LINE
  5
2D5
330
1F
100
AcDbEntity
  8
0
  6
Continuous
 62
     7
370
    25
100
AcDbLine
 10
171.9965664419442
 20
621.1477921761211
 30
0.0
 11
171.9965664419442
 21
620.7726703442272
 31
0.0
  0
LINE
  5
2D6
330
1F
100
AcDbEntity
  8
0
  6
Continuous
 62
     7
370
    25
100
AcDbLine
 10
175.9965662244803
 20
621.1920486248669
 30
0.0
 11
175.9965662244803
 21
620.7726703442272
 31
0.0
  0
LINE
  5
2D7
330
1F
100
AcDbEntity
  8
0
  6
Continuous
 62
     7
370
    25
100
AcDbLine
 10
173.9965663041084
 20
621.1920486248669
 30
0.0
 11
173.9965663041084
 21
620.7726703442272
 31
0.0
  0
LINE
  5
2D8
330
1F
100
AcDbEntity
  8
0
  6
Continuous
 62
     7
370
    25
100
AcDbLine
 10
174.9965662351906
 20
621.1920486248669
 30
0.0
 11
174.9965662351906
 21
620.7726703442272
 31
0.0
  0
LINE
  5
2D9
330
1F
100
AcDbEntity
  8
0
  6
Continuous
 62
     7
370
    25
100
AcDbLine
 10
172.9965661401957
 20
621.1920486248669
 30
0.0
 11
172.9965661401957
 21
620.7726703442272
 31
0.0
  0
LINE
  5
2DA
330
1F
100
AcDbEntity
  8
0
  6
Continuous
 62
     7
370
    25
100
AcDbLine
 10
178.9965661923497
 20
621.1920486248669
 30
0.0
 11
178.9965661923497
 21
620.7726703442272
 31
0.0
  0
LINE
  5
2DB
330
1F
100
AcDbEntity
  8
0
  6
Continuous
 62
     7
370
    25
100
AcDbLine
 10
180.996566054514
 20
621.1477921761211
 30
0.0
 11
180.996566054514
 21
620.7726703442272
 31
0.0
  0
LINE
  5
2DC
330
1F
100
AcDbEntity
  8
0
  6
Continuous
 62
     7
370
    25
100
AcDbLine
 10
176.9965662719778
 20
621.1920486248669
 30
0.0
 11
176.9965662719778
 21
620.7726703442272
 31
0.0
  0
LINE
  5
2DD
330
1F
100
AcDbEntity
  8
0
  6
Continuous
 62
     7
370
    25
100
AcDbLine
 10
179.9965663562625
 20
621.1920486248669
 30
0.0
 11
179.9965663562625
 21
620.7726703442272
 31
0.0
  0
LINE
  5
2DE
330
1F
100
AcDbEntity
  8
0
  6
Continuous
 62
     7
370
    25
100
AcDbLine
 10
177.9965662612676
 20
621.1920486248669
 30
0.0
 11
177.9965662612676
 21
620.7726703442272
 31
0.0
  0
LINE
  5
2DF
330
1F
100
AcDbEntity
  8
0
  6
Continuous
 62
     7
370
    25
100
AcDbLine
 10
176.4965662482278
 20
620.7988814867672
 30
0.0
 11
176.4965662482278
 21
620.3795032061275
 31
0.0
  0
LINE
  5
2E0
330
1F
100
AcDbEntity
  8
0
  6
Continuous
 62
     7
370
    25
100
AcDbLine
 10
174.4965661532342
 20
620.7988814867672
 30
0.0
 11
174.4965661532342
 21
620.3795032061275
 31
0.0
  0
LINE
  5
2E1
330
1F
100
AcDbEntity
  8
0
  6
Continuous
 62
     7
370
    25
100
AcDbLine
 10
173.496566222152
 20
620.7988814867672
 30
0.0
 11
173.496566222152
 21
620.3795032061275
 31
0.0
  0
LINE
  5
2E2
330
1F
100
AcDbEntity
  8
0
  6
Continuous
 62
     7
370
    25
100
AcDbLine
 10
172.4965660582393
 20
620.7988814867672
 30
0.0
 11
172.4965660582393
 21
620.3795032061275
 31
0.0
  0
LINE
  5
2E3
330
1F
100
AcDbEntity
  8
0
  6
Continuous
 62
     7
370
    25
100
AcDbLine
 10
175.4965662007316
 20
620.7988814867672
 30
0.0
 11
175.4965662007316
 21
620.3795032061275
 31
0.0
  0
LINE
  5
2E4
330
1F
100
AcDbEntity
  8
0
  6
Continuous
 62
     7
370
    25
100
AcDbLine
 10
171.4965663599878
 20
620.7988814867672
 30
0.0
 11
171.4965663599878
 21
620.3795032061275
 31
0.0
  0
LINE
  5
2E5
330
1F
100
AcDbEntity
  8
0
  6
Continuous
 62
     7
370
    25
100
AcDbLine
 10
178.496566343224
 20
620.7988814867672
 30
0.0
 11
178.496566343224
 21
620.3795032061275
 31
0.0
  0
LINE
  5
2E6
330
1F
100
AcDbEntity
  8
0
  6
Continuous
 62
     7
370
    25
100
AcDbLine
 10
177.4965662957265
 20
620.7988814867672
 30
0.0
 11
177.4965662957265
 21
620.3795032061275
 31
0.0
  0
LINE
  5
2E7
330
1F
100
AcDbEntity
  8
0
  6
Continuous
 62
     7
370
    25
100
AcDbLine
 10
180.4965664382189
 20
620.7988814867672
 30
0.0
 11
180.4965664382189
 21
620.3795032061275
 31
0.0
  0
LINE
  5
2E8
330
1F
100
AcDbEntity
  8
0
  6
Continuous
 62
     7
370
    25
100
AcDbLine
 10
181.4965661364704
 20
620.7988814867672
 30
0.0
 11
181.4965661364704
 21
620.3795032061275
 31
0.0
  0
LINE
  5
2E9
330
1F
100
AcDbEntity
  8
0
  6
Continuous
 62
     7
370
    25
100
AcDbLine
 10
179.4965662743061
 20
620.7988814867672
 30
0.0
 11
179.4965662743061
 21
620.3795032061275
 31
0.0
  0
LINE
  5
2EA
330
1F
100
AcDbEntity
  8
0
  6
Continuous
 62
     7
370
    25
100
AcDbLine
 10
171.1044469597846
 20
620.3783707178768
 30
0.0
 11
170.9965662780314
 21
620.3403057016071
 31
0.0
  0
LINE
  5
2EB
330
1F
100
AcDbEntity
  8
0
  6
Continuous
 62
     7
370
    25
100
AcDbLine
 10
170.9965662780314
 20
620.3403057016071
 30
0.0
 11
170.8886855962782
 21
620.3783707178768
 31
0.0
  0
LINE
  5
2EC
330
1F
100
AcDbEntity
  8
0
  6
Continuous
 62
     7
370
    25
100
AcDbLine
 10
176.104446818922
 20
620.3783707178768
 30
0.0
 11
175.9965662244803
 21
620.3403057016071
 31
0.0
  0
LINE
  5
2ED
330
1F
100
AcDbEntity
  8
0
  6
Continuous
 62
     7
370
    25
100
AcDbLine
 10
175.9965662244803
 20
620.3403057016071
 30
0.0
 11
175.8886856591425
 21
620.3783707178768
 31
0.0
  0
LINE
  5
2EE
330
1F
100
AcDbEntity
  8
0
  6
Continuous
 62
     7
370
    25
100
AcDbLine
 10
174.9965662351906
 20
620.3403057016071
 30
0.0
 11
174.8886856698527
 21
620.3783707178768
 31
0.0
  0
LINE
  5
2EF
330
1F
100
AcDbEntity
  8
0
  6
Continuous
 62
     7
370
    25
100
AcDbLine
 10
175.1044468005284
 20
620.3783707178768
 30
0.0
 11
174.9965662351906
 21
620.3403057016071
 31
0.0
  0
LINE
  5
2F0
330
1F
100
AcDbEntity
  8
0
  6
Continuous
 62
     7
370
    25
100
AcDbLine
 10
173.9965663041084
 20
620.3403057016071
 30
0.0
 11
173.8886856223553
 21
620.3783707178768
 31
0.0
  0
LINE
  5
2F1
330
1F
100
AcDbEntity
  8
0
  6
Continuous
 62
     7
370
    25
100
AcDbLine
 10
174.1044467530309
 20
620.3783707178768
 30
0.0
 11
173.9965663041084
 21
620.3403057016071
 31
0.0
  0
LINE
  5
2F2
330
1F
100
AcDbEntity
  8
0
  6
Continuous
 62
     7
370
    25
100
AcDbLine
 10
171.9965664419442
 20
620.3403057016071
 30
0.0
 11
171.888685760191
 21
620.3783707178768
 31
0.0
  0
LINE
  5
2F3
330
1F
100
AcDbEntity
  8
0
  6
Continuous
 62
     7
370
    25
100
AcDbLine
 10
172.104446658036
 20
620.3783707178768
 30
0.0
 11
171.9965664419442
 21
620.3403057016071
 31
0.0
  0
LINE
  5
2F4
330
1F
100
AcDbEntity
  8
0
  6
Continuous
 62
     7
370
    25
100
AcDbLine
 10
172.9965661401957
 20
620.3403057016071
 30
0.0
 11
172.8886856912731
 21
620.3783707178768
 31
0.0
  0
LINE
  5
2F5
330
1F
100
AcDbEntity
  8
0
  6
Continuous
 62
     7
370
    25
100
AcDbLine
 10
173.1044468219488
 20
620.3783707178768
 30
0.0
 11
172.9965661401957
 21
620.3403057016071
 31
0.0
  0
LINE
  5
2F6
330
1F
100
AcDbEntity
  8
0
  6
Continuous
 62
     7
370
    25
100
AcDbLine
 10
181.1044467362671
 20
620.3783707178768
 30
0.0
 11
180.996566054514
 21
620.3403057016071
 31
0.0
  0
LINE
  5
2F7
330
1F
100
AcDbEntity
  8
0
  6
Continuous
 62
     7
370
    25
100
AcDbLine
 10
180.996566054514
 20
620.3403057016071
 30
0.0
 11
180.8886858384221
 21
620.3783707178768
 31
0.0
  0
LINE
  5
2F8
330
1F
100
AcDbEntity
  8
0
  6
Continuous
 62
     7
370
    25
100
AcDbLine
 10
180.104446805185
 20
620.3783707178768
 30
0.0
 11
179.9965663562625
 21
620.3403057016071
 31
0.0
  0
LINE
  5
2F9
330
1F
100
AcDbEntity
  8
0
  6
Continuous
 62
     7
370
    25
100
AcDbLine
 10
179.9965663562625
 20
620.3403057016071
 30
0.0
 11
179.8886856745093
 21
620.3783707178768
 31
0.0
  0
LINE
  5
2FA
330
1F
100
AcDbEntity
  8
0
  6
Continuous
 62
     7
370
    25
100
AcDbLine
 10
179.1044468741029
 20
620.3783707178768
 30
0.0
 11
178.9965661923497
 21
620.3403057016071
 31
0.0
  0
LINE
  5
2FB
330
1F
100
AcDbEntity
  8
0
  6
Continuous
 62
     7
370
    25
100
AcDbLine
 10
178.9965661923497
 20
620.3403057016071
 30
0.0
 11
178.8886857434272
 21
620.3783707178768
 31
0.0
  0
LINE
  5
2FC
330
1F
100
AcDbEntity
  8
0
  6
Continuous
 62
     7
370
    25
100
AcDbLine
 10
182.1044469001799
 20
620.3783707178768
 30
0.0
 11
181.9965662184268
 21
620.3403057016071
 31
0.0
  0
LINE
  5
2FD
330
1F
100
AcDbEntity
  8
0
  6
Continuous
 62
     7
370
    25
100
AcDbLine
 10
181.9965662184268
 20
620.3403057016071
 30
0.0
 11
181.8886855366736
 21
620.3783707178768
 31
0.0
  0
LINE
  5
2FE
330
1F
100
AcDbEntity
  8
0
  6
Continuous
 62
     7
370
    25
100
AcDbLine
 10
178.1044468266054
 20
620.3783707178768
 30
0.0
 11
177.9965662612676
 21
620.3403057016071
 31
0.0
  0
LINE
  5
2FF
330
1F
100
AcDbEntity
  8
0
  6
Continuous
 62
     7
370
    25
100
AcDbLine
 10
177.9965662612676
 20
620.3403057016071
 30
0.0
 11
177.8886856959298
 21
620.3783707178768
 31
0.0
  0
LINE
  5
300
330
1F
100
AcDbEntity
  8
0
  6
Continuous
 62
     7
370
    25
100
AcDbLine
 10
177.1044468373156
 20
620.3783707178768
 30
0.0
 11
176.9965662719778
 21
620.3403057016071
 31
0.0
  0
LINE
  5
301
330
1F
100
AcDbEntity
  8
0
  6
Continuous
 62
     7
370
    25
100
AcDbLine
 10
176.9965662719778
 20
620.3403057016071
 30
0.0
 11
176.8886856775361
 21
620.3783707178768
 31
0.0
  0
LINE
  5
302
330
1F
100
AcDbEntity
  8
0
  6
Continuous
 62
     7
370
    25
100
AcDbLine
 10
173.9965663041084
 20
620.3403057016071
 30
0.0
 11
173.9965663041084
 21
619.9872673906025
 31
0.0
  0
LINE
  5
303
330
1F
100
AcDbEntity
  8
0
  6
Continuous
 62
     7
370
    25
100
AcDbLine
 10
174.9965662351906
 20
620.3403057016071
 30
0.0
 11
174.9965662351906
 21
619.9872673906025
 31
0.0
  0
LINE
  5
304
330
1F
100
AcDbEntity
  8
0
  6
Continuous
 62
     7
370
    25
100
AcDbLine
 10
171.9965664419442
 20
620.3403057016071
 30
0.0
 11
171.9965664419442
 21
619.9872673906025
 31
0.0
  0
LINE
  5
305
330
1F
100
AcDbEntity
  8
0
  6
Continuous
 62
     7
370
    25
100
AcDbLine
 10
172.9965661401957
 20
620.3403057016071
 30
0.0
 11
172.9965661401957
 21
619.9872673906025
 31
0.0
  0
LINE
  5
306
330
1F
100
AcDbEntity
  8
0
  6
Continuous
 62
     7
370
    25
100
AcDbLine
 10
175.9965662244803
 20
620.3403057016071
 30
0.0
 11
175.9965662244803
 21
619.9872673906025
 31
0.0
  0
LINE
  5
307
330
1F
100
AcDbEntity
  8
0
  6
Continuous
 62
     7
370
    25
100
AcDbLine
 10
170.9965662780314
 20
620.3403057016071
 30
0.0
 11
170.9965662780314
 21
619.9872673906025
 31
0.0
  0
LINE
  5
308
330
1F
100
AcDbEntity
  8
0
  6
Continuous
 62
     7
370
    25
100
AcDbLine
 10
180.996566054514
 20
620.3403057016071
 30
0.0
 11
180.996566054514
 21
619.9872673906025
 31
0.0
  0
LINE
  5
309
330
1F
100
AcDbEntity
  8
0
  6
Continuous
 62
     7
370
    25
100
AcDbLine
 10
179.9965663562625
 20
620.3403057016071
 30
0.0
 11
179.9965663562625
 21
619.9872673906025
 31
0.0
  0
LINE
  5
30A
330
1F
100
AcDbEntity
  8
0
  6
Continuous
 62
     7
370
    25
100
AcDbLine
 10
181.9965662184268
 20
620.3403057016071
 30
0.0
 11
181.9965662184268
 21
619.9872673906025
 31
0.0
  0
LINE
  5
30B
330
1F
100
AcDbEntity
  8
0
  6
Continuous
 62
     7
370
    25
100
AcDbLine
 10
178.9965661923497
 20
620.3403057016071
 30
0.0
 11
178.9965661923497
 21
619.9872673906025
 31
0.0
  0
LINE
  5
30C
330
1F
100
AcDbEntity
  8
0
  6
Continuous
 62
     7
370
    25
100
AcDbLine
 10
176.9965662719778
 20
620.3403057016071
 30
0.0
 11
176.9965662719778
 21
619.9872673906025
 31
0.0
  0
LINE
  5
30D
330
1F
100
AcDbEntity
  8
0
  6
Continuous
 62
     7
370
    25
100
AcDbLine
 10
177.9965662612676
 20
620.3403057016071
 30
0.0
 11
177.9965662612676
 21
619.9872673906025
 31
0.0
  0
LINE
  5
30E
330
1F
100
AcDbEntity
  8
0
  6
Continuous
 62
     7
370
    25
100
AcDbLine
 10
184.5359857875019
 20
620.1180846847233
 30
0.0
 11
185.5104611936121
 21
620.2531860626873
 31
0.0
  0
LINE
  5
30F
330
1F
100
AcDbEntity
  8
0
  6
Continuous
 62
     7
370
    25
100
AcDbLine
 10
184.5359857875019
 20
620.3576730049786
 30
0.0
 11
184.5359857875019
 21
620.1180846847233
 31
0.0
  0
LINE
  5
310
330
1F
100
AcDbEntity
  8
0
  6
Continuous
 62
     7
370
    25
100
AcDbLine
 10
185.5104611936121
 20
620.4927818335232
 30
0.0
 11
185.5104611936121
 21
620.2531860626873
 31
0.0
  0
ARC
  5
311
330
1F
100
AcDbEntity
  8
0
  6
Continuous
 62
     7
370
    25
100
AcDbCircle
 10
181.6387145795235
 20
618.9935134757233
 30
0.0
 40
3.10786757386673
100
AcDbArc
 50
0.1835629651388238
 51
21.21364334284918
  0
ARC
  5
312
330
1F
100
AcDbEntity
  8
0
  6
Continuous
 62
     7
370
    25
100
AcDbCircle
 10
182.262037322848
 20
618.9923095490986
 30
0.0
 40
3.484546918419877
100
AcDbArc
 50
0.1835158010394636
 51
21.21373466019159
  0
LINE
  5
313
330
1F
100
AcDbEntity
  8
0
  6
Continuous
 62
     7
370
    25
100
AcDbLine
 10
185.7465663674384
 20
619.0034703768429
 30
0.0
 11
184.7465662035256
 21
619.0034703768429
 31
0.0
  0
LINE
  5
314
330
1F
100
AcDbEntity
  8
0
  6
Continuous
 62
     7
370
    25
100
AcDbLine
 10
185.7465663674384
 20
619.2430586970981
 30
0.0
 11
185.7465663674384
 21
619.0034703768429
 31
0.0
  0
LINE
  5
315
330
1F
100
AcDbEntity
  8
0
  6
Continuous
 62
     7
370
    25
100
AcDbLine
 10
170.8257077011376
 20
619.9272082604107
 30
0.0
 11
170.496566196075
 21
619.811083511227
 31
0.0
  0
LINE
  5
316
330
1F
100
AcDbEntity
  8
0
  6
Continuous
 62
     7
370
    25
100
AcDbLine
 10
170.496566196075
 20
619.811083511227
 30
0.0
 11
170.2839266258388
 21
619.8861034072575
 31
0.0
  0
LINE
  5
317
330
1F
100
AcDbEntity
  8
0
  6
Continuous
 62
     7
370
    25
100
AcDbLine
 10
173.8257077272146
 20
619.9272082604107
 30
0.0
 11
173.496566222152
 21
619.811083511227
 31
0.0
  0
LINE
  5
318
330
1F
100
AcDbEntity
  8
0
  6
Continuous
 62
     7
370
    25
100
AcDbLine
 10
173.496566222152
 20
619.811083511227
 30
0.0
 11
173.1674247170895
 21
619.9272082604107
 31
0.0
  0
LINE
  5
319
330
1F
100
AcDbEntity
  8
0
  6
Continuous
 62
     7
370
    25
100
AcDbLine
 10
172.8257077961325
 20
619.9272082604107
 30
0.0
 11
172.4965660582393
 21
619.811083511227
 31
0.0
  0
LINE
  5
31A
330
1F
100
AcDbEntity
  8
0
  6
Continuous
 62
     7
370
    25
100
AcDbLine
 10
172.4965660582393
 20
619.811083511227
 30
0.0
 11
172.1674245531767
 21
619.9272082604107
 31
0.0
  0
LINE
  5
31B
330
1F
100
AcDbEntity
  8
0
  6
Continuous
 62
     7
370
    25
100
AcDbLine
 10
174.8257077747121
 20
619.9272082604107
 30
0.0
 11
174.4965661532342
 21
619.811083511227
 31
0.0
  0
LINE
  5
31C
330
1F
100
AcDbEntity
  8
0
  6
Continuous
 62
     7
370
    25
100
AcDbLine
 10
174.4965661532342
 20
619.811083511227
 30
0.0
 11
174.1674246481716
 21
619.9272082604107
 31
0.0
  0
LINE
  5
31D
330
1F
100
AcDbEntity
  8
0
  6
Continuous
 62
     7
370
    25
100
AcDbLine
 10
171.8257078650504
 20
619.9272082604107
 30
0.0
 11
171.4965663599878
 21
619.811083511227
 31
0.0
  0
LINE
  5
31E
330
1F
100
AcDbEntity
  8
0
  6
Continuous
 62
     7
370
    25
100
AcDbLine
 10
171.4965663599878
 20
619.811083511227
 30
0.0
 11
171.1674248549252
 21
619.9272082604107
 31
0.0
  0
LINE
  5
31F
330
1F
100
AcDbEntity
  8
0
  6
Continuous
 62
     7
370
    25
100
AcDbLine
 10
176.8257077823955
 20
619.9272082604107
 30
0.0
 11
176.4965662482279
 21
619.811083511227
 31
0.0
  0
LINE
  5
320
330
1F
100
AcDbEntity
  8
0
  6
Continuous
 62
     7
370
    25
100
AcDbLine
 10
176.4965662482279
 20
619.811083511227
 30
0.0
 11
176.1674247140627
 21
619.9272082604107
 31
0.0
  0
LINE
  5
321
330
1F
100
AcDbEntity
  8
0
  6
Continuous
 62
     7
370
    25
100
AcDbLine
 10
182.7092058706193
 20
619.8861034072575
 30
0.0
 11
182.4965663003831
 21
619.811083511227
 31
0.0
  0
LINE
  5
322
330
1F
100
AcDbEntity
  8
0
  6
Continuous
 62
     7
370
    25
100
AcDbLine
 10
182.4965663003831
 20
619.811083511227
 30
0.0
 11
182.1674247953206
 21
619.9272082604107
 31
0.0
  0
LINE
  5
323
330
1F
100
AcDbEntity
  8
0
  6
Continuous
 62
     7
370
    25
100
AcDbLine
 10
180.8257079432815
 20
619.9272082604107
 30
0.0
 11
180.4965664382189
 21
619.811083511227
 31
0.0
  0
LINE
  5
324
330
1F
100
AcDbEntity
  8
0
  6
Continuous
 62
     7
370
    25
100
AcDbLine
 10
180.4965664382189
 20
619.811083511227
 30
0.0
 11
180.1674247003257
 21
619.9272082604107
 31
0.0
  0
LINE
  5
325
330
1F
100
AcDbEntity
  8
0
  6
Continuous
 62
     7
370
    25
100
AcDbLine
 10
181.8257076415329
 20
619.9272082604107
 30
0.0
 11
181.4965661364704
 21
619.811083511227
 31
0.0
  0
LINE
  5
326
330
1F
100
AcDbEntity
  8
0
  6
Continuous
 62
     7
370
    25
100
AcDbLine
 10
181.4965661364704
 20
619.811083511227
 30
0.0
 11
181.1674246314078
 21
619.9272082604107
 31
0.0
  0
LINE
  5
327
330
1F
100
AcDbEntity
  8
0
  6
Continuous
 62
     7
370
    25
100
AcDbLine
 10
179.8257077793687
 20
619.9272082604107
 30
0.0
 11
179.4965662743061
 21
619.811083511227
 31
0.0
  0
LINE
  5
328
330
1F
100
AcDbEntity
  8
0
  6
Continuous
 62
     7
370
    25
100
AcDbLine
 10
179.4965662743061
 20
619.811083511227
 30
0.0
 11
179.1674247692435
 21
619.9272082604107
 31
0.0
  0
LINE
  5
329
330
1F
100
AcDbEntity
  8
0
  6
Continuous
 62
     7
370
    25
100
AcDbLine
 10
177.8257078007891
 20
619.9272082604107
 30
0.0
 11
177.4965662957265
 21
619.811083511227
 31
0.0
  0
LINE
  5
32A
330
1F
100
AcDbEntity
  8
0
  6
Continuous
 62
     7
370
    25
100
AcDbLine
 10
177.4965662957265
 20
619.811083511227
 30
0.0
 11
177.1674247324563
 21
619.9272082604107
 31
0.0
  0
LINE
  5
32B
330
1F
100
AcDbEntity
  8
0
  6
Continuous
 62
     7
370
    25
100
AcDbLine
 10
178.8257078482866
 20
619.9272082604107
 30
0.0
 11
178.496566343224
 21
619.811083511227
 31
0.0
  0
LINE
  5
32C
330
1F
100
AcDbEntity
  8
0
  6
Continuous
 62
     7
370
    25
100
AcDbLine
 10
178.496566343224
 20
619.811083511227
 30
0.0
 11
178.1674247217461
 21
619.9272082604107
 31
0.0
  0
LINE
  5
32D
330
1F
100
AcDbEntity
  8
0
  6
Continuous
 62
     7
370
    25
100
AcDbLine
 10
176.4965662482279
 20
619.811083511227
 30
0.0
 11
176.4965662482279
 21
619.5941002525028
 31
0.0
  0
LINE
  5
32E
330
1F
100
AcDbEntity
  8
0
  6
Continuous
 62
     7
370
    25
100
AcDbLine
 10
182.4965663003831
 20
619.811083511227
 30
0.0
 11
182.4965663003831
 21
619.5941002525028
 31
0.0
  0
LINE
  5
32F
330
1F
100
AcDbEntity
  8
0
  6
Continuous
 62
     7
370
    25
100
AcDbLine
 10
171.4965663599878
 20
619.811083511227
 30
0.0
 11
171.4965663599878
 21
619.5941002525028
 31
0.0
  0
LINE
  5
330
330
1F
100
AcDbEntity
  8
0
  6
Continuous
 62
     7
370
    25
100
AcDbLine
 10
173.496566222152
 20
619.811083511227
 30
0.0
 11
173.496566222152
 21
619.5941002525028
 31
0.0
  0
LINE
  5
331
330
1F
100
AcDbEntity
  8
0
  6
Continuous
 62
     7
370
    25
100
AcDbLine
 10
170.496566196075
 20
619.811083511227
 30
0.0
 11
170.496566196075
 21
619.5941002525028
 31
0.0
  0
LINE
  5
332
330
1F
100
AcDbEntity
  8
0
  6
Continuous
 62
     7
370
    25
100
AcDbLine
 10
172.4965660582393
 20
619.811083511227
 30
0.0
 11
172.4965660582393
 21
619.5941002525028
 31
0.0
  0
LINE
  5
333
330
1F
100
AcDbEntity
  8
0
  6
Continuous
 62
     7
370
    25
100
AcDbLine
 10
174.4965661532342
 20
619.811083511227
 30
0.0
 11
174.4965661532342
 21
619.5941002525028
 31
0.0
  0
LINE
  5
334
330
1F
100
AcDbEntity
  8
0
  6
Continuous
 62
     7
370
    25
100
AcDbLine
 10
177.4965662957265
 20
619.811083511227
 30
0.0
 11
177.4965662957265
 21
619.5941002525028
 31
0.0
  0
LINE
  5
335
330
1F
100
AcDbEntity
  8
0
  6
Continuous
 62
     7
370
    25
100
AcDbLine
 10
178.496566343224
 20
619.811083511227
 30
0.0
 11
178.496566343224
 21
619.5941002525028
 31
0.0
  0
LINE
  5
336
330
1F
100
AcDbEntity
  8
0
  6
Continuous
 62
     7
370
    25
100
AcDbLine
 10
179.4965662743061
 20
619.811083511227
 30
0.0
 11
179.4965662743061
 21
619.5941002525028
 31
0.0
  0
LINE
  5
337
330
1F
100
AcDbEntity
  8
0
  6
Continuous
 62
     7
370
    25
100
AcDbLine
 10
180.4965664382189
 20
619.811083511227
 30
0.0
 11
180.4965664382189
 21
619.5941002525028
 31
0.0
  0
LINE
  5
338
330
1F
100
AcDbEntity
  8
0
  6
Continuous
 62
     7
370
    25
100
AcDbLine
 10
181.4965661364704
 20
619.811083511227
 30
0.0
 11
181.4965661364704
 21
619.5941002525028
 31
0.0
  0
LINE
  5
339
330
1F
100
AcDbEntity
  8
0
  6
Continuous
 62
     7
370
    25
100
AcDbLine
 10
180.3965661424308
 20
619.4242344654735
 30
0.0
 11
179.9965663562625
 21
619.2831055678066
 31
0.0
  0
LINE
  5
33A
330
1F
100
AcDbEntity
  8
0
  6
Continuous
 62
     7
370
    25
100
AcDbLine
 10
179.9965663562625
 20
619.2831055678066
 30
0.0
 11
179.5965663372635
 21
619.4242344654735
 31
0.0
  0
LINE
  5
33B
330
1F
100
AcDbEntity
  8
0
  6
Continuous
 62
     7
370
    25
100
AcDbLine
 10
177.3965662327691
 20
619.4242344654735
 30
0.0
 11
176.9965662719778
 21
619.2831055678066
 31
0.0
  0
LINE
  5
33C
330
1F
100
AcDbEntity
  8
0
  6
Continuous
 62
     7
370
    25
100
AcDbLine
 10
176.9965662719778
 20
619.2831055678066
 30
0.0
 11
176.5965662457029
 21
619.4242344654735
 31
0.0
  0
LINE
  5
33D
330
1F
100
AcDbEntity
  8
0
  6
Continuous
 62
     7
370
    25
100
AcDbLine
 10
171.9965664419442
 20
619.2831055678066
 30
0.0
 11
171.5965661901145
 21
619.4242344654735
 31
0.0
  0
LINE
  5
33E
330
1F
100
AcDbEntity
  8
0
  6
Continuous
 62
     7
370
    25
100
AcDbLine
 10
172.3965662281125
 20
619.4242344654735
 30
0.0
 11
171.9965664419442
 21
619.2831055678066
 31
0.0
  0
LINE
  5
33F
330
1F
100
AcDbEntity
  8
0
  6
Continuous
 62
     7
370
    25
100
AcDbLine
 10
179.3965662113487
 20
619.4242344654735
 30
0.0
 11
178.9965661923497
 21
619.2831055678066
 31
0.0
  0
LINE
  5
340
330
1F
100
AcDbEntity
  8
0
  6
Continuous
 62
     7
370
    25
100
AcDbLine
 10
178.9965661923497
 20
619.2831055678066
 30
0.0
 11
178.5965661733507
 21
619.4242344654735
 31
0.0
  0
LINE
  5
341
330
1F
100
AcDbEntity
  8
0
  6
Continuous
 62
     7
370
    25
100
AcDbLine
 10
182.3965664702564
 20
619.4242344654735
 30
0.0
 11
181.9965662184268
 21
619.2831055678066
 31
0.0
  0
LINE
  5
342
330
1F
100
AcDbEntity
  8
0
  6
Continuous
 62
     7
370
    25
100
AcDbLine
 10
181.9965662184268
 20
619.2831055678066
 30
0.0
 11
181.5965664322584
 21
619.4242344654735
 31
0.0
  0
LINE
  5
343
330
1F
100
AcDbEntity
  8
0
  6
Continuous
 62
     7
370
    25
100
AcDbLine
 10
178.3965662802666
 20
619.4242344654735
 30
0.0
 11
177.9965662612676
 21
619.2831055678066
 31
0.0
  0
LINE
  5
344
330
1F
100
AcDbEntity
  8
0
  6
Continuous
 62
     7
370
    25
100
AcDbLine
 10
177.9965662612676
 20
619.2831055678066
 30
0.0
 11
177.5965662422686
 21
619.4242344654735
 31
0.0
  0
LINE
  5
345
330
1F
100
AcDbEntity
  8
0
  6
Continuous
 62
     7
370
    25
100
AcDbLine
 10
172.9965661401957
 20
619.2831055678066
 30
0.0
 11
172.5965663540273
 21
619.4242344654735
 31
0.0
  0
LINE
  5
346
330
1F
100
AcDbEntity
  8
0
  6
Continuous
 62
     7
370
    25
100
AcDbLine
 10
173.3965661591946
 20
619.4242344654735
 30
0.0
 11
172.9965661401957
 21
619.2831055678066
 31
0.0
  0
LINE
  5
347
330
1F
100
AcDbEntity
  8
0
  6
Continuous
 62
     7
370
    25
100
AcDbLine
 10
170.9965662780314
 20
619.2831055678066
 30
0.0
 11
170.5965660262018
 21
619.4242344654735
 31
0.0
  0
LINE
  5
348
330
1F
100
AcDbEntity
  8
0
  6
Continuous
 62
     7
370
    25
100
AcDbLine
 10
171.3965660641997
 20
619.4242344654735
 30
0.0
 11
170.9965662780314
 21
619.2831055678066
 31
0.0
  0
LINE
  5
349
330
1F
100
AcDbEntity
  8
0
  6
Continuous
 62
     7
370
    25
100
AcDbLine
 10
181.3965663063436
 20
619.4242344654735
 30
0.0
 11
180.996566054514
 21
619.2831055678066
 31
0.0
  0
LINE
  5
34A
330
1F
100
AcDbEntity
  8
0
  6
Continuous
 62
     7
370
    25
100
AcDbLine
 10
180.996566054514
 20
619.2831055678066
 30
0.0
 11
180.5965662683456
 21
619.4242344654735
 31
0.0
  0
LINE
  5
34B
330
1F
100
AcDbEntity
  8
0
  6
Continuous
 62
     7
370
    25
100
AcDbLine
 10
173.9965663041084
 20
619.2831055678066
 30
0.0
 11
173.5965662851094
 21
619.4242344654735
 31
0.0
  0
LINE
  5
34C
330
1F
100
AcDbEntity
  8
0
  6
Continuous
 62
     7
370
    25
100
AcDbLine
 10
174.3965663231074
 20
619.4242344654735
 30
0.0
 11
173.9965663041084
 21
619.2831055678066
 31
0.0
  0
LINE
  5
34D
330
1F
100
AcDbEntity
  8
0
  6
Continuous
 62
     7
370
    25
100
AcDbLine
 10
174.9965662351906
 20
619.2831055678066
 30
0.0
 11
174.5965662161916
 21
619.4242344654735
 31
0.0
  0
LINE
  5
34E
330
1F
100
AcDbEntity
  8
0
  6
Continuous
 62
     7
370
    25
100
AcDbLine
 10
175.3965662541895
 20
619.4242344654735
 30
0.0
 11
174.9965662351906
 21
619.2831055678066
 31
0.0
  0
LINE
  5
34F
330
1F
100
AcDbEntity
  8
0
  6
Continuous
 62
     7
370
    25
100
AcDbLine
 10
176.3965662507553
 20
619.4242344654735
 30
0.0
 11
175.9965662244803
 21
619.2831055678066
 31
0.0
  0
LINE
  5
350
330
1F
100
AcDbEntity
  8
0
  6
Continuous
 62
     7
370
    25
100
AcDbLine
 10
175.9965662244803
 20
619.2831055678066
 30
0.0
 11
175.596566263689
 21
619.4242344654735
 31
0.0
  0
LINE
  5
351
330
1F
100
AcDbEntity
  8
0
  6
Continuous
 62
     7
370
    25
100
AcDbLine
 10
182.9683468426674
 20
619.2930669940647
 30
0.0
 11
182.5965661305099
 21
619.4242344654735
 31
0.0
  0
LINE
  5
352
330
1F
100
AcDbEntity
  8
0
  6
Continuous
 62
     7
370
    25
100
AcDbLine
 10
170.3965663659482
 20
619.4242344654735
 30
0.0
 11
170.0247856537908
 21
619.2930669940647
 31
0.0
  0
LINE
  5
353
330
1F
100
AcDbEntity
  8
0
  6
Continuous
 62
     7
370
    25
100
AcDbLine
 10
172.9965661401957
 20
619.2831055678066
 30
0.0
 11
172.9965661401957
 21
619.2018644369778
 31
0.0
  0
LINE
  5
354
330
1F
100
AcDbEntity
  8
0
  6
Continuous
 62
     7
370
    25
100
AcDbLine
 10
175.9965662244803
 20
619.2831055678066
 30
0.0
 11
175.9965662244803
 21
619.2018644369778
 31
0.0
  0
LINE
  5
355
330
1F
100
AcDbEntity
  8
0
  6
Continuous
 62
     7
370
    25
100
AcDbLine
 10
181.9965662184268
 20
619.2831055678066
 30
0.0
 11
181.9965662184268
 21
619.2018644369778
 31
0.0
  0
LINE
  5
356
330
1F
100
AcDbEntity
  8
0
  6
Continuous
 62
     7
370
    25
100
AcDbLine
 10
176.9965662719778
 20
619.2831055678066
 30
0.0
 11
176.9965662719778
 21
619.2018644369778
 31
0.0
  0
LINE
  5
357
330
1F
100
AcDbEntity
  8
0
  6
Continuous
 62
     7
370
    25
100
AcDbLine
 10
180.996566054514
 20
619.2831055678066
 30
0.0
 11
180.996566054514
 21
619.2018644369778
 31
0.0
  0
LINE
  5
358
330
1F
100
AcDbEntity
  8
0
  6
Continuous
 62
     7
370
    25
100
AcDbLine
 10
177.9965662612676
 20
619.2831055678066
 30
0.0
 11
177.9965662612676
 21
619.2018644369778
 31
0.0
  0
LINE
  5
359
330
1F
100
AcDbEntity
  8
0
  6
Continuous
 62
     7
370
    25
100
AcDbLine
 10
171.9965664419442
 20
619.2831055678066
 30
0.0
 11
171.9965664419442
 21
619.2018644369778
 31
0.0
  0
LINE
  5
35A
330
1F
100
AcDbEntity
  8
0
  6
Continuous
 62
     7
370
    25
100
AcDbLine
 10
174.9965662351906
 20
619.2831055678066
 30
0.0
 11
174.9965662351906
 21
619.2018644369778
 31
0.0
  0
LINE
  5
35B
330
1F
100
AcDbEntity
  8
0
  6
Continuous
 62
     7
370
    25
100
AcDbLine
 10
178.9965661923497
 20
619.2831055678066
 30
0.0
 11
178.9965661923497
 21
619.2018644369778
 31
0.0
  0
LINE
  5
35C
330
1F
100
AcDbEntity
  8
0
  6
Continuous
 62
     7
370
    25
100
AcDbLine
 10
170.9965662780314
 20
619.2831055678066
 30
0.0
 11
170.9965662780314
 21
619.2018644369778
 31
0.0
  0
LINE
  5
35D
330
1F
100
AcDbEntity
  8
0
  6
Continuous
 62
     7
370
    25
100
AcDbLine
 10
179.9965663562625
 20
619.2831055678066
 30
0.0
 11
179.9965663562625
 21
619.2018644369778
 31
0.0
  0
LINE
  5
35E
330
1F
100
AcDbEntity
  8
0
  6
Continuous
 62
     7
370
    25
100
AcDbLine
 10
173.9965663041084
 20
619.2831055678066
 30
0.0
 11
173.9965663041084
 21
619.2018644369778
 31
0.0
  0
LINE
  5
35F
330
1F
100
AcDbEntity
  8
0
  6
Continuous
 62
     7
370
    25
100
AcDbLine
 10
167.2465661290198
 20
619.0034703768429
 30
0.0
 11
168.2465662929326
 21
619.0034703768429
 31
0.0
  0
LINE
  5
360
330
1F
100
AcDbEntity
  8
0
  6
Continuous
 62
     7
370
    25
100
AcDbLine
 10
167.2465661290198
 20
619.2430586970981
 30
0.0
 11
167.2465661290198
 21
619.0034703768429
 31
0.0
  0
LINE
  5
361
330
1F
100
AcDbEntity
  8
0
  6
Continuous
 62
     7
370
    25
100
AcDbLine
 10
168.2465662929326
 20
619.0034703768429
 30
0.0
 11
168.2465662929326
 21
619.2430586970981
 31
0.0
  0
ARC
  5
362
330
1F
100
AcDbEntity
  8
0
  6
Continuous
 62
     7
370
    25
100
AcDbCircle
 10
170.7311129226287
 20
619.0146345578578
 30
0.0
 40
3.484564678089301
100
AcDbArc
 50
180.183570002948
 51
201.2136804582816
  0
ARC
  5
363
330
1F
100
AcDbEntity
  8
0
  6
Continuous
 62
     7
370
    25
100
AcDbCircle
 10
171.3544179169346
 20
619.0134272779625
 30
0.0
 40
3.107867573866701
100
AcDbArc
 50
180.1835629651396
 51
201.2136433428502
  0
LINE
  5
364
330
1F
100
AcDbEntity
  8
0
  6
Continuous
 62
     7
370
    25
100
AcDbLine
 10
168.4571467089563
 20
617.8888560689625
 30
0.0
 11
167.482671302846
 21
617.7537546909984
 31
0.0
  0
LINE
  5
365
330
1F
100
AcDbEntity
  8
0
  6
Continuous
 62
     7
370
    25
100
AcDbLine
 10
168.4571467089563
 20
618.1284443892177
 30
0.0
 11
168.4571467089563
 21
617.8888560689625
 31
0.0
  0
LWPOLYLINE
  5
366
330
1F
100
AcDbEntity
  8
0
  6
Continuous
 62
     7
370
    25
100
AcDbPolyline
 90
       14
 70
   128
 43
0.0
 10
169.9362098920255
 20
618.3587343848881
 10
170.0727720494478
 20
618.0496470488247
 10
170.6979586492389
 20
617.1956838525471
 10
171.6316155838876
 20
616.4506332434353
 10
172.8240742563366
 20
615.8541248596844
 10
174.2118994920611
 20
615.4379056252178
 10
175.7212626148111
 20
615.2241112149891
 10
177.271869881647
 20
615.2241112149891
 10
178.7812330043971
 20
615.4379056252178
 10
180.1690582401215
 20
615.8541248596844
 10
181.3615169125705
 20
616.4506332434353
 10
182.2951738472193
 20
617.1956838525471
 10
182.9203604470103
 20
618.0496470488247
 10
183.0569226044326
 20
618.3587343848881
  0
LINE
  5
367
330
1F
100
AcDbEntity
  8
0
  6
Continuous
 62
     7
370
    25
100
AcDbLine
 10
183.4909179928809
 20
616.6100607670483
 30
0.0
 11
183.4909179928809
 21
616.3704649962124
 31
0.0
  0
ARC
  5
368
330
1F
100
AcDbEntity
  8
0
  6
Continuous
 62
     7
370
    25
100
AcDbCircle
 10
179.0036101867542
 20
621.0980009290452
 30
0.0
 40
6.518092308578498
100
AcDbArc
 50
300.6879489699432
 51
313.5066549915127
  0
LINE
  5
369
330
1F
100
AcDbEntity
  8
0
  6
Continuous
 62
     7
370
    25
100
AcDbLine
 10
182.3301971639603
 20
615.4927046455082
 30
0.0
 11
182.3301971639603
 21
615.7322929657635
 31
0.0
  0
LINE
  5
36A
330
1F
100
AcDbEntity
  8
0
  6
Continuous
 62
     7
370
    25
100
AcDbLine
 10
183.4909179928809
 20
616.3704649962124
 30
0.0
 11
184.3387186276823
 21
616.0513119257625
 31
0.0
  0
LINE
  5
36B
330
1F
100
AcDbEntity
  8
0
  6
Continuous
 62
     7
370
    25
100
AcDbLine
 10
184.3387186276823
 20
616.2909076965984
 30
0.0
 11
184.3387186276823
 21
616.0513119257625
 31
0.0
  0
ARC
  5
36C
330
1F
100
AcDbEntity
  8
0
  6
Continuous
 62
     7
370
    25
100
AcDbCircle
 10
179.3075060270547
 20
621.3518753694196
 30
0.0
 40
7.308151137801374
100
AcDbArc
 50
300.6879013608159
 51
313.5066292967427
  0
LINE
  5
36D
330
1F
100
AcDbEntity
  8
0
  6
Continuous
 62
     7
370
    25
100
AcDbLine
 10
183.0373038287371
 20
615.0671572841343
 30
0.0
 11
182.3301971639603
 21
615.4927046455082
 31
0.0
  0
LINE
  5
36E
330
1F
100
AcDbEntity
  8
0
  6
Continuous
 62
     7
370
    25
100
AcDbLine
 10
169.9558286677211
 20
615.0671572841343
 30
0.0
 11
170.6629353324979
 21
615.4927046455082
 31
0.0
  0
LINE
  5
36F
330
1F
100
AcDbEntity
  8
0
  6
Continuous
 62
     7
370
    25
100
AcDbLine
 10
169.9558286677211
 20
615.3067456043896
 30
0.0
 11
169.9558286677211
 21
615.0671572841343
 31
0.0
  0
LINE
  5
370
330
1F
100
AcDbEntity
  8
0
  6
Continuous
 62
     7
370
    25
100
AcDbLine
 10
170.6629353324979
 20
615.4927046455082
 30
0.0
 11
170.6629353324979
 21
615.7322929657635
 31
0.0
  0
LINE
  5
371
330
1F
100
AcDbEntity
  8
0
  6
Continuous
 62
     7
370
    25
100
AcDbLine
 10
172.121461455813
 20
615.0337563313183
 30
0.0
 11
172.121461455813
 21
614.794168011063
 31
0.0
  0
ARC
  5
372
330
1F
100
AcDbEntity
  8
0
  6
Continuous
 62
     7
370
    25
100
AcDbCircle
 10
175.2360140659296
 20
623.1692223701921
 30
0.0
 40
8.9354335921404
100
AcDbArc
 50
239.2167671985273
 51
249.6006141450819
  0
LINE
  5
373
330
1F
100
AcDbEntity
  8
0
  6
Continuous
 62
     7
370
    25
100
AcDbLine
 10
172.121461455813
 20
614.794168011063
 30
0.0
 11
171.5911458927303
 21
614.283944801205
 31
0.0
  0
ARC
  5
374
330
1F
100
AcDbEntity
  8
0
  6
Continuous
 62
     7
370
    25
100
AcDbCircle
 10
175.0835092263584
 20
623.6747093583261
 30
0.0
 40
10.01913472418413
100
AcDbArc
 50
239.2169480883962
 51
249.6001645492842
  0
LINE
  5
375
330
1F
100
AcDbEntity
  8
0
  6
Continuous
 62
     7
370
    25
100
AcDbLine
 10
178.3486538083389
 20
614.404815570229
 30
0.0
 11
178.3486538083389
 21
614.1652272499737
 31
0.0
  0
ARC
  5
376
330
1F
100
AcDbEntity
  8
0
  6
Continuous
 62
     7
370
    25
100
AcDbCircle
 10
176.5026294861536
 20
627.5471873647865
 30
0.0
 40
13.50868840089744
100
AcDbArc
 50
269.9742833689987
 51
277.854307910666
  0
LINE
  5
377
330
1F
100
AcDbEntity
  8
0
  6
Continuous
 62
     7
370
    25
100
AcDbLine
 10
176.496566248229
 20
614.0385003246006
 30
0.0
 11
176.496566248229
 21
614.2780886448559
 31
0.0
  0
LINE
  5
378
330
1F
100
AcDbEntity
  8
0
  6
Continuous
 62
     7
370
    25
100
AcDbLine
 10
178.3486538083389
 20
614.1652272499737
 30
0.0
 11
178.5731492313652
 21
613.578769699448
 31
0.0
  0
LINE
  5
379
330
1F
100
AcDbEntity
  8
0
  6
Continuous
 62
     7
370
    25
100
AcDbLine
 10
178.5731492313652
 20
613.8183654702839
 30
0.0
 11
178.5731492313652
 21
613.578769699448
 31
0.0
  0
ARC
  5
37A
330
1F
100
AcDbEntity
  8
0
  6
Continuous
 62
     7
370
    25
100
AcDbCircle
 10
176.5032183625399
 20
628.5846789801664
 30
0.0
 40
15.14800076389177
100
AcDbArc
 50
269.9748390501803
 51
277.8538763836749
  0
LINE
  5
37B
330
1F
100
AcDbEntity
  8
0
  6
Continuous
 62
     7
370
    25
100
AcDbLine
 10
176.496566248229
 20
613.4366796768841
 30
0.0
 11
176.496566248229
 21
614.0385003246006
 31
0.0
  0
ARC
  5
37C
330
1F
100
AcDbEntity
  8
0
  6
Continuous
 62
     7
370
    25
100
AcDbCircle
 10
176.4965662482291
 20
641.4331079877552
 30
0.0
 40
14.0
100
AcDbArc
 50
348.4154043994457
 51
90.0
  0
ARC
  5
37D
330
1F
100
AcDbEntity
  8
0
  6
Continuous
 62
     7
370
    25
100
AcDbCircle
 10
176.4965662482291
 20
641.4331079877552
 30
0.0
 40
14.0
100
AcDbArc
 50
90.0
 51
195.6363959493567
  0
SPLINE
  5
37E
330
1F
100
AcDbEntity
  8
0
  6
Continuous
 62
     7
370
    25
100
AcDbSpline
210
0.0
220
0.0
230
1.0
 70
     8
 71
     3
 72
    10
 73
     6
 74
     0
 42
0.000000001
 43
0.00000001
 40
0.0
 40
0.0
 40
0.0
 40
0.0
 40
0.3639529665788027
 40
0.7544301208672116
 40
1.0
 40
1.0
 40
1.0
 40
1.0
 10
172.1425004984348
 20
695.6647069610294
 30
0.0
 10
172.1732424647703
 20
695.3870353000132
 30
0.0
 10
172.2369668124413
 20
694.8114558048077
 30
0.0
 10
172.5646928668116
 20
694.10620747021
 30
0.0
 10
172.8645282996458
 20
693.7280271143011
 30
0.0
 10
172.9802910453736
 20
693.5820163644489
 30
0.0
  0
SPLINE
  5
37F
330
1F
100
AcDbEntity
  8
0
  6
Continuous
 62
     7
370
    25
100
AcDbSpline
210
0.0
220
0.0
230
1.0
 70
     8
 71
     3
 72
    10
 73
     6
 74
     0
 42
0.000000001
 43
0.00000001
 40
0.0
 40
0.0
 40
0.0
 40
0.0
 40
0.246499426369045
 40
0.638247113142341
 40
1.0
 40
1.0
 40
1.0
 40
1.0
 10
180.0004632427453
 20
693.5662360347446
 30
0.0
 10
180.1172187242457
 20
693.712098395977
 30
0.0
 10
180.4195271316477
 20
694.0897716114648
 30
0.0
 10
180.7498361045171
 20
694.7929551892763
 30
0.0
 10
180.815758920547
 20
695.3668971681153
 30
0.0
 10
180.8474082249313
 20
695.6424446262058
 30
0.0
  0
CIRCLE
  5
380
330
1F
100
AcDbEntity
  8
0
  6
Continuous
 62
     7
370
    25
100
AcDbCircle
 10
176.496566248229
 20
684.2713175302998
 30
0.0
 40
3.999999999999992
  0
SPLINE
  5
381
330
1F
100
AcDbEntity
  8
0
  6
Continuous
 62
     7
370
    25
100
AcDbSpline
210
0.0
220
0.0
230
1.0
 70
    24
 71
     3
 72
    10
 73
     6
 74
     0
 42
0.000000001
 43
0.00000001
 40
0.0
 40
0.0
 40
0.0
 40
0.0
 40
0.5
 40
0.5
 40
1.0
 40
1.0
 40
1.0
 40
1.0
 10
174.3496497084345
 20
704.2713175302997
 30
0.0
 10
175.0652902893311
 20
704.2713175302997
 30
0.0
 10
175.7809308145681
 20
704.2713175302997
 30
0.0
 10
177.2122112476437
 20
704.2713175302997
 30
0.0
 10
177.9278511544452
 20
704.2713175302997
 30
0.0
 10
178.64349100659
 20
704.2713175302997
 30
0.0
  0
SPLINE
  5
382
330
1F
100
AcDbEntity
  8
0
  6
Continuous
 62
     7
370
    25
100
AcDbSpline
210
0.0
220
0.0
230
1.0
 70
     8
 71
     3
 72
    10
 73
     6
 74
     0
 42
0.000000001
 43
0.00000001
 40
0.0
 40
0.0
 40
0.0
 40
0.0
 40
0.0467136600164003
 40
0.5192229518187039
 40
1.0
 40
1.0
 40
1.0
 40
1.0
 10
152.5100888433962
 20
677.5639982379613
 30
0.0
 10
152.5056614905185
 20
677.5483471092373
 30
0.0
 10
152.456451404451
 20
677.3743846054964
 30
0.0
 10
152.6257096605095
 20
677.2910351118387
 30
0.0
 10
152.9599110258526
 20
677.2779326034931
 30
0.0
 10
153.1284609559088
 20
677.2713245309528
 30
0.0
  0
SPLINE
  5
383
330
1F
100
AcDbEntity
  8
0
  6
Continuous
 62
     7
370
    25
100
AcDbSpline
210
0.0
220
0.0
230
1.0
 70
     8
 71
     3
 72
     9
 73
     5
 74
     0
 42
0.000000001
 43
0.00000001
 40
0.0
 40
0.0
 40
0.0
 40
0.0
 40
0.5155671814944137
 40
1.0
 40
1.0
 40
1.0
 40
1.0
 10
199.8646715405493
 20
677.2713245309528
 30
0.0
 10
200.0548182448128
 20
677.2677357796595
 30
0.0
 10
200.4236289664578
 20
677.2607749966185
 30
0.0
 10
200.4662452762353
 20
677.4626646762346
 30
0.0
 10
200.4868900152951
 20
677.5604666627582
 30
0.0
  0
LINE
  5
384
330
1F
100
AcDbEntity
  8
0
  6
Continuous
 62
     7
370
    25
100
AcDbLine
 10
153.1284609559088
 20
677.2713245309528
 30
0.0
 11
199.8646715405493
 21
677.2713245309528
 31
0.0
  0
LINE
  5
385
330
1F
100
AcDbEntity
  8
0
  6
Continuous
 62
     7
370
    25
100
AcDbLine
 10
200.196566966465
 20
379.4331134713825
 30
0.0
 11
152.7965655299931
 21
379.4331134713825
 31
0.0
  0
LINE
  5
386
330
1F
100
AcDbEntity
  8
0
  6
Continuous
 62
     7
370
    25
100
AcDbLine
 10
178.6434999416678
 20
704.271319643372
 30
0.0
 11
198.9965671422987
 21
704.271319643372
 31
0.0
  0
LINE
  5
387
330
1F
100
AcDbEntity
  8
0
  6
Continuous
 62
     7
370
    25
100
AcDbLine
 10
153.9965653541594
 20
704.271319643372
 30
0.0
 11
174.3496427993386
 21
704.271319643372
 31
0.0
  0
LINE
  5
388
330
1F
100
AcDbEntity
  8
0
  6
Continuous
 62
     7
370
    25
100
AcDbLine
 10
200.0935328873902
 20
674.2713184512791
 30
0.0
 11
152.8996014717131
 21
674.2713184512791
 31
0.0
  0
LINE
  5
389
330
1F
100
AcDbEntity
  8
0
  6
Continuous
 62
     8
370
    18
100
AcDbLine
 10
176.4965662482291
 20
629.4766621149715
 30
0.0
 11
176.4965662482291
 21
627.1816746748623
 31
0.0
  0
ELLIPSE
  5
38A
330
1F
100
AcDbEntity
  8
0
  6
Continuous
 62
     8
370
    18
100
AcDbEllipse
 10
176.4965662482291
 20
619.7737781330528
 30
0.0
 11
12.12225840003611
 21
0.0
 31
0.0
210
0.0
220
0.0
230
1.0
 40
0.6110989899412305
 41
1.570796326794897
 42
4.712388980384699
  0
LINE
  5
38B
330
1F
100
AcDbEntity
  8
0
  6
Continuous
 62
     8
370
    18
100
AcDbLine
 10
176.4965662482291
 20
612.0638282455143
 30
0.0
 11
176.4965662482291
 21
612.3658747829136
 31
0.0
  0
ELLIPSE
  5
38C
330
1F
100
AcDbEntity
  8
0
  6
Continuous
 62
     8
370
    18
100
AcDbEllipse
 10
176.4965662482291
 20
620.9717313981237
 30
0.0
 11
13.62225840003609
 21
0.0
 31
0.0
210
0.0
220
0.0
230
1.0
 40
0.6243407052442074
 41
1.570796326794884
 42
3.138983833879541
  0
ELLIPSE
  5
38D
330
1F
100
AcDbEntity
  8
0
  6
Continuous
 62
     8
370
    18
100
AcDbEllipse
 10
176.4965662482291
 20
619.7737781330528
 30
0.0
 11
12.12225840003611
 21
0.0
 31
0.0
210
0.0
220
0.0
230
1.0
 40
0.6110989899412305
 41
4.712388980384699
 42
7.853981633974483
  0
ELLIPSE
  5
38E
330
1F
100
AcDbEntity
  8
0
  6
Continuous
 62
     8
370
    18
100
AcDbEllipse
 10
176.4965662482291
 20
620.9717313981237
 30
0.0
 11
13.62225840003609
 21
0.0
 31
0.0
210
0.0
220
0.0
230
1.0
 40
0.6243407052442074
 41
6.280576487469369
 42
7.853981633974483
  0
SPLINE
  5
38F
330
1F
100
AcDbEntity
  8
0
  6
Continuous
 62
     8
370
    18
100
AcDbSpline
210
0.0
220
0.0
230
1.0
 70
     8
 71
     3
 72
    11
 73
     7
 74
     0
 42
0.000000001
 43
0.00000001
 40
0.2500000141366471
 40
0.2500000141366471
 40
0.2500000141366471
 40
0.2500000141366471
 40
0.3125000141366471
 40
0.3750000141366471
 40
0.4375000141366471
 40
0.5
 40
0.5
 40
0.5
 40
0.5
 10
176.4965662482289
 20
635.6257724939727
 30
0.0
 10
178.2797156887851
 20
635.6257724939727
 30
0.0
 10
181.8453853966127
 20
635.1075076070529
 30
0.0
 10
186.3801271096933
 20
632.8913488456642
 30
0.0
 10
189.4099392621095
 20
629.5750612622845
 30
0.0
 10
190.1193006146275
 20
626.9670760132237
 30
0.0
 10
190.1193006146275
 20
625.6630833886934
 30
0.0
  0
LINE
  5
390
330
1F
100
AcDbEntity
  8
0
  6
Continuous
 62
     8
370
    18
100
AcDbLine
 10
176.4965662482291
 20
635.6257752932247
 30
0.0
 11
176.4965662482291
 21
629.4766621149715
 31
0.0
  0
SPLINE
  5
391
330
1F
100
AcDbEntity
  8
0
  6
Continuous
 62
     8
370
    18
100
AcDbSpline
210
0.0
220
0.0
230
1.0
 70
     8
 71
     3
 72
    11
 73
     7
 74
     0
 42
0.000000001
 43
0.00000001
 40
0.5
 40
0.5
 40
0.5
 40
0.5
 40
0.5624999858633465
 40
0.6249999858633465
 40
0.6874999858633465
 40
0.7499999858633465
 40
0.7499999858633465
 40
0.7499999858633465
 40
0.7499999858633465
 10
162.8738318818307
 20
625.6630833886929
 30
0.0
 10
162.8738318818307
 20
626.9670760132233
 30
0.0
 10
163.5831932343487
 20
629.5750612622834
 30
0.0
 10
166.6130053867648
 20
632.891348845664
 30
0.0
 10
171.1477470998454
 20
635.107507607052
 30
0.0
 10
174.7134168076728
 20
635.625772493972
 30
0.0
 10
176.4965662482291
 20
635.625772493972
 30
0.0
  0
SPLINE
  5
392
330
1F
100
AcDbEntity
  8
0
  6
Continuous
 62
     8
370
    18
100
AcDbSpline
210
0.0
220
0.0
230
1.0
 70
     8
 71
     3
 72
    17
 73
    13
 74
     0
 42
0.000000001
 43
0.00000001
 40
0.0
 40
0.0
 40
0.0
 40
0.0
 40
0.045090697867625
 40
0.1511917915648097
 40
0.2572925927580639
 40
0.3633938899311818
 40
0.4694948867234532
 40
0.5755957474880004
 40
0.6816968394697045
 40
0.7877978675454618
 40
0.8938989863549449
 40
1.0
 40
1.0
 40
1.0
 40
1.0
 10
163.3721254515558
 20
637.6627044237789
 30
0.0
 10
163.2520731338018
 20
638.0250106012658
 30
0.0
 10
162.8495305726728
 20
639.2398447612966
 30
0.0
 10
162.7070954842267
 20
641.438674649874
 30
0.0
 10
162.948541912926
 20
644.1254879568899
 30
0.0
 10
163.7407084187033
 20
646.71768239364
 30
0.0
 10
165.0150185046951
 20
649.1046042205537
 30
0.0
 10
166.7327213425758
 20
651.196618910534
 30
0.0
 10
168.8250570598759
 20
652.9159824862701
 30
0.0
 10
171.2123664738579
 20
654.1839599216876
 30
0.0
 10
173.802696500978
 20
654.9997910420645
 30
0.0
 10
175.5986099624886
 20
655.1019068487568
 30
0.0
 10
176.4965662482291
 20
655.1529647267994
 30
0.0
  0
SPLINE
  5
393
330
1F
100
AcDbEntity
  8
0
  6
Continuous
 62
     8
370
    18
100
AcDbSpline
210
0.0
220
0.0
230
1.0
 70
     8
 71
     3
 72
    17
 73
    13
 74
     0
 42
0.000000001
 43
0.00000001
 40
0.0
 40
0.0
 40
0.0
 40
0.0
 40
0.1101943715642532
 40
0.2203888523501589
 40
0.330583238901848
 40
0.440777691824964
 40
0.5509719046106066
 40
0.6611662586718985
 40
0.7713609247026757
 40
0.8815550756187759
 40
0.9917495303235552
 40
1.0
 40
1.0
 40
1.0
 40
1.0
 10
176.4965662482291
 20
655.1529647267994
 30
0.0
 10
177.3945230143186
 20
655.1019067323696
 30
0.0
 10
179.1904374365278
 20
654.9997906929025
 30
0.0
 10
181.7807602584053
 20
654.1839613183366
 30
0.0
 10
184.1680970522975
 20
652.9159772488395
 30
0.0
 10
186.2603304552301
 20
651.1966384636039
 30
0.0
 10
187.9784151700885
 20
649.104531245842
 30
0.0
 10
189.2513000599224
 20
646.7179547401875
 30
0.0
 10
190.0487854805004
 20
644.124471544451
 30
0.0
 10
190.2703815082192
 20
641.4424679370832
 30
0.0
 10
190.1997479733333
 20
639.5486801687819
 30
0.0
 10
189.914237009704
 20
638.6279289346388
 30
0.0
 10
189.8943492892294
 20
638.5637925423321
 30
0.0
  0
LINE
  5
394
330
1F
100
AcDbEntity
  8
0
  6
Continuous
 62
     8
370
    18
100
AcDbLine
 10
176.4965662482291
 20
655.4331065572437
 30
0.0
 11
176.4965662482291
 21
655.1529647267994
 31
0.0
  0
CIRCLE
  5
395
330
1F
100
AcDbEntity
  8
0
  6
Continuous
 62
     8
370
    18
100
AcDbCircle
 10
176.4965662482292
 20
696.2713175302997
 30
0.0
 40
2.828082609483857
  0
CIRCLE
  5
396
330
1F
100
AcDbEntity
  8
0
  6
Continuous
 62
     8
370
    18
100
AcDbCircle
 10
176.4965662482292
 20
696.2713175302997
 30
0.0
 40
4.328080324853801
  0
SPLINE
  5
397
330
1F
100
AcDbEntity
  8
0
  6
Continuous
 62
     8
370
    18
100
AcDbSpline
210
0.0
220
0.0
230
1.0
 70
     8
 71
     3
 72
    18
 73
    14
 74
     0
 42
0.000000001
 43
0.00000001
 40
0.0
 40
0.0
 40
0.0
 40
0.0
 40
0.0940654697205106
 40
0.1594178271963409
 40
0.2440073299641975
 40
0.323661530099867
 40
0.4033509302218431
 40
0.4879477224599472
 40
0.6462469560186723
 40
0.7358494318702395
 40
0.8155015674524422
 40
0.944715500331282
 40
1.0
 40
1.0
 40
1.0
 40
1.0
 10
179.7517472627669
 20
699.311870471352
 30
0.0
 10
179.4945416996973
 20
699.5525702262426
 30
0.0
 10
179.0586415534565
 20
699.9604970887283
 30
0.0
 10
178.2490715601466
 20
700.3928527834141
 30
0.0
 10
177.425070164018
 20
700.6608233648403
 30
0.0
 10
176.5063703073116
 20
700.755441715797
 30
0.0
 10
175.5875386566674
 20
700.6642420864996
 30
0.0
 10
174.4266648913761
 20
700.297137115034
 30
0.0
 10
173.3845993480157
 20
699.5611060633022
 30
0.0
 10
172.6430050060848
 20
698.575868470088
 30
0.0
 10
172.1859954231293
 20
697.55780018102
 30
0.0
 10
171.9576505043403
 20
696.5502270912273
 30
0.0
 10
172.0998813706144
 20
695.8688730244439
 30
0.0
 10
172.1425004984348
 20
695.6647069610295
 30
0.0
  0
SPLINE
  5
398
330
1F
100
AcDbEntity
  8
0
  6
Continuous
 62
     8
370
    18
100
AcDbSpline
210
0.0
220
0.0
230
1.0
 70
     8
 71
     3
 72
    15
 73
    11
 74
     0
 42
0.000000001
 43
0.00000001
 40
0.0
 40
0.0
 40
0.0
 40
0.0
 40
0.0542046896687649
 40
0.2726514350518232
 40
0.3896609844177606
 40
0.4998101739977499
 40
0.6100140621695352
 40
0.72700517693303
 40
0.9455530057169523
 40
1.0
 40
1.0
 40
1.0
 40
1.0
 10
172.9802910453736
 20
693.582016364449
 30
0.0
 10
173.0647473384755
 20
693.462126671502
 30
0.0
 10
173.4895653690577
 20
692.8590774329643
 30
0.0
 10
174.4136376040842
 20
692.2612382049366
 30
0.0
 10
175.5641108215734
 20
691.8820070593744
 30
0.0
 10
176.484883870759
 20
691.7874419724538
 30
0.0
 10
177.406141359166
 20
691.8771914293852
 30
0.0
 10
178.558999035132
 20
692.2506299772965
 30
0.0
 10
179.4870769176541
 20
692.8442857260694
 30
0.0
 10
179.9150974133792
 20
693.4461902060011
 30
0.0
 10
180.0004632427453
 20
693.5662360347446
 30
0.0
  0
SPLINE
  5
399
330
1F
100
AcDbEntity
  8
0
  6
Continuous
 62
     8
370
    18
100
AcDbSpline
210
0.0
220
0.0
230
1.0
 70
     8
 71
     3
 72
    11
 73
     7
 74
     0
 42
0.000000001
 43
0.00000001
 40
0.0
 40
0.0
 40
0.0
 40
0.0
 40
0.1575980608915492
 40
0.5230477963120657
 40
0.7476713763703807
 40
1.0
 40
1.0
 40
1.0
 40
1.0
 10
180.8474082249313
 20
695.6424446262058
 30
0.0
 10
180.8912949063878
 20
695.8481850201845
 30
0.0
 10
181.0369491859738
 20
696.5310110592494
 30
0.0
 10
180.8094249223782
 20
697.537810368077
 30
0.0
 10
180.3666116577952
 20
698.564524723427
 30
0.0
 10
179.9644881997349
 20
699.0532914481753
 30
0.0
 10
179.7517472627669
 20
699.311870471352
 30
0.0
  0
SPLINE
  5
39A
330
1F
100
AcDbEntity
  8
0
  6
Continuous
 62
     8
370
    18
100
AcDbSpline
210
0.0
220
0.0
230
1.0
 70
     8
 71
     3
 72
    19
 73
    15
 74
     0
 42
0.000000001
 43
0.00000001
 40
0.0
 40
0.0
 40
0.0
 40
0.0
 40
0.0843919371887801
 40
0.1678064876961208
 40
0.2514195355396325
 40
0.3949204432352943
 40
0.4649768753883231
 40
0.5350865183870088
 40
0.6808564755638281
 40
0.7295571113904291
 40
0.7788140561713155
 40
0.8289481200449295
 40
0.9150362144944774
 40
1.0
 40
1.0
 40
1.0
 40
1.0
 10
187.0493618521004
 20
656.3014717258152
 30
0.0
 10
187.6068733667545
 20
655.7648687390606
 30
0.0
 10
188.7154395668049
 20
654.6978774423314
 30
0.0
 10
190.0732530496145
 20
652.83445764164
 30
0.0
 10
191.4659285512047
 20
650.3314122779158
 30
0.0
 10
192.4130247237016
 20
647.6767182436421
 30
0.0
 10
192.9433665023203
 20
644.9930546826789
 30
0.0
 10
193.2372392956815
 20
642.2227305371233
 30
0.0
 10
193.176466862592
 20
639.6045285132851
 30
0.0
 10
192.828394799889
 20
637.2686271583824
 30
0.0
 10
192.5296310733838
 20
635.8764919927859
 30
0.0
 10
192.0431519968637
 20
634.181734087917
 30
0.0
 10
191.3066682014133
 20
632.2333191331561
 30
0.0
 10
190.5133674531287
 20
630.8724879450821
 30
0.0
 10
190.1193242269664
 20
630.1965446628269
 30
0.0
  0
SPLINE
  5
39B
330
1F
100
AcDbEntity
  8
0
  6
Continuous
 62
     8
370
    18
100
AcDbSpline
210
0.0
220
0.0
230
1.0
 70
     8
 71
     3
 72
    26
 73
    22
 74
     0
 42
0.000000001
 43
0.00000001
 40
0.0
 40
0.0
 40
0.0
 40
0.0
 40
0.0416153059168777
 40
0.1209037171403098
 40
0.1596074578655926
 40
0.1983339992587403
 40
0.2792262258864441
 40
0.30624612291233
 40
0.3335740846166271
 40
0.3613894699747982
 40
0.4091300628970153
 40
0.4572161235365981
 40
0.5064345308006925
 40
0.5723028126389573
 40
0.6365348349050495
 40
0.6969403965175154
 40
0.755709399966613
 40
0.8140852380799154
 40
0.8733321223121919
 40
0.9355907671287775
 40
1.0
 40
1.0
 40
1.0
 40
1.0
 10
162.8764383244424
 20
630.2123920477566
 30
0.0
 10
162.5242327339444
 20
630.8083564804283
 30
0.0
 10
161.5009802514598
 20
632.5397943157611
 30
0.0
 10
160.6007862479874
 20
635.1322572952345
 30
0.0
 10
160.0592842831908
 20
637.8071131655829
 30
0.0
 10
159.7581642078933
 20
640.5794019174898
 30
0.0
 10
159.8118582749724
 20
643.2030008803085
 30
0.0
 10
160.1556028859592
 20
645.5479457455319
 30
0.0
 10
160.4527929965418
 20
646.9450946387481
 30
0.0
 10
160.9350989962918
 20
648.6478452558616
 30
0.0
 10
161.6902403374087
 20
650.6083996914327
 30
0.0
 10
162.847190261696
 20
652.7383322094474
 30
0.0
 10
164.4519942551667
 20
654.9101908443997
 30
0.0
 10
166.5884595282018
 20
656.9936154498473
 30
0.0
 10
169.3087228544843
 20
658.7280419871729
 30
0.0
 10
172.2765312390597
 20
659.8853492479343
 30
0.0
 10
175.3789034319857
 20
660.4156022963025
 30
0.0
 10
178.5263187321431
 20
660.3300697564418
 30
0.0
 10
181.6101118733772
 20
659.599654153563
 30
0.0
 10
184.5503063873519
 20
658.2929583682501
 30
0.0
 10
186.2069676746076
 20
656.9727720534015
 30
0.0
 10
187.0493618521004
 20
656.3014717258152
 30
0.0
  0
SPLINE
  5
39C
330
1F
100
AcDbEntity
  8
0
  6
Continuous
 62
     8
370
    18
100
AcDbSpline
210
0.0
220
0.0
230
1.0
 70
     8
 71
     3
 72
    16
 73
    12
 74
     0
 42
0.000000001
 43
0.00000001
 40
0.0
 40
0.0
 40
0.0
 40
0.0
 40
0.2500000000000001
 40
0.2500000000000001
 40
0.5000000000000002
 40
0.5000000000000002
 40
0.7500000000000002
 40
0.7500000000000002
 40
0.8750000000000001
 40
0.8750000000000001
 40
1.0
 40
1.0
 40
1.0
 40
1.0
 10
178.7846408447854
 20
702.7716801128383
 30
0.0
 10
178.4077427197011
 20
702.8221804830513
 30
0.0
 10
178.0262087192929
 20
702.8631558584186
 30
0.0
 10
177.2651832997742
 20
702.9187774606119
 30
0.0
 10
176.8837030375823
 20
702.9336994573849
 30
0.0
 10
176.1184111657673
 20
702.9339216849202
 30
0.0
 10
175.7336366052948
 20
702.9191830060873
 30
0.0
 10
175.1597102837134
 20
702.8773647469627
 30
0.0
 10
174.9688685207138
 20
702.8601817495934
 30
0.0
 10
174.5879754858246
 20
702.8200329393153
 30
0.0
 10
174.3966252040057
 20
702.7968938217781
 30
0.0
 10
174.2081801158459
 20
702.7716254362546
 30
0.0
  0
SPLINE
  5
39D
330
1F
100
AcDbEntity
  8
0
  6
Continuous
 62
     8
370
    18
100
AcDbSpline
210
0.0
220
0.0
230
1.0
 70
     8
 71
     3
 72
    47
 73
    43
 74
     0
 42
0.000000001
 43
0.00000001
 40
0.0
 40
0.0
 40
0.0
 40
0.0
 40
0.0039700704854766
 40
0.0079597252982965
 40
0.042657165129516
 40
0.0776946988046184
 40
0.1128141254573249
 40
0.1480912809529847
 40
0.1838279286960406
 40
0.219613334437955
 40
0.2550269256577475
 40
0.2909602608925864
 40
0.3264844935631337
 40
0.3613266161778596
 40
0.3962443256588277
 40
0.4308301387524208
 40
0.4656625633434524
 40
0.5002981821745137
 40
0.5349216884633484
 40
0.5697709274705893
 40
0.6043501737550563
 40
0.6392851268206053
 40
0.6740964105088231
 40
0.7096212646042629
 40
0.7455517883643898
 40
0.7809924410352292
 40
0.794970760543147
 40
0.8088258535133624
 40
0.8226344250745887
 40
0.8364739535194817
 40
0.8504214006773785
 40
0.8642725198623483
 40
0.8779499691093522
 40
0.8915483313274701
 40
0.9051435675534533
 40
0.9188116901150192
 40
0.9325460856727179
 40
0.9461104911605646
 40
0.9595536248019308
 40
0.972955201734486
 40
0.9863956761831514
 40
1.0
 40
1.0
 40
1.0
 40
1.0
 10
178.7857079841967
 20
702.7716772709368
 30
0.0
 10
178.8321045765446
 20
702.7531959385848
 30
0.0
 10
178.9251266352755
 20
702.7161421056096
 30
0.0
 10
179.4174372782391
 20
702.5034699984514
 30
0.0
 10
180.2279249004428
 20
702.0424662409791
 30
0.0
 10
181.21590944192
 20
701.1662006659005
 30
0.0
 10
182.0244658152072
 20
700.1128357150615
 30
0.0
 10
182.6172806794737
 20
698.9108719920096
 30
0.0
 10
182.9857549814599
 20
697.6087861226708
 30
0.0
 10
183.1040806132396
 20
696.2554117212778
 30
0.0
 10
182.976168743238
 20
694.9003608376775
 30
0.0
 10
182.5958910140816
 20
693.6012269457426
 30
0.0
 10
182.0007777660402
 20
692.3984065806268
 30
0.0
 10
181.1904818688435
 20
691.3484188054415
 30
0.0
 10
180.2014015894827
 20
690.4823934015149
 30
0.0
 10
179.0537056358807
 20
689.8346365208938
 30
0.0
 10
177.797991214416
 20
689.4269496074152
 30
0.0
 10
176.4800246819705
 20
689.2956981178206
 30
0.0
 10
175.1626180291721
 20
689.4338657432404
 30
0.0
 10
173.9091737889819
 20
689.8480245721316
 30
0.0
 10
172.7646294887514
 20
690.5017507449171
 30
0.0
 10
171.7801011278528
 20
691.3725099852908
 30
0.0
 10
170.9750319898887
 20
692.4263176941153
 30
0.0
 10
170.38560862666
 20
693.6316780814911
 30
0.0
 10
170.0111043798387
 20
694.9326049737647
 30
0.0
 10
169.9136748503175
 20
696.0134724909309
 30
0.0
 10
169.9430811828413
 20
696.8125293612286
 30
0.0
 10
169.9994490297145
 20
697.3357323991731
 30
0.0
 10
170.0932503682958
 20
697.8512930416787
 30
0.0
 10
170.2244553215267
 20
698.3592440443384
 30
0.0
 10
170.3921754341145
 20
698.8561554649688
 30
0.0
 10
170.5934808315957
 20
699.3374637662289
 30
0.0
 10
170.8269413342531
 20
699.7983735067086
 30
0.0
 10
171.0921618436408
 20
700.2373080713768
 30
0.0
 10
171.3894144880051
 20
700.6544798897827
 30
0.0
 10
171.7183059054102
 20
701.0489898412235
 30
0.0
 10
172.0751639348869
 20
701.4177690977843
 30
0.0
 10
172.4570127254528
 20
701.7565879373836
 30
0.0
 10
172.8610821656587
 20
702.0623459435549
 30
0.0
 10
173.2874427853122
 20
702.3339314013436
 30
0.0
 10
173.7352376133899
 20
702.5748328599889
 30
0.0
 10
174.0493031740064
 20
702.7057594815711
 30
0.0
 10
174.20728732846
 20
702.771619398098
 30
0.0
  0
CIRCLE
  5
39E
330
1F
100
AcDbEntity
  8
0
  6
Continuous
 62
     8
370
    18
100
AcDbCircle
 10
176.496566248229
 20
684.2713175302998
 30
0.0
 40
3.781418633081835
  0
CIRCLE
  5
39F
330
1F
100
AcDbEntity
  8
0
  6
Continuous
 62
     8
370
    18
100
AcDbCircle
 10
176.496566248229
 20
684.2713175302998
 30
0.0
 40
3.569682227408617
  0
SPLINE
  5
3A0
330
1F
100
AcDbEntity
  8
0
  6
Continuous
 62
     8
370
    18
100
AcDbSpline
210
0.0
220
0.0
230
1.0
 70
     8
 71
     3
 72
    14
 73
    10
 74
     0
 42
0.000000001
 43
0.00000001
 40
0.0
 40
0.0
 40
0.0
 40
0.0
 40
0.25
 40
0.25
 40
0.5
 40
0.5
 40
0.75
 40
0.75
 40
1.0
 40
1.0
 40
1.0
 40
1.0
 10
178.7852327253285
 20
702.7716780659218
 30
0.0
 10
178.785228249076
 20
702.967993594352
 30
0.0
 10
178.7815214760287
 20
703.1642225538188
 30
0.0
 10
178.7672618557976
 20
703.5269404609608
 30
0.0
 10
178.7567146152937
 20
703.693286793109
 30
0.0
 10
178.7303744830251
 20
703.970889917047
 30
0.0
 10
178.7145919478261
 20
704.0820375592334
 30
0.0
 10
178.6801799788538
 20
704.2322777903477
 30
0.0
 10
178.6615640753777
 20
704.2713113069516
 30
0.0
 10
178.6429407321163
 20
704.2713175295462
 30
0.0
  0
SPLINE
  5
3A1
330
1F
100
AcDbEntity
  8
0
  6
Continuous
 62
     8
370
    18
100
AcDbSpline
210
0.0
220
0.0
230
1.0
 70
     8
 71
     3
 72
    14
 73
    10
 74
     0
 42
0.000000001
 43
0.00000001
 40
0.0
 40
0.0
 40
0.0
 40
0.0
 40
0.25
 40
0.25
 40
0.5
 40
0.5
 40
0.75
 40
0.75
 40
1.0
 40
1.0
 40
1.0
 40
1.0
 10
174.3493244747569
 20
704.271317529855
 30
0.0
 10
174.3306786419245
 20
704.2713127486863
 30
0.0
 10
174.3120402314912
 20
704.2322783854034
 30
0.0
 10
174.2775867640093
 20
704.0820323451478
 30
0.0
 10
174.2617852551376
 20
703.970879749599
 30
0.0
 10
174.235413720296
 20
703.6932643155225
 30
0.0
 10
174.2248540644352
 20
703.5269106440327
 30
0.0
 10
174.2105781460819
 20
703.1641782140493
 30
0.0
 10
174.2068674973253
 20
702.9679420932488
 30
0.0
 10
174.2068637265231
 20
702.7716208797615
 30
0.0
  0
LINE
  5
3A2
330
1F
100
AcDbEntity
  8
0
  6
Continuous
 62
     8
370
    18
100
AcDbLine
 10
200.4965664568453
 20
673.7713248885807
 30
0.0
 11
152.4965660396128
 21
673.7713248885807
 31
0.0
  0
LINE
  5
3A3
330
1F
100
AcDbEntity
  8
0
  6
Continuous
 62
     8
370
    18
100
AcDbLine
 10
152.4965660396128
 20
379.7331036485371
 30
0.0
 11
200.4965664568453
 21
379.7331036485371
 31
0.0
  0
LINE
  5
3A4
330
1F
100
AcDbEntity
  8
0
  6
Continuous
 62
     8
370
    18
100
AcDbLine
 10
174.2073439276873
 20
702.7713240541157
 30
0.0
 11
152.4965660396128
 21
702.7713240541157
 31
0.0
  0
LINE
  5
3A5
330
1F
100
AcDbEntity
  8
0
  6
Continuous
 62
     8
370
    18
100
AcDbLine
 10
200.4965664568453
 20
702.7713240541157
 30
0.0
 11
178.7856393243282
 21
702.7713240541157
 31
0.0
  0
LINE
  5
3A6
330
1F
100
AcDbEntity
  8
0
  6
Continuous
 62
     8
370
    18
100
AcDbLine
 10
152.7208359661608
 20
674.5609970248875
 30
0.0
 11
200.2722965302973
 21
674.5609970248875
 31
0.0
  0
LINE
  5
3A7
330
1F
100
AcDbEntity
  8
0
  6
Continuous
 62
     7
370
    25
100
AcDbLine
 10
380.6645129591681
 20
688.2265241302189
 30
0.0
 11
380.6645129591681
 21
689.3421889699634
 31
0.0
  0
LINE
  5
3A8
330
1F
100
AcDbEntity
  8
0
  6
Continuous
 62
     7
370
    25
100
AcDbLine
 10
380.6645129591681
 20
677.2713245309528
 30
0.0
 11
380.6645129591681
 21
680.323559180611
 31
0.0
  0
LINE
  5
3A9
330
1F
100
AcDbEntity
  8
0
  6
Continuous
 62
     7
370
    25
100
AcDbLine
 10
332.6645125419356
 20
702.7713240541157
 30
0.0
 11
332.6645125419356
 21
683.9271069921192
 31
0.0
  0
ARC
  5
3AA
330
1F
100
AcDbEntity
  8
0
  6
Continuous
 62
     7
370
    25
100
AcDbCircle
 10
334.1645127505518
 20
702.7713175302997
 30
0.0
 40
1.5
100
AcDbArc
 50
90.0
 51
180.0
  0
ARC
  5
3AB
330
1F
100
AcDbEntity
  8
0
  6
Continuous
 62
     7
370
    25
100
AcDbCircle
 10
380.3645127505519
 20
379.7331079877553
 30
0.0
 40
0.3000000000000114
100
AcDbArc
 50
270.0000000000008
 51
0.0
  0
ARC
  5
3AC
330
1F
100
AcDbEntity
  8
0
  6
Continuous
 62
     7
370
    25
100
AcDbCircle
 10
332.9645127505518
 20
379.7331079877553
 30
0.0
 40
0.3000000000000114
100
AcDbArc
 50
180.0
 51
270.0000000000008
  0
LINE
  5
3AD
330
1F
100
AcDbEntity
  8
0
  6
Continuous
 62
     7
370
    25
100
AcDbLine
 10
380.6645129591681
 20
660.2833302177128
 30
0.0
 11
380.6645129591681
 21
673.7713248885807
 31
0.0
  0
LINE
  5
3AE
330
1F
100
AcDbEntity
  8
0
  6
Continuous
 62
     7
370
    25
100
AcDbLine
 10
380.6645129591681
 20
379.7331036485371
 30
0.0
 11
380.6645129591681
 21
622.5827218450245
 31
0.0
  0
LINE
  5
3AF
330
1F
100
AcDbEntity
  8
0
  6
Continuous
 62
     7
370
    25
100
AcDbLine
 10
332.6645125419356
 20
673.7713248885807
 30
0.0
 11
332.6645125419356
 21
379.7331036485371
 31
0.0
  0
ARC
  5
3B0
330
1F
100
AcDbEntity
  8
0
  6
Continuous
 62
     7
370
    25
100
AcDbCircle
 10
380.1645127505519
 20
673.7713175302998
 30
0.0
 40
0.5000000000001137
100
AcDbArc
 50
0.0
 51
90.0
  0
ARC
  5
3B1
330
1F
100
AcDbEntity
  8
0
  6
Continuous
 62
     7
370
    25
100
AcDbCircle
 10
333.1645127505518
 20
673.7713175302998
 30
0.0
 40
0.5000000000001137
100
AcDbArc
 50
90.0
 51
180.0
  0
ARC
  5
3B2
330
1F
100
AcDbEntity
  8
0
  6
Continuous
 62
     7
370
    25
100
AcDbCircle
 10
380.2614785475945
 20
674.4713175302999
 30
0.0
 40
0.2000000000000485
100
AcDbArc
 50
270.0000000000008
 51
26.6421673926985
  0
ARC
  5
3B3
330
1F
100
AcDbEntity
  8
0
  6
Continuous
 62
     7
370
    25
100
AcDbCircle
 10
333.0675469535091
 20
674.4713175302999
 30
0.0
 40
0.1999999999999977
100
AcDbArc
 50
153.3578326072942
 51
270.0000000000008
  0
ARC
  5
3B4
330
1F
100
AcDbEntity
  8
0
  6
Continuous
 62
     7
370
    25
100
AcDbCircle
 10
356.6645127505518
 20
662.6331079877552
 30
0.0
 40
26.59999999999999
100
AcDbArc
 50
132.4746682197912
 51
153.3578326072987
  0
ARC
  5
3B5
330
1F
100
AcDbEntity
  8
0
  6
Continuous
 62
     7
370
    25
100
AcDbCircle
 10
356.6645127505518
 20
662.6331079877552
 30
0.0
 40
26.60000000000004
100
AcDbArc
 50
26.64216739270131
 51
33.38818881245416
  0
SPLINE
  5
3B6
330
1F
100
AcDbEntity
  8
0
  6
Continuous
 62
     7
370
    25
100
AcDbSpline
210
0.0
220
0.0
230
1.0
 70
     8
 71
     3
 72
    13
 73
     9
 74
     0
 42
0.000000001
 43
0.00000001
 40
0.0
 40
0.0
 40
0.0
 40
0.0
 40
0.2394017465094244
 40
0.3683233515541107
 40
0.4999960567517928
 40
0.6316687728297185
 40
0.7605920765211022
 40
1.0
 40
1.0
 40
1.0
 40
1.0
 10
380.6643434584595
 20
622.5132749832806
 30
0.0
 10
380.7306611574443
 20
623.1360741899889
 30
0.0
 10
380.8326919801661
 20
624.094260562915
 30
0.0
 10
381.4514475584227
 20
625.2465346446271
 30
0.0
 10
382.0918889732499
 20
626.0391003399048
 30
0.0
 10
382.8866891861017
 20
626.6767727896491
 30
0.0
 10
384.0411269834036
 20
627.2915244145975
 30
0.0
 10
384.9996830695819
 20
627.3902264675306
 30
0.0
 10
385.6227253348089
 20
627.4543808258709
 30
0.0
  0
SPLINE
  5
3B7
330
1F
100
AcDbEntity
  8
0
  6
Continuous
 62
     7
370
    25
100
AcDbSpline
210
0.0
220
0.0
230
1.0
 70
     8
 71
     3
 72
    13
 73
     9
 74
     0
 42
0.000000001
 43
0.00000001
 40
0.0
 40
0.0
 40
0.0
 40
0.0
 40
0.2394080922898827
 40
0.3683317630966474
 40
0.5000055245228117
 40
0.631677860687861
 40
0.7605988971355053
 40
1.0
 40
1.0
 40
1.0
 40
1.0
 10
385.6226005375839
 20
655.4116488851246
 30
0.0
 10
384.9995633344737
 20
655.4758105571366
 30
0.0
 10
384.0410143175987
 20
655.574523936243
 30
0.0
 10
382.8865774643207
 20
656.189270086681
 30
0.0
 10
382.0917919204533
 20
656.8269539230121
 30
0.0
 10
381.4513389043819
 20
657.6195006564046
 30
0.0
 10
380.8325788314011
 20
658.7717588953858
 30
0.0
 10
380.730530813113
 20
659.7299331924002
 30
0.0
 10
380.6642018974281
 20
660.3527249253925
 30
0.0
  0
SPLINE
  5
3B8
330
1F
100
AcDbEntity
  8
0
  6
Continuous
 62
     7
370
    25
100
AcDbSpline
210
0.0
220
0.0
230
1.0
 70
     8
 71
     3
 72
    20
 73
    16
 74
     0
 42
0.000000001
 43
0.00000001
 40
0.0
 40
0.0
 40
0.0
 40
0.0
 40
0.0977698317225844
 40
0.1767417564040945
 40
0.2399923039849066
 40
0.2898868843727064
 40
0.33069954603081
 40
0.4164789578454799
 40
0.5099851982872388
 40
0.612731449630107
 40
0.7053789062721993
 40
0.7547206749695111
 40
0.8178348196810566
 40
0.8978253253459463
 40
1.0
 40
1.0
 40
1.0
 40
1.0
 10
471.9179612368799
 20
627.7132437981304
 30
0.0
 10
473.4038294095768
 20
627.7148575049943
 30
0.0
 10
476.0898824179582
 20
627.7177746562298
 30
0.0
 10
479.7369432042572
 20
627.6657381163559
 30
0.0
 10
482.6554818023251
 20
627.5797092815003
 30
0.0
 10
484.9928350593497
 20
627.4705542056766
 30
0.0
 10
487.6695451821705
 20
627.2988315294593
 30
0.0
 10
491.0012125497381
 20
626.9870954592118
 30
0.0
 10
495.2404683394575
 20
626.3290870731521
 30
0.0
 10
499.5035924526636
 20
625.2341892970309
 30
0.0
 10
502.9647513681759
 20
623.8413677864697
 30
0.0
 10
505.7252946262483
 20
622.3890694477756
 30
0.0
 10
508.2043482245884
 20
620.8317253115933
 30
0.0
 10
511.1963207840894
 20
618.5991800087434
 30
0.0
 10
513.2512591199458
 20
616.742045615688
 30
0.0
 10
514.4038540095546
 20
615.700397030228
 30
0.0
  0
SPLINE
  5
3B9
330
1F
100
AcDbEntity
  8
0
  6
Continuous
 62
     7
370
    25
100
AcDbSpline
210
0.0
220
0.0
230
1.0
 70
     8
 71
     3
 72
    24
 73
    20
 74
     0
 42
0.000000001
 43
0.00000001
 40
0.0
 40
0.0
 40
0.0
 40
0.0
 40
0.0721895736864119
 40
0.1298765181640182
 40
0.1753779919926665
 40
0.2101898128084671
 40
0.2408693713658233
 40
0.2728747859884481
 40
0.3414452386201698
 40
0.4161479977317161
 40
0.4917181126838579
 40
0.5783860585616062
 40
0.665892853248137
 40
0.7451042498402882
 40
0.7784019402136517
 40
0.8139621706594522
 40
0.8614654300276386
 40
0.9227297442135971
 40
1.0
 40
1.0
 40
1.0
 40
1.0
 10
532.9845589369991
 20
635.6257752932247
 30
0.0
 10
531.8104246224806
 20
636.7032855428408
 30
0.0
 10
529.6980354111389
 20
638.6418380561732
 30
0.0
 10
526.728380167147
 20
641.1272103392764
 30
0.0
 10
524.3184349727492
 20
642.9913588798446
 30
0.0
 10
522.3242099902
 20
644.4153682028868
 30
0.0
 10
520.5300268494892
 20
645.6045210825962
 30
0.0
 10
518.0579531031449
 20
647.1163838981611
 30
0.0
 10
514.6318037904796
 20
648.9256291223527
 30
0.0
 10
510.1552050029625
 20
650.7618742018924
 30
0.0
 10
505.1420592590559
 20
652.2764471000976
 30
0.0
 10
499.7402312485842
 20
653.4069980560644
 30
0.0
 10
494.1958583935295
 20
654.1665817753864
 30
0.0
 10
489.7969468940537
 20
654.555294364299
 30
0.0
 10
486.535350959572
 20
654.7657030997646
 30
0.0
 10
483.9702678845429
 20
654.8983663892054
 30
0.0
 10
480.7867603348915
 20
655.0199082302269
 30
0.0
 10
476.6813818932965
 20
655.120315633577
 30
0.0
 10
473.6235335346514
 20
655.1412745165568
 30
0.0
 10
471.9179612368799
 20
655.1529647267994
 30
0.0
  0
LINE
  5
3BA
330
1F
100
AcDbEntity
  8
0
  6
Continuous
 62
     7
370
    25
100
AcDbLine
 10
391.6645128995634
 20
655.4331065572437
 30
0.0
 11
385.5821140826203
 21
655.4118724025425
 31
0.0
  0
LINE
  5
3BB
330
1F
100
AcDbEntity
  8
0
  6
Continuous
 62
     7
370
    25
100
AcDbLine
 10
385.5822034895874
 20
627.4543361223873
 30
0.0
 11
391.6645128995634
 21
627.4331094182667
 31
0.0
  0
ARC
  5
3BC
330
1F
100
AcDbEntity
  8
0
  6
Continuous
 62
     7
370
    25
100
AcDbCircle
 10
527.3345546912641
 20
620.8004006978276
 30
0.0
 40
7.00000000000002
100
AcDbArc
 50
10.398450400979
 51
18.25065915298054
  0
SPLINE
  5
3BD
330
1F
100
AcDbEntity
  8
0
  6
Continuous
 62
     7
370
    25
100
AcDbSpline
210
0.0
220
0.0
230
1.0
 70
     8
 71
     3
 72
    13
 73
     9
 74
     0
 42
0.000000001
 43
0.00000001
 40
0.0
 40
0.0
 40
0.0
 40
0.0
 40
0.2394823331271997
 40
0.3683761462814298
 40
0.4999985742941367
 40
0.6316232724075266
 40
0.760518669510871
 40
1.0
 40
1.0
 40
1.0
 40
1.0
 10
380.6645129591681
 20
689.3404902375873
 30
0.0
 10
380.6975322062566
 20
689.6517773806902
 30
0.0
 10
380.748323021749
 20
690.1306050113791
 30
0.0
 10
381.0565566103083
 20
690.7068039711838
 30
0.0
 10
381.3755682385577
 20
691.1033874353545
 30
0.0
 10
381.7715971182913
 20
691.4230908497841
 30
0.0
 10
382.3472613906994
 20
691.7323289623333
 30
0.0
 10
382.8259994381721
 20
691.7839599270901
 30
0.0
 10
383.1372265488363
 20
691.817525164002
 30
0.0
  0
SPLINE
  5
3BE
330
1F
100
AcDbEntity
  8
0
  6
Continuous
 62
     7
370
    25
100
AcDbSpline
210
0.0
220
0.0
230
1.0
 70
     8
 71
     3
 72
    13
 73
     9
 74
     0
 42
0.000000001
 43
0.00000001
 40
0.0
 40
0.0
 40
0.0
 40
0.0
 40
0.2394808378648948
 40
0.3683762239923426
 40
0.4999984813986362
 40
0.6316238867880593
 40
0.7605176885646079
 40
1.0
 40
1.0
 40
1.0
 40
1.0
 10
383.1372246861912
 20
700.7251115001377
 30
0.0
 10
382.8259976135598
 20
700.7586761458542
 30
0.0
 10
382.3472592942759
 20
700.8103062368414
 30
0.0
 10
381.7716029737118
 20
701.1195477912278
 30
0.0
 10
381.3755579777459
 20
701.4392338290099
 30
0.0
 10
381.0565618856546
 20
701.8358323182315
 30
0.0
 10
380.7483212824934
 20
702.4120300961747
 30
0.0
 10
380.6975315210135
 20
702.8908586703424
 30
0.0
 10
380.6645129591681
 20
703.2021464265522
 30
0.0
  0
LINE
  5
3BF
330
1F
100
AcDbEntity
  8
0
  6
Continuous
 62
     7
370
    25
100
AcDbLine
 10
383.1369210750319
 20
691.8175251640018
 30
0.0
 11
455.1671338052012
 21
691.9432313598331
 31
0.0
  0
LINE
  5
3C0
330
1F
100
AcDbEntity
  8
0
  6
Continuous
 62
     7
370
    25
100
AcDbLine
 10
455.1671338052012
 20
700.5994053043064
 30
0.0
 11
383.1369676411606
 21
700.7251115001377
 31
0.0
  0
ARC
  5
3C1
330
1F
100
AcDbEntity
  8
0
  6
Continuous
 62
     7
370
    25
100
AcDbCircle
 10
455.1645127505518
 20
699.0994001397837
 30
0.0
 40
1.500000000000057
100
AcDbArc
 50
0.0
 51
89.90000000000047
  0
ARC
  5
3C2
330
1F
100
AcDbEntity
  8
0
  6
Continuous
 62
     7
370
    25
100
AcDbCircle
 10
455.1645127505518
 20
693.4432349208159
 30
0.0
 40
1.500000000000069
100
AcDbArc
 50
270.1000000000003
 51
0.0
  0
LINE
  5
3C3
330
1F
100
AcDbEntity
  8
0
  6
Continuous
 62
     7
370
    25
100
AcDbLine
 10
381.0145132959343
 20
680.2713157094654
 30
0.0
 11
381.6150598943688
 21
680.489900843018
 31
0.0
  0
LINE
  5
3C4
330
1F
100
AcDbEntity
  8
0
  6
Continuous
 62
     7
370
    25
100
AcDbLine
 10
381.6150598943688
 20
688.052731887215
 30
0.0
 11
381.0145132959343
 21
688.2713170207676
 31
0.0
  0
LINE
  5
3C5
330
1F
100
AcDbEntity
  8
0
  6
Continuous
 62
     7
370
    25
100
AcDbLine
 10
380.6558963627077
 20
680.2713157094654
 30
0.0
 11
381.0145132959343
 21
680.2713157094654
 31
0.0
  0
LINE
  5
3C6
330
1F
100
AcDbEntity
  8
0
  6
Continuous
 62
     7
370
    25
100
AcDbLine
 10
381.0145132959343
 20
688.2713170207676
 30
0.0
 11
380.6571685493446
 21
688.2713170207676
 31
0.0
  0
ARC
  5
3C7
330
1F
100
AcDbEntity
  8
0
  6
Continuous
 62
     7
370
    25
100
AcDbCircle
 10
381.546656091808
 20
687.8647976392244
 30
0.0
 40
0.2000000000000699
100
AcDbArc
 50
0.0000000000000001
 51
70.00000000003499
  0
ARC
  5
3C8
330
1F
100
AcDbEntity
  8
0
  6
Continuous
 62
     7
370
    25
100
AcDbCircle
 10
381.546656091808
 20
680.6778374213751
 30
0.0
 40
0.1999999999999318
100
AcDbArc
 50
289.9999999999881
 51
0.0000000000000001
  0
LINE
  5
3C9
330
1F
100
AcDbEntity
  8
0
  6
Continuous
 62
     7
370
    25
100
AcDbLine
 10
381.7466557741619
 20
680.6778342879948
 30
0.0
 11
381.7466557741619
 21
687.8647984422382
 31
0.0
  0
ARC
  5
3CA
330
1F
100
AcDbEntity
  8
0
  6
Continuous
 62
     7
370
    25
100
AcDbCircle
 10
379.1874416958162
 20
702.7713457577917
 30
0.0
 40
1.499966103984582
100
AcDbArc
 50
4.323465048301183
 51
91.18361222284598
  0
SPLINE
  5
3CB
330
1F
100
AcDbEntity
  8
0
  6
Continuous
 62
     7
370
    25
100
AcDbSpline
210
0.0
220
0.0
230
1.0
 70
     8
 71
     3
 72
    14
 73
    10
 74
     0
 42
0.000000001
 43
0.00000001
 40
0.0
 40
0.0
 40
0.0
 40
0.0
 40
0.25
 40
0.25
 40
0.5
 40
0.5
 40
0.75
 40
0.75
 40
1.0
 40
1.0
 40
1.0
 40
1.0
 10
351.3925066150003
 20
678.7333742281223
 30
0.0
 10
352.2572092951772
 20
678.4935709515942
 30
0.0
 10
353.1298650737165
 20
678.2537763863965
 30
0.0
 10
354.9083290753001
 20
677.8405376619467
 30
0.0
 10
355.807219195419
 20
677.6679528992123
 30
0.0
 10
357.6266491921599
 20
677.4214102903039
 30
0.0
 10
358.536717689997
 20
677.3488747819929
 30
0.0
 10
360.3437566554638
 20
677.273481131231
 30
0.0
 10
361.2427413905213
 20
677.2713175302998
 30
0.0
 10
362.1354959458481
 20
677.2713175302998
 30
0.0
  0
LWPOLYLINE
  5
3CC
330
1F
100
AcDbEntity
  8
0
  6
Continuous
 62
     7
370
    25
100
AcDbPolyline
 90
       12
 70
   128
 43
0.0
 10
351.3925066002167
 20
678.7333668626484
 10
348.5672469035245
 20
679.5168848193821
 10
345.8636724174477
 20
680.2666516460117
 10
343.3224134862877
 20
680.9714020646747
 10
340.9816608548618
 20
681.6205562509235
 10
338.8765887141682
 20
682.2043390430149
 10
337.0388359547115
 20
682.7140034593281
 10
335.4960181534744
 20
683.141860500687
 10
334.2713196546293
 20
683.4815026677784
 10
333.3831471175409
 20
683.7278039611515
 10
332.8448482573486
 20
683.8770986951527
 10
332.6645125419356
 20
683.9271069921192
  0
LINE
  5
3CD
330
1F
100
AcDbEntity
  8
0
  6
Continuous
 62
     7
370
    25
100
AcDbLine
 10
362.1354959689535
 20
677.2713245309528
 30
0.0
 11
380.6645110965229
 21
677.2713245309528
 31
0.0
  0
SPLINE
  5
3CE
330
1F
100
AcDbEntity
  8
0
  6
Continuous
 62
     7
370
    25
100
AcDbSpline
210
0.0
220
0.0
230
1.0
 70
     8
 71
     3
 72
    13
 73
     9
 74
     0
 42
0.000000001
 43
0.00000001
 40
0.0
 40
0.0
 40
0.0
 40
0.0
 40
0.1880809272473056
 40
0.3761415157148002
 40
0.5651125809611924
 40
0.7563628334166552
 40
0.9474995509168007
 40
1.0
 40
1.0
 40
1.0
 40
1.0
 10
380.3419400722242
 20
683.4835590280231
 30
0.0
 10
380.3343947063825
 20
683.9279387855655
 30
0.0
 10
380.3193047906431
 20
684.8166502461124
 30
0.0
 10
380.3907141211826
 20
686.1114207006029
 30
0.0
 10
380.5044497668779
 20
687.2093578568998
 30
0.0
 10
380.6113922293089
 20
687.9535684261411
 30
0.0
 10
380.6693805719453
 20
688.3009132358499
 30
0.0
 10
380.6593013640768
 20
688.2397121254141
 30
0.0
 10
380.6571294337965
 20
688.2265241302189
 30
0.0
  0
SPLINE
  5
3CF
330
1F
100
AcDbEntity
  8
0
  6
Continuous
 62
     7
370
    25
100
AcDbSpline
210
0.0
220
0.0
230
1.0
 70
     8
 71
     3
 72
    12
 73
     8
 74
     0
 42
0.000000001
 43
0.00000001
 40
0.0
 40
0.0
 40
0.0
 40
0.0
 40
0.0891701542936252
 40
0.3311645943393249
 40
0.5744330077639799
 40
0.8206178131120416
 40
1.0
 40
1.0
 40
1.0
 40
1.0
 10
380.6558777362562
 20
680.323559180611
 30
0.0
 10
380.6581732261626
 20
680.3096703767778
 30
0.0
 10
380.6666983317841
 20
680.2580894400425
 30
0.0
 10
380.604563644573
 20
680.6307132247193
 30
0.0
 10
380.497255646438
 20
681.3984217227007
 30
0.0
 10
380.3905903808416
 20
682.4158373220135
 30
0.0
 10
380.3563660753559
 20
683.1669534994578
 30
0.0
 10
380.3419400722242
 20
683.4835590280231
 30
0.0
  0
LINE
  5
3D0
330
1F
100
AcDbEntity
  8
0
  6
Continuous
 62
     7
370
    25
100
AcDbLine
 10
334.1645118564821
 20
704.271319643372
 30
0.0
 11
379.0618502319313
 21
704.271319643372
 31
0.0
  0
LINE
  5
3D1
330
1F
100
AcDbEntity
  8
0
  6
Continuous
 62
     7
370
    25
100
AcDbLine
 10
380.3645134687878
 20
379.4331134713825
 30
0.0
 11
332.9645120323158
 21
379.4331134713825
 31
0.0
  0
LINE
  5
3D2
330
1F
100
AcDbEntity
  8
0
  6
Continuous
 62
     7
370
    25
100
AcDbLine
 10
380.2614793897129
 20
674.2713184512791
 30
0.0
 11
333.0675461113907
 21
674.2713184512791
 31
0.0
  0
LINE
  5
3D3
330
1F
100
AcDbEntity
  8
0
  6
Continuous
 62
     7
370
    25
100
AcDbLine
 10
391.6645128995634
 20
655.4331065572437
 30
0.0
 11
471.9179612368799
 21
655.1529647267994
 31
0.0
  0
LINE
  5
3D4
330
1F
100
AcDbEntity
  8
0
  6
Continuous
 62
     7
370
    25
100
AcDbLine
 10
471.9179612368799
 20
627.7132437981304
 30
0.0
 11
391.6645128995634
 21
627.4331094182667
 31
0.0
  0
LINE
  5
3D5
330
1F
100
AcDbEntity
  8
0
  6
Continuous
 62
     7
370
    25
100
AcDbLine
 10
532.9845589369991
 20
635.6257752932247
 30
0.0
 11
539.5786803931453
 21
629.4766621149715
 31
0.0
  0
LINE
  5
3D6
330
1F
100
AcDbEntity
  8
0
  6
Continuous
 62
     7
370
    25
100
AcDbLine
 10
517.8714585274913
 20
612.4668003476795
 30
0.0
 11
514.4038540095546
 21
615.700397030228
 31
0.0
  0
ARC
  5
3D7
330
1F
100
AcDbEntity
  8
0
  6
Continuous
 62
     7
370
    25
100
AcDbCircle
 10
538.5556814623573
 20
628.3796312621923
 30
0.0
 40
1.50000000000007
100
AcDbArc
 50
307.0000000000045
 51
46.9999999999999
  0
LWPOLYLINE
  5
3D8
330
1F
100
AcDbEntity
  8
0
  6
Continuous
 62
     7
370
    25
100
AcDbPolyline
 90
       19
 70
   128
 43
0.0
 10
539.4583982199886
 20
627.1816746748623
 10
539.3090587825038
 20
627.0691336549457
 10
538.8655406207301
 20
626.7349304116901
 10
538.1413441867091
 20
626.1892051852878
 10
537.1584784955242
 20
625.4485578693088
 10
535.9467905730464
 20
624.5354817665752
 10
534.543101188586
 20
623.4777302898106
 10
532.9900574654796
 20
622.3074303425487
 10
531.3348513812282
 20
621.0601435459789
 10
529.6277892560222
 20
619.7737784541782
 10
527.9207271308162
 20
618.4874133623775
 10
526.2655210465648
 20
617.2401265658077
 10
524.7124773234584
 20
616.0698266185459
 10
523.308787938998
 20
615.0120751417812
 10
522.0971000165202
 20
614.0989990390476
 10
521.114219424174
 20
613.3583517230686
 10
520.3900378913143
 20
612.8126264966663
 10
519.9465197295406
 20
612.4784232534107
 10
519.7971802920558
 20
612.3658747829136
  0
ARC
  5
3D9
330
1F
100
AcDbEntity
  8
0
  6
Continuous
 62
     7
370
    25
100
AcDbCircle
 10
518.8944511549678
 20
613.5638315340551
 30
0.0
 40
1.50000000000007
100
AcDbArc
 50
227.0000000000007
 51
306.9999999999985
  0
LINE
  5
3DA
330
1F
100
AcDbEntity
  8
0
  6
Continuous
 62
     7
370
    25
100
AcDbLine
 10
527.0001184910991
 20
617.7936823524174
 30
0.0
 11
527.0302039355495
 21
617.7537546909984
 31
0.0
  0
LINE
  5
3DB
330
1F
100
AcDbEntity
  8
0
  6
Continuous
 62
     7
370
    25
100
AcDbLine
 10
528.6585432261684
 20
619.0434054888424
 30
0.0
 11
528.68864357178
 21
619.0034703768429
 31
0.0
  0
LWPOLYLINE
  5
3DC
330
1F
100
AcDbEntity
  8
0
  6
Continuous
 62
     7
370
    25
100
AcDbPolyline
 90
        9
 70
   128
 43
0.0
 10
528.68864357178
 20
619.0034703768429
 10
528.4795802802303
 20
618.8459353007015
 10
528.2706958026149
 20
618.6885268844303
 10
528.0621391505458
 20
618.5313643373188
 10
527.8540742367961
 20
618.3745817698177
 10
527.6466947764613
 20
618.2183058417972
 10
527.4401497811534
 20
618.0626632131275
 10
527.2345882624843
 20
617.9077656425175
 10
527.0302039355495
 20
617.7537546909984
  0
LINE
  5
3DD
330
1F
100
AcDbEntity
  8
0
  6
Continuous
 62
     7
370
    25
100
AcDbLine
 10
532.1827572554805
 20
621.6364757574734
 30
0.0
 11
532.606278058932
 21
621.9556288279232
 31
0.0
  0
LINE
  5
3DE
330
1F
100
AcDbEntity
  8
0
  6
Continuous
 62
     7
370
    25
100
AcDbLine
 10
532.1526569098689
 20
621.6764034188923
 30
0.0
 11
532.1827572554805
 21
621.6364757574734
 31
0.0
  0
LINE
  5
3DF
330
1F
100
AcDbEntity
  8
0
  6
Continuous
 62
     7
370
    25
100
AcDbLine
 10
532.5761926144817
 20
621.9955564893421
 30
0.0
 11
532.606278058932
 21
621.9556288279232
 31
0.0
  0
LINE
  5
3E0
330
1F
100
AcDbEntity
  8
0
  6
Continuous
 62
     7
370
    25
100
AcDbLine
 10
533.8822197884776
 20
622.979718581551
 30
0.0
 11
533.912305232928
 21
622.9397834695515
 31
0.0
  0
LWPOLYLINE
  5
3E1
330
1F
100
AcDbEntity
  8
0
  6
Continuous
 62
     7
370
    25
100
AcDbPolyline
 90
        9
 70
   128
 43
0.0
 10
533.912305232928
 20
622.9397834695515
 10
533.7623846501567
 20
622.8268103159603
 10
533.6083960503795
 20
622.7107824243244
 10
533.4504735440471
 20
622.5917743004497
 10
533.2887363404491
 20
622.4698977030453
 10
533.1233185500362
 20
622.3452420390781
 10
532.9543393820979
 20
622.2179116166767
 10
532.7819478482463
 20
622.0880032933887
 10
532.606278058932
 20
621.9556288279232
  0
LWPOLYLINE
  5
3E2
330
1F
100
AcDbEntity
  8
0
  6
Continuous
 62
     7
370
    25
100
AcDbPolyline
 90
        8
 70
   128
 43
0.0
 10
529.4246566266277
 20
619.620713726395
 10
529.8006874293544
 20
619.8123054064449
 10
531.1153423756816
 20
620.4821498550114
 10
532.2685134381511
 20
621.0697249926266
 10
533.1953805655696
 20
621.5419874943432
 10
533.8438343972423
 20
621.8723909414944
 10
534.1774415940502
 20
622.0423759378132
 10
534.2195820779064
 20
622.0638485110935
  0
LINE
  5
3E3
330
1F
100
AcDbEntity
  8
0
  6
Continuous
 62
     7
370
    25
100
AcDbLine
 10
523.4348815650203
 20
615.1070849455532
 30
0.0
 11
523.4649670094707
 21
615.0671572841343
 31
0.0
  0
LINE
  5
3E4
330
1F
100
AcDbEntity
  8
0
  6
Continuous
 62
     7
370
    25
100
AcDbLine
 10
524.0296912163951
 20
615.4927046455082
 30
0.0
 11
523.9996057719447
 21
615.5326323069271
 31
0.0
  0
LINE
  5
3E5
330
1F
100
AcDbEntity
  8
0
  6
Continuous
 62
     7
370
    25
100
AcDbLine
 10
523.4649670094707
 20
615.0671572841343
 30
0.0
 11
524.0296912163951
 21
615.4927046455082
 31
0.0
  0
LINE
  5
3E6
330
1F
100
AcDbEntity
  8
0
  6
Continuous
 62
     7
370
    25
100
AcDbLine
 10
522.3955255717494
 20
614.3238799132046
 30
0.0
 11
522.4256110161998
 21
614.283944801205
 31
0.0
  0
LWPOLYLINE
  5
3E7
330
1F
100
AcDbEntity
  8
0
  6
Continuous
 62
     7
370
    25
100
AcDbPolyline
 90
        9
 70
   128
 43
0.0
 10
523.4649670094707
 20
615.0671572841343
 10
523.3192336529949
 20
614.9573357261356
 10
523.177806732104
 20
614.8507626212772
 10
523.0407905549266
 20
614.747512475365
 10
522.9082894295909
 20
614.6476672447857
 10
522.7804225653865
 20
614.5513163365063
 10
522.6572942704418
 20
614.4585268057522
 10
522.5389939517238
 20
614.36938060891
 10
522.4256110161998
 20
614.283944801205
  0
LINE
  5
3E8
330
1F
100
AcDbEntity
  8
0
  6
Continuous
 62
     7
370
    25
100
AcDbLine
 10
456.6645142406679
 20
699.0993948138889
 30
0.0
 11
456.6645142406679
 21
693.4432418502506
 31
0.0
  0
LINE
  5
3E9
330
1F
100
AcDbEntity
  8
0
  6
Continuous
 62
     7
370
    25
100
AcDbLine
 10
381.0145132959343
 20
683.4835590280231
 30
0.0
 11
381.0145132959343
 21
688.2713170207676
 31
0.0
  0
LINE
  5
3EA
330
1F
100
AcDbEntity
  8
0
  6
Continuous
 62
     7
370
    25
100
AcDbLine
 10
381.0145132959343
 20
680.2713157094654
 30
0.0
 11
381.0145132959343
 21
683.4835590280231
 31
0.0
  0
LINE
  5
3EB
330
1F
100
AcDbEntity
  8
0
  6
Continuous
 62
     7
370
    25
100
AcDbLine
 10
536.0459279984691
 20
624.6101887382206
 30
0.0
 11
536.0760134429195
 21
624.5702610768017
 31
0.0
  0
LINE
  5
3EC
330
1F
100
AcDbEntity
  8
0
  6
Continuous
 62
     7
370
    25
100
AcDbLine
 10
535.8573687047221
 20
624.4680987156567
 30
0.0
 11
535.8874541491725
 21
624.4281710542377
 31
0.0
  0
LWPOLYLINE
  5
3ED
330
1F
100
AcDbEntity
  8
0
  6
Continuous
 62
     7
370
    25
100
AcDbPolyline
 90
        9
 70
   128
 43
0.0
 10
536.0760134429195
 20
624.5702610768017
 10
536.0730630130031
 20
624.5680333532032
 10
536.0641819209316
 20
624.5613427318272
 10
536.0493999690273
 20
624.5502041138348
 10
536.0287320584514
 20
624.5346249498066
 10
536.0021632880428
 20
624.5146126903232
 10
535.9697532624461
 20
624.4901822365459
 10
535.9315019816615
 20
624.461363390797
 10
535.8874541491725
 20
624.4281710542377
  0
LINE
  5
3EE
330
1F
100
AcDbEntity
  8
0
  6
Continuous
 62
     7
370
    25
100
AcDbLine
 10
535.0791108578899
 20
623.8816486157116
 30
0.0
 11
535.1092112035014
 21
623.8417135037121
 31
0.0
  0
LINE
  5
3EF
330
1F
100
AcDbEntity
  8
0
  6
Continuous
 62
     7
370
    25
100
AcDbLine
 10
535.1092112035014
 20
623.8417135037121
 30
0.0
 11
535.8874541491725
 21
624.4281710542377
 31
0.0
  0
LINE
  5
3F0
330
1F
100
AcDbEntity
  8
0
  6
Continuous
 62
     7
370
    25
100
AcDbLine
 10
521.2711733550288
 20
613.4766147888836
 30
0.0
 11
521.3012587994792
 21
613.4366796768841
 31
0.0
  0
LINE
  5
3F1
330
1F
100
AcDbEntity
  8
0
  6
Continuous
 62
     7
370
    25
100
AcDbLine
 10
522.0999014348247
 20
614.0385003246006
 30
0.0
 11
522.0698010892131
 21
614.0784279860195
 31
0.0
  0
LINE
  5
3F2
330
1F
100
AcDbEntity
  8
0
  6
Continuous
 62
     7
370
    25
100
AcDbLine
 10
521.3012587994792
 20
613.4366796768841
 30
0.0
 11
522.0999014348247
 21
614.0385003246006
 31
0.0
  0
LINE
  5
3F3
330
1F
100
AcDbEntity
  8
0
  6
Continuous
 62
     7
370
    25
100
AcDbLine
 10
522.2379755944469
 20
614.2051623619732
 30
0.0
 11
522.2680759400585
 21
614.1652272499737
 31
0.0
  0
LWPOLYLINE
  5
3F4
330
1F
100
AcDbEntity
  8
0
  6
Continuous
 62
     7
370
    25
100
AcDbPolyline
 90
        9
 70
   128
 43
0.0
 10
522.0999014348247
 20
614.0385003246006
 10
522.102538940356
 20
614.0404821790394
 10
522.1104514569499
 20
614.0464500940975
 10
522.1236389846065
 20
614.0563817180332
 10
522.1420717210033
 20
614.0702845014271
 10
522.1657645673015
 20
614.0881286419567
 10
522.1946728200176
 20
614.1099141396221
 10
522.2287815779903
 20
614.1356186426815
 10
522.2680759400585
 20
614.1652272499737
  0
LINE
  5
3F5
330
1F
100
AcDbEntity
  8
0
  6
Continuous
 62
     7
370
    25
100
AcDbLine
 10
534.2444819182613
 20
623.2527078546223
 30
0.0
 11
534.2745822638728
 21
623.2127801932033
 31
0.0
  0
LWPOLYLINE
  5
3F6
330
1F
100
AcDbEntity
  8
0
  6
Continuous
 62
     7
370
    25
100
AcDbPolyline
 90
        5
 70
   128
 43
0.0
 10
533.912305232928
 20
622.9397834695515
 10
533.9581263035991
 20
622.9743169106182
 10
534.0679478615978
 20
623.0570705093082
 10
534.1734629840114
 20
623.136575654858
 10
534.2745822638728
 20
623.2127801932033
  0
LINE
  5
3F7
330
1F
100
AcDbEntity
  8
0
  6
Continuous
 62
     7
370
    25
100
AcDbLine
 10
534.2745822638728
 20
623.2127801932033
 30
0.0
 11
534.9516612261989
 21
623.7229959524807
 31
0.0
  0
LINE
  5
3F8
330
1F
100
AcDbEntity
  8
0
  6
Continuous
 62
     7
370
    25
100
AcDbLine
 10
534.9215757817485
 20
623.7629310644802
 30
0.0
 11
534.9516612261989
 21
623.7229959524807
 31
0.0
  0
LINE
  5
3F9
330
1F
100
AcDbEntity
  8
0
  6
Continuous
 62
     7
370
    25
100
AcDbLine
 10
525.1644295424678
 20
616.4104001082119
 30
0.0
 11
525.1945298880794
 21
616.3704649962124
 31
0.0
  0
LWPOLYLINE
  5
3FA
330
1F
100
AcDbEntity
  8
0
  6
Continuous
 62
     7
370
    25
100
AcDbPolyline
 90
        9
 70
   128
 43
0.0
 10
524.0296912163951
 20
615.4927046455082
 10
524.1633993357875
 20
615.593466297501
 10
524.3007433385112
 20
615.6969548619923
 10
524.4415891141155
 20
615.8030883825954
 10
524.5858472556331
 20
615.9117923535046
 10
524.7333836526134
 20
616.0229699171718
 10
524.884093996928
 20
616.1365391172108
 10
525.0378441781261
 20
616.2524030960735
 10
525.1945298880794
 20
616.3704649962124
  0
LINE
  5
3FB
330
1F
100
AcDbEntity
  8
0
  6
Continuous
 62
     8
370
    18
100
AcDbLine
 10
380.555086281941
 20
702.7713240541157
 30
0.0
 11
332.6645125419356
 21
702.7713240541157
 31
0.0
  0
SPLINE
  5
3FC
330
1F
100
AcDbEntity
  8
0
  6
Continuous
 62
     8
370
    18
100
AcDbSpline
210
0.0
220
0.0
230
1.0
 70
     8
 71
     3
 72
    19
 73
    15
 74
     0
 42
0.000000001
 43
0.00000001
 40
0.0
 40
0.0
 40
0.0
 40
0.0
 40
0.0008811893202433
 40
0.070330752479066
 40
0.1402329484687632
 40
0.2095934671470067
 40
0.2796680649021059
 40
0.4200956544571088
 40
0.5625951851433867
 40
0.7054407802421727
 40
0.8460314356917814
 40
0.916106436064616
 40
0.9855142724333562
 40
1.0
 40
1.0
 40
1.0
 40
1.0
 10
380.6640677869774
 20
689.3421889699634
 30
0.0
 10
380.664216045112
 20
689.3416211661905
 30
0.0
 10
380.676049037104
 20
689.2963027928421
 30
0.0
 10
380.6337199606086
 20
689.4546399469481
 30
0.0
 10
380.5363231173656
 20
689.8424070520452
 30
0.0
 10
380.3804816233152
 20
690.5035937876154
 30
0.0
 10
380.1421886733594
 20
691.6633306034636
 30
0.0
 10
379.8483155335634
 20
693.5933020088934
 30
0.0
 10
379.6985065509709
 20
696.2858637279601
 30
0.0
 10
379.8484061558322
 20
698.983625519036
 30
0.0
 10
380.146966370144
 20
700.9032510667338
 30
0.0
 10
380.3848423220494
 20
702.0588417605734
 30
0.0
 10
380.4983659845489
 20
702.5396118500252
 30
0.0
 10
380.5467298122533
 20
702.7374600408557
 30
0.0
 10
380.5550806940056
 20
702.7716220773395
 30
0.0
  0
SPLINE
  5
3FD
330
1F
100
AcDbEntity
  8
0
  6
Continuous
 62
     8
370
    18
100
AcDbSpline
210
0.0
220
0.0
230
1.0
 70
     8
 71
     3
 72
    14
 73
    10
 74
     0
 42
0.000000001
 43
0.00000001
 40
0.0
 40
0.0
 40
0.0
 40
0.0
 40
0.25
 40
0.25
 40
0.5
 40
0.5
 40
0.75
 40
0.75
 40
1.0
 40
1.0
 40
1.0
 40
1.0
 10
379.0617830162274
 20
704.271317529855
 30
0.0
 10
379.2572167731287
 20
704.2713127486863
 30
0.0
 10
379.4525727331656
 20
704.2322783854034
 30
0.0
 10
379.8136920593329
 20
704.0820323451478
 30
0.0
 10
379.9793134220931
 20
703.970879749599
 30
0.0
 10
380.2557230722108
 20
703.6932643155225
 30
0.0
 10
380.3664026666819
 20
703.5269106440327
 30
0.0
 10
380.5160337602393
 20
703.1641782140493
 30
0.0
 10
380.5549264197176
 20
702.9679420932488
 30
0.0
 10
380.5549659428676
 20
702.7716208797615
 30
0.0
  0
LINE
  5
3FE
330
1F
100
AcDbEntity
  8
0
  6
Continuous
 62
     8
370
    18
100
AcDbLine
 10
332.6645125419356
 20
379.7331036485371
 30
0.0
 11
380.6645129591681
 21
379.7331036485371
 31
0.0
  0
SPLINE
  5
3FF
330
1F
100
AcDbEntity
  8
0
  6
Continuous
 62
     8
370
    18
100
AcDbSpline
210
0.0
220
0.0
230
1.0
 70
     8
 71
     3
 72
    30
 73
    26
 74
     0
 42
0.000000001
 43
0.00000001
 40
0.0
 40
0.0
 40
0.0
 40
0.0
 40
0.0339656880499535
 40
0.0877827545760899
 40
0.1443415862516795
 40
0.1732813984649756
 40
0.2029340538750996
 40
0.2454958363823844
 40
0.2875808958550387
 40
0.3297828501401257
 40
0.4020993995210513
 40
0.4373999047802523
 40
0.4727212058354357
 40
0.5465005464880148
 40
0.5711445731167453
 40
0.5960695761729903
 40
0.621439143525466
 40
0.6649818869385649
 40
0.7088397209538957
 40
0.7537303339002741
 40
0.8138067912626319
 40
0.872390866014149
 40
0.9274849423340874
 40
0.9810863637072333
 40
1.0
 40
1.0
 40
1.0
 40
1.0
 10
380.6188856035925
 20
622.5827218450245
 30
0.0
 10
380.6209674251575
 20
622.5790013488156
 30
0.0
 10
380.6263477969974
 20
622.5693858979191
 30
0.0
 10
380.1755786841974
 20
623.2685253148283
 30
0.0
 10
379.504247451198
 20
624.3370110620311
 30
0.0
 10
378.8169852381382
 20
625.4987668873674
 30
0.0
 10
378.1624709900706
 20
626.6568867494884
 30
0.0
 10
377.3732398680704
 20
628.1347536577586
 30
0.0
 10
376.4938129082763
 20
629.9813191962118
 30
0.0
 10
375.4724191083665
 20
632.4823284397005
 30
0.0
 10
374.6509555329584
 20
635.129564291661
 30
0.0
 10
374.1544751645761
 20
637.807603476275
 30
0.0
 10
373.8642487248885
 20
640.5790993733269
 30
0.0
 10
373.9184144512312
 20
643.2030328125517
 30
0.0
 10
374.2432877974994
 20
645.5479408767428
 30
0.0
 10
374.5157750406222
 20
646.9450966785099
 30
0.0
 10
374.9412351953926
 20
648.6478407622799
 30
0.0
 10
375.5674442212439
 20
650.6084263259208
 30
0.0
 10
376.4262226627144
 20
652.7382334639077
 30
0.0
 10
377.4604655399717
 20
654.9106223742109
 30
0.0
 10
378.5826567469304
 20
656.991414421252
 30
0.0
 10
379.6334192771819
 20
658.7357549905877
 30
0.0
 10
380.339930130973
 20
659.858768460107
 30
0.0
 10
380.6780549479741
 20
660.3733159435985
 30
0.0
 10
380.6310416175465
 20
660.301945350635
 30
0.0
 10
380.618779432819
 20
660.2833302177128
 30
0.0
  0
LINE
  5
400
330
1F
100
AcDbEntity
  8
0
  6
Continuous
 62
     8
370
    18
100
AcDbLine
 10
380.6645129591681
 20
673.7713248885807
 30
0.0
 11
332.6645125419356
 21
673.7713248885807
 31
0.0
  0
LINE
  5
401
330
1F
100
AcDbEntity
  8
0
  6
Continuous
 62
     8
370
    18
100
AcDbLine
 10
332.8887824684836
 20
674.5609970248875
 30
0.0
 11
380.4402430326201
 21
674.5609970248875
 31
0.0
  0
SPLINE
  5
402
330
1F
100
AcDbEntity
  8
0
  6
Continuous
 62
     8
370
    18
100
AcDbSpline
210
0.0
220
0.0
230
1.0
 70
     8
 71
     3
 72
    40
 73
    36
 74
     0
 42
0.000000001
 43
0.00000001
 40
0.0
 40
0.0
 40
0.0
 40
0.0
 40
0.021619496678753
 40
0.0810110341387989
 40
0.1017751400198955
 40
0.1230505316863935
 40
0.144862412175906
 40
0.1788522601216397
 40
0.2217550624115363
 40
0.2735955537968403
 40
0.3116648430697579
 40
0.3382831499834045
 40
0.3715900979866072
 40
0.4010239444639208
 40
0.4627703209988692
 40
0.4919999334685424
 40
0.5214661945347182
 40
0.5783215700105641
 40
0.5991081796563407
 40
0.6208538747873863
 40
0.643588367775261
 40
0.6568608970878768
 40
0.6719758206472901
 40
0.6889355946333386
 40
0.707741616106549
 40
0.7524383247699691
 40
0.7655540029705807
 40
0.7685558373141496
 40
0.7708726746953922
 40
0.7725043404707159
 40
0.8416594259665016
 40
0.8721916076761237
 40
0.900053138629746
 40
0.961883497138877
 40
0.9999999999999999
 40
0.9999999999999999
 40
0.9999999999999999
 40
0.9999999999999999
 10
385.5822928965546
 20
655.3505541242298
 30
0.0
 10
385.5934035103853
 20
655.3671839609586
 30
0.0
 10
385.6350364091392
 20
655.4294980976368
 30
0.0
 10
385.4194953551776
 20
655.1040326710516
 30
0.0
 10
385.1452791948049
 20
654.6719749951104
 30
0.0
 10
384.9345852824371
 20
654.3356561138252
 30
0.0
 10
384.6452089033694
 20
653.8638595131634
 30
0.0
 10
384.206170615673
 20
653.1547788012193
 30
0.0
 10
383.5727265830967
 20
652.0560916232726
 30
0.0
 10
382.8732767910484
 20
650.7228857981653
 30
0.0
 10
382.2521063320144
 20
649.4092883465675
 30
0.0
 10
381.7473012076356
 20
648.2231002110391
 30
0.0
 10
381.3248380173287
 20
647.0715009996416
 30
0.0
 10
380.8102792094461
 20
645.3783887392902
 30
0.0
 10
380.4733228107958
 20
643.6119743770687
 30
0.0
 10
380.3538196315598
 20
641.7959688301205
 30
0.0
 10
380.3844196211999
 20
640.0453535474461
 30
0.0
 10
380.621462256878
 20
638.4469140525135
 30
0.0
 10
380.9588025753329
 20
637.0414046514088
 30
0.0
 10
381.2169979800529
 20
636.1464259052424
 30
0.0
 10
381.474851561171
 20
635.3844198333312
 30
0.0
 10
381.7212188069539
 20
634.7333705473061
 30
0.0
 10
381.94812988972
 20
634.1718349252343
 30
0.0
 10
382.2098544121654
 20
633.5622894787806
 30
0.0
 10
382.6343429389786
 20
632.6366559291951
 30
0.0
 10
383.0425820108117
 20
631.8187778567161
 30
0.0
 10
383.3638150033207
 20
631.223661494148
 30
0.0
 10
383.4607025215745
 20
631.0478673956999
 30
0.0
 10
383.4971199373933
 20
630.9821420338202
 30
0.0
 10
383.8761820563542
 20
630.294665254876
 30
0.0
 10
384.3639534981557
 20
629.4464554925564
 30
0.0
 10
384.877925737529
 20
628.618027860761
 30
0.0
 10
385.2793073149697
 20
627.9864272166916
 30
0.0
 10
385.5882555037282
 20
627.5030103356651
 30
0.0
 10
385.5840293950506
 20
627.5120341830168
 30
0.0
 10
385.5824176937796
 20
627.5154755867657
 30
0.0
  0
SPLINE
  5
403
330
1F
100
AcDbEntity
  8
0
  6
Continuous
 62
     8
370
    18
100
AcDbSpline
210
0.0
220
0.0
230
1.0
 70
    24
 71
     3
 72
    15
 73
    11
 74
     0
 42
0.000000001
 43
0.00000001
 40
0.5
 40
0.5
 40
0.5
 40
0.5
 40
0.5625
 40
0.625
 40
0.6875
 40
0.75
 40
0.8125
 40
0.875
 40
0.9375
 40
1.0
 40
1.0
 40
1.0
 40
1.0
 10
514.4038493370921
 20
615.7003942834134
 30
0.0
 10
514.4038493370921
 20
615.7003942834134
 30
0.0
 10
514.88713916276
 20
616.2186591703331
 30
0.0
 10
516.9537406410313
 20
618.4348179317223
 30
0.0
 10
520.0462288425032
 20
621.751105515101
 30
0.0
 10
523.6942072262646
 20
625.6630833886934
 30
0.0
 10
527.3421856100242
 20
629.5750612622834
 30
0.0
 10
530.4346738114975
 20
632.891348845664
 30
0.0
 10
532.5012752897679
 20
635.107507607052
 30
0.0
 10
532.9845651154363
 20
635.625772493972
 30
0.0
 10
532.9845651154363
 20
635.625772493972
 30
0.0
  0
SPLINE
  5
404
330
1F
100
AcDbEntity
  8
0
  6
Continuous
 62
     8
370
    18
100
AcDbSpline
210
0.0
220
0.0
230
1.0
 70
    24
 71
     3
 72
    22
 73
    18
 74
     0
 42
0.000000001
 43
0.00000001
 40
0.0
 40
0.0
 40
0.0
 40
0.0
 40
0.1249999999999995
 40
0.1249999999999995
 40
0.249999999999999
 40
0.249999999999999
 40
0.3749999999999985
 40
0.3749999999999985
 40
0.499999999999998
 40
0.499999999999998
 40
0.6249999999999984
 40
0.6249999999999984
 40
0.749999999999999
 40
0.749999999999999
 40
0.8749999999999994
 40
0.8749999999999994
 40
1.0
 40
1.0
 40
1.0
 40
1.0
 10
471.9179628068342
 20
627.7132465134705
 30
0.0
 10
471.9179628068342
 20
627.7132465134705
 30
0.0
 10
471.9179628068342
 20
628.0703377841277
 30
0.0
 10
471.9179628068342
 20
629.4448797814193
 30
0.0
 10
471.9179628068342
 20
630.4617896844735
 30
0.0
 10
471.9179628068342
 20
633.0016121202233
 30
0.0
 10
471.9179628068342
 20
634.523525341246
 30
0.0
 10
471.9179628068342
 20
637.8419632731587
 30
0.0
 10
471.9179628068342
 20
639.6371823204267
 30
0.0
 10
471.9179628068342
 20
643.2290336550836
 30
0.0
 10
471.9179628068341
 20
645.0242527023516
 30
0.0
 10
471.9179628068341
 20
648.3426906342644
 30
0.0
 10
471.9179628068342
 20
649.8646038552871
 30
0.0
 10
471.9179628068342
 20
652.4044262910369
 30
0.0
 10
471.9179628068342
 20
653.4213361940912
 30
0.0
 10
471.9179628068342
 20
654.7958781913828
 30
0.0
 10
471.9179628068342
 20
655.1529694620399
 30
0.0
 10
471.9179628068342
 20
655.1529694620399
 30
0.0
  0
LINE
  5
405
330
1F
100
AcDbEntity
  8
0
  6
Continuous
 62
     8
370
    18
100
AcDbLine
 10
391.6645128995634
 20
655.4331065572437
 30
0.0
 11
391.6645128995634
 21
627.4331094182667
 31
0.0
  0
LWPOLYLINE
  5
406
330
1F
100
AcDbEntity
  8
0
  6
Continuous
 62
     8
370
    18
100
AcDbPolyline
 90
       20
 70
   128
 43
0.0
 10
517.8714585274913
 20
612.4668003476795
 10
518.019486662791
 20
612.582798436993
 10
518.4595328540065
 20
612.9276187575992
 10
519.1796016663768
 20
613.4918661273655
 10
520.1600384682872
 20
614.2601476467785
 10
521.374110576556
 20
615.2114973820385
 10
522.7887076110103
 20
616.319972411507
 10
524.365220662997
 20
617.5553382791218
 10
526.0606598824718
 20
618.8838960088428
 10
527.8287869662502
 20
620.2693985260662
 10
529.6213519543865
 20
621.6740639365848
 10
531.3894641370036
 20
623.0595664538082
 10
533.0849182576396
 20
624.3881241835293
 10
534.6614313096263
 20
625.623490051144
 10
536.0760134429195
 20
626.7319650806126
 10
537.2900855511882
 20
627.6833148158726
 10
538.2705372542598
 20
628.4515963352856
 10
538.9906060666301
 20
629.0158437050518
 10
539.4306522578456
 20
629.360664025658
 10
539.5786803931453
 20
629.4766621149715
  0
LWPOLYLINE
  5
407
330
1F
100
AcDbEntity
  8
0
  6
Continuous
 62
     8
370
    18
100
AcDbPolyline
 90
        5
 70
   128
 43
0.0
 10
380.6388773739792
 20
702.8820992864307
 10
380.665123906777
 20
702.9166997827228
 10
380.5550974578119
 20
702.7716369785007
 10
380.5550918698765
 20
702.7716220773395
 10
380.5550918698765
 20
702.7716220773395
  0
SPLINE
  5
408
330
1F
100
AcDbEntity
  8
0
  6
Continuous
 62
     8
370
    18
100
AcDbSpline
210
0.0
220
0.0
230
1.0
 70
     8
 71
     3
 72
    20
 73
    16
 74
     0
 42
0.000000001
 43
0.00000001
 40
0.0
 40
0.0
 40
0.0
 40
0.0
 40
0.0634611325105134
 40
0.1315871942285735
 40
0.2590660627534
 40
0.3312232171615004
 40
0.3953673313895607
 40
0.4994237161914912
 40
0.6035621284299301
 40
0.6675245775377462
 40
0.7393523874195784
 40
0.8667096152696244
 40
0.9349276691165582
 40
0.9991460460497427
 40
0.9999999999999999
 40
0.9999999999999999
 40
0.9999999999999999
 40
0.9999999999999999
 10
383.1369639158703
 20
700.7241131223377
 30
0.0
 10
383.1322474243734
 20
700.7071447602086
 30
0.0
 10
383.1224677394208
 20
700.6719607180258
 30
0.0
 10
383.0271467129881
 20
700.2923009040555
 30
0.0
 10
382.8562815146652
 20
699.5617642807143
 30
0.0
 10
382.700281610078
 20
698.5761279654226
 30
0.0
 10
382.5885146868269
 20
697.556139787675
 30
0.0
 10
382.5102045098787
 20
696.278943479681
 30
0.0
 10
382.5870471796188
 20
695.0020118891106
 30
0.0
 10
382.6981566892135
 20
693.9815768502984
 30
0.0
 10
382.8527401163114
 20
692.9978778388854
 30
0.0
 10
383.0280017836982
 20
692.2480071025083
 30
0.0
 10
383.1153222785626
 20
691.897351985221
 30
0.0
 10
383.1449679931428
 20
691.7880530960997
 30
0.0
 10
383.1370161154883
 20
691.8183200590071
 30
0.0
 10
383.1369117618061
 20
691.8187172568973
 30
0.0
  0
LINE
  5
409
330
1F
100
AcDbEntity
  8
0
  6
Continuous
 62
     8
370
    18
100
AcDbLine
 10
455.1671338052012
 20
696.2713183320698
 30
0.0
 11
455.1671338052012
 21
700.5994053043064
 31
0.0
  0
LINE
  5
40A
330
1F
100
AcDbEntity
  8
0
  6
Continuous
 62
     8
370
    18
100
AcDbLine
 10
455.1671338052012
 20
691.9432313598331
 30
0.0
 11
455.1671338052012
 21
696.2713183320698
 31
0.0
  0
LINE
  5
40B
330
1F
100
AcDbEntity
  8
0
  6
Continuous
 62
     8
370
    18
100
AcDbLine
 10
381.6150598943688
 20
680.489900843018
 30
0.0
 11
381.6150598943688
 21
688.052731887215
 31
0.0
  0
SPLINE
  5
40C
330
1F
100
AcDbEntity
  8
0
  6
Continuous
 62
     7
370
    25
100
AcDbSpline
210
0.0
220
0.0
230
1.0
 70
     8
 71
     3
 72
    15
 73
    11
 74
     0
 42
0.000000001
 43
0.00000001
 40
0.0
 40
0.0
 40
0.0
 40
0.0
 40
0.0854968294457007
 40
0.1737352403381267
 40
0.2676066174669237
 40
0.3717339388071332
 40
0.4920532733018035
 40
0.6344161307260981
 40
0.803023132874615
 40
0.9999999999999999
 40
0.9999999999999999
 40
0.9999999999999999
 40
0.9999999999999999
 10
180.9514052915483
 20
256.6360126044414
 30
0.0
 10
180.9620547945258
 20
256.8199710611118
 30
0.0
 10
180.9836952924397
 20
257.1937868726346
 30
0.0
 10
181.1458578871185
 20
257.7260082176114
 30
0.0
 10
181.371287541277
 20
258.2011396223767
 30
0.0
 10
181.6147167687868
 20
258.5884445340609
 30
0.0
 10
181.7997961209184
 20
258.867024580518
 30
0.0
 10
181.843654731368
 20
259.0256240364238
 30
0.0
 10
181.6799115721224
 20
259.0654643679418
 30
0.0
 10
181.3420711692982
 20
259.0026515889416
 30
0.0
 10
181.1600425030201
 20
258.9688080157897
 30
0.0
  0
SPLINE
  5
40D
330
1F
100
AcDbEntity
  8
0
  6
Continuous
 62
     7
370
    25
100
AcDbSpline
210
0.0
220
0.0
230
1.0
 70
     8
 71
     3
 72
    15
 73
    11
 74
     0
 42
0.000000001
 43
0.00000001
 40
0.0
 40
0.0
 40
0.0
 40
0.0
 40
0.1485099352220998
 40
0.2851187728174735
 40
0.4109977045083003
 40
0.5288714050119129
 40
0.643120372249796
 40
0.7584585513397691
 40
0.8776320171637481
 40
1.0
 40
1.0
 40
1.0
 40
1.0
 10
171.8102474446505
 20
258.9733435567281
 30
0.0
 10
171.6380317374149
 20
259.0084242979335
 30
0.0
 10
171.3074011231503
 20
259.0757745251561
 30
0.0
 10
171.0672103974351
 20
259.1098038128792
 30
0.0
 10
171.0271018255132
 20
259.0533701834408
 30
0.0
 10
171.1684313441424
 20
258.8722938327919
 30
0.0
 10
171.4336168001067
 20
258.5368068724005
 30
0.0
 10
171.7333796018297
 20
258.0343082021841
 30
0.0
 10
171.9853678852813
 20
257.3855023967905
 30
0.0
 10
172.0227761605467
 20
256.8880356247544
 30
0.0
 10
172.0417276705711
 20
256.6360126044414
 30
0.0
  0
LINE
  5
40E
330
1F
100
AcDbEntity
  8
0
  6
Continuous
 62
     7
370
    25
100
AcDbLine
 10
172.0417272049098
 20
256.6360144670865
 30
0.0
 11
172.1684857952505
 21
184.0087438728473
 31
0.0
  0
LINE
  5
40F
330
1F
100
AcDbEntity
  8
0
  6
Continuous
 62
     7
370
    25
100
AcDbLine
 10
180.8246467012077
 20
184.0087438728473
 30
0.0
 11
180.9515803801923
 21
256.7363309468886
 31
0.0
  0
ARC
  5
410
330
1F
100
AcDbEntity
  8
0
  6
Continuous
 62
     7
370
    25
100
AcDbCircle
 10
179.324648857713
 20
184.0113649274967
 30
0.0
 40
1.500000000000012
100
AcDbArc
 50
270.0000000000008
 51
359.9000000000002
  0
ARC
  5
411
330
1F
100
AcDbEntity
  8
0
  6
Continuous
 62
     7
370
    25
100
AcDbCircle
 10
173.6684836387453
 20
184.0113649274967
 30
0.0
 40
1.500000000000012
100
AcDbArc
 50
180.1000000000014
 51
270.0000000000008
  0
SPLINE
  5
412
330
1F
100
AcDbEntity
  8
0
  6
Continuous
 62
     7
370
    25
100
AcDbSpline
210
0.0
220
0.0
230
1.0
 70
     8
 71
     3
 72
    11
 73
     7
 74
     0
 42
0.000000001
 43
0.00000001
 40
0.0
 40
0.0
 40
0.0
 40
0.0
 40
0.2462154435895105
 40
0.4981715519541468
 40
0.7510568144394834
 40
1.0
 40
1.0
 40
1.0
 40
1.0
 10
190.456883956781
 20
258.808011447992
 30
0.0
 10
190.4885179209753
 20
259.4015754883638
 30
0.0
 10
190.5525234147307
 20
260.6025428804382
 30
0.0
 10
191.1012016685582
 20
262.3267510149632
 30
0.0
 10
191.9401629667108
 20
263.92168481482
 30
0.0
 10
192.7360369476009
 20
264.7835218471098
 30
0.0
 10
193.1308479729205
 20
265.2110553141496
 30
0.0
  0
SPLINE
  5
413
330
1F
100
AcDbEntity
  8
0
  6
Continuous
 62
     7
370
    25
100
AcDbSpline
210
0.0
220
0.0
230
1.0
 70
     8
 71
     3
 72
    11
 73
     7
 74
     0
 42
0.000000001
 43
0.00000001
 40
0.0
 40
0.0
 40
0.0
 40
0.0
 40
0.2490850214673911
 40
0.5020028819995064
 40
0.7539025257668827
 40
0.9999999999999999
 40
0.9999999999999999
 40
0.9999999999999999
 40
0.9999999999999999
 10
159.8667977127343
 20
265.2067190762422
 30
0.0
 10
160.2608280683334
 20
264.7800829118757
 30
0.0
 10
161.0549519901204
 20
263.9202456450042
 30
0.0
 10
161.8927187318767
 20
262.3263192677039
 30
0.0
 10
162.4407032336394
 20
260.6026709090352
 30
0.0
 10
162.5046752484455
 20
259.4015391500594
 30
0.0
 10
162.5362885865479
 20
258.8079704697988
 30
0.0
  0
LINE
  5
414
330
1F
100
AcDbEntity
  8
0
  6
Continuous
 62
     7
370
    25
100
AcDbLine
 10
190.4965666803627
 20
247.511364778485
 30
0.0
 11
190.4566175985246
 21
258.9557471480033
 31
0.0
  0
LINE
  5
415
330
1F
100
AcDbEntity
  8
0
  6
Continuous
 62
     7
370
    25
100
AcDbLine
 10
162.5365148979335
 20
258.9557471480033
 30
0.0
 11
162.4965658160954
 21
247.511364778485
 31
0.0
  0
LINE
  5
416
330
1F
100
AcDbEntity
  8
0
  6
Continuous
 62
     7
370
    25
100
AcDbLine
 10
162.4965658160954
 20
247.511364778485
 30
0.0
 11
162.7768417569905
 21
167.2187934424541
 31
0.0
  0
LINE
  5
417
330
1F
100
AcDbEntity
  8
0
  6
Continuous
 62
     7
370
    25
100
AcDbLine
 10
190.2162907394677
 20
167.2187934424541
 30
0.0
 11
190.4965666803627
 21
247.511364778485
 31
0.0
  0
SPLINE
  5
418
330
1F
100
AcDbEntity
  8
0
  6
Continuous
 62
     7
370
    25
100
AcDbSpline
210
0.0
220
0.0
230
1.0
 70
     8
 71
     3
 72
    16
 73
    12
 74
     0
 42
0.000000001
 43
0.00000001
 40
0.0
 40
0.0
 40
0.0
 40
0.0
 40
0.1425456243658565
 40
0.2674361566667801
 40
0.3774040143163601
 40
0.475373102627923
 40
0.5645171247978032
 40
0.6687582808370635
 40
0.7716225238691022
 40
0.8799749771924202
 40
1.0
 40
1.0
 40
1.0
 40
1.0
 10
162.7762252214461
 20
167.2579164411685
 30
0.0
 10
162.785324949285
 20
164.6021159182687
 30
0.0
 10
162.8023973515478
 20
159.6194509793925
 30
0.0
 10
162.8239765370406
 20
152.5921143132842
 30
0.0
 10
162.8408424521523
 20
146.4115589109112
 30
0.0
 10
162.853460658763
 20
140.9357823527119
 30
0.0
 10
162.8631198155761
 20
135.6555008187531
 30
0.0
 10
162.8696248182043
 20
130.4680163862923
 30
0.0
 10
162.8729481804249
 20
125.3042948769623
 30
0.0
 10
162.8738858966858
 20
120.2980070507222
 30
0.0
 10
162.8738502741652
 20
117.1409039069495
 30
0.0
 10
162.8738315525561
 20
115.4816712047717
 30
0.0
  0
SPLINE
  5
419
330
1F
100
AcDbEntity
  8
0
  6
Continuous
 62
     7
370
    25
100
AcDbSpline
210
0.0
220
0.0
230
1.0
 70
     8
 71
     3
 72
    16
 73
    12
 74
     0
 42
0.000000001
 43
0.00000001
 40
0.0
 40
0.0
 40
0.0
 40
0.0
 40
0.1200250220467929
 40
0.2283774746833115
 40
0.3312417170633383
 40
0.4354828724418588
 40
0.5246268940466936
 40
0.6225959817372727
 40
0.732563850807161
 40
0.8574543765376788
 40
1.0
 40
1.0
 40
1.0
 40
1.0
 10
190.1193009439021
 20
115.4816712047717
 30
0.0
 10
190.1192822222926
 20
117.1409039068206
 30
0.0
 10
190.1192465997713
 20
120.298007050348
 30
0.0
 10
190.120184316037
 20
125.3042948782632
 30
0.0
 10
190.1235076782405
 20
130.4680163816479
 30
0.0
 10
190.1300126809294
 20
135.6555008353056
 30
0.0
 10
190.1396718375404
 20
140.9357822986815
 30
0.0
 10
190.1522900454997
 20
146.4115593712502
 30
0.0
 10
190.1691559573718
 20
152.5921135959341
 30
0.0
 10
190.190735145892
 20
159.6194513038557
 30
0.0
 10
190.2078075473862
 20
164.6021159936465
 30
0.0
 10
190.2169072750121
 20
167.2579164411685
 30
0.0
  0
LINE
  5
41A
330
1F
100
AcDbEntity
  8
0
  6
Continuous
 62
     7
370
    25
100
AcDbLine
 10
190.1188250380664
 20
110.4508156683109
 30
0.0
 11
190.1188250380664
 21
115.4816712047717
 31
0.0
  0
LINE
  5
41B
330
1F
100
AcDbEntity
  8
0
  6
Continuous
 62
     7
370
    25
100
AcDbLine
 10
162.8743074583917
 20
115.4816712047717
 30
0.0
 11
162.8743074583917
 21
110.4508156683109
 31
0.0
  0
SPLINE
  5
41C
330
1F
100
AcDbEntity
  8
0
  6
Continuous
 62
     7
370
    25
100
AcDbSpline
210
0.0
220
0.0
230
1.0
 70
     8
 71
     3
 72
    18
 73
    14
 74
     0
 42
0.000000001
 43
0.00000001
 40
0.0
 40
0.0
 40
0.0
 40
0.0
 40
0.0250430582395818
 40
0.1215247581386775
 40
0.2178813670759797
 40
0.3143844133862866
 40
0.4112180839046275
 40
0.5084139006465278
 40
0.605883956934976
 40
0.7034799371017604
 40
0.801058552720895
 40
0.8985894236021155
 40
1.0
 40
1.0
 40
1.0
 40
1.0
 10
162.9050308588057
 20
110.3857124950549
 30
0.0
 10
162.8969405039172
 20
110.2361842857662
 30
0.0
 10
162.8576809849049
 20
109.5105788387444
 30
0.0
 10
163.1030636578201
 20
108.2134207541124
 30
0.0
 10
163.6440551688349
 20
106.548346122019
 30
0.0
 10
164.5041472911621
 20
104.9767194564436
 30
0.0
 10
165.6325683739245
 20
103.5322997905268
 30
0.0
 10
167.01356229593
 20
102.2465602678681
 30
0.0
 10
168.6140656913693
 20
101.1494201768812
 30
0.0
 10
170.3976631853014
 20
100.2650466830491
 30
0.0
 10
172.3222591657318
 20
99.6204498457515
 30
0.0
 10
174.3698452992268
 20
99.20055855641866
 30
0.0
 10
175.7785021758269
 20
99.14732968009449
 30
0.0
 10
176.4965662482293
 20
99.120196213927
 30
0.0
  0
SPLINE
  5
41D
330
1F
100
AcDbEntity
  8
0
  6
Continuous
 62
     7
370
    25
100
AcDbSpline
210
0.0
220
0.0
230
1.0
 70
     8
 71
     3
 72
    18
 73
    14
 74
     0
 42
0.000000001
 43
0.00000001
 40
0.0
 40
0.0
 40
0.0
 40
0.0
 40
0.0524136990378652
 40
0.1492948156343072
 40
0.2464135820879749
 40
0.3437720550255681
 40
0.4413932804166482
 40
0.5392285371131278
 40
0.6371210172481941
 40
0.7348087489325068
 40
0.8320595102155107
 40
0.9287329504347162
 40
1.0
 40
1.0
 40
1.0
 40
1.0
 10
176.4965662482291
 20
99.120196213927
 30
0.0
 10
176.870037477866
 20
99.12785595549289
 30
0.0
 10
177.9338303296752
 20
99.14967391007102
 30
0.0
 10
179.6745253110972
 20
99.38879927180197
 30
0.0
 10
181.6578681359166
 20
99.91354513409942
 30
0.0
 10
183.5261353654955
 20
100.6880594340356
 30
0.0
 10
185.2349628457053
 20
101.6922910686849
 30
0.0
 10
186.7431991060484
 20
102.9065197931181
 30
0.0
 10
188.0114475228628
 20
104.3030554944372
 30
0.0
 10
189.0103917016274
 20
105.8480088184223
 30
0.0
 10
189.700632965088
 20
107.5019630987723
 30
0.0
 10
190.0820630812781
 20
109.0743221576828
 30
0.0
 10
190.0863025718805
 20
110.0864242587339
 30
0.0
 10
190.0881016376524
 20
110.5159188415668
 30
0.0
  0
SPLINE
  5
41E
330
1F
100
AcDbEntity
  8
0
  6
Continuous
 62
     7
370
    25
100
AcDbSpline
210
0.0
220
0.0
230
1.0
 70
     8
 71
     3
 72
    16
 73
    12
 74
     0
 42
0.000000001
 43
0.00000001
 40
0.0
 40
0.0
 40
0.0
 40
0.0
 40
0.2500000000000001
 40
0.2500000000000001
 40
0.5000000000000002
 40
0.5000000000000002
 40
0.7500000000000002
 40
0.7500000000000002
 40
0.8750000000000001
 40
0.8750000000000001
 40
1.0
 40
1.0
 40
1.0
 40
1.0
 10
178.7846408447854
 20
258.6207787176858
 30
0.0
 10
178.4077427197011
 20
258.5848844911994
 30
0.0
 10
178.0262087192929
 20
258.5532055091605
 30
0.0
 10
177.2651832997742
 20
258.5093239550777
 30
0.0
 10
176.8837030375823
 20
258.4968693139961
 30
0.0
 10
176.1184111657673
 20
258.4967075277399
 30
0.0
 10
175.7336366052948
 20
258.5090219970503
 30
0.0
 10
175.1597102837134
 20
258.5419962598616
 30
0.0
 10
174.9688685207138
 20
258.5553580202382
 30
0.0
 10
174.5879754858246
 20
258.5857080227362
 30
0.0
 10
174.3966252040057
 20
258.6028229577509
 30
0.0
 10
174.2081801158459
 20
258.6207861795161
 30
0.0
  0
ARC
  5
41F
330
1F
100
AcDbEntity
  8
0
  6
Continuous
 62
     7
370
    25
100
AcDbCircle
 10
176.4965662482292
 20
282.5113649274966
 30
0.0
 40
24.0
100
AcDbArc
 50
275.4730792506111
 51
264.5265628846585
  0
LINE
  5
420
330
1F
100
AcDbEntity
  8
0
  6
Continuous
 62
     7
370
    25
100
AcDbLine
 10
179.324648783645
 20
182.5113634373805
 30
0.0
 11
173.6684839456438
 21
182.5113634373805
 31
0.0
  0
ELLIPSE
  5
421
330
1F
100
AcDbEntity
  8
0
  6
Continuous
 62
     7
370
    25
100
AcDbEllipse
 10
176.4965662482291
 20
110.450811369386
 30
0.0
 11
13.62225840003609
 21
0.0
 31
0.0
210
0.0
220
0.0
230
1.0
 40
0.7967557489409944
 41
3.141592653589793
 42
4.712388980384714
  0
SPLINE
  5
422
330
1F
100
AcDbEntity
  8
0
  6
Continuous
 62
     8
370
    18
100
AcDbSpline
210
0.0
220
0.0
230
1.0
 70
     8
 71
     3
 72
    10
 73
     6
 74
     0
 42
0.000000001
 43
0.00000001
 40
0.0
 40
0.0
 40
0.0
 40
0.0
 40
0.5
 40
0.5
 40
1.0
 40
1.0
 40
1.0
 40
1.0
 10
174.3496497084345
 20
260.1141003310437
 30
0.0
 10
175.0652902893311
 20
260.045833315163
 30
0.0
 10
175.7809308145681
 20
259.9879902739303
 30
0.0
 10
177.2122112476437
 20
259.9879310418318
 30
0.0
 10
177.9278511544452
 20
260.0459090672356
 30
0.0
 10
178.64349100659
 20
260.114123258341
 30
0.0
  0
SPLINE
  5
423
330
1F
100
AcDbEntity
  8
0
  6
Continuous
 62
     8
370
    18
100
AcDbSpline
210
0.0
220
0.0
230
1.0
 70
    24
 71
     3
 72
    14
 73
    10
 74
     0
 42
0.000000001
 43
0.00000001
 40
0.0
 40
0.0
 40
0.0
 40
0.0
 40
0.25
 40
0.25
 40
0.5
 40
0.5
 40
0.75
 40
0.75
 40
1.0
 40
1.0
 40
1.0
 40
1.0
 10
178.7852327253285
 20
258.6208351124926
 30
0.0
 10
178.785228249076
 20
258.6208820855232
 30
0.0
 10
178.7815214760287
 20
258.6597803305086
 30
0.0
 10
178.7672618557976
 20
258.8094183563801
 30
0.0
 10
178.7567146152937
 20
258.9200993017207
 30
0.0
 10
178.7303744830251
 20
259.196508163245
 30
0.0
 10
178.7145919478261
 20
259.3621273993921
 30
0.0
 10
178.6801799788538
 20
259.7232407404132
 30
0.0
 10
178.6615640753777
 20
259.9185928606529
 30
0.0
 10
178.6429407321163
 20
260.1140230527328
 30
0.0
  0
SPLINE
  5
424
330
1F
100
AcDbEntity
  8
0
  6
Continuous
 62
     8
370
    18
100
AcDbSpline
210
0.0
220
0.0
230
1.0
 70
    24
 71
     3
 72
    14
 73
    10
 74
     0
 42
0.000000001
 43
0.00000001
 40
0.0
 40
0.0
 40
0.0
 40
0.0
 40
0.25
 40
0.25
 40
0.5
 40
0.5
 40
0.75
 40
0.75
 40
1.0
 40
1.0
 40
1.0
 40
1.0
 10
174.3493244747569
 20
260.1140946618211
 30
0.0
 10
174.3306786419245
 20
259.9186609049198
 30
0.0
 10
174.3120402314912
 20
259.7233049448829
 30
0.0
 10
174.2775867640093
 20
259.3621856187156
 30
0.0
 10
174.2617852551376
 20
259.1965642559554
 30
0.0
 10
174.235413720296
 20
258.9201546058377
 30
0.0
 10
174.2248540644352
 20
258.8094750113666
 30
0.0
 10
174.2105781460819
 20
258.6598439178092
 30
0.0
 10
174.2068674973253
 20
258.6209512583309
 30
0.0
 10
174.2068637265231
 20
258.6209117351809
 30
0.0
  0
ARC
  5
425
330
1F
100
AcDbEntity
  8
0
  6
Continuous
 62
     8
370
    18
100
AcDbCircle
 10
176.4965662482292
 20
282.5113649274966
 30
0.0
 40
22.50000000000003
100
AcDbArc
 50
275.4754523714205
 51
264.5245739889593
  0
SPLINE
  5
426
330
1F
100
AcDbEntity
  8
0
  6
Continuous
 62
     8
370
    18
100
AcDbSpline
210
0.0
220
0.0
230
1.0
 70
     8
 71
     3
 72
    31
 73
    27
 74
     0
 42
0.000000001
 43
0.00000001
 40
0.0
 40
0.0
 40
0.0
 40
0.0
 40
0.0203768459921988
 40
0.0397456158503371
 40
0.0581063771207357
 40
0.075459207268349
 40
0.0918041962805254
 40
0.1071414501256805
 40
0.1214710954271949
 40
0.13479328590325
 40
0.1471082114381275
 40
0.1584161111888343
 40
0.1687172930891495
 40
0.2580837670486036
 40
0.3422361046933601
 40
0.4264257373225814
 40
0.5157994656585209
 40
0.5851240201975747
 40
0.683847346849681
 40
0.7393113115256281
 40
0.7913242919334337
 40
0.8398943265128
 40
0.8850316670022239
 40
0.9267494685493147
 40
0.9650647797813431
 40
1.0
 40
1.0
 40
1.0
 40
1.0
 10
179.7517472392641
 20
256.3542008252398
 30
0.0
 10
179.7019453988042
 20
256.344595366761
 30
0.0
 10
179.6048054969608
 20
256.3258596476553
 30
0.0
 10
179.4540669951325
 20
256.2988927789025
 30
0.0
 10
179.3058449232731
 20
256.2736697820997
 30
0.0
 10
179.1606927889586
 20
256.2502166075046
 30
0.0
 10
179.0198193053384
 20
256.2285266212307
 30
0.0
 10
178.8841194177733
 20
256.2086008975323
 30
0.0
 10
178.7544232007795
 20
256.1904393699056
 30
0.0
 10
178.6314443385259
 20
256.1740392373879
 30
0.0
 10
178.51580658238
 20
256.1594077388731
 30
0.0
 10
178.4080376687623
 20
256.146517746277
 30
0.0
 10
178.0510148430207
 20
256.1067860812961
 30
0.0
 10
177.4244898555477
 20
256.0566546944304
 30
0.0
 10
176.5064634468149
 20
256.0301701918099
 30
0.0
 10
175.5877345059755
 20
256.0556408035889
 30
0.0
 10
174.7593377758937
 20
256.120808115296
 30
0.0
 10
173.9561756674365
 20
256.2262733202144
 30
0.0
 10
173.3451100585934
 20
256.3313124516184
 30
0.0
 10
172.8805462200864
 20
256.4264297783083
 30
0.0
 10
172.5853477991866
 20
256.4902704032426
 30
0.0
 10
172.3637977702988
 20
256.5428753448426
 30
0.0
 10
172.2071922478026
 20
256.5839623192814
 30
0.0
 10
172.1074831080056
 20
256.613223122646
 30
0.0
 10
172.0518052295101
 20
256.6320267132019
 30
0.0
 10
172.0449863993448
 20
256.6347239987879
 30
0.0
 10
172.0417343091723
 20
256.6360104094675
 30
0.0
  0
SPLINE
  5
427
330
1F
100
AcDbEntity
  8
0
  6
Continuous
 62
     8
370
    18
100
AcDbSpline
210
0.0
220
0.0
230
1.0
 70
     8
 71
     3
 72
    10
 73
     6
 74
     0
 42
0.000000001
 43
0.00000001
 40
0.0
 40
0.0
 40
0.0
 40
0.0
 40
0.4330151876417792
 40
0.7000401796762533
 40
1.0
 40
1.0
 40
1.0
 40
1.0
 10
180.9506257745533
 20
256.6357797737977
 30
0.0
 10
180.9052100422871
 20
256.6195627593796
 30
0.0
 10
180.8317880509038
 20
256.5933452916993
 30
0.0
 10
180.3613715367824
 20
256.4773485835305
 30
0.0
 10
179.962675136134
 20
256.3968089683156
 30
0.0
 10
179.7517472627669
 20
256.3541999812982
 30
0.0
  0
LINE
  5
428
330
1F
100
AcDbEntity
  8
0
  6
Continuous
 62
     8
370
    18
100
AcDbLine
 10
172.1684857952505
 20
184.0087438728473
 30
0.0
 11
180.8246467012077
 21
184.0087438728473
 31
0.0
  0
SPLINE
  5
429
330
1F
100
AcDbEntity
  8
0
  6
Continuous
 62
     8
370
    18
100
AcDbSpline
210
0.0
220
0.0
230
1.0
 70
     8
 71
     3
 72
    11
 73
     7
 74
     0
 42
0.000000001
 43
0.00000001
 40
0.0
 40
0.0
 40
0.0
 40
0.0
 40
0.5416980809206651
 40
0.7804467457372503
 40
0.9979958783025875
 40
1.0
 40
1.0
 40
1.0
 40
1.0
 10
185.7455130416065
 20
255.6671148892304
 30
0.0
 10
184.9647858217306
 20
255.3170240738705
 30
0.0
 10
183.8399599463554
 20
254.8126338107633
 30
0.0
 10
182.1462040084368
 20
254.319121107049
 30
0.0
 10
181.3614959022337
 20
254.0828455570696
 30
0.0
 10
180.950593994628
 20
254.0228112533144
 30
0.0
 10
180.9468432079165
 20
254.0222632493636
 30
0.0
  0
SPLINE
  5
42A
330
1F
100
AcDbEntity
  8
0
  6
Continuous
 62
     8
370
    18
100
AcDbSpline
210
0.0
220
0.0
230
1.0
 70
     8
 71
     3
 72
    20
 73
    16
 74
     0
 42
0.000000001
 43
0.00000001
 40
0.0
 40
0.0
 40
0.0
 40
0.0
 40
0.0033111425785158
 40
0.0564945083573918
 40
0.111018967252574
 40
0.1959854179014186
 40
0.3032321122461977
 40
0.4328208812202032
 40
0.527984954722625
 40
0.5945243244881204
 40
0.6777836894107269
 40
0.7513612313907059
 40
0.9057123324305728
 40
0.9787793384776258
 40
1.0
 40
1.0
 40
1.0
 40
1.0
 10
172.0462855632513
 20
254.0243997033498
 30
0.0
 10
172.0274359706177
 20
254.028024988925
 30
0.0
 10
171.7058253956203
 20
254.0898793855175
 30
0.0
 10
171.0982141808043
 20
254.2434714089187
 30
0.0
 10
170.069336647941
 20
254.5297091472576
 30
0.0
 10
168.8289935376494
 20
254.9700967541577
 30
0.0
 10
167.3456123008285
 20
255.6030056884718
 30
0.0
 10
166.0051766806005
 20
256.3026434855581
 30
0.0
 10
165.0031418318388
 20
256.923736828802
 30
0.0
 10
164.2702594138489
 20
257.4286612248095
 30
0.0
 10
163.6979254735083
 20
257.850654157039
 30
0.0
 10
163.0492865653536
 20
258.367415493801
 30
0.0
 10
162.666320450731
 20
258.6907206666937
 30
0.0
 10
162.5275281999331
 20
258.8149707491238
 30
0.0
 10
162.5451314916849
 20
258.7998875253687
 30
0.0
 10
162.5490933406263
 20
258.7964928503892
 30
0.0
  0
SPLINE
  5
42B
330
1F
100
AcDbEntity
  8
0
  6
Continuous
 62
     8
370
    18
100
AcDbSpline
210
0.0
220
0.0
230
1.0
 70
     8
 71
     3
 72
    20
 73
    16
 74
     0
 42
0.000000001
 43
0.00000001
 40
0.0
 40
0.0
 40
0.0
 40
0.0
 40
0.0738618419354587
 40
0.2839119685525975
 40
0.3606130677940202
 40
0.4408108242251516
 40
0.5246176750423303
 40
0.5737515929669894
 40
0.629549535464577
 40
0.6920192216488714
 40
0.7611675430944574
 40
0.9298857093248238
 40
0.9772833008082209
 40
0.9917270387658975
 40
1.0
 40
1.0
 40
1.0
 40
1.0
 10
190.4442319396048
 20
258.7955335881373
 30
0.0
 10
190.4426963294154
 20
258.794993580374
 30
0.0
 10
190.4367937131204
 20
258.7929178852233
 30
0.0
 10
190.180178449564
 20
258.5596363300133
 30
0.0
 10
189.7744953585114
 20
258.2276819091566
 30
0.0
 10
189.447993216225
 20
257.9707691263756
 30
0.0
 10
189.1087720361666
 20
257.7141949962191
 30
0.0
 10
188.7742531764047
 20
257.4685523340202
 30
0.0
 10
188.45406348614
 20
257.2421855443897
 30
0.0
 10
188.0664982393796
 20
256.9814590822241
 30
0.0
 10
187.395833383875
 20
256.5526747366698
 30
0.0
 10
186.6731662639957
 20
256.1409499555718
 30
0.0
 10
186.0336265371024
 20
255.8110292663406
 30
0.0
 10
185.8345350806564
 20
255.7108640996529
 30
0.0
 10
185.7692782545168
 20
255.6787941240744
 30
0.0
 10
185.7455130416065
 20
255.6671148892304
 30
0.0
  0
LINE
  5
42C
330
1F
100
AcDbEntity
  8
0
  6
Continuous
 62
     8
370
    18
100
AcDbLine
 10
172.0576528209358
 20
247.511364778485
 30
0.0
 11
162.4965658160954
 21
247.511364778485
 31
0.0
  0
LINE
  5
42D
330
1F
100
AcDbEntity
  8
0
  6
Continuous
 62
     8
370
    18
100
AcDbLine
 10
190.4965666803627
 20
247.511364778485
 30
0.0
 11
180.9354796755224
 21
247.511364778485
 31
0.0
  0
LINE
  5
42E
330
1F
100
AcDbEntity
  8
0
  6
Continuous
 62
     8
370
    18
100
AcDbLine
 10
176.4965662482291
 20
182.5113634373805
 30
0.0
 11
176.4965662482291
 21
167.2579164411685
 31
0.0
  0
SPLINE
  5
42F
330
1F
100
AcDbEntity
  8
0
  6
Continuous
 62
     8
370
    18
100
AcDbSpline
210
0.0
220
0.0
230
1.0
 70
    24
 71
     3
 72
    14
 73
    10
 74
     0
 42
0.000000001
 43
0.00000001
 40
0.0
 40
0.0
 40
0.0
 40
0.0
 40
0.25
 40
0.25
 40
0.5
 40
0.5
 40
0.75
 40
0.75
 40
1.0
 40
1.0
 40
1.0
 40
1.0
 10
162.7767047739444
 20
167.2579148712143
 30
0.0
 10
162.7767047739444
 20
167.2579148712143
 30
0.0
 10
163.1337960446016
 20
167.2579148712143
 30
0.0
 10
164.5083380418932
 20
167.2579148712143
 30
0.0
 10
165.5252479449475
 20
167.2579148712143
 30
0.0
 10
168.0650703806973
 20
167.2579148712143
 30
0.0
 10
169.5869836017199
 20
167.2579148712143
 30
0.0
 10
172.9054215336327
 20
167.2579148712143
 30
0.0
 10
174.7006405809007
 20
167.2579148712143
 30
0.0
 10
176.4965662482291
 20
167.2579148712143
 30
0.0
  0
SPLINE
  5
430
330
1F
100
AcDbEntity
  8
0
  6
Continuous
 62
     8
370
    18
100
AcDbSpline
210
0.0
220
0.0
230
1.0
 70
    24
 71
     3
 72
    14
 73
    10
 74
     0
 42
0.000000001
 43
0.00000001
 40
0.0
 40
0.0
 40
0.0
 40
0.0
 40
0.25
 40
0.25
 40
0.5
 40
0.5
 40
0.75
 40
0.75
 40
1.0
 40
1.0
 40
1.0
 40
1.0
 10
176.4965662482291
 20
167.2579148712143
 30
0.0
 10
178.2924919155575
 20
167.2579148712143
 30
0.0
 10
180.0877109628255
 20
167.2579148712143
 30
0.0
 10
183.4061488947384
 20
167.2579148712143
 30
0.0
 10
184.928062115761
 20
167.2579148712143
 30
0.0
 10
187.4678845515109
 20
167.2579148712143
 30
0.0
 10
188.4847944545651
 20
167.2579148712143
 30
0.0
 10
189.8593364518567
 20
167.2579148712143
 30
0.0
 10
190.2164277225138
 20
167.2579148712143
 30
0.0
 10
190.2164277225138
 20
167.2579148712143
 30
0.0
  0
SPLINE
  5
431
330
1F
100
AcDbEntity
  8
0
  6
Continuous
 62
     8
370
    18
100
AcDbSpline
210
0.0
220
0.0
230
1.0
 70
     8
 71
     3
 72
    11
 73
     7
 74
     0
 42
0.000000001
 43
0.00000001
 40
0.2500000141366471
 40
0.2500000141366471
 40
0.2500000141366471
 40
0.2500000141366471
 40
0.3125000141366471
 40
0.3750000141366471
 40
0.4375000141366471
 40
0.5
 40
0.5
 40
0.5
 40
0.5
 10
176.4965662482289
 20
106.1913125626128
 30
0.0
 10
178.2797156887851
 20
106.1913125626128
 30
0.0
 10
181.8453853966127
 20
106.6746023882808
 30
0.0
 10
186.3801271096933
 20
108.7412038665521
 30
0.0
 10
189.4099392621095
 20
111.8336920680245
 30
0.0
 10
190.1193006146275
 20
114.2656776571976
 30
0.0
 10
190.1193006146275
 20
115.4816704517846
 30
0.0
  0
SPLINE
  5
432
330
1F
100
AcDbEntity
  8
0
  6
Continuous
 62
     8
370
    18
100
AcDbSpline
210
0.0
220
0.0
230
1.0
 70
     8
 71
     3
 72
    11
 73
     7
 74
     0
 42
0.000000001
 43
0.00000001
 40
0.5
 40
0.5
 40
0.5
 40
0.5
 40
0.5624999858633465
 40
0.6249999858633465
 40
0.6874999858633465
 40
0.7499999858633465
 40
0.7499999858633465
 40
0.7499999858633465
 40
0.7499999858633465
 10
162.8738318818307
 20
115.4816704517842
 30
0.0
 10
162.8738318818307
 20
114.2656776571973
 30
0.0
 10
163.5831932343487
 20
111.8336920680243
 30
0.0
 10
166.6130053867648
 20
108.7412038665509
 30
0.0
 10
171.1477470998454
 20
106.6746023882805
 30
0.0
 10
174.7134168076728
 20
106.1913125626121
 30
0.0
 10
176.4965662482291
 20
106.1913125626121
 30
0.0
  0
ELLIPSE
  5
433
330
1F
100
AcDbEntity
  8
0
  6
Continuous
 62
     8
370
    18
100
AcDbEllipse
 10
176.4965662482291
 20
110.450811369386
 30
0.0
 11
13.62225840003609
 21
0.0
 31
0.0
210
0.0
220
0.0
230
1.0
 40
0.7967557489409944
 41
4.7123889803847
 42
6.283185307179586
  0
LINE
  5
434
330
1F
100
AcDbEntity
  8
0
  6
Continuous
 62
     8
370
    18
100
AcDbLine
 10
176.4965662482291
 20
106.1913187410495
 30
0.0
 11
176.4965662482291
 21
99.59719728490326
 31
0.0
  0
LINE
  5
435
330
1F
100
AcDbEntity
  8
0
  6
Continuous
 62
     8
370
    18
100
AcDbLine
 10
176.4965662482291
 20
99.59719728490326
 30
0.0
 11
176.4965662482291
 21
99.120196213927
 31
0.0
  0
ENDSEC
  0
SECTION
  2
OBJECTS
  0
DICTIONARY
  5
C
330
0
100
AcDbDictionary
281
     1
  3
ACAD_DETAILVIEWSTYLE
350
45F
  3
ACAD_GROUP
350
D
  3
ACAD_LAYOUT
350
1A
  3
ACAD_MATERIAL
350
44F
  3
ACAD_MLEADERSTYLE
350
455
  3
ACAD_MLINESTYLE
350
17
  3
ACAD_PLOTSETTINGS
350
19
  3
ACAD_PLOTSTYLENAME
350
E
  3
ACAD_SCALELIST
350
47
  3
ACAD_SECTIONVIEWSTYLE
350
460
  3
ACAD_TABLESTYLE
350
453
  3
ACAD_VISUALSTYLE
350
436
  3
ACDB_RECOMPOSE_DATA
350
463
  3
AcDbVariableDictionary
350
45A
  3
APPDATA
350
457
  0
DICTIONARY
  5
458
330
1F
100
AcDbDictionary
280
     1
281
     1
  3
DIM_BOUNDING_BOXES_V1
360
459
  0
DICTIONARY
  5
45F
102
{ACAD_REACTORS
330
C
102
}
330
C
100
AcDbDictionary
281
     1
  0
DICTIONARY
  5
D
102
{ACAD_REACTORS
330
C
102
}
330
C
100
AcDbDictionary
281
     1
  0
DICTIONARY
  5
1A
102
{ACAD_REACTORS
330
C
102
}
330
C
100
AcDbDictionary
281
     1
  3
Layout1
350
1E
  3
Layout2
350
26
  3
Model
350
22
  0
DICTIONARY
  5
44F
102
{ACAD_REACTORS
330
C
102
}
330
C
100
AcDbDictionary
281
     1
  3
ByBlock
350
451
  3
ByLayer
350
450
  3
Global
350
452
  0
DICTIONARY
  5
455
102
{ACAD_REACTORS
330
C
102
}
330
C
100
AcDbDictionary
281
     1
  3
Standard
350
456
  0
DICTIONARY
  5
17
102
{ACAD_REACTORS
330
C
102
}
330
C
100
AcDbDictionary
281
     1
  3
Standard
350
18
  0
DICTIONARY
  5
19
102
{ACAD_REACTORS
330
C
102
}
330
C
100
AcDbDictionary
281
     1
  0
ACDBDICTIONARYWDFLT
  5
E
102
{ACAD_REACTORS
330
C
102
}
330
C
100
AcDbDictionary
281
     1
  3
Normal
350
F
100
AcDbDictionaryWithDefault
340
F
  0
DICTIONARY
  5
47
102
{ACAD_REACTORS
330
C
102
}
330
C
100
AcDbDictionary
281
     1
  3
A0
350
48
  3
A1
350
49
  3
A2
350
4A
  3
A3
350
4B
  3
A4
350
4C
  3
A5
350
4D
  3
A6
350
4E
  3
A7
350
4F
  3
A8
350
50
  3
A9
350
51
  3
B0
350
52
  3
B1
350
53
  3
B2
350
54
  3
B3
350
55
  3
B4
350
56
  3
B5
350
57
  3
B6
350
58
  3
B7
350
59
  3
B8
350
5A
  3
B9
350
5B
  3
C0
350
5C
  3
C1
350
5D
  3
C2
350
5E
  3
C3
350
5F
  3
C4
350
60
  3
C5
350
61
  3
C6
350
62
  3
C7
350
63
  3
C8
350
64
  3
C9
350
65
  3
D0
350
66
  3
D1
350
67
  3
D2
350
68
  0
DICTIONARY
  5
460
102
{ACAD_REACTORS
330
C
102
}
330
C
100
AcDbDictionary
281
     1
  0
DICTIONARY
  5
453
102
{ACAD_REACTORS
330
C
102
}
330
C
100
AcDbDictionary
281
     1
  3
Standard
350
454
  0
DICTIONARY
  5
436
102
{ACAD_REACTORS
330
C
102
}
330
C
100
AcDbDictionary
281
     1
  3
2dWireframe
350
43B
  3
Basic
350
43E
  3
Brighten
350
442
  3
ColorChange
350
446
  3
Conceptual
350
440
  3
Dim
350
441
  3
EdgeColorOff
350
449
  3
Facepattern
350
445
  3
Flat
350
437
  3
FlatWithEdges
350
438
  3
Gouraud
350
439
  3
GouraudWithEdges
350
43A
  3
Hidden
350
43D
  3
JitterOff
350
447
  3
Linepattern
350
444
  3
OverhangOff
350
448
  3
Realistic
350
43F
  3
Shaded
350
44E
  3
Shaded with edges
350
44D
  3
Shades of Gray
350
44A
  3
Sketchy
350
44B
  3
Thicken
350
443
  3
Wireframe
350
43C
  3
X-Ray
350
44C
  0
XRECORD
  5
463
102
{ACAD_REACTORS
330
C
102
}
330
C
100
AcDbXrecord
280
     1
 90
        1
330
454
  0
DICTIONARY
  5
45A
102
{ACAD_REACTORS
330
C
102
}
330
C
100
AcDbDictionary
281
     1
  3
CANNOSCALE
350
45B
  3
CMLEADERSTYLE
350
45D
  3
CTABLESTYLE
350
45C
  3
MSLTSCALE
350
45E
  0
DICTIONARY
  5
457
102
{ACAD_REACTORS
330
C
102
}
330
C
100
AcDbDictionary
281
     1
  0
DICTIONARY
  5
459
102
{ACAD_REACTORS
330
458
102
}
330
458
100
AcDbDictionary
281
     1
  0
LAYOUT
  5
1E
102
{ACAD_REACTORS
330
1A
102
}
330
1A
100
AcDbPlotSettings
  1

  2
none_device
  4

  6

 40
0.0
 41
0.0
 42
0.0
 43
0.0
 44
0.0
 45
0.0
 46
0.0
 47
0.0
 48
0.0
 49
0.0
140
0.0
141
0.0
142
1.0
143
1.0
 70
   688
 72
     1
 73
     0
 74
     5
  7

 75
    16
 76
     0
 77
     2
 78
   300
147
1.0
148
0.0
149
0.0
100
AcDbLayout
  1
Layout1
 70
     1
 71
     1
 10
0.0
 20
0.0
 11
420.0
 21
297.0
 12
0.0
 22
0.0
 32
0.0
 14
1.000000000000000E+20
 24
1.000000000000000E+20
 34
1.000000000000000E+20
 15
-1.000000000000000E+20
 25
-1.000000000000000E+20
 35
-1.000000000000000E+20
146
0.0
 13
0.0
 23
0.0
 33
0.0
 16
1.0
 26
0.0
 36
0.0
 17
0.0
 27
1.0
 37
0.0
 76
     0
330
1B
  0
LAYOUT
  5
26
102
{ACAD_REACTORS
330
1A
102
}
330
1A
100
AcDbPlotSettings
  1

  2
none_device
  4

  6

 40
0.0
 41
0.0
 42
0.0
 43
0.0
 44
0.0
 45
0.0
 46
0.0
 47
0.0
 48
0.0
 49
0.0
140
0.0
141
0.0
142
1.0
143
1.0
 70
   688
 72
     1
 73
     0
 74
     5
  7

 75
    16
 76
     0
 77
     2
 78
   300
147
1.0
148
0.0
149
0.0
100
AcDbLayout
  1
Layout2
 70
     1
 71
     2
 10
0.0
 20
0.0
 11
0.0
 21
0.0
 12
0.0
 22
0.0
 32
0.0
 14
0.0
 24
0.0
 34
0.0
 15
0.0
 25
0.0
 35
0.0
146
0.0
 13
0.0
 23
0.0
 33
0.0
 16
1.0
 26
0.0
 36
0.0
 17
0.0
 27
1.0
 37
0.0
 76
     0
330
23
  0
LAYOUT
  5
22
102
{ACAD_REACTORS
330
1A
102
}
330
1A
100
AcDbPlotSettings
  1

  2
none_device
  4
Letter_(8.50_x_11.00_Inches)
  6

 40
6.35
 41
6.35
 42
6.35000508
 43
6.35000508
 44
215.9
 45
279.4
 46
0.0
 47
0.0
 48
0.0
 49
0.0
140
0.0
141
0.0
142
1.0
143
1.0
 70
  1712
 72
     1
 73
     0
 74
     0
  7

 75
     0
 76
     0
 77
     2
 78
   300
147
1.0
148
0.0
149
0.0
100
AcDbLayout
  1
Model
 70
     1
 71
     0
 10
0.0
 20
0.0
 11
594.0
 21
841.0
 12
0.0
 22
0.0
 32
0.0
 14
35.33953329457836
 24
37.46023423127906
 34
0.0
 15
540.0556814623574
 25
704.271319643372
 35
0.0
146
0.0
 13
0.0
 23
0.0
 33
0.0
 16
1.0
 26
0.0
 36
0.0
 17
0.0
 27
1.0
 37
0.0
 76
     0
330
1F
331
29
  0
MATERIAL
  5
451
102
{ACAD_REACTORS
330
44F
102
}
330
44F
100
AcDbMaterial
  1
ByBlock
 72
     1
 94
      127
  0
MATERIAL
  5
450
102
{ACAD_REACTORS
330
44F
102
}
330
44F
100
AcDbMaterial
  1
ByLayer
 72
     1
 94
      127
  0
MATERIAL
  5
452
102
{ACAD_REACTORS
330
44F
102
}
330
44F
100
AcDbMaterial
  1
Global
 72
     1
 94
      127
  0
MLEADERSTYLE
  5
456
102
{ACAD_REACTORS
330
455
102
}
330
455
100
AcDbMLeaderStyle
179
     2
170
     2
171
     1
172
     0
 90
        2
 40
0.0
 41
0.0
173
     1
 91
-1056964608
340
14
 92
       -2
290
     1
 42
2.0
291
     1
 43
8.0
  3
Standard
341
0
 44
4.0
300

342
11
174
     1
178
     1
175
     1
176
     0
 93
-1056964608
 45
4.0
292
     0
297
     0
 46
4.0
343
0
 94
-1056964608
 47
1.0
 49
1.0
140
1.0
293
     1
141
0.0
294
     1
177
     0
142
1.0
295
     0
296
     0
143
3.75
271
     0
272
     9
273
     9
298
     0
  0
MLINESTYLE
  5
18
102
{ACAD_REACTORS
330
17
102
}
330
17
100
AcDbMlineStyle
  2
Standard
 70
     0
  3

 62
   256
 51
90.0
 52
90.0
 71
     2
 49
0.5
 62
   256
  6
BYLAYER
 49
-0.5
 62
   256
  6
BYLAYER
  0
ACDBPLACEHOLDER
  5
F
102
{ACAD_REACTORS
330
E
102
}
330
E
  0
SCALE
  5
48
102
{ACAD_REACTORS
330
47
102
}
330
47
100
AcDbScale
 70
     0
300
1:1
140
1.0
141
1.0
290
     1
  0
SCALE
  5
49
102
{ACAD_REACTORS
330
47
102
}
330
47
100
AcDbScale
 70
     0
300
1:2
140
1.0
141
2.0
290
     0
  0
SCALE
  5
4A
102
{ACAD_REACTORS
330
47
102
}
330
47
100
AcDbScale
 70
     0
300
1:4
140
1.0
141
4.0
290
     0
  0
SCALE
  5
4B
102
{ACAD_REACTORS
330
47
102
}
330
47
100
AcDbScale
 70
     0
300
1:5
140
1.0
141
5.0
290
     0
  0
SCALE
  5
4C
102
{ACAD_REACTORS
330
47
102
}
330
47
100
AcDbScale
 70
     0
300
1:8
140
1.0
141
8.0
290
     0
  0
SCALE
  5
4D
102
{ACAD_REACTORS
330
47
102
}
330
47
100
AcDbScale
 70
     0
300
1:10
140
1.0
141
10.0
290
     0
  0
SCALE
  5
4E
102
{ACAD_REACTORS
330
47
102
}
330
47
100
AcDbScale
 70
     0
300
1:16
140
1.0
141
16.0
290
     0
  0
SCALE
  5
4F
102
{ACAD_REACTORS
330
47
102
}
330
47
100
AcDbScale
 70
     0
300
1:20
140
1.0
141
20.0
290
     0
  0
SCALE
  5
50
102
{ACAD_REACTORS
330
47
102
}
330
47
100
AcDbScale
 70
     0
300
1:30
140
1.0
141
30.0
290
     0
  0
SCALE
  5
51
102
{ACAD_REACTORS
330
47
102
}
330
47
100
AcDbScale
 70
     0
300
1:40
140
1.0
141
40.0
290
     0
  0
SCALE
  5
52
102
{ACAD_REACTORS
330
47
102
}
330
47
100
AcDbScale
 70
     0
300
1:50
140
1.0
141
50.0
290
     0
  0
SCALE
  5
53
102
{ACAD_REACTORS
330
47
102
}
330
47
100
AcDbScale
 70
     0
300
1:100
140
1.0
141
100.0
290
     0
  0
SCALE
  5
54
102
{ACAD_REACTORS
330
47
102
}
330
47
100
AcDbScale
 70
     0
300
2:1
140
2.0
141
1.0
290
     0
  0
SCALE
  5
55
102
{ACAD_REACTORS
330
47
102
}
330
47
100
AcDbScale
 70
     0
300
4:1
140
4.0
141
1.0
290
     0
  0
SCALE
  5
56
102
{ACAD_REACTORS
330
47
102
}
330
47
100
AcDbScale
 70
     0
300
8:1
140
8.0
141
1.0
290
     0
  0
SCALE
  5
57
102
{ACAD_REACTORS
330
47
102
}
330
47
100
AcDbScale
 70
     0
300
10:1
140
10.0
141
1.0
290
     0
  0
SCALE
  5
58
102
{ACAD_REACTORS
330
47
102
}
330
47
100
AcDbScale
 70
     0
300
100:1
140
100.0
141
1.0
290
     0
  0
SCALE
  5
59
102
{ACAD_REACTORS
330
47
102
}
330
47
100
AcDbScale
 70
     0
300
1/128" = 1'-0"
140
0.0078125
141
12.0
290
     0
  0
SCALE
  5
5A
102
{ACAD_REACTORS
330
47
102
}
330
47
100
AcDbScale
 70
     0
300
1/64" = 1'-0"
140
0.015625
141
12.0
290
     0
  0
SCALE
  5
5B
102
{ACAD_REACTORS
330
47
102
}
330
47
100
AcDbScale
 70
     0
300
1/32" = 1'-0"
140
0.03125
141
12.0
290
     0
  0
SCALE
  5
5C
102
{ACAD_REACTORS
330
47
102
}
330
47
100
AcDbScale
 70
     0
300
1/16" = 1'-0"
140
0.0625
141
12.0
290
     0
  0
SCALE
  5
5D
102
{ACAD_REACTORS
330
47
102
}
330
47
100
AcDbScale
 70
     0
300
3/32" = 1'-0"
140
0.09375
141
12.0
290
     0
  0
SCALE
  5
5E
102
{ACAD_REACTORS
330
47
102
}
330
47
100
AcDbScale
 70
     0
300
1/8" = 1'-0"
140
0.125
141
12.0
290
     0
  0
SCALE
  5
5F
102
{ACAD_REACTORS
330
47
102
}
330
47
100
AcDbScale
 70
     0
300
3/16" = 1'-0"
140
0.1875
141
12.0
290
     0
  0
SCALE
  5
60
102
{ACAD_REACTORS
330
47
102
}
330
47
100
AcDbScale
 70
     0
300
1/4" = 1'-0"
140
0.25
141
12.0
290
     0
  0
SCALE
  5
61
102
{ACAD_REACTORS
330
47
102
}
330
47
100
AcDbScale
 70
     0
300
3/8" = 1'-0"
140
0.375
141
12.0
290
     0
  0
SCALE
  5
62
102
{ACAD_REACTORS
330
47
102
}
330
47
100
AcDbScale
 70
     0
300
1/2" = 1'-0"
140
0.5
141
12.0
290
     0
  0
SCALE
  5
63
102
{ACAD_REACTORS
330
47
102
}
330
47
100
AcDbScale
 70
     0
300
3/4" = 1'-0"
140
0.75
141
12.0
290
     0
  0
SCALE
  5
64
102
{ACAD_REACTORS
330
47
102
}
330
47
100
AcDbScale
 70
     0
300
1" = 1'-0"
140
1.0
141
12.0
290
     0
  0
SCALE
  5
65
102
{ACAD_REACTORS
330
47
102
}
330
47
100
AcDbScale
 70
     0
300
1-1/2" = 1'-0"
140
1.5
141
12.0
290
     0
  0
SCALE
  5
66
102
{ACAD_REACTORS
330
47
102
}
330
47
100
AcDbScale
 70
     0
300
3" = 1'-0"
140
3.0
141
12.0
290
     0
  0
SCALE
  5
67
102
{ACAD_REACTORS
330
47
102
}
330
47
100
AcDbScale
 70
     0
300
6" = 1'-0"
140
6.0
141
12.0
290
     0
  0
SCALE
  5
68
102
{ACAD_REACTORS
330
47
102
}
330
47
100
AcDbScale
 70
     0
300
1'-0" = 1'-0"
140
12.0
141
12.0
290
     0
  0
TABLESTYLE
  5
454
102
{ACAD_REACTORS
330
453
102
}
102
{ACAD_XDICTIONARY
360
461
102
}
330
453
100
AcDbTableStyle
  3
Standard
 70
     0
 71
     0
 40
0.06
 41
0.06
280
     0
281
     0
  7
Standard
140
4.5
170
     2
 62
     0
 63
   257
283
     0
 90
        4
 91
        0
  1

274
    -2
284
     1
 64
     0
275
    -2
285
     1
 65
     0
276
    -2
286
     1
 66
     0
277
    -2
287
     1
 67
     0
278
    -2
288
     1
 68
     0
279
    -2
289
     1
 69
     0
  7
Standard
140
6.0
170
     5
 62
     0
 63
   257
283
     0
 90
        4
 91
        0
  1

274
    -2
284
     1
 64
     0
275
    -2
285
     1
 65
     0
276
    -2
286
     1
 66
     0
277
    -2
287
     1
 67
     0
278
    -2
288
     1
 68
     0
279
    -2
289
     1
 69
     0
  7
Standard
140
4.5
170
     5
 62
     0
 63
   257
283
     0
 90
        4
 91
        0
  1

274
    -2
284
     1
 64
     0
275
    -2
285
     1
 65
     0
276
    -2
286
     1
 66
     0
277
    -2
287
     1
 67
     0
278
    -2
288
     1
 68
     0
279
    -2
289
     1
 69
     0
  0
VISUALSTYLE
  5
43B
102
{ACAD_REACTORS
330
436
102
}
330
436
100
AcDbVisualStyle
  2
2dWireframe
 70
     4
177
     3
291
     0
 70
    58
 90
        0
176
     1
 90
        2
176
     1
 90
        0
176
     1
 90
        0
176
     1
 40
0.6
176
     1
 40
30.0
176
     1
 62
     7
420
 16777215
176
     1
 90
        1
176
     1
 90
        4
176
     1
 62
     7
176
     1
 62
   257
176
     1
 90
        1
176
     1
 90
        1
176
     1
 40
1.0
176
     1
 90
        0
176
     1
 62
   257
176
     1
 40
1.0
176
     1
 90
        1
176
     1
 90
        6
176
     1
 90
        2
176
     1
 62
     7
176
     1
 90
        5
176
     1
 90
        0
176
     1
 90
        0
176
     1
290
     0
176
     1
 90
        1
176
     1
 40
0.0
176
     1
 90
        0
176
     1
290
     1
176
     1
290
     1
176
     1
290
     0
176
     1
290
     0
176
     1
290
     0
176
     1
290
     0
176
     1
290
     0
176
     1
290
     0
176
     1
290
     0
176
     1
 90
       50
176
     1
 40
0.0
176
     1
 40
1.0
176
     1
 90
        0
176
     1
 62
    18
420
        0
176
     1
 90
       50
176
     1
 90
        3
176
     1
 62
     5
420
      255
176
     1
290
     0
176
     1
 90
       50
176
     1
 90
       50
176
     1
 90
       50
176
     1
290
     0
176
     1
 90
       50
176
     1
 62
   256
176
     0
 40
1.0
176
     0
 90
        2
176
     1
  1
strokes_ogs.tif
176
     1
290
     0
176
     1
 40
1.0
176
     1
 40
1.0
176
     1
  0
VISUALSTYLE
  5
43E
102
{ACAD_REACTORS
330
436
102
}
330
436
100
AcDbVisualStyle
  2
Basic
 70
     7
177
     3
291
     1
 70
    58
 90
        1
176
     1
 90
        0
176
     1
 90
        1
176
     1
 90
        0
176
     1
 40
0.6
176
     1
 40
30.0
176
     1
 62
     7
420
 16777215
176
     1
 90
        0
176
     1
 90
        4
176
     1
 62
     7
176
     1
 62
   257
176
     1
 90
        1
176
     1
 90
        1
176
     1
 40
1.0
176
     1
 90
        8
176
     1
 62
     7
176
     1
 40
1.0
176
     1
 90
        1
176
     1
 90
        6
176
     1
 90
        2
176
     1
 62
     7
176
     1
 90
        5
176
     1
 90
        0
176
     1
 90
        0
176
     1
290
     0
176
     1
 90
        1
176
     1
 40
0.0
176
     1
 90
        0
176
     1
290
     0
176
     1
290
     1
176
     1
290
     1
176
     1
290
     0
176
     1
290
     0
176
     1
290
     0
176
     1
290
     0
176
     1
290
     0
176
     1
290
     0
176
     1
 90
       50
176
     1
 40
0.0
176
     1
 40
1.0
176
     1
 90
        0
176
     1
 62
    18
420
        0
176
     1
 90
       50
176
     1
 90
        3
176
     1
 62
     5
420
      255
176
     1
290
     0
176
     1
 90
       50
176
     1
 90
       50
176
     1
 90
       50
176
     1
290
     0
176
     1
 90
       50
176
     1
 62
   256
176
     0
 40
1.0
176
     0
 90
        2
176
     1
  1
strokes_ogs.tif
176
     1
290
     0
176
     1
 40
1.0
176
     1
 40
1.0
176
     1
  0
VISUALSTYLE
  5
442
102
{ACAD_REACTORS
330
436
102
}
330
436
100
AcDbVisualStyle
  2
Brighten
 70
    12
177
     3
291
     1
 70
    58
 90
        2
176
     1
 90
        2
176
     1
 90
        0
176
     1
 90
        0
176
     1
 40
0.6
176
     1
 40
30.0
176
     1
 62
     7
420
 16777215
176
     1
 90
        1
176
     1
 90
        4
176
     1
 62
     7
176
     1
 62
   257
176
     1
 90
        1
176
     1
 90
        1
176
     1
 40
1.0
176
     1
 90
        8
176
     1
 62
     7
176
     1
 40
1.0
176
     1
 90
        1
176
     1
 90
        6
176
     1
 90
        2
176
     1
 62
     7
176
     1
 90
        5
176
     1
 90
        0
176
     1
 90
        0
176
     1
290
     0
176
     1
 90
        1
176
     1
 40
50.0
176
     1
 90
        0
176
     1
290
     0
176
     1
290
     1
176
     1
290
     1
176
     1
290
     0
176
     1
290
     0
176
     1
290
     0
176
     1
290
     0
176
     1
290
     0
176
     1
290
     0
176
     1
 90
       50
176
     1
 40
0.0
176
     1
 40
1.0
176
     1
 90
        0
176
     1
 62
    18
420
        0
176
     1
 90
       50
176
     1
 90
        3
176
     1
 62
     5
420
      255
176
     1
290
     0
176
     1
 90
       50
176
     1
 90
       50
176
     1
 90
       50
176
     1
290
     0
176
     1
 90
       50
176
     1
 62
   256
176
     0
 40
1.0
176
     0
 90
        2
176
     1
  1
strokes_ogs.tif
176
     1
290
     0
176
     1
 40
1.0
176
     1
 40
1.0
176
     1
  0
VISUALSTYLE
  5
446
102
{ACAD_REACTORS
330
436
102
}
330
436
100
AcDbVisualStyle
  2
ColorChange
 70
    16
177
     3
291
     1
 70
    58
 90
        2
176
     1
 90
        2
176
     1
 90
        3
176
     1
 90
        0
176
     1
 40
0.6
176
     1
 40
30.0
176
     1
 62
     8
420
  8421504
176
     1
 90
        1
176
     1
 90
        4
176
     1
 62
     7
176
     1
 62
   257
176
     1
 90
        1
176
     1
 90
        1
176
     1
 40
1.0
176
     1
 90
        8
176
     1
 62
     8
420
  8421504
176
     1
 40
1.0
176
     1
 90
        1
176
     1
 90
        6
176
     1
 90
        2
176
     1
 62
     7
176
     1
 90
        5
176
     1
 90
        0
176
     1
 90
        0
176
     1
290
     0
176
     1
 90
        1
176
     1
 40
0.0
176
     1
 90
        0
176
     1
290
     0
176
     1
290
     1
176
     1
290
     1
176
     1
290
     0
176
     1
290
     0
176
     1
290
     0
176
     1
290
     0
176
     1
290
     0
176
     1
290
     0
176
     1
 90
       50
176
     1
 40
0.0
176
     1
 40
1.0
176
     1
 90
        0
176
     1
 62
    18
420
        0
176
     1
 90
       50
176
     1
 90
        3
176
     1
 62
     5
420
      255
176
     1
290
     0
176
     1
 90
       50
176
     1
 90
       50
176
     1
 90
       50
176
     1
290
     0
176
     1
 90
       50
176
     1
 62
   256
176
     0
 40
1.0
176
     0
 90
        2
176
     1
  1
strokes_ogs.tif
176
     1
290
     0
176
     1
 40
1.0
176
     1
 40
1.0
176
     1
  0
VISUALSTYLE
  5
440
102
{ACAD_REACTORS
330
436
102
}
330
436
100
AcDbVisualStyle
  2
Conceptual
 70
     9
177
     3
291
     0
 70
    58
 90
        3
176
     1
 90
        2
176
     1
 90
        0
176
     1
 90
        0
176
     1
 40
0.6
176
     1
 40
30.0
176
     1
 62
     7
420
 16777215
176
     1
 90
        2
176
     1
 90
        2
176
     1
 62
     7
176
     1
 62
   257
176
     1
 90
        1
176
     1
 90
        1
176
     1
 40
179.0
176
     1
 90
        8
176
     1
 62
     7
176
     1
 40
1.0
176
     1
 90
        1
176
     1
 90
        6
176
     1
 90
        2
176
     1
 62
     7
176
     1
 90
        3
176
     1
 90
        0
176
     1
 90
        0
176
     1
290
     0
176
     1
 90
        1
176
     1
 40
0.0
176
     1
 90
        0
176
     1
290
     0
176
     1
290
     1
176
     1
290
     1
176
     1
290
     0
176
     1
290
     0
176
     1
290
     0
176
     1
290
     0
176
     1
290
     0
176
     1
290
     0
176
     1
 90
       50
176
     1
 40
0.0
176
     1
 40
1.0
176
     1
 90
        0
176
     1
 62
    18
420
        0
176
     1
 90
       50
176
     1
 90
        3
176
     1
 62
     5
420
      255
176
     1
290
     0
176
     1
 90
       50
176
     1
 90
       50
176
     1
 90
       50
176
     1
290
     0
176
     1
 90
       50
176
     1
 62
   256
176
     0
 40
1.0
176
     0
 90
        2
176
     1
  1
strokes_ogs.tif
176
     1
290
     0
176
     1
 40
1.0
176
     1
 40
1.0
176
     1
  0
VISUALSTYLE
  5
441
102
{ACAD_REACTORS
330
436
102
}
330
436
100
AcDbVisualStyle
  2
Dim
 70
    11
177
     3
291
     1
 70
    58
 90
        2
176
     1
 90
        2
176
     1
 90
        0
176
     1
 90
        0
176
     1
 40
0.6
176
     1
 40
30.0
176
     1
 62
     7
420
 16777215
176
     1
 90
        1
176
     1
 90
        4
176
     1
 62
     7
176
     1
 62
   257
176
     1
 90
        1
176
     1
 90
        1
176
     1
 40
1.0
176
     1
 90
        8
176
     1
 62
     7
176
     1
 40
1.0
176
     1
 90
        1
176
     1
 90
        6
176
     1
 90
        2
176
     1
 62
     7
176
     1
 90
        5
176
     1
 90
        0
176
     1
 90
        0
176
     1
290
     0
176
     1
 90
        1
176
     1
 40
-50.0
176
     1
 90
        0
176
     1
290
     0
176
     1
290
     1
176
     1
290
     1
176
     1
290
     0
176
     1
290
     0
176
     1
290
     0
176
     1
290
     0
176
     1
290
     0
176
     1
290
     0
176
     1
 90
       50
176
     1
 40
0.0
176
     1
 40
1.0
176
     1
 90
        0
176
     1
 62
    18
420
        0
176
     1
 90
       50
176
     1
 90
        3
176
     1
 62
     5
420
      255
176
     1
290
     0
176
     1
 90
       50
176
     1
 90
       50
176
     1
 90
       50
176
     1
290
     0
176
     1
 90
       50
176
     1
 62
   256
176
     0
 40
1.0
176
     0
 90
        2
176
     1
  1
strokes_ogs.tif
176
     1
290
     0
176
     1
 40
1.0
176
     1
 40
1.0
176
     1
  0
VISUALSTYLE
  5
449
102
{ACAD_REACTORS
330
436
102
}
330
436
100
AcDbVisualStyle
  2
EdgeColorOff
 70
    22
177
     3
291
     1
 70
    58
 90
        2
176
     0
 90
        2
176
     0
 90
        0
176
     0
 90
        0
176
     0
 40
0.6
176
     0
 40
30.0
176
     0
 62
     7
420
 16777215
176
     0
 90
        1
176
     0
 90
        4
176
     0
 62
     7
176
     0
 62
   257
176
     0
 90
        1
176
     0
 90
        1
176
     0
 40
1.0
176
     0
 90
        8
176
     2
 62
     7
176
     0
 40
1.0
176
     0
 90
        1
176
     0
 90
        6
176
     0
 90
        2
176
     0
 62
     7
176
     0
 90
        5
176
     0
 90
        0
176
     0
 90
        0
176
     0
290
     0
176
     0
 90
        1
176
     0
 40
0.0
176
     0
 90
        0
176
     0
290
     0
176
     0
290
     1
176
     0
290
     1
176
     0
290
     0
176
     0
290
     0
176
     0
290
     0
176
     0
290
     0
176
     0
290
     0
176
     0
290
     0
176
     0
 90
       50
176
     0
 40
0.0
176
     0
 40
1.0
176
     0
 90
        0
176
     0
 62
    18
420
        0
176
     0
 90
       50
176
     0
 90
        3
176
     0
 62
     5
420
      255
176
     0
290
     0
176
     0
 90
       50
176
     0
 90
       50
176
     0
 90
       50
176
     0
290
     0
176
     0
 90
       50
176
     0
 62
   256
176
     0
 40
1.0
176
     0
 90
        2
176
     0
  1
strokes_ogs.tif
176
     0
290
     0
176
     0
 40
1.0
176
     0
 40
1.0
176
     0
  0
VISUALSTYLE
  5
445
102
{ACAD_REACTORS
330
436
102
}
330
436
100
AcDbVisualStyle
  2
Facepattern
 70
    15
177
     3
291
     1
 70
    58
 90
        2
176
     1
 90
        2
176
     1
 90
        0
176
     1
 90
        0
176
     1
 40
0.6
176
     1
 40
30.0
176
     1
 62
     7
420
 16777215
176
     1
 90
        1
176
     1
 90
        4
176
     1
 62
     7
176
     1
 62
   257
176
     1
 90
        1
176
     1
 90
        1
176
     1
 40
1.0
176
     1
 90
        8
176
     1
 62
     7
176
     1
 40
1.0
176
     1
 90
        1
176
     1
 90
        6
176
     1
 90
        2
176
     1
 62
     7
176
     1
 90
        5
176
     1
 90
        0
176
     1
 90
        0
176
     1
290
     0
176
     1
 90
        1
176
     1
 40
0.0
176
     1
 90
        0
176
     1
290
     0
176
     1
290
     1
176
     1
290
     1
176
     1
290
     0
176
     1
290
     0
176
     1
290
     0
176
     1
290
     0
176
     1
290
     0
176
     1
290
     0
176
     1
 90
       50
176
     1
 40
0.0
176
     1
 40
1.0
176
     1
 90
        0
176
     1
 62
    18
420
        0
176
     1
 90
       50
176
     1
 90
        3
176
     1
 62
     5
420
      255
176
     1
290
     0
176
     1
 90
       50
176
     1
 90
       50
176
     1
 90
       50
176
     1
290
     0
176
     1
 90
       50
176
     1
 62
   256
176
     0
 40
1.0
176
     0
 90
        2
176
     1
  1
strokes_ogs.tif
176
     1
290
     0
176
     1
 40
1.0
176
     1
 40
1.0
176
     1
  0
VISUALSTYLE
  5
437
102
{ACAD_REACTORS
330
436
102
}
330
436
100
AcDbVisualStyle
  2
Flat
 70
     0
177
     3
291
     1
 70
    58
 90
        2
176
     1
 90
        1
176
     1
 90
        1
176
     1
 90
        2
176
     1
 40
0.6
176
     1
 40
30.0
176
     1
 62
     7
420
 16777215
176
     1
 90
        0
176
     1
 90
        0
176
     1
 62
     7
176
     1
 62
   257
176
     1
 90
        1
176
     1
 90
        1
176
     1
 40
1.0
176
     1
 90
        8
176
     1
 62
     7
176
     1
 40
1.0
176
     1
 90
        1
176
     1
 90
        6
176
     1
 90
        2
176
     1
 62
     7
176
     1
 90
        5
176
     1
 90
        0
176
     1
 90
        0
176
     1
290
     0
176
     1
 90
       13
176
     1
 40
0.0
176
     1
 90
        0
176
     1
290
     0
176
     1
290
     1
176
     1
290
     1
176
     1
290
     0
176
     1
290
     0
176
     1
290
     0
176
     1
290
     0
176
     1
290
     0
176
     1
290
     0
176
     1
 90
       50
176
     1
 40
0.0
176
     1
 40
1.0
176
     1
 90
        0
176
     1
 62
    18
420
        0
176
     1
 90
       50
176
     1
 90
        3
176
     1
 62
     5
420
      255
176
     1
290
     0
176
     1
 90
       50
176
     1
 90
       50
176
     1
 90
       50
176
     1
290
     0
176
     1
 90
       50
176
     1
 62
   256
176
     0
 40
1.0
176
     0
 90
        2
176
     1
  1
strokes_ogs.tif
176
     1
290
     0
176
     1
 40
1.0
176
     1
 40
1.0
176
     1
  0
VISUALSTYLE
  5
438
102
{ACAD_REACTORS
330
436
102
}
330
436
100
AcDbVisualStyle
  2
FlatWithEdges
 70
     1
177
     3
291
     1
 70
    58
 90
        2
176
     1
 90
        1
176
     1
 90
        1
176
     1
 90
        2
176
     1
 40
0.6
176
     1
 40
30.0
176
     1
 62
     7
420
 16777215
176
     1
 90
        1
176
     1
 90
        0
176
     1
 62
     7
176
     1
 62
   257
176
     1
 90
        1
176
     1
 90
        1
176
     1
 40
1.0
176
     1
 90
        0
176
     1
 62
   257
176
     1
 40
1.0
176
     1
 90
        1
176
     1
 90
        6
176
     1
 90
        2
176
     1
 62
     7
176
     1
 90
        5
176
     1
 90
        0
176
     1
 90
        0
176
     1
290
     0
176
     1
 90
       13
176
     1
 40
0.0
176
     1
 90
        0
176
     1
290
     0
176
     1
290
     1
176
     1
290
     1
176
     1
290
     0
176
     1
290
     0
176
     1
290
     0
176
     1
290
     0
176
     1
290
     0
176
     1
290
     0
176
     1
 90
       50
176
     1
 40
0.0
176
     1
 40
1.0
176
     1
 90
        0
176
     1
 62
    18
420
        0
176
     1
 90
       50
176
     1
 90
        3
176
     1
 62
     5
420
      255
176
     1
290
     0
176
     1
 90
       50
176
     1
 90
       50
176
     1
 90
       50
176
     1
290
     0
176
     1
 90
       50
176
     1
 62
   256
176
     0
 40
1.0
176
     0
 90
        2
176
     1
  1
strokes_ogs.tif
176
     1
290
     0
176
     1
 40
1.0
176
     1
 40
1.0
176
     1
  0
VISUALSTYLE
  5
439
102
{ACAD_REACTORS
330
436
102
}
330
436
100
AcDbVisualStyle
  2
Gouraud
 70
     2
177
     3
291
     1
 70
    58
 90
        2
176
     1
 90
        2
176
     1
 90
        1
176
     1
 90
        2
176
     1
 40
0.6
176
     1
 40
30.0
176
     1
 62
     7
420
 16777215
176
     1
 90
        0
176
     1
 90
        0
176
     1
 62
     7
176
     1
 62
   257
176
     1
 90
        1
176
     1
 90
        1
176
     1
 40
1.0
176
     1
 90
        0
176
     1
 62
     7
176
     1
 40
1.0
176
     1
 90
        1
176
     1
 90
        6
176
     1
 90
        2
176
     1
 62
     7
176
     1
 90
        5
176
     1
 90
        0
176
     1
 90
        0
176
     1
290
     0
176
     1
 90
       13
176
     1
 40
0.0
176
     1
 90
        0
176
     1
290
     0
176
     1
290
     1
176
     1
290
     1
176
     1
290
     0
176
     1
290
     0
176
     1
290
     0
176
     1
290
     0
176
     1
290
     0
176
     1
290
     0
176
     1
 90
       50
176
     1
 40
0.0
176
     1
 40
1.0
176
     1
 90
        0
176
     1
 62
    18
420
        0
176
     1
 90
       50
176
     1
 90
        3
176
     1
 62
     5
420
      255
176
     1
290
     0
176
     1
 90
       50
176
     1
 90
       50
176
     1
 90
       50
176
     1
290
     0
176
     1
 90
       50
176
     1
 62
   256
176
     0
 40
1.0
176
     0
 90
        2
176
     1
  1
strokes_ogs.tif
176
     1
290
     0
176
     1
 40
1.0
176
     1
 40
1.0
176
     1
  0
VISUALSTYLE
  5
43A
102
{ACAD_REACTORS
330
436
102
}
330
436
100
AcDbVisualStyle
  2
GouraudWithEdges
 70
     3
177
     3
291
     1
 70
    58
 90
        2
176
     1
 90
        2
176
     1
 90
        1
176
     1
 90
        2
176
     1
 40
0.6
176
     1
 40
30.0
176
     1
 62
     7
420
 16777215
176
     1
 90
        1
176
     1
 90
        0
176
     1
 62
     7
176
     1
 62
   257
176
     1
 90
        1
176
     1
 90
        1
176
     1
 40
1.0
176
     1
 90
        0
176
     1
 62
   257
176
     1
 40
1.0
176
     1
 90
        1
176
     1
 90
        6
176
     1
 90
        2
176
     1
 62
     7
176
     1
 90
        5
176
     1
 90
        0
176
     1
 90
        0
176
     1
290
     0
176
     1
 90
       13
176
     1
 40
0.0
176
     1
 90
        0
176
     1
290
     0
176
     1
290
     1
176
     1
290
     1
176
     1
290
     0
176
     1
290
     0
176
     1
290
     0
176
     1
290
     0
176
     1
290
     0
176
     1
290
     0
176
     1
 90
       50
176
     1
 40
0.0
176
     1
 40
1.0
176
     1
 90
        0
176
     1
 62
    18
420
        0
176
     1
 90
       50
176
     1
 90
        3
176
     1
 62
     5
420
      255
176
     1
290
     0
176
     1
 90
       50
176
     1
 90
       50
176
     1
 90
       50
176
     1
290
     0
176
     1
 90
       50
176
     1
 62
   256
176
     0
 40
1.0
176
     0
 90
        2
176
     1
  1
strokes_ogs.tif
176
     1
290
     0
176
     1
 40
1.0
176
     1
 40
1.0
176
     1
  0
VISUALSTYLE
  5
43D
102
{ACAD_REACTORS
330
436
102
}
330
436
100
AcDbVisualStyle
  2
Hidden
 70
     6
177
     3
291
     0
 70
    58
 90
        1
176
     1
 90
        2
176
     1
 90
        2
176
     1
 90
        0
176
     1
 40
0.6
176
     1
 40
30.0
176
     1
 62
     7
420
 16777215
176
     1
 90
        2
176
     1
 90
        2
176
     1
 62
     7
176
     1
 62
   257
176
     1
 90
        2
176
     1
 90
        1
176
     1
 40
40.0
176
     1
 90
        0
176
     1
 62
   257
176
     1
 40
1.0
176
     1
 90
        1
176
     1
 90
        6
176
     1
 90
        2
176
     1
 62
     7
176
     1
 90
        3
176
     1
 90
        0
176
     1
 90
        0
176
     1
290
     0
176
     1
 90
        1
176
     1
 40
0.0
176
     1
 90
        0
176
     1
290
     0
176
     1
290
     1
176
     1
290
     1
176
     1
290
     0
176
     1
290
     0
176
     1
290
     0
176
     1
290
     0
176
     1
290
     0
176
     1
290
     0
176
     1
 90
       50
176
     1
 40
0.0
176
     1
 40
1.0
176
     1
 90
        0
176
     1
 62
    18
420
        0
176
     1
 90
       50
176
     1
 90
        3
176
     1
 62
     5
420
      255
176
     1
290
     0
176
     1
 90
       50
176
     1
 90
       50
176
     1
 90
       50
176
     1
290
     0
176
     1
 90
       50
176
     1
 62
   256
176
     0
 40
1.0
176
     0
 90
        2
176
     1
  1
strokes_ogs.tif
176
     1
290
     0
176
     1
 40
1.0
176
     1
 40
1.0
176
     1
  0
VISUALSTYLE
  5
447
102
{ACAD_REACTORS
330
436
102
}
330
436
100
AcDbVisualStyle
  2
JitterOff
 70
    20
177
     3
291
     1
 70
    58
 90
        2
176
     0
 90
        2
176
     0
 90
        0
176
     0
 90
        0
176
     0
 40
0.6
176
     0
 40
30.0
176
     0
 62
     7
420
 16777215
176
     0
 90
        1
176
     0
 90
        4
176
     0
 62
     7
176
     0
 62
   257
176
     0
 90
        1
176
     0
 90
        1
176
     0
 40
1.0
176
     0
 90
       10
176
     2
 62
     7
176
     0
 40
1.0
176
     0
 90
        1
176
     0
 90
        6
176
     0
 90
        2
176
     0
 62
     7
176
     0
 90
        5
176
     0
 90
        0
176
     0
 90
        0
176
     0
290
     0
176
     0
 90
        1
176
     0
 40
0.0
176
     0
 90
        0
176
     0
290
     0
176
     0
290
     1
176
     0
290
     1
176
     0
290
     0
176
     0
290
     0
176
     0
290
     0
176
     0
290
     0
176
     0
290
     0
176
     0
290
     0
176
     0
 90
       50
176
     0
 40
0.0
176
     0
 40
1.0
176
     0
 90
        0
176
     0
 62
    18
420
        0
176
     0
 90
       50
176
     0
 90
        3
176
     0
 62
     5
420
      255
176
     0
290
     0
176
     0
 90
       50
176
     0
 90
       50
176
     0
 90
       50
176
     0
290
     0
176
     0
 90
       50
176
     0
 62
   256
176
     0
 40
1.0
176
     0
 90
        2
176
     0
  1
strokes_ogs.tif
176
     0
290
     0
176
     0
 40
1.0
176
     0
 40
1.0
176
     0
  0
VISUALSTYLE
  5
444
102
{ACAD_REACTORS
330
436
102
}
330
436
100
AcDbVisualStyle
  2
Linepattern
 70
    14
177
     3
291
     1
 70
    58
 90
        2
176
     1
 90
        2
176
     1
 90
        0
176
     1
 90
        0
176
     1
 40
0.6
176
     1
 40
30.0
176
     1
 62
     7
420
 16777215
176
     1
 90
        1
176
     1
 90
        4
176
     1
 62
     7
176
     1
 62
   257
176
     1
 90
        7
176
     1
 90
        7
176
     1
 40
1.0
176
     1
 90
        8
176
     1
 62
     7
176
     1
 40
1.0
176
     1
 90
        1
176
     1
 90
        6
176
     1
 90
        2
176
     1
 62
     7
176
     1
 90
        5
176
     1
 90
        0
176
     1
 90
        0
176
     1
290
     0
176
     1
 90
        1
176
     1
 40
0.0
176
     1
 90
        0
176
     1
290
     0
176
     1
290
     1
176
     1
290
     1
176
     1
290
     0
176
     1
290
     0
176
     1
290
     0
176
     1
290
     0
176
     1
290
     0
176
     1
290
     0
176
     1
 90
       50
176
     1
 40
0.0
176
     1
 40
1.0
176
     1
 90
        0
176
     1
 62
    18
420
        0
176
     1
 90
       50
176
     1
 90
        3
176
     1
 62
     5
420
      255
176
     1
290
     0
176
     1
 90
       50
176
     1
 90
       50
176
     1
 90
       50
176
     1
290
     0
176
     1
 90
       50
176
     1
 62
   256
176
     0
 40
1.0
176
     0
 90
        2
176
     1
  1
strokes_ogs.tif
176
     1
290
     0
176
     1
 40
1.0
176
     1
 40
1.0
176
     1
  0
VISUALSTYLE
  5
448
102
{ACAD_REACTORS
330
436
102
}
330
436
100
AcDbVisualStyle
  2
OverhangOff
 70
    21
177
     3
291
     1
 70
    58
 90
        2
176
     0
 90
        2
176
     0
 90
        0
176
     0
 90
        0
176
     0
 40
0.6
176
     0
 40
30.0
176
     0
 62
     7
420
 16777215
176
     0
 90
        1
176
     0
 90
        4
176
     0
 62
     7
176
     0
 62
   257
176
     0
 90
        1
176
     0
 90
        1
176
     0
 40
1.0
176
     0
 90
        9
176
     2
 62
     7
176
     0
 40
1.0
176
     0
 90
        1
176
     0
 90
        6
176
     0
 90
        2
176
     0
 62
     7
176
     0
 90
        5
176
     0
 90
        0
176
     0
 90
        0
176
     0
290
     0
176
     0
 90
        1
176
     0
 40
0.0
176
     0
 90
        0
176
     0
290
     0
176
     0
290
     1
176
     0
290
     1
176
     0
290
     0
176
     0
290
     0
176
     0
290
     0
176
     0
290
     0
176
     0
290
     0
176
     0
290
     0
176
     0
 90
       50
176
     0
 40
0.0
176
     0
 40
1.0
176
     0
 90
        0
176
     0
 62
    18
420
        0
176
     0
 90
       50
176
     0
 90
        3
176
     0
 62
     5
420
      255
176
     0
290
     0
176
     0
 90
       50
176
     0
 90
       50
176
     0
 90
       50
176
     0
290
     0
176
     0
 90
       50
176
     0
 62
   256
176
     0
 40
1.0
176
     0
 90
        2
176
     0
  1
strokes_ogs.tif
176
     0
290
     0
176
     0
 40
1.0
176
     0
 40
1.0
176
     0
  0
VISUALSTYLE
  5
43F
102
{ACAD_REACTORS
330
436
102
}
330
436
100
AcDbVisualStyle
  2
Realistic
 70
     8
177
     3
291
     0
 70
    58
 90
        2
176
     1
 90
        3
176
     1
 90
        0
176
     1
 90
        2
176
     1
 40
0.6
176
     1
 40
30.0
176
     1
 62
     7
420
 16777215
176
     1
 90
        0
176
     1
 90
        0
176
     1
 62
     7
176
     1
 62
   257
176
     1
 90
        1
176
     1
 90
        1
176
     1
 40
1.0
176
     1
 90
        8
176
     1
 62
   257
176
     1
 40
1.0
176
     1
 90
        1
176
     1
 90
        6
176
     1
 90
        2
176
     1
 62
     7
176
     1
 90
        3
176
     1
 90
        0
176
     1
 90
        0
176
     1
290
     0
176
     1
 90
       13
176
     1
 40
0.0
176
     1
 90
        0
176
     1
290
     0
176
     1
290
     1
176
     1
290
     1
176
     1
290
     0
176
     1
290
     0
176
     1
290
     0
176
     1
290
     0
176
     1
290
     0
176
     1
290
     0
176
     1
 90
       50
176
     1
 40
0.0
176
     1
 40
1.0
176
     1
 90
        0
176
     1
 62
    18
420
        0
176
     1
 90
       50
176
     1
 90
        3
176
     1
 62
     5
420
      255
176
     1
290
     0
176
     1
 90
       50
176
     1
 90
       50
176
     1
 90
       50
176
     1
290
     0
176
     1
 90
       50
176
     1
 62
   256
176
     0
 40
1.0
176
     0
 90
        2
176
     1
  1
strokes_ogs.tif
176
     1
290
     0
176
     1
 40
1.0
176
     1
 40
1.0
176
     1
  0
VISUALSTYLE
  5
44E
102
{ACAD_REACTORS
330
436
102
}
330
436
100
AcDbVisualStyle
  2
Shaded
 70
    27
177
     3
291
     0
 70
    58
 90
        2
176
     1
 90
        2
176
     1
 90
        1
176
     1
 90
        2
176
     1
 40
0.6
176
     1
 40
30.0
176
     1
 62
     7
420
 16777215
176
     1
 90
        0
176
     1
 90
        4
176
     1
 62
     7
176
     1
 62
   257
176
     1
 90
        1
176
     1
 90
        1
176
     1
 40
1.0
176
     1
 90
        8
176
     1
 62
   257
176
     1
 40
1.0
176
     1
 90
        1
176
     1
 90
        6
176
     1
 90
        2
176
     1
 62
     8
420
  7895160
176
     1
 90
        3
176
     1
 90
        0
176
     1
 90
        0
176
     1
290
     0
176
     1
 90
        5
176
     1
 40
0.0
176
     1
 90
        0
176
     1
290
     0
176
     1
290
     1
176
     1
290
     1
176
     1
290
     0
176
     1
290
     0
176
     1
290
     0
176
     1
290
     0
176
     1
290
     0
176
     1
290
     0
176
     1
 90
       50
176
     1
 40
0.0
176
     1
 40
1.0
176
     1
 90
        0
176
     1
 62
    18
420
        0
176
     1
 90
       50
176
     1
 90
        3
176
     1
 62
     5
420
      255
176
     1
290
     0
176
     1
 90
       50
176
     1
 90
       50
176
     1
 90
       50
176
     1
290
     0
176
     1
 90
       50
176
     1
 62
   256
176
     0
 40
1.0
176
     0
 90
        2
176
     1
  1
strokes_ogs.tif
176
     1
290
     0
176
     1
 40
1.0
176
     1
 40
1.0
176
     1
  0
VISUALSTYLE
  5
44D
102
{ACAD_REACTORS
330
436
102
}
330
436
100
AcDbVisualStyle
  2
Shaded with edges
 70
    26
177
     3
291
     0
 70
    58
 90
        2
176
     1
 90
        2
176
     1
 90
        1
176
     1
 90
        2
176
     1
 40
0.6
176
     1
 40
30.0
176
     1
 62
     7
420
 16777215
176
     1
 90
        1
176
     1
 90
       10
176
     1
 62
     7
176
     1
 62
   257
176
     1
 90
        2
176
     1
 90
        1
176
     1
 40
1.0
176
     1
 90
        8
176
     1
 62
   257
176
     1
 40
1.0
176
     1
 90
        1
176
     1
 90
        6
176
     1
 90
        2
176
     1
 62
     7
176
     1
 90
        3
176
     1
 90
        0
176
     1
 90
        0
176
     1
290
     0
176
     1
 90
        5
176
     1
 40
0.0
176
     1
 90
        0
176
     1
290
     0
176
     1
290
     1
176
     1
290
     1
176
     1
290
     0
176
     1
290
     0
176
     1
290
     0
176
     1
290
     0
176
     1
290
     0
176
     1
290
     0
176
     1
 90
       50
176
     1
 40
0.0
176
     1
 40
1.0
176
     1
 90
        0
176
     1
 62
    18
420
        0
176
     1
 90
       50
176
     1
 90
        3
176
     1
 62
     5
420
      255
176
     1
290
     0
176
     1
 90
       50
176
     1
 90
       50
176
     1
 90
       50
176
     1
290
     0
176
     1
 90
       50
176
     1
 62
   256
176
     0
 40
1.0
176
     0
 90
        2
176
     1
  1
strokes_ogs.tif
176
     1
290
     0
176
     1
 40
1.0
176
     1
 40
1.0
176
     1
  0
VISUALSTYLE
  5
44A
102
{ACAD_REACTORS
330
436
102
}
330
436
100
AcDbVisualStyle
  2
Shades of Gray
 70
    23
177
     3
291
     0
 70
    58
 90
        2
176
     1
 90
        2
176
     1
 90
        3
176
     1
 90
        0
176
     1
 40
0.6
176
     1
 40
30.0
176
     1
 62
     7
420
 16777215
176
     1
 90
        2
176
     1
 90
        2
176
     1
 62
     7
176
     1
 62
     7
176
     1
 90
        1
176
     1
 90
        1
176
     1
 40
40.0
176
     1
 90
        8
176
     1
 62
     7
176
     1
 40
1.0
176
     1
 90
        1
176
     1
 90
        6
176
     1
 90
        2
176
     1
 62
     7
176
     1
 90
        3
176
     1
 90
        0
176
     1
 90
        0
176
     1
290
     0
176
     1
 90
        1
176
     1
 40
0.0
176
     1
 90
        0
176
     1
290
     0
176
     1
290
     1
176
     1
290
     1
176
     1
290
     0
176
     1
290
     0
176
     1
290
     0
176
     1
290
     0
176
     1
290
     0
176
     1
290
     0
176
     1
 90
       50
176
     1
 40
0.0
176
     1
 40
1.0
176
     1
 90
        0
176
     1
 62
    18
420
        0
176
     1
 90
       50
176
     1
 90
        3
176
     1
 62
     5
420
      255
176
     1
290
     0
176
     1
 90
       50
176
     1
 90
       50
176
     1
 90
       50
176
     1
290
     0
176
     1
 90
       50
176
     1
 62
   256
176
     0
 40
1.0
176
     0
 90
        2
176
     1
  1
strokes_ogs.tif
176
     1
290
     0
176
     1
 40
1.0
176
     1
 40
1.0
176
     1
  0
VISUALSTYLE
  5
44B
102
{ACAD_REACTORS
330
436
102
}
330
436
100
AcDbVisualStyle
  2
Sketchy
 70
    24
177
     3
291
     0
 70
    58
 90
        1
176
     1
 90
        2
176
     1
 90
        2
176
     1
 90
        0
176
     1
 40
0.6
176
     1
 40
30.0
176
     1
 62
     7
420
 16777215
176
     1
 90
        2
176
     1
 90
        2
176
     1
 62
     7
176
     1
 62
     7
176
     1
 90
        1
176
     1
 90
        1
176
     1
 40
40.0
176
     1
 90
       11
176
     1
 62
     7
176
     1
 40
1.0
176
     1
 90
        1
176
     1
 90
        6
176
     1
 90
        2
176
     1
 62
     7
176
     1
 90
        6
176
     1
 90
        0
176
     1
 90
        0
176
     1
290
     0
176
     1
 90
        1
176
     1
 40
0.0
176
     1
 90
        0
176
     1
290
     0
176
     1
290
     1
176
     1
290
     1
176
     1
290
     0
176
     1
290
     0
176
     1
290
     0
176
     1
290
     0
176
     1
290
     0
176
     1
290
     0
176
     1
 90
       50
176
     1
 40
0.0
176
     1
 40
1.0
176
     1
 90
        0
176
     1
 62
    18
420
        0
176
     1
 90
       50
176
     1
 90
        3
176
     1
 62
     5
420
      255
176
     1
290
     0
176
     1
 90
       50
176
     1
 90
       50
176
     1
 90
       50
176
     1
290
     0
176
     1
 90
       50
176
     1
 62
   256
176
     0
 40
1.0
176
     0
 90
        2
176
     1
  1
strokes_ogs.tif
176
     1
290
     0
176
     1
 40
1.0
176
     1
 40
1.0
176
     1
  0
VISUALSTYLE
  5
443
102
{ACAD_REACTORS
330
436
102
}
330
436
100
AcDbVisualStyle
  2
Thicken
 70
    13
177
     3
291
     1
 70
    58
 90
        2
176
     1
 90
        2
176
     1
 90
        0
176
     1
 90
        0
176
     1
 40
0.6
176
     1
 40
30.0
176
     1
 62
     7
420
 16777215
176
     1
 90
        1
176
     1
 90
        4
176
     1
 62
     7
176
     1
 62
   257
176
     1
 90
        1
176
     1
 90
        1
176
     1
 40
1.0
176
     1
 90
       12
176
     1
 62
     7
176
     1
 40
1.0
176
     1
 90
        1
176
     1
 90
        6
176
     1
 90
        2
176
     1
 62
     7
176
     1
 90
        5
176
     1
 90
        0
176
     1
 90
        0
176
     1
290
     0
176
     1
 90
        1
176
     1
 40
0.0
176
     1
 90
        0
176
     1
290
     0
176
     1
290
     1
176
     1
290
     1
176
     1
290
     0
176
     1
290
     0
176
     1
290
     0
176
     1
290
     0
176
     1
290
     0
176
     1
290
     0
176
     1
 90
       50
176
     1
 40
0.0
176
     1
 40
1.0
176
     1
 90
        0
176
     1
 62
    18
420
        0
176
     1
 90
       50
176
     1
 90
        3
176
     1
 62
     5
420
      255
176
     1
290
     0
176
     1
 90
       50
176
     1
 90
       50
176
     1
 90
       50
176
     1
290
     0
176
     1
 90
       50
176
     1
 62
   256
176
     0
 40
1.0
176
     0
 90
        2
176
     1
  1
strokes_ogs.tif
176
     1
290
     0
176
     1
 40
1.0
176
     1
 40
1.0
176
     1
  0
VISUALSTYLE
  5
43C
102
{ACAD_REACTORS
330
436
102
}
330
436
100
AcDbVisualStyle
  2
Wireframe
 70
     5
177
     3
291
     0
 70
    58
 90
        0
176
     1
 90
        2
176
     1
 90
        0
176
     1
 90
        0
176
     1
 40
0.6
176
     1
 40
30.0
176
     1
 62
     7
420
 16777215
176
     1
 90
        1
176
     1
 90
        4
176
     1
 62
     7
176
     1
 62
   257
176
     1
 90
        1
176
     1
 90
        1
176
     1
 40
1.0
176
     1
 90
        0
176
     1
 62
   257
176
     1
 40
1.0
176
     1
 90
        1
176
     1
 90
        6
176
     1
 90
        2
176
     1
 62
     7
176
     1
 90
        3
176
     1
 90
        0
176
     1
 90
        0
176
     1
290
     0
176
     1
 90
        1
176
     1
 40
0.0
176
     1
 90
        0
176
     1
290
     0
176
     1
290
     1
176
     1
290
     1
176
     1
290
     0
176
     1
290
     0
176
     1
290
     0
176
     1
290
     0
176
     1
290
     0
176
     1
290
     0
176
     1
 90
       50
176
     1
 40
0.0
176
     1
 40
1.0
176
     1
 90
        0
176
     1
 62
    18
420
        0
176
     1
 90
       50
176
     1
 90
        3
176
     1
 62
     5
420
      255
176
     1
290
     0
176
     1
 90
       50
176
     1
 90
       50
176
     1
 90
       50
176
     1
290
     0
176
     1
 90
       50
176
     1
 62
   256
176
     0
 40
1.0
176
     0
 90
        2
176
     1
  1
strokes_ogs.tif
176
     1
290
     0
176
     1
 40
1.0
176
     1
 40
1.0
176
     1
  0
VISUALSTYLE
  5
44C
102
{ACAD_REACTORS
330
436
102
}
330
436
100
AcDbVisualStyle
  2
X-Ray
 70
    25
177
     3
291
     0
 70
    58
 90
        2
176
     1
 90
        2
176
     1
 90
        1
176
     1
 90
        1
176
     1
 40
0.5
176
     1
 40
30.0
176
     1
 62
     7
420
 16777215
176
     1
 90
        1
176
     1
 90
        0
176
     1
 62
     7
176
     1
 62
   257
176
     1
 90
        1
176
     1
 90
        1
176
     1
 40
1.0
176
     1
 90
        8
176
     1
 62
     7
176
     1
 40
1.0
176
     1
 90
        1
176
     1
 90
        6
176
     1
 90
        2
176
     1
 62
     7
176
     1
 90
        3
176
     1
 90
        0
176
     1
 90
        0
176
     1
290
     0
176
     1
 90
       13
176
     1
 40
0.0
176
     1
 90
        0
176
     1
290
     0
176
     1
290
     1
176
     1
290
     1
176
     1
290
     0
176
     1
290
     0
176
     1
290
     0
176
     1
290
     0
176
     1
290
     0
176
     1
290
     0
176
     1
 90
       50
176
     1
 40
0.0
176
     1
 40
1.0
176
     1
 90
        0
176
     1
 62
    18
420
        0
176
     1
 90
       50
176
     1
 90
        3
176
     1
 62
     5
420
      255
176
     1
290
     0
176
     1
 90
       50
176
     1
 90
       50
176
     1
 90
       50
176
     1
290
     0
176
     1
 90
       50
176
     1
 62
   256
176
     0
 40
1.0
176
     0
 90
        2
176
     1
  1
strokes_ogs.tif
176
     1
290
     0
176
     1
 40
1.0
176
     1
 40
1.0
176
     1
  0
DICTIONARYVAR
  5
45B
102
{ACAD_REACTORS
330
45A
102
}
330
45A
100
DictionaryVariables
280
     0
  1
1:1
  0
DICTIONARYVAR
  5
45D
102
{ACAD_REACTORS
330
45A
102
}
330
45A
100
DictionaryVariables
280
     0
  1
Standard
  0
DICTIONARYVAR
  5
45C
102
{ACAD_REACTORS
330
45A
102
}
330
45A
100
DictionaryVariables
280
     0
  1
Standard
  0
DICTIONARYVAR
  5
45E
102
{ACAD_REACTORS
330
45A
102
}
330
45A
100
DictionaryVariables
280
     0
  1
0
  0
DICTIONARY
  5
461
330
454
100
AcDbDictionary
280
     1
281
     1
  3
ACAD_ROUNDTRIP_2008_TABLESTYLE_CELLSTYLEMAP
360
462
  0
CELLSTYLEMAP
  5
462
102
{ACAD_REACTORS
330
461
102
}
330
461
100
AcDbCellStyleMap
 90
        3
300
CELLSTYLE
  1
TABLEFORMAT_BEGIN
 90
        5
170
     1
 91
        0
 92
    32768
 62
   257
 93
        1
300
CONTENTFORMAT
  1
CONTENTFORMAT_BEGIN
 90
        0
 91
        0
 92
        4
 93
        0
300

 40
0.0
140
1.0
 94
        5
 62
     0
340
11
144
6.0
309
CONTENTFORMAT_END
171
     1
301
MARGIN
  1
CELLMARGIN_BEGIN
 40
1.5
 40
1.5
 40
1.5
 40
1.5
 40
1.5
 40
1.5
309
CELLMARGIN_END
 94
        6
 95
        1
302
GRIDFORMAT
  1
GRIDFORMAT_BEGIN
 90
        0
 91
        1
 62
     0
 92
       -2
340
14
 93
        0
 40
0.045
309
GRIDFORMAT_END
 95
        2
302
GRIDFORMAT
  1
GRIDFORMAT_BEGIN
 90
        0
 91
        1
 62
     0
 92
       -2
340
14
 93
        0
 40
0.045
309
GRIDFORMAT_END
 95
        4
302
GRIDFORMAT
  1
GRIDFORMAT_BEGIN
 90
        0
 91
        1
 62
     0
 92
       -2
340
14
 93
        0
 40
0.045
309
GRIDFORMAT_END
 95
        8
302
GRIDFORMAT
  1
GRIDFORMAT_BEGIN
 90
        0
 91
        1
 62
     0
 92
       -2
340
14
 93
        0
 40
0.045
309
GRIDFORMAT_END
 95
       16
302
GRIDFORMAT
  1
GRIDFORMAT_BEGIN
 90
        0
 91
        1
 62
     0
 92
       -2
340
14
 93
        0
 40
0.045
309
GRIDFORMAT_END
 95
       32
302
GRIDFORMAT
  1
GRIDFORMAT_BEGIN
 90
        0
 91
        1
 62
     0
 92
       -2
340
14
 93
        0
 40
0.045
309
GRIDFORMAT_END
309
TABLEFORMAT_END
  1
CELLSTYLE_BEGIN
 90
        1
 91
        1
300
_TITLE
309
CELLSTYLE_END
300
CELLSTYLE
  1
TABLEFORMAT_BEGIN
 90
        5
170
     1
 91
        0
 92
        0
 62
   257
 93
        1
300
CONTENTFORMAT
  1
CONTENTFORMAT_BEGIN
 90
        0
 91
        0
 92
        4
 93
        0
300

 40
0.0
140
1.0
 94
        5
 62
     0
340
11
144
4.5
309
CONTENTFORMAT_END
171
     1
301
MARGIN
  1
CELLMARGIN_BEGIN
 40
1.5
 40
1.5
 40
1.5
 40
1.5
 40
1.5
 40
1.5
309
CELLMARGIN_END
 94
        6
 95
        1
302
GRIDFORMAT
  1
GRIDFORMAT_BEGIN
 90
        0
 91
        1
 62
     0
 92
       -2
340
14
 93
        0
 40
0.045
309
GRIDFORMAT_END
 95
        2
302
GRIDFORMAT
  1
GRIDFORMAT_BEGIN
 90
        0
 91
        1
 62
     0
 92
       -2
340
14
 93
        0
 40
0.045
309
GRIDFORMAT_END
 95
        4
302
GRIDFORMAT
  1
GRIDFORMAT_BEGIN
 90
        0
 91
        1
 62
     0
 92
       -2
340
14
 93
        0
 40
0.045
309
GRIDFORMAT_END
 95
        8
302
GRIDFORMAT
  1
GRIDFORMAT_BEGIN
 90
        0
 91
        1
 62
     0
 92
       -2
340
14
 93
        0
 40
0.045
309
GRIDFORMAT_END
 95
       16
302
GRIDFORMAT
  1
GRIDFORMAT_BEGIN
 90
        0
 91
        1
 62
     0
 92
       -2
340
14
 93
        0
 40
0.045
309
GRIDFORMAT_END
 95
       32
302
GRIDFORMAT
  1
GRIDFORMAT_BEGIN
 90
        0
 91
        1
 62
     0
 92
       -2
340
14
 93
        0
 40
0.045
309
GRIDFORMAT_END
309
TABLEFORMAT_END
  1
CELLSTYLE_BEGIN
 90
        2
 91
        1
300
_HEADER
309
CELLSTYLE_END
300
CELLSTYLE
  1
TABLEFORMAT_BEGIN
 90
        5
170
     1
 91
        0
 92
        0
 62
   257
 93
        1
300
CONTENTFORMAT
  1
CONTENTFORMAT_BEGIN
 90
        0
 91
        0
 92
        4
 93
        0
300

 40
0.0
140
1.0
 94
        2
 62
     0
340
11
144
4.5
309
CONTENTFORMAT_END
171
     1
301
MARGIN
  1
CELLMARGIN_BEGIN
 40
1.5
 40
1.5
 40
1.5
 40
1.5
 40
1.5
 40
1.5
309
CELLMARGIN_END
 94
        6
 95
        1
302
GRIDFORMAT
  1
GRIDFORMAT_BEGIN
 90
        0
 91
        1
 62
     0
 92
       -2
340
14
 93
        0
 40
0.045
309
GRIDFORMAT_END
 95
        2
302
GRIDFORMAT
  1
GRIDFORMAT_BEGIN
 90
        0
 91
        1
 62
     0
 92
       -2
340
14
 93
        0
 40
0.045
309
GRIDFORMAT_END
 95
        4
302
GRIDFORMAT
  1
GRIDFORMAT_BEGIN
 90
        0
 91
        1
 62
     0
 92
       -2
340
14
 93
        0
 40
0.045
309
GRIDFORMAT_END
 95
        8
302
GRIDFORMAT
  1
GRIDFORMAT_BEGIN
 90
        0
 91
        1
 62
     0
 92
       -2
340
14
 93
        0
 40
0.045
309
GRIDFORMAT_END
 95
       16
302
GRIDFORMAT
  1
GRIDFORMAT_BEGIN
 90
        0
 91
        1
 62
     0
 92
       -2
340
14
 93
        0
 40
0.045
309
GRIDFORMAT_END
 95
       32
302
GRIDFORMAT
  1
GRIDFORMAT_BEGIN
 90
        0
 91
        1
 62
     0
 92
       -2
340
14
 93
        0
 40
0.045
309
GRIDFORMAT_END
309
TABLEFORMAT_END
  1
CELLSTYLE_BEGIN
 90
        3
 91
        2
300
_DATA
309
CELLSTYLE_END
  0
ENDSEC
  0
EOF
