  0
SECTION
  2
HEADER
  9
$ACADVER
  1
AC1024
  9
$ACADMAINTVER
 70
     6
  9
$DWGCODEPAGE
  3
ANSI_1252
  9
$INSBASE
 10
0.0
 20
0.0
 30
0.0
  9
$EXTMIN
 10
0.0
 20
0.0
 30
0.0
  9
$EXTMAX
 10
594.0
 20
841.0
 30
0.0
  9
$LIMMIN
 10
0.0
 20
0.0
  9
$LIMMAX
 10
594.0
 20
841.0
  9
$ORTHOMODE
 70
     0
  9
$REGENMODE
 70
     1
  9
$FILLMODE
 70
     1
  9
$QTEXTMODE
 70
     0
  9
$MIRRTEXT
 70
     1
  9
$LTSCALE
 40
1.0
  9
$ATTMODE
 70
     1
  9
$TEXTSIZE
 40
10.0
  9
$TRACEWID
 40
1.0
  9
$TEXTSTYLE
  7
Standard
  9
$CLAYER
  8
0
  9
$CELTYPE
  6
ByLayer
  9
$CECOLOR
 62
   256
  9
$CELTSCALE
 40
1.0
  9
$DISPSILH
 70
     0
  9
$DIMSCALE
 40
1.0
  9
$DIMASZ
 40
2.5
  9
$DIMEXO
 40
0.0
  9
$DIMDLI
 40
3.75
  9
$DIMRND
 40
0.0
  9
$DIMDLE
 40
0.0
  9
$DIMEXE
 40
1.0
  9
$DIMTP
 40
0.0
  9
$DIMTM
 40
0.0
  9
$DIMTXT
 40
3.5
  9
$DIMCEN
 40
2.5
  9
$DIMTSZ
 40
0.0
  9
$DIMTOL
 70
     0
  9
$DIMLIM
 70
     0
  9
$DIMTIH
 70
     1
  9
$DIMTOH
 70
     1
  9
$DIMSE1
 70
     0
  9
$DIMSE2
 70
     0
  9
$DIMTAD
 70
     1
  9
$DIMZIN
 70
     0
  9
$DIMBLK
  1

  9
$DIMASO
 70
     1
  9
$DIMSHO
 70
     1
  9
$DIMPOST
  1

  9
$DIMAPOST
  1

  9
$DIMALT
 70
     0
  9
$DIMALTD
 70
     3
  9
$DIMALTF
 40
0.0393700787
  9
$DIMLFAC
 40
1.0
  9
$DIMTOFL
 70
     1
  9
$DIMTVP
 40
0.0
  9
$DIMTIX
 70
     0
  9
$DIMSOXD
 70
     0
  9
$DIMSAH
 70
     0
  9
$DIMBLK1
  1

  9
$DIMBLK2
  1

  9
$DIMSTYLE
  2
ISO-25
  9
$DIMCLRD
 70
     0
  9
$DIMCLRE
 70
     0
  9
$DIMCLRT
 70
     0
  9
$DIMTFAC
 40
1.0
  9
$DIMGAP
 40
1.5
  9
$DIMJUST
 70
     0
  9
$DIMSD1
 70
     0
  9
$DIMSD2
 70
     0
  9
$DIMTOLJ
 70
     0
  9
$DIMTZIN
 70
     0
  9
$DIMALTZ
 70
     0
  9
$DIMALTTZ
 70
     0
  9
$DIMUPT
 70
     0
  9
$DIMDEC
 70
     2
  9
$DIMTDEC
 70
     2
  9
$DIMALTU
 70
     2
  9
$DIMALTTD
 70
     3
  9
$DIMTXSTY
  7
Standard
  9
$DIMAUNIT
 70
     0
  9
$DIMADEC
 70
     2
  9
$DIMALTRND
 40
0.0
  9
$DIMAZIN
 70
     0
  9
$DIMDSEP
 70
    44
  9
$DIMATFIT
 70
     3
  9
$DIMFRAC
 70
     0
  9
$DIMLDRBLK
  1

  9
$DIMLUNIT
 70
     2
  9
$DIMLWD
 70
    -2
  9
$DIMLWE
 70
    -2
  9
$DIMTMOVE
 70
     0
  9
$DIMFXL
 40
1.0
  9
$DIMFXLON
 70
     0
  9
$DIMJOGANG
 40
0.7853981634
  9
$DIMTFILL
 70
     0
  9
$DIMTFILLCLR
 70
     0
  9
$DIMARCSYM
 70
     0
  9
$DIMLTYPE
  6

  9
$DIMLTEX1
  6

  9
$DIMLTEX2
  6

  9
$DIMTXTDIRECTION
 70
     0
  9
$LUNITS
 70
     2
  9
$LUPREC
 70
     2
  9
$SKETCHINC
 40
1.0
  9
$FILLETRAD
 40
10.0
  9
$AUNITS
 70
     0
  9
$AUPREC
 70
     2
  9
$MENU
  1
.
  9
$ELEVATION
 40
0.0
  9
$PELEVATION
 40
0.0
  9
$THICKNESS
 40
0.0
  9
$LIMCHECK
 70
     0
  9
$CHAMFERA
 40
10.0
  9
$CHAMFERB
 40
10.0
  9
$CHAMFERC
 40
20.0
  9
$CHAMFERD
 40
0.0
  9
$SKPOLY
 70
     0
  9
$TDCREATE
 40
2456580.646212894
  9
$TDUCREATE
 40
2456580.56287956
  9
$TDUPDATE
 40
2456580.646213252
  9
$TDUUPDATE
 40
2456580.562879919
  9
$TDINDWG
 40
0.0000000116
  9
$TDUSRTIMER
 40
0.0000000116
  9
$USRTIMER
 70
     1
  9
$ANGBASE
 50
0.0
  9
$ANGDIR
 70
     0
  9
$PDMODE
 70
     0
  9
$PDSIZE
 40
-1.0
  9
$PLINEWID
 40
0.0
  9
$SPLFRAME
 70
     0
  9
$SPLINETYPE
 70
     6
  9
$SPLINESEGS
 70
     8
  9
$HANDSEED
  5
15C
  9
$SURFTAB1
 70
     6
  9
$SURFTAB2
 70
     6
  9
$SURFTYPE
 70
     6
  9
$SURFU
 70
     6
  9
$SURFV
 70
     6
  9
$UCSBASE
  2

  9
$UCSNAME
  2

  9
$UCSORG
 10
0.0
 20
0.0
 30
0.0
  9
$UCSXDIR
 10
1.0
 20
0.0
 30
0.0
  9
$UCSYDIR
 10
0.0
 20
1.0
 30
0.0
  9
$UCSORTHOREF
  2

  9
$UCSORTHOVIEW
 70
     0
  9
$UCSORGTOP
 10
0.0
 20
0.0
 30
0.0
  9
$UCSORGBOTTOM
 10
0.0
 20
0.0
 30
0.0
  9
$UCSORGLEFT
 10
0.0
 20
0.0
 30
0.0
  9
$UCSORGRIGHT
 10
0.0
 20
0.0
 30
0.0
  9
$UCSORGFRONT
 10
0.0
 20
0.0
 30
0.0
  9
$UCSORGBACK
 10
0.0
 20
0.0
 30
0.0
  9
$PUCSBASE
  2

  9
$PUCSNAME
  2

  9
$PUCSORG
 10
0.0
 20
0.0
 30
0.0
  9
$PUCSXDIR
 10
1.0
 20
0.0
 30
0.0
  9
$PUCSYDIR
 10
0.0
 20
1.0
 30
0.0
  9
$PUCSORTHOREF
  2

  9
$PUCSORTHOVIEW
 70
     0
  9
$PUCSORGTOP
 10
0.0
 20
0.0
 30
0.0
  9
$PUCSORGBOTTOM
 10
0.0
 20
0.0
 30
0.0
  9
$PUCSORGLEFT
 10
0.0
 20
0.0
 30
0.0
  9
$PUCSORGRIGHT
 10
0.0
 20
0.0
 30
0.0
  9
$PUCSORGFRONT
 10
0.0
 20
0.0
 30
0.0
  9
$PUCSORGBACK
 10
0.0
 20
0.0
 30
0.0
  9
$USERI1
 70
     0
  9
$USERI2
 70
     0
  9
$USERI3
 70
     0
  9
$USERI4
 70
     0
  9
$USERI5
 70
     0
  9
$USERR1
 40
0.0
  9
$USERR2
 40
0.0
  9
$USERR3
 40
0.0
  9
$USERR4
 40
0.0
  9
$USERR5
 40
0.0
  9
$WORLDVIEW
 70
     1
  9
$SHADEDGE
 70
     3
  9
$SHADEDIF
 70
    70
  9
$TILEMODE
 70
     1
  9
$MAXACTVP
 70
    64
  9
$PINSBASE
 10
0.0
 20
0.0
 30
0.0
  9
$PLIMCHECK
 70
     0
  9
$PEXTMIN
 10
1.0000000000E+20
 20
1.0000000000E+20
 30
1.0000000000E+20
  9
$PEXTMAX
 10
-1.0000000000E+20
 20
-1.0000000000E+20
 30
-1.0000000000E+20
  9
$PLIMMIN
 10
0.0
 20
0.0
  9
$PLIMMAX
 10
420.0
 20
297.0
  9
$UNITMODE
 70
     0
  9
$VISRETAIN
 70
     1
  9
$PLINEGEN
 70
     0
  9
$PSLTSCALE
 70
     1
  9
$TREEDEPTH
 70
  3020
  9
$CMLSTYLE
  2
Standard
  9
$CMLJUST
 70
     0
  9
$CMLSCALE
 40
20.0
  9
$PROXYGRAPHICS
 70
     1
  9
$MEASUREMENT
 70
     1
  9
$CELWEIGHT
370
    -1
  9
$ENDCAPS
280
     0
  9
$JOINSTYLE
280
     0
  9
$LWDISPLAY
290
     1
  9
$INSUNITS
 70
     4
  9
$HYPERLINKBASE
  1

  9
$STYLESHEET
  1

  9
$XEDIT
290
     1
  9
$CEPSNTYPE
380
     0
  9
$PSTYLEMODE
290
     1
  9
$FINGERPRINTGUID
  2
{EBF9AACF-407C-4C8D-8BE7-9D59D3E74048}
  9
$VERSIONGUID
  2
{FAEB1C32-E019-11D5-929B-00C0DF256EC4}
  9
$EXTNAMES
290
     1
  9
$PSVPSCALE
 40
0.0
  9
$OLESTARTUP
290
     0
  9
$SORTENTS
280
   127
  9
$INDEXCTL
280
     0
  9
$HIDETEXT
280
     1
  9
$XCLIPFRAME
280
     2
  9
$HALOGAP
280
     0
  9
$OBSCOLOR
 70
   257
  9
$OBSLTYPE
280
     0
  9
$INTERSECTIONDISPLAY
280
     0
  9
$INTERSECTIONCOLOR
 70
   257
  9
$DIMASSOC
280
     2
  9
$PROJECTNAME
  1

  9
$CAMERADISPLAY
290
     0
  9
$LENSLENGTH
 40
50.0
  9
$CAMERAHEIGHT
 40
0.0
  9
$STEPSPERSEC
 40
2.0
  9
$STEPSIZE
 40
6.0
  9
$3DDWFPREC
 40
2.0
  9
$PSOLWIDTH
 40
5.0
  9
$PSOLHEIGHT
 40
80.0
  9
$LOFTANG1
 40
1.5707963268
  9
$LOFTANG2
 40
1.5707963268
  9
$LOFTMAG1
 40
0.0
  9
$LOFTMAG2
 40
0.0
  9
$LOFTPARAM
 70
     7
  9
$LOFTNORMALS
280
     1
  9
$LATITUDE
 40
37.795
  9
$LONGITUDE
 40
-122.394
  9
$NORTHDIRECTION
 40
0.0
  9
$TIMEZONE
 70
 -8000
  9
$LIGHTGLYPHDISPLAY
280
     1
  9
$TILEMODELIGHTSYNCH
280
     1
  9
$SOLIDHIST
280
     1
  9
$SHOWHIST
280
     1
  9
$DWFFRAME
280
     2
  9
$DGNFRAME
280
     2
  9
$REALWORLDSCALE
290
     1
  9
$INTERFERECOLOR
 62
   256
  9
$CSHADOW
280
     0
  9
$SHADOWPLANELOCATION
 40
0.0
  0
ENDSEC
  0
SECTION
  2
CLASSES
  0
CLASS
  1
ACDBDICTIONARYWDFLT
  2
AcDbDictionaryWithDefault
  3
ObjectDBX Classes
 90
        0
 91
        4
280
     0
281
     0
  0
CLASS
  1
VISUALSTYLE
  2
AcDbVisualStyle
  3
ObjectDBX Classes
 90
     4095
 91
        4
280
     0
281
     0
  0
CLASS
  1
MATERIAL
  2
AcDbMaterial
  3
ObjectDBX Classes
 90
     1153
 91
        4
280
     0
281
     0
  0
ENDSEC
  0
SECTION
  2
TABLES
  0
TABLE
  2
VPORT
  5
8
330
0
100
AcDbSymbolTable
 70
     1
  0
VPORT
  5
29
330
8
100
AcDbSymbolTableRecord
100
AcDbViewportTableRecord
  2
*Active
 70
     0
 10
0.0
 20
0.0
 11
1.0
 21
1.0
 12
297.0
 22
420.5
 13
0.0
 23
0.0
 14
10.0
 24
10.0
 15
10.0
 25
10.0
 16
0.0
 26
0.0
 36
1.0
 17
0.0
 27
0.0
 37
0.0
 40
841.0
 41
0.7063020214
 42
50.0
 43
0.0
 44
0.0
 50
0.0
 51
0.0
 71
     0
 72
  2000
 73
     1
 74
     3
 75
     0
 76
     0
 77
     0
 78
     0
281
     0
 65
     1
110
0.0
120
0.0
130
0.0
111
1.0
121
0.0
131
0.0
112
0.0
122
1.0
132
0.0
 79
     0
146
0.0
 60
     3
 61
     5
292
     1
282
     1
141
0.0
142
0.0
 63
   250
  0
ENDTAB
  0
TABLE
  2
LTYPE
  5
5
330
0
100
AcDbSymbolTable
 70
     6
  0
LTYPE
  5
14
330
5
100
AcDbSymbolTableRecord
100
AcDbLinetypeTableRecord
  2
ByBlock
 70
     0
  3

 72
    65
 73
     0
 40
0.0
  0
LTYPE
  5
15
330
5
100
AcDbSymbolTableRecord
100
AcDbLinetypeTableRecord
  2
ByLayer
 70
     0
  3

 72
    65
 73
     0
 40
0.0
  0
LTYPE
  5
16
330
5
100
AcDbSymbolTableRecord
100
AcDbLinetypeTableRecord
  2
Continuous
 70
     0
  3
Solid line
 72
    65
 73
     0
 40
0.0
  0
LTYPE
  5
3F
330
5
100
AcDbSymbolTableRecord
100
AcDbLinetypeTableRecord
  2
HIDDEN
 70
     0
  3
Hidden __ __ __ __ __ __ __ __ __ __ __ __ __ __
 72
    65
 73
     2
 40
1.905
 49
1.27
 74
     0
 49
-0.635
 74
     0
  0
LTYPE
  5
40
330
5
100
AcDbSymbolTableRecord
100
AcDbLinetypeTableRecord
  2
PHANTOM
 70
     0
  3
Phantom ______  __  __  ______  __  __  ______
 72
    65
 73
     6
 40
12.7
 49
6.35
 74
     0
 49
-1.27
 74
     0
 49
1.27
 74
     0
 49
-1.27
 74
     0
 49
1.27
 74
     0
 49
-1.27
 74
     0
  0
LTYPE
  5
41
330
5
100
AcDbSymbolTableRecord
100
AcDbLinetypeTableRecord
  2
CENTER
 70
     0
  3
Center ____ _ ____ _ ____ _ ____ _ ____ _ ____
 72
    65
 73
     4
 40
10.16
 49
6.35
 74
     0
 49
-1.27
 74
     0
 49
1.27
 74
     0
 49
-1.27
 74
     0
  0
LTYPE
  5
42
330
5
100
AcDbSymbolTableRecord
100
AcDbLinetypeTableRecord
  2
CENTERX2
 70
     0
  3
Center (2x) ________  __  ________  __  _____
 72
    65
 73
     4
 40
20.32
 49
12.7
 74
     0
 49
-2.54
 74
     0
 49
2.54
 74
     0
 49
-2.54
 74
     0
  0
LTYPE
  5
43
330
5
100
AcDbSymbolTableRecord
100
AcDbLinetypeTableRecord
  2
DOT2
 70
     0
  3
Dot (.5x) ........................................
 72
    65
 73
     2
 40
0.635
 49
0.0
 74
     0
 49
-0.635
 74
     0
  0
ENDTAB
  0
TABLE
  2
LAYER
  5
2
330
0
100
AcDbSymbolTable
 70
     1
  0
LAYER
  5
10
330
2
100
AcDbSymbolTableRecord
100
AcDbLayerTableRecord
  2
0
 70
     0
 62
     7
  6
Continuous
370
    -3
390
F
347
3E
  0
ENDTAB
  0
TABLE
  2
STYLE
  5
3
330
0
100
AcDbSymbolTable
 70
     3
  0
STYLE
  5
11
330
3
100
AcDbSymbolTableRecord
100
AcDbTextStyleTableRecord
  2
Standard
 70
     0
 40
0.0
 41
1.0
 50
0.0
 71
     0
 42
10.0
  3
txt
  4

  0
STYLE
  5
47
330
3
100
AcDbSymbolTableRecord
100
AcDbTextStyleTableRecord
  2
SLDTEXTSTYLE0
 70
     0
 40
0.0
 41
0.96
 50
0.0
 71
     0
 42
0.2
  3
ISOCP3
  4

  0
STYLE
  5
5E
330
3
100
AcDbSymbolTableRecord
100
AcDbTextStyleTableRecord
  2
SLDTEXTSTYLE1
 70
     0
 40
0.0
 41
0.605
 50
0.0
 71
     0
 42
0.2
  3
TXT
  4

  0
ENDTAB
  0
TABLE
  2
VIEW
  5
6
330
0
100
AcDbSymbolTable
 70
     0
  0
ENDTAB
  0
TABLE
  2
UCS
  5
7
330
0
100
AcDbSymbolTable
 70
     0
  0
ENDTAB
  0
TABLE
  2
APPID
  5
9
330
0
100
AcDbSymbolTable
 70
     1
  0
APPID
  5
12
330
9
100
AcDbSymbolTableRecord
100
AcDbRegAppTableRecord
  2
ACAD
 70
     0
  0
ENDTAB
  0
TABLE
  2
DIMSTYLE
  5
A
330
0
100
AcDbSymbolTable
 70
     2
100
AcDbDimStyleTable
  0
DIMSTYLE
105
27
330
A
100
AcDbSymbolTableRecord
100
AcDbDimStyleTableRecord
  2
ISO-25
 70
     0
 41
2.5
 42
0.625
 43
3.75
 44
1.25
 73
     0
 74
     0
 77
     1
 78
     8
140
2.5
141
2.5
143
0.0393700787
147
0.625
171
     3
172
     1
178
     0
271
     2
272
     2
274
     3
278
    44
283
     0
284
     8
340
11
  0
DIMSTYLE
105
48
102
{ACAD_REACTORS
330
46
330
53
102
}
330
A
100
AcDbSymbolTableRecord
100
AcDbDimStyleTableRecord
  2
SLDDIMSTYLE0
 70
     0
 41
2.5
 44
0.0
 45
0.000000001
 73
     0
 74
     0
 77
     1
 78
    12
 79
     3
140
6.0
147
1.5
173
     1
178
     0
271
     2
272
     2
276
     2
284
    12
340
47
  0
ENDTAB
  0
TABLE
  2
BLOCK_RECORD
  5
1
330
0
100
AcDbSymbolTable
 70
     3
  0
BLOCK_RECORD
  5
1F
330
1
100
AcDbSymbolTableRecord
100
AcDbBlockTableRecord
  2
*Model_Space
340
22
 70
     0
280
     1
281
     0
  0
BLOCK_RECORD
  5
1B
330
1
100
AcDbSymbolTableRecord
100
AcDbBlockTableRecord
  2
*Paper_Space
340
1E
 70
     0
280
     1
281
     0
  0
BLOCK_RECORD
  5
23
330
1
100
AcDbSymbolTableRecord
100
AcDbBlockTableRecord
  2
*Paper_Space0
340
26
 70
     0
280
     1
281
     0
  0
BLOCK_RECORD
  5
49
330
1
100
AcDbSymbolTableRecord
100
AcDbBlockTableRecord
  2
_D
340
0
 70
     0
280
     1
281
     0
  0
BLOCK_RECORD
  5
54
330
1
100
AcDbSymbolTableRecord
100
AcDbBlockTableRecord
  2
_D_1
340
0
 70
     0
280
     1
281
     0
  0
ENDTAB
  0
ENDSEC
  0
SECTION
  2
BLOCKS
  0
BLOCK
  5
20
330
1F
100
AcDbEntity
  8
0
100
AcDbBlockBegin
  2
*Model_Space
 70
     0
 10
0.0
 20
0.0
 30
0.0
  3
*Model_Space
  1

  0
ENDBLK
  5
21
330
1F
100
AcDbEntity
  8
0
100
AcDbBlockEnd
  0
BLOCK
  5
1C
330
1B
100
AcDbEntity
 67
     1
  8
0
100
AcDbBlockBegin
  2
*Paper_Space
 70
     0
 10
0.0
 20
0.0
 30
0.0
  3
*Paper_Space
  1

  0
ENDBLK
  5
1D
330
1B
100
AcDbEntity
 67
     1
  8
0
100
AcDbBlockEnd
  0
BLOCK
  5
24
330
23
100
AcDbEntity
  8
0
100
AcDbBlockBegin
  2
*Paper_Space0
 70
     0
 10
0.0
 20
0.0
 30
0.0
  3
*Paper_Space0
  1

  0
ENDBLK
  5
25
330
23
100
AcDbEntity
  8
0
100
AcDbBlockEnd
  0
BLOCK
  5
4A
330
49
100
AcDbEntity
  8
0
100
AcDbBlockBegin
  2
_D
 70
     0
 10
0.0
 20
0.0
 30
0.0
  3
_D
  1

  0
SOLID
  5
4C
330
49
100
AcDbEntity
  8
0
  6
Continuous
 62
     7
370
     0
100
AcDbTrace
 10
42.7614395004
 20
152.0299240879
 30
0.0
 11
42.4614395004
 21
149.5299240879
 31
0.0
 12
43.0614395004
 22
149.5299240879
 32
0.0
 13
43.0614395004
 23
149.5299240879
 33
0.0
  0
SOLID
  5
4D
330
49
100
AcDbEntity
  8
0
  6
Continuous
 62
     7
370
     0
100
AcDbTrace
 10
42.7614395004
 20
52.0299240879
 30
0.0
 11
43.0614395004
 21
54.5299240879
 31
0.0
 12
42.4614395004
 22
54.5299240879
 32
0.0
 13
42.4614395004
 23
54.5299240879
 33
0.0
  0
LINE
  5
4E
330
49
100
AcDbEntity
  8
0
  6
Continuous
 62
     7
370
     0
100
AcDbLine
 10
56.6850079902
 20
152.0299240879
 30
0.0
 11
41.7614395004
 21
152.0299240879
 31
0.0
  0
LINE
  5
4F
330
49
100
AcDbEntity
  8
0
  6
Continuous
 62
     7
370
     0
100
AcDbLine
 10
56.6850079902
 20
52.0299240879
 30
0.0
 11
41.7614395004
 21
52.0299240879
 31
0.0
  0
LINE
  5
50
330
49
100
AcDbEntity
  8
0
  6
Continuous
 62
     7
370
     0
100
AcDbLine
 10
42.7614395004
 20
152.0299240879
 30
0.0
 11
42.7614395004
 21
52.0299240879
 31
0.0
  0
MTEXT
  5
51
330
49
100
AcDbEntity
  8
0
  6
Continuous
 62
     7
370
     0
100
AcDbMText
 10
35.0270329453
 20
91.6722208134
 30
0.1
 40
6.0
 41
0.0
 46
0.0
 71
     1
 72
     1
  1
100
  7
SLDTEXTSTYLE0
 11
-7.044195017643634E-15
 21
1.0
 31
0.0
 73
     1
 44
1.0
  0
MTEXT
  5
52
330
49
100
AcDbEntity
  8
0
  6
Continuous
 62
     7
370
     0
100
AcDbMText
 10
35.0270329453
 20
108.4388881795
 30
0.1
 40
6.0
 41
0.0
 46
0.0
 71
     1
 72
     1
  1
mm
  7
SLDTEXTSTYLE0
 11
-7.044195017643634E-15
 21
1.0
 31
0.0
 73
     1
 44
1.0
  0
ENDBLK
  5
4B
330
49
100
AcDbEntity
  8
0
100
AcDbBlockEnd
  0
BLOCK
  5
55
330
54
100
AcDbEntity
  8
0
100
AcDbBlockBegin
  2
_D_1
 70
     0
 10
0.0
 20
0.0
 30
0.0
  3
_D_1
  1

  0
SOLID
  5
57
330
54
100
AcDbEntity
  8
0
  6
Continuous
 62
     7
370
     0
100
AcDbTrace
 10
56.6850079902
 20
38.4602342313
 30
0.0
 11
59.1850079902
 21
38.1602342313
 31
0.0
 12
59.1850079902
 22
38.7602342313
 32
0.0
 13
59.1850079902
 23
38.7602342313
 33
0.0
  0
SOLID
  5
58
330
54
100
AcDbEntity
  8
0
  6
Continuous
 62
     7
370
     0
100
AcDbTrace
 10
156.6850079902
 20
38.4602342313
 30
0.0
 11
154.1850079902
 21
38.7602342313
 31
0.0
 12
154.1850079902
 22
38.1602342313
 32
0.0
 13
154.1850079902
 23
38.1602342313
 33
0.0
  0
LINE
  5
59
330
54
100
AcDbEntity
  8
0
  6
Continuous
 62
     7
370
     0
100
AcDbLine
 10
56.6850079902
 20
52.0299240879
 30
0.0
 11
56.6850079902
 21
37.4602342313
 31
0.0
  0
LINE
  5
5A
330
54
100
AcDbEntity
  8
0
  6
Continuous
 62
     7
370
     0
100
AcDbLine
 10
156.6850079902
 20
52.0299240879
 30
0.0
 11
156.6850079902
 21
37.4602342313
 31
0.0
  0
LINE
  5
5B
330
54
100
AcDbEntity
  8
0
  6
Continuous
 62
     7
370
     0
100
AcDbLine
 10
56.6850079902
 20
38.4602342313
 30
0.0
 11
156.6850079902
 21
38.4602342313
 31
0.0
  0
MTEXT
  5
5C
330
54
100
AcDbEntity
  8
0
  6
Continuous
 62
     7
370
     0
100
AcDbMText
 10
91.2668151533
 20
46.1946407863
 30
0.1
 40
6.0
 41
0.0
 46
0.0
 71
     1
 72
     1
  1
100
  7
SLDTEXTSTYLE0
 73
     1
 44
1.0
  0
MTEXT
  5
5D
330
54
100
AcDbEntity
  8
0
  6
Continuous
 62
     7
370
     0
100
AcDbMText
 10
108.0334825193
 20
46.1946407863
 30
0.1
 40
6.0
 41
0.0
 46
0.0
 71
     1
 72
     1
  1
mm
  7
SLDTEXTSTYLE0
 73
     1
 44
1.0
  0
ENDBLK
  5
56
330
54
100
AcDbEntity
  8
0
100
AcDbBlockEnd
  0
ENDSEC
  0
SECTION
  2
ENTITIES
  0
LINE
  5
44
330
1F
100
AcDbEntity
  8
0
  6
Continuous
 62
     7
370
     0
100
AcDbLine
 10
56.6850079902
 20
152.0299240879
 30
0.0
 11
56.6850079902
 21
52.0299240879
 31
0.0
  0
LINE
  5
45
330
1F
100
AcDbEntity
  8
0
  6
Continuous
 62
     7
370
     0
100
AcDbLine
 10
56.6850079902
 20
52.0299240879
 30
0.0
 11
156.6850079902
 21
52.0299240879
 31
0.0
  0
DIMENSION
  5
46
330
1F
100
AcDbEntity
  8
0
  6
Continuous
 62
     7
370
     0
100
AcDbDimension
280
     0
  2
_D
 10
42.7614395004
 20
52.0299240879
 30
0.0
 11
42.7614395004
 21
105.4472211621
 31
0.0
 70
   160
  1
<>mm
 71
     2
 42
-1.0
 73
     0
 74
     0
 75
     0
  3
SLDDIMSTYLE0
100
AcDbAlignedDimension
 13
56.6850079902
 23
152.0299240879
 33
0.0
 14
56.6850079902
 24
52.0299240879
 34
0.0
 50
90.0
100
AcDbRotatedDimension
  0
DIMENSION
  5
53
330
1F
100
AcDbEntity
  8
0
  6
Continuous
 62
     7
370
     0
100
AcDbDimension
280
     0
  2
_D_1
 10
156.6850079902
 20
38.4602342313
 30
0.0
 11
105.0418155019
 21
38.4602342313
 31
0.0
 70
   160
  1
<>mm
 71
     2
 42
-1.0
 73
     0
 74
     0
 75
     0
  3
SLDDIMSTYLE0
100
AcDbAlignedDimension
 13
56.6850079902
 23
52.0299240879
 33
0.0
 14
156.6850079902
 24
52.0299240879
 34
0.0
100
AcDbRotatedDimension
  0
MTEXT
  5
5F
330
1F
100
AcDbEntity
  8
0
  6
Continuous
 62
     7
370
     0
100
AcDbMText
 10
222.8856995391
 20
49.3034557666
 30
0.0
 40
10.0
 41
0.0
 46
0.0
 71
     1
 72
     1
  1
32 024 05 75
  7
SLDTEXTSTYLE1
 73
     1
 44
1.0
  0
MTEXT
  5
60
330
1F
100
AcDbEntity
  8
0
  6
Continuous
 62
     7
370
     0
100
AcDbMText
 10
412.8252631579
 20
48.4342449499
 30
0.0
 40
10.0
 41
0.0
 46
0.0
 71
     1
 72
     1
  1
KLUDI GmbH & Co KG
  7
SLDTEXTSTYLE1
 73
     1
 44
1.0
  0
LINE
  5
61
330
1F
100
AcDbEntity
  8
0
  6
Continuous
 62
     7
370
    15
100
AcDbLine
 10
212.9901757839
 20
539.5118202063
 30
0.0
 11
212.9901757839
 21
553.0347817743
 31
0.0
  0
LINE
  5
62
330
1F
100
AcDbEntity
  8
0
  6
Continuous
 62
     7
370
    15
100
AcDbLine
 10
192.9901757839
 20
553.0347817743
 30
0.0
 11
192.9901757839
 21
539.5118202063
 31
0.0
  0
LINE
  5
63
330
1F
100
AcDbEntity
  8
0
  6
Continuous
 62
     7
370
    15
100
AcDbLine
 10
208.7428147384
 20
534.0768356706
 30
0.0
 11
209.0473662124
 21
534.1492990434
 31
0.0
  0
LINE
  5
64
330
1F
100
AcDbEntity
  8
0
  6
Continuous
 62
     7
370
    15
100
AcDbLine
 10
196.9329853554
 20
534.1492990434
 30
0.0
 11
197.2375368295
 21
534.0768356706
 31
0.0
  0
LINE
  5
65
330
1F
100
AcDbEntity
  8
0
  6
Continuous
 62
     7
370
    15
100
AcDbLine
 10
194.0401757839
 20
539.5118202063
 30
0.0
 11
194.0401757839
 21
535.8546189046
 31
0.0
  0
LINE
  5
66
330
1F
100
AcDbEntity
  8
0
  6
Continuous
 62
     7
370
    15
100
AcDbLine
 10
211.9401757839
 20
535.8546189046
 30
0.0
 11
211.9401757839
 21
539.5118202063
 31
0.0
  0
LINE
  5
67
330
1F
100
AcDbEntity
  8
0
  6
Continuous
 62
     7
370
    15
100
AcDbLine
 10
212.9901757839
 20
553.0347817743
 30
0.0
 11
212.9901757839
 21
562.6940400372
 31
0.0
  0
LINE
  5
68
330
1F
100
AcDbEntity
  8
0
  6
Continuous
 62
     7
370
    15
100
AcDbLine
 10
192.9901757839
 20
562.6940400372
 30
0.0
 11
192.9901757839
 21
553.0347817743
 31
0.0
  0
LINE
  5
69
330
1F
100
AcDbEntity
  8
0
  6
Continuous
 62
     7
370
    15
100
AcDbLine
 10
192.9901757839
 20
590.8589163233
 30
0.0
 11
192.9901757839
 21
562.6940400372
 31
0.0
  0
LINE
  5
6A
330
1F
100
AcDbEntity
  8
0
  6
Continuous
 62
     7
370
    15
100
AcDbLine
 10
212.9901757839
 20
562.6940400372
 30
0.0
 11
212.9901757839
 21
590.8589163233
 31
0.0
  0
LINE
  5
6B
330
1F
100
AcDbEntity
  8
0
  6
Continuous
 62
     7
370
    15
100
AcDbLine
 10
215.5021623781
 20
408.9796906646
 30
0.0
 11
215.4620023284
 21
409.0375599339
 31
0.0
  0
LINE
  5
6C
330
1F
100
AcDbEntity
  8
0
  6
Continuous
 62
     7
370
    15
100
AcDbLine
 10
216.2565697839
 20
407.7707142434
 30
0.0
 11
215.5594716095
 21
408.8769500315
 31
0.0
  0
LWPOLYLINE
  5
6D
330
1F
100
AcDbEntity
  8
0
  6
Continuous
 62
     7
370
    15
100
AcDbPolyline
 90
        3
 70
   128
 43
0.0
 10
215.4213415894
 20
409.0961506796
 10
214.3740720461
 20
410.7580787853
 10
214.1732363781
 20
411.2032521039
  0
LINE
  5
6E
330
1F
100
AcDbEntity
  8
0
  6
Continuous
 62
     7
370
    15
100
AcDbLine
 10
187.5595471837
 20
406.511508011
 30
0.0
 11
187.460400798
 21
405.7394171549
 31
0.0
  0
LINE
  5
6F
330
1F
100
AcDbEntity
  8
0
  6
Continuous
 62
     7
370
    15
100
AcDbLine
 10
186.9608931337
 20
403.3395492888
 30
0.0
 11
186.7917175505
 21
402.5752658818
 31
0.0
  0
LWPOLYLINE
  5
70
330
1F
100
AcDbEntity
  8
0
  6
Continuous
 62
     7
370
    15
100
AcDbPolyline
 90
       15
 70
   128
 43
0.0
 10
207.5249483021
 20
439.0903736638
 10
207.0601964459
 20
441.5228673834
 10
205.0818473961
 20
452.1816167193
 10
203.4533808331
 20
460.1584825329
 10
202.4330736507
 20
464.5708819714
 10
201.9010346318
 20
466.0975853007
 10
201.1059021394
 20
467.5381675571
 10
200.0476939445
 20
468.8858481435
 10
198.7379351254
 20
470.1034304547
 10
197.2023216706
 20
471.1429837449
 10
195.4865528261
 20
471.9509490215
 10
193.6611812284
 20
472.4771200041
 10
191.8082794295
 20
472.6903748006
 10
190.0124858269
 20
472.588747447
 10
189.6501496558
 20
472.5178332958
  0
LWPOLYLINE
  5
71
330
1F
100
AcDbEntity
  8
0
  6
Continuous
 62
     7
370
    15
100
AcDbPolyline
 90
       15
 70
   128
 43
0.0
 10
189.647255102
 20
472.5313386485
 10
188.0538561012
 20
472.1228722287
 10
186.378154985
 20
471.3867832019
 10
184.8932429536
 20
470.4226876978
 10
183.5267354124
 20
469.2014894829
 10
182.3350419773
 20
467.7515572037
 10
181.378070283
 20
466.121422166
 10
180.710578439
 20
464.3858352212
 10
180.3611352121
 20
462.6160551717
 10
180.3369634736
 20
460.8740261803
 10
180.5031330899
 20
459.3747152538
 10
180.8292660478
 20
456.75580419
 10
181.9362556412
 20
449.1752445897
 10
183.3694997635
 20
440.520006731
 10
184.3056708616
 20
434.8360195877
  0
LINE
  5
72
330
1F
100
AcDbEntity
  8
0
  6
Continuous
 62
     7
370
    15
100
AcDbLine
 10
186.2330391068
 20
393.9940551529
 30
0.0
 11
186.2495412572
 21
393.9004668071
 31
0.0
  0
LINE
  5
73
330
1F
100
AcDbEntity
  8
0
  6
Continuous
 62
     7
370
    15
100
AcDbLine
 10
219.7330048242
 20
399.8045048415
 30
0.0
 11
219.716491945
 21
399.8981540331
 31
0.0
  0
LINE
  5
74
330
1F
100
AcDbEntity
  8
0
  6
Continuous
 62
     7
370
    15
100
AcDbLine
 10
177.9901757839
 20
338.2479820381
 30
0.0
 11
177.9901757839
 21
335.0587086767
 31
0.0
  0
LINE
  5
75
330
1F
100
AcDbEntity
  8
0
  6
Continuous
 62
     7
370
    15
100
AcDbLine
 10
227.9901757839
 20
335.0587086767
 30
0.0
 11
227.9901757839
 21
338.2479820381
 31
0.0
  0
ARC
  5
76
330
1F
100
AcDbEntity
  8
0
  6
Continuous
 62
     7
370
    15
100
AcDbCircle
 10
226.9901757839
 20
338.2479820381
 30
0.0
 40
1.0
100
AcDbArc
 50
0.0
 51
63.5200440425
  0
ARC
  5
77
330
1F
100
AcDbEntity
  8
0
  6
Continuous
 62
     7
370
    15
100
AcDbCircle
 10
178.9901757839
 20
338.2479820381
 30
0.0
 40
1.0
100
AcDbArc
 50
116.4799559575
 51
180.0
  0
ARC
  5
78
330
1F
100
AcDbEntity
  8
0
  6
Continuous
 62
     7
370
    15
100
AcDbCircle
 10
178.1901757839
 20
335.0587086767
 30
0.0
 40
0.2000000000000455
100
AcDbArc
 50
180.0
 51
270.0
  0
ARC
  5
79
330
1F
100
AcDbEntity
  8
0
  6
Continuous
 62
     7
370
    15
100
AcDbCircle
 10
227.7901757839
 20
335.0587086767
 30
0.0
 40
0.2000000000000455
100
AcDbArc
 50
270.0
 51
0.0
  0
ARC
  5
7A
330
1F
100
AcDbEntity
  8
0
  6
Continuous
 62
     7
370
    15
100
AcDbCircle
 10
190.1372934555
 20
315.8707219821
 30
0.0
 40
26.00000000000005
100
AcDbArc
 50
104.6430576274
 51
116.4799559575
  0
ARC
  5
7B
330
1F
100
AcDbEntity
  8
0
  6
Continuous
 62
     7
370
    15
100
AcDbCircle
 10
215.8430581123
 20
315.8707219821
 30
0.0
 40
26.00000000000005
100
AcDbArc
 50
63.5200440425
 51
75.3569423726
  0
ARC
  5
7C
330
1F
100
AcDbEntity
  8
0
  6
Continuous
 62
     7
370
    15
100
AcDbCircle
 10
222.1629710596
 20
340.0587086767
 30
0.0
 40
1.000000000000005
100
AcDbArc
 50
75.3569423726
 51
90.0
  0
ARC
  5
7D
330
1F
100
AcDbEntity
  8
0
  6
Continuous
 62
     7
370
    15
100
AcDbCircle
 10
183.8173805083
 20
340.0587086767
 30
0.0
 40
1.000000000000005
100
AcDbArc
 50
90.0
 51
104.6430576274
  0
LINE
  5
7E
330
1F
100
AcDbEntity
  8
0
  6
Continuous
 62
     7
370
    15
100
AcDbLine
 10
220.9901757839
 20
341.2587086767
 30
0.0
 11
220.9901757839
 21
434.3505307187
 31
0.0
  0
LINE
  5
7F
330
1F
100
AcDbEntity
  8
0
  6
Continuous
 62
     7
370
    15
100
AcDbLine
 10
184.9901757839
 20
430.9880735761
 30
0.0
 11
184.9901757839
 21
341.2587086767
 31
0.0
  0
ARC
  5
80
330
1F
100
AcDbEntity
  8
0
  6
Continuous
 62
     7
370
    15
100
AcDbCircle
 10
220.7901757839
 20
341.2587086767
 30
0.0
 40
0.2000000000000171
100
AcDbArc
 50
270.0
 51
0.0
  0
ARC
  5
81
330
1F
100
AcDbEntity
  8
0
  6
Continuous
 62
     7
370
    15
100
AcDbCircle
 10
185.1901757839
 20
341.2587086767
 30
0.0
 40
0.1999999999999886
100
AcDbArc
 50
180.0
 51
270.0
  0
ARC
  5
82
330
1F
100
AcDbEntity
  8
0
  6
Continuous
 62
     7
370
    15
100
AcDbCircle
 10
219.9901757839
 20
434.3505307187
 30
0.0
 40
1.0
100
AcDbArc
 50
0.0
 51
54.3152174847
  0
ARC
  5
83
330
1F
100
AcDbEntity
  8
0
  6
Continuous
 62
     7
370
    15
100
AcDbCircle
 10
200.7404341097
 20
407.5466607468
 30
0.0
 40
34.00000000000003
100
AcDbArc
 50
54.3152174847
 51
66.7145656934
  0
ARC
  5
84
330
1F
100
AcDbEntity
  8
0
  6
Continuous
 62
     7
370
    15
100
AcDbCircle
 10
213.7857302081
 20
437.8587086767
 30
0.0
 40
1.0
100
AcDbArc
 50
66.7145656934
 51
90.0
  0
LINE
  5
85
330
1F
100
AcDbEntity
  8
0
  6
Continuous
 62
     7
370
    15
100
AcDbLine
 10
212.9901757839
 20
439.8587086767
 30
0.0
 11
212.9901757839
 21
539.5118202063
 31
0.0
  0
LINE
  5
86
330
1F
100
AcDbEntity
  8
0
  6
Continuous
 62
     7
370
    15
100
AcDbLine
 10
192.9901757839
 20
539.5118202063
 30
0.0
 11
192.9901757839
 21
472.5543475882
 31
0.0
  0
LINE
  5
87
330
1F
100
AcDbEntity
  8
0
  6
Continuous
 62
     7
370
    15
100
AcDbLine
 10
212.9901757839
 20
438.8587086767
 30
0.0
 11
212.9901757839
 21
439.8587086767
 31
0.0
  0
LWPOLYLINE
  5
88
330
1F
100
AcDbEntity
  8
0
  6
Continuous
 62
     7
370
    15
100
AcDbPolyline
 90
       17
 70
   128
 43
0.0
 10
211.9401757839
 20
539.5118202063
 10
211.7682040435
 20
539.9637333694
 10
211.2588975999
 20
540.3982797631
 10
210.431828814
 20
540.7987600132
 10
209.3187814756
 20
541.1497838882
 10
207.9625293695
 20
541.4378617375
 10
206.4151925036
 20
541.6519228909
 10
204.736234166
 20
541.7837410983
 10
202.9901757839
 20
541.8282506599
 10
201.2441174019
 20
541.7837410983
 10
199.5651590643
 20
541.6519228909
 10
198.0178221984
 20
541.4378617375
 10
196.6615700923
 20
541.1497838882
 10
195.5485227538
 20
540.7987600132
 10
194.721453968
 20
540.3982797631
 10
194.2121475243
 20
539.9637333694
 10
194.0401757839
 20
539.5118202063
  0
LWPOLYLINE
  5
89
330
1F
100
AcDbEntity
  8
0
  6
Continuous
 62
     7
370
    15
100
AcDbPolyline
 90
       13
 70
   128
 43
0.0
 10
202.9901757839
 20
542.1000106573
 10
201.1526806058
 20
542.0559417965
 10
199.3777591221
 20
541.9252359263
 10
197.7258541552
 20
541.7123440783
 10
196.2532193475
 20
541.424516029
 10
195.0100035111
 20
541.0715534176
 10
194.0385428704
 20
540.6654759623
 10
193.3719193522
 20
540.220112144
 10
193.032834021
 20
539.7506282932
 10
193.032834021
 20
539.2730121194
 10
193.3719193522
 20
538.8035282686
 10
194.0385428704
 20
538.3581644502
 10
194.0401757839
 20
538.3573160858
  0
LWPOLYLINE
  5
8A
330
1F
100
AcDbEntity
  8
0
  6
Continuous
 62
     7
370
    15
100
AcDbPolyline
 90
       13
 70
   128
 43
0.0
 10
211.9401757839
 20
538.3573160858
 10
211.9418086975
 20
538.3581644502
 10
212.6084322157
 20
538.8035282686
 10
212.9475175469
 20
539.2730121194
 10
212.9475175469
 20
539.7506282932
 10
212.6084322157
 20
540.220112144
 10
211.9418086975
 20
540.6654759623
 10
210.9703480567
 20
541.0715534176
 10
209.7271322204
 20
541.424516029
 10
208.2544974127
 20
541.7123440783
 10
206.6025924458
 20
541.9252359263
 10
204.8276709621
 20
542.0559417965
 10
202.9901757839
 20
542.1000106573
  0
LINE
  5
8B
330
1F
100
AcDbEntity
  8
0
  6
Continuous
 62
     7
370
    15
100
AcDbLine
 10
205.7924070378
 20
538.054580788
 30
0.0
 11
202.9901757839
 21
537.8963750758
 31
0.0
  0
LWPOLYLINE
  5
8C
330
1F
100
AcDbEntity
  8
0
  6
Continuous
 62
     7
370
    15
100
AcDbPolyline
 90
       12
 70
   128
 43
0.0
 10
205.7924070378
 20
538.054580788
 10
207.3681223838
 20
537.8750009466
 10
208.7818261175
 20
537.620654238
 10
209.9812022922
 20
537.3009530931
 10
210.9218664312
 20
536.9277284691
 10
211.5690080339
 20
536.5147920288
 10
211.8986787828
 20
536.0774250228
 10
211.8986787828
 20
535.6318127864
 10
211.5690080339
 20
535.1944457804
 10
210.9218664312
 20
534.7815093401
 10
209.9812022922
 20
534.4082847161
 10
209.0473662124
 20
534.1492990434
  0
LWPOLYLINE
  5
8D
330
1F
100
AcDbEntity
  8
0
  6
Continuous
 62
     7
370
    15
100
AcDbPolyline
 90
       16
 70
   128
 43
0.0
 10
202.9901757839
 20
537.8963750758
 10
204.7574251559
 20
537.8483006304
 10
206.4474372501
 20
537.706178378
 10
207.9863504284
 20
537.4762197431
 10
209.3069068005
 20
537.1684750214
 10
210.3513917161
 20
536.7963941341
 10
211.0741561724
 20
536.3762388014
 10
211.4436118946
 20
535.9263718273
 10
211.4436118946
 20
535.4664545575
 10
211.0741561724
 20
535.0165875835
 10
210.3513917161
 20
534.5964322507
 10
209.3069068005
 20
534.2243513634
 10
207.9863504284
 20
533.9166066418
 10
206.4474372501
 20
533.6866480069
 10
204.7574251559
 20
533.5445257545
 10
202.9901757839
 20
533.4964513091
  0
LINE
  5
8E
330
1F
100
AcDbEntity
  8
0
  6
Continuous
 62
     7
370
    15
100
AcDbLine
 10
202.9901757839
 20
537.8963750758
 30
0.0
 11
200.1879445301
 21
538.054580788
 31
0.0
  0
LWPOLYLINE
  5
8F
330
1F
100
AcDbEntity
  8
0
  6
Continuous
 62
     7
370
    15
100
AcDbPolyline
 90
       16
 70
   128
 43
0.0
 10
202.9901757839
 20
533.4964513091
 10
201.222926412
 20
533.5445257545
 10
199.5329143178
 20
533.6866480069
 10
197.9940011394
 20
533.9166066418
 10
196.6734447674
 20
534.2243513634
 10
195.6289598518
 20
534.5964322507
 10
194.9061953954
 20
535.0165875835
 10
194.5367396733
 20
535.4664545575
 10
194.5367396733
 20
535.9263718273
 10
194.9061953954
 20
536.3762388014
 10
195.6289598518
 20
536.7963941341
 10
196.6734447674
 20
537.1684750214
 10
197.9940011394
 20
537.4762197431
 10
199.5329143178
 20
537.706178378
 10
201.222926412
 20
537.8483006304
 10
202.9901757839
 20
537.8963750758
  0
LWPOLYLINE
  5
90
330
1F
100
AcDbEntity
  8
0
  6
Continuous
 62
     7
370
    15
100
AcDbPolyline
 90
       12
 70
   128
 43
0.0
 10
196.9329853554
 20
534.1492990434
 10
195.9991492757
 20
534.4082847161
 10
195.0584851366
 20
534.7815093401
 10
194.411343534
 20
535.1944457804
 10
194.081672785
 20
535.6318127864
 10
194.081672785
 20
536.0774250228
 10
194.411343534
 20
536.5147920288
 10
195.0584851366
 20
536.9277284691
 10
195.9991492757
 20
537.3009530931
 10
197.1985254503
 20
537.620654238
 10
198.612229184
 20
537.8750009466
 10
200.1879445301
 20
538.054580788
  0
LINE
  5
91
330
1F
100
AcDbEntity
  8
0
  6
Continuous
 62
     7
370
    15
100
AcDbLine
 10
200.1879445301
 20
538.054580788
 30
0.0
 11
200.1879445301
 21
540.7941525547
 31
0.0
  0
LINE
  5
92
330
1F
100
AcDbEntity
  8
0
  6
Continuous
 62
     7
370
    15
100
AcDbLine
 10
205.7924070378
 20
540.7941525547
 30
0.0
 11
200.1879445301
 21
540.7941525547
 31
0.0
  0
LINE
  5
93
330
1F
100
AcDbEntity
  8
0
  6
Continuous
 62
     7
370
    15
100
AcDbLine
 10
205.7924070378
 20
540.7941525547
 30
0.0
 11
205.7924070378
 21
538.054580788
 31
0.0
  0
ARC
  5
94
330
1F
100
AcDbEntity
  8
0
  6
Continuous
 62
     7
370
    15
100
AcDbCircle
 10
202.9901757839
 20
507.2776191272
 30
0.0
 40
33.63347310333852
100
AcDbArc
 50
85.2207623353
 51
94.7792376647
  0
ARC
  5
95
330
1F
100
AcDbEntity
  8
0
  6
Continuous
 62
     7
370
    15
100
AcDbCircle
 10
202.9901757839
 20
590.8589163233
 30
0.0
 40
10.0
100
AcDbArc
 50
0.0
 51
180.0
  0
LWPOLYLINE
  5
96
330
1F
100
AcDbEntity
  8
0
  6
Continuous
 62
     7
370
    15
100
AcDbPolyline
 90
        8
 70
   128
 43
0.0
 10
207.4545208927
 20
439.0760908055
 10
208.5394721878
 20
433.5062284212
 10
210.6702095145
 20
422.7215636841
 10
211.7046909389
 20
418.1301627594
 10
213.0206011877
 20
413.5980553389
 10
214.02959381
 20
411.3714952943
 10
215.3307203439
 20
409.2538864163
 10
217.9069888578
 20
405.0087106026
  0
LWPOLYLINE
  5
97
330
1F
100
AcDbEntity
  8
0
  6
Continuous
 62
     7
370
    15
100
AcDbPolyline
 90
        8
 70
   128
 43
0.0
 10
186.185491786
 20
399.4153548005
 10
187.1076450949
 20
404.0822398177
 10
187.6011653127
 20
406.4007013283
 10
187.8328149663
 20
408.7793864698
 10
187.5492976102
 20
413.6526205022
 10
186.927687384
 20
418.5351164416
 10
185.2413920608
 20
429.3978986593
 10
184.3804970584
 20
434.8472813813
  0
ELLIPSE
  5
98
330
1F
100
AcDbEntity
  8
0
  6
Continuous
 62
     7
370
    15
100
AcDbEllipse
 10
202.9912730407
 20
396.8524858243
 30
0.0
 11
16.74173185263459
 21
2.952018625022561
 31
0.0
210
0.0
220
0.0
230
1.0
 40
0.999992625
 41
2.815698624023971
 42
6.609079308548382
  0
LWPOLYLINE
  5
99
330
1F
100
AcDbEntity
  8
0
  6
Continuous
 62
     7
370
    15
100
AcDbPolyline
 90
        3
 70
   128
 43
0.0
 10
219.7155497799
 20
399.8979242679
 10
219.1912098397
 20
402.0483942082
 10
218.3434630284
 20
404.2138742472
  0
ARC
  5
9A
330
1F
100
AcDbEntity
  8
0
  6
Continuous
 62
     7
370
    15
100
AcDbCircle
 10
200.0564504255
 20
396.8862320381
 30
0.0
 40
14.1041077831394
100
AcDbArc
 50
173.3515295285
 51
191.8161936418
  0
LWPOLYLINE
  5
9B
330
1F
100
AcDbEntity
  8
0
  6
Continuous
 62
     7
370
    15
100
AcDbPolyline
 90
        3
 70
   128
 43
0.0
 10
218.3434630284
 20
404.2138742472
 10
217.1336678193
 20
406.3562881972
 10
216.7858446694
 20
406.8598441767
  0
LWPOLYLINE
  5
9C
330
1F
100
AcDbEntity
  8
0
  6
Continuous
 62
     7
370
    15
100
AcDbPolyline
 90
        3
 70
   128
 43
0.0
 10
186.4963388838
 20
401.1279897191
 10
186.4512771773
 20
400.9461548944
 10
186.0471902729
 20
398.5191699841
  0
LWPOLYLINE
  5
9D
330
1F
100
AcDbEntity
  8
0
  6
Continuous
 62
     7
370
    15
100
AcDbPolyline
 90
        3
 70
   128
 43
0.0
 10
186.2510227664
 20
399.8253155358
 10
186.4951484372
 20
400.9713809019
 10
186.6530380453
 20
401.5595522721
  0
LINE
  5
9E
330
1F
100
AcDbEntity
  8
0
  6
Continuous
 62
     7
370
    15
100
AcDbLine
 10
227.7901757426
 20
334.8587086767
 30
0.0
 11
178.1901757839
 21
334.8587086767
 31
0.0
  0
LINE
  5
9F
330
1F
100
AcDbEntity
  8
0
  6
Continuous
 62
     7
370
    15
100
AcDbLine
 10
183.8173805216
 20
341.0587086767
 30
0.0
 11
222.1629710596
 21
341.0587086767
 31
0.0
  0
LINE
  5
A0
330
1F
100
AcDbEntity
  8
0
  6
Continuous
 62
     7
370
    15
100
AcDbLine
 10
207.4974017978
 20
438.8587086767
 30
0.0
 11
213.7857301822
 21
438.8587086767
 31
0.0
  0
ARC
  5
A1
330
1F
100
AcDbEntity
  8
0
  6
Continuous
 62
     7
370
     0
100
AcDbCircle
 10
206.0324995775
 20
398.7839336267
 30
0.0
 40
13.4070414426152
100
AcDbArc
 50
27.6660286521
 51
34.8338449209
  0
ARC
  5
A2
330
1F
100
AcDbEntity
  8
0
  6
Continuous
 62
     7
370
     0
100
AcDbCircle
 10
197.271008077
 20
398.0071829673
 30
0.0
 40
11.17449744401167
100
AcDbArc
 50
164.8920729754
 51
172.7583676074
  0
LWPOLYLINE
  5
A3
330
1F
100
AcDbEntity
  8
0
  6
Continuous
 62
     7
370
     0
100
AcDbPolyline
 90
        3
 70
   128
 43
0.0
 10
217.1188387991
 20
404.5982706202
 10
217.1243676395
 20
404.5881785952
 10
217.1298941035
 20
404.5780854522
  0
LWPOLYLINE
  5
A4
330
1F
100
AcDbEntity
  8
0
  6
Continuous
 62
     7
370
     0
100
AcDbPolyline
 90
       21
 70
   128
 43
0.0
 10
189.8020284747
 20
471.6513608254
 10
192.1964828113
 20
471.7912663548
 10
194.5539906788
 20
471.3793287008
 10
195.682432629
 20
470.9758722793
 10
196.7627567086
 20
470.4485653606
 10
198.7411382475
 20
469.0242888034
 10
200.3375413513
 20
467.1759610118
 10
201.5434193645
 20
464.470164411
 10
202.1550386157
 20
461.5444603603
 10
202.7375690174
 20
458.6219423275
 10
203.3135985239
 20
455.7556020773
 10
203.8860226307
 20
452.8881819411
 10
205.0054072153
 20
447.2463252244
 10
206.1413604432
 20
441.4742666089
 10
207.2039077798
 20
435.9729221858
 10
208.2385330429
 20
430.5351024081
 10
209.2992065336
 20
425.0868148763
 10
210.4418043955
 20
419.6715198358
 10
211.8481992238
 20
414.2872868994
 10
214.2267959199
 20
409.3259035484
 10
217.1188385031
 20
404.5982704526
  0
LWPOLYLINE
  5
A5
330
1F
100
AcDbEntity
  8
0
  6
Continuous
 62
     7
370
     0
100
AcDbPolyline
 90
        3
 70
   128
 43
0.0
 10
187.063210308
 20
399.2778118883
 10
187.0648538376
 20
399.2885457188
 10
187.0664996836
 20
399.2992793242
  0
LWPOLYLINE
  5
A6
330
1F
100
AcDbEntity
  8
0
  6
Continuous
 62
     7
370
     0
100
AcDbPolyline
 90
       16
 70
   128
 43
0.0
 10
187.0664963756
 20
399.2992784731
 10
188.5777167712
 20
406.9352016495
 10
188.3166749346
 20
414.6754237585
 10
187.2281752664
 20
422.3862984432
 10
186.0621705311
 20
429.6521499969
 10
184.818879996
 20
437.3931321691
 10
183.3103204287
 20
447.0927345842
 10
181.8528468328
 20
456.6241545006
 10
181.4814284569
 20
459.0200153768
 10
181.1864283844
 20
461.4273320255
 10
181.4304554397
 20
463.8326562604
 10
182.2791076687
 20
466.0834595479
 10
183.6270667462
 20
468.0871392353
 10
185.3755714383
 20
469.7300178536
 10
187.4637891841
 20
470.9462728414
 10
189.801531538
 20
471.6512730953
  0
ARC
  5
A7
330
1F
100
AcDbEntity
  8
0
  6
Continuous
 62
     7
370
     0
100
AcDbCircle
 10
202.9920290309
 20
396.8482022666
 30
0.0
 40
16.11306520388588
100
AcDbArc
 50
171.327934959
 51
28.6672364677
  0
LINE
  5
A8
330
1F
100
AcDbEntity
  8
0
  6
Continuous
 62
     7
370
     0
100
AcDbLine
 10
185.0443850128
 20
413.93895342
 30
0.0
 11
185.0443850128
 21
379.7784639334
 31
0.0
  0
LINE
  5
A9
330
1F
100
AcDbEntity
  8
0
  6
Continuous
 62
     7
370
     0
100
AcDbLine
 10
220.9359665551
 20
379.7784639334
 30
0.0
 11
220.9359665551
 21
413.93895342
 31
0.0
  0
LINE
  5
AA
330
1F
100
AcDbEntity
  8
0
  6
Continuous
 62
     7
370
     0
100
AcDbLine
 10
227.9901757839
 20
338.2479820381
 30
0.0
 11
177.9901757839
 21
338.2479820381
 31
0.0
  0
LINE
  5
AB
330
1F
100
AcDbEntity
  8
0
  6
Continuous
 62
     7
370
     0
100
AcDbLine
 10
178.5442910771
 20
339.1430724403
 30
0.0
 11
227.4360604908
 21
339.1430724403
 31
0.0
  0
LINE
  5
AC
330
1F
100
AcDbEntity
  8
0
  6
Continuous
 62
     7
370
     0
100
AcDbLine
 10
222.4157675775
 20
341.0262281445
 30
0.0
 11
183.5645839904
 21
341.0262281445
 31
0.0
  0
LINE
  5
AD
330
1F
100
AcDbEntity
  8
0
  6
Continuous
 62
     7
370
     0
100
AcDbLine
 10
214.181042211
 20
438.7772555837
 30
0.0
 11
207.4798134625
 21
438.7772555837
 31
0.0
  0
LWPOLYLINE
  5
AE
330
1F
100
AcDbEntity
  8
0
  6
Continuous
 62
     7
370
    15
100
AcDbPolyline
 90
       27
 70
   128
 43
0.0
 10
413.1039831051
 20
472.1995291281
 10
412.9399932429
 20
471.997090094
 10
412.1153589277
 20
470.4141043381
 10
411.2835704949
 20
467.5466085119
 10
410.9074243025
 20
465.3770295709
 10
410.7142372679
 20
463.8644732736
 10
410.5401074287
 20
462.1535812541
 10
410.380026706
 20
460.1814630514
 10
410.1917694205
 20
457.2091312744
 10
410.0448567039
 20
454.3292362899
 10
409.9362712094
 20
451.9160340418
 10
409.8226701577
 20
449.2040546977
 10
409.6896369055
 20
445.9134688221
 10
409.5244534316
 20
441.8749455776
 10
409.3267720449
 20
437.3140939717
 10
409.0547911733
 20
432.2182215802
 10
408.6670080516
 20
427.7955819993
 10
408.0877743977
 20
424.1227220075
 10
407.2825555294
 20
421.214584529
 10
406.7485480209
 20
419.8954440759
 10
405.9799308394
 20
418.4693005985
 10
404.8801542188
 20
417.0439060327
 10
403.4532559719
 20
415.838116285
 10
401.8532461118
 20
414.9955252715
 10
401.0058599436
 20
414.6913316548
 10
400.0435082105
 20
414.4308572476
 10
399.9010820268
 20
414.4065934039
  0
LWPOLYLINE
  5
AF
330
1F
100
AcDbEntity
  8
0
  6
Continuous
 62
     7
370
    15
100
AcDbPolyline
 90
       23
 70
   128
 43
0.0
 10
414.8194896094
 20
380.8238383972
 10
415.8971504631
 20
385.5605327699
 10
416.5860250132
 20
390.6091826715
 10
416.8582043028
 20
395.0047305365
 10
416.8897134591
 20
398.745152339
 10
416.8088283528
 20
402.1547095448
 10
416.714689402
 20
404.7391576568
 10
416.6359693947
 20
406.8603132831
 10
416.5664495365
 20
409.0460443159
 10
416.5147487448
 20
411.300734454
 10
416.4816023869
 20
413.6243752419
 10
416.44984238
 20
424.7144530734
 10
416.4522253193
 20
428.5650428064
 10
416.4561274068
 20
432.5896123382
 10
416.4598211579
 20
436.7881815324
 10
416.4624511974
 20
441.1609280443
 10
416.4668614505
 20
446.0178818215
 10
416.4757781123
 20
449.6132501152
 10
416.4964615359
 20
453.5371293264
 10
416.525112629
 20
457.7895631391
 10
416.4740807474
 20
462.3715594048
 10
416.0700266837
 20
467.2862611163
 10
415.1557839212
 20
471.755544495
  0
LINE
  5
B0
330
1F
100
AcDbEntity
  8
0
  6
Continuous
 62
     7
370
    15
100
AcDbLine
 10
317.1625071238
 20
338.2479820381
 30
0.0
 11
317.1625071238
 21
335.0587086767
 31
0.0
  0
LINE
  5
B1
330
1F
100
AcDbEntity
  8
0
  6
Continuous
 62
     7
370
    15
100
AcDbLine
 10
367.1625071238
 20
335.0587086767
 30
0.0
 11
367.1625071238
 21
338.2479820381
 31
0.0
  0
ARC
  5
B2
330
1F
100
AcDbEntity
  8
0
  6
Continuous
 62
     7
370
    15
100
AcDbCircle
 10
366.1625071238
 20
338.2479820381
 30
0.0
 40
1.0
100
AcDbArc
 50
0.0
 51
63.5200440425
  0
ARC
  5
B3
330
1F
100
AcDbEntity
  8
0
  6
Continuous
 62
     7
370
    15
100
AcDbCircle
 10
318.1625071238
 20
338.2479820381
 30
0.0
 40
1.000000000000006
100
AcDbArc
 50
116.4799559575
 51
180.0
  0
ARC
  5
B4
330
1F
100
AcDbEntity
  8
0
  6
Continuous
 62
     7
370
    15
100
AcDbCircle
 10
317.3625071238
 20
335.0587086767
 30
0.0
 40
0.2000000000000455
100
AcDbArc
 50
180.0
 51
270.0
  0
ARC
  5
B5
330
1F
100
AcDbEntity
  8
0
  6
Continuous
 62
     7
370
    15
100
AcDbCircle
 10
366.9625071238
 20
335.0587086767
 30
0.0
 40
0.2000000000000455
100
AcDbArc
 50
270.0
 51
0.0
  0
ARC
  5
B6
330
1F
100
AcDbEntity
  8
0
  6
Continuous
 62
     7
370
    15
100
AcDbCircle
 10
329.3096247954
 20
315.8707219821
 30
0.0
 40
26.00000000000005
100
AcDbArc
 50
104.6430576274
 51
116.4799559575
  0
ARC
  5
B7
330
1F
100
AcDbEntity
  8
0
  6
Continuous
 62
     7
370
    15
100
AcDbCircle
 10
355.0153894522
 20
315.8707219821
 30
0.0
 40
26.00000000000005
100
AcDbArc
 50
63.5200440425
 51
75.3569423726
  0
LWPOLYLINE
  5
B8
330
1F
100
AcDbEntity
  8
0
  6
Continuous
 62
     7
370
    15
100
AcDbPolyline
 90
        3
 70
   128
 43
0.0
 10
388.346963149
 20
413.4577963517
 10
388.3489764864
 20
412.4588015416
 10
388.3563393539
 20
411.2034485465
  0
LINE
  5
B9
330
1F
100
AcDbEntity
  8
0
  6
Continuous
 62
     7
370
    15
100
AcDbLine
 10
388.3096982901
 20
401.4143887996
 30
0.0
 11
388.3079285029
 21
401.175741475
 31
0.0
  0
ARC
  5
BA
330
1F
100
AcDbEntity
  8
0
  6
Continuous
 62
     7
370
    15
100
AcDbCircle
 10
361.3353023995
 20
340.0587086767
 30
0.0
 40
1.000000000000005
100
AcDbArc
 50
75.3569423726
 51
90.0
  0
ARC
  5
BB
330
1F
100
AcDbEntity
  8
0
  6
Continuous
 62
     7
370
    15
100
AcDbCircle
 10
322.9897118482
 20
340.0587086767
 30
0.0
 40
1.000000000000005
100
AcDbArc
 50
90.0
 51
104.6430576274
  0
LINE
  5
BC
330
1F
100
AcDbEntity
  8
0
  6
Continuous
 62
     7
370
    15
100
AcDbLine
 10
396.1533137594
 20
379.9189098999
 30
0.0
 11
413.6871125995
 21
379.8526074369
 31
0.0
  0
LINE
  5
BD
330
1F
100
AcDbEntity
  8
0
  6
Continuous
 62
     7
370
    15
100
AcDbLine
 10
394.3845793667
 20
413.9258412549
 30
0.0
 11
388.5463074069
 21
413.9479181484
 31
0.0
  0
LINE
  5
BE
330
1F
100
AcDbEntity
  8
0
  6
Continuous
 62
     7
370
    15
100
AcDbLine
 10
360.1625071238
 20
421.8586889091
 30
0.0
 11
360.1625071238
 21
434.3505307187
 31
0.0
  0
LINE
  5
BF
330
1F
100
AcDbEntity
  8
0
  6
Continuous
 62
     7
370
    15
100
AcDbLine
 10
360.1625071238
 20
341.2587086767
 30
0.0
 11
360.1625071238
 21
371.8587199418
 31
0.0
  0
LINE
  5
C0
330
1F
100
AcDbEntity
  8
0
  6
Continuous
 62
     7
370
    15
100
AcDbLine
 10
324.1625071238
 20
434.3505307187
 30
0.0
 11
324.1625071238
 21
341.2587086767
 31
0.0
  0
LWPOLYLINE
  5
C1
330
1F
100
AcDbEntity
  8
0
  6
Continuous
 62
     7
370
    15
100
AcDbPolyline
 90
        8
 70
   128
 43
0.0
 10
368.092598687
 20
413.8726965647
 10
366.0902671406
 20
413.9270675143
 10
364.2760995291
 20
414.2630026062
 10
363.0002296416
 20
414.791932902
 10
362.1501487273
 20
415.3930619838
 10
361.3855498978
 20
416.2524509087
 10
360.7004264625
 20
417.5975069867
 10
360.4560992894
 20
418.6773271571
  0
LWPOLYLINE
  5
C2
330
1F
100
AcDbEntity
  8
0
  6
Continuous
 62
     7
370
    15
100
AcDbPolyline
 90
       11
 70
   128
 43
0.0
 10
360.1525427687
 20
371.9004182983
 10
360.1679602479
 20
373.5063562958
 10
360.411609484
 20
375.3461621978
 10
360.905607079
 20
376.7937441741
 10
361.5834213668
 20
377.8744935508
 10
362.3599159286
 20
378.6307921404
 10
363.1468839877
 20
379.1257298674
 10
364.4842134059
 20
379.6039236041
 10
365.6490762907
 20
379.7918541445
 10
367.4097482387
 20
379.8783448769
 10
368.104550654
 20
379.8658878371
  0
ARC
  5
C3
330
1F
100
AcDbEntity
  8
0
  6
Continuous
 62
     7
370
    15
100
AcDbCircle
 10
359.9625071238
 20
341.2587086767
 30
0.0
 40
0.2000000000000455
100
AcDbArc
 50
270.0
 51
0.0
  0
ARC
  5
C4
330
1F
100
AcDbEntity
  8
0
  6
Continuous
 62
     7
370
    15
100
AcDbCircle
 10
324.3625071238
 20
341.2587086767
 30
0.0
 40
0.2000000000000455
100
AcDbArc
 50
180.0
 51
270.0
  0
ARC
  5
C5
330
1F
100
AcDbEntity
  8
0
  6
Continuous
 62
     7
370
    15
100
AcDbCircle
 10
325.1625071238
 20
434.3505307187
 30
0.0
 40
1.0
100
AcDbArc
 50
125.6847825153
 51
180.0
  0
ARC
  5
C6
330
1F
100
AcDbEntity
  8
0
  6
Continuous
 62
     7
370
    15
100
AcDbCircle
 10
359.1625071238
 20
434.3505307187
 30
0.0
 40
1.0
100
AcDbArc
 50
0.0
 51
54.3152174847
  0
ARC
  5
C7
330
1F
100
AcDbEntity
  8
0
  6
Continuous
 62
     7
370
    15
100
AcDbCircle
 10
344.4122487981
 20
407.5466607468
 30
0.0
 40
34.00000000000005
100
AcDbArc
 50
113.2854343066
 51
125.6847825153
  0
ARC
  5
C8
330
1F
100
AcDbEntity
  8
0
  6
Continuous
 62
     7
370
    15
100
AcDbCircle
 10
339.9127654496
 20
407.5466607468
 30
0.0
 40
34.00000000000001
100
AcDbArc
 50
54.3152174847
 51
66.7145656934
  0
LINE
  5
C9
330
1F
100
AcDbEntity
  8
0
  6
Continuous
 62
     7
370
    15
100
AcDbLine
 10
383.8625071238
 20
413.8587086767
 30
0.0
 11
368.1624984449
 21
413.8587086767
 31
0.0
  0
LINE
  5
CA
330
1F
100
AcDbEntity
  8
0
  6
Continuous
 62
     7
370
    15
100
AcDbLine
 10
368.1624807989
 20
379.8587086767
 30
0.0
 11
383.8625071238
 21
379.8587086767
 31
0.0
  0
ARC
  5
CB
330
1F
100
AcDbEntity
  8
0
  6
Continuous
 62
     7
370
    15
100
AcDbCircle
 10
383.8625071238
 20
380.1587086767
 30
0.0
 40
0.2999999999999545
100
AcDbArc
 50
270.0
 51
0.0
  0
ARC
  5
CC
330
1F
100
AcDbEntity
  8
0
  6
Continuous
 62
     7
370
    15
100
AcDbCircle
 10
383.8625071238
 20
413.5587086767
 30
0.0
 40
0.3000000000000114
100
AcDbArc
 50
0.0
 51
90.0
  0
ARC
  5
CD
330
1F
100
AcDbEntity
  8
0
  6
Continuous
 62
     7
370
    15
100
AcDbCircle
 10
413.7595764531
 20
380.9464215114
 30
0.0
 40
1.079190734351003
100
AcDbArc
 50
266.7971493818
 51
335.8474429162
  0
ARC
  5
CE
330
1F
100
AcDbEntity
  8
0
  6
Continuous
 62
     7
370
    15
100
AcDbCircle
 10
414.0441051623
 20
471.5270541132
 30
0.0
 40
1.170166315092998
100
AcDbArc
 50
10.9885180483
 51
143.8764282955
  0
LINE
  5
CF
330
1F
100
AcDbEntity
  8
0
  6
Continuous
 62
     7
370
    15
100
AcDbLine
 10
384.1625071238
 20
380.8587086767
 30
0.0
 11
384.6625071238
 21
380.8587086767
 31
0.0
  0
LINE
  5
D0
330
1F
100
AcDbEntity
  8
0
  6
Continuous
 62
     7
370
    15
100
AcDbLine
 10
384.6625071238
 20
412.8587086767
 30
0.0
 11
384.1625071238
 21
412.8587086767
 31
0.0
  0
ARC
  5
D1
330
1F
100
AcDbEntity
  8
0
  6
Continuous
 62
     7
370
    15
100
AcDbCircle
 10
379.3937289894
 20
383.3249995129
 30
0.0
 40
29.99999999999997
100
AcDbArc
 50
72.5906374032
 51
79.8849141309
  0
ARC
  5
D2
330
1F
100
AcDbEntity
  8
0
  6
Continuous
 62
     7
370
    15
100
AcDbCircle
 10
379.3937289894
 20
410.3924178405
 30
0.0
 40
29.99999999999997
100
AcDbArc
 50
280.1150858691
 51
298.0329438544
  0
ARC
  5
D3
330
1F
100
AcDbEntity
  8
0
  6
Continuous
 62
     7
370
    15
100
AcDbCircle
 10
331.3669526997
 20
437.8587086767
 30
0.0
 40
1.0
100
AcDbArc
 50
90.0
 51
113.2854343066
  0
ARC
  5
D4
330
1F
100
AcDbEntity
  8
0
  6
Continuous
 62
     7
370
    15
100
AcDbCircle
 10
352.958061548
 20
437.8587086767
 30
0.0
 40
1.0
100
AcDbArc
 50
66.7145656934
 51
90.0
  0
LWPOLYLINE
  5
D5
330
1F
100
AcDbEntity
  8
0
  6
Continuous
 62
     7
370
    15
100
AcDbPolyline
 90
        8
 70
   128
 43
0.0
 10
360.776536635
 20
376.2543133562
 10
360.8204296743
 20
376.4263436097
 10
361.7080658976
 20
377.8732734238
 10
362.7059250691
 20
378.737723375
 10
363.7282771041
 20
379.2659759923
 10
365.077427901
 20
379.654676101
 10
366.8116066403
 20
379.8454163712
 10
368.2331507725
 20
379.8643606402
  0
LINE
  5
D6
330
1F
100
AcDbEntity
  8
0
  6
Continuous
 62
     7
370
    15
100
AcDbLine
 10
367.7985645633
 20
413.9067717252
 30
0.0
 11
365.4391533785
 21
414.0476362865
 31
0.0
  0
LINE
  5
D7
330
1F
100
AcDbEntity
  8
0
  6
Continuous
 62
     7
370
    15
100
AcDbLine
 10
361.6266331151
 20
415.9814797289
 30
0.0
 11
361.0798208256
 21
416.8686419547
 31
0.0
  0
LINE
  5
D8
330
1F
100
AcDbEntity
  8
0
  6
Continuous
 62
     7
370
    15
100
AcDbLine
 10
368.1515452593
 20
413.8856976236
 30
0.0
 11
367.7985645633
 21
413.9067717252
 31
0.0
  0
LINE
  5
D9
330
1F
100
AcDbEntity
  8
0
  6
Continuous
 62
     7
370
    15
100
AcDbLine
 10
502.9088053762
 20
542.1000106573
 30
0.0
 11
499.2853387447
 21
555.6229722253
 31
0.0
  0
LINE
  5
DA
330
1F
100
AcDbEntity
  8
0
  6
Continuous
 62
     7
370
    15
100
AcDbLine
 10
479.9668222189
 20
550.4465913233
 30
0.0
 11
483.5902888504
 21
536.9236297552
 31
0.0
  0
LINE
  5
DB
330
1F
100
AcDbEntity
  8
0
  6
Continuous
 62
     7
370
    15
100
AcDbLine
 10
352.1625071238
 20
439.8587086767
 30
0.0
 11
352.1625071238
 21
552.8589163233
 31
0.0
  0
LINE
  5
DC
330
1F
100
AcDbEntity
  8
0
  6
Continuous
 62
     7
370
    15
100
AcDbLine
 10
332.1625071238
 20
552.8589163233
 30
0.0
 11
332.1625071238
 21
439.8587086767
 31
0.0
  0
ARC
  5
DD
330
1F
100
AcDbEntity
  8
0
  6
Continuous
 62
     7
370
    15
100
AcDbCircle
 10
380.1625071238
 20
552.8589163233
 30
0.0
 40
28.0
100
AcDbArc
 50
90.0
 51
180.0
  0
ARC
  5
DE
330
1F
100
AcDbEntity
  8
0
  6
Continuous
 62
     7
370
    15
100
AcDbCircle
 10
380.1625071238
 20
552.8589163233
 30
0.0
 40
48.0
100
AcDbArc
 50
90.0
 51
180.0
  0
LINE
  5
DF
330
1F
100
AcDbEntity
  8
0
  6
Continuous
 62
     7
370
    15
100
AcDbLine
 10
332.1625071238
 20
439.8587086767
 30
0.0
 11
332.1625071238
 21
438.8587086767
 31
0.0
  0
LINE
  5
E0
330
1F
100
AcDbEntity
  8
0
  6
Continuous
 62
     7
370
    15
100
AcDbLine
 10
352.1625071238
 20
438.8587086767
 30
0.0
 11
352.1625071238
 21
439.8587086767
 31
0.0
  0
LINE
  5
E1
330
1F
100
AcDbEntity
  8
0
  6
Continuous
 62
     7
370
    15
100
AcDbLine
 10
450.3327086318
 20
600.8589163233
 30
0.0
 11
380.1625071238
 21
600.8589163233
 31
0.0
  0
LINE
  5
E2
330
1F
100
AcDbEntity
  8
0
  6
Continuous
 62
     7
370
    15
100
AcDbLine
 10
380.1625071238
 20
580.8589163233
 30
0.0
 11
450.3327086318
 21
580.8589163233
 31
0.0
  0
ARC
  5
E3
330
1F
100
AcDbEntity
  8
0
  6
Continuous
 62
     7
370
    15
100
AcDbCircle
 10
450.3327086318
 20
552.8589163233
 30
0.0
 40
28.00000000000011
100
AcDbArc
 50
15.0
 51
90.0
  0
ARC
  5
E4
330
1F
100
AcDbEntity
  8
0
  6
Continuous
 62
     7
370
    15
100
AcDbCircle
 10
450.3327086318
 20
552.8589163233
 30
0.0
 40
48.00000000000011
100
AcDbArc
 50
15.0
 51
90.0
  0
LINE
  5
E5
330
1F
100
AcDbEntity
  8
0
  6
Continuous
 62
     7
370
    15
100
AcDbLine
 10
499.2853387447
 20
555.6229722253
 30
0.0
 11
496.6971482937
 21
565.2822304882
 31
0.0
  0
LINE
  5
E6
330
1F
100
AcDbEntity
  8
0
  6
Continuous
 62
     7
370
    15
100
AcDbLine
 10
477.3786317679
 20
560.1058495862
 30
0.0
 11
479.9668222189
 21
550.4465913233
 31
0.0
  0
LINE
  5
E7
330
1F
100
AcDbEntity
  8
0
  6
Continuous
 62
     7
370
    15
100
AcDbLine
 10
484.604510968
 20
537.1953897526
 30
0.0
 11
484.8503890608
 21
536.2777602176
 31
0.0
  0
LINE
  5
E8
330
1F
100
AcDbEntity
  8
0
  6
Continuous
 62
     7
370
    15
100
AcDbLine
 10
502.1404613514
 20
540.910621125
 30
0.0
 11
501.8945832586
 21
541.8282506599
 31
0.0
  0
ARC
  5
E9
330
1F
100
AcDbEntity
  8
0
  6
Continuous
 62
     7
370
    15
100
AcDbCircle
 10
396.6427072496
 20
411.019361863
 30
0.0
 40
3.811094178959356
100
AcDbArc
 50
79.7582707768
 51
124.8171627442
  0
ARC
  5
EA
330
1F
100
AcDbEntity
  8
0
  6
Continuous
 62
     7
370
    15
100
AcDbCircle
 10
397.8899247604
 20
410.4319850487
 30
0.0
 40
4.374984289866626
100
AcDbArc
 50
57.6753062895
 51
97.48083683
  0
LWPOLYLINE
  5
EB
330
1F
100
AcDbEntity
  8
0
  6
Continuous
 62
     7
370
    15
100
AcDbPolyline
 90
        3
 70
   128
 43
0.0
 10
413.1012395408
 20
472.2149235236
 10
413.1016139246
 20
472.2344489382
 10
413.1023870934
 20
472.221002462
  0
LWPOLYLINE
  5
EC
330
1F
100
AcDbEntity
  8
0
  6
Continuous
 62
     7
370
    15
100
AcDbPolyline
 90
        4
 70
   128
 43
0.0
 10
399.9783044017
 20
414.3541212069
 10
400.0560810452
 20
414.3635957348
 10
400.4093612353
 20
414.3276345669
 10
400.4496046103
 20
414.2584604772
  0
LWPOLYLINE
  5
ED
330
1F
100
AcDbEntity
  8
0
  6
Continuous
 62
     7
370
    15
100
AcDbPolyline
 90
        9
 70
   128
 43
0.0
 10
414.8358586431
 20
380.8201173487
 10
414.8362924379
 20
380.7667278186
 10
414.8413893441
 20
381.4532695769
 10
414.8495663299
 20
383.001072574
 10
414.8603659378
 20
385.3235455324
 10
414.8731839891
 20
388.2907585479
 10
414.8873033835
 20
391.7367119696
 10
414.9019342179
 20
395.4686231888
 10
414.9162579767
 20
399.2777117912
  0
LINE
  5
EE
330
1F
100
AcDbEntity
  8
0
  6
Continuous
 62
     7
370
    15
100
AcDbLine
 10
415.1874346814
 20
471.7487270534
 30
0.0
 11
415.187333595
 21
471.7619691113
 31
0.0
  0
LINE
  5
EF
330
1F
100
AcDbEntity
  8
0
  6
Continuous
 62
     7
370
    15
100
AcDbLine
 10
342.1625071238
 20
334.8587086767
 30
0.0
 11
317.3625071238
 21
334.8587086767
 31
0.0
  0
LINE
  5
F0
330
1F
100
AcDbEntity
  8
0
  6
Continuous
 62
     7
370
    15
100
AcDbLine
 10
366.9625071238
 20
334.8587086767
 30
0.0
 11
342.1625071238
 21
334.8587086767
 31
0.0
  0
ARC
  5
F1
330
1F
100
AcDbEntity
  8
0
  6
Continuous
 62
     7
370
    15
100
AcDbCircle
 10
396.8808499238
 20
418.0767620603
 30
0.0
 40
5.226405679327399
100
AcDbArc
 50
241.462673045
 51
313.0653085
  0
LWPOLYLINE
  5
F2
330
1F
100
AcDbEntity
  8
0
  6
Continuous
 62
     7
370
    15
100
AcDbPolyline
 90
        9
 70
   128
 43
0.0
 10
388.2990502757
 20
398.5014423746
 10
388.3089194989
 20
401.19487473
 10
388.3180760696
 20
403.7757925523
 10
388.326277353
 20
406.1758055027
 10
388.3333060276
 20
408.3313169424
 10
388.3389758445
 20
410.1852091453
 10
388.3431365623
 20
411.6883568292
 10
388.3456779283
 20
412.8009289008
 10
388.3464886041
 20
413.4577951483
  0
ARC
  5
F3
330
1F
100
AcDbEntity
  8
0
  6
Continuous
 62
     7
370
    15
100
AcDbCircle
 10
723.3109163101
 20
410.599490954
 30
0.0
 40
334.980031056393
100
AcDbArc
 50
179.4615403611
 51
179.7837885651
  0
ARC
  5
F4
330
1F
100
AcDbEntity
  8
0
  6
Continuous
 62
     7
370
    15
100
AcDbCircle
 10
407.0788809369
 20
398.2616011816
 30
0.0
 40
18.78136213007845
100
AcDbArc
 50
179.2683032496
 51
205.5942690238
  0
LWPOLYLINE
  5
F5
330
1F
100
AcDbEntity
  8
0
  6
Continuous
 62
     7
370
    15
100
AcDbPolyline
 90
        8
 70
   128
 43
0.0
 10
395.9452530189
 20
380.0616715408
 10
395.6621646332
 20
380.2496499817
 10
395.1378647399
 20
380.9237250173
 10
394.4243361476
 20
382.0403311509
 10
393.5413859614
 20
383.5684720982
 10
392.5135243234
 20
385.4657276271
 10
391.3692840265
 20
387.6794311169
 10
390.1404284619
 20
390.1481315504
  0
LINE
  5
F6
330
1F
100
AcDbEntity
  8
0
  6
Continuous
 62
     7
370
    15
100
AcDbLine
 10
322.9897118482
 20
341.0587086767
 30
0.0
 11
361.3353023995
 21
341.0587086767
 31
0.0
  0
LWPOLYLINE
  5
F7
330
1F
100
AcDbEntity
  8
0
  6
Continuous
 62
     7
370
    15
100
AcDbPolyline
 90
       13
 70
   128
 43
0.0
 10
388.5442674774
 20
413.8013009846
 10
388.5445787798
 20
413.8352805646
 10
388.5466154165
 20
413.9404323314
 10
388.5472990689
 20
413.689648075
 10
388.5466154165
 20
413.0881809196
 10
388.5445787798
 20
412.1486296695
 10
388.5412318196
 20
410.8906749042
 10
388.5366446441
 20
409.340666734
 10
388.5309133399
 20
407.5310728491
 10
388.5241579593
 20
405.4997984267
 10
388.5165200058
 20
403.2893921389
 10
388.5081594702
 20
400.9461548944
 10
388.4992514786
 20
398.5191699841
  0
LWPOLYLINE
  5
F8
330
1F
100
AcDbEntity
  8
0
  6
Continuous
 62
     7
370
    15
100
AcDbPolyline
 90
        5
 70
   128
 43
0.0
 10
394.3840166957
 20
413.8017043593
 10
394.2859785803
 20
413.7458776438
 10
394.2476190042
 20
413.6762565415
 10
394.2773652212
 20
413.587725785
 10
394.3840151965
 20
413.4853475925
  0
LWPOLYLINE
  5
F9
330
1F
100
AcDbEntity
  8
0
  6
Continuous
 62
     7
370
    15
100
AcDbPolyline
 90
        7
 70
   128
 43
0.0
 10
360.7911291234
 20
376.2491529769
 10
360.9704001368
 20
376.7560398583
 10
361.8212468222
 20
377.9987734949
 10
363.016869424
 20
378.9210749571
 10
364.4936413373
 20
379.5072520149
 10
366.2270276561
 20
379.8000334326
 10
368.1625932832
 20
379.8585433866
  0
ARC
  5
FA
330
1F
100
AcDbEntity
  8
0
  6
Continuous
 62
     7
370
    15
100
AcDbCircle
 10
370.0690904487
 20
421.0317620522
 30
0.0
 40
9.940844820517075
100
AcDbArc
 50
175.2283280862
 51
204.8402613802
  0
LINE
  5
FB
330
1F
100
AcDbEntity
  8
0
  6
Continuous
 62
     7
370
    15
100
AcDbLine
 10
384.1625071238
 20
380.1587086767
 30
0.0
 11
384.1625071238
 21
413.5587086767
 31
0.0
  0
LINE
  5
FC
330
1F
100
AcDbEntity
  8
0
  6
Continuous
 62
     7
370
    15
100
AcDbLine
 10
384.6625071238
 20
380.8587086767
 30
0.0
 11
384.6625071238
 21
412.8587086767
 31
0.0
  0
LINE
  5
FD
330
1F
100
AcDbEntity
  8
0
  6
Continuous
 62
     7
370
    15
100
AcDbLine
 10
342.1625071238
 20
438.8587086767
 30
0.0
 11
352.958061548
 21
438.8587086767
 31
0.0
  0
LINE
  5
FE
330
1F
100
AcDbEntity
  8
0
  6
Continuous
 62
     7
370
    15
100
AcDbLine
 10
331.3669526997
 20
438.8587086767
 30
0.0
 11
342.1625071238
 21
438.8587086767
 31
0.0
  0
LINE
  5
FF
330
1F
100
AcDbEntity
  8
0
  6
Continuous
 62
     7
370
    15
100
AcDbLine
 10
502.9088053762
 20
542.1000106573
 30
0.0
 11
483.5902888504
 21
536.9236297552
 31
0.0
  0
LINE
  5
100
330
1F
100
AcDbEntity
  8
0
  6
Continuous
 62
     7
370
    15
100
AcDbLine
 10
501.7057947296
 20
540.7941525547
 30
0.0
 11
502.1404613514
 21
540.910621125
 31
0.0
  0
LINE
  5
101
330
1F
100
AcDbEntity
  8
0
  6
Continuous
 62
     7
370
    15
100
AcDbLine
 10
502.4398607721
 20
538.054580788
 30
0.0
 11
501.7057947296
 21
540.7941525547
 31
0.0
  0
LINE
  5
102
330
1F
100
AcDbEntity
  8
0
  6
Continuous
 62
     7
370
    15
100
AcDbLine
 10
486.0191217252
 20
533.6546570212
 30
0.0
 11
502.4398607721
 21
538.054580788
 31
0.0
  0
LINE
  5
103
330
1F
100
AcDbEntity
  8
0
  6
Continuous
 62
     7
370
    15
100
AcDbLine
 10
485.2850556827
 20
536.3942287879
 30
0.0
 11
486.0191217252
 21
533.6546570212
 31
0.0
  0
LINE
  5
104
330
1F
100
AcDbEntity
  8
0
  6
Continuous
 62
     7
370
    15
100
AcDbLine
 10
484.8503890608
 20
536.2777602176
 30
0.0
 11
485.2850556827
 21
536.3942287879
 31
0.0
  0
LINE
  5
105
330
1F
100
AcDbEntity
  8
0
  6
Continuous
 62
     7
370
    15
100
AcDbLine
 10
486.061512818
 20
533.4964513091
 30
0.0
 11
502.4822518649
 21
537.8963750758
 31
0.0
  0
ARC
  5
106
330
1F
100
AcDbEntity
  8
0
  6
Continuous
 62
     7
370
    15
100
AcDbCircle
 10
395.0738477677
 20
413.5849972236
 30
0.0
 40
0.6999290972092392
100
AcDbArc
 50
89.0879988894
 51
178.9228060061
  0
ARC
  5
107
330
1F
100
AcDbEntity
  8
0
  6
Continuous
 62
     7
370
    15
100
AcDbCircle
 10
399.62246643
 20
413.5777480391
 30
0.0
 40
0.6900023098477723
100
AcDbArc
 50
33.3925360927
 51
90.6319912753
  0
ARC
  5
108
330
1F
100
AcDbEntity
  8
0
  6
Continuous
 62
     7
370
    15
100
AcDbCircle
 10
394.4613684174
 20
413.6717202312
 30
0.0
 40
0.114182334852693
100
AcDbArc
 50
182.0096616024
 51
220.1112635725
  0
LINE
  5
109
330
1F
100
AcDbEntity
  8
0
  6
Continuous
 62
     7
370
    15
100
AcDbLine
 10
394.346496648
 20
413.4728791321
 30
0.0
 11
394.3472563129
 21
413.6677160828
 31
0.0
  0
LINE
  5
10A
330
1F
100
AcDbEntity
  8
0
  6
Continuous
 62
     7
370
    15
100
AcDbLine
 10
399.6148556321
 20
414.2677083737
 30
0.0
 11
395.0849883642
 21
414.2848376541
 31
0.0
  0
ARC
  5
10B
330
1F
100
AcDbEntity
  8
0
  6
Continuous
 62
     7
370
    15
100
AcDbCircle
 10
394.4605519232
 20
413.6638126953
 30
0.0
 40
0.113362832293707
100
AcDbArc
 50
139.7401157325
 51
178.0267620635
  0
LINE
  5
10C
330
1F
100
AcDbEntity
  8
0
  6
Continuous
 62
     7
370
    15
100
AcDbLine
 10
394.3744263375
 20
413.8355541141
 30
0.0
 11
394.374042366
 21
413.7370740648
 31
0.0
  0
ARC
  5
10D
330
1F
100
AcDbEntity
  8
0
  6
Continuous
 62
     7
370
    15
100
AcDbCircle
 10
394.9718069658
 20
413.8268098997
 30
0.0
 40
0.5974446220422955
100
AcDbArc
 50
88.8778277338
 51
179.1613875941
  0
LINE
  5
10E
330
1F
100
AcDbEntity
  8
0
  6
Continuous
 62
     7
370
    15
100
AcDbLine
 10
394.9835075296
 20
414.4241399368
 30
0.0
 11
399.7163364667
 21
414.4062431753
 31
0.0
  0
ARC
  5
10F
330
1F
100
AcDbEntity
  8
0
  6
Continuous
 62
     7
370
    15
100
AcDbCircle
 10
399.7423043466
 20
413.8521022234
 30
0.0
 40
0.5547490652775994
100
AcDbArc
 50
34.6572971154
 51
92.6830037444
  0
LINE
  5
110
330
1F
100
AcDbEntity
  8
0
  6
Continuous
 62
     7
370
     0
100
AcDbLine
 10
413.0983960841
 20
472.0666273752
 30
0.0
 11
413.1012395408
 21
472.2149235236
 31
0.0
  0
LWPOLYLINE
  5
111
330
1F
100
AcDbEntity
  8
0
  6
Continuous
 62
     7
370
     0
100
AcDbPolyline
 90
        3
 70
   128
 43
0.0
 10
414.9162010821
 20
399.2778118883
 10
414.9162547909
 20
399.2885457188
 10
414.9163079305
 20
399.2992793242
  0
LWPOLYLINE
  5
112
330
1F
100
AcDbEntity
  8
0
  6
Continuous
 62
     7
370
     0
100
AcDbPolyline
 90
       16
 70
   128
 43
0.0
 10
414.9163071152
 20
399.2992784731
 10
414.9443612995
 20
406.9352016495
 10
414.9738118426
 20
414.6754237585
 10
415.003595619
 20
422.3862984432
 10
415.0318376075
 20
429.6521499969
 10
415.0619604482
 20
437.3931321691
 10
415.0996219186
 20
447.0927345842
 10
415.1363161768
 20
456.6241545006
 10
415.1458457273
 20
459.0200153768
 10
415.1550040343
 20
461.4273320255
 10
415.1645051703
 20
463.8326562604
 10
415.1721148529
 20
466.0834595479
 10
415.1788805992
 20
468.0871392353
 10
415.183767181
 20
469.7300178536
 10
415.1870729132
 20
470.9462728414
 10
415.1881779707
 20
471.6512730953
  0
LINE
  5
113
330
1F
100
AcDbEntity
  8
0
  6
Continuous
 62
     7
370
     0
100
AcDbLine
 10
415.1881779495
 20
471.6513608254
 30
0.0
 11
415.1874346814
 21
471.7487270534
 31
0.0
  0
LWPOLYLINE
  5
114
330
1F
100
AcDbEntity
  8
0
  6
Continuous
 62
     7
370
     0
100
AcDbPolyline
 90
       19
 70
   128
 43
0.0
 10
413.7721782675
 20
399.4153548005
 10
413.7543804954
 20
404.0822398177
 10
413.7355323778
 20
406.4007013283
 10
413.7094262799
 20
408.7793864698
 10
413.6740703943
 20
413.6526205022
 10
413.6435113981
 20
418.5351164416
 10
413.5962706591
 20
429.3978986593
 10
413.577335434
 20
440.2566968042
 10
413.577234321
 20
449.9993537166
 10
413.5873845711
 20
456.5244285265
 10
413.59414515
 20
459.9553638034
 10
413.5354837537
 20
461.6955200277
 10
413.4259412008
 20
463.4808732456
 10
413.3115302602
 20
465.2319347291
 10
413.2192998278
 20
466.9105559912
 10
413.1305370349
 20
469.6463187142
 10
413.1118625829
 20
470.7123824948
 10
413.1016139241
 20
471.5336119312
 10
413.0983960841
 20
472.0665738647
  0
LINE
  5
115
330
1F
100
AcDbEntity
  8
0
  6
Continuous
 62
     7
370
     0
100
AcDbLine
 10
367.1625071238
 20
338.2479820381
 30
0.0
 11
317.1625071238
 21
338.2479820381
 31
0.0
  0
LINE
  5
116
330
1F
100
AcDbEntity
  8
0
  6
Continuous
 62
     7
370
     0
100
AcDbLine
 10
317.716622417
 20
339.1430724403
 30
0.0
 11
366.6083918307
 21
339.1430724403
 31
0.0
  0
LINE
  5
117
330
1F
100
AcDbEntity
  8
0
  6
Continuous
 62
     7
370
     0
100
AcDbLine
 10
361.5880989174
 20
341.0262281445
 30
0.0
 11
322.7369153303
 21
341.0262281445
 31
0.0
  0
ARC
  5
118
330
1F
100
AcDbEntity
  8
0
  6
Continuous
 62
     7
370
     0
100
AcDbCircle
 10
388.4475985548
 20
397.9631775114
 30
0.0
 40
0.558386652978675
100
AcDbArc
 50
84.6923308961
 51
105.4282366867
  0
ELLIPSE
  5
119
330
1F
100
AcDbEntity
  8
0
  6
Continuous
 62
     7
370
     0
100
AcDbEllipse
 10
413.7514103642
 20
396.8524858243
 30
0.0
 11
0.06429776461214942
 21
16.99987838737883
 31
0.0
210
0.0
220
0.0
230
1.0
 40
0.0006669074
 41
3.141592654167605
 42
4.863751369378118
  0
ARC
  5
11A
330
1F
100
AcDbEntity
  8
0
  6
Continuous
 62
     7
370
     0
100
AcDbCircle
 10
407.5164525376
 20
398.2783460266
 30
0.0
 40
19.01872583266957
100
AcDbArc
 50
179.2744747862
 51
205.2991300723
  0
LWPOLYLINE
  5
11B
330
1F
100
AcDbEntity
  8
0
  6
Continuous
 62
     7
370
     0
100
AcDbPolyline
 90
        7
 70
   128
 43
0.0
 10
368.1625315627
 20
413.8588409261
 10
366.3097745572
 20
413.9106787102
 10
364.6488414862
 20
414.1696644334
 10
363.2158398161
 20
414.6909907271
 10
362.02246456
 20
415.5174700967
 10
361.1208081638
 20
416.6760904142
 10
361.0479476581
 20
416.8557138607
  0
LWPOLYLINE
  5
11C
330
1F
100
AcDbEntity
  8
0
  6
Continuous
 62
     7
370
     0
100
AcDbPolyline
 90
        9
 70
   128
 43
0.0
 10
390.1404261636
 20
390.1481360168
 10
390.1467604597
 20
390.1363459695
 10
390.1590086325
 20
390.1277395903
 10
390.1767573638
 20
390.1226073039
 10
390.1994077173
 20
390.1211223011
 10
390.2261953499
 20
390.1233346935
 10
390.2562163046
 20
390.1291698235
 10
390.2884575152
 20
390.1384307826
 10
390.3218309923
 20
390.1508050571
  0
LINE
  5
11D
330
1F
100
AcDbEntity
  8
0
  6
Continuous
 62
     7
370
     0
100
AcDbLine
 10
353.3533735509
 20
438.7772555837
 30
0.0
 11
330.9716406967
 21
438.7772555837
 31
0.0
  0
LINE
  5
11E
330
1F
100
AcDbEntity
  8
0
  6
Continuous
 62
     7
370
    15
100
AcDbLine
 10
192.9901757839
 20
265.8760866262
 30
0.0
 11
192.9901757839
 21
227.8760866262
 31
0.0
  0
LINE
  5
11F
330
1F
100
AcDbEntity
  8
0
  6
Continuous
 62
     7
370
    15
100
AcDbLine
 10
212.9901757839
 20
227.8760866262
 30
0.0
 11
212.9901757839
 21
265.8760866262
 31
0.0
  0
LINE
  5
120
330
1F
100
AcDbEntity
  8
0
  6
Continuous
 62
     7
370
    15
100
AcDbLine
 10
212.9901757839
 20
157.7058851182
 30
0.0
 11
212.9901757839
 21
227.8760866262
 31
0.0
  0
LINE
  5
121
330
1F
100
AcDbEntity
  8
0
  6
Continuous
 62
     7
370
    15
100
AcDbLine
 10
192.9901757839
 20
227.8760866262
 30
0.0
 11
192.9901757839
 21
157.7058851182
 31
0.0
  0
LINE
  5
122
330
1F
100
AcDbEntity
  8
0
  6
Continuous
 62
     7
370
    15
100
AcDbLine
 10
192.9901757839
 20
157.7058851182
 30
0.0
 11
192.9901757839
 21
121.0007037192
 31
0.0
  0
LINE
  5
123
330
1F
100
AcDbEntity
  8
0
  6
Continuous
 62
     7
370
    15
100
AcDbLine
 10
212.9901757839
 20
121.0007037192
 30
0.0
 11
212.9901757839
 21
157.7058851182
 31
0.0
  0
LINE
  5
124
330
1F
100
AcDbEntity
  8
0
  6
Continuous
 62
     7
370
    15
100
AcDbLine
 10
212.9901757839
 20
118.4125132682
 30
0.0
 11
212.9901757839
 21
121.0007037192
 31
0.0
  0
LINE
  5
125
330
1F
100
AcDbEntity
  8
0
  6
Continuous
 62
     7
370
    15
100
AcDbLine
 10
192.9901757839
 20
121.0007037192
 30
0.0
 11
192.9901757839
 21
118.4125132682
 31
0.0
  0
LINE
  5
126
330
1F
100
AcDbEntity
  8
0
  6
Continuous
 62
     7
370
    15
100
AcDbLine
 10
212.9901757839
 20
114.7890466367
 30
0.0
 11
212.9901757839
 21
118.4125132682
 31
0.0
  0
LINE
  5
127
330
1F
100
AcDbEntity
  8
0
  6
Continuous
 62
     7
370
    15
100
AcDbLine
 10
192.9901757839
 20
118.4125132682
 30
0.0
 11
192.9901757839
 21
114.7890466367
 31
0.0
  0
LINE
  5
128
330
1F
100
AcDbEntity
  8
0
  6
Continuous
 62
     7
370
    15
100
AcDbLine
 10
186.9787453366
 20
193.1409894528
 30
0.0
 11
188.4734360867
 21
192.8406654594
 31
0.0
  0
LWPOLYLINE
  5
129
330
1F
100
AcDbEntity
  8
0
  6
Continuous
 62
     7
370
    15
100
AcDbPolyline
 90
        3
 70
   128
 43
0.0
 10
212.9901757839
 20
191.9232725247
 10
213.4843714156
 20
191.9795118675
 10
219.0328242097
 20
193.1684216411
  0
ARC
  5
12A
330
1F
100
AcDbEntity
  8
0
  6
Continuous
 62
     7
370
    15
100
AcDbCircle
 10
192.2013759483
 20
235.720525989
 30
0.0
 40
44.15599602185631
100
AcDbArc
 50
255.8762314056
 51
271.0235825176
  0
ARC
  5
12B
330
1F
100
AcDbEntity
  8
0
  6
Continuous
 62
     7
370
    15
100
AcDbCircle
 10
181.364566008
 20
193.9865731958
 30
0.0
 40
1.077739499242538
100
AcDbArc
 50
152.1010756279
 51
242.228018046
  0
LWPOLYLINE
  5
12C
330
1F
100
AcDbEntity
  8
0
  6
Continuous
 62
     7
370
    15
100
AcDbPolyline
 90
       14
 70
   128
 43
0.0
 10
188.3530845016
 20
197.858512201
 10
188.3440042444
 20
197.8872232452
 10
188.1593339873
 20
197.904107318
 10
187.7914042981
 20
197.8746558424
 10
187.3686989673
 20
197.8147812057
 10
186.8317579574
 20
197.7227403252
 10
186.1060804586
 20
197.5836046388
 10
185.0882790178
 20
197.367122277
 10
183.8250093044
 20
197.0337007376
 10
183.1409259855
 20
196.7905316013
 10
182.446609824
 20
196.4626272206
 10
181.6498526174
 20
195.9284872366
 10
180.8475569603
 20
195.042817723
 10
180.532635107
 20
194.4436703815
  0
ARC
  5
12D
330
1F
100
AcDbEntity
  8
0
  6
Continuous
 62
     7
370
    15
100
AcDbCircle
 10
13.5473635354
 20
246.4888161653
 30
0.0
 40
172.4468074921169
100
AcDbArc
 50
0.4645008575
 51
6.0892213985
  0
ARC
  5
12E
330
1F
100
AcDbEntity
  8
0
  6
Continuous
 62
     7
370
    15
100
AcDbCircle
 10
395.0202947394
 20
246.3314553822
 30
0.0
 40
175.0352785667827
100
AcDbArc
 50
173.9614716255
 51
179.4882908709
  0
LWPOLYLINE
  5
12F
330
1F
100
AcDbEntity
  8
0
  6
Continuous
 62
     7
370
    15
100
AcDbPolyline
 90
        3
 70
   128
 43
0.0
 10
189.2376474894
 20
219.7162433488
 10
188.8352213346
 20
219.7194146673
 10
186.5949679579
 20
219.738945819
  0
LWPOLYLINE
  5
130
330
1F
100
AcDbEntity
  8
0
  6
Continuous
 62
     7
370
    15
100
AcDbPolyline
 90
        3
 70
   128
 43
0.0
 10
216.9208394722
 20
219.7391030638
 10
214.5709107987
 20
219.7239002664
 10
212.9901757839
 20
219.717667608
  0
LINE
  5
131
330
1F
100
AcDbEntity
  8
0
  6
Continuous
 62
     7
370
    15
100
AcDbLine
 10
185.9744798193
 20
219.4676821566
 30
0.0
 11
185.9890879351
 21
197.5587207894
 31
0.0
  0
LINE
  5
132
330
1F
100
AcDbEntity
  8
0
  6
Continuous
 62
     7
370
    15
100
AcDbLine
 10
219.9912692421
 20
194.2985208935
 30
0.0
 11
219.975381609
 21
218.1264769718
 31
0.0
  0
LINE
  5
133
330
1F
100
AcDbEntity
  8
0
  6
Continuous
 62
     7
370
    15
100
AcDbLine
 10
219.9901757839
 20
224.1760866262
 30
0.0
 11
219.9901757839
 21
247.8948424733
 31
0.0
  0
LINE
  5
134
330
1F
100
AcDbEntity
  8
0
  6
Continuous
 62
     7
370
    15
100
AcDbLine
 10
185.9901757839
 20
247.8940498501
 30
0.0
 11
185.9901757839
 21
224.1760866262
 31
0.0
  0
ARC
  5
135
330
1F
100
AcDbEntity
  8
0
  6
Continuous
 62
     7
370
    15
100
AcDbCircle
 10
186.2901757839
 20
224.1760866262
 30
0.0
 40
0.2999999999999829
100
AcDbArc
 50
180.0
 51
270.0
  0
ARC
  5
136
330
1F
100
AcDbEntity
  8
0
  6
Continuous
 62
     7
370
    15
100
AcDbCircle
 10
219.6901757839
 20
224.1760866262
 30
0.0
 40
0.2999999999999829
100
AcDbArc
 50
270.0
 51
0.0
  0
LINE
  5
137
330
1F
100
AcDbEntity
  8
0
  6
Continuous
 62
     7
370
    15
100
AcDbLine
 10
186.9901757839
 20
223.8760866262
 30
0.0
 11
186.9901757839
 21
223.3760866262
 31
0.0
  0
LINE
  5
138
330
1F
100
AcDbEntity
  8
0
  6
Continuous
 62
     7
370
    15
100
AcDbLine
 10
218.9901757839
 20
223.3760866262
 30
0.0
 11
218.9901757839
 21
223.8760866262
 31
0.0
  0
ARC
  5
139
330
1F
100
AcDbEntity
  8
0
  6
Continuous
 62
     7
370
    15
100
AcDbCircle
 10
189.4564666202
 20
228.6448647606
 30
0.0
 40
30.00000000000001
100
AcDbArc
 50
342.761865469
 51
349.8849141309
  0
ARC
  5
13A
330
1F
100
AcDbEntity
  8
0
  6
Continuous
 62
     7
370
    15
100
AcDbCircle
 10
216.5238849477
 20
228.6448647606
 30
0.0
 40
30.00000000000001
100
AcDbArc
 50
190.1150858691
 51
197.7360442341
  0
ARC
  5
13B
330
1F
100
AcDbEntity
  8
0
  6
Continuous
 62
     7
370
    15
100
AcDbCircle
 10
218.8708303564
 20
194.2318799829
 30
0.0
 40
1.104142316184504
100
AcDbArc
 50
281.2032556522
 51
3.6815491903
  0
ARC
  5
13C
330
1F
100
AcDbEntity
  8
0
  6
Continuous
 62
     7
370
    15
100
AcDbCircle
 10
202.9901757839
 20
265.8760866262
 30
0.0
 40
10.00000000000003
100
AcDbArc
 50
0.0
 51
180.0
  0
ARC
  5
13D
330
1F
100
AcDbEntity
  8
0
  6
Continuous
 62
     7
370
    15
100
AcDbCircle
 10
202.8052732748
 20
114.9443732439
 30
0.0
 40
9.816326456995652
100
AcDbArc
 50
180.9066457288
 51
271.0792998799
  0
ARC
  5
13E
330
1F
100
AcDbEntity
  8
0
  6
Continuous
 62
     7
370
    15
100
AcDbCircle
 10
203.1605255334
 20
114.9594393694
 30
0.0
 40
9.831126981743182
100
AcDbArc
 50
269.0071524674
 51
359.0069019239
  0
LWPOLYLINE
  5
13F
330
1F
100
AcDbEntity
  8
0
  6
Continuous
 62
     7
370
    15
100
AcDbPolyline
 90
        7
 70
   128
 43
0.0
 10
181.1864283844
 20
192.8835897157
 10
181.4304554397
 20
192.8740885797
 10
182.2791076687
 20
192.8664788971
 10
183.6270667462
 20
192.8597131508
 10
185.3755714383
 20
192.854826569
 10
187.4637891841
 20
192.8515208368
 10
189.801531538
 20
192.8504157793
  0
ARC
  5
140
330
1F
100
AcDbEntity
  8
0
  6
Continuous
 62
     7
370
    15
100
AcDbCircle
 10
202.9901757839
 20
265.8760866262
 30
0.0
 40
18.00000000000002
100
AcDbArc
 50
303.7489885959
 51
180.0
  0
ARC
  5
141
330
1F
100
AcDbEntity
  8
0
  6
Continuous
 62
     7
370
    15
100
AcDbCircle
 10
202.9901757839
 20
265.8760866262
 30
0.0
 40
18.0
100
AcDbArc
 50
180.0
 51
236.2510114041
  0
ARC
  5
142
330
1F
100
AcDbEntity
  8
0
  6
Continuous
 62
     7
370
    15
100
AcDbCircle
 10
192.8826979039
 20
598.2680887219
 30
0.0
 40
378.5698916508231
100
AcDbArc
 50
269.4483195018
 51
270.0162665577
  0
ARC
  5
143
330
1F
100
AcDbEntity
  8
0
  6
Continuous
 62
     7
370
    15
100
AcDbCircle
 10
192.5579434407
 20
708.2262328809
 30
0.0
 40
488.527464757113
100
AcDbArc
 50
269.2597217155
 51
270.050693347
  0
LWPOLYLINE
  5
144
330
1F
100
AcDbEntity
  8
0
  6
Continuous
 62
     7
370
    15
100
AcDbPolyline
 90
        5
 70
   128
 43
0.0
 10
212.9901757839
 20
219.71225315
 10
213.0110375431
 20
219.7123163862
 10
215.0638542539
 20
219.7205176681
 10
216.7963161974
 20
219.7296742377
 10
218.1625158059
 20
219.73954346
  0
LWPOLYLINE
  5
145
330
1F
100
AcDbEntity
  8
0
  6
Continuous
 62
     7
370
    15
100
AcDbPolyline
 90
        4
 70
   128
 43
0.0
 10
218.1625174562
 20
219.7395434743
 10
218.9664559811
 20
219.6317576585
 10
219.4976558935
 20
219.2854484691
 10
219.5492153562
 20
219.169192308
  0
LWPOLYLINE
  5
146
330
1F
100
AcDbEntity
  8
0
  6
Continuous
 62
     7
370
    15
100
AcDbPolyline
 90
        5
 70
   128
 43
0.0
 10
219.947712487
 20
218.126458044
 10
219.9515764174
 20
218.475445467
 10
219.7190755403
 20
219.0504056285
 10
219.1912098397
 20
219.4195528429
 10
218.3434630284
 20
219.5393422714
  0
LINE
  5
147
330
1F
100
AcDbEntity
  8
0
  6
Continuous
 62
     7
370
    15
100
AcDbLine
 10
186.0471902729
 20
219.5393422714
 30
0.0
 11
185.9980261302
 21
219.467700644
 31
0.0
  0
LWPOLYLINE
  5
148
330
1F
100
AcDbEntity
  8
0
  6
Continuous
 62
     7
370
    15
100
AcDbPolyline
 90
        5
 70
   128
 43
0.0
 10
218.3434630284
 20
219.5393422714
 10
217.1336678193
 20
219.5304342798
 10
215.627281957
 20
219.5220737442
 10
213.855859385
 20
219.5144357907
 10
212.9901757839
 20
219.5113058637
  0
ARC
  5
149
330
1F
100
AcDbEntity
  8
0
  6
Continuous
 62
     7
370
    15
100
AcDbCircle
 10
192.3286055569
 20
690.0955354065
 30
0.0
 40
470.5981163113437
100
AcDbArc
 50
269.235208854
 51
270.0805468467
  0
ARC
  5
14A
330
1F
100
AcDbEntity
  8
0
  6
Continuous
 62
     7
370
    15
100
AcDbCircle
 10
186.2468442515
 20
219.5398897816
 30
0.0
 40
0.1996547293387821
100
AcDbArc
 50
90.1846397174
 51
180.1571215718
  0
LINE
  5
14B
330
1F
100
AcDbEntity
  8
0
  6
Continuous
 62
     7
370
    15
100
AcDbLine
 10
219.6901757839
 20
223.8760866262
 30
0.0
 11
212.9901757839
 21
223.8760866262
 31
0.0
  0
LINE
  5
14C
330
1F
100
AcDbEntity
  8
0
  6
Continuous
 62
     7
370
    15
100
AcDbLine
 10
192.9901757839
 20
223.8760866262
 30
0.0
 11
186.2901757839
 21
223.8760866262
 31
0.0
  0
LINE
  5
14D
330
1F
100
AcDbEntity
  8
0
  6
Continuous
 62
     7
370
    15
100
AcDbLine
 10
186.9901757839
 20
223.3760866262
 30
0.0
 11
192.9901757839
 21
223.3760866262
 31
0.0
  0
LINE
  5
14E
330
1F
100
AcDbEntity
  8
0
  6
Continuous
 62
     7
370
    15
100
AcDbLine
 10
212.9901757839
 20
223.3760866262
 30
0.0
 11
218.9901757839
 21
223.3760866262
 31
0.0
  0
ARC
  5
14F
330
1F
100
AcDbEntity
  8
0
  6
Continuous
 62
     7
370
    15
100
AcDbCircle
 10
202.9901757839
 20
265.8760866262
 30
0.0
 40
25.00000000000001
100
AcDbArc
 50
312.8436430436
 51
0.0
  0
ARC
  5
150
330
1F
100
AcDbEntity
  8
0
  6
Continuous
 62
     7
370
    15
100
AcDbCircle
 10
202.9901757839
 20
265.8760866262
 30
0.0
 40
25.00000000000001
100
AcDbArc
 50
0.0
 51
227.1563569564
  0
LWPOLYLINE
  5
151
330
1F
100
AcDbEntity
  8
0
  6
Continuous
 62
     7
370
     0
100
AcDbPolyline
 90
        3
 70
   128
 43
0.0
 10
217.1188387991
 20
193.1222910139
 10
217.1243676395
 20
193.1223473606
 10
217.1298941035
 20
193.1224043436
  0
LWPOLYLINE
  5
152
330
1F
100
AcDbEntity
  8
0
  6
Continuous
 62
     7
370
     0
100
AcDbPolyline
 90
        4
 70
   128
 43
0.0
 10
217.1299648083
 20
193.122341038
 10
218.5499765056
 20
193.1366650109
 10
219.0996049109
 20
193.1512957687
 10
219.0846095055
 20
193.1518980969
  0
LWPOLYLINE
  5
153
330
1F
100
AcDbEntity
  8
0
  6
Continuous
 62
     7
370
     0
100
AcDbPolyline
 90
        3
 70
   128
 43
0.0
 10
189.8020284747
 20
192.8504158005
 10
192.1964828113
 20
192.8514838024
 10
192.9901757839
 20
192.8525719816
  0
LWPOLYLINE
  5
154
330
1F
100
AcDbEntity
  8
0
  6
Continuous
 62
     7
370
     0
100
AcDbPolyline
 90
        3
 70
   128
 43
0.0
 10
212.9901757839
 20
193.0919901974
 10
214.2267959199
 20
193.1025647437
 10
217.1188385031
 20
193.1222909263
  0
LWPOLYLINE
  5
155
330
1F
100
AcDbEntity
  8
0
  6
Continuous
 62
     7
370
     0
100
AcDbPolyline
 90
        3
 70
   128
 43
0.0
 10
189.7291470088
 20
194.9401976659
 10
191.7485094137
 20
194.9369798254
 10
192.9901757839
 20
194.9303545123
  0
ARC
  5
156
330
1F
100
AcDbEntity
  8
0
  6
Continuous
 62
     7
370
     0
100
AcDbCircle
 10
218.0290380649
 20
381.8247069075
 30
0.0
 40
187.558331138237
100
AcDbArc
 50
268.4605307528
 51
269.9627161059
  0
LWPOLYLINE
  5
157
330
1F
100
AcDbEntity
  8
0
  6
Continuous
 62
     7
370
     0
100
AcDbPolyline
 90
        9
 70
   128
 43
0.0
 10
180.3975916512
 20
194.4997210972
 10
180.3901364329
 20
194.5031099963
 10
180.6062080064
 20
194.6126525492
 10
181.1867607141
 20
194.7270634898
 10
182.0861207413
 20
194.8192939222
 10
184.5228042629
 20
194.9080567151
 10
186.0471695277
 20
194.9267311671
 10
187.7738652352
 20
194.9369798259
 10
189.7288435354
 20
194.9401976659
  0
ELLIPSE
  5
158
330
1F
100
AcDbEntity
  8
0
  6
Continuous
 62
     7
370
     0
100
AcDbEllipse
 10
202.9912730407
 20
194.2871833858
 30
0.0
 11
16.99999620143853
 21
0.01133750771882092
 31
0.0
210
0.0
220
0.0
230
1.0
 40
0.0037822206
 41
5.782757142830884
 42
6.283185307179586
  0
ARC
  5
159
330
1F
100
AcDbEntity
  8
0
  6
Continuous
 62
     7
370
     0
100
AcDbCircle
 10
218.1521396398
 20
219.5482922703
 30
0.0
 40
0.1915326121259009
100
AcDbArc
 50
357.3216886659
 51
86.8937341411
  0
ENDSEC
  0
SECTION
  2
OBJECTS
  0
DICTIONARY
  5
C
330
0
100
AcDbDictionary
281
     1
  3
ACAD_GROUP
350
D
  3
ACAD_LAYOUT
350
1A
  3
ACAD_MATERIAL
350
3B
  3
ACAD_MLEADERSTYLE
350
15B
  3
ACAD_MLINESTYLE
350
17
  3
ACAD_PLOTSETTINGS
350
19
  3
ACAD_PLOTSTYLENAME
350
E
  3
ACAD_TABLESTYLE
350
15A
  3
ACAD_VISUALSTYLE
350
2A
  0
DICTIONARY
  5
D
102
{ACAD_REACTORS
330
C
102
}
330
C
100
AcDbDictionary
281
     1
  0
DICTIONARY
  5
1A
102
{ACAD_REACTORS
330
C
102
}
330
C
100
AcDbDictionary
281
     1
  3
Layout1
350
1E
  3
Layout2
350
26
  3
Model
350
22
  0
DICTIONARY
  5
3B
102
{ACAD_REACTORS
330
C
102
}
330
C
100
AcDbDictionary
281
     1
  3
ByBlock
350
3D
  3
ByLayer
350
3C
  3
Global
350
3E
  0
DICTIONARY
  5
15B
102
{ACAD_REACTORS
330
C
102
}
330
C
100
AcDbDictionary
281
     1
  0
DICTIONARY
  5
17
102
{ACAD_REACTORS
330
C
102
}
330
C
100
AcDbDictionary
281
     1
  3
Standard
350
18
  0
DICTIONARY
  5
19
102
{ACAD_REACTORS
330
C
102
}
330
C
100
AcDbDictionary
281
     1
  0
ACDBDICTIONARYWDFLT
  5
E
102
{ACAD_REACTORS
330
C
102
}
330
C
100
AcDbDictionary
281
     1
  3
Normal
350
F
100
AcDbDictionaryWithDefault
340
F
  0
DICTIONARY
  5
15A
102
{ACAD_REACTORS
330
C
102
}
330
C
100
AcDbDictionary
281
     1
  0
DICTIONARY
  5
2A
102
{ACAD_REACTORS
330
C
102
}
330
C
100
AcDbDictionary
281
     1
  3
2dWireframe
350
2F
  3
3D Hidden
350
31
  3
3dWireframe
350
30
  3
Basic
350
32
  3
Brighten
350
36
  3
ColorChange
350
3A
  3
Conceptual
350
34
  3
Dim
350
35
  3
Facepattern
350
39
  3
Flat
350
2B
  3
FlatWithEdges
350
2C
  3
Gouraud
350
2D
  3
GouraudWithEdges
350
2E
  3
Linepattern
350
38
  3
Realistic
350
33
  3
Thicken
350
37
  0
LAYOUT
  5
1E
102
{ACAD_REACTORS
330
1A
102
}
330
1A
100
AcDbPlotSettings
  1

  2
none_device
  4

  6

 40
0.0
 41
0.0
 42
0.0
 43
0.0
 44
0.0
 45
0.0
 46
0.0
 47
0.0
 48
0.0
 49
0.0
140
0.0
141
0.0
142
1.0
143
1.0
 70
   688
 72
     0
 73
     0
 74
     5
  7

 75
    16
 76
     0
 77
     2
 78
   300
147
1.0
148
0.0
149
0.0
100
AcDbLayout
  1
Layout1
 70
     1
 71
     1
 10
0.0
 20
0.0
 11
420.0
 21
297.0
 12
0.0
 22
0.0
 32
0.0
 14
1.0000000000E+20
 24
1.0000000000E+20
 34
1.0000000000E+20
 15
-1.0000000000E+20
 25
-1.0000000000E+20
 35
-1.0000000000E+20
146
0.0
 13
0.0
 23
0.0
 33
0.0
 16
1.0
 26
0.0
 36
0.0
 17
0.0
 27
1.0
 37
0.0
 76
     0
330
1B
  0
LAYOUT
  5
26
102
{ACAD_REACTORS
330
1A
102
}
330
1A
100
AcDbPlotSettings
  1

  2
none_device
  4

  6

 40
0.0
 41
0.0
 42
0.0
 43
0.0
 44
0.0
 45
0.0
 46
0.0
 47
0.0
 48
0.0
 49
0.0
140
0.0
141
0.0
142
1.0
143
1.0
 70
   688
 72
     0
 73
     0
 74
     5
  7

 75
    16
 76
     0
 77
     2
 78
   300
147
1.0
148
0.0
149
0.0
100
AcDbLayout
  1
Layout2
 70
     1
 71
     2
 10
0.0
 20
0.0
 11
0.0
 21
0.0
 12
0.0
 22
0.0
 32
0.0
 14
0.0
 24
0.0
 34
0.0
 15
0.0
 25
0.0
 35
0.0
146
0.0
 13
0.0
 23
0.0
 33
0.0
 16
1.0
 26
0.0
 36
0.0
 17
0.0
 27
1.0
 37
0.0
 76
     0
330
23
  0
LAYOUT
  5
22
102
{ACAD_REACTORS
330
1A
102
}
330
1A
100
AcDbPlotSettings
  1

  2
none_device
  4

  6

 40
0.0
 41
0.0
 42
0.0
 43
0.0
 44
0.0
 45
0.0
 46
0.0
 47
0.0
 48
0.0
 49
0.0
140
0.0
141
0.0
142
1.0
143
1.0
 70
  1712
 72
     0
 73
     0
 74
     0
  7

 75
     0
 76
     0
 77
     2
 78
   300
147
1.0
148
0.0
149
0.0
100
AcDbLayout
  1
Model
 70
     1
 71
     0
 10
0.0
 20
0.0
 11
594.0
 21
841.0
 12
0.0
 22
0.0
 32
0.0
 14
0.0
 24
0.0
 34
0.0
 15
594.0
 25
841.0
 35
0.0
146
0.0
 13
0.0
 23
0.0
 33
0.0
 16
1.0
 26
0.0
 36
0.0
 17
0.0
 27
1.0
 37
0.0
 76
     0
330
1F
331
29
  0
MATERIAL
  5
3D
102
{ACAD_REACTORS
330
3B
102
}
330
3B
100
AcDbMaterial
  1
ByBlock
 72
     1
 94
      127
  0
MATERIAL
  5
3C
102
{ACAD_REACTORS
330
3B
102
}
330
3B
100
AcDbMaterial
  1
ByLayer
 72
     1
 94
      127
  0
MATERIAL
  5
3E
102
{ACAD_REACTORS
330
3B
102
}
330
3B
100
AcDbMaterial
  1
Global
 72
     1
 94
      127
  0
MLINESTYLE
  5
18
102
{ACAD_REACTORS
330
17
102
}
330
17
100
AcDbMlineStyle
  2
Standard
 70
     0
  3

 62
   256
 51
90.0
 52
90.0
 71
     2
 49
0.5
 62
   256
  6
BYLAYER
 49
-0.5
 62
   256
  6
BYLAYER
  0
ACDBPLACEHOLDER
  5
F
102
{ACAD_REACTORS
330
E
102
}
330
E
  0
VISUALSTYLE
  5
2F
102
{ACAD_REACTORS
330
2A
102
}
330
2A
100
AcDbVisualStyle
  2
2dWireframe
 70
     4
177
     2
291
     0
 71
     0
176
     1
 72
     2
176
     1
 73
     0
176
     1
 90
        0
176
     1
 40
-0.6
176
     1
 41
-30.0
176
     1
 62
     5
 63
     7
421
 16777215
176
     1
 74
     1
176
     1
 91
        4
176
     1
 64
     7
176
     1
 65
   257
176
     1
 75
     1
176
     1
175
     1
176
     1
 42
1.0
176
     1
 92
        0
176
     1
 66
   257
176
     1
 43
1.0
176
     1
 76
     1
176
     1
 77
     6
176
     1
 78
     2
176
     1
 67
     7
176
     1
 79
     5
176
     1
170
     0
176
     1
171
     0
176
     1
290
     0
176
     1
 93
        1
176
     1
 44
0.0
176
     1
173
     0
176
     1
  0
VISUALSTYLE
  5
31
102
{ACAD_REACTORS
330
2A
102
}
330
2A
100
AcDbVisualStyle
  2
3D Hidden
 70
     6
177
     2
291
     0
 71
     1
176
     1
 72
     2
176
     1
 73
     2
176
     1
 90
        0
176
     1
 40
-0.6
176
     1
 41
-30.0
176
     1
 62
     5
 63
     7
421
 16777215
176
     1
 74
     2
176
     1
 91
        2
176
     1
 64
     7
176
     1
 65
   257
176
     1
 75
     2
176
     1
175
     1
176
     1
 42
40.0
176
     1
 92
        0
176
     1
 66
   257
176
     1
 43
1.0
176
     1
 76
     1
176
     1
 77
     6
176
     1
 78
     2
176
     1
 67
     7
176
     1
 79
     3
176
     1
170
     0
176
     1
171
     0
176
     1
290
     0
176
     1
 93
        1
176
     1
 44
0.0
176
     1
173
     0
176
     1
  0
VISUALSTYLE
  5
30
102
{ACAD_REACTORS
330
2A
102
}
330
2A
100
AcDbVisualStyle
  2
3dWireframe
 70
     5
177
     2
291
     0
 71
     0
176
     1
 72
     2
176
     1
 73
     0
176
     1
 90
        0
176
     1
 40
-0.6
176
     1
 41
-30.0
176
     1
 62
     5
 63
     7
421
 16777215
176
     1
 74
     1
176
     1
 91
        4
176
     1
 64
     7
176
     1
 65
   257
176
     1
 75
     1
176
     1
175
     1
176
     1
 42
1.0
176
     1
 92
        0
176
     1
 66
   257
176
     1
 43
1.0
176
     1
 76
     1
176
     1
 77
     6
176
     1
 78
     2
176
     1
 67
     7
176
     1
 79
     5
176
     1
170
     0
176
     1
171
     0
176
     1
290
     0
176
     1
 93
        1
176
     1
 44
0.0
176
     1
173
     0
176
     1
  0
VISUALSTYLE
  5
32
102
{ACAD_REACTORS
330
2A
102
}
330
2A
100
AcDbVisualStyle
  2
Basic
 70
     7
177
     2
291
     1
 71
     1
176
     1
 72
     0
176
     1
 73
     1
176
     1
 90
        0
176
     1
 40
-0.6
176
     1
 41
-30.0
176
     1
 62
     5
 63
     7
421
 16777215
176
     1
 74
     0
176
     1
 91
        4
176
     1
 64
     7
176
     1
 65
   257
176
     1
 75
     1
176
     1
175
     1
176
     1
 42
1.0
176
     1
 92
        8
176
     1
 66
     7
176
     1
 43
1.0
176
     1
 76
     1
176
     1
 77
     6
176
     1
 78
     2
176
     1
 67
     7
176
     1
 79
     5
176
     1
170
     0
176
     1
171
     0
176
     1
290
     0
176
     1
 93
        1
176
     1
 44
0.0
176
     1
173
     0
176
     1
  0
VISUALSTYLE
  5
36
102
{ACAD_REACTORS
330
2A
102
}
330
2A
100
AcDbVisualStyle
  2
Brighten
 70
    12
177
     2
291
     1
 71
     2
176
     1
 72
     2
176
     1
 73
     0
176
     1
 90
        0
176
     1
 40
-0.6
176
     1
 41
-30.0
176
     1
 62
     5
 63
     7
421
 16777215
176
     1
 74
     1
176
     1
 91
        4
176
     1
 64
     7
176
     1
 65
   257
176
     1
 75
     1
176
     1
175
     1
176
     1
 42
1.0
176
     1
 92
        8
176
     1
 66
     7
176
     1
 43
1.0
176
     1
 76
     1
176
     1
 77
     6
176
     1
 78
     2
176
     1
 67
     7
176
     1
 79
     5
176
     1
170
     0
176
     1
171
     0
176
     1
290
     0
176
     1
 93
        1
176
     1
 44
50.0
176
     1
173
     0
176
     1
  0
VISUALSTYLE
  5
3A
102
{ACAD_REACTORS
330
2A
102
}
330
2A
100
AcDbVisualStyle
  2
ColorChange
 70
    16
177
     2
291
     1
 71
     2
176
     1
 72
     2
176
     1
 73
     3
176
     1
 90
        0
176
     1
 40
-0.6
176
     1
 41
-30.0
176
     1
 62
     5
 63
     8
421
  8421504
176
     1
 74
     1
176
     1
 91
        4
176
     1
 64
     7
176
     1
 65
   257
176
     1
 75
     1
176
     1
175
     1
176
     1
 42
1.0
176
     1
 92
        8
176
     1
 66
     8
424
  8421504
176
     1
 43
1.0
176
     1
 76
     1
176
     1
 77
     6
176
     1
 78
     2
176
     1
 67
     7
176
     1
 79
     5
176
     1
170
     0
176
     1
171
     0
176
     1
290
     0
176
     1
 93
        1
176
     1
 44
0.0
176
     1
173
     0
176
     1
  0
VISUALSTYLE
  5
34
102
{ACAD_REACTORS
330
2A
102
}
330
2A
100
AcDbVisualStyle
  2
Conceptual
 70
     9
177
     2
291
     0
 71
     3
176
     1
 72
     2
176
     1
 73
     0
176
     1
 90
        0
176
     1
 40
-0.6
176
     1
 41
-30.0
176
     1
 62
     5
 63
     7
421
 16777215
176
     1
 74
     2
176
     1
 91
        2
176
     1
 64
     7
176
     1
 65
   257
176
     1
 75
     1
176
     1
175
     1
176
     1
 42
40.0
176
     1
 92
        8
176
     1
 66
     7
176
     1
 43
1.0
176
     1
 76
     1
176
     1
 77
     6
176
     1
 78
     2
176
     1
 67
     7
176
     1
 79
     3
176
     1
170
     0
176
     1
171
     0
176
     1
290
     0
176
     1
 93
        1
176
     1
 44
0.0
176
     1
173
     0
176
     1
  0
VISUALSTYLE
  5
35
102
{ACAD_REACTORS
330
2A
102
}
330
2A
100
AcDbVisualStyle
  2
Dim
 70
    11
177
     2
291
     1
 71
     2
176
     1
 72
     2
176
     1
 73
     0
176
     1
 90
        0
176
     1
 40
-0.6
176
     1
 41
-30.0
176
     1
 62
     5
 63
     7
421
 16777215
176
     1
 74
     1
176
     1
 91
        4
176
     1
 64
     7
176
     1
 65
   257
176
     1
 75
     1
176
     1
175
     1
176
     1
 42
1.0
176
     1
 92
        8
176
     1
 66
     7
176
     1
 43
1.0
176
     1
 76
     1
176
     1
 77
     6
176
     1
 78
     2
176
     1
 67
     7
176
     1
 79
     5
176
     1
170
     0
176
     1
171
     0
176
     1
290
     0
176
     1
 93
        1
176
     1
 44
-50.0
176
     1
173
     0
176
     1
  0
VISUALSTYLE
  5
39
102
{ACAD_REACTORS
330
2A
102
}
330
2A
100
AcDbVisualStyle
  2
Facepattern
 70
    15
177
     2
291
     1
 71
     2
176
     1
 72
     2
176
     1
 73
     0
176
     1
 90
        0
176
     1
 40
-0.6
176
     1
 41
-30.0
176
     1
 62
     5
 63
     7
421
 16777215
176
     1
 74
     1
176
     1
 91
        4
176
     1
 64
     7
176
     1
 65
   257
176
     1
 75
     1
176
     1
175
     1
176
     1
 42
1.0
176
     1
 92
        8
176
     1
 66
     7
176
     1
 43
1.0
176
     1
 76
     1
176
     1
 77
     6
176
     1
 78
     2
176
     1
 67
     7
176
     1
 79
     5
176
     1
170
     0
176
     1
171
     0
176
     1
290
     0
176
     1
 93
        1
176
     1
 44
0.0
176
     1
173
     0
176
     1
  0
VISUALSTYLE
  5
2B
102
{ACAD_REACTORS
330
2A
102
}
330
2A
100
AcDbVisualStyle
  2
Flat
 70
     0
177
     2
291
     1
 71
     2
176
     1
 72
     1
176
     1
 73
     1
176
     1
 90
        2
176
     1
 40
-0.6
176
     1
 41
30.0
176
     1
 62
     5
 63
     7
421
 16777215
176
     1
 74
     0
176
     1
 91
        4
176
     1
 64
     7
176
     1
 65
   257
176
     1
 75
     1
176
     1
175
     1
176
     1
 42
1.0
176
     1
 92
        8
176
     1
 66
     7
176
     1
 43
1.0
176
     1
 76
     1
176
     1
 77
     6
176
     1
 78
     2
176
     1
 67
     7
176
     1
 79
     5
176
     1
170
     0
176
     1
171
     0
176
     1
290
     0
176
     1
 93
       13
176
     1
 44
0.0
176
     1
173
     0
176
     1
  0
VISUALSTYLE
  5
2C
102
{ACAD_REACTORS
330
2A
102
}
330
2A
100
AcDbVisualStyle
  2
FlatWithEdges
 70
     1
177
     2
291
     1
 71
     2
176
     1
 72
     1
176
     1
 73
     1
176
     1
 90
        2
176
     1
 40
-0.6
176
     1
 41
30.0
176
     1
 62
     5
 63
     7
421
 16777215
176
     1
 74
     1
176
     1
 91
        4
176
     1
 64
     7
176
     1
 65
   257
176
     1
 75
     1
176
     1
175
     1
176
     1
 42
1.0
176
     1
 92
        0
176
     1
 66
   257
176
     1
 43
1.0
176
     1
 76
     1
176
     1
 77
     6
176
     1
 78
     2
176
     1
 67
     7
176
     1
 79
     5
176
     1
170
     0
176
     1
171
     0
176
     1
290
     0
176
     1
 93
       13
176
     1
 44
0.0
176
     1
173
     0
176
     1
  0
VISUALSTYLE
  5
2D
102
{ACAD_REACTORS
330
2A
102
}
330
2A
100
AcDbVisualStyle
  2
Gouraud
 70
     2
177
     2
291
     1
 71
     2
176
     1
 72
     2
176
     1
 73
     1
176
     1
 90
        2
176
     1
 40
-0.6
176
     1
 41
30.0
176
     1
 62
     5
 63
     7
421
 16777215
176
     1
 74
     0
176
     1
 91
        4
176
     1
 64
     7
176
     1
 65
   257
176
     1
 75
     1
176
     1
175
     1
176
     1
 42
1.0
176
     1
 92
        0
176
     1
 66
     7
176
     1
 43
1.0
176
     1
 76
     1
176
     1
 77
     6
176
     1
 78
     2
176
     1
 67
     7
176
     1
 79
     5
176
     1
170
     0
176
     1
171
     0
176
     1
290
     0
176
     1
 93
       13
176
     1
 44
0.0
176
     1
173
     0
176
     1
  0
VISUALSTYLE
  5
2E
102
{ACAD_REACTORS
330
2A
102
}
330
2A
100
AcDbVisualStyle
  2
GouraudWithEdges
 70
     3
177
     2
291
     1
 71
     2
176
     1
 72
     2
176
     1
 73
     1
176
     1
 90
        2
176
     1
 40
-0.6
176
     1
 41
30.0
176
     1
 62
     5
 63
     7
421
 16777215
176
     1
 74
     1
176
     1
 91
        4
176
     1
 64
     7
176
     1
 65
   257
176
     1
 75
     1
176
     1
175
     1
176
     1
 42
1.0
176
     1
 92
        0
176
     1
 66
   257
176
     1
 43
1.0
176
     1
 76
     1
176
     1
 77
     6
176
     1
 78
     2
176
     1
 67
     7
176
     1
 79
     5
176
     1
170
     0
176
     1
171
     0
176
     1
290
     0
176
     1
 93
       13
176
     1
 44
0.0
176
     1
173
     0
176
     1
  0
VISUALSTYLE
  5
38
102
{ACAD_REACTORS
330
2A
102
}
330
2A
100
AcDbVisualStyle
  2
Linepattern
 70
    14
177
     2
291
     1
 71
     2
176
     1
 72
     2
176
     1
 73
     0
176
     1
 90
        0
176
     1
 40
-0.6
176
     1
 41
-30.0
176
     1
 62
     5
 63
     7
421
 16777215
176
     1
 74
     1
176
     1
 91
        4
176
     1
 64
     7
176
     1
 65
   257
176
     1
 75
     7
176
     1
175
     7
176
     1
 42
1.0
176
     1
 92
        8
176
     1
 66
     7
176
     1
 43
1.0
176
     1
 76
     1
176
     1
 77
     6
176
     1
 78
     2
176
     1
 67
     7
176
     1
 79
     5
176
     1
170
     0
176
     1
171
     0
176
     1
290
     0
176
     1
 93
        1
176
     1
 44
0.0
176
     1
173
     0
176
     1
  0
VISUALSTYLE
  5
33
102
{ACAD_REACTORS
330
2A
102
}
330
2A
100
AcDbVisualStyle
  2
Realistic
 70
     8
177
     2
291
     0
 71
     2
176
     1
 72
     2
176
     1
 73
     0
176
     1
 90
        0
176
     1
 40
-0.6
176
     1
 41
-30.0
176
     1
 62
     5
 63
     7
421
 16777215
176
     1
 74
     1
176
     1
 91
        0
176
     1
 64
     7
176
     1
 65
   257
176
     1
 75
     1
176
     1
175
     1
176
     1
 42
1.0
176
     1
 92
        8
176
     1
 66
     8
424
  7895160
176
     1
 43
1.0
176
     1
 76
     1
176
     1
 77
     6
176
     1
 78
     2
176
     1
 67
     7
176
     1
 79
     5
176
     1
170
     0
176
     1
171
     0
176
     1
290
     0
176
     1
 93
       13
176
     1
 44
0.0
176
     1
173
     0
176
     1
  0
VISUALSTYLE
  5
37
102
{ACAD_REACTORS
330
2A
102
}
330
2A
100
AcDbVisualStyle
  2
Thicken
 70
    13
177
     2
291
     1
 71
     2
176
     1
 72
     2
176
     1
 73
     0
176
     1
 90
        0
176
     1
 40
-0.6
176
     1
 41
-30.0
176
     1
 62
     5
 63
     7
421
 16777215
176
     1
 74
     1
176
     1
 91
        4
176
     1
 64
     7
176
     1
 65
   257
176
     1
 75
     1
176
     1
175
     1
176
     1
 42
1.0
176
     1
 92
       12
176
     1
 66
     7
176
     1
 43
1.0
176
     1
 76
     1
176
     1
 77
     6
176
     1
 78
     2
176
     1
 67
     7
176
     1
 79
     5
176
     1
170
     0
176
     1
171
     0
176
     1
290
     0
176
     1
 93
        1
176
     1
 44
0.0
176
     1
173
     0
176
     1
  0
ENDSEC
  0
EOF
