  0
SECTION
  2
HEADER
  9
$ACADVER
  1
AC1015
  9
$ACADMAINTVER
 70
     6
  9
$DWGCODEPAGE
  3
ANSI_1252
  9
$INSBASE
 10
0.0
 20
0.0
 30
0.0
  9
$EXTMIN
 10
0.0
 20
0.0
 30
0.0
  9
$EXTMAX
 10
594.0
 20
841.0
 30
0.0
  9
$LIMMIN
 10
0.0
 20
0.0
  9
$LIMMAX
 10
594.0
 20
841.0
  9
$ORTHOMODE
 70
     0
  9
$REGENMODE
 70
     1
  9
$FILLMODE
 70
     1
  9
$QTEXTMODE
 70
     0
  9
$MIRRTEXT
 70
     1
  9
$LTSCALE
 40
1.0
  9
$ATTMODE
 70
     1
  9
$TEXTSIZE
 40
10.0
  9
$TRACEWID
 40
1.0
  9
$TEXTSTYLE
  7
Standard
  9
$CLAYER
  8
0
  9
$CELTYPE
  6
ByLayer
  9
$CECOLOR
 62
   256
  9
$CELTSCALE
 40
1.0
  9
$DISPSILH
 70
     0
  9
$DIMSCALE
 40
1.0
  9
$DIMASZ
 40
2.5
  9
$DIMEXO
 40
0.0
  9
$DIMDLI
 40
3.75
  9
$DIMRND
 40
0.0
  9
$DIMDLE
 40
0.0
  9
$DIMEXE
 40
1.0
  9
$DIMTP
 40
0.0
  9
$DIMTM
 40
0.0
  9
$DIMTXT
 40
3.5
  9
$DIMCEN
 40
2.5
  9
$DIMTSZ
 40
0.0
  9
$DIMTOL
 70
     0
  9
$DIMLIM
 70
     0
  9
$DIMTIH
 70
     1
  9
$DIMTOH
 70
     1
  9
$DIMSE1
 70
     0
  9
$DIMSE2
 70
     0
  9
$DIMTAD
 70
     1
  9
$DIMZIN
 70
     0
  9
$DIMBLK
  1

  9
$DIMASO
 70
     1
  9
$DIMSHO
 70
     1
  9
$DIMPOST
  1

  9
$DIMAPOST
  1

  9
$DIMALT
 70
     0
  9
$DIMALTD
 70
     3
  9
$DIMALTF
 40
0.0393700787
  9
$DIMLFAC
 40
2.0
  9
$DIMTOFL
 70
     1
  9
$DIMTVP
 40
0.0
  9
$DIMTIX
 70
     0
  9
$DIMSOXD
 70
     0
  9
$DIMSAH
 70
     0
  9
$DIMBLK1
  1

  9
$DIMBLK2
  1

  9
$DIMSTYLE
  2
ISO-25
  9
$DIMCLRD
 70
     0
  9
$DIMCLRE
 70
     0
  9
$DIMCLRT
 70
     0
  9
$DIMTFAC
 40
1.0
  9
$DIMGAP
 40
1.5
  9
$DIMJUST
 70
     0
  9
$DIMSD1
 70
     0
  9
$DIMSD2
 70
     0
  9
$DIMTOLJ
 70
     0
  9
$DIMTZIN
 70
     0
  9
$DIMALTZ
 70
     0
  9
$DIMALTTZ
 70
     0
  9
$DIMUPT
 70
     0
  9
$DIMDEC
 70
     2
  9
$DIMTDEC
 70
     2
  9
$DIMALTU
 70
     2
  9
$DIMALTTD
 70
     3
  9
$DIMTXSTY
  7
Standard
  9
$DIMAUNIT
 70
     0
  9
$DIMADEC
 70
     2
  9
$DIMALTRND
 40
0.0
  9
$DIMAZIN
 70
     0
  9
$DIMDSEP
 70
    44
  9
$DIMATFIT
 70
     3
  9
$DIMFRAC
 70
     0
  9
$DIMLDRBLK
  1

  9
$DIMLUNIT
 70
     2
  9
$DIMLWD
 70
    -2
  9
$DIMLWE
 70
    -2
  9
$DIMTMOVE
 70
     0
  9
$LUNITS
 70
     2
  9
$LUPREC
 70
     2
  9
$SKETCHINC
 40
1.0
  9
$FILLETRAD
 40
10.0
  9
$AUNITS
 70
     0
  9
$AUPREC
 70
     2
  9
$MENU
  1
.
  9
$ELEVATION
 40
0.0
  9
$PELEVATION
 40
0.0
  9
$THICKNESS
 40
0.0
  9
$LIMCHECK
 70
     0
  9
$CHAMFERA
 40
0.0
  9
$CHAMFERB
 40
0.0
  9
$CHAMFERC
 40
0.0
  9
$CHAMFERD
 40
0.0
  9
$SKPOLY
 70
     0
  9
$TDCREATE
 40
2460006.535439132
  9
$TDUCREATE
 40
2460006.493772465
  9
$TDUPDATE
 40
2460006.53544125
  9
$TDUUPDATE
 40
2460006.493774584
  9
$TDINDWG
 40
0.0000000116
  9
$TDUSRTIMER
 40
0.0000000116
  9
$USRTIMER
 70
     1
  9
$ANGBASE
 50
0.0
  9
$ANGDIR
 70
     0
  9
$PDMODE
 70
     0
  9
$PDSIZE
 40
-1.0
  9
$PLINEWID
 40
0.0
  9
$SPLFRAME
 70
     0
  9
$SPLINETYPE
 70
     6
  9
$SPLINESEGS
 70
     8
  9
$HANDSEED
  5
157
  9
$SURFTAB1
 70
     6
  9
$SURFTAB2
 70
     6
  9
$SURFTYPE
 70
     6
  9
$SURFU
 70
     6
  9
$SURFV
 70
     6
  9
$UCSBASE
  2

  9
$UCSNAME
  2

  9
$UCSORG
 10
0.0
 20
0.0
 30
0.0
  9
$UCSXDIR
 10
1.0
 20
0.0
 30
0.0
  9
$UCSYDIR
 10
0.0
 20
1.0
 30
0.0
  9
$UCSORTHOREF
  2

  9
$UCSORTHOVIEW
 70
     0
  9
$UCSORGTOP
 10
0.0
 20
0.0
 30
0.0
  9
$UCSORGBOTTOM
 10
0.0
 20
0.0
 30
0.0
  9
$UCSORGLEFT
 10
0.0
 20
0.0
 30
0.0
  9
$UCSORGRIGHT
 10
0.0
 20
0.0
 30
0.0
  9
$UCSORGFRONT
 10
0.0
 20
0.0
 30
0.0
  9
$UCSORGBACK
 10
0.0
 20
0.0
 30
0.0
  9
$PUCSBASE
  2

  9
$PUCSNAME
  2

  9
$PUCSORG
 10
0.0
 20
0.0
 30
0.0
  9
$PUCSXDIR
 10
1.0
 20
0.0
 30
0.0
  9
$PUCSYDIR
 10
0.0
 20
1.0
 30
0.0
  9
$PUCSORTHOREF
  2

  9
$PUCSORTHOVIEW
 70
     0
  9
$PUCSORGTOP
 10
0.0
 20
0.0
 30
0.0
  9
$PUCSORGBOTTOM
 10
0.0
 20
0.0
 30
0.0
  9
$PUCSORGLEFT
 10
0.0
 20
0.0
 30
0.0
  9
$PUCSORGRIGHT
 10
0.0
 20
0.0
 30
0.0
  9
$PUCSORGFRONT
 10
0.0
 20
0.0
 30
0.0
  9
$PUCSORGBACK
 10
0.0
 20
0.0
 30
0.0
  9
$USERI1
 70
     0
  9
$USERI2
 70
     0
  9
$USERI3
 70
     0
  9
$USERI4
 70
     0
  9
$USERI5
 70
     0
  9
$USERR1
 40
0.0
  9
$USERR2
 40
0.0
  9
$USERR3
 40
0.0
  9
$USERR4
 40
0.0
  9
$USERR5
 40
0.0
  9
$WORLDVIEW
 70
     1
  9
$SHADEDGE
 70
     3
  9
$SHADEDIF
 70
    70
  9
$TILEMODE
 70
     1
  9
$MAXACTVP
 70
    64
  9
$PINSBASE
 10
0.0
 20
0.0
 30
0.0
  9
$PLIMCHECK
 70
     0
  9
$PEXTMIN
 10
1.0000000000E+20
 20
1.0000000000E+20
 30
1.0000000000E+20
  9
$PEXTMAX
 10
-1.0000000000E+20
 20
-1.0000000000E+20
 30
-1.0000000000E+20
  9
$PLIMMIN
 10
0.0
 20
0.0
  9
$PLIMMAX
 10
420.0
 20
297.0
  9
$UNITMODE
 70
     0
  9
$VISRETAIN
 70
     1
  9
$PLINEGEN
 70
     0
  9
$PSLTSCALE
 70
     1
  9
$TREEDEPTH
 70
  3020
  9
$CMLSTYLE
  2
Standard
  9
$CMLJUST
 70
     0
  9
$CMLSCALE
 40
20.0
  9
$PROXYGRAPHICS
 70
     1
  9
$MEASUREMENT
 70
     1
  9
$CELWEIGHT
370
    -1
  9
$ENDCAPS
280
     0
  9
$JOINSTYLE
280
     0
  9
$LWDISPLAY
290
     1
  9
$INSUNITS
 70
     4
  9
$HYPERLINKBASE
  1

  9
$STYLESHEET
  1

  9
$XEDIT
290
     1
  9
$CEPSNTYPE
380
     0
  9
$PSTYLEMODE
290
     1
  9
$FINGERPRINTGUID
  2
{311f75cf-ac44-4f92-8436-13deec210f49}
  9
$VERSIONGUID
  2
{FAEB1C32-E019-11D5-929B-00C0DF256EC4}
  9
$EXTNAMES
290
     1
  9
$PSVPSCALE
 40
0.0
  9
$OLESTARTUP
290
     0
  0
ENDSEC
  0
SECTION
  2
CLASSES
  0
CLASS
  1
ACDBDICTIONARYWDFLT
  2
AcDbDictionaryWithDefault
  3
ObjectDBX Classes
 90
        0
280
     0
281
     0
  0
CLASS
  1
VISUALSTYLE
  2
AcDbVisualStyle
  3
ObjectDBX Classes
 90
     4095
280
     0
281
     0
  0
CLASS
  1
MATERIAL
  2
AcDbMaterial
  3
ObjectDBX Classes
 90
     1153
280
     0
281
     0
  0
CLASS
  1
SCALE
  2
AcDbScale
  3
ObjectDBX Classes
 90
     1153
280
     0
281
     0
  0
CLASS
  1
TABLESTYLE
  2
AcDbTableStyle
  3
ObjectDBX Classes
 90
     4095
280
     0
281
     0
  0
CLASS
  1
MLEADERSTYLE
  2
AcDbMLeaderStyle
  3
ACDB_MLEADERSTYLE_CLASS
 90
     4095
280
     0
281
     0
  0
CLASS
  1
SUN
  2
AcDbSun
  3
SCENEOE
 90
     1153
280
     0
281
     0
  0
CLASS
  1
ACDBPLACEHOLDER
  2
AcDbPlaceHolder
  3
ObjectDBX Classes
 90
        0
280
     0
281
     0
  0
CLASS
  1
LAYOUT
  2
AcDbLayout
  3
ObjectDBX Classes
 90
        0
280
     0
281
     0
  0
ENDSEC
  0
SECTION
  2
TABLES
  0
TABLE
  2
VPORT
  5
8
330
0
100
AcDbSymbolTable
 70
     1
  0
VPORT
  5
29
330
8
100
AcDbSymbolTableRecord
100
AcDbViewportTableRecord
  2
*Active
 70
     0
 10
0.0
 20
0.0
 11
1.0
 21
1.0
 12
297.0
 22
420.5
 13
0.0
 23
0.0
 14
10.0
 24
10.0
 15
10.0
 25
10.0
 16
0.0
 26
0.0
 36
1.0
 17
0.0
 27
0.0
 37
0.0
 40
841.0
 41
0.7063020214
 42
50.0
 43
0.0
 44
0.0
 50
0.0
 51
0.0
 71
     0
 72
  2000
 73
     1
 74
     3
 75
     0
 76
     0
 77
     0
 78
     0
281
     0
 65
     1
110
0.0
120
0.0
130
0.0
111
1.0
121
0.0
131
0.0
112
0.0
122
1.0
132
0.0
 79
     0
146
0.0
  0
ENDTAB
  0
TABLE
  2
LTYPE
  5
5
330
0
100
AcDbSymbolTable
 70
     6
  0
LTYPE
  5
14
330
5
100
AcDbSymbolTableRecord
100
AcDbLinetypeTableRecord
  2
ByBlock
 70
     0
  3

 72
    65
 73
     0
 40
0.0
  0
LTYPE
  5
15
330
5
100
AcDbSymbolTableRecord
100
AcDbLinetypeTableRecord
  2
ByLayer
 70
     0
  3

 72
    65
 73
     0
 40
0.0
  0
LTYPE
  5
16
330
5
100
AcDbSymbolTableRecord
100
AcDbLinetypeTableRecord
  2
Continuous
 70
     0
  3
Solid line
 72
    65
 73
     0
 40
0.0
  0
LTYPE
  5
6E
330
5
100
AcDbSymbolTableRecord
100
AcDbLinetypeTableRecord
  2
HIDDEN
 70
     0
  3
Hidden __ __ __ __ __ __ __ __ __ __ __ __ __ __
 72
    65
 73
     2
 40
1.905
 49
1.27
 74
     0
 49
-0.635
 74
     0
  0
LTYPE
  5
6F
330
5
100
AcDbSymbolTableRecord
100
AcDbLinetypeTableRecord
  2
PHANTOM
 70
     0
  3
Phantom ______  __  __  ______  __  __  ______
 72
    65
 73
     6
 40
12.7
 49
6.35
 74
     0
 49
-1.27
 74
     0
 49
1.27
 74
     0
 49
-1.27
 74
     0
 49
1.27
 74
     0
 49
-1.27
 74
     0
  0
LTYPE
  5
70
330
5
100
AcDbSymbolTableRecord
100
AcDbLinetypeTableRecord
  2
CENTER
 70
     0
  3
Center ____ _ ____ _ ____ _ ____ _ ____ _ ____
 72
    65
 73
     4
 40
10.16
 49
6.35
 74
     0
 49
-1.27
 74
     0
 49
1.27
 74
     0
 49
-1.27
 74
     0
  0
LTYPE
  5
71
330
5
100
AcDbSymbolTableRecord
100
AcDbLinetypeTableRecord
  2
CENTERX2
 70
     0
  3
Center (2x) ________  __  ________  __  _____
 72
    65
 73
     4
 40
20.32
 49
12.7
 74
     0
 49
-2.54
 74
     0
 49
2.54
 74
     0
 49
-2.54
 74
     0
  0
LTYPE
  5
72
330
5
100
AcDbSymbolTableRecord
100
AcDbLinetypeTableRecord
  2
DOT2
 70
     0
  3
Dot (.5x) ........................................
 72
    65
 73
     2
 40
0.635
 49
0.0
 74
     0
 49
-0.635
 74
     0
  0
ENDTAB
  0
TABLE
  2
LAYER
  5
2
330
0
100
AcDbSymbolTable
 70
     1
  0
LAYER
  5
10
330
2
100
AcDbSymbolTableRecord
100
AcDbLayerTableRecord
  2
0
 70
     0
 62
     7
  6
Continuous
370
    -3
390
F
  0
ENDTAB
  0
TABLE
  2
STYLE
  5
3
330
0
100
AcDbSymbolTable
 70
     3
  0
STYLE
  5
11
330
3
100
AcDbSymbolTableRecord
100
AcDbTextStyleTableRecord
  2
Standard
 70
     0
 40
0.0
 41
1.0
 50
0.0
 71
     0
 42
10.0
  3
txt
  4

  0
STYLE
  5
76
330
3
100
AcDbSymbolTableRecord
100
AcDbTextStyleTableRecord
  2
SLDTEXTSTYLE0
 70
     0
 40
0.0
 41
0.96
 50
0.0
 71
     0
 42
10.0
  3
ISOCP3
  4

  0
STYLE
  5
8D
330
3
100
AcDbSymbolTableRecord
100
AcDbTextStyleTableRecord
  2
SLDTEXTSTYLE1
 70
     0
 40
0.0
 41
0.605
 50
0.0
 71
     0
 42
10.0
  3
TXT
  4

  0
ENDTAB
  0
TABLE
  2
VIEW
  5
6
330
0
100
AcDbSymbolTable
 70
     0
  0
ENDTAB
  0
TABLE
  2
UCS
  5
7
330
0
100
AcDbSymbolTable
 70
     0
  0
ENDTAB
  0
TABLE
  2
APPID
  5
9
330
0
100
AcDbSymbolTable
 70
     1
  0
APPID
  5
12
330
9
100
AcDbSymbolTableRecord
100
AcDbRegAppTableRecord
  2
ACAD
 70
     0
  0
ENDTAB
  0
TABLE
  2
DIMSTYLE
  5
A
330
0
100
AcDbSymbolTable
 70
     2
100
AcDbDimStyleTable
  0
DIMSTYLE
105
27
330
A
100
AcDbSymbolTableRecord
100
AcDbDimStyleTableRecord
  2
ISO-25
 70
     0
 41
2.5
 42
0.625
 43
3.75
 44
1.25
 73
     0
 74
     0
 77
     1
 78
     8
140
2.5
141
2.5
143
0.0393700787
147
0.625
171
     3
172
     1
178
     0
271
     2
272
     2
274
     3
278
    44
283
     0
284
     8
340
11
  0
DIMSTYLE
105
77
102
{ACAD_REACTORS
330
75
330
82
102
}
330
A
100
AcDbSymbolTableRecord
100
AcDbDimStyleTableRecord
  2
SLDDIMSTYLE0
 70
     0
 41
2.5
 44
0.0
 45
0.000000001
 73
     0
 74
     0
 77
     1
 78
    12
 79
     3
140
6.0
144
2.0
147
1.5
173
     1
178
     0
271
     2
272
     2
276
     2
284
    12
340
76
  0
ENDTAB
  0
TABLE
  2
BLOCK_RECORD
  5
1
330
0
100
AcDbSymbolTable
 70
     3
  0
BLOCK_RECORD
  5
1F
330
1
100
AcDbSymbolTableRecord
100
AcDbBlockTableRecord
  2
*Model_Space
340
22
  0
BLOCK_RECORD
  5
1B
330
1
100
AcDbSymbolTableRecord
100
AcDbBlockTableRecord
  2
*Paper_Space
340
1E
  0
BLOCK_RECORD
  5
23
330
1
100
AcDbSymbolTableRecord
100
AcDbBlockTableRecord
  2
*Paper_Space0
340
26
  0
BLOCK_RECORD
  5
78
330
1
100
AcDbSymbolTableRecord
100
AcDbBlockTableRecord
  2
_D
340
0
  0
BLOCK_RECORD
  5
83
330
1
100
AcDbSymbolTableRecord
100
AcDbBlockTableRecord
  2
_D_1
340
0
  0
ENDTAB
  0
ENDSEC
  0
SECTION
  2
BLOCKS
  0
BLOCK
  5
20
330
1F
100
AcDbEntity
  8
0
100
AcDbBlockBegin
  2
*Model_Space
 70
     0
 10
0.0
 20
0.0
 30
0.0
  3
*Model_Space
  1

  0
ENDBLK
  5
21
330
1F
100
AcDbEntity
  8
0
100
AcDbBlockEnd
  0
BLOCK
  5
1C
330
1B
100
AcDbEntity
 67
     1
  8
0
100
AcDbBlockBegin
  2
*Paper_Space
 70
     0
 10
0.0
 20
0.0
 30
0.0
  3
*Paper_Space
  1

  0
ENDBLK
  5
1D
330
1B
100
AcDbEntity
 67
     1
  8
0
100
AcDbBlockEnd
  0
BLOCK
  5
24
330
23
100
AcDbEntity
  8
0
100
AcDbBlockBegin
  2
*Paper_Space0
 70
     0
 10
0.0
 20
0.0
 30
0.0
  3
*Paper_Space0
  1

  0
ENDBLK
  5
25
330
23
100
AcDbEntity
  8
0
100
AcDbBlockEnd
  0
BLOCK
  5
79
330
78
100
AcDbEntity
  8
0
100
AcDbBlockBegin
  2
_D
 70
     0
 10
0.0
 20
0.0
 30
0.0
  3
_D
  1

  0
SOLID
  5
7B
330
78
100
AcDbEntity
  8
0
  6
Continuous
 62
     7
370
    18
100
AcDbTrace
 10
42.7614395004
 20
152.0299240879
 30
0.0
 11
42.4614395004
 21
149.5299240879
 31
0.0
 12
43.0614395004
 22
149.5299240879
 32
0.0
 13
43.0614395004
 23
149.5299240879
 33
0.0
  0
SOLID
  5
7C
330
78
100
AcDbEntity
  8
0
  6
Continuous
 62
     7
370
    18
100
AcDbTrace
 10
42.7614395004
 20
52.0299240879
 30
0.0
 11
43.0614395004
 21
54.5299240879
 31
0.0
 12
42.4614395004
 22
54.5299240879
 32
0.0
 13
42.4614395004
 23
54.5299240879
 33
0.0
  0
LINE
  5
7D
330
78
100
AcDbEntity
  8
0
  6
Continuous
 62
     7
370
     0
100
AcDbLine
 10
56.6850079902
 20
152.0299240879
 30
0.0
 11
41.7614395004
 21
152.0299240879
 31
0.0
  0
LINE
  5
7E
330
78
100
AcDbEntity
  8
0
  6
Continuous
 62
     7
370
     0
100
AcDbLine
 10
56.6850079902
 20
52.0299240879
 30
0.0
 11
41.7614395004
 21
52.0299240879
 31
0.0
  0
LINE
  5
7F
330
78
100
AcDbEntity
  8
0
  6
Continuous
 62
     7
370
     0
100
AcDbLine
 10
42.7614395004
 20
152.0299240879
 30
0.0
 11
42.7614395004
 21
52.0299240879
 31
0.0
  0
MTEXT
  5
80
330
78
100
AcDbEntity
  8
0
  6
Continuous
 62
     7
370
    18
100
AcDbMText
 10
35.0270332946
 20
94.3680541463
 30
0.0
 40
6.0
 41
0.0
 71
     1
 72
     1
  1
100
  7
SLDTEXTSTYLE0
 11
-7.044195017643634E-15
 21
1.0
 31
0.0
 73
     1
 44
1.0
  0
MTEXT
  5
81
330
78
100
AcDbEntity
  8
0
  6
Continuous
 62
     7
370
    18
100
AcDbMText
 10
35.0270332946
 20
105.7430548466
 30
0.0
 40
6.0
 41
0.0
 71
     1
 72
     1
  1
mm
  7
SLDTEXTSTYLE0
 11
-7.044195017643634E-15
 21
1.0
 31
0.0
 73
     1
 44
1.0
  0
ENDBLK
  5
7A
330
78
100
AcDbEntity
  8
0
100
AcDbBlockEnd
  0
BLOCK
  5
84
330
83
100
AcDbEntity
  8
0
100
AcDbBlockBegin
  2
_D_1
 70
     0
 10
0.0
 20
0.0
 30
0.0
  3
_D_1
  1

  0
SOLID
  5
86
330
83
100
AcDbEntity
  8
0
  6
Continuous
 62
     7
370
    18
100
AcDbTrace
 10
56.6850079902
 20
38.4602342313
 30
0.0
 11
59.1850079902
 21
38.1602342313
 31
0.0
 12
59.1850079902
 22
38.7602342313
 32
0.0
 13
59.1850079902
 23
38.7602342313
 33
0.0
  0
SOLID
  5
87
330
83
100
AcDbEntity
  8
0
  6
Continuous
 62
     7
370
    18
100
AcDbTrace
 10
156.6850079902
 20
38.4602342313
 30
0.0
 11
154.1850079902
 21
38.7602342313
 31
0.0
 12
154.1850079902
 22
38.1602342313
 32
0.0
 13
154.1850079902
 23
38.1602342313
 33
0.0
  0
LINE
  5
88
330
83
100
AcDbEntity
  8
0
  6
Continuous
 62
     7
370
     0
100
AcDbLine
 10
56.6850079902
 20
52.0299240879
 30
0.0
 11
56.6850079902
 21
37.4602342313
 31
0.0
  0
LINE
  5
89
330
83
100
AcDbEntity
  8
0
  6
Continuous
 62
     7
370
     0
100
AcDbLine
 10
156.6850079902
 20
52.0299240879
 30
0.0
 11
156.6850079902
 21
37.4602342313
 31
0.0
  0
LINE
  5
8A
330
83
100
AcDbEntity
  8
0
  6
Continuous
 62
     7
370
     0
100
AcDbLine
 10
56.6850079902
 20
38.4602342313
 30
0.0
 11
156.6850079902
 21
38.4602342313
 31
0.0
  0
MTEXT
  5
8B
330
83
100
AcDbEntity
  8
0
  6
Continuous
 62
     7
370
    18
100
AcDbMText
 10
93.9626484861
 20
46.1946404371
 30
0.0
 40
6.0
 41
0.0
 71
     1
 72
     1
  1
100
  7
SLDTEXTSTYLE0
 73
     1
 44
1.0
  0
MTEXT
  5
8C
330
83
100
AcDbEntity
  8
0
  6
Continuous
 62
     7
370
    18
100
AcDbMText
 10
105.3376491864
 20
46.1946404371
 30
0.0
 40
6.0
 41
0.0
 71
     1
 72
     1
  1
mm
  7
SLDTEXTSTYLE0
 73
     1
 44
1.0
  0
ENDBLK
  5
85
330
83
100
AcDbEntity
  8
0
100
AcDbBlockEnd
  0
ENDSEC
  0
SECTION
  2
ENTITIES
  0
LINE
  5
73
330
1F
100
AcDbEntity
  8
0
  6
Continuous
 62
     7
370
    18
100
AcDbLine
 10
56.6850079902
 20
152.0299240879
 30
0.0
 11
56.6850079902
 21
52.0299240879
 31
0.0
  0
LINE
  5
74
330
1F
100
AcDbEntity
  8
0
  6
Continuous
 62
     7
370
    18
100
AcDbLine
 10
56.6850079902
 20
52.0299240879
 30
0.0
 11
156.6850079902
 21
52.0299240879
 31
0.0
  0
DIMENSION
  5
75
330
1F
100
AcDbEntity
  8
0
  6
Continuous
 62
     7
370
    18
100
AcDbDimension
  2
_D
 10
42.7614395004
 20
52.0299240879
 30
0.0
 11
42.7614395004
 21
105.4472211621
 31
0.0
 70
   160
  1
<>mm
 71
     2
 42
-1.0
  3
SLDDIMSTYLE0
100
AcDbAlignedDimension
 13
56.6850079902
 23
152.0299240879
 33
0.0
 14
56.6850079902
 24
52.0299240879
 34
0.0
 50
90.0
100
AcDbRotatedDimension
  0
DIMENSION
  5
82
330
1F
100
AcDbEntity
  8
0
  6
Continuous
 62
     7
370
    18
100
AcDbDimension
  2
_D_1
 10
156.6850079902
 20
38.4602342313
 30
0.0
 11
105.0418155019
 21
38.4602342313
 31
0.0
 70
   160
  1
<>mm
 71
     2
 42
-1.0
  3
SLDDIMSTYLE0
100
AcDbAlignedDimension
 13
56.6850079902
 23
52.0299240879
 33
0.0
 14
156.6850079902
 24
52.0299240879
 34
0.0
100
AcDbRotatedDimension
  0
MTEXT
  5
8E
330
1F
100
AcDbEntity
  8
0
  6
Continuous
 62
     7
370
     0
100
AcDbMText
 10
412.8252631579
 20
48.4342449499
 30
0.0
 40
10.0
 41
0.0
 71
     1
 72
     1
  1
KLUDI GmbH & Co KG
  7
SLDTEXTSTYLE1
 73
     1
 44
1.0
  0
MTEXT
  5
8F
330
1F
100
AcDbEntity
  8
0
  6
Continuous
 62
     7
370
     0
100
AcDbMText
 10
210.0873490389
 20
48.4342449499
 30
0.0
 40
10.0
 41
0.0
 71
     1
 72
     1
  1
52 759 .. 75
  7
SLDTEXTSTYLE1
 73
     1
 44
1.0
  0
LINE
  5
90
330
1F
100
AcDbEntity
  8
0
  6
Continuous
 62
     7
370
    25
100
AcDbLine
 10
190.4865004394
 20
327.7213576841
 30
0.0
 11
190.4864996347
 21
327.7528649472
 31
0.0
  0
LINE
  5
91
330
1F
100
AcDbEntity
  8
0
  6
Continuous
 62
     7
370
    25
100
AcDbLine
 10
156.0002197363
 20
327.752864936
 30
0.0
 11
156.0002189315
 21
327.7213576843
 31
0.0
  0
SPLINE
  5
92
330
1F
100
AcDbEntity
  8
0
  6
Continuous
 62
     7
370
    25
100
AcDbSpline
210
0.0
220
0.0
230
1.0
 70
     8
 71
     3
 72
    20
 73
    16
 74
     0
 42
0.00000001
 43
0.00000001
 40
0.0
 40
0.0
 40
0.0
 40
0.0
 40
0.0585140597985743
 40
0.1328424271675821
 40
0.2111043337312691
 40
0.2904304106380075
 40
0.3706879627302286
 40
0.451291169708206
 40
0.5312942830980301
 40
0.6114179644729402
 40
0.6921091583036586
 40
0.7729496417629607
 40
0.8537052117722442
 40
0.9325836287928202
 40
0.9999999999999999
 40
0.9999999999999999
 40
0.9999999999999999
 40
0.9999999999999999
 10
190.3427034575754
 20
361.0205021982749
 30
0.0
 10
190.2849674706889
 20
361.4876161374096
 30
0.0
 10
190.1538914752902
 20
362.5480886059422
 30
0.0
 10
189.7031603128976
 20
364.1932267208097
 30
0.0
 10
189.0159709903165
 20
365.9339062644389
 30
0.0
 10
188.09527544855
 20
367.6254351651921
 30
0.0
 10
186.96740293371
 20
369.2177196279126
 30
0.0
 10
185.6485850787334
 20
370.6763356818121
 30
0.0
 10
184.1590893767567
 20
371.9741660402456
 30
0.0
 10
182.5207455586821
 20
373.0989169920233
 30
0.0
 10
180.7493292889762
 20
374.0385136460274
 30
0.0
 10
178.8687076893228
 20
374.778003838224
 30
0.0
 10
176.9231888461937
 20
375.2973632743607
 30
0.0
 10
175.037535711285
 20
375.5863479830497
 30
0.0
 10
173.8107139774316
 20
375.6418632807535
 30
0.0
 10
173.2453632194419
 20
375.6674461464386
 30
0.0
  0
SPLINE
  5
93
330
1F
100
AcDbEntity
  8
0
  6
Continuous
 62
     7
370
    25
100
AcDbSpline
210
0.0
220
0.0
230
1.0
 70
     8
 71
     3
 72
    20
 73
    16
 74
     0
 42
0.00000001
 43
0.00000001
 40
0.0
 40
0.0
 40
0.0
 40
0.0
 40
0.0505435480475154
 40
0.1276142050733195
 40
0.2034024204725566
 40
0.2828321733945008
 40
0.3633317532578261
 40
0.4443866873068954
 40
0.5257782879927542
 40
0.607122773345503
 40
0.6879806647914839
 40
0.7692918697141843
 40
0.8505906036223408
 40
0.9311987707909092
 40
1.0
 40
1.0
 40
1.0
 40
1.0
 10
173.2422333729311
 20
375.6590922613432
 30
0.0
 10
172.8216502737241
 20
375.6458178600681
 30
0.0
 10
171.759746629324
 20
375.6123021645542
 30
0.0
 10
170.078808428094
 20
375.3912163300089
 30
0.0
 10
168.1984137290842
 20
374.955218137163
 30
0.0
 10
166.3562356649955
 20
374.3073728489142
 30
0.0
 10
164.5659860721606
 20
373.4459466102666
 30
0.0
 10
162.8796787800921
 20
372.3847996006826
 30
0.0
 10
161.3296003806805
 20
371.1397794429214
 30
0.0
 10
159.9461118990039
 20
369.7289535403338
 30
0.0
 10
158.7469101005081
 20
368.1721852763417
 30
0.0
 10
157.7436156340143
 20
366.491333200705
 30
0.0
 10
156.9598250735668
 20
364.707916965571
 30
0.0
 10
156.4134271510079
 20
362.9407495381064
 30
0.0
 10
156.24136009815
 20
361.760473157698
 30
0.0
 10
156.1621252907683
 20
361.216970086624
 30
0.0
  0
SPLINE
  5
94
330
1F
100
AcDbEntity
  8
0
  6
Continuous
 62
     7
370
    25
100
AcDbSpline
210
0.0
220
0.0
230
1.0
 70
     8
 71
     3
 72
    24
 73
    20
 74
     0
 42
0.00000001
 43
0.00000001
 40
0.0
 40
0.0
 40
0.0
 40
0.0
 40
0.03125
 40
0.03125
 40
0.0625000000000001
 40
0.0625000000000001
 40
0.1250000000000001
 40
0.1250000000000001
 40
0.2500000000000001
 40
0.2500000000000001
 40
0.4999999999999999
 40
0.4999999999999999
 40
0.6249999999999997
 40
0.6249999999999997
 40
0.7499999999999998
 40
0.7499999999999998
 40
0.8749999999999999
 40
0.8749999999999999
 40
1.0
 40
1.0
 40
1.0
 40
1.0
 10
156.1186737565089
 20
274.323290054447
 30
0.0
 10
156.1146304231144
 20
275.2239989366378
 30
0.0
 10
156.1106942582168
 20
276.1245390200136
 30
0.0
 10
156.1030616776957
 20
277.9254211631854
 30
0.0
 10
156.0993582297945
 20
278.8257375990187
 30
0.0
 10
156.0885703290832
 20
281.5262846934307
 30
0.0
 10
156.0818046419509
 20
283.3258811045675
 30
0.0
 10
156.0626612488841
 20
288.7223246488259
 30
0.0
 10
156.0514544456727
 20
292.316378349084
 30
0.0
 10
156.0228826396825
 20
303.0807279387382
 30
0.0
 10
156.0104974123103
 20
310.2391791209076
 30
0.0
 10
156.001473413748
 20
320.9168142159975
 30
0.0
 10
156.0000631662008
 20
324.4663614084362
 30
0.0
 10
156.0003946608893
 20
331.5462273376789
 30
0.0
 10
156.0021421777699
 20
335.075905623389
 30
0.0
 10
156.0087423223772
 20
342.1023842340417
 30
0.0
 10
156.0135930061136
 20
345.5988483942577
 30
0.0
 10
156.0262530620596
 20
352.5462676409963
 30
0.0
 10
156.0340804871365
 20
355.9985765517616
 30
0.0
 10
156.043304816638
 20
359.4301458157674
 30
0.0
  0
SPLINE
  5
95
330
1F
100
AcDbEntity
  8
0
  6
Continuous
 62
     7
370
    25
100
AcDbSpline
210
0.0
220
0.0
230
1.0
 70
     8
 71
     3
 72
    24
 73
    20
 74
     0
 42
0.00000001
 43
0.00000001
 40
0.0
 40
0.0
 40
0.0
 40
0.0
 40
0.0312500000000001
 40
0.0312500000000001
 40
0.0625000000000001
 40
0.0625000000000001
 40
0.1250000000000002
 40
0.1250000000000002
 40
0.2500000000000006
 40
0.2500000000000006
 40
0.5000000000000006
 40
0.5000000000000006
 40
0.6250000000000004
 40
0.6250000000000004
 40
0.7500000000000003
 40
0.7500000000000003
 40
0.8750000000000002
 40
0.8750000000000002
 40
1.0
 40
1.0
 40
1.0
 40
1.0
 10
190.3680456144361
 20
274.3232900544474
 30
0.0
 10
190.3720889478306
 20
275.2239989366382
 30
0.0
 10
190.3760251127282
 20
276.124539020014
 30
0.0
 10
190.3836576932492
 20
277.9254211631857
 30
0.0
 10
190.3873611411504
 20
278.8257375990191
 30
0.0
 10
190.3981490418617
 20
281.526284693431
 30
0.0
 10
190.4049147289939
 20
283.3258811045678
 30
0.0
 10
190.4240581220606
 20
288.7223246488261
 30
0.0
 10
190.435264925272
 20
292.3163783490842
 30
0.0
 10
190.463836731262
 20
303.0807279387387
 30
0.0
 10
190.4762219586338
 20
310.2391791209037
 30
0.0
 10
190.4852459571962
 20
320.9168142159998
 30
0.0
 10
190.4866562047432
 20
324.4663614084362
 30
0.0
 10
190.4863247100546
 20
331.5462273376799
 30
0.0
 10
190.4845771931739
 20
335.0759056233894
 30
0.0
 10
190.4779770485665
 20
342.1023842340428
 30
0.0
 10
190.4731263648299
 20
345.5988483942499
 30
0.0
 10
190.4604663088839
 20
352.5462676410064
 30
0.0
 10
190.4526388838068
 20
355.9985765517621
 30
0.0
 10
190.4434145543053
 20
359.4301458157678
 30
0.0
  0
SPLINE
  5
96
330
1F
100
AcDbEntity
  8
0
  6
Continuous
 62
     7
370
    25
100
AcDbSpline
210
0.0
220
0.0
230
1.0
 70
     8
 71
     3
 72
    13
 73
     9
 74
     0
 42
0.00000001
 43
0.00000001
 40
0.0
 40
0.0
 40
0.0
 40
0.0
 40
0.0444537385599579
 40
0.276489201870443
 40
0.4593229428016366
 40
0.6424710145944001
 40
0.8242605062036552
 40
1.0
 40
1.0
 40
1.0
 40
1.0
 10
190.4855244465469
 20
326.2543703634311
 30
0.0
 10
190.4857404221015
 20
325.4946695812413
 30
0.0
 10
190.4870837266387
 20
320.7695537702349
 30
0.0
 10
190.4787003369575
 20
312.8479335585013
 30
0.0
 10
190.4619209212276
 20
302.5125961695138
 30
0.0
 10
190.4379193066214
 20
293.0082721556388
 30
0.0
 10
190.4074084075508
 20
283.6077384777796
 30
0.0
 10
190.3810176868653
 20
277.3805487436873
 30
0.0
 10
190.3680456144361
 20
274.3196411912502
 30
0.0
  0
SPLINE
  5
97
330
1F
100
AcDbEntity
  8
0
  6
Continuous
 62
     7
370
    25
100
AcDbSpline
210
0.0
220
0.0
230
1.0
 70
     8
 71
     3
 72
    13
 73
     9
 74
     0
 42
0.00000001
 43
0.00000001
 40
0.0
 40
0.0
 40
0.0
 40
0.0
 40
0.0444537385599956
 40
0.2764892018704719
 40
0.459322942801658
 40
0.6424710145944146
 40
0.8242605062036621
 40
1.0
 40
1.0
 40
1.0
 40
1.0
 10
156.0011949243971
 20
326.2543703634328
 30
0.0
 10
156.0009789488425
 20
325.4946695812423
 30
0.0
 10
155.9996356443054
 20
320.7695537702352
 30
0.0
 10
156.0080190339867
 20
312.8479335585008
 30
0.0
 10
156.0247984497169
 20
302.5125961695133
 30
0.0
 10
156.0488000643233
 20
293.0082721556385
 30
0.0
 10
156.079310963394
 20
283.6077384777793
 30
0.0
 10
156.1057016840797
 20
277.380548743687
 30
0.0
 10
156.1186737565089
 20
274.3196411912498
 30
0.0
  0
LINE
  5
98
330
1F
100
AcDbEntity
  8
0
  6
Continuous
 62
     7
370
    25
100
AcDbLine
 10
190.4434047212
 20
359.4336848018
 30
0.0
 11
190.3253387893
 21
361.0025192635
 31
0.0
  0
LINE
  5
99
330
1F
100
AcDbEntity
  8
0
  6
Continuous
 62
     7
370
    25
100
AcDbLine
 10
156.0433146498
 20
359.4336848018
 30
0.0
 11
156.1760848452
 21
361.1979063237
 31
0.0
  0
LWPOLYLINE
  5
9A
330
1F
100
AcDbEntity
  8
0
  6
Continuous
 62
     7
370
    25
100
AcDbPolyline
 90
       47
 70
   128
 43
0.0
 10
190.5291105678
 20
340.9447130351
 10
191.1832936021
 20
341.624655787
 10
192.7734847956
 20
343.537008712
 10
194.1496998515
 20
345.6007576
 10
195.2968606696
 20
347.7932915863
 10
196.2023987158
 20
350.0905888096
 10
196.856392726
 20
352.4674796009
 10
197.2516774049
 20
354.8979222473
 10
197.3839219307
 20
357.3552883105
 10
197.2516774049
 20
359.8126543737
 10
196.856392726
 20
362.24309702
 10
196.2023987158
 20
364.6199878113
 10
195.2968606696
 20
366.9172850347
 10
194.1496998515
 20
369.1098190209
 10
192.7734847956
 20
371.1735679089
 10
191.1832936021
 20
373.0859208339
 10
189.3965487385
 20
374.8259256572
 10
187.4328261553
 20
376.3745185218
 10
185.3136408081
 20
377.7147327201
 10
183.0622109351
 20
378.8318845849
 10
180.703203673
 20
379.7137343668
 10
178.2624647992
 20
380.3506203348
 10
175.7667355594
 20
380.7355646331
 10
173.2433596855
 20
380.8643497313
 10
170.7199838116
 20
380.7355646331
 10
168.2242545718
 20
380.3506203348
 10
165.7835156979
 20
379.7137343668
 10
163.4245084359
 20
378.8318845849
 10
161.1730785628
 20
377.7147327201
 10
159.0538932157
 20
376.3745185218
 10
157.0901706325
 20
374.8259256572
 10
155.3034257688
 20
373.0859208339
 10
153.7132345753
 20
371.1735679089
 10
152.3370195194
 20
369.1098190209
 10
151.1898587014
 20
366.9172850347
 10
150.2843206551
 20
364.6199878113
 10
149.6303266449
 20
362.24309702
 10
149.2350419661
 20
359.8126543737
 10
149.1027974402
 20
357.3552883105
 10
149.2350419661
 20
354.8979222473
 10
149.6303266449
 20
352.4674796009
 10
150.2843206551
 20
350.0905888096
 10
151.1898587014
 20
347.7932915863
 10
152.3370195194
 20
345.6007576
 10
153.7132345753
 20
343.537008712
 10
155.3034257688
 20
341.624655787
 10
155.9313215625
 20
340.9710135054
  0
ARC
  5
9B
330
1F
100
AcDbEntity
  8
0
  6
Continuous
 62
     7
370
    25
100
AcDbCircle
 10
173.243359686
 20
359.8233124957
 30
0.0
 40
24.50000000000001
100
AcDbArc
 50
15.8018159094
 51
191.3888131981
  0
ARC
  5
9C
330
1F
100
AcDbEntity
  8
0
  6
Continuous
 62
     7
370
    25
100
AcDbCircle
 10
173.243359686
 20
359.8233124957
 30
0.0
 40
24.5
100
AcDbArc
 50
348.6111867756
 51
15.8018159094
  0
SPLINE
  5
9D
330
1F
100
AcDbEntity
  8
0
  6
Continuous
 62
     7
370
    25
100
AcDbSpline
210
0.0
220
0.0
230
1.0
 70
    11
 71
     3
 72
    95
 73
    91
 74
     0
 42
0.00000001
 43
0.00000001
 40
0.0
 40
0.0
 40
0.0
 40
0.0
 40
0.0312499999999999
 40
0.0312499999999999
 40
0.0468749999999997
 40
0.0468749999999997
 40
0.0624999999999995
 40
0.0624999999999995
 40
0.0937499999999989
 40
0.0937499999999989
 40
0.1093749999999988
 40
0.1093749999999988
 40
0.1249999999999986
 40
0.1249999999999986
 40
0.1562499999999983
 40
0.1562499999999983
 40
0.1718749999999981
 40
0.1718749999999981
 40
0.1874999999999979
 40
0.2031249999999978
 40
0.2031249999999978
 40
0.2187499999999976
 40
0.2187499999999976
 40
0.2499999999999971
 40
0.2499999999999971
 40
0.2656249999999969
 40
0.2656249999999969
 40
0.2812499999999968
 40
0.2812499999999968
 40
0.3124999999999965
 40
0.3124999999999965
 40
0.3281249999999964
 40
0.3281249999999964
 40
0.3437499999999963
 40
0.3437499999999963
 40
0.374999999999996
 40
0.374999999999996
 40
0.4062499999999957
 40
0.4062499999999957
 40
0.4218749999999956
 40
0.4218749999999956
 40
0.4374999999999954
 40
0.4374999999999954
 40
0.4687499999999951
 40
0.4687499999999951
 40
0.4999999999999949
 40
0.4999999999999949
 40
0.5312499999999947
 40
0.5312499999999947
 40
0.5468749999999947
 40
0.5468749999999947
 40
0.5624999999999948
 40
0.5781249999999948
 40
0.5781249999999948
 40
0.5937499999999948
 40
0.5937499999999948
 40
0.6249999999999949
 40
0.6249999999999949
 40
0.6406249999999949
 40
0.6406249999999949
 40
0.6562499999999948
 40
0.6562499999999948
 40
0.6874999999999949
 40
0.6874999999999949
 40
0.703124999999995
 40
0.703124999999995
 40
0.7187499999999952
 40
0.7187499999999952
 40
0.7499999999999956
 40
0.7499999999999956
 40
0.7656249999999958
 40
0.7656249999999958
 40
0.781249999999996
 40
0.7968749999999963
 40
0.7968749999999963
 40
0.8124999999999966
 40
0.8124999999999966
 40
0.8437499999999971
 40
0.8437499999999971
 40
0.8749999999999977
 40
0.8749999999999977
 40
0.9062499999999982
 40
0.9062499999999982
 40
0.9218749999999984
 40
0.9218749999999984
 40
0.9374999999999987
 40
0.9374999999999987
 40
0.9687499999999993
 40
0.9687499999999993
 40
1.0
 40
1.0
 40
1.0
 40
1.0
 10
165.1925103395508
 20
435.9013108363436
 30
0.0
 10
164.6589095976967
 20
435.3694324790499
 30
0.0
 10
164.186416192614
 20
434.7940843013175
 30
0.0
 10
163.5655876540262
 20
433.8685245339392
 30
0.0
 10
163.3734056890102
 20
433.5495041889708
 30
0.0
 10
163.019236961365
 20
432.8899835901483
 30
0.0
 10
162.856994172488
 20
432.5483628745915
 30
0.0
 10
162.4264679535911
 20
431.5130776944117
 30
0.0
 10
162.2098366516601
 20
430.8025753056262
 30
0.0
 10
161.9895223016492
 20
429.7066265105209
 30
0.0
 10
161.9335252792868
 20
429.3349503297381
 30
0.0
 10
161.8585962959452
 20
428.5868261581713
 30
0.0
 10
161.8398720234752
 20
428.2138223685719
 30
0.0
 10
161.8381641222043
 20
427.0978867382312
 30
0.0
 10
161.9091298321551
 20
426.3580015203021
 30
0.0
 10
162.1263155486371
 20
425.2544272331174
 30
0.0
 10
162.2175054572724
 20
424.887951405766
 30
0.0
 10
162.4331130197527
 20
424.1732673933838
 30
0.0
 10
162.6826541817146
 20
423.4726820085627
 30
0.0
 10
162.9990369595099
 20
422.7998677727408
 30
0.0
 10
163.3492955060344
 20
422.1411281371389
 30
0.0
 10
163.5424960643726
 20
421.8171560983143
 30
0.0
 10
164.1662990021387
 20
420.8801135072989
 30
0.0
 10
164.6373483294673
 20
420.3049147347159
 30
0.0
 10
165.424483986013
 20
419.5143792193477
 30
0.0
 10
165.7003861398109
 20
419.2629978550546
 30
0.0
 10
166.2800601255839
 20
418.7852338228709
 30
0.0
 10
166.5821893370438
 20
418.5604482806349
 30
0.0
 10
167.5111092260564
 20
417.9375256895724
 30
0.0
 10
168.1653947964363
 20
417.5859764262281
 30
0.0
 10
169.1996235624676
 20
417.1547827502439
 30
0.0
 10
169.555252193766
 20
417.0266590009343
 30
0.0
 10
170.271783682688
 20
416.8079083672118
 30
0.0
 10
170.6330977896231
 20
416.7168516274207
 30
0.0
 10
171.7259655656873
 20
416.4973172999217
 30
0.0
 10
172.4663575706419
 20
416.4219520757769
 30
0.0
 10
173.971689810538
 20
416.4187397283684
 30
0.0
 10
174.7144207696143
 20
416.491222511352
 30
0.0
 10
175.8078301925916
 20
416.7061941869234
 30
0.0
 10
176.1691923091201
 20
416.7956902363552
 30
0.0
 10
176.8855704324714
 20
417.0111103877186
 30
0.0
 10
177.2419916829749
 20
417.1377798655195
 30
0.0
 10
178.2793996484804
 20
417.56521679356
 30
0.0
 10
178.9351776061762
 20
417.9142480795166
 30
0.0
 10
180.1759662799361
 20
418.7388701868059
 30
0.0
 10
180.7640686558709
 20
419.2194131121722
 30
0.0
 10
181.8186376180734
 20
420.2698351152965
 30
0.0
 10
182.2917381524975
 20
420.8429134263134
 30
0.0
 10
182.9184617555165
 20
421.7757906334336
 30
0.0
 10
183.1134591482648
 20
422.0995809832964
 30
0.0
 10
183.4668766331275
 20
422.7576363086405
 30
0.0
 10
183.7861936795742
 20
423.4295582710139
 30
0.0
 10
184.0384537137597
 20
424.1287483651894
 30
0.0
 10
184.2567872992956
 20
424.8417343450164
 30
0.0
 10
184.3493155713664
 20
425.2068333041973
 30
0.0
 10
184.5715427178377
 20
426.3113624980393
 30
0.0
 10
184.645465638245
 20
427.0513447772769
 30
0.0
 10
184.6483547761626
 20
428.1665987403783
 30
0.0
 10
184.6311881240638
 20
428.5392365326161
 30
0.0
 10
184.5595585697208
 20
429.2863357575985
 30
0.0
 10
184.5049877631163
 20
429.6595170882281
 30
0.0
 10
184.2890004981072
 20
430.7575096478549
 30
0.0
 10
184.0751901115665
 20
431.4687833583191
 30
0.0
 10
183.6495256890185
 20
432.5045464802831
 30
0.0
 10
183.4889744960812
 20
432.8464152084917
 30
0.0
 10
183.1370365181276
 20
433.5084483433333
 30
0.0
 10
182.9459817698616
 20
433.8285606887494
 30
0.0
 10
182.3287241256726
 20
434.757026328493
 30
0.0
 10
181.8588548512597
 20
435.3338168836808
 30
0.0
 10
181.0634070243122
 20
436.1334838813153
 30
0.0
 10
180.7854723022173
 20
436.386410790342
 30
0.0
 10
180.2104847720943
 20
436.8604759769456
 30
0.0
 10
179.614626501237
 20
437.3045232006623
 30
0.0
 10
178.9774345899533
 20
437.6891210881021
 30
0.0
 10
178.3191776615867
 20
438.0434215889276
 30
0.0
 10
177.9777193256929
 20
438.2060443575756
 30
0.0
 10
176.9413794261379
 20
438.63816836889
 30
0.0
 10
176.2308513651525
 20
438.8553525418141
 30
0.0
 10
174.7711454891732
 20
439.1501620235223
 30
0.0
 10
174.0154706152817
 20
439.2266261437637
 30
0.0
 10
172.5264264517603
 20
439.2302284662629
 30
0.0
 10
171.7867654779388
 20
439.1598065031707
 30
0.0
 10
170.6846881532089
 20
438.9440192329973
 30
0.0
 10
170.3176006326796
 20
438.8530993516908
 30
0.0
 10
169.6018109676531
 20
438.6378824405746
 30
0.0
 10
169.2511756993352
 20
438.5133203312645
 30
0.0
 10
168.2206449293021
 20
438.0897157257015
 30
0.0
 10
167.5598703107543
 20
437.7398794470951
 30
0.0
 10
166.3063756589049
 20
436.9071888201781
 30
0.0
 10
165.726111081405
 20
436.4331891936371
 30
0.0
 10
165.1925103395508
 20
435.9013108363436
 30
0.0
  0
ARC
  5
9E
330
1F
100
AcDbEntity
  8
0
  6
Continuous
 62
     7
370
    25
100
AcDbCircle
 10
173.2433596838
 20
389.9233124972
 30
0.0
 40
74.50000000000009
100
AcDbArc
 50
283.3805492002
 51
256.6212609408
  0
SPLINE
  5
9F
330
1F
100
AcDbEntity
  8
0
  6
Continuous
 62
     8
370
    25
100
AcDbSpline
210
0.0
220
0.0
230
1.0
 70
     8
 71
     3
 72
    34
 73
    30
 74
     0
 42
0.00000001
 43
0.00000001
 40
0.0
 40
0.0
 40
0.0
 40
0.0
 40
0.5000000000000013
 40
0.5000000000000013
 40
0.5625000000000013
 40
0.5625000000000013
 40
0.5937500000000011
 40
0.5937500000000011
 40
0.6250000000000009
 40
0.6250000000000009
 40
0.6875000000000004
 40
0.6875000000000004
 40
0.7500000000000001
 40
0.7500000000000001
 40
0.8124999999999994
 40
0.8124999999999994
 40
0.8437499999999992
 40
0.8437499999999992
 40
0.874999999999999
 40
0.874999999999999
 40
0.9062499999999988
 40
0.9062499999999988
 40
0.9374999999999984
 40
0.9374999999999984
 40
0.9687499999999982
 40
0.9687499999999982
 40
0.9843749999999992
 40
0.9843749999999992
 40
1.0
 40
1.0
 40
1.0
 40
1.0
 10
173.2433596854726
 20
267.8325459968901
 30
0.0
 10
176.6566291013997
 20
267.8325473593579
 30
0.0
 10
180.0704576025793
 20
267.9737209582171
 30
0.0
 10
183.8944674106099
 20
268.2939680763765
 30
0.0
 10
184.3191254988101
 20
268.331783983355
 30
0.0
 10
184.9557634942158
 20
268.3918573240297
 30
0.0
 10
185.1679104619738
 20
268.4125864035752
 30
0.0
 10
185.5891111295155
 20
268.4846640645192
 30
0.0
 10
185.7987751528213
 20
268.5323346341922
 30
0.0
 10
186.4227583866687
 20
268.7103110627703
 30
0.0
 10
186.8190373023991
 20
268.87121350027
 30
0.0
 10
187.5741139130269
 20
269.2733407416419
 30
0.0
 10
187.9357552698544
 20
269.5179018584849
 30
0.0
 10
188.5880931533677
 20
270.0700130216342
 30
0.0
 10
188.8821707104409
 20
270.3790442375799
 30
0.0
 10
189.2730981061563
 20
270.8941550433877
 30
0.0
 10
189.3944040679812
 20
271.0737410740946
 30
0.0
 10
189.6148928074077
 20
271.4409173437241
 30
0.0
 10
189.7148557813161
 20
271.629504765186
 30
0.0
 10
189.894670545819
 20
272.0164577224758
 30
0.0
 10
189.9745223259971
 20
272.2148232989859
 30
0.0
 10
190.1136745119304
 20
272.6215462071067
 30
0.0
 10
190.1729955444205
 20
272.8304840913397
 30
0.0
 10
190.2682117878147
 20
273.2504862739776
 30
0.0
 10
190.3044863893592
 20
273.4624659453736
 30
0.0
 10
190.3415777198393
 20
273.7834607543056
 30
0.0
 10
190.3510485183231
 20
273.890984185799
 30
0.0
 10
190.3640514770553
 20
274.1069888234715
 30
0.0
 10
190.3675686097947
 20
274.216662997046
 30
0.0
 10
190.3680456144361
 20
274.3232900535192
 30
0.0
  0
SPLINE
  5
A0
330
1F
100
AcDbEntity
  8
0
  6
Continuous
 62
     8
370
    18
100
AcDbSpline
210
0.0
220
0.0
230
1.0
 70
     8
 71
     3
 72
    28
 73
    24
 74
     0
 42
0.00000001
 43
0.00000001
 40
0.0
 40
0.0
 40
0.0
 40
0.0
 40
0.062499999999997
 40
0.062499999999997
 40
0.1249999999999941
 40
0.1249999999999941
 40
0.1874999999999911
 40
0.1874999999999911
 40
0.2187499999999905
 40
0.2187499999999905
 40
0.2499999999999899
 40
0.2499999999999899
 40
0.3124999999999898
 40
0.3124999999999898
 40
0.3437499999999901
 40
0.3437499999999901
 40
0.3593749999999904
 40
0.3593749999999904
 40
0.3749999999999908
 40
0.3749999999999908
 40
0.4999999999999928
 40
0.4999999999999928
 40
1.0
 40
1.0
 40
1.0
 40
1.0
 10
189.0285600310376
 20
274.3616565886001
 30
0.0
 10
189.026607537115
 20
273.9721783295627
 30
0.0
 10
188.9744232902879
 20
273.5862684422614
 30
0.0
 10
188.7780949740948
 20
272.8346009904057
 30
0.0
 10
188.6352716898462
 20
272.4745089820582
 30
0.0
 10
188.2687545320579
 20
271.7986226474355
 30
0.0
 10
188.0405305417074
 20
271.4777930510385
 30
0.0
 10
187.648623153612
 20
271.0554899151327
 30
0.0
 10
187.5093658667367
 20
270.9234945947936
 30
0.0
 10
187.2141861240202
 20
270.676462501231
 30
0.0
 10
187.0571941392199
 20
270.5607687295177
 30
0.0
 10
186.5688323118084
 20
270.2450326498807
 30
0.0
 10
186.223221051633
 20
270.0766265987273
 30
0.0
 10
185.6745075048267
 20
269.8876841564736
 30
0.0
 10
185.4859510718618
 20
269.8355605427858
 30
0.0
 10
185.2030821173562
 20
269.7764045620401
 30
0.0
 10
185.1084723460777
 20
269.7597406509288
 30
0.0
 10
184.9186075797629
 20
269.7325739743932
 30
0.0
 10
184.8232537636459
 20
269.7230167926356
 30
0.0
 10
183.9653615949401
 20
269.6341674762552
 30
0.0
 10
183.2019750533743
 20
269.5626971830434
 30
0.0
 10
179.3809251102778
 20
269.2435123679973
 30
0.0
 10
176.312277608297
 20
269.1093566725579
 30
0.0
 10
173.2433596854726
 20
269.1093084107866
 30
0.0
  0
ARC
  5
A1
330
1F
100
AcDbEntity
  8
0
  6
Continuous
 62
     8
370
    18
100
AcDbCircle
 10
189.2899125728
 20
260.0844001275
 30
0.0
 40
14.27964835729838
100
AcDbArc
 50
85.6699695182
 51
91.0487116621
  0
SPLINE
  5
A2
330
1F
100
AcDbEntity
  8
0
  6
Continuous
 62
     8
370
    18
100
AcDbSpline
210
0.0
220
0.0
230
1.0
 70
     8
 71
     3
 72
    28
 73
    24
 74
     0
 42
0.00000001
 43
0.00000001
 40
0.0
 40
0.0
 40
0.0
 40
0.0
 40
0.0624999999999995
 40
0.0624999999999995
 40
0.1249999999999991
 40
0.1249999999999991
 40
0.1874999999999986
 40
0.1874999999999986
 40
0.2187499999999984
 40
0.2187499999999984
 40
0.2499999999999982
 40
0.2499999999999982
 40
0.3124999999999978
 40
0.3124999999999978
 40
0.3437499999999977
 40
0.3437499999999977
 40
0.3593749999999977
 40
0.3593749999999977
 40
0.3749999999999977
 40
0.3749999999999977
 40
0.4999999999999982
 40
0.4999999999999982
 40
1.0
 40
1.0
 40
1.0
 40
1.0
 10
157.4581593399074
 20
274.3616565885998
 30
0.0
 10
157.4601118338301
 20
273.9721783295624
 30
0.0
 10
157.5122960806571
 20
273.586268442261
 30
0.0
 10
157.7086243968508
 20
272.8346009904055
 30
0.0
 10
157.851447681099
 20
272.474508982058
 30
0.0
 10
158.2179648388872
 20
271.7986226474351
 30
0.0
 10
158.4461888292375
 20
271.477793051038
 30
0.0
 10
158.8380962173331
 20
271.0554899151324
 30
0.0
 10
158.9773535042085
 20
270.9234945947934
 30
0.0
 10
159.2725332469252
 20
270.676462501231
 30
0.0
 10
159.429525231725
 20
270.5607687295171
 30
0.0
 10
159.9178870591365
 20
270.24503264988
 30
0.0
 10
160.2634983193121
 20
270.0766265987272
 30
0.0
 10
160.8122118661185
 20
269.8876841564734
 30
0.0
 10
161.0007682990833
 20
269.8355605427857
 30
0.0
 10
161.2836372535889
 20
269.7764045620399
 30
0.0
 10
161.3782470248673
 20
269.7597406509274
 30
0.0
 10
161.5681117911822
 20
269.7325739743919
 30
0.0
 10
161.6634656072991
 20
269.7230167926348
 30
0.0
 10
162.521357776005
 20
269.6341674762544
 30
0.0
 10
163.2847443175708
 20
269.562697183042
 30
0.0
 10
167.1057942606673
 20
269.2435123679964
 30
0.0
 10
170.1744417626481
 20
269.1093566725579
 30
0.0
 10
173.2433596854726
 20
269.1093084107866
 30
0.0
  0
SPLINE
  5
A3
330
1F
100
AcDbEntity
  8
0
  6
Continuous
 62
     8
370
    25
100
AcDbSpline
210
0.0
220
0.0
230
1.0
 70
     8
 71
     3
 72
    34
 73
    30
 74
     0
 42
0.00000001
 43
0.00000001
 40
0.0
 40
0.0
 40
0.0
 40
0.0
 40
0.5000000000000014
 40
0.5000000000000014
 40
0.5625000000000016
 40
0.5625000000000016
 40
0.5937500000000016
 40
0.5937500000000016
 40
0.6250000000000017
 40
0.6250000000000017
 40
0.6875000000000013
 40
0.6875000000000013
 40
0.7500000000000009
 40
0.7500000000000009
 40
0.8125000000000006
 40
0.8125000000000006
 40
0.8437500000000006
 40
0.8437500000000006
 40
0.8750000000000006
 40
0.8750000000000006
 40
0.9062500000000006
 40
0.9062500000000006
 40
0.9375000000000004
 40
0.9375000000000004
 40
0.9687500000000004
 40
0.9687500000000004
 40
0.9843750000000003
 40
0.9843750000000003
 40
1.0
 40
1.0
 40
1.0
 40
1.0
 10
173.2433596854726
 20
267.8325459968901
 30
0.0
 10
169.8300902695455
 20
267.8325473593578
 30
0.0
 10
166.4162617683659
 20
267.973720958217
 30
0.0
 10
162.5922519603353
 20
268.2939680763763
 30
0.0
 10
162.167593872135
 20
268.3317839833547
 30
0.0
 10
161.5309558767294
 20
268.3918573240294
 30
0.0
 10
161.3188089089713
 20
268.412586403575
 30
0.0
 10
160.8976082414296
 20
268.4846640645189
 30
0.0
 10
160.6879442181239
 20
268.5323346341919
 30
0.0
 10
160.0639609842764
 20
268.7103110627701
 30
0.0
 10
159.667682068546
 20
268.8712135002698
 30
0.0
 10
158.9126054579183
 20
269.2733407416417
 30
0.0
 10
158.5509641010907
 20
269.5179018584845
 30
0.0
 10
157.8986262175774
 20
270.0700130216339
 30
0.0
 10
157.6045486605042
 20
270.3790442375795
 30
0.0
 10
157.2136212647888
 20
270.8941550433875
 30
0.0
 10
157.0923153029639
 20
271.0737410740943
 30
0.0
 10
156.8718265635374
 20
271.4409173437238
 30
0.0
 10
156.771863589629
 20
271.6295047651857
 30
0.0
 10
156.5920488251261
 20
272.0164577224755
 30
0.0
 10
156.512197044948
 20
272.2148232989856
 30
0.0
 10
156.3730448590147
 20
272.6215462071064
 30
0.0
 10
156.3137238265246
 20
272.8304840913394
 30
0.0
 10
156.2185075831304
 20
273.2504862739772
 30
0.0
 10
156.1822329815859
 20
273.4624659453733
 30
0.0
 10
156.1451416511057
 20
273.7834607543053
 30
0.0
 10
156.1356708526219
 20
273.8909841857987
 30
0.0
 10
156.1226678938897
 20
274.1069888234711
 30
0.0
 10
156.1191513117927
 20
274.2166630000116
 30
0.0
 10
156.1186737565089
 20
274.3232900535188
 30
0.0
  0
ARC
  5
A4
330
1F
100
AcDbEntity
  8
0
  6
Continuous
 62
     8
370
    18
100
AcDbCircle
 10
157.1968067982
 20
260.0844001275
 30
0.0
 40
14.27964835723435
100
AcDbArc
 50
88.9512883379
 51
94.3300304819
  0
SPLINE
  5
A5
330
1F
100
AcDbEntity
  8
0
  6
Continuous
 62
     8
370
    18
100
AcDbSpline
210
0.0
220
0.0
230
1.0
 70
     8
 71
     3
 72
    24
 73
    20
 74
     0
 42
0.00000001
 43
0.00000001
 40
0.0
 40
0.0
 40
0.0
 40
0.0
 40
0.125
 40
0.125
 40
0.2499999999999999
 40
0.2499999999999999
 40
0.3749999999999999
 40
0.3749999999999999
 40
0.4999999999999999
 40
0.4999999999999999
 40
0.7500000000000002
 40
0.7500000000000002
 40
0.8750000000000004
 40
0.8750000000000004
 40
0.9375000000000002
 40
0.9375000000000002
 40
0.9687500000000001
 40
0.9687500000000001
 40
1.0
 40
1.0
 40
1.0
 40
1.0
 10
157.3832180404536
 20
359.8541459089979
 30
0.0
 10
157.374032406591
 20
356.4069968072708
 30
0.0
 10
157.3664404801188
 20
352.9390233389135
 30
0.0
 10
157.3540766464814
 20
345.9601398909987
 30
0.0
 10
157.3492319578351
 20
342.4478661158677
 30
0.0
 10
157.3421445150938
 20
335.3896185442005
 30
0.0
 10
157.3400812792355
 20
331.8439708595626
 30
0.0
 10
157.340314051646
 20
324.732065257559
 30
0.0
 10
157.342210680116
 20
321.1664389708143
 30
0.0
 10
157.3517405834647
 20
310.4404474435573
 30
0.0
 10
157.3637921763784
 20
303.2495493102388
 30
0.0
 10
157.3919005454393
 20
292.4363771944186
 30
0.0
 10
157.4028955739099
 20
288.8260211021466
 30
0.0
 10
157.4221707361105
 20
283.4050959091544
 30
0.0
 10
157.4292833039752
 20
281.597336191855
 30
0.0
 10
157.4398568194188
 20
278.8845354939676
 30
0.0
 10
157.4433032926664
 20
277.9801330157403
 30
0.0
 10
157.450079478445
 20
276.1710761262971
 30
0.0
 10
157.4536095802502
 20
275.2664485423125
 30
0.0
 10
157.4581593400767
 20
274.3616565886008
 30
0.0
  0
LWPOLYLINE
  5
A6
330
1F
100
AcDbEntity
  8
0
  6
Continuous
 62
     8
370
    18
100
AcDbPolyline
 90
        9
 70
   128
 43
0.0
 10
157.3832180409
 20
359.854145909
 10
157.1188018561
 20
359.8435378912
 10
156.8661857067
 20
359.8177732365
 10
156.6345557079
 20
359.777788849
 10
156.4323348362
 20
359.7250387181
 10
156.2668766368
 20
359.6614410456
 10
156.1441978195
 20
359.5893084928
 10
156.0687594681
 20
359.5112640825
 10
156.0433048166
 20
359.430145816
  0
SPLINE
  5
A7
330
1F
100
AcDbEntity
  8
0
  6
Continuous
 62
     8
370
    18
100
AcDbSpline
210
0.0
220
0.0
230
1.0
 70
     8
 71
     3
 72
    24
 73
    20
 74
     0
 42
0.00000001
 43
0.00000001
 40
0.0
 40
0.0
 40
0.0
 40
0.0
 40
0.1249999999999998
 40
0.1249999999999998
 40
0.2499999999999996
 40
0.2499999999999996
 40
0.3749999999999993
 40
0.3749999999999993
 40
0.4999999999999993
 40
0.4999999999999993
 40
0.7499999999999993
 40
0.7499999999999993
 40
0.8749999999999993
 40
0.8749999999999993
 40
0.9374999999999997
 40
0.9374999999999997
 40
0.9687499999999998
 40
0.9687499999999998
 40
1.0
 40
1.0
 40
1.0
 40
1.0
 10
189.1035013304896
 20
359.8541459089982
 30
0.0
 10
189.1126869643524
 20
356.4069968072712
 30
0.0
 10
189.1202788908246
 20
352.9390233389138
 30
0.0
 10
189.1326427244621
 20
345.9601398909991
 30
0.0
 10
189.1374874131085
 20
342.4478661158681
 30
0.0
 10
189.14457485585
 20
335.3896185442008
 30
0.0
 10
189.1466380917083
 20
331.8439708595629
 30
0.0
 10
189.1464053192979
 20
324.7320652575594
 30
0.0
 10
189.144508690828
 20
321.1664389708146
 30
0.0
 10
189.1349787874798
 20
310.4404474435577
 30
0.0
 10
189.1229271945659
 20
303.2495493102392
 30
0.0
 10
189.0948188255054
 20
292.436377194419
 30
0.0
 10
189.0838237970348
 20
288.8260211021471
 30
0.0
 10
189.0645486348343
 20
283.4050959091548
 30
0.0
 10
189.0574360669697
 20
281.5973361918553
 30
0.0
 10
189.0468625515261
 20
278.884535493968
 30
0.0
 10
189.0434160782786
 20
277.9801330157407
 30
0.0
 10
189.0366398925001
 20
276.1710761262973
 30
0.0
 10
189.0331097906949
 20
275.2664485423128
 30
0.0
 10
189.0285600308683
 20
274.3616565886011
 30
0.0
  0
LWPOLYLINE
  5
A8
330
1F
100
AcDbEntity
  8
0
  6
Continuous
 62
     8
370
    18
100
AcDbPolyline
 90
        9
 70
   128
 43
0.0
 10
189.10350133
 20
359.854145909
 10
189.3679175148
 20
359.8435378912
 10
189.6205336643
 20
359.8177732365
 10
189.8521636631
 20
359.777788849
 10
190.0543845347
 20
359.7250387181
 10
190.2198427341
 20
359.6614410456
 10
190.3425215514
 20
359.5893084928
 10
190.4179599029
 20
359.5112640825
 10
190.4434145543
 20
359.430145816
  0
LINE
  5
A9
330
1F
100
AcDbEntity
  8
0
  6
Continuous
 62
     8
370
    18
100
AcDbLine
 10
157.3832271152
 20
359.8574409215
 30
0.0
 11
157.3832180409
 21
359.854145909
 31
0.0
  0
LINE
  5
AA
330
1F
100
AcDbEntity
  8
0
  6
Continuous
 62
     8
370
    18
100
AcDbLine
 10
189.1034922558
 20
359.8574409215
 30
0.0
 11
189.10350133
 21
359.854145909
 31
0.0
  0
LINE
  5
AB
330
1F
100
AcDbEntity
  8
0
  6
Continuous
 62
     8
370
    18
100
AcDbLine
 10
190.3680456144
 20
274.3232900544
 30
0.0
 11
190.3680456144
 21
274.3196411913
 31
0.0
  0
LINE
  5
AC
330
1F
100
AcDbEntity
  8
0
  6
Continuous
 62
     8
370
    18
100
AcDbLine
 10
156.1186737565
 20
274.3232900544
 30
0.0
 11
156.1186737565
 21
274.3196411913
 31
0.0
  0
LINE
  5
AD
330
1F
100
AcDbEntity
  8
0
  6
Continuous
 62
     8
370
    18
100
AcDbLine
 10
173.2433596855
 20
267.8325459969
 30
0.0
 11
173.2433596855
 21
267.8312699184
 31
0.0
  0
LWPOLYLINE
  5
AE
330
1F
100
AcDbEntity
  8
0
  6
Continuous
 62
     8
370
    18
100
AcDbPolyline
 90
        9
 70
   128
 43
0.0
 10
189.1034922558
 20
359.8574409215
 10
189.367908262
 20
359.8468825211
 10
189.620524242
 20
359.8211649558
 10
189.8521540894
 20
359.7812234167
 10
190.0543748355
 20
359.7285103347
 10
190.2198329421
 20
359.6649425641
 10
190.3425117043
 20
359.5928316777
 10
190.4179500418
 20
359.5147999101
 10
190.4434047212
 20
359.4336848018
  0
SPLINE
  5
AF
330
1F
100
AcDbEntity
  8
0
  6
Continuous
 62
     8
370
    18
100
AcDbSpline
210
0.0
220
0.0
230
1.0
 70
     8
 71
     3
 72
    38
 73
    34
 74
     0
 42
0.00000001
 43
0.00000001
 40
0.0
 40
0.0
 40
0.0
 40
0.0
 40
0.03125
 40
0.03125
 40
0.0625
 40
0.0625
 40
0.125
 40
0.125
 40
0.1875000000000001
 40
0.1875000000000001
 40
0.2500000000000003
 40
0.2500000000000003
 40
0.3125000000000005
 40
0.3125000000000005
 40
0.3750000000000006
 40
0.3750000000000006
 40
0.5000000000000013
 40
0.5000000000000013
 40
0.5625000000000017
 40
0.5625000000000017
 40
0.6250000000000019
 40
0.6250000000000019
 40
0.7500000000000016
 40
0.7500000000000016
 40
0.8125000000000014
 40
0.8125000000000014
 40
0.8750000000000013
 40
0.8750000000000013
 40
0.9375000000000011
 40
0.9375000000000011
 40
0.9687500000000006
 40
0.9687500000000006
 40
1.0
 40
1.0
 40
1.0
 40
1.0
 10
173.2433596854715
 20
374.8077385836719
 30
0.0
 10
173.5032431394296
 20
374.8077385837063
 30
0.0
 10
173.7656684818491
 20
374.8014469179196
 30
0.0
 10
174.2857205920463
 20
374.7765806400991
 30
0.0
 10
174.5450005487465
 20
374.7580057375719
 30
0.0
 10
175.3206361779359
 20
374.6841205336261
 30
0.0
 10
175.8347946082176
 20
374.6107074446314
 30
0.0
 10
176.8572583439467
 20
374.4155743253018
 30
0.0
 10
177.3634601745128
 20
374.2940245027657
 30
0.0
 10
178.3519160285781
 20
374.007669616493
 30
0.0
 10
178.8363048837073
 20
373.8424805035095
 30
0.0
 10
179.7855727528234
 20
373.4683850623554
 30
0.0
 10
180.2504589251463
 20
373.2594947004744
 30
0.0
 10
181.1608158718612
 20
372.7980350170015
 30
0.0
 10
181.6086206616644
 20
372.5439154855599
 30
0.0
 10
182.9022953259459
 20
371.7263369218152
 30
0.0
 10
183.6974812715466
 20
371.1109073904759
 30
0.0
 10
184.7904687117577
 20
370.0823528263999
 30
0.0
 10
185.1380140670624
 20
369.7217749065332
 30
0.0
 10
185.7991245096561
 20
368.9645700466594
 30
0.0
 10
186.1106383462003
 20
368.5698724796088
 30
0.0
 10
186.9741673947559
 20
367.3585659797758
 30
0.0
 10
187.4627941641719
 20
366.5076023495896
 30
0.0
 10
188.0629862572436
 20
365.1641563497334
 30
0.0
 10
188.2406901747825
 20
364.7050612449284
 30
0.0
 10
188.549714787146
 20
363.7634547886802
 30
0.0
 10
188.6802779514031
 20
363.2821922864245
 30
0.0
 10
188.888792878881
 20
362.3169517286489
 30
0.0
 10
188.9676137834594
 20
361.8304917667009
 30
0.0
 10
189.0475903016095
 20
361.0950034695875
 30
0.0
 10
189.06786071413
 20
360.8488723589422
 30
0.0
 10
189.0954550434573
 20
360.3546432515275
 30
0.0
 10
189.1027838561969
 20
360.1049007275989
 30
0.0
 10
189.1034922622374
 20
359.8574409213691
 30
0.0
  0
SPLINE
  5
B0
330
1F
100
AcDbEntity
  8
0
  6
Continuous
 62
     8
370
    18
100
AcDbSpline
210
0.0
220
0.0
230
1.0
 70
     8
 71
     3
 72
    38
 73
    34
 74
     0
 42
0.00000001
 43
0.00000001
 40
0.0
 40
0.0
 40
0.0
 40
0.0
 40
0.03125
 40
0.03125
 40
0.0625
 40
0.0625
 40
0.125
 40
0.125
 40
0.1875
 40
0.1875
 40
0.2499999999999999
 40
0.2499999999999999
 40
0.3124999999999999
 40
0.3124999999999999
 40
0.3749999999999998
 40
0.3749999999999998
 40
0.4999999999999995
 40
0.4999999999999995
 40
0.5624999999999994
 40
0.5624999999999994
 40
0.6249999999999994
 40
0.6249999999999994
 40
0.7499999999999998
 40
0.7499999999999998
 40
0.8125
 40
0.8125
 40
0.8750000000000003
 40
0.8750000000000003
 40
0.9375000000000007
 40
0.9375000000000007
 40
0.9687500000000003
 40
0.9687500000000003
 40
1.0
 40
1.0
 40
1.0
 40
1.0
 10
173.2433596854715
 20
374.8077385836719
 30
0.0
 10
172.9834762315144
 20
374.8077381129575
 30
0.0
 10
172.7210508890939
 20
374.8014469179196
 30
0.0
 10
172.2009987788967
 20
374.7765806400991
 30
0.0
 10
171.9417188221964
 20
374.7580057375719
 30
0.0
 10
171.166083193007
 20
374.684120533626
 30
0.0
 10
170.6519247627253
 20
374.6107074446315
 30
0.0
 10
169.6294610269963
 20
374.4155743253018
 30
0.0
 10
169.1232591964302
 20
374.2940245027656
 30
0.0
 10
168.1348033423648
 20
374.0076696164929
 30
0.0
 10
167.6504144872357
 20
373.8424805035093
 30
0.0
 10
166.7011466181196
 20
373.4683850623552
 30
0.0
 10
166.2362604457967
 20
373.2594947004743
 30
0.0
 10
165.3259034990818
 20
372.7980350170013
 30
0.0
 10
164.8780987092786
 20
372.5439154855596
 30
0.0
 10
163.5844240449971
 20
371.726336921815
 30
0.0
 10
162.7892380993964
 20
371.1109073904757
 30
0.0
 10
161.6962506591853
 20
370.0823528263997
 30
0.0
 10
161.3487053038808
 20
369.721774906533
 30
0.0
 10
160.687594861287
 20
368.9645700466592
 30
0.0
 10
160.3760810247428
 20
368.5698724796085
 30
0.0
 10
159.5125519761873
 20
367.3585659797756
 30
0.0
 10
159.0239252067712
 20
366.5076023495894
 30
0.0
 10
158.4237331136995
 20
365.1641563497332
 30
0.0
 10
158.2460291961606
 20
364.7050612449281
 30
0.0
 10
157.9370045837971
 20
363.7634547886798
 30
0.0
 10
157.8064414195401
 20
363.2821922864242
 30
0.0
 10
157.5979264920622
 20
362.3169517286486
 30
0.0
 10
157.5191055874839
 20
361.8304917667006
 30
0.0
 10
157.4391290693338
 20
361.0950034695872
 30
0.0
 10
157.4188586568133
 20
360.8488723589419
 30
0.0
 10
157.391264327486
 20
360.3546432515272
 30
0.0
 10
157.3839360151741
 20
360.1049007418251
 30
0.0
 10
157.3832271087059
 20
359.8574409213688
 30
0.0
  0
LWPOLYLINE
  5
B1
330
1F
100
AcDbEntity
  8
0
  6
Continuous
 62
     8
370
    18
100
AcDbPolyline
 90
        9
 70
   128
 43
0.0
 10
157.3832271152
 20
359.8574409215
 10
157.1188111089
 20
359.8468825211
 10
156.8661951289
 20
359.8211649558
 10
156.6345652816
 20
359.7812234167
 10
156.4323445354
 20
359.7285103347
 10
156.2668864288
 20
359.6649425641
 10
156.1442076666
 20
359.5928316777
 10
156.0687693291
 20
359.5147999101
 10
156.0433146498
 20
359.4336848018
  0
CIRCLE
  5
B2
330
1F
100
AcDbEntity
  8
0
  6
Continuous
 62
     8
370
    18
100
AcDbCircle
 10
173.2433596818
 20
427.8233124972
 30
0.0
 40
10.77434613606391
  0
CIRCLE
  5
B3
330
1F
100
AcDbEntity
  8
0
  6
Continuous
 62
     8
370
    18
100
AcDbCircle
 10
173.2433596818
 20
427.8233124972
 30
0.0
 40
11.25844862367722
  0
ARC
  5
B4
330
1F
100
AcDbEntity
  8
0
  6
Continuous
 62
     8
370
    18
100
AcDbCircle
 10
173.2433596838
 20
389.9233124972
 30
0.0
 40
73.3527529442751
100
AcDbArc
 50
283.5933248745
 51
256.3829830538
  0
ARC
  5
B5
330
1F
100
AcDbEntity
  8
0
  6
Continuous
 62
     8
370
    18
100
AcDbCircle
 10
173.2433596838
 20
389.9233124972
 30
0.0
 40
74.34193130454274
100
AcDbArc
 50
283.4094700774
 51
256.5861054103
  0
LINE
  5
B6
330
1F
100
AcDbEntity
  8
0
  6
Continuous
 62
     7
370
    25
100
AcDbLine
 10
323.2746324475
 20
315.4233124972
 30
0.0
 11
329.3110323901
 21
315.5813811927
 31
0.0
  0
LINE
  5
B7
330
1F
100
AcDbEntity
  8
0
  6
Continuous
 62
     7
370
    25
100
AcDbLine
 10
329.3110323901
 20
464.2652438018
 30
0.0
 11
323.2746324475
 21
464.4233124972
 31
0.0
  0
ARC
  5
B8
330
1F
100
AcDbEntity
  8
0
  6
Continuous
 62
     7
370
    25
100
AcDbCircle
 10
329.2848554418
 20
463.2655864768
 30
0.0
 40
0.999999999999589
100
AcDbArc
 50
0.6004114401
 51
88.5
  0
ARC
  5
B9
330
1F
100
AcDbEntity
  8
0
  6
Continuous
 62
     7
370
    25
100
AcDbCircle
 10
329.2848554418
 20
316.5810385177
 30
0.0
 40
0.999999999999589
100
AcDbArc
 50
271.5
 51
359.3995885599
  0
ARC
  5
BA
330
1F
100
AcDbEntity
  8
0
  6
Continuous
 62
     7
370
    25
100
AcDbCircle
 10
-6669.3308584582
 20
389.9233124972
 30
0.0
 40
7000.000000000001
100
AcDbArc
 50
0.4032640191
 51
0.6004114401
  0
ARC
  5
BB
330
1F
100
AcDbEntity
  8
0
  6
Continuous
 62
     7
370
    25
100
AcDbCircle
 10
-6669.3308584582
 20
389.9233124972
 30
0.0
 40
7000.000000000002
100
AcDbArc
 50
359.9534993537
 51
0.2169108612
  0
ARC
  5
BC
330
1F
100
AcDbEntity
  8
0
  6
Continuous
 62
     7
370
    25
100
AcDbCircle
 10
-6669.3308584582
 20
389.9233124972
 30
0.0
 40
7000.000000000002
100
AcDbArc
 50
359.3995885599
 51
359.5531780385
  0
LINE
  5
BD
330
1F
100
AcDbEntity
  8
0
  6
Continuous
 62
     7
370
    25
100
AcDbLine
 10
355.2746324475
 20
384.3233124957
 30
0.0
 11
330.6665524748
 21
384.3233124957
 31
0.0
  0
LINE
  5
BE
330
1F
100
AcDbEntity
  8
0
  6
Continuous
 62
     7
370
    25
100
AcDbLine
 10
330.4562454051
 20
335.3233124957
 30
0.0
 11
355.2746324475
 21
335.3233124957
 31
0.0
  0
ARC
  5
BF
330
1F
100
AcDbEntity
  8
0
  6
Continuous
 62
     7
370
    25
100
AcDbCircle
 10
355.2746324475
 20
359.8233124957
 30
0.0
 40
24.5
100
AcDbArc
 50
52.4340299723
 51
90.0
  0
ARC
  5
C0
330
1F
100
AcDbEntity
  8
0
  6
Continuous
 62
     7
370
    25
100
AcDbCircle
 10
355.2746324475
 20
359.8233124957
 30
0.0
 40
24.5
100
AcDbArc
 50
270.0
 51
281.2976555187
  0
ARC
  5
C1
330
1F
100
AcDbEntity
  8
0
  6
Continuous
 62
     7
370
    25
100
AcDbCircle
 10
370.758256593
 20
380.7056687814
 30
0.0
 40
0.2000000000000391
100
AcDbArc
 50
52.504838849
 51
166.8658427455
  0
ARC
  5
C2
330
1F
100
AcDbEntity
  8
0
  6
Continuous
 62
     7
370
    25
100
AcDbCircle
 10
359.870044584
 20
334.0423996969
 30
0.0
 40
0.1999999999999716
100
AcDbArc
 50
166.8658427455
 51
281.226846642
  0
ARC
  5
C3
330
1F
100
AcDbEntity
  8
0
  6
Continuous
 62
     7
370
    25
100
AcDbCircle
 10
354.749593213
 20
359.8391238641
 30
0.0
 40
26.49999999999998
100
AcDbArc
 50
16.8977163748
 51
52.504838849
  0
ARC
  5
C4
330
1F
100
AcDbEntity
  8
0
  6
Continuous
 62
     7
370
    25
100
AcDbCircle
 10
354.749593213
 20
359.8391238641
 30
0.0
 40
26.49999999999994
100
AcDbArc
 50
281.226846642
 51
329.8269623825
  0
SPLINE
  5
C5
330
1F
100
AcDbEntity
  8
0
  6
Continuous
 62
     7
370
    25
100
AcDbSpline
210
0.0
220
0.0
230
1.0
 70
     8
 71
     3
 72
    26
 73
    22
 74
     0
 42
0.00000001
 43
0.00000001
 40
0.0
 40
0.0
 40
0.0
 40
0.0
 40
0.0110023984114772
 40
0.0295853788918315
 40
0.0603139295494527
 40
0.1136358579788526
 40
0.2005413108088208
 40
0.2696610473440619
 40
0.3307681340917931
 40
0.3793612561297962
 40
0.4213252329617875
 40
0.4578367831992841
 40
0.4943345590396799
 40
0.5314987036816984
 40
0.5857454816070649
 40
0.6413511124769434
 40
0.6983572578707217
 40
0.7610128588565087
 40
0.8321700501400741
 40
0.9118314359059912
 40
1.0
 40
1.0
 40
1.0
 40
1.0
 10
408.8770939591565
 20
269.1309138502935
 30
0.0
 10
408.9051067053649
 20
269.4622248904801
 30
0.0
 10
408.9804328005836
 20
270.3531181565103
 30
0.0
 10
409.0681455416929
 20
272.2073880594198
 30
0.0
 10
409.0503943068147
 20
275.3617247397038
 30
0.0
 10
408.8285163795204
 20
280.6144184349757
 30
0.0
 10
408.5164088042519
 20
287.042852064464
 30
0.0
 10
408.0151668621505
 20
293.7002912342058
 30
0.0
 10
407.5084345449625
 20
299.1747191579974
 30
0.0
 10
407.0066918265215
 20
303.810580443871
 30
0.0
 10
406.5379726442986
 20
307.6890513296412
 30
0.0
 10
406.0759270659602
 20
311.193530560936
 30
0.0
 10
405.5995599226666
 20
314.5471049690127
 30
0.0
 10
405.0073210997722
 20
318.434750938753
 30
0.0
 10
404.2709037593692
 20
322.8944152485821
 30
0.0
 10
403.3599797831844
 20
327.9430087311198
 30
0.0
 10
402.3180273057854
 20
333.2299799111451
 30
0.0
 10
401.0778376752755
 20
338.9644273857736
 30
0.0
 10
399.5383410885293
 20
345.3448944296991
 30
0.0
 10
397.6340453785672
 20
352.4429622255395
 30
0.0
 10
396.1031123693563
 20
357.3708497563931
 30
0.0
 10
395.298844923296
 20
359.9596890426753
 30
0.0
  0
LINE
  5
C6
330
1F
100
AcDbEntity
  8
0
  6
Continuous
 62
     7
370
    25
100
AcDbLine
 10
330.6190353166
 20
416.4203206924
 30
0.0
 11
338.8999086213
 21
416.5648638736
 31
0.0
  0
LINE
  5
C7
330
1F
100
AcDbEntity
  8
0
  6
Continuous
 62
     7
370
    25
100
AcDbLine
 10
338.8999086213
 20
439.0817611209
 30
0.0
 11
330.4963531162
 21
439.2284457279
 31
0.0
  0
ARC
  5
C8
330
1F
100
AcDbEntity
  8
0
  6
Continuous
 62
     7
370
    25
100
AcDbCircle
 10
338.8911824181
 20
417.0647877211
 30
0.0
 40
0.5000000000000268
100
AcDbArc
 50
271.0
 51
358.1867030124
  0
ARC
  5
C9
330
1F
100
AcDbEntity
  8
0
  6
Continuous
 62
     7
370
    25
100
AcDbCircle
 10
338.8911824181
 20
438.5818372733
 30
0.0
 40
0.500000000000025
100
AcDbArc
 50
1.8132969876
 51
89.0
  0
ARC
  5
CA
330
1F
100
AcDbEntity
  8
0
  6
Continuous
 62
     7
370
    25
100
AcDbCircle
 10
-0.9385604601
 20
427.8233124972
 30
0.0
 40
340.4999999999999
100
AcDbArc
 50
0.0001379636
 51
1.8132969877
  0
ARC
  5
CB
330
1F
100
AcDbEntity
  8
0
  6
Continuous
 62
     7
370
    25
100
AcDbCircle
 10
-0.9385604601
 20
427.8233124972
 30
0.0
 40
340.4999999999999
100
AcDbArc
 50
358.1867030123
 51
0.0001379636
  0
ARC
  5
CC
330
1F
100
AcDbEntity
  8
0
  6
Continuous
 62
     7
370
    25
100
AcDbCircle
 10
378.9556360449
 20
345.7654786213
 30
0.0
 40
1.500000000000048
100
AcDbArc
 50
88.9520491326
 51
149.7902001866
  0
LINE
  5
CD
330
1F
100
AcDbEntity
  8
0
  6
Continuous
 62
     7
370
    25
100
AcDbLine
 10
378.982071431
 20
347.265245682
 30
0.0
 11
381.057141211
 21
347.2290252043
 31
0.0
  0
LINE
  5
CE
330
1F
100
AcDbEntity
  8
0
  6
Continuous
 62
     7
370
    25
100
AcDbLine
 10
323.2746324475
 20
464.4233124972
 30
0.0
 11
323.2746324475
 21
315.4233124972
 31
0.0
  0
SPLINE
  5
CF
330
1F
100
AcDbEntity
  8
0
  6
Continuous
 62
     7
370
    25
100
AcDbSpline
210
0.0
220
0.0
230
1.0
 70
     8
 71
     3
 72
    21
 73
    17
 74
     0
 42
0.00000001
 43
0.00000001
 40
0.0
 40
0.0
 40
0.0
 40
0.0
 40
0.0705703759386721
 40
0.1431873093505127
 40
0.2137576812195296
 40
0.2863745783507548
 40
0.356945306008939
 40
0.4295625802004659
 40
0.5001334514256492
 40
0.57275089715169
 40
0.6433214933674554
 40
0.715938673578704
 40
0.7865086967279297
 40
0.8591252907319135
 40
0.9296946939175729
 40
1.0
 40
1.0
 40
1.0
 40
1.0
 10
330.6360436940996
 20
377.1470870337098
 30
0.0
 10
330.6317160828901
 20
376.1406710737259
 30
0.0
 10
330.6229353587299
 20
374.0986528545972
 30
0.0
 10
330.6075298213877
 20
370.5159973089511
 30
0.0
 10
330.5908251791288
 20
366.6312353726886
 30
0.0
 10
330.5734040025974
 20
362.5798492303002
 30
0.0
 10
330.5554970653063
 20
358.4155074750586
 30
0.0
 10
330.5379198238373
 20
354.3278484817175
 30
0.0
 10
330.5208570436584
 20
350.3598394595962
 30
0.0
 10
330.5050982435145
 20
346.6950842246994
 30
0.0
 10
330.4908046052045
 20
343.3710638673303
 30
0.0
 10
330.4786436404848
 20
340.5430073459915
 30
0.0
 10
330.4687194129766
 20
338.235112181421
 30
0.0
 10
330.4615707439265
 20
336.5726796687369
 30
0.0
 10
330.4570240085338
 20
335.51533119869
 30
0.0
 10
330.4565048164002
 20
335.3945925296131
 30
0.0
 10
330.4562457069968
 20
335.33433636916
 30
0.0
  0
SPLINE
  5
D0
330
1F
100
AcDbEntity
  8
0
  6
Continuous
 62
     7
370
    25
100
AcDbSpline
210
0.0
220
0.0
230
1.0
 70
     8
 71
     3
 72
    13
 73
     9
 74
     0
 42
0.00000001
 43
0.00000001
 40
0.0
 40
0.0
 40
0.0
 40
0.0
 40
0.0845918974461097
 40
0.3023784408591625
 40
0.5140267417951768
 40
0.7318128123194731
 40
0.8651620769379358
 40
1.0
 40
1.0
 40
1.0
 40
1.0
 10
330.6665523770282
 20
384.242111490709
 30
0.0
 10
330.6666392689274
 20
384.2623189018233
 30
0.0
 10
330.6669498688522
 20
384.3345514164145
 30
0.0
 10
330.6643547640568
 20
383.731038881482
 30
0.0
 10
330.6588610408187
 20
382.4534300213313
 30
0.0
 10
330.651474327053
 20
380.7355929978647
 30
0.0
 10
330.6436607137465
 20
378.9184791724159
 30
0.0
 10
330.6385920790061
 20
377.7397320837205
 30
0.0
 10
330.6360436940996
 20
377.1470870337098
 30
0.0
  0
SPLINE
  5
D1
330
1F
100
AcDbEntity
  8
0
  6
Continuous
 62
     7
370
    25
100
AcDbSpline
210
0.0
220
0.0
230
1.0
 70
     8
 71
     3
 72
    21
 73
    17
 74
     0
 42
0.00000001
 43
0.00000001
 40
0.0
 40
0.0
 40
0.0
 40
0.0
 40
0.0705214070978129
 40
0.1430879578472509
 40
0.2136093584847657
 40
0.286175851604405
 40
0.3566978284220695
 40
0.4292649323485792
 40
0.4997871398773771
 40
0.5723545189426165
 40
0.6428762935336999
 40
0.7154432548769357
 40
0.7859641226296985
 40
0.8585301564688829
 40
0.929050040930808
 40
1.0
 40
1.0
 40
1.0
 40
1.0
 10
330.5135117756129
 20
435.9013108363436
 30
0.0
 10
330.5160445097527
 20
435.4335470976668
 30
0.0
 10
330.5211834281428
 20
434.4844543203571
 30
0.0
 10
330.5302043471996
 20
432.8184030479543
 30
0.0
 10
330.5399890342346
 20
431.0112909795656
 30
0.0
 10
330.5501965072453
 20
429.1260927796166
 30
0.0
 10
330.5606914911048
 20
427.1877918702288
 30
0.0
 10
330.5709960787585
 20
425.2846520604309
 30
0.0
 10
330.5810019396798
 20
423.4366809644366
 30
0.0
 10
330.5902460917798
 20
421.7293866329892
 30
0.0
 10
330.5986339676253
 20
420.1802352439541
 30
0.0
 10
330.6057739307732
 20
418.8615585672744
 30
0.0
 10
330.6116045944642
 20
417.7846948298744
 30
0.0
 10
330.6158105728204
 20
417.0078932364236
 30
0.0
 10
330.6184980644482
 20
416.5115405095073
 30
0.0
 10
330.618813936427
 20
416.453202111183
 30
0.0
 10
330.6189723525489
 20
416.4239442363601
 30
0.0
  0
SPLINE
  5
D2
330
1F
100
AcDbEntity
  8
0
  6
Continuous
 62
     7
370
    25
100
AcDbSpline
210
0.0
220
0.0
230
1.0
 70
     8
 71
     3
 72
    12
 73
     8
 74
     0
 42
0.00000001
 43
0.00000001
 40
0.0
 40
0.0
 40
0.0
 40
0.0
 40
0.0827248759445706
 40
0.3010450715783261
 40
0.5132117296589311
 40
0.7315311633968354
 40
1.0
 40
1.0
 40
1.0
 40
1.0
 10
330.4956995941577
 20
439.1909887650445
 30
0.0
 10
330.4956483064684
 20
439.2004609209862
 30
0.0
 10
330.4954616648332
 20
439.2349311553733
 30
0.0
 10
330.4969611625976
 20
438.9579938141944
 30
0.0
 10
330.5001900202587
 20
438.3616663819554
 30
0.0
 10
330.505429755291
 20
437.3939560386688
 30
0.0
 10
330.5106388856086
 20
436.4318966689627
 30
0.0
 10
330.5135117756129
 20
435.9013108363436
 30
0.0
  0
LINE
  5
D3
330
1F
100
AcDbEntity
  8
0
  6
Continuous
 62
     7
370
    25
100
AcDbLine
 10
370.5634884581
 20
380.7511151633
 30
0.0
 11
359.6752764491
 21
334.0878460788
 31
0.0
  0
ARC
  5
D4
330
1F
100
AcDbEntity
  8
0
  6
Continuous
 62
     7
370
    25
100
AcDbCircle
 10
388.3825725364
 20
374.2423325767
 30
0.0
 40
1.400000000000031
100
AcDbArc
 50
23.8197983656
 51
111.671664185
  0
SPLINE
  5
D5
330
1F
100
AcDbEntity
  8
0
  6
Continuous
 62
     7
370
    25
100
AcDbSpline
210
0.0
220
0.0
230
1.0
 70
     8
 71
     3
 72
    12
 73
     8
 74
     0
 42
0.00000001
 43
0.00000001
 40
0.0
 40
0.0
 40
0.0
 40
0.0
 40
0.2500000000000034
 40
0.2500000000000034
 40
0.5000000000000068
 40
0.5000000000000068
 40
1.0
 40
1.0
 40
1.0
 40
1.0
 10
408.8805612879327
 20
269.1093084107865
 30
0.0
 10
408.8652559719413
 20
268.9360851750454
 30
0.0
 10
408.8184769611187
 20
268.7694562116403
 30
0.0
 10
408.6656230120479
 20
268.4589503496092
 30
0.0
 10
408.5611082651214
 20
268.3193762417588
 30
0.0
 10
408.1806782116886
 20
267.9690907756211
 30
0.0
 10
407.8411159855891
 20
267.8343670450005
 30
0.0
 10
407.4933245938664
 20
267.8325459968901
 30
0.0
  0
SPLINE
  5
D6
330
1F
100
AcDbEntity
  8
0
  6
Continuous
 62
     7
370
    25
100
AcDbSpline
210
0.0
220
0.0
230
1.0
 70
     8
 71
     3
 72
    36
 73
    32
 74
     0
 42
0.00000001
 43
0.00000001
 40
0.3263893148542756
 40
0.3263893148542756
 40
0.3263893148542756
 40
0.3263893148542756
 40
0.3353815197775997
 40
0.3747975427885294
 40
0.375
 40
0.4057753401473175
 40
0.4326064602317594
 40
0.4536904548572391
 40
0.4769531624837474
 40
0.4952294468297677
 40
0.5
 40
0.5144770574504495
 40
0.5295967956749399
 40
0.546882330785724
 40
0.560460179085403
 40
0.6073137108659041
 40
0.625
 40
0.6440958459039247
 40
0.6576721119780163
 40
0.6683364856813307
 40
0.720820618962955
 40
0.75
 40
0.7620717860475947
 40
0.7962145523251454
 40
0.8231075609306195
 40
0.875
 40
0.8904516613162841
 40
0.9441411256153615
 40
0.9751799444406782
 40
0.987531234415655
 40
1.0
 40
1.0
 40
1.0
 40
1.0
 10
391.4958341899725
 20
330.0934765120017
 30
0.0
 10
391.5317944320911
 20
329.8431529007239
 30
0.0
 10
391.720102170844
 20
328.4935469673335
 30
0.0
 10
391.8828992493335
 20
327.129559571945
 30
0.0
 10
392.0991135742674
 20
325.1554801851083
 30
0.0
 10
392.2641684378411
 20
323.5350872839508
 30
0.0
 10
392.4611425544844
 20
321.330873559487
 30
0.0
 10
392.6210629806965
 20
319.3379309888572
 30
0.0
 10
392.7485622297279
 20
317.585013019982
 30
0.0
 10
392.8349719424065
 20
316.2889349900667
 30
0.0
 10
392.9018955859522
 20
315.2387835860112
 30
0.0
 10
392.9609132971873
 20
314.2769927126714
 30
0.0
 10
393.03768192158
 20
312.9649716906579
 30
0.0
 10
393.1101210367354
 20
311.678086542313
 30
0.0
 10
393.2300872066028
 20
309.5029808061253
 30
0.0
 10
393.3491214625021
 20
307.3163175005199
 30
0.0
 10
393.4878113746814
 20
304.9743704522994
 30
0.0
 10
393.5768650212373
 20
303.5639067632818
 30
0.0
 10
393.6601801539092
 20
302.3504012131823
 30
0.0
 10
393.8187363088005
 20
300.2028410057295
 30
0.0
 10
394.049791864061
 20
297.6225588603335
 30
0.0
 10
394.3734689065673
 20
295.0162997356751
 30
0.0
 10
394.6782001038386
 20
292.9272646461996
 30
0.0
 10
395.0231915847103
 20
290.9087543214189
 30
0.0
 10
395.6644671713708
 20
287.8013555188692
 30
0.0
 10
396.3226037139048
 20
285.2162008428961
 30
0.0
 10
397.3161907221498
 20
281.8973455751909
 30
0.0
 10
398.2786181837404
 20
279.1634344226508
 30
0.0
 10
399.4353198617214
 20
276.5789580313854
 30
0.0
 10
400.1767408002763
 20
275.119360390304
 30
0.0
 10
400.5264575438773
 20
274.4786459082619
 30
0.0
 10
400.707514582571
 20
274.1589661320381
 30
0.0
  0
SPLINE
  5
D7
330
1F
100
AcDbEntity
  8
0
  6
Continuous
 62
     7
370
    25
100
AcDbSpline
210
0.0
220
0.0
230
1.0
 70
     8
 71
     3
 72
    15
 73
    11
 74
     0
 42
0.00000001
 43
0.00000001
 40
0.0622547575187157
 40
0.0622547575187157
 40
0.0622547575187157
 40
0.0622547575187157
 40
0.0687156676530896
 40
0.0687156676530896
 40
0.1167394990828607
 40
0.1407514147977463
 40
0.1647633305126318
 40
0.1887752462275173
 40
0.2127871619424028
 40
0.2608110001131807
 40
0.2608110001131807
 40
0.2608110001131807
 40
0.2608110001131807
 10
387.8655704472347
 20
375.5433740210633
 30
0.0
 10
387.817734919316
 20
375.5243653507577
 30
0.0
 10
387.7689926794806
 20
375.504996375285
 30
0.0
 10
387.34873164819
 20
375.3379949072618
 30
0.0
 10
386.7794184729476
 20
375.0270457361717
 30
0.0
 10
386.1256811283984
 20
374.4012032968866
 30
0.0
 10
385.7198131109998
 20
373.8620362270537
 30
0.0
 10
385.3996583044894
 20
373.2892248413243
 30
0.0
 10
385.072692274937
 20
372.5289851145116
 30
0.0
 10
384.9087154778755
 20
371.9966974737951
 30
0.0
 10
384.8159819119273
 20
371.666915300763
 30
0.0
  0
SPLINE
  5
D8
330
1F
100
AcDbEntity
  8
0
  6
Continuous
 62
     7
370
    25
100
AcDbSpline
210
0.0
220
0.0
230
1.0
 70
     8
 71
     3
 72
    18
 73
    14
 74
     0
 42
0.00000001
 43
0.00000001
 40
0.0
 40
0.0
 40
0.0
 40
0.0
 40
0.013671875
 40
0.0341796875
 40
0.068359375
 40
0.247802734375
 40
0.546875
 40
0.669921875
 40
0.875
 40
0.93359375
 40
0.96875
 40
0.984375
 40
1.0
 40
1.0
 40
1.0
 40
1.0
 10
407.2496137745925
 20
267.8312699183629
 30
0.0
 10
407.2128619971023
 20
267.8310774847474
 30
0.0
 10
407.1211250252894
 20
267.8323530274272
 30
0.0
 10
407.0486204585667
 20
267.8383820974661
 30
0.0
 10
406.631722483051
 20
267.8877654167002
 30
0.0
 10
405.641665684625
 20
268.2321569189592
 30
0.0
 10
404.3222570304411
 20
269.2484083034974
 30
0.0
 10
402.8688608124432
 20
270.8622238026793
 30
0.0
 10
401.9488052102728
 20
272.1210951819901
 30
0.0
 10
401.2367675616032
 20
273.2555617192772
 30
0.0
 10
400.9765328784608
 20
273.6919614662004
 30
0.0
 10
400.8187433149214
 20
273.9635130816238
 30
0.0
 10
400.7304946151668
 20
274.1183918919816
 30
0.0
 10
400.707514582571
 20
274.1589661320381
 30
0.0
  0
LINE
  5
D9
330
1F
100
AcDbEntity
  8
0
  6
Continuous
 62
     7
370
    25
100
AcDbLine
 10
407.4933245939
 20
267.8325459969
 30
0.0
 11
407.2496137746
 21
267.8312699184
 31
0.0
  0
SPLINE
  5
DA
330
1F
100
AcDbEntity
  8
0
  6
Continuous
 62
     7
370
    25
100
AcDbSpline
210
0.0
220
0.0
230
1.0
 70
     8
 71
     3
 72
     9
 73
     5
 74
     0
 42
0.00000001
 43
0.00000001
 40
0.0781920662502744
 40
0.0781920662502744
 40
0.0781920662502744
 40
0.0781920662502744
 40
0.5
 40
1.0
 40
1.0
 40
1.0
 40
1.0
 10
389.6633207736664
 20
374.8077385836719
 30
0.0
 10
390.6426065713522
 20
372.5894767614892
 30
0.0
 10
392.664195254818
 20
367.6944270769277
 30
0.0
 10
394.425546903798
 20
362.6991724363483
 30
0.0
 10
395.3039308423673
 20
359.9613207562037
 30
0.0
  0
SPLINE
  5
DB
330
1F
100
AcDbEntity
  8
0
  6
Continuous
 62
     7
370
    25
100
AcDbSpline
210
0.0
220
0.0
230
1.0
 70
     8
 71
     3
 72
    18
 73
    14
 74
     0
 42
0.00000001
 43
0.00000001
 40
0.0
 40
0.0
 40
0.0
 40
0.0
 40
0.0199174357360835
 40
0.0394517236453339
 40
0.104533328163755
 40
0.164030511984539
 40
0.2204476473955299
 40
0.3418374828892341
 40
0.4623418677948806
 40
0.6261899530213834
 40
0.7927564362738566
 40
0.9623681568417125
 40
1.0
 40
1.0
 40
1.0
 40
1.0
 10
381.0496502622864
 20
347.2291922182434
 30
0.0
 10
381.193741683475
 20
347.2267445214554
 30
0.0
 10
381.4791526672844
 20
347.2218962137451
 30
0.0
 10
382.2341771575693
 20
347.1739174560381
 30
0.0
 10
383.2618271103119
 20
346.9337662835147
 30
0.0
 10
384.4422439147325
 20
346.3467969923345
 30
0.0
 10
385.8195556675689
 20
345.3096495544786
 30
0.0
 10
387.2246933680421
 20
343.6379525305647
 30
0.0
 10
388.6616522968669
 20
341.0687473745103
 30
0.0
 10
389.8302388414472
 20
338.0110358828572
 30
0.0
 10
390.7532288174825
 20
334.5091249819597
 30
0.0
 10
391.2393978096263
 20
331.846387825611
 30
0.0
 10
391.4564255738297
 20
330.3628594922474
 30
0.0
 10
391.4958340584005
 20
330.0934764312816
 30
0.0
  0
SPLINE
  5
DC
330
1F
100
AcDbEntity
  8
0
  6
Continuous
 62
     7
370
    25
100
AcDbSpline
210
0.0
220
0.0
230
1.0
 70
     8
 71
     3
 72
     9
 73
     5
 74
     0
 42
0.00000001
 43
0.00000001
 40
0.0
 40
0.0
 40
0.0
 40
0.0
 40
0.05
 40
0.8947959768602173
 40
0.8947959768602173
 40
0.8947959768602173
 40
0.8947959768602173
 10
384.8159818728757
 20
371.6669151618867
 30
0.0
 10
384.7687588754084
 20
371.4989791775688
 30
0.0
 10
383.9827941081779
 20
368.5465778261291
 30
0.0
 10
383.5706421812487
 20
366.7968074372746
 30
0.0
 10
381.7849490768635
 20
366.5009505797873
 30
0.0
  0
SPLINE
  5
DD
330
1F
100
AcDbEntity
  8
0
  6
Continuous
 62
     7
370
    25
100
AcDbSpline
210
0.0
220
0.0
230
1.0
 70
     8
 71
     3
 72
    14
 73
    10
 74
     0
 42
0.00000001
 43
0.00000001
 40
0.0
 40
0.0
 40
0.0
 40
0.0
 40
0.25
 40
0.25
 40
0.5
 40
0.5
 40
0.75
 40
0.75
 40
1.0
 40
1.0
 40
1.0
 40
1.0
 10
380.1045842228466
 20
367.5446044392939
 30
0.0
 10
380.156923983627
 20
367.3723874009163
 30
0.0
 10
380.2405779828001
 20
367.2097396387792
 30
0.0
 10
380.4598801555435
 20
366.9242588510585
 30
0.0
 10
380.5954673226366
 20
366.8015052418208
 30
0.0
 10
380.9012776436766
 20
366.6115763336999
 30
0.0
 10
381.0714157259155
 20
366.5444538701055
 30
0.0
 10
381.424529361821
 20
366.474425696722
 30
0.0
 10
381.6074066847281
 20
366.4715394676892
 30
0.0
 10
381.7849806047611
 20
366.5009645485866
 30
0.0
  0
LINE
  5
DE
330
1F
100
AcDbEntity
  8
0
  6
Continuous
 62
     8
370
    18
100
AcDbLine
 10
330.2848005359
 20
463.2760654415
 30
0.0
 11
330.2848005359
 21
316.570559553
 31
0.0
  0
LINE
  5
DF
330
1F
100
AcDbEntity
  8
0
  6
Continuous
 62
     8
370
    18
100
AcDbLine
 10
355.2746324475
 20
384.3233124957
 30
0.0
 11
355.2746324475
 21
335.3233124957
 31
0.0
  0
SPLINE
  5
E0
330
1F
100
AcDbEntity
  8
0
  6
Continuous
 62
     8
370
    18
100
AcDbSpline
210
0.0
220
0.0
230
1.0
 70
     8
 71
     3
 72
    30
 73
    26
 74
     0
 42
0.00000001
 43
0.00000001
 40
0.0
 40
0.0
 40
0.0
 40
0.0
 40
0.1249999999999993
 40
0.1249999999999993
 40
0.2499999999999986
 40
0.2499999999999986
 40
0.3124999999999978
 40
0.3124999999999978
 40
0.3437499999999978
 40
0.3437499999999978
 40
0.3749999999999978
 40
0.3749999999999978
 40
0.4999999999999986
 40
0.4999999999999986
 40
0.5624999999999992
 40
0.5624999999999992
 40
0.6249999999999999
 40
0.6249999999999999
 40
0.7500000000000002
 40
0.7500000000000002
 40
0.8125000000000001
 40
0.8125000000000001
 40
0.875
 40
0.875
 40
1.0
 40
1.0
 40
1.0
 40
1.0
 10
379.6158884185852
 20
359.2596991376622
 30
0.0
 10
379.6637962515375
 20
359.825402009053
 30
0.0
 10
379.7046056318782
 20
360.3841696004828
 30
0.0
 10
379.7714724662699
 20
361.4725577991227
 30
0.0
 10
379.7977412215329
 20
362.0043872878101
 30
0.0
 10
379.8266729645819
 20
362.7834120170124
 30
0.0
 10
379.834566055884
 20
363.0399579242255
 30
0.0
 10
379.8437529781069
 20
363.4199856209538
 30
0.0
 10
379.8463741754844
 20
363.5458608545756
 30
0.0
 10
379.8507138008217
 20
363.7959985126048
 30
0.0
 10
379.8521475731384
 20
363.9210364612991
 30
0.0
 10
379.8614820162607
 20
364.5289855352427
 30
0.0
 10
379.8755056573242
 20
364.9640237762607
 30
0.0
 10
379.9059093084688
 20
365.5416899377966
 30
0.0
 10
379.9177539472817
 20
365.7228615559435
 30
0.0
 10
379.9439091963248
 20
366.0485609059856
 30
0.0
 10
379.9589815584543
 20
366.1919667810038
 30
0.0
 10
380.0017406401288
 20
366.5892152734861
 30
0.0
 10
380.0256681955756
 20
366.8139042543294
 30
0.0
 10
380.0547320466009
 20
367.088466743018
 30
0.0
 10
380.0632591216437
 20
367.1693049201956
 30
0.0
 10
380.0778365752144
 20
367.306927634766
 30
0.0
 10
380.0839398064471
 20
367.3641061161415
 30
0.0
 10
380.0987832005235
 20
367.5010718837773
 30
0.0
 10
380.1042174562419
 20
367.5460899233431
 30
0.0
 10
380.1045815857906
 20
367.5446121947334
 30
0.0
  0
SPLINE
  5
E1
330
1F
100
AcDbEntity
  8
0
  6
Continuous
 62
     8
370
    18
100
AcDbSpline
210
0.0
220
0.0
230
1.0
 70
     8
 71
     3
 72
    18
 73
    14
 74
     0
 42
0.00000001
 43
0.00000001
 40
0.0
 40
0.0
 40
0.0
 40
0.0
 40
0.1250000000000007
 40
0.1250000000000007
 40
0.2500000000000013
 40
0.2500000000000013
 40
0.5000000000000027
 40
0.5000000000000027
 40
0.6250000000000022
 40
0.6250000000000022
 40
0.7500000000000018
 40
0.7500000000000018
 40
1.0
 40
1.0
 40
1.0
 40
1.0
 10
378.2514425285065
 20
350.1023250821596
 30
0.0
 10
378.3286101064209
 20
350.4432378854278
 30
0.0
 10
378.4038295918315
 20
350.7933829872359
 30
0.0
 10
378.5488998644405
 20
351.5041217933464
 30
0.0
 10
378.6189588427226
 20
351.8655995850974
 30
0.0
 10
378.821967537195
 20
352.9681191132313
 30
0.0
 10
378.9478026993796
 20
353.7271037110396
 30
0.0
 10
379.1223642681845
 20
354.9030850344683
 30
0.0
 10
379.1778289457444
 20
355.2992493551112
 30
0.0
 10
379.2820328806157
 20
356.0892337277255
 30
0.0
 10
379.3310084469739
 20
356.4846275125512
 30
0.0
 10
379.4687930205935
 20
357.6719853857167
 30
0.0
 10
379.5485376023265
 20
358.4651160215377
 30
0.0
 10
379.6158884573965
 20
359.2598469331896
 30
0.0
  0
SPLINE
  5
E2
330
1F
100
AcDbEntity
  8
0
  6
Continuous
 62
     8
370
    18
100
AcDbSpline
210
0.0
220
0.0
230
1.0
 70
     8
 71
     3
 72
    12
 73
     8
 74
     0
 42
0.00000001
 43
0.00000001
 40
0.0
 40
0.0
 40
0.0
 40
0.0
 40
0.2499999999999992
 40
0.2499999999999992
 40
0.4999999999999983
 40
0.4999999999999983
 40
1.0
 40
1.0
 40
1.0
 40
1.0
 10
377.8183279958099
 20
347.8206799803808
 30
0.0
 10
377.8348660337693
 20
347.9561146851898
 30
0.0
 10
377.8567305872187
 20
348.1069055353531
 30
0.0
 10
377.9107770654138
 20
348.4384911210114
 30
0.0
 10
377.9431812836704
 20
348.6203413260144
 30
0.0
 10
378.053294914073
 20
349.1979256404389
 30
0.0
 10
378.1440232222195
 20
349.6277654572343
 30
0.0
 10
378.2514425285065
 20
350.1023250821596
 30
0.0
  0
SPLINE
  5
E3
330
1F
100
AcDbEntity
  8
0
  6
Continuous
 62
     8
370
    18
100
AcDbSpline
210
0.0
220
0.0
230
1.0
 70
     8
 71
     3
 72
    10
 73
     6
 74
     0
 42
0.00000001
 43
0.00000001
 40
0.0
 40
0.0
 40
0.0
 40
0.0
 40
0.3333180814078062
 40
0.6618986104271423
 40
1.0
 40
1.0
 40
1.0
 40
1.0
 10
377.6591470166582
 20
346.521565908108
 30
0.0
 10
377.6626700657762
 20
346.5502279582857
 30
0.0
 10
377.6696660898318
 20
346.6071446761082
 30
0.0
 10
377.7238373175475
 20
347.047936720763
 30
0.0
 10
377.78653265311
 20
347.560658174946
 30
0.0
 10
377.8183279958099
 20
347.8206799803808
 30
0.0
  0
SPLINE
  5
E4
330
1F
100
AcDbEntity
  8
0
  6
Continuous
 62
     8
370
    18
100
AcDbSpline
210
0.0
220
0.0
230
1.0
 70
     8
 71
     3
 72
    38
 73
    34
 74
     0
 42
0.00000001
 43
0.00000001
 40
0.0
 40
0.0
 40
0.0
 40
0.0
 40
0.03125
 40
0.03125
 40
0.0625
 40
0.0625
 40
0.125
 40
0.125
 40
0.1875
 40
0.1875
 40
0.2499999999999999
 40
0.2499999999999999
 40
0.3124999999999999
 40
0.3124999999999999
 40
0.3749999999999998
 40
0.3749999999999998
 40
0.4999999999999995
 40
0.4999999999999995
 40
0.5624999999999994
 40
0.5624999999999994
 40
0.6249999999999994
 40
0.6249999999999994
 40
0.7499999999999998
 40
0.7499999999999998
 40
0.8125
 40
0.8125
 40
0.8750000000000003
 40
0.8750000000000003
 40
0.9375000000000007
 40
0.9375000000000007
 40
0.9687500000000003
 40
0.9687500000000003
 40
1.0
 40
1.0
 40
1.0
 40
1.0
 10
389.6633207736664
 20
374.807738583672
 30
0.0
 10
389.6633209814706
 20
374.8077381129575
 30
0.0
 10
389.6658207994359
 20
374.8014469179197
 30
0.0
 10
389.6756716082096
 20
374.7765806400992
 30
0.0
 10
389.683022517447
 20
374.7580057375719
 30
0.0
 10
389.7122015971139
 20
374.6841205336261
 30
0.0
 10
389.7411336125466
 20
374.6107074446315
 30
0.0
 10
389.8177083407487
 20
374.4155743253019
 30
0.0
 10
389.865281982804
 20
374.2940245027657
 30
0.0
 10
389.9769326836211
 20
374.0076696164929
 30
0.0
 10
390.0411611539546
 20
373.8424805035094
 30
0.0
 10
390.18609848455
 20
373.4683850623553
 30
0.0
 10
390.2668011067097
 20
373.2594947004744
 30
0.0
 10
390.4441584702377
 20
372.7980350170014
 30
0.0
 10
390.5414027634774
 20
372.5439154855597
 30
0.0
 10
390.852313713034
 20
371.7263369218151
 30
0.0
 10
391.0839679984664
 20
371.1109073904758
 30
0.0
 10
391.464935193827
 20
370.0823528263998
 30
0.0
 10
391.5975626522915
 20
369.721774906533
 30
0.0
 10
391.8738024745712
 20
368.9645700466593
 30
0.0
 10
392.016696437904
 20
368.5698724796086
 30
0.0
 10
392.4514810616155
 20
367.3585659797756
 30
0.0
 10
392.752133595194
 20
366.5076023495894
 30
0.0
 10
393.2173370632911
 20
365.1641563497332
 30
0.0
 10
393.3748174795386
 20
364.7050612449281
 30
0.0
 10
393.694732204944
 20
363.7634547886799
 30
0.0
 10
393.8567224817294
 20
363.2821922864243
 30
0.0
 10
394.1785705755304
 20
362.3169517286486
 30
0.0
 10
394.3392747192597
 20
361.8304917667007
 30
0.0
 10
394.5799281719685
 20
361.0950034695873
 30
0.0
 10
394.6600786090802
 20
360.8488723589419
 30
0.0
 10
394.8202293277078
 20
360.3546432515273
 30
0.0
 10
394.9007572348616
 20
360.1049007418251
 30
0.0
 10
394.9801458004886
 20
359.8574409213688
 30
0.0
  0
SPLINE
  5
E5
330
1F
100
AcDbEntity
  8
0
  6
Continuous
 62
     8
370
    18
100
AcDbSpline
210
0.0
220
0.0
230
1.0
 70
     8
 71
     3
 72
    28
 73
    24
 74
     0
 42
0.00000001
 43
0.00000001
 40
0.0
 40
0.0
 40
0.0
 40
0.0
 40
0.0624999999999995
 40
0.0624999999999995
 40
0.1249999999999991
 40
0.1249999999999991
 40
0.1874999999999986
 40
0.1874999999999986
 40
0.2187499999999984
 40
0.2187499999999984
 40
0.2499999999999982
 40
0.2499999999999982
 40
0.3124999999999978
 40
0.3124999999999978
 40
0.3437499999999977
 40
0.3437499999999977
 40
0.3593749999999977
 40
0.3593749999999977
 40
0.3749999999999977
 40
0.3749999999999977
 40
0.4999999999999982
 40
0.4999999999999982
 40
1.0
 40
1.0
 40
1.0
 40
1.0
 10
408.7117986412118
 20
274.3616565885998
 30
0.0
 10
408.720826024472
 20
273.9721783295624
 30
0.0
 10
408.7299464326441
 20
273.5862684422611
 30
0.0
 10
408.7458186332911
 20
272.8346009904055
 30
0.0
 10
408.7527491282097
 20
272.474508982058
 30
0.0
 10
408.7647297535461
 20
271.7986226474352
 30
0.0
 10
408.7698223041534
 20
271.477793051038
 30
0.0
 10
408.7765011945982
 20
271.0554899151325
 30
0.0
 10
408.778586524581
 20
270.9234945947935
 30
0.0
 10
408.7825894446683
 20
270.676462501231
 30
0.0
 10
408.7845181270488
 20
270.5607687295172
 30
0.0
 10
408.790178058782
 20
270.24503264988
 30
0.0
 10
408.793732447083
 20
270.0766265987272
 30
0.0
 10
408.8000868284154
 20
269.8876841564735
 30
0.0
 10
408.8023918310504
 20
269.8355605427857
 30
0.0
 10
408.8062398424573
 20
269.7764045620399
 30
0.0
 10
408.8075912055194
 20
269.7597406509274
 30
0.0
 10
408.8104682847241
 20
269.7325739743919
 30
0.0
 10
408.8120378899918
 20
269.7230167926348
 30
0.0
 10
408.8256923386956
 20
269.6341674762544
 30
0.0
 10
408.8355690532503
 20
269.562697183042
 30
0.0
 10
408.8759761847387
 20
269.2435123679965
 30
0.0
 10
408.8808020668827
 20
269.1093566725579
 30
0.0
 10
408.8805612879331
 20
269.1093084107867
 30
0.0
  0
SPLINE
  5
E6
330
1F
100
AcDbEntity
  8
0
  6
Continuous
 62
     8
370
    18
100
AcDbSpline
210
0.0
220
0.0
230
1.0
 70
     8
 71
     3
 72
    24
 73
    20
 74
     0
 42
0.00000001
 43
0.00000001
 40
0.0
 40
0.0
 40
0.0
 40
0.0
 40
0.125
 40
0.125
 40
0.2499999999999999
 40
0.2499999999999999
 40
0.3749999999999999
 40
0.3749999999999999
 40
0.4999999999999999
 40
0.4999999999999999
 40
0.7500000000000002
 40
0.7500000000000002
 40
0.8750000000000004
 40
0.8750000000000004
 40
0.9375000000000002
 40
0.9375000000000002
 40
0.9687500000000001
 40
0.9687500000000001
 40
1.0
 40
1.0
 40
1.0
 40
1.0
 10
394.9812028728455
 20
359.8541459089979
 30
0.0
 10
396.0870703609703
 20
356.4069968072709
 30
0.0
 10
397.1199503932166
 20
352.9390233389136
 30
0.0
 10
399.0352187659383
 20
345.9601398909987
 30
0.0
 10
399.9165914286812
 20
342.4478661158678
 30
0.0
 10
401.5270945133634
 20
335.3896185442005
 30
0.0
 10
402.2599515549071
 20
331.8439708595627
 30
0.0
 10
403.6173571090845
 20
324.732065257559
 30
0.0
 10
404.2385784167385
 20
321.1664389708144
 30
0.0
 10
405.9238441602543
 20
310.4404474435574
 30
0.0
 10
406.8120002788451
 20
303.2495493102389
 30
0.0
 10
407.7895892022241
 20
292.4363771944186
 30
0.0
 10
408.0564900973799
 20
288.8260211021467
 30
0.0
 10
408.3684343641455
 20
283.4050959091545
 30
0.0
 10
408.457593559047
 20
281.597336191855
 30
0.0
 10
408.5694756789147
 20
278.8845354939676
 30
0.0
 10
408.6031689074863
 20
277.9801330157404
 30
0.0
 10
408.6630807410951
 20
276.1710761262971
 30
0.0
 10
408.690826639421
 20
275.2664485423126
 30
0.0
 10
408.7117986412191
 20
274.3616565886008
 30
0.0
  0
SPLINE
  5
E7
330
1F
100
AcDbEntity
  8
0
  6
Continuous
 62
     8
370
    18
100
AcDbSpline
210
0.0
220
0.0
230
1.0
 70
     8
 71
     3
 72
    50
 73
    46
 74
     0
 42
0.00000001
 43
0.00000001
 40
0.0
 40
0.0
 40
0.0
 40
0.0
 40
0.0089857697999577
 40
0.0178516134059226
 40
0.0265997986574529
 40
0.0352124685255105
 40
0.0436792020235427
 40
0.0520920563404163
 40
0.062535902157574
 40
0.0728456641716613
 40
0.093098732446707
 40
0.1239194578127228
 40
0.1547210035741738
 40
0.1751639915113904
 40
0.2171340407464017
 40
0.2387242828427451
 40
0.2494795741405811
 40
0.2825219541584346
 40
0.3047949652071273
 40
0.3163902564815028
 40
0.3395768441962043
 40
0.3632147313912495
 40
0.3752637043722837
 40
0.3993886149238596
 40
0.4501150560864819
 40
0.4757317764306405
 40
0.5014133722719367
 40
0.520728271349063
 40
0.5400781859605204
 40
0.5990579095720069
 40
0.6395209954403683
 40
0.6597891584310964
 40
0.7240785352311755
 40
0.7455393207454434
 40
0.7602954793687573
 40
0.7898159114635396
 40
0.8342859519199384
 40
0.8491398566912839
 40
0.8785151102744846
 40
0.9075565824469924
 40
0.9220734154148775
 40
0.9496114686132149
 40
0.9771389677084208
 40
0.9885701447911617
 40
1.0
 40
1.0
 40
1.0
 40
1.0
 10
391.4961038495862
 20
330.0993447730235
 30
0.0
 10
391.4967782033163
 20
330.1024719738497
 30
0.0
 10
391.4981179106932
 20
330.1086846391457
 30
0.0
 10
391.5022753281612
 20
330.1279768908393
 30
0.0
 10
391.5078858325896
 20
330.1541989084766
 30
0.0
 10
391.5150050859003
 20
330.1876833044055
 30
0.0
 10
391.5235082804757
 20
330.2280608254716
 30
0.0
 10
391.534170247261
 20
330.2791334513772
 30
0.0
 10
391.5473513722689
 20
330.3428580595477
 30
0.0
 10
391.5685269535558
 20
330.4466481642592
 30
0.0
 10
391.6057864106298
 20
330.633365406502
 30
0.0
 10
391.6663315952125
 20
330.9516253928559
 30
0.0
 10
391.7367015550757
 20
331.3503851162676
 30
0.0
 10
391.8220397436717
 20
331.8733832800272
 30
0.0
 10
391.9022605548829
 20
332.4179948154099
 30
0.0
 10
391.971708489188
 20
332.9554369976517
 30
0.0
 10
392.0313286686213
 20
333.4510049950517
 30
0.0
 10
392.0890575951263
 20
333.9817485763753
 30
0.0
 10
392.1423460338928
 20
334.5513800454221
 30
0.0
 10
392.1846853189365
 20
335.05216651602
 30
0.0
 10
392.2245400661157
 20
335.5799153734914
 30
0.0
 10
392.2593502796548
 20
336.1296406592059
 30
0.0
 10
392.2902702770886
 20
336.7003149132267
 30
0.0
 10
392.3286068939801
 20
337.5461096302704
 30
0.0
 10
392.3558900191152
 20
338.5593309642409
 30
0.0
 10
392.364415897844
 20
339.6144400733551
 30
0.0
 10
392.3613751690448
 20
340.3553233000044
 30
0.0
 10
392.3513192646711
 20
341.0375582315216
 30
0.0
 10
392.3263714194541
 20
342.0811030784543
 30
0.0
 10
392.2718709069968
 20
343.368944095847
 30
0.0
 10
392.1847203125073
 20
344.6811679887942
 30
0.0
 10
392.0729636637057
 20
346.0581632419349
 30
0.0
 10
391.9525885919151
 20
347.2328078742284
 30
0.0
 10
391.8124921388607
 20
348.348597117905
 30
0.0
 10
391.7136282966879
 20
349.0788504617732
 30
0.0
 10
391.5679900773209
 20
350.0651136924674
 30
0.0
 10
391.4005744062092
 20
351.052199445676
 30
0.0
 10
391.215033390126
 20
352.0359193928073
 30
0.0
 10
391.0500927179307
 20
352.8472812520455
 30
0.0
 10
390.8700348071855
 20
353.6524572082087
 30
0.0
 10
390.6821252748124
 20
354.4348269277417
 30
0.0
 10
390.4862620419756
 20
355.1978992188877
 30
0.0
 10
390.2830305046365
 20
355.9227152790831
 30
0.0
 10
390.1204212979443
 20
356.4690587759411
 30
0.0
 10
390.0435435184938
 20
356.7157884748097
 30
0.0
 10
390.0051068513876
 20
356.839146191024
 30
0.0
  0
SPLINE
  5
E8
330
1F
100
AcDbEntity
  8
0
  6
Continuous
 62
     8
370
    18
100
AcDbSpline
210
0.0
220
0.0
230
1.0
 70
     8
 71
     3
 72
    13
 73
     9
 74
     0
 42
0.00000001
 43
0.00000001
 40
0.9434913832701114
 40
0.9434913832701114
 40
0.9434913832701114
 40
0.9434913832701114
 40
0.9577345759617485
 40
0.9719777686533855
 40
0.979099364999204
 40
0.9909686922422348
 40
0.9939360240529925
 40
1.0
 40
1.0
 40
1.0
 40
1.0
 10
390.0050707305559
 20
356.8391238641099
 30
0.0
 10
389.9706105540396
 20
356.9475594763739
 30
0.0
 10
389.9016902010072
 20
357.1644307009018
 30
0.0
 10
389.8154548427198
 20
357.4356555039834
 30
0.0
 10
389.7349027770287
 20
357.6887149941754
 30
0.0
 10
389.6816347398636
 20
357.8558426874365
 30
0.0
 10
389.6308918284321
 20
358.0148221110253
 30
0.0
 10
389.6089543358593
 20
358.0834896630078
 30
0.0
 10
389.594219220692
 20
358.1295802953798
 30
0.0
  0
LWPOLYLINE
  5
E9
330
1F
100
AcDbEntity
  8
0
  6
Continuous
 62
     8
370
    18
100
AcDbPolyline
 90
        3
 70
   128
 43
0.0
 10
391.49583419
 20
330.093476512
 10
391.4957094703
 20
330.0963580081
 10
391.4961045644
 20
330.0993452148
  0
SPLINE
  5
EA
330
1F
100
AcDbEntity
  8
0
  6
Continuous
 62
     8
370
    18
100
AcDbSpline
210
0.0
220
0.0
230
1.0
 70
     8
 71
     3
 72
    54
 73
    50
 74
     0
 42
0.00000001
 43
0.00000001
 40
0.0
 40
0.0
 40
0.0
 40
0.0
 40
0.0013543535798869
 40
0.0087726831067811
 40
0.0161910126336754
 40
0.0236093421605698
 40
0.0384460012143583
 40
0.0596090955892423
 40
0.0878265547557545
 40
0.1372071082971508
 40
0.161897385067849
 40
0.174242523453198
 40
0.2359682153799434
 40
0.3062739931653605
 40
0.3297092524271663
 40
0.3663268450237377
 40
0.3882974005816806
 40
0.402358556138764
 40
0.4093891339173058
 40
0.4164197116958476
 40
0.4234502894743892
 40
0.4234502894743892
 40
0.4301397505607224
 40
0.4368292116470556
 40
0.4435186727333888
 40
0.4568975949060552
 40
0.4702765170787216
 40
0.5097861466198771
 40
0.5509420107252474
 40
0.5580756938368449
 40
0.5756355291884695
 40
0.5826594633291193
 40
0.5896833974697693
 40
0.5967073316104191
 40
0.603731265751069
 40
0.6107551998917188
 40
0.6107551998917188
 40
0.6174416941222574
 40
0.624128188352796
 40
0.6308146825833347
 40
0.6408444239291426
 40
0.6441876710444119
 40
0.6642471537360278
 40
0.6909931306581825
 40
0.717739107580337
 40
0.8247230152689551
 40
0.8476646228917741
 40
0.8859006355964726
 40
0.9434913832701114
 40
0.9434913832701114
 40
0.9434913832701114
 40
0.9434913832701114
 10
389.594219220692
 20
358.1295802953798
 30
0.0
 10
389.5909282188557
 20
358.1398743686904
 30
0.0
 10
389.5696093493736
 20
358.2065481497711
 30
0.0
 10
389.5302416095125
 20
358.329540419826
 30
0.0
 10
389.4760757074846
 20
358.4984241675781
 30
0.0
 10
389.4037768001355
 20
358.7233346266796
 30
0.0
 10
389.2978053792738
 20
359.0517531846459
 30
0.0
 10
389.1405684094707
 20
359.5354949972113
 30
0.0
 10
388.898112894851
 20
360.2743034261347
 30
0.0
 10
388.6468704080249
 20
361.0291148115564
 30
0.0
 10
388.4357939032935
 20
361.6556008430984
 30
0.0
 10
388.1956045653023
 20
362.3643776860024
 30
0.0
 10
387.8480567022771
 20
363.3782698350702
 30
0.0
 10
387.4858264745537
 20
364.4160016917508
 30
0.0
 10
387.1919952887398
 20
365.2480220504705
 30
0.0
 10
387.0114716422032
 20
365.7553774792361
 30
0.0
 10
386.8558439789258
 20
366.1897044912732
 30
0.0
 10
386.7652605899838
 20
366.4414279539277
 30
0.0
 10
386.7067666350179
 20
366.6035744542651
 30
0.0
 10
386.6632343645263
 20
366.7240473148891
 30
0.0
 10
386.6344420510864
 20
366.8035960784629
 30
0.0
 10
386.6064635071766
 20
366.8808342870885
 30
0.0
 10
386.5792875460378
 20
366.9557988871416
 30
0.0
 10
386.5388530156754
 20
367.0671715097412
 30
0.0
 10
386.4853844971406
 20
367.2142270560352
 30
0.0
 10
386.4193941687539
 20
367.3953222544961
 30
0.0
 10
386.2909461587325
 20
367.746811117967
 30
0.0
 10
386.1152716945239
 20
368.2248287766471
 30
0.0
 10
385.9614197929757
 20
368.6401839514925
 30
0.0
 10
385.8509362166988
 20
368.9372117178667
 30
0.0
 10
385.7989429358385
 20
369.0766855106485
 30
0.0
 10
385.7483788455474
 20
369.2120473163653
 30
0.0
 10
385.7151509437311
 20
369.3008960412761
 30
0.0
 10
385.6824096515351
 20
369.3883435525216
 30
0.0
 10
385.6501618379452
 20
369.4743768048462
 30
0.0
 10
385.6289924953826
 20
369.530791515823
 30
0.0
 10
385.6085003573293
 20
369.585373435979
 30
0.0
 10
385.5886692144438
 20
369.6381684611123
 30
0.0
 10
385.5594146341151
 20
369.7159781317044
 30
0.0
 10
385.5258572287392
 20
369.8051485003049
 30
0.0
 10
385.4977139941974
 20
369.8798450633004
 30
0.0
 10
385.4516447202439
 20
370.0020092638815
 30
0.0
 10
385.3847444667807
 20
370.1791225284693
 30
0.0
 10
385.2932365253402
 20
370.4206244711814
 30
0.0
 10
385.1105646797557
 20
370.9010841357404
 30
0.0
 10
384.974876360745
 20
371.2545476225592
 30
0.0
 10
384.8787412419967
 20
371.5040977129763
 30
0.0
 10
384.8301430538993
 20
371.6300436323227
 30
0.0
 10
384.8212977785598
 20
371.6530741147831
 30
0.0
 10
384.8159818728757
 20
371.6669151618867
 30
0.0
  0
LINE
  5
EB
330
1F
100
AcDbEntity
  8
0
  6
Continuous
 62
     8
370
    18
100
AcDbLine
 10
393.6483015229
 20
359.430145816
 30
0.0
 11
393.6471664322
 21
359.4336848018
 31
0.0
  0
LINE
  5
EC
330
1F
100
AcDbEntity
  8
0
  6
Continuous
 62
     8
370
    18
100
AcDbLine
 10
394.9801458008
 20
359.8574409215
 30
0.0
 11
394.9812028729
 21
359.854145909
 31
0.0
  0
SPLINE
  5
ED
330
1F
100
AcDbEntity
  8
0
  6
Continuous
 62
     8
370
    18
100
AcDbSpline
210
0.0
220
0.0
230
1.0
 70
    24
 71
     3
 72
     9
 73
     5
 74
     0
 42
0.00000001
 43
0.00000001
 40
0.0
 40
0.0
 40
0.0
 40
0.0
 40
0.4965931606581468
 40
1.0
 40
1.0
 40
1.0
 40
1.0
 10
395.2811344667352
 20
359.954007003469
 30
0.0
 10
395.2666957949526
 20
359.9493746497589
 30
0.0
 10
395.2376203405835
 20
359.940046382523
 30
0.0
 10
395.0663596192049
 20
359.8851008688351
 30
0.0
 10
394.9801458007523
 20
359.8574409214534
 30
0.0
  0
SPLINE
  5
EE
330
1F
100
AcDbEntity
  8
0
  6
Continuous
 62
     8
370
    18
100
AcDbSpline
210
0.0
220
0.0
230
1.0
 70
     8
 71
     3
 72
    24
 73
    20
 74
     0
 42
0.00000001
 43
0.00000001
 40
0.0
 40
0.0
 40
0.0
 40
0.0
 40
0.0639434672074968
 40
0.1270901522891006
 40
0.1895340446638862
 40
0.251232577460166
 40
0.3121992524664816
 40
0.3725119946133182
 40
0.4322140687466109
 40
0.491288107233414
 40
0.5497509150679826
 40
0.6076684321053887
 40
0.6650864273456525
 40
0.7220073701164837
 40
0.7784404877011342
 40
0.834426649140311
 40
0.8900214968983919
 40
0.9452414649473949
 40
1.0
 40
1.0
 40
1.0
 40
1.0
 10
381.0496502622863
 20
347.2291922182434
 30
0.0
 10
381.0496149660606
 20
347.2301302998355
 30
0.0
 10
381.049544813426
 20
347.2319947738405
 30
0.0
 10
381.0497870829686
 20
347.2474530000374
 30
0.0
 10
381.0494920761306
 20
347.2712237548737
 30
0.0
 10
381.0494324956626
 20
347.3043559132151
 30
0.0
 10
381.0496507246802
 20
347.3463264159038
 30
0.0
 10
381.0497300591733
 20
347.3965839529466
 30
0.0
 10
381.0495124176353
 20
347.4546794365196
 30
0.0
 10
381.0494477603355
 20
347.5206541224173
 30
0.0
 10
381.0496528338461
 20
347.5943211313437
 30
0.0
 10
381.0497656875209
 20
347.6751441453113
 30
0.0
 10
381.0496125360103
 20
347.7627403679761
 30
0.0
 10
381.0493945609537
 20
347.8570196998133
 30
0.0
 10
381.0494481226824
 20
347.9580537865819
 30
0.0
 10
381.0497917316732
 20
348.0656231167424
 30
0.0
 10
381.0499474519236
 20
348.1792959814975
 30
0.0
 10
381.0492789477389
 20
348.2976757463775
 30
0.0
 10
381.0494719424007
 20
348.3823814400956
 30
0.0
 10
381.0495680348609
 20
348.4245565885819
 30
0.0
  0
SPLINE
  5
EF
330
1F
100
AcDbEntity
  8
0
  6
Continuous
 62
     8
370
    18
100
AcDbSpline
210
0.0
220
0.0
230
1.0
 70
     8
 71
     3
 72
    38
 73
    34
 74
     0
 42
0.00000001
 43
0.00000001
 40
0.0
 40
0.0
 40
0.0
 40
0.0
 40
0.0312500000000001
 40
0.0312500000000001
 40
0.0625000000000002
 40
0.0625000000000002
 40
0.1250000000000005
 40
0.1250000000000005
 40
0.1875000000000008
 40
0.1875000000000008
 40
0.2500000000000011
 40
0.2500000000000011
 40
0.3750000000000017
 40
0.3750000000000017
 40
0.4375000000000017
 40
0.4375000000000017
 40
0.5000000000000017
 40
0.5000000000000017
 40
0.5625000000000017
 40
0.5625000000000017
 40
0.6250000000000017
 40
0.6250000000000017
 40
0.750000000000001
 40
0.750000000000001
 40
0.8750000000000004
 40
0.8750000000000004
 40
0.9375000000000006
 40
0.9375000000000006
 40
0.9687500000000003
 40
0.9687500000000003
 40
0.9843750000000001
 40
0.9843750000000001
 40
1.0
 40
1.0
 40
1.0
 40
1.0
 10
381.7849490768635
 20
366.5009505797873
 30
0.0
 10
381.7861038730076
 20
366.5014846604502
 30
0.0
 10
381.7874955681195
 20
366.4995921245694
 30
0.0
 10
381.789389969348
 20
366.4905965541191
 30
0.0
 10
381.7899061254306
 20
366.4834997348253
 30
0.0
 10
381.788288581942
 20
366.4539044274899
 30
0.0
 10
381.7824307955715
 20
366.4229273628177
 30
0.0
 10
381.7638129395143
 20
366.3401642989577
 30
0.0
 10
381.7516276335941
 20
366.288280777508
 30
0.0
 10
381.7227943602194
 20
366.1636118696975
 30
0.0
 10
381.7059427989232
 20
366.090486658725
 30
0.0
 10
381.6495003696487
 20
365.8422503891085
 30
0.0
 10
381.6044503678385
 20
365.6397625200881
 30
0.0
 10
381.5287688340245
 20
365.2836357612511
 30
0.0
 10
381.4999278941076
 20
365.156517882182
 30
0.0
 10
381.4513704906066
 20
364.863341377749
 30
0.0
 10
381.4305215722116
 20
364.6987689252388
 30
0.0
 10
381.3969041796045
 20
364.3471420161431
 30
0.0
 10
381.3836181187395
 20
364.1588097594538
 30
0.0
 10
381.3630871525128
 20
363.7571723673808
 30
0.0
 10
381.3558143274424
 20
363.5424202805132
 30
0.0
 10
381.3438501254242
 20
362.8679303689907
 30
0.0
 10
381.3249364828637
 20
362.407200411044
 30
0.0
 10
381.2698017317009
 20
361.4637862177728
 30
0.0
 10
381.2335881743994
 20
360.9812313146925
 30
0.0
 10
381.1702444555708
 20
360.2410420647956
 30
0.0
 10
381.1476351126167
 20
359.9915768993759
 30
0.0
 10
381.1119575984875
 20
359.6131711331046
 30
0.0
 10
381.0997866692059
 20
359.4865317991557
 30
0.0
 10
381.0811999091124
 20
359.2961149691631
 30
0.0
 10
381.0749487319265
 20
359.2325598000432
 30
0.0
 10
381.0623448049359
 20
359.1052827144459
 30
0.0
 10
381.0558636833513
 20
359.0402809400599
 30
0.0
 10
381.0495932129637
 20
358.9777561633788
 30
0.0
  0
LINE
  5
F0
330
1F
100
AcDbEntity
  8
0
  6
Continuous
 62
     8
370
    18
100
AcDbLine
 10
339.39093204
 20
438.5976586333
 30
0.0
 11
339.39093204
 21
417.0489663612
 31
0.0
  0
SPLINE
  5
F1
330
1F
100
AcDbEntity
  8
0
  6
Continuous
 62
     8
370
    18
100
AcDbSpline
210
0.0
220
0.0
230
1.0
 70
     8
 71
     3
 72
    16
 73
    12
 74
     0
 42
0.00000001
 43
0.00000001
 40
0.0
 40
0.0
 40
0.0
 40
0.0
 40
0.2500000000000001
 40
0.2500000000000001
 40
0.3749999999999996
 40
0.3749999999999996
 40
0.4999999999999991
 40
0.4999999999999991
 40
0.7499999999999996
 40
0.7499999999999996
 40
1.0
 40
1.0
 40
1.0
 40
1.0
 10
381.0495932129637
 20
358.9776551379057
 30
0.0
 10
380.9782050595064
 20
358.2232425598156
 30
0.0
 10
380.8936706745098
 20
357.4707001014291
 30
0.0
 10
380.7476431739723
 20
356.344613284233
 30
0.0
 10
380.6957422459895
 20
355.9697084296486
 30
0.0
 10
380.585329285116
 20
355.2208348174426
 30
0.0
 10
380.5265458696982
 20
354.8452516194268
 30
0.0
 10
380.3417437779354
 20
353.7316409007608
 30
0.0
 10
380.2087632218017
 20
353.0144143979992
 30
0.0
 10
379.9233467678795
 20
351.6277419101903
 30
0.0
 10
379.7709134830753
 20
350.958302744971
 30
0.0
 10
379.607914495646
 20
350.313694594355
 30
0.0
  0
SPLINE
  5
F2
330
1F
100
AcDbEntity
  8
0
  6
Continuous
 62
     8
370
    18
100
AcDbSpline
210
0.0
220
0.0
230
1.0
 70
     8
 71
     3
 72
    12
 73
     8
 74
     0
 42
0.00000001
 43
0.00000001
 40
0.0
 40
0.0
 40
0.0
 40
0.0
 40
0.5000000000000052
 40
0.5000000000000052
 40
0.7500000000000026
 40
0.7500000000000026
 40
1.0
 40
1.0
 40
1.0
 40
1.0
 10
379.607914495646
 20
350.313694594355
 30
0.0
 10
379.4951286992434
 20
349.929145440654
 30
0.0
 10
379.3993885509208
 20
349.579441043054
 30
0.0
 10
379.282843404489
 20
349.108146192581
 30
0.0
 10
379.2484646047043
 20
348.9594555492568
 30
0.0
 10
379.1910885119191
 20
348.688118085026
 30
0.0
 10
379.1678520889003
 20
348.564600164255
 30
0.0
 10
379.1502840460043
 20
348.4536007618661
 30
0.0
  0
LINE
  5
F3
330
1F
100
AcDbEntity
  8
0
  6
Continuous
 62
     8
370
    18
100
AcDbLine
 10
379.150284046
 20
348.4536007619
 30
0.0
 11
381.049593213
 21
348.4245721529
 31
0.0
  0
SPLINE
  5
F4
330
1F
100
AcDbEntity
  8
0
  6
Continuous
 62
     8
370
    18
100
AcDbSpline
210
0.0
220
0.0
230
1.0
 70
     8
 71
     3
 72
    11
 73
     7
 74
     0
 42
0.00000001
 43
0.00000001
 40
0.0
 40
0.0
 40
0.0
 40
0.0
 40
0.3285825171029657
 40
0.666698016471678
 40
0.995188248318931
 40
1.0
 40
1.0
 40
1.0
 40
1.0
 10
379.1502840460043
 20
348.4536007618661
 30
0.0
 10
379.117175094995
 20
348.2195763340261
 30
0.0
 10
379.0499966213501
 20
347.7447378574617
 30
0.0
 10
378.9984260309067
 20
347.38205335866
 30
0.0
 10
378.9756359998424
 20
347.2218017569562
 30
0.0
 10
378.9819992157844
 20
347.2665479899425
 30
0.0
 10
378.9820910790691
 20
347.2671939739823
 30
0.0
  0
LINE
  5
F5
330
1F
100
AcDbEntity
  8
0
  6
Continuous
 62
     7
370
    25
100
AcDbLine
 10
98.7433596838
 20
203.221968343
 30
0.0
 11
98.9014283793
 21
197.1855684004
 31
0.0
  0
LINE
  5
F6
330
1F
100
AcDbEntity
  8
0
  6
Continuous
 62
     7
370
    25
100
AcDbLine
 10
247.5852909883
 20
197.1855684004
 30
0.0
 11
247.7433596838
 21
203.221968343
 31
0.0
  0
ARC
  5
F7
330
1F
100
AcDbEntity
  8
0
  6
Continuous
 62
     7
370
    25
100
AcDbCircle
 10
246.5856336634
 20
197.2117453487
 30
0.0
 40
0.9999999999996076
100
AcDbArc
 50
270.6004114401
 51
358.5
  0
ARC
  5
F8
330
1F
100
AcDbEntity
  8
0
  6
Continuous
 62
     7
370
    25
100
AcDbCircle
 10
99.9010857042
 20
197.2117453487
 30
0.0
 40
0.9999999999996076
100
AcDbArc
 50
181.5
 51
269.3995885599
  0
ARC
  5
F9
330
1F
100
AcDbEntity
  8
0
  6
Continuous
 62
     7
370
    25
100
AcDbCircle
 10
173.2433596838
 20
7195.8274592487
 30
0.0
 40
7000.000000000001
100
AcDbArc
 50
269.3995885599
 51
269.9066710329
  0
ARC
  5
FA
330
1F
100
AcDbEntity
  8
0
  6
Continuous
 62
     7
370
    25
100
AcDbCircle
 10
173.2433596838
 20
7195.8274592487
 30
0.0
 40
7000.000000000001
100
AcDbArc
 50
270.093328967
 51
270.6004114401
  0
LINE
  5
FB
330
1F
100
AcDbEntity
  8
0
  6
Continuous
 62
     7
370
    25
100
AcDbLine
 10
161.8393007252
 20
195.9387025562
 30
0.0
 11
161.9849110581
 21
187.5966921692
 31
0.0
  0
LINE
  5
FC
330
1F
100
AcDbEntity
  8
0
  6
Continuous
 62
     7
370
    25
100
AcDbLine
 10
184.5018083055
 20
187.5966921692
 30
0.0
 11
184.647419442
 21
195.9387485939
 31
0.0
  0
ARC
  5
FD
330
1F
100
AcDbEntity
  8
0
  6
Continuous
 62
     7
370
    25
100
AcDbCircle
 10
162.4848349057
 20
187.6054183724
 30
0.0
 40
0.4999999999999983
100
AcDbArc
 50
181.0
 51
268.1867030124
  0
ARC
  5
FE
330
1F
100
AcDbEntity
  8
0
  6
Continuous
 62
     7
370
    25
100
AcDbCircle
 10
184.0018844579
 20
187.6054183724
 30
0.0
 40
0.5000000000000063
100
AcDbArc
 50
271.8132969877
 51
359.0
  0
ARC
  5
FF
330
1F
100
AcDbEntity
  8
0
  6
Continuous
 62
     7
370
    25
100
AcDbCircle
 10
173.2433596818
 20
527.4351612506
 30
0.0
 40
340.5
100
AcDbArc
 50
268.1867030123
 51
270.0
  0
ARC
  5
100
330
1F
100
AcDbEntity
  8
0
  6
Continuous
 62
     7
370
    25
100
AcDbCircle
 10
173.2433596818
 20
527.4351612506
 30
0.0
 40
340.5
100
AcDbArc
 50
270.0
 51
271.8132969877
  0
LINE
  5
101
330
1F
100
AcDbEntity
  8
0
  6
Continuous
 62
     7
370
    25
100
AcDbLine
 10
197.743359686
 20
171.221968343
 30
0.0
 11
197.743359686
 21
195.87033438
 31
0.0
  0
LINE
  5
102
330
1F
100
AcDbEntity
  8
0
  6
Continuous
 62
     7
370
    25
100
AcDbLine
 10
148.743359686
 20
195.87033438
 30
0.0
 11
148.743359686
 21
171.221968343
 31
0.0
  0
ARC
  5
103
330
1F
100
AcDbEntity
  8
0
  6
Continuous
 62
     7
370
    25
100
AcDbCircle
 10
173.243359686
 20
171.221968343
 30
0.0
 40
24.50000000000001
100
AcDbArc
 50
180.0
 51
205.1329676531
  0
ARC
  5
104
330
1F
100
AcDbEntity
  8
0
  6
Continuous
 62
     7
370
    25
100
AcDbCircle
 10
173.243359686
 20
171.221968343
 30
0.0
 40
24.50000000000002
100
AcDbArc
 50
334.8670323469
 51
0.0
  0
ARC
  5
105
330
1F
100
AcDbEntity
  8
0
  6
Continuous
 62
     7
370
    25
100
AcDbCircle
 10
173.2433596855
 20
171.7470075776
 30
0.0
 40
26.5
100
AcDbArc
 50
205.0598460873
 51
250.0936378055
  0
ARC
  5
106
330
1F
100
AcDbEntity
  8
0
  6
Continuous
 62
     7
370
    25
100
AcDbCircle
 10
173.2433596855
 20
171.7470075776
 30
0.0
 40
26.50000000000003
100
AcDbArc
 50
289.9207409066
 51
334.9401539127
  0
SPLINE
  5
107
330
1F
100
AcDbEntity
  8
0
  6
Continuous
 62
     7
370
    25
100
AcDbSpline
210
0.0
220
0.0
230
1.0
 70
     8
 71
     3
 72
    11
 73
     7
 74
     0
 42
0.00000001
 43
0.00000001
 40
0.0
 40
0.0
 40
0.0
 40
0.0
 40
0.3022834244041804
 40
0.5681133007336597
 40
0.8181195631940655
 40
1.0
 40
1.0
 40
1.0
 40
1.0
 10
190.4175413634479
 20
133.425736464429
 30
0.0
 10
190.3098739649191
 20
134.0152350257409
 30
0.0
 10
190.1075232032783
 20
135.12314219632
 30
0.0
 10
189.0210464100665
 20
136.6960216704665
 30
0.0
 10
187.6664642133618
 20
138.003978419882
 30
0.0
 10
186.6197510496967
 20
138.6570264492224
 30
0.0
 10
186.1789487565459
 20
138.9320445524274
 30
0.0
  0
SPLINE
  5
108
330
1F
100
AcDbEntity
  8
0
  6
Continuous
 62
     7
370
    25
100
AcDbSpline
210
0.0
220
0.0
230
1.0
 70
     8
 71
     3
 72
    11
 73
     7
 74
     0
 42
0.00000001
 43
0.00000001
 40
0.0
 40
0.0
 40
0.0
 40
0.0
 40
0.1818804368059471
 40
0.4318866992663575
 40
0.697716575595834
 40
1.0
 40
1.0
 40
1.0
 40
1.0
 10
160.3077706143971
 20
138.9320445524272
 30
0.0
 10
159.8669683212463
 20
138.6570264492222
 30
0.0
 10
158.8202551575812
 20
138.0039784198818
 30
0.0
 10
157.4656729608766
 20
136.6960216704665
 30
0.0
 10
156.3791961676649
 20
135.12314219632
 30
0.0
 10
156.1768454060241
 20
134.0152350257408
 30
0.0
 10
156.0691780074954
 20
133.4257364644289
 30
0.0
  0
SPLINE
  5
109
330
1F
100
AcDbEntity
  8
0
  6
Continuous
 62
     7
370
    25
100
AcDbSpline
210
0.0
220
0.0
230
1.0
 70
     8
 71
     3
 72
    11
 73
     7
 74
     0
 42
0.00000001
 43
0.00000001
 40
0.0
 40
0.0
 40
0.0
 40
0.0
 40
0.2592485115754175
 40
0.5193392130954155
 40
0.7699321097621225
 40
1.0
 40
1.0
 40
1.0
 40
1.0
 10
164.6975102584601
 20
143.894190592561
 30
0.0
 10
164.4347966695911
 20
143.2252231369003
 30
0.0
 10
163.9085160453224
 20
141.8851150302112
 30
0.0
 10
162.5741756977007
 20
140.484753174843
 30
0.0
 10
161.2698337239465
 20
139.4862364343945
 30
0.0
 10
160.5125941680667
 20
139.0645595109664
 30
0.0
 10
160.1501420775854
 20
138.8627241984586
 30
0.0
  0
SPLINE
  5
10A
330
1F
100
AcDbEntity
  8
0
  6
Continuous
 62
     7
370
    25
100
AcDbSpline
210
0.0
220
0.0
230
1.0
 70
     8
 71
     3
 72
    11
 73
     7
 74
     0
 42
0.00000001
 43
0.00000001
 40
0.0
 40
0.0
 40
0.0
 40
0.0
 40
0.2300678902379471
 40
0.4806607869046779
 40
0.7407514884246522
 40
1.0
 40
1.0
 40
1.0
 40
1.0
 10
186.3365772933602
 20
138.862724198457
 30
0.0
 10
185.9741252028786
 20
139.064559510965
 30
0.0
 10
185.2168856469983
 20
139.4862364343934
 30
0.0
 10
183.9125436732437
 20
140.484753174842
 30
0.0
 10
182.578203325622
 20
141.8851150302099
 30
0.0
 10
182.051922701353
 20
143.2252231368982
 30
0.0
 10
181.7892091124839
 20
143.8941905925585
 30
0.0
  0
SPLINE
  5
10B
330
1F
100
AcDbEntity
  8
0
  6
Continuous
 62
     7
370
    25
100
AcDbSpline
210
0.0
220
0.0
230
1.0
 70
     8
 71
     3
 72
     9
 73
     5
 74
     0
 42
0.00000001
 43
0.00000001
 40
0.0
 40
0.0
 40
0.0
 40
0.0
 40
0.7717659860915973
 40
1.0
 40
1.0
 40
1.0
 40
1.0
 10
164.3135909440528
 20
146.8012260948282
 30
0.0
 10
164.3135444358706
 20
146.8068138389047
 30
0.0
 10
164.3134841738442
 20
146.814054044067
 30
0.0
 10
164.3827869235369
 20
146.7648437413162
 30
0.0
 10
164.3986041682742
 20
146.7536122763937
 30
0.0
  0
SPLINE
  5
10C
330
1F
100
AcDbEntity
  8
0
  6
Continuous
 62
     7
370
    25
100
AcDbSpline
210
0.0
220
0.0
230
1.0
 70
     8
 71
     3
 72
    12
 73
     8
 74
     0
 42
0.00000001
 43
0.00000001
 40
0.0
 40
0.0
 40
0.0
 40
0.0
 40
0.234498137146332
 40
0.4833864951092555
 40
0.6595361618104727
 40
0.8419705448353562
 40
1.0
 40
1.0
 40
1.0
 40
1.0
 10
173.2433596854725
 20
117.534410610968
 30
0.0
 10
174.5003475507184
 20
117.5325451980055
 30
0.0
 10
177.0914596421415
 20
117.5286998990837
 30
0.0
 10
180.5310262300867
 20
117.5513023417141
 30
0.0
 10
183.6073678649557
 20
117.5966176680772
 30
0.0
 10
186.1794856153491
 20
117.6536464762967
 30
0.0
 10
187.7678684069938
 20
117.7131543753834
 30
0.0
 10
188.5051310440224
 20
117.7407755198805
 30
0.0
  0
SPLINE
  5
10D
330
1F
100
AcDbEntity
  8
0
  6
Continuous
 62
     7
370
    25
100
AcDbSpline
210
0.0
220
0.0
230
1.0
 70
     8
 71
     3
 72
    11
 73
     7
 74
     0
 42
0.00000001
 43
0.00000001
 40
0.0
 40
0.0
 40
0.0
 40
0.0
 40
0.1723903985827962
 40
0.403898255281854
 40
0.6813450358577107
 40
1.0
 40
1.0
 40
1.0
 40
1.0
 10
158.022983148853
 20
117.7388410544182
 30
0.0
 10
158.9337142184603
 20
117.7040915724238
 30
0.0
 10
161.0674913491438
 20
117.6226760454289
 30
0.0
 10
164.5616023569801
 20
117.5284234740435
 30
0.0
 10
168.7398925944385
 20
117.4795750455087
 30
0.0
 10
171.6745795601022
 20
117.5153086738344
 30
0.0
 10
173.2433596854725
 20
117.534410610968
 30
0.0
  0
SPLINE
  5
10E
330
1F
100
AcDbEntity
  8
0
  6
Continuous
 62
     7
370
    25
100
AcDbSpline
210
0.0
220
0.0
230
1.0
 70
     8
 71
     3
 72
    10
 73
     6
 74
     0
 42
0.00000001
 43
0.00000001
 40
0.0
 40
0.0
 40
0.0
 40
0.0
 40
0.2809924891947067
 40
0.7332451602875987
 40
0.9999999999999999
 40
0.9999999999999999
 40
0.9999999999999999
 40
0.9999999999999999
 10
190.029323747953
 20
118.3744307789398
 30
0.0
 10
190.091235219078
 20
118.4553517876389
 30
0.0
 10
190.2527921585492
 20
118.6665137947242
 30
0.0
 10
190.3297564186569
 20
118.9212030922247
 30
0.0
 10
190.3468857455474
 20
119.0124638936407
 30
0.0
 10
190.353240798562
 20
119.0463220384973
 30
0.0
  0
LINE
  5
10F
330
1F
100
AcDbEntity
  8
0
  6
Continuous
 62
     7
370
    25
100
AcDbLine
 10
156.1427486319
 20
118.9245052183
 30
0.0
 11
156.1495471386
 21
118.893949367
 31
0.0
  0
SPLINE
  5
110
330
1F
100
AcDbEntity
  8
0
  6
Continuous
 62
     7
370
    25
100
AcDbSpline
210
0.0
220
0.0
230
1.0
 70
     8
 71
     3
 72
    11
 73
     7
 74
     0
 42
0.00000001
 43
0.00000001
 40
0.0
 40
0.0
 40
0.0
 40
0.0
 40
0.122057042939947
 40
0.410509913432352
 40
0.7042170489324574
 40
1.0
 40
1.0
 40
1.0
 40
1.0
 10
164.282572634007
 20
146.7971081474513
 30
0.0
 10
164.2952067817823
 20
146.7914607029486
 30
0.0
 10
164.3376987411533
 20
146.7724668628714
 30
0.0
 10
164.5596742849975
 20
146.6087875485141
 30
0.0
 10
164.8384133820462
 20
146.2093886687097
 30
0.0
 10
164.864503554332
 20
145.8601318329108
 30
0.0
 10
164.8775945771131
 20
145.6848884828918
 30
0.0
  0
SPLINE
  5
111
330
1F
100
AcDbEntity
  8
0
  6
Continuous
 62
     7
370
    25
100
AcDbSpline
210
0.0
220
0.0
230
1.0
 70
     8
 71
     3
 72
    11
 73
     7
 74
     0
 42
0.00000001
 43
0.00000001
 40
0.0
 40
0.0
 40
0.0
 40
0.0
 40
0.2767991042739272
 40
0.5751518405017368
 40
0.8459411880404546
 40
0.9999999999999999
 40
0.9999999999999999
 40
0.9999999999999999
 40
0.9999999999999999
 10
181.6147177316621
 20
145.682186578437
 30
0.0
 10
181.6231820554167
 20
145.8486940095205
 30
0.0
 10
181.640769797974
 20
146.1946743756641
 30
0.0
 10
181.9172247191164
 20
146.5975907913857
 30
0.0
 10
182.1477369820882
 20
146.7723593065348
 30
0.0
 10
182.1976420294719
 20
146.7948741507248
 30
0.0
 10
182.2157386414939
 20
146.8030385032583
 30
0.0
  0
LINE
  5
112
330
1F
100
AcDbEntity
  8
0
  6
Continuous
 62
     7
370
    25
100
AcDbLine
 10
181.6033265945
 20
145.4470075776
 30
0.0
 11
181.5990964781
 21
145.689350787
 31
0.0
  0
LINE
  5
113
330
1F
100
AcDbEntity
  8
0
  6
Continuous
 62
     7
370
    25
100
AcDbLine
 10
164.8875523509
 20
145.6853094399
 30
0.0
 11
164.8833927764
 21
145.4470075776
 31
0.0
  0
LINE
  5
114
330
1F
100
AcDbEntity
  8
0
  6
Continuous
 62
     7
370
    25
100
AcDbLine
 10
181.6237495808
 20
145.2184790258
 30
0.0
 11
181.6100325495
 21
145.5511791429
 31
0.0
  0
LINE
  5
115
330
1F
100
AcDbEntity
  8
0
  6
Continuous
 62
     7
370
    25
100
AcDbLine
 10
164.8725981157
 20
145.4520095141
 30
0.0
 11
164.8629697901
 21
145.2184790258
 31
0.0
  0
SPLINE
  5
116
330
1F
100
AcDbEntity
  8
0
  6
Continuous
 62
     7
370
    25
100
AcDbSpline
210
0.0
220
0.0
230
1.0
 70
     8
 71
     3
 72
    10
 73
     6
 74
     0
 42
0.00000001
 43
0.00000001
 40
0.0
 40
0.0
 40
0.0
 40
0.0
 40
0.2029939772462317
 40
0.8600720152410632
 40
1.0
 40
1.0
 40
1.0
 40
1.0
 10
189.2727195676134
 20
117.8134389962922
 30
0.0
 10
189.2869792576637
 20
117.8165308871791
 30
0.0
 10
189.3473966184381
 20
117.8296310237551
 30
0.0
 10
189.4579036891778
 20
117.8575879900576
 30
0.0
 10
189.5401480380971
 20
117.9067915378583
 30
0.0
 10
189.5545874346305
 20
117.9154300588859
 30
0.0
  0
SPLINE
  5
117
330
1F
100
AcDbEntity
  8
0
  6
Continuous
 62
     7
370
    25
100
AcDbSpline
210
0.0
220
0.0
230
1.0
 70
     8
 71
     3
 72
    10
 73
     6
 74
     0
 42
0.00000001
 43
0.00000001
 40
0.0
 40
0.0
 40
0.0
 40
0.0
 40
0.1193731823525293
 40
0.7908376601993689
 40
1.0
 40
1.0
 40
1.0
 40
1.0
 10
190.035614276313
 20
118.289427782873
 30
0.0
 10
190.0525183749168
 20
118.3056618215861
 30
0.0
 10
190.1645066584171
 20
118.4132110126059
 30
0.0
 10
190.2526674281837
 20
118.600122472276
 30
0.0
 10
190.3028131581372
 20
118.7664209164035
 30
0.0
 10
190.314723536061
 20
118.805919340687
 30
0.0
  0
SPLINE
  5
118
330
1F
100
AcDbEntity
  8
0
  6
Continuous
 62
     7
370
    25
100
AcDbSpline
210
0.0
220
0.0
230
1.0
 70
     8
 71
     3
 72
    13
 73
     9
 74
     0
 42
0.00000001
 43
0.00000001
 40
0.0
 40
0.0
 40
0.0
 40
0.0
 40
0.1357871917394604
 40
0.4010023584016167
 40
0.6309512542147455
 40
0.8231952350574878
 40
0.9780925644027836
 40
1.0
 40
1.0
 40
1.0
 40
1.0
 10
156.271300963287
 20
118.5991151730484
 30
0.0
 10
156.2915121247518
 20
118.5404348287698
 30
0.0
 10
156.3511990754107
 20
118.3671419272369
 30
0.0
 10
156.5542255200633
 20
118.1544693013082
 30
0.0
 10
156.8007909581131
 20
117.9679340663726
 30
0.0
 10
157.0248063450562
 20
117.865420343858
 30
0.0
 10
157.1625423787613
 20
117.823226044264
 30
0.0
 10
157.2079431241887
 20
117.8137459539987
 30
0.0
 10
157.2135686168434
 20
117.8125712997579
 30
0.0
  0
LINE
  5
119
330
1F
100
AcDbEntity
  8
0
  6
Continuous
 62
     7
370
    25
100
AcDbLine
 10
247.7433596838
 20
203.221968343
 30
0.0
 11
98.7433596838
 21
203.221968343
 31
0.0
  0
SPLINE
  5
11A
330
1F
100
AcDbEntity
  8
0
  6
Continuous
 62
     7
370
    25
100
AcDbSpline
210
0.0
220
0.0
230
1.0
 70
     8
 71
     3
 72
    12
 73
     8
 74
     0
 42
0.00000001
 43
0.00000001
 40
0.0
 40
0.0
 40
0.0
 40
0.0
 40
0.214300956048462
 40
0.4286019260458888
 40
0.6429027898229239
 40
0.8572036614667089
 40
1.0
 40
1.0
 40
1.0
 40
1.0
 10
165.1925103395508
 20
195.9830890149011
 30
0.0
 10
164.7611753611099
 20
195.9805158785661
 30
0.0
 10
163.8985053761523
 20
195.9753696057286
 30
0.0
 10
162.9237098472163
 20
195.9663095922552
 30
0.0
 10
162.2436205029026
 20
195.956558883993
 30
0.0
 10
161.8733957340898
 20
195.9474486060357
 30
0.0
 10
161.8753270985873
 20
195.9416597374255
 30
0.0
 10
161.8760994142782
 20
195.9393448796831
 30
0.0
  0
SPLINE
  5
11B
330
1F
100
AcDbEntity
  8
0
  6
Continuous
 62
     7
370
    25
100
AcDbSpline
210
0.0
220
0.0
230
1.0
 70
     8
 71
     3
 72
    21
 73
    17
 74
     0
 42
0.00000001
 43
0.00000001
 40
0.0
 40
0.0
 40
0.0
 40
0.0
 40
0.0509483233157735
 40
0.1225909136454842
 40
0.1942335012823518
 40
0.2658758719685988
 40
0.337518237967542
 40
0.4091598078125253
 40
0.4808013730301359
 40
0.5524419118262206
 40
0.6240824480829713
 40
0.6957221775096897
 40
0.7673619075978674
 40
0.8390014040465774
 40
0.91064090406742
 40
1.0
 40
1.0
 40
1.0
 40
1.0
 10
184.6133153270882
 20
195.9393438834129
 30
0.0
 10
184.6112194301048
 20
195.9418148282956
 30
0.0
 10
184.6061763215318
 20
195.9477603701901
 30
0.0
 10
184.2186633099028
 20
195.9570045933175
 30
0.0
 10
183.5277150829032
 20
195.9667464347626
 30
0.0
 10
182.5272825472281
 20
195.9756938261559
 30
0.0
 10
181.2718173697506
 20
195.983631149729
 30
0.0
 10
179.7829246062998
 20
195.9902856388297
 30
0.0
 10
178.1124387192281
 20
195.9955241633657
 30
0.0
 10
176.3008554791608
 20
195.9991352356666
 30
0.0
 10
174.404208117656
 20
196.0010847870179
 30
0.0
 10
172.4742609425691
 20
196.0012441182478
 30
0.0
 10
170.5644776719603
 20
195.9996897433515
 30
0.0
 10
168.7368952566996
 20
195.9963617536582
 30
0.0
 10
166.8757185236012
 20
195.9911477076261
 30
0.0
 10
165.7932906090124
 20
195.9859653694915
 30
0.0
 10
165.1925103395508
 20
195.9830890149011
 30
0.0
  0
LWPOLYLINE
  5
11C
330
1F
100
AcDbEntity
  8
0
  6
Continuous
 62
     7
370
    25
100
AcDbPolyline
 90
       28
 70
   128
 43
0.0
 10
151.0629077878
 20
160.8163182629
 10
151.3509783687
 20
160.3818904128
 10
151.9542808309
 20
159.8405359421
 10
152.8160038715
 20
159.317548106
 10
153.92568734
 20
158.8192752686
 10
155.2698611824
 20
158.351765787
 10
156.8322089491
 20
157.9206945931
 10
158.5937658546
 20
157.5312943072
 10
160.5331489843
 20
157.1882917213
 10
162.6268168543
 20
156.8958504221
 10
164.8493551727
 20
156.6575202508
 10
167.173785335
 20
156.476194213
 10
169.571891908
 20
156.354073361
 10
172.0145651262
 20
156.2926400766
 10
174.4721542458
 20
156.2926400766
 10
176.9148274641
 20
156.354073361
 10
179.312934037
 20
156.476194213
 10
181.6373641993
 20
156.6575202508
 10
183.8599025177
 20
156.8958504221
 10
185.9535703877
 20
157.1882917213
 10
187.8929535174
 20
157.5312943072
 10
189.6545104229
 20
157.9206945931
 10
191.2168581896
 20
158.351765787
 10
192.561032032
 20
158.8192752686
 10
193.6707155006
 20
159.317548106
 10
194.5324385411
 20
159.8405359421
 10
195.1357410034
 20
160.3818904128
 10
195.4238115842
 20
160.8163182629
  0
LWPOLYLINE
  5
11D
330
1F
100
AcDbEntity
  8
0
  6
Continuous
 62
     7
370
    25
100
AcDbPolyline
 90
       35
 70
   128
 43
0.0
 10
197.0270740487
 20
162.0418101414
 10
197.2516774049
 20
161.6755028803
 10
197.3839219307
 20
161.1021113627
 10
197.2516774049
 20
160.528719845
 10
196.856392726
 20
159.9616105248
 10
196.2023987158
 20
159.4069967704
 10
195.2968606696
 20
158.8709550463
 10
194.1496998515
 20
158.3593583376
 10
192.7734847956
 20
157.877811805
 10
191.1832936021
 20
157.4315913731
 10
189.3965487385
 20
157.0255859264
 10
187.4328261553
 20
156.6642437453
 10
185.3136408081
 20
156.3515237706
 10
183.0622109351
 20
156.0908522277
 10
180.703203673
 20
155.8850850885
 10
178.2624647992
 20
155.7364767809
 10
175.7667355594
 20
155.6466554886
 10
173.2433596855
 20
155.6166053125
 10
170.7199838116
 20
155.6466554886
 10
168.2242545718
 20
155.7364767809
 10
165.7835156979
 20
155.8850850885
 10
163.4245084359
 20
156.0908522277
 10
161.1730785628
 20
156.3515237706
 10
159.0538932157
 20
156.6642437453
 10
157.0901706325
 20
157.0255859264
 10
155.3034257688
 20
157.4315913731
 10
153.7132345753
 20
157.877811805
 10
152.3370195194
 20
158.3593583376
 10
151.1898587014
 20
158.8709550463
 10
150.2843206551
 20
159.4069967704
 10
149.6303266449
 20
159.9616105248
 10
149.2350419661
 20
160.528719845
 10
149.1027974402
 20
161.1021113627
 10
149.2350419661
 20
161.6755028803
 10
149.4753027353
 20
162.0620475632
  0
LWPOLYLINE
  5
11E
330
1F
100
AcDbEntity
  8
0
  6
Continuous
 62
     7
370
    25
100
AcDbPolyline
 90
       17
 70
   128
 43
0.0
 10
173.2433596855
 20
155.9331123324
 10
175.7476912132
 20
155.9629357148
 10
178.2245847606
 20
156.0520791105
 10
180.6469029637
 20
156.199565846
 10
182.9881063973
 20
156.4037800256
 10
185.2225443468
 20
156.6624842361
 10
187.3257358423
 20
156.9728440601
 10
189.2746378777
 20
157.3314591303
 10
191.0478978745
 20
157.7344003851
 10
192.626087625
 20
158.1772531156
 10
193.9919161521
 20
158.6551653347
 10
195.1304191527
 20
159.1629009361
 10
196.0291229496
 20
159.6948970624
 10
196.6781811559
 20
160.2453250525
 10
197.0704825542
 20
160.8081543024
 10
197.2017290081
 20
161.3772183369
 10
197.1780551374
 20
161.6191764943
  0
ARC
  5
11F
330
1F
100
AcDbEntity
  8
0
  6
Continuous
 62
     7
370
    25
100
AcDbCircle
 10
194.8968972202
 20
160.9026464192
 30
0.0
 40
2.407323797931876
100
AcDbArc
 50
22.5106336056
 51
55.0042048356
  0
ARC
  5
120
330
1F
100
AcDbEntity
  8
0
  6
Continuous
 62
     7
370
    25
100
AcDbCircle
 10
151.6086841175
 20
160.8840787977
 30
0.0
 40
2.43335667011256
100
AcDbArc
 50
125.1088813649
 51
156.4773877078
  0
LWPOLYLINE
  5
121
330
1F
100
AcDbEntity
  8
0
  6
Continuous
 62
     7
370
    25
100
AcDbPolyline
 90
       17
 70
   128
 43
0.0
 10
149.3128649935
 20
161.6397557164
 10
149.2849903628
 20
161.3772183369
 10
149.4162368168
 20
160.8081543024
 10
149.808538215
 20
160.2453250525
 10
150.4575964214
 20
159.6948970624
 10
151.3563002182
 20
159.1629009361
 10
152.4948032188
 20
158.6551653347
 10
153.8606317459
 20
158.1772531156
 10
155.4388214965
 20
157.7344003851
 10
157.2120814932
 20
157.3314591303
 10
159.1609835286
 20
156.9728440601
 10
161.2641750242
 20
156.6624842361
 10
163.4986129736
 20
156.4037800256
 10
165.8398164073
 20
156.199565846
 10
168.2621346104
 20
156.0520791105
 10
170.7390281578
 20
155.9629357148
 10
173.2433596855
 20
155.9331123324
  0
LINE
  5
122
330
1F
100
AcDbEntity
  8
0
  6
Continuous
 62
     7
370
    25
100
AcDbLine
 10
164.2209097226
 20
146.8352374906
 30
0.0
 11
164.3168241477
 21
146.8141793684
 31
0.0
  0
LINE
  5
123
330
1F
100
AcDbEntity
  8
0
  6
Continuous
 62
     7
370
    25
100
AcDbLine
 10
186.2992319533
 20
138.8512774233
 30
0.0
 11
186.1726310725
 21
138.9229243224
 31
0.0
  0
LINE
  5
124
330
1F
100
AcDbEntity
  8
0
  6
Continuous
 62
     7
370
    25
100
AcDbLine
 10
156.1070494122
 20
133.4229862631
 30
0.0
 11
156.0433048166
 21
132.9875567107
 31
0.0
  0
LINE
  5
125
330
1F
100
AcDbEntity
  8
0
  6
Continuous
 62
     7
370
    25
100
AcDbLine
 10
160.1874874177
 20
138.8512774233
 30
0.0
 11
160.3140882984
 21
138.9229243224
 31
0.0
  0
LINE
  5
126
330
1F
100
AcDbEntity
  8
0
  6
Continuous
 62
     7
370
    25
100
AcDbLine
 10
164.6715151898
 20
143.8957395807
 30
0.0
 11
164.6194652092
 21
143.7251902449
 31
0.0
  0
LINE
  5
127
330
1F
100
AcDbEntity
  8
0
  6
Continuous
 62
     7
370
    25
100
AcDbLine
 10
181.8152041812
 20
143.8957395807
 30
0.0
 11
181.8672541617
 21
143.7251902449
 31
0.0
  0
LINE
  5
128
330
1F
100
AcDbEntity
  8
0
  6
Continuous
 62
     7
370
    25
100
AcDbLine
 10
164.1010514948
 20
146.8807123331
 30
0.0
 11
164.3826315794
 21
146.7244786206
 31
0.0
  0
SPLINE
  5
129
330
1F
100
AcDbEntity
  8
0
  6
Continuous
 62
     7
370
    25
100
AcDbSpline
210
0.0
220
0.0
230
1.0
 70
     8
 71
     3
 72
    10
 73
     6
 74
     0
 42
0.00000001
 43
0.00000001
 40
0.0
 40
0.0
 40
0.0
 40
0.0
 40
0.1238185827848278
 40
0.6241529027374821
 40
1.0
 40
1.0
 40
1.0
 40
1.0
 10
189.0285600310376
 20
117.7848021493022
 30
0.0
 10
189.0263169184761
 20
117.7828163104021
 30
0.0
 10
189.0150096882932
 20
117.7728059623103
 30
0.0
 10
188.92318655743
 20
117.7565916482378
 30
0.0
 10
188.6305657369189
 20
117.7472511210439
 30
0.0
 10
188.5050430040387
 20
117.7432444051246
 30
0.0
  0
SPLINE
  5
12A
330
1F
100
AcDbEntity
  8
0
  6
Continuous
 62
     7
370
    25
100
AcDbSpline
210
0.0
220
0.0
230
1.0
 70
     8
 71
     3
 72
    10
 73
     6
 74
     0
 42
0.00000001
 43
0.00000001
 40
0.0
 40
0.0
 40
0.0
 40
0.0
 40
0.1183607762541244
 40
0.5966408305420036
 40
1.0
 40
1.0
 40
1.0
 40
1.0
 10
157.4581593399074
 20
117.7848021493022
 30
0.0
 10
157.4603706979277
 20
117.7828155820965
 30
0.0
 10
157.4715178577183
 20
117.7728015627139
 30
0.0
 10
157.5713639971212
 20
117.755926480563
 30
0.0
 10
157.8812915968895
 20
117.7461381129943
 30
0.0
 10
158.023086716557
 20
117.7416598324159
 30
0.0
  0
SPLINE
  5
12B
330
1F
100
AcDbEntity
  8
0
  6
Continuous
 62
     7
370
    25
100
AcDbSpline
210
0.0
220
0.0
230
1.0
 70
     8
 71
     3
 72
    16
 73
    12
 74
     0
 42
0.00000001
 43
0.00000001
 40
0.0
 40
0.0
 40
0.0
 40
0.0
 40
0.017754993578508
 40
0.1155729993584621
 40
0.3112536388385743
 40
0.4090718953684938
 40
0.6047526522326303
 40
0.7025706323872323
 40
0.8003923758180009
 40
0.9001419846974695
 40
1.0
 40
1.0
 40
1.0
 40
1.0
 10
190.3844143163458
 20
119.3063656510567
 30
0.0
 10
190.386476261145
 20
119.3228706650084
 30
0.0
 10
190.3998981271633
 20
119.4303071424373
 30
0.0
 10
190.4306027505619
 20
119.9059481802987
 30
0.0
 10
190.4596764901782
 20
120.8606040290693
 30
0.0
 10
190.4815416547997
 20
122.5612119082551
 30
0.0
 10
190.4883326217931
 20
124.3191581430145
 30
0.0
 10
190.4845298424112
 20
126.4531411091359
 30
0.0
 10
190.4762949350852
 20
128.2947818787254
 30
0.0
 10
190.4631342427819
 20
130.4011510893317
 30
0.0
 10
190.4499901633035
 20
132.0322879193781
 30
0.0
 10
190.4434145543053
 20
132.848299267656
 30
0.0
  0
ARC
  5
12C
330
1F
100
AcDbEntity
  8
0
  6
Continuous
 62
     7
370
    25
100
AcDbCircle
 10
188.9683986547
 20
119.1831994005
 30
0.0
 40
1.399690774173235
100
AcDbArc
 50
272.4634406712
 51
344.348505799
  0
ARC
  5
12D
330
1F
100
AcDbEntity
  8
0
  6
Continuous
 62
     7
370
    25
100
AcDbCircle
 10
157.5183124548
 20
119.1831803564
 30
0.0
 40
1.399671392669258
100
AcDbArc
 50
191.9406464126
 51
267.5368636901
  0
SPLINE
  5
12E
330
1F
100
AcDbEntity
  8
0
  6
Continuous
 62
     7
370
    25
100
AcDbSpline
210
0.0
220
0.0
230
1.0
 70
     8
 71
     3
 72
    24
 73
    20
 74
     0
 42
0.00000001
 43
0.00000001
 40
0.0
 40
0.0
 40
0.0
 40
0.0
 40
0.03125
 40
0.03125
 40
0.0625000000000001
 40
0.0625000000000001
 40
0.1250000000000001
 40
0.1250000000000001
 40
0.2500000000000001
 40
0.2500000000000001
 40
0.4999999999999999
 40
0.4999999999999999
 40
0.6249999999999997
 40
0.6249999999999997
 40
0.7499999999999998
 40
0.7499999999999998
 40
0.8749999999999999
 40
0.8749999999999999
 40
1.0
 40
1.0
 40
1.0
 40
1.0
 10
156.1186737565089
 20
119.1829699916786
 30
0.0
 10
156.1146304231144
 20
119.203782815288
 30
0.0
 10
156.1106942582168
 20
119.2313902239671
 30
0.0
 10
156.1030616776957
 20
119.2910193065343
 30
0.0
 10
156.0993582297945
 20
119.3245540797941
 30
0.0
 10
156.0885703290832
 20
119.4359019117672
 30
0.0
 10
156.0818046419509
 20
119.5246329958921
 30
0.0
 10
156.0626612488841
 20
119.8350823375552
 30
0.0
 10
156.0514544456727
 20
120.1006980119366
 30
0.0
 10
156.0228826396825
 20
121.0736087421188
 30
0.0
 10
156.0104974123103
 20
121.9574303348672
 30
0.0
 10
156.001473413748
 20
123.6345016952465
 30
0.0
 10
156.0000631662008
 20
124.2527064583799
 30
0.0
 10
156.0003946608893
 20
125.6035559111485
 30
0.0
 10
156.0021421777699
 20
126.3328649081933
 30
0.0
 10
156.0087423223772
 20
127.9356083046223
 30
0.0
 10
156.0135930061136
 20
128.8127915368257
 30
0.0
 10
156.0262530620596
 20
130.7191957240234
 30
0.0
 10
156.0340804871365
 20
131.7474031102079
 30
0.0
 10
156.043304816638
 20
132.8482992683872
 30
0.0
  0
SPLINE
  5
12F
330
1F
100
AcDbEntity
  8
0
  6
Continuous
 62
     7
370
    25
100
AcDbSpline
210
0.0
220
0.0
230
1.0
 70
     8
 71
     3
 72
     9
 73
     5
 74
     0
 42
0.00000001
 43
0.00000001
 40
0.0
 40
0.0
 40
0.0
 40
0.0
 40
0.7385275657842083
 40
1.0
 40
1.0
 40
1.0
 40
1.0
 10
190.4434145543053
 20
132.9875567106549
 30
0.0
 10
190.4533805202115
 20
131.77436372267
 30
0.0
 10
190.466874892484
 20
130.131645096864
 30
0.0
 10
190.4726806342591
 20
128.8684195484674
 30
0.0
 10
190.4741986756935
 20
128.5381208893646
 30
0.0
  0
SPLINE
  5
130
330
1F
100
AcDbEntity
  8
0
  6
Continuous
 62
     7
370
    25
100
AcDbSpline
210
0.0
220
0.0
230
1.0
 70
     8
 71
     3
 72
     9
 73
     5
 74
     0
 42
0.00000001
 43
0.00000001
 40
0.0
 40
0.0
 40
0.0
 40
0.0
 40
0.7383795666433278
 40
1.0
 40
1.0
 40
1.0
 40
1.0
 10
156.043304816638
 20
132.9875567106549
 30
0.0
 10
156.033339130858
 20
131.7743775490506
 30
0.0
 10
156.0198424331835
 20
130.1313483857174
 30
0.0
 10
156.0140359070983
 20
128.8678883645333
 30
0.0
 10
156.0125168012275
 20
128.5373414062623
 30
0.0
  0
LINE
  5
131
330
1F
100
AcDbEntity
  8
0
  6
Continuous
 62
     8
370
    18
100
AcDbLine
 10
246.5961126281
 20
196.2118002546
 30
0.0
 11
99.8906067395
 21
196.2118002546
 31
0.0
  0
LINE
  5
132
330
1F
100
AcDbEntity
  8
0
  6
Continuous
 62
     8
370
    18
100
AcDbLine
 10
184.0177058178
 20
187.1056687506
 30
0.0
 11
162.4690135457
 21
187.1056687506
 31
0.0
  0
LINE
  5
133
330
1F
100
AcDbEntity
  8
0
  6
Continuous
 62
     8
370
    18
100
AcDbLine
 10
196.8174890919
 20
171.221968343
 30
0.0
 11
148.743359686
 21
171.221968343
 31
0.0
  0
LINE
  5
134
330
1F
100
AcDbEntity
  8
0
  6
Continuous
 62
     8
370
    18
100
AcDbLine
 10
197.743359686
 20
171.221968343
 30
0.0
 11
196.8174890919
 21
171.221968343
 31
0.0
  0
LINE
  5
135
330
1F
100
AcDbEntity
  8
0
  6
Continuous
 62
     8
370
    18
100
AcDbLine
 10
197.1780551374
 20
161.6191764943
 30
0.0
 11
197.1208033921
 21
161.8243021068
 31
0.0
  0
LINE
  5
136
330
1F
100
AcDbEntity
  8
0
  6
Continuous
 62
     8
370
    18
100
AcDbLine
 10
149.3775329794
 20
161.8552581236
 30
0.0
 11
149.3128649935
 21
161.6397557164
 31
0.0
  0
SPLINE
  5
137
330
1F
100
AcDbEntity
  8
0
  6
Continuous
 62
     8
370
    18
100
AcDbSpline
210
0.0
220
0.0
230
1.0
 70
     8
 71
     3
 72
    13
 73
     9
 74
     0
 42
0.00000001
 43
0.00000001
 40
0.0
 40
0.0
 40
0.0
 40
0.0
 40
0.1368281702914433
 40
0.3154064455198562
 40
0.5037418094129595
 40
0.6259631071450014
 40
0.7524474357190658
 40
1.0
 40
1.0
 40
1.0
 40
1.0
 10
164.3168241476743
 20
146.814179368447
 30
0.0
 10
164.4620064806752
 20
146.774957835025
 30
0.0
 10
164.7966703405118
 20
146.6845471804197
 30
0.0
 10
165.708812557242
 20
146.6442783021491
 30
0.0
 10
167.0505172283796
 20
146.6041087930857
 30
0.0
 10
168.6602132611553
 20
146.501413394392
 30
0.0
 10
170.6076771933612
 20
146.4170460505334
 30
0.0
 10
172.1959473599467
 20
146.4019863297848
 30
0.0
 10
173.247128032281
 20
146.3920192047234
 30
0.0
  0
SPLINE
  5
138
330
1F
100
AcDbEntity
  8
0
  6
Continuous
 62
     8
370
    18
100
AcDbSpline
210
0.0
220
0.0
230
1.0
 70
     8
 71
     3
 72
    13
 73
     9
 74
     0
 42
0.00000001
 43
0.00000001
 40
0.0
 40
0.0
 40
0.0
 40
0.0
 40
0.2409311309364704
 40
0.3603161593600445
 40
0.4829788291534128
 40
0.6662766768242868
 40
0.8988537940983029
 40
1.0
 40
1.0
 40
1.0
 40
1.0
 10
173.2395913386622
 20
146.3920192047234
 30
0.0
 10
174.2908759388791
 20
146.4020244504951
 30
0.0
 10
175.8630879982846
 20
146.4169874472483
 30
0.0
 10
177.8114339603326
 20
146.5004300979761
 30
0.0
 10
179.4258041216053
 20
146.6040891885231
 30
0.0
 10
180.9419804196172
 20
146.6467271203536
 30
0.0
 10
181.8299543717265
 20
146.7007356652892
 30
0.0
 10
182.1676971387733
 20
146.8036475129907
 30
0.0
 10
182.2700615738761
 20
146.8348384493576
 30
0.0
  0
SPLINE
  5
139
330
1F
100
AcDbEntity
  8
0
  6
Continuous
 62
     8
370
    18
100
AcDbSpline
210
0.0
220
0.0
230
1.0
 70
     8
 71
     3
 72
    38
 73
    34
 74
     0
 42
0.00000001
 43
0.00000001
 40
0.0
 40
0.0
 40
0.0
 40
0.0
 40
0.03125
 40
0.03125
 40
0.0625
 40
0.0625
 40
0.125
 40
0.125
 40
0.1875
 40
0.1875
 40
0.2499999999999999
 40
0.2499999999999999
 40
0.3124999999999999
 40
0.3124999999999999
 40
0.3749999999999998
 40
0.3749999999999998
 40
0.4999999999999995
 40
0.4999999999999995
 40
0.5624999999999994
 40
0.5624999999999994
 40
0.6249999999999994
 40
0.6249999999999994
 40
0.7499999999999998
 40
0.7499999999999998
 40
0.8125
 40
0.8125
 40
0.8750000000000003
 40
0.8750000000000003
 40
0.9375000000000007
 40
0.9375000000000007
 40
0.9687500000000003
 40
0.9687500000000003
 40
1.0
 40
1.0
 40
1.0
 40
1.0
 10
173.2433596854715
 20
136.8332800168476
 30
0.0
 10
172.9834762315144
 20
136.8332798090434
 30
0.0
 10
172.7210508890939
 20
136.8307799910781
 30
0.0
 10
172.2009987788967
 20
136.8209291823044
 30
0.0
 10
171.9417188221964
 20
136.813578273067
 30
0.0
 10
171.166083193007
 20
136.7843991934001
 30
0.0
 10
170.6519247627253
 20
136.7554671779674
 30
0.0
 10
169.6294610269963
 20
136.6788924497653
 30
0.0
 10
169.1232591964302
 20
136.63131880771
 30
0.0
 10
168.1348033423648
 20
136.5196681068929
 30
0.0
 10
167.6504144872357
 20
136.4554396365594
 30
0.0
 10
166.7011466181196
 20
136.310502305964
 30
0.0
 10
166.2362604457967
 20
136.2297996838043
 30
0.0
 10
165.3259034990818
 20
136.0524423202762
 30
0.0
 10
164.8780987092786
 20
135.9551980270366
 30
0.0
 10
163.5844240449971
 20
135.64428707748
 30
0.0
 10
162.7892380993964
 20
135.4126327920475
 30
0.0
 10
161.6962506591853
 20
135.031665596687
 30
0.0
 10
161.3487053038808
 20
134.8990381382225
 30
0.0
 10
160.687594861287
 20
134.6227983159428
 30
0.0
 10
160.3760810247428
 20
134.47990435261
 30
0.0
 10
159.5125519761873
 20
134.0451197288985
 30
0.0
 10
159.0239252067712
 20
133.74446719532
 30
0.0
 10
158.4237331136995
 20
133.2792637272229
 30
0.0
 10
158.2460291961606
 20
133.1217833109753
 30
0.0
 10
157.9370045837971
 20
132.8018685855699
 30
0.0
 10
157.8064414195401
 20
132.6398783087846
 30
0.0
 10
157.5979264920622
 20
132.3180302149836
 30
0.0
 10
157.5191055874839
 20
132.1573260712543
 30
0.0
 10
157.4391290693338
 20
131.9166726185455
 30
0.0
 10
157.4188586568133
 20
131.8365221814337
 30
0.0
 10
157.391264327486
 20
131.6763714628062
 30
0.0
 10
157.3839360151741
 20
131.5958435556524
 30
0.0
 10
157.3832271087059
 20
131.5164549900254
 30
0.0
  0
ARC
  5
13A
330
1F
100
AcDbEntity
  8
0
  6
Continuous
 62
     8
370
    18
100
AcDbCircle
 10
157.4086829212
 20
132.8819736922
 30
0.0
 40
1.365755953590204
100
AcDbArc
 50
181.3652094431
 51
268.9320239056
  0
SPLINE
  5
13B
330
1F
100
AcDbEntity
  8
0
  6
Continuous
 62
     8
370
    18
100
AcDbSpline
210
0.0
220
0.0
230
1.0
 70
     8
 71
     3
 72
    30
 73
    26
 74
     0
 42
0.00000001
 43
0.00000001
 40
0.0
 40
0.0
 40
0.0
 40
0.0
 40
0.1250000000000005
 40
0.1250000000000005
 40
0.1875000000000005
 40
0.1875000000000005
 40
0.2500000000000005
 40
0.2500000000000005
 40
0.3750000000000001
 40
0.3750000000000001
 40
0.4375000000000001
 40
0.4375000000000001
 40
0.5000000000000001
 40
0.5000000000000001
 40
0.6250000000000002
 40
0.6250000000000002
 40
0.6875000000000002
 40
0.6875000000000002
 40
0.7500000000000001
 40
0.7500000000000001
 40
0.8125000000000001
 40
0.8125000000000001
 40
0.875
 40
0.875
 40
1.0
 40
1.0
 40
1.0
 40
1.0
 10
156.0433146497761
 20
132.849434358328
 30
0.0
 10
156.0464359630089
 20
133.1951407363229
 30
0.0
 10
156.163903274153
 20
133.5445300494711
 30
0.0
 10
156.5049552001509
 20
134.0721010662541
 30
0.0
 10
156.6473035895606
 20
134.2494805907853
 30
0.0
 10
156.9840537084172
 20
134.6001297084767
 30
0.0
 10
157.1776283704579
 20
134.7729113778816
 30
0.0
 10
157.8311258603937
 20
135.2834130973285
 30
0.0
 10
158.3627938191215
 20
135.6134426275393
 30
0.0
 10
159.3018715964788
 20
136.0898115671715
 30
0.0
 10
159.6406198143085
 20
136.2462399832903
 30
0.0
 10
160.3589067855032
 20
136.5480430517666
 30
0.0
 10
160.7363970738002
 20
136.6927166542498
 30
0.0
 10
161.9231310545012
 20
137.1075209729166
 30
0.0
 10
162.7859554342271
 20
137.3586823365066
 30
0.0
 10
164.1888744202079
 20
137.6943211427412
 30
0.0
 10
164.6740814692073
 20
137.7989673958249
 30
0.0
 10
165.6603636460551
 20
137.9894222676719
 30
0.0
 10
166.1639260009803
 20
138.0758534299089
 30
0.0
 10
167.1919469500814
 20
138.230722989071
 30
0.0
 10
167.7164077282828
 20
138.2991675225449
 30
0.0
 10
168.7864120664223
 20
138.4178752266085
 30
0.0
 10
169.3342947980326
 20
138.4682983059379
 30
0.0
 10
170.9934688067919
 20
138.5897212824196
 30
0.0
 10
172.1119766441653
 20
138.6310303432786
 30
0.0
 10
173.2433596854715
 20
138.6310303432785
 30
0.0
  0
SPLINE
  5
13C
330
1F
100
AcDbEntity
  8
0
  6
Continuous
 62
     8
370
    18
100
AcDbSpline
210
0.0
220
0.0
230
1.0
 70
     8
 71
     3
 72
    30
 73
    26
 74
     0
 42
0.00000001
 43
0.00000001
 40
0.0
 40
0.0
 40
0.0
 40
0.0
 40
0.1249999999999988
 40
0.1249999999999988
 40
0.1874999999999983
 40
0.1874999999999983
 40
0.2499999999999977
 40
0.2499999999999977
 40
0.374999999999997
 40
0.374999999999997
 40
0.4374999999999971
 40
0.4374999999999971
 40
0.4999999999999972
 40
0.4999999999999972
 40
0.6249999999999983
 40
0.6249999999999983
 40
0.6874999999999988
 40
0.6874999999999988
 40
0.7499999999999991
 40
0.7499999999999991
 40
0.8124999999999994
 40
0.8124999999999994
 40
0.8749999999999997
 40
0.8749999999999997
 40
1.0
 40
1.0
 40
1.0
 40
1.0
 10
190.4434047211671
 20
132.849434358328
 30
0.0
 10
190.4402834079344
 20
133.1951407363229
 30
0.0
 10
190.3228160967902
 20
133.544530049471
 30
0.0
 10
189.9817641707923
 20
134.0721010662539
 30
0.0
 10
189.8394157813826
 20
134.2494805907856
 30
0.0
 10
189.502665662526
 20
134.600129708477
 30
0.0
 10
189.3090910004853
 20
134.7729113778817
 30
0.0
 10
188.6555935105494
 20
135.2834130973288
 30
0.0
 10
188.1239255518217
 20
135.6134426275387
 30
0.0
 10
187.1848477744643
 20
136.0898115671713
 30
0.0
 10
186.8460995566346
 20
136.2462399832904
 30
0.0
 10
186.1278125854399
 20
136.5480430517667
 30
0.0
 10
185.7503222971428
 20
136.69271665425
 30
0.0
 10
184.5635883164418
 20
137.1075209729169
 30
0.0
 10
183.7007639367159
 20
137.3586823365065
 30
0.0
 10
182.2978449507351
 20
137.6943211427411
 30
0.0
 10
181.8126379017357
 20
137.7989673958252
 30
0.0
 10
180.8263557248879
 20
137.9894222676721
 30
0.0
 10
180.3227933699627
 20
138.0758534299086
 30
0.0
 10
179.2947724208616
 20
138.2307229890707
 30
0.0
 10
178.7703116426601
 20
138.2991675225451
 30
0.0
 10
177.7003073045206
 20
138.4178752266089
 30
0.0
 10
177.1524245729103
 20
138.4682983059374
 30
0.0
 10
175.493250564151
 20
138.5897212824189
 30
0.0
 10
174.3747427267776
 20
138.6310303432786
 30
0.0
 10
173.2433596854715
 20
138.6310303432785
 30
0.0
  0
ARC
  5
13D
330
1F
100
AcDbEntity
  8
0
  6
Continuous
 62
     8
370
    18
100
AcDbCircle
 10
189.0780364498
 20
132.8819736922
 30
0.0
 40
1.365755953590233
100
AcDbArc
 50
271.0679760944
 51
358.6347905569
  0
SPLINE
  5
13E
330
1F
100
AcDbEntity
  8
0
  6
Continuous
 62
     8
370
    18
100
AcDbSpline
210
0.0
220
0.0
230
1.0
 70
     8
 71
     3
 72
    38
 73
    34
 74
     0
 42
0.00000001
 43
0.00000001
 40
0.0
 40
0.0
 40
0.0
 40
0.0
 40
0.03125
 40
0.03125
 40
0.0625
 40
0.0625
 40
0.125
 40
0.125
 40
0.1875000000000001
 40
0.1875000000000001
 40
0.2500000000000003
 40
0.2500000000000003
 40
0.3125000000000005
 40
0.3125000000000005
 40
0.3750000000000006
 40
0.3750000000000006
 40
0.5000000000000013
 40
0.5000000000000013
 40
0.5625000000000017
 40
0.5625000000000017
 40
0.6250000000000019
 40
0.6250000000000019
 40
0.7500000000000016
 40
0.7500000000000016
 40
0.8125000000000014
 40
0.8125000000000014
 40
0.8750000000000013
 40
0.8750000000000013
 40
0.9375000000000011
 40
0.9375000000000011
 40
0.9687500000000006
 40
0.9687500000000006
 40
1.0
 40
1.0
 40
1.0
 40
1.0
 10
173.2433596854715
 20
136.8332800168476
 30
0.0
 10
173.5032431394296
 20
136.8332800167608
 30
0.0
 10
173.7656684818491
 20
136.830779991078
 30
0.0
 10
174.2857205920463
 20
136.8209291823044
 30
0.0
 10
174.5450005487465
 20
136.8135782730669
 30
0.0
 10
175.3206361779359
 20
136.7843991934
 30
0.0
 10
175.8347946082176
 20
136.7554671779673
 30
0.0
 10
176.8572583439467
 20
136.6788924497653
 30
0.0
 10
177.3634601745128
 20
136.6313188077099
 30
0.0
 10
178.3519160285781
 20
136.519668106893
 30
0.0
 10
178.8363048837073
 20
136.4554396365595
 30
0.0
 10
179.7855727528234
 20
136.3105023059641
 30
0.0
 10
180.2504589251463
 20
136.2297996838044
 30
0.0
 10
181.1608158718612
 20
136.0524423202763
 30
0.0
 10
181.6086206616644
 20
135.9551980270366
 30
0.0
 10
182.9022953259459
 20
135.6442870774799
 30
0.0
 10
183.6974812715466
 20
135.4126327920475
 30
0.0
 10
184.7904687117577
 20
135.0316655966869
 30
0.0
 10
185.1380140670624
 20
134.8990381382227
 30
0.0
 10
185.7991245096561
 20
134.6227983159428
 30
0.0
 10
186.1106383462003
 20
134.4799043526101
 30
0.0
 10
186.9741673947559
 20
134.0451197288986
 30
0.0
 10
187.4627941641719
 20
133.7444671953199
 30
0.0
 10
188.0629862572436
 20
133.279263727223
 30
0.0
 10
188.2406901747825
 20
133.1217833109754
 30
0.0
 10
188.549714787146
 20
132.80186858557
 30
0.0
 10
188.6802779514031
 20
132.6398783087847
 30
0.0
 10
188.888792878881
 20
132.3180302149836
 30
0.0
 10
188.9676137834594
 20
132.1573260712542
 30
0.0
 10
189.0475903016095
 20
131.9166726185455
 30
0.0
 10
189.06786071413
 20
131.8365221814338
 30
0.0
 10
189.0954550434573
 20
131.6763714628064
 30
0.0
 10
189.1027838561969
 20
131.5958436044659
 30
0.0
 10
189.1034922622374
 20
131.5164549900254
 30
0.0
  0
LINE
  5
13F
330
1F
100
AcDbEntity
  8
0
  6
Continuous
 62
     8
370
    18
100
AcDbLine
 10
190.4434145543
 20
132.8482992677
 30
0.0
 11
190.4434047212
 21
132.8494343583
 31
0.0
  0
SPLINE
  5
140
330
1F
100
AcDbEntity
  8
0
  6
Continuous
 62
     8
370
    18
100
AcDbSpline
210
0.0
220
0.0
230
1.0
 70
     8
 71
     3
 72
    13
 73
     9
 74
     0
 42
0.00000001
 43
0.00000001
 40
0.0
 40
0.0
 40
0.0
 40
0.0
 40
0.1123140913323579
 40
0.2899907486844741
 40
0.4674965856254172
 40
0.6450716212328756
 40
0.8225800458611995
 40
1.0
 40
1.0
 40
1.0
 40
1.0
 10
186.1726310725034
 20
138.922924322396
 30
0.0
 10
185.886488189914
 20
139.0959689943113
 30
0.0
 10
185.1476780569335
 20
139.5427638120345
 30
0.0
 10
183.4713653130749
 20
140.179515682209
 30
0.0
 10
181.2777095756931
 20
140.8061018303446
 30
0.0
 10
178.7784054727346
 20
141.2844949874442
 30
0.0
 10
176.0748828855787
 20
141.6138476148455
 30
0.0
 10
174.1870438960779
 20
141.6583655155949
 30
0.0
 10
173.2433596854715
 20
141.6806189176382
 30
0.0
  0
SPLINE
  5
141
330
1F
100
AcDbEntity
  8
0
  6
Continuous
 62
     8
370
    18
100
AcDbSpline
210
0.0
220
0.0
230
1.0
 70
     8
 71
     3
 72
    10
 73
     6
 74
     0
 42
0.00000001
 43
0.00000001
 40
0.0
 40
0.0
 40
0.0
 40
0.0
 40
0.9116761954600112
 40
0.9758589455040949
 40
1.0
 40
1.0
 40
1.0
 40
1.0
 10
190.3875230263048
 20
133.4237408765913
 30
0.0
 10
190.4149151227082
 20
133.2918512720233
 30
0.0
 10
190.4442356451093
 20
133.1506765313887
 30
0.0
 10
190.4434051921273
 20
133.0040407993425
 30
0.0
 10
190.4434125446745
 20
132.9910950895471
 30
0.0
 10
190.4434145543053
 20
132.9875567106549
 30
0.0
  0
LINE
  5
142
330
1F
100
AcDbEntity
  8
0
  6
Continuous
 62
     8
370
    18
100
AcDbLine
 10
190.4434145543
 20
132.9875567107
 30
0.0
 11
190.4434145543
 21
132.8482992677
 31
0.0
  0
SPLINE
  5
143
330
1F
100
AcDbEntity
  8
0
  6
Continuous
 62
     8
370
    18
100
AcDbSpline
210
0.0
220
0.0
230
1.0
 70
     8
 71
     3
 72
    13
 73
     9
 74
     0
 42
0.00000001
 43
0.00000001
 40
0.0
 40
0.0
 40
0.0
 40
0.0
 40
0.1123140913323758
 40
0.2899907486844885
 40
0.4674965856254282
 40
0.645071621232883
 40
0.822580045861203
 40
1.0
 40
1.0
 40
1.0
 40
1.0
 10
160.3140882984396
 20
138.9229243223959
 30
0.0
 10
160.6002311810291
 20
139.0959689943113
 30
0.0
 10
161.3390413140096
 20
139.5427638120343
 30
0.0
 10
163.0153540578682
 20
140.1795156822091
 30
0.0
 10
165.20900979525
 20
140.8061018303445
 30
0.0
 10
167.7083138982084
 20
141.2844949874442
 30
0.0
 10
170.4118364853643
 20
141.6138476148456
 30
0.0
 10
172.2996754748651
 20
141.6583655155949
 30
0.0
 10
173.2433596854715
 20
141.6806189176382
 30
0.0
  0
LINE
  5
144
330
1F
100
AcDbEntity
  8
0
  6
Continuous
 62
     8
370
    18
100
AcDbLine
 10
156.0433048166
 20
132.8482992677
 30
0.0
 11
156.0433146498
 21
132.8494343583
 31
0.0
  0
LINE
  5
145
330
1F
100
AcDbEntity
  8
0
  6
Continuous
 62
     8
370
    18
100
AcDbLine
 10
156.0433048166
 20
132.9875567107
 30
0.0
 11
156.0433048166
 21
132.8482992677
 31
0.0
  0
SPLINE
  5
146
330
1F
100
AcDbEntity
  8
0
  6
Continuous
 62
     8
370
    25
100
AcDbSpline
210
0.0
220
0.0
230
1.0
 70
     8
 71
     3
 72
     9
 73
     5
 74
     0
 42
0.00000001
 43
0.00000001
 40
0.0
 40
0.0
 40
0.0
 40
0.0
 40
0.7742177960612187
 40
1.0
 40
1.0
 40
1.0
 40
1.0
 10
164.8833927764239
 20
145.4470075775503
 30
0.0
 10
164.8791449979031
 20
145.0368289742734
 30
0.0
 10
164.8736584558185
 20
144.5070315382501
 30
0.0
 10
164.7087488451385
 20
144.0083361292531
 30
0.0
 10
164.6715151897885
 20
143.8957395807155
 30
0.0
  0
SPLINE
  5
147
330
1F
100
AcDbEntity
  8
0
  6
Continuous
 62
     8
370
    18
100
AcDbSpline
210
0.0
220
0.0
230
1.0
 70
    24
 71
     3
 72
    20
 73
    16
 74
     0
 42
0.00000001
 43
0.00000001
 40
0.8481203338387288
 40
0.8481203338387288
 40
0.8481203338387288
 40
0.8481203338387288
 40
0.8556648285143569
 40
0.8838822876808691
 40
0.9050453820557531
 40
0.9198820411095416
 40
0.927300370636436
 40
0.9347187001633303
 40
0.9421370296902245
 40
0.9495553592171189
 40
0.9525226910278766
 40
0.9643920182709074
 40
0.9715136146167259
 40
0.9857568073083629
 40
1.0
 40
1.0
 40
1.0
 40
1.0
 10
165.0624956058219
 20
145.4470075775503
 30
0.0
 10
165.0565735769512
 20
145.4470075775503
 30
0.0
 10
165.0291995442363
 20
145.4470075775503
 30
0.0
 10
164.9908867952656
 20
145.4470075775503
 30
0.0
 10
164.955860559142
 20
145.4470075775503
 30
0.0
 10
164.9362179322777
 20
145.4470075775503
 30
0.0
 10
164.9245000269842
 20
145.4470075775503
 30
0.0
 10
164.9165648230612
 20
145.4470075775503
 30
0.0
 10
164.9094829448424
 20
145.4470075775503
 30
0.0
 10
164.9044998004391
 20
145.4470075775503
 30
0.0
 10
164.898868921246
 20
145.4470075775503
 30
0.0
 10
164.8941480376423
 20
145.4470075775503
 30
0.0
 10
164.8886670065536
 20
145.4470075775503
 30
0.0
 10
164.8845743730471
 20
145.4470075775503
 30
0.0
 10
164.8839710320899
 20
145.4470075775503
 30
0.0
 10
164.8833927764239
 20
145.4470075775503
 30
0.0
  0
SPLINE
  5
148
330
1F
100
AcDbEntity
  8
0
  6
Continuous
 62
     8
370
    18
100
AcDbSpline
210
0.0
220
0.0
230
1.0
 70
     8
 71
     3
 72
    38
 73
    34
 74
     0
 42
0.00000001
 43
0.00000001
 40
0.0
 40
0.0
 40
0.0
 40
0.0
 40
0.0312500000000001
 40
0.0312500000000001
 40
0.0625000000000002
 40
0.0625000000000002
 40
0.1250000000000005
 40
0.1250000000000005
 40
0.1875000000000008
 40
0.1875000000000008
 40
0.2500000000000011
 40
0.2500000000000011
 40
0.3750000000000017
 40
0.3750000000000017
 40
0.4375000000000017
 40
0.4375000000000017
 40
0.5000000000000017
 40
0.5000000000000017
 40
0.5625000000000017
 40
0.5625000000000017
 40
0.6250000000000017
 40
0.6250000000000017
 40
0.750000000000001
 40
0.750000000000001
 40
0.8750000000000004
 40
0.8750000000000004
 40
0.9375000000000006
 40
0.9375000000000006
 40
0.9687500000000003
 40
0.9687500000000003
 40
0.9843750000000001
 40
0.9843750000000001
 40
1.0
 40
1.0
 40
1.0
 40
1.0
 10
173.2433596854715
 20
144.7116517136504
 30
0.0
 10
173.1159723660679
 20
144.7104969175064
 30
0.0
 10
172.9856260932386
 20
144.7091052223944
 30
0.0
 10
172.7290801776843
 20
144.7072108211661
 30
0.0
 10
172.6012178918917
 20
144.7066946650834
 30
0.0
 10
172.2189964787599
 20
144.708312208572
 30
0.0
 10
171.9660459877806
 20
144.7141699949425
 30
0.0
 10
171.4635356605381
 20
144.7327878509997
 30
0.0
 10
171.2139736577776
 20
144.7449731569199
 30
0.0
 10
170.7181819721065
 20
144.7738064302946
 30
0.0
 10
170.4709602661549
 20
144.7906579915908
 30
0.0
 10
169.7420246916878
 20
144.8471004208652
 30
0.0
 10
169.2753061370058
 20
144.8921504226755
 30
0.0
 10
168.6022293521349
 20
144.9678319564895
 30
0.0
 10
168.3824389766354
 20
144.9966728964064
 30
0.0
 10
167.9613857739514
 20
145.0452302999074
 30
0.0
 10
167.758537891663
 20
145.0660792183024
 30
0.0
 10
167.3853938915316
 20
145.0996966109095
 30
0.0
 10
167.2129791414233
 20
145.1129826717745
 30
0.0
 10
166.8964645348444
 20
145.1335136380012
 30
0.0
 10
166.7536225698608
 20
145.1407864630717
 30
0.0
 10
166.3617491301643
 20
145.1527506650899
 30
0.0
 10
166.1303562128272
 20
145.1716643076502
 30
0.0
 10
165.726073864087
 20
145.2267990588131
 30
0.0
 10
165.5528550276061
 20
145.2630126161146
 30
0.0
 10
165.3359895483658
 20
145.3263563349432
 30
0.0
 10
165.270883558178
 20
145.3489656778973
 30
0.0
 10
165.1841872445619
 20
145.3846431920265
 30
0.0
 10
165.1571651346221
 20
145.3968141213081
 30
0.0
 10
165.1195135544261
 20
145.4154008814016
 30
0.0
 10
165.1074415860369
 20
145.4216520585875
 30
0.0
 10
165.0842548383877
 20
145.4342559855781
 30
0.0
 10
165.0729267293768
 20
145.4407371071626
 30
0.0
 10
165.0625046140745
 20
145.4470075775503
 30
0.0
  0
SPLINE
  5
149
330
1F
100
AcDbEntity
  8
0
  6
Continuous
 62
     8
370
    25
100
AcDbSpline
210
0.0
220
0.0
230
1.0
 70
     8
 71
     3
 72
     9
 73
     5
 74
     0
 42
0.00000001
 43
0.00000001
 40
0.0
 40
0.0
 40
0.0
 40
0.0
 40
0.7742177960599165
 40
0.9999999999999999
 40
0.9999999999999999
 40
0.9999999999999999
 40
0.9999999999999999
 10
181.6033265945194
 20
145.4470075775503
 30
0.0
 10
181.6075743730402
 20
145.0368289742736
 30
0.0
 10
181.6130609151249
 20
144.5070315382494
 30
0.0
 10
181.7779705258053
 20
144.0083361292513
 30
0.0
 10
181.8152041811557
 20
143.895739580713
 30
0.0
  0
SPLINE
  5
14A
330
1F
100
AcDbEntity
  8
0
  6
Continuous
 62
     8
370
    18
100
AcDbSpline
210
0.0
220
0.0
230
1.0
 70
     8
 71
     3
 72
    30
 73
    26
 74
     0
 42
0.00000001
 43
0.00000001
 40
0.0
 40
0.0
 40
0.0
 40
0.0
 40
0.1249999999999994
 40
0.1249999999999994
 40
0.2499999999999989
 40
0.2499999999999989
 40
0.3749999999999983
 40
0.3749999999999983
 40
0.4374999999999985
 40
0.4374999999999985
 40
0.4999999999999987
 40
0.4999999999999987
 40
0.5624999999999988
 40
0.5624999999999988
 40
0.624999999999999
 40
0.624999999999999
 40
0.7499999999999993
 40
0.7499999999999993
 40
0.8124999999999994
 40
0.8124999999999994
 40
0.8749999999999997
 40
0.8749999999999997
 40
0.9374999999999998
 40
0.9374999999999998
 40
1.0
 40
1.0
 40
1.0
 40
1.0
 10
181.4242147568688
 20
145.4470075775503
 30
0.0
 10
181.3391001410834
 20
145.3957983299553
 30
0.0
 10
181.2232437367234
 20
145.347579331255
 30
0.0
 10
180.934922035474
 20
145.2632791632324
 30
0.0
 10
180.762149290887
 20
145.2270814927138
 30
0.0
 10
180.3585774244344
 20
145.1718896388575
 30
0.0
 10
180.1274524885361
 20
145.1528024799841
 30
0.0
 10
179.7356278919957
 20
145.1408755480427
 30
0.0
 10
179.5929341235389
 20
145.1336624072978
 30
0.0
 10
179.2765454662165
 20
145.1131892305027
 30
0.0
 10
179.1041731589941
 20
145.0999293088845
 30
0.0
 10
178.7310820981187
 20
145.0663640328993
 30
0.0
 10
178.5282331939879
 20
145.0455455907907
 30
0.0
 10
178.1070578172878
 20
144.9970120445757
 30
0.0
 10
177.8871917277889
 20
144.9681542903414
 30
0.0
 10
177.2137896119946
 20
144.8923808437193
 30
0.0
 10
176.7468294958344
 20
144.847289148283
 30
0.0
 10
176.0175008219994
 20
144.7907812096637
 30
0.0
 10
175.7701234211263
 20
144.7739081659499
 30
0.0
 10
175.2740263538708
 20
144.7450381897193
 30
0.0
 10
175.0243095219861
 20
144.7328380168477
 30
0.0
 10
174.5214853671281
 20
144.7141916563613
 30
0.0
 10
174.2683760289183
 20
144.7083204097677
 30
0.0
 10
173.7584250185119
 20
144.7061514566581
 30
0.0
 10
173.5034441893027
 20
144.7092939861817
 30
0.0
 10
173.2433596854715
 20
144.7116517136504
 30
0.0
  0
SPLINE
  5
14B
330
1F
100
AcDbEntity
  8
0
  6
Continuous
 62
     8
370
    18
100
AcDbSpline
210
0.0
220
0.0
230
1.0
 70
    24
 71
     3
 72
     8
 73
     4
 74
     0
 42
0.00000001
 43
0.00000001
 40
0.0
 40
0.0
 40
0.0
 40
0.0
 40
1.0
 40
1.0
 40
1.0
 40
1.0
 10
181.6033265945194
 20
145.4470075775503
 30
0.0
 10
181.6033265945194
 20
145.4470075775503
 30
0.0
 10
181.5433595330855
 20
145.4470075775503
 30
0.0
 10
181.4242588728069
 20
145.4470075775503
 30
0.0
  0
SPLINE
  5
14C
330
1F
100
AcDbEntity
  8
0
  6
Continuous
 62
     8
370
    18
100
AcDbSpline
210
0.0
220
0.0
230
1.0
 70
     8
 71
     3
 72
    11
 73
     7
 74
     0
 42
0.00000001
 43
0.00000001
 40
0.0
 40
0.0
 40
0.0
 40
0.0
 40
0.0896398174588875
 40
0.3930932116392554
 40
0.6965466058196238
 40
1.0
 40
1.0
 40
1.0
 40
1.0
 10
164.3826315793777
 20
146.7244786205784
 30
0.0
 10
164.4228046148496
 20
146.7038333743455
 30
0.0
 10
164.5989735092384
 20
146.6132987617498
 30
0.0
 10
164.8270170095899
 20
146.3314247913511
 30
0.0
 10
165.0360958959675
 20
145.9143142411966
 30
0.0
 10
165.0536662859217
 20
145.6027764654324
 30
0.0
 10
165.0624514808989
 20
145.4470075775503
 30
0.0
  0
SPLINE
  5
14D
330
1F
100
AcDbEntity
  8
0
  6
Continuous
 62
     8
370
    18
100
AcDbSpline
210
0.0
220
0.0
230
1.0
 70
     8
 71
     3
 72
    10
 73
     6
 74
     0
 42
0.00000001
 43
0.00000001
 40
0.0
 40
0.0
 40
0.0
 40
0.0
 40
0.5
 40
0.5
 40
1.0
 40
1.0
 40
1.0
 40
1.0
 10
182.3856374392982
 20
146.8807016336327
 30
0.0
 10
182.0980311665755
 20
146.7762788312149
 30
0.0
 10
181.8455875650601
 20
146.5784011561112
 30
0.0
 10
181.5034633396771
 20
146.0681932123164
 30
0.0
 10
181.4146230114524
 20
145.757116071818
 30
0.0
 10
181.4242698628266
 20
145.4470195438205
 30
0.0
  0
LINE
  5
14E
330
1F
100
AcDbEntity
  8
0
  6
Continuous
 62
     8
370
    18
100
AcDbLine
 10
189.1034922558
 20
131.5164549898
 30
0.0
 11
189.10350133
 21
131.5153979176
 31
0.0
  0
SPLINE
  5
14F
330
1F
100
AcDbEntity
  8
0
  6
Continuous
 62
     8
370
    18
100
AcDbSpline
210
0.0
220
0.0
230
1.0
 70
     8
 71
     3
 72
    24
 73
    20
 74
     0
 42
0.00000001
 43
0.00000001
 40
0.0
 40
0.0
 40
0.0
 40
0.0
 40
0.1249999999999998
 40
0.1249999999999998
 40
0.2499999999999996
 40
0.2499999999999996
 40
0.3749999999999993
 40
0.3749999999999993
 40
0.4999999999999993
 40
0.4999999999999993
 40
0.7499999999999993
 40
0.7499999999999993
 40
0.8749999999999993
 40
0.8749999999999993
 40
0.9374999999999997
 40
0.9374999999999997
 40
0.9687499999999998
 40
0.9687499999999998
 40
1.0
 40
1.0
 40
1.0
 40
1.0
 10
189.1035013304896
 20
131.5153979176685
 30
0.0
 10
189.1126869643524
 20
130.4095304295437
 30
0.0
 10
189.1202788908246
 20
129.3766503972977
 30
0.0
 10
189.1326427244621
 20
127.4613820245755
 30
0.0
 10
189.1374874131085
 20
126.5800093618328
 30
0.0
 10
189.14457485585
 20
124.9695062771507
 30
0.0
 10
189.1466380917083
 20
124.2366492356069
 30
0.0
 10
189.1464053192979
 20
122.8792436814294
 30
0.0
 10
189.144508690828
 20
122.2580223737758
 30
0.0
 10
189.1349787874798
 20
120.5727566302595
 30
0.0
 10
189.1229271945659
 20
119.6846005116688
 30
0.0
 10
189.0948188255054
 20
118.7070115882899
 30
0.0
 10
189.0838237970348
 20
118.4401106931343
 30
0.0
 10
189.0645486348343
 20
118.1281664263685
 30
0.0
 10
189.0574360669697
 20
118.039007231467
 30
0.0
 10
189.0468625515261
 20
117.9271251115994
 30
0.0
 10
189.0434160782786
 20
117.8934318830278
 30
0.0
 10
189.0366398925001
 20
117.8335200494188
 30
0.0
 10
189.0331097906949
 20
117.8057741510928
 30
0.0
 10
189.0285600308683
 20
117.7848021492949
 30
0.0
  0
LINE
  5
150
330
1F
100
AcDbEntity
  8
0
  6
Continuous
 62
     8
370
    18
100
AcDbLine
 10
157.3832271152
 20
131.5164549898
 30
0.0
 11
157.3832180409
 21
131.5153979176
 31
0.0
  0
SPLINE
  5
151
330
1F
100
AcDbEntity
  8
0
  6
Continuous
 62
     8
370
    18
100
AcDbSpline
210
0.0
220
0.0
230
1.0
 70
     8
 71
     3
 72
    24
 73
    20
 74
     0
 42
0.00000001
 43
0.00000001
 40
0.0
 40
0.0
 40
0.0
 40
0.0
 40
0.125
 40
0.125
 40
0.2499999999999999
 40
0.2499999999999999
 40
0.3749999999999999
 40
0.3749999999999999
 40
0.4999999999999999
 40
0.4999999999999999
 40
0.7500000000000002
 40
0.7500000000000002
 40
0.8750000000000004
 40
0.8750000000000004
 40
0.9375000000000002
 40
0.9375000000000002
 40
0.9687500000000001
 40
0.9687500000000001
 40
1.0
 40
1.0
 40
1.0
 40
1.0
 10
157.3832180404536
 20
131.5153979176685
 30
0.0
 10
157.374032406591
 20
130.4095304295437
 30
0.0
 10
157.3664404801188
 20
129.3766503972974
 30
0.0
 10
157.3540766464814
 20
127.4613820245757
 30
0.0
 10
157.3492319578351
 20
126.5800093618329
 30
0.0
 10
157.3421445150938
 20
124.9695062771507
 30
0.0
 10
157.3400812792355
 20
124.2366492356068
 30
0.0
 10
157.340314051646
 20
122.8792436814295
 30
0.0
 10
157.342210680116
 20
122.2580223737755
 30
0.0
 10
157.3517405834647
 20
120.5727566302597
 30
0.0
 10
157.3637921763784
 20
119.6846005116688
 30
0.0
 10
157.3919005454393
 20
118.7070115882899
 30
0.0
 10
157.4028955739099
 20
118.4401106931341
 30
0.0
 10
157.4221707361105
 20
118.1281664263685
 30
0.0
 10
157.4292833039752
 20
118.039007231467
 30
0.0
 10
157.4398568194188
 20
117.9271251115993
 30
0.0
 10
157.4433032926664
 20
117.8934318830278
 30
0.0
 10
157.450079478445
 20
117.8335200494189
 30
0.0
 10
157.4536095802502
 20
117.805774151093
 30
0.0
 10
157.4581593400767
 20
117.7848021492949
 30
0.0
  0
ARC
  5
152
330
1F
100
AcDbEntity
  8
0
  6
Continuous
 62
     8
370
    18
100
AcDbCircle
 10
189.078142224
 20
132.8808220957
 30
0.0
 40
1.365659646539231
100
AcDbArc
 50
271.0639936997
 51
358.6353869574
  0
ARC
  5
153
330
1F
100
AcDbEntity
  8
0
  6
Continuous
 62
     8
370
    18
100
AcDbCircle
 10
157.4085771469
 20
132.8808220957
 30
0.0
 40
1.365659646539231
100
AcDbArc
 50
181.3646130426
 51
268.9360063004
  0
SPLINE
  5
154
330
1F
100
AcDbEntity
  8
0
  6
Continuous
 62
     8
370
    18
100
AcDbSpline
210
0.0
220
0.0
230
1.0
 70
     8
 71
     3
 72
     9
 73
     5
 74
     0
 42
0.00000001
 43
0.00000001
 40
0.0
 40
0.0
 40
0.0
 40
0.0
 40
0.989847172260223
 40
1.0
 40
1.0
 40
1.0
 40
1.0
 10
165.0624514808989
 20
145.4470075775503
 30
0.0
 10
164.9453995546878
 20
145.5139190335526
 30
0.0
 10
164.8271470309736
 20
145.5815167980132
 30
0.0
 10
164.8887485621082
 20
145.6843354871154
 30
0.0
 10
164.8893739918424
 20
145.6853793875543
 30
0.0
  0
LINE
  5
155
330
1F
100
AcDbEntity
  8
0
  6
Continuous
 62
     8
370
    18
100
AcDbLine
 10
181.5795833076
 20
145.6891293243
 30
0.0
 11
181.42426789
 21
145.4470075776
 31
0.0
  0
ENDSEC
  0
SECTION
  2
OBJECTS
  0
DICTIONARY
  5
C
330
0
100
AcDbDictionary
281
     1
  3
ACAD_GROUP
350
D
  3
ACAD_LAYOUT
350
1A
  3
ACAD_MLINESTYLE
350
17
  3
ACAD_PLOTSETTINGS
350
19
  3
ACAD_PLOTSTYLENAME
350
E
  3
ACAD_SCALELIST
350
47
  3
DWGPROPS
350
156
  0
DICTIONARY
  5
D
102
{ACAD_REACTORS
330
C
102
}
330
C
100
AcDbDictionary
281
     1
  0
DICTIONARY
  5
1A
102
{ACAD_REACTORS
330
C
102
}
330
C
100
AcDbDictionary
281
     1
  3
Layout1
350
1E
  3
Layout2
350
26
  3
Model
350
22
  0
DICTIONARY
  5
17
102
{ACAD_REACTORS
330
C
102
}
330
C
100
AcDbDictionary
281
     1
  3
Standard
350
18
  0
DICTIONARY
  5
19
102
{ACAD_REACTORS
330
C
102
}
330
C
100
AcDbDictionary
281
     1
  0
ACDBDICTIONARYWDFLT
  5
E
102
{ACAD_REACTORS
330
C
102
}
330
C
100
AcDbDictionary
281
     1
  3
Normal
350
F
100
AcDbDictionaryWithDefault
340
F
  0
DICTIONARY
  5
47
102
{ACAD_REACTORS
330
C
102
}
330
C
100
AcDbDictionary
281
     1
  3
A0
350
48
  3
A1
350
49
  3
A2
350
4A
  3
A3
350
4B
  3
A4
350
4C
  3
A5
350
4D
  3
A6
350
4E
  3
A7
350
4F
  3
A8
350
50
  3
A9
350
51
  3
B0
350
52
  3
B1
350
53
  3
B2
350
54
  3
B3
350
55
  3
B4
350
56
  3
B5
350
57
  3
B6
350
58
  3
B7
350
59
  3
B8
350
5A
  3
B9
350
5B
  3
C0
350
5C
  3
C1
350
5D
  3
C2
350
5E
  3
C3
350
5F
  3
C4
350
60
  3
C5
350
61
  3
C6
350
62
  3
C7
350
63
  3
C8
350
64
  3
C9
350
65
  3
D0
350
66
  3
D1
350
67
  3
D2
350
68
  0
XRECORD
  5
156
102
{ACAD_REACTORS
330
C
102
}
330
C
100
AcDbXrecord
280
     1
  1
DWGPROPS COOKIE
  2

  3

  4

  6

  7

  8
estudent
  9

300
=
301
=
302
=
303
=
304
=
305
=
306
=
307
=
308
=
309
=
 40
0.0
 41
2460006.493772465
 42
2460006.493774584
  1

 90
        0
  0
LAYOUT
  5
1E
102
{ACAD_REACTORS
330
1A
102
}
330
1A
100
AcDbPlotSettings
  1

  2
none_device
  4

  6

 40
0.0
 41
0.0
 42
0.0
 43
0.0
 44
0.0
 45
0.0
 46
0.0
 47
0.0
 48
0.0
 49
0.0
140
0.0
141
0.0
142
1.0
143
1.0
 70
   688
 72
     1
 73
     0
 74
     5
  7

 75
    16
147
1.0
148
0.0
149
0.0
100
AcDbLayout
  1
Layout1
 70
     1
 71
     1
 10
0.0
 20
0.0
 11
420.0
 21
297.0
 12
0.0
 22
0.0
 32
0.0
 14
1.0000000000E+20
 24
1.0000000000E+20
 34
1.0000000000E+20
 15
-1.0000000000E+20
 25
-1.0000000000E+20
 35
-1.0000000000E+20
146
0.0
 13
0.0
 23
0.0
 33
0.0
 16
1.0
 26
0.0
 36
0.0
 17
0.0
 27
1.0
 37
0.0
 76
     0
330
1B
  0
LAYOUT
  5
26
102
{ACAD_REACTORS
330
1A
102
}
330
1A
100
AcDbPlotSettings
  1

  2
none_device
  4

  6

 40
0.0
 41
0.0
 42
0.0
 43
0.0
 44
0.0
 45
0.0
 46
0.0
 47
0.0
 48
0.0
 49
0.0
140
0.0
141
0.0
142
1.0
143
1.0
 70
   688
 72
     1
 73
     0
 74
     5
  7

 75
    16
147
1.0
148
0.0
149
0.0
100
AcDbLayout
  1
Layout2
 70
     1
 71
     2
 10
0.0
 20
0.0
 11
0.0
 21
0.0
 12
0.0
 22
0.0
 32
0.0
 14
0.0
 24
0.0
 34
0.0
 15
0.0
 25
0.0
 35
0.0
146
0.0
 13
0.0
 23
0.0
 33
0.0
 16
1.0
 26
0.0
 36
0.0
 17
0.0
 27
1.0
 37
0.0
 76
     0
330
23
  0
LAYOUT
  5
22
102
{ACAD_REACTORS
330
1A
102
}
330
1A
100
AcDbPlotSettings
  1

  2
none_device
  4
Letter_(8.50_x_11.00_Inches)
  6

 40
6.35
 41
6.35
 42
6.35000508
 43
6.35000508
 44
215.9
 45
279.4
 46
0.0
 47
0.0
 48
0.0
 49
0.0
140
0.0
141
0.0
142
1.0
143
1.0
 70
  1712
 72
     1
 73
     0
 74
     0
  7

 75
     0
147
1.0
148
0.0
149
0.0
100
AcDbLayout
  1
Model
 70
     1
 71
     0
 10
0.0
 20
0.0
 11
594.0
 21
841.0
 12
0.0
 22
0.0
 32
0.0
 14
0.0
 24
0.0
 34
0.0
 15
594.0
 25
841.0
 35
0.0
146
0.0
 13
0.0
 23
0.0
 33
0.0
 16
1.0
 26
0.0
 36
0.0
 17
0.0
 27
1.0
 37
0.0
 76
     0
330
1F
331
29
  0
MLINESTYLE
  5
18
102
{ACAD_REACTORS
330
17
102
}
330
17
100
AcDbMlineStyle
  2
Standard
 70
     0
  3

 62
   256
 51
90.0
 52
90.0
 71
     2
 49
0.5
 62
   256
  6
BYLAYER
 49
-0.5
 62
   256
  6
BYLAYER
  0
ACDBPLACEHOLDER
  5
F
102
{ACAD_REACTORS
330
E
102
}
330
E
  0
SCALE
  5
48
102
{ACAD_REACTORS
330
47
102
}
330
47
100
AcDbScale
 70
     0
300
1:1
140
1.0
141
1.0
290
     1
  0
SCALE
  5
49
102
{ACAD_REACTORS
330
47
102
}
330
47
100
AcDbScale
 70
     0
300
1:2
140
1.0
141
2.0
290
     0
  0
SCALE
  5
4A
102
{ACAD_REACTORS
330
47
102
}
330
47
100
AcDbScale
 70
     0
300
1:4
140
1.0
141
4.0
290
     0
  0
SCALE
  5
4B
102
{ACAD_REACTORS
330
47
102
}
330
47
100
AcDbScale
 70
     0
300
1:5
140
1.0
141
5.0
290
     0
  0
SCALE
  5
4C
102
{ACAD_REACTORS
330
47
102
}
330
47
100
AcDbScale
 70
     0
300
1:8
140
1.0
141
8.0
290
     0
  0
SCALE
  5
4D
102
{ACAD_REACTORS
330
47
102
}
330
47
100
AcDbScale
 70
     0
300
1:10
140
1.0
141
10.0
290
     0
  0
SCALE
  5
4E
102
{ACAD_REACTORS
330
47
102
}
330
47
100
AcDbScale
 70
     0
300
1:16
140
1.0
141
16.0
290
     0
  0
SCALE
  5
4F
102
{ACAD_REACTORS
330
47
102
}
330
47
100
AcDbScale
 70
     0
300
1:20
140
1.0
141
20.0
290
     0
  0
SCALE
  5
50
102
{ACAD_REACTORS
330
47
102
}
330
47
100
AcDbScale
 70
     0
300
1:30
140
1.0
141
30.0
290
     0
  0
SCALE
  5
51
102
{ACAD_REACTORS
330
47
102
}
330
47
100
AcDbScale
 70
     0
300
1:40
140
1.0
141
40.0
290
     0
  0
SCALE
  5
52
102
{ACAD_REACTORS
330
47
102
}
330
47
100
AcDbScale
 70
     0
300
1:50
140
1.0
141
50.0
290
     0
  0
SCALE
  5
53
102
{ACAD_REACTORS
330
47
102
}
330
47
100
AcDbScale
 70
     0
300
1:100
140
1.0
141
100.0
290
     0
  0
SCALE
  5
54
102
{ACAD_REACTORS
330
47
102
}
330
47
100
AcDbScale
 70
     0
300
2:1
140
2.0
141
1.0
290
     0
  0
SCALE
  5
55
102
{ACAD_REACTORS
330
47
102
}
330
47
100
AcDbScale
 70
     0
300
4:1
140
4.0
141
1.0
290
     0
  0
SCALE
  5
56
102
{ACAD_REACTORS
330
47
102
}
330
47
100
AcDbScale
 70
     0
300
8:1
140
8.0
141
1.0
290
     0
  0
SCALE
  5
57
102
{ACAD_REACTORS
330
47
102
}
330
47
100
AcDbScale
 70
     0
300
10:1
140
10.0
141
1.0
290
     0
  0
SCALE
  5
58
102
{ACAD_REACTORS
330
47
102
}
330
47
100
AcDbScale
 70
     0
300
100:1
140
100.0
141
1.0
290
     0
  0
SCALE
  5
59
102
{ACAD_REACTORS
330
47
102
}
330
47
100
AcDbScale
 70
     0
300
1/128" = 1'-0"
140
0.0078125
141
12.0
290
     0
  0
SCALE
  5
5A
102
{ACAD_REACTORS
330
47
102
}
330
47
100
AcDbScale
 70
     0
300
1/64" = 1'-0"
140
0.015625
141
12.0
290
     0
  0
SCALE
  5
5B
102
{ACAD_REACTORS
330
47
102
}
330
47
100
AcDbScale
 70
     0
300
1/32" = 1'-0"
140
0.03125
141
12.0
290
     0
  0
SCALE
  5
5C
102
{ACAD_REACTORS
330
47
102
}
330
47
100
AcDbScale
 70
     0
300
1/16" = 1'-0"
140
0.0625
141
12.0
290
     0
  0
SCALE
  5
5D
102
{ACAD_REACTORS
330
47
102
}
330
47
100
AcDbScale
 70
     0
300
3/32" = 1'-0"
140
0.09375
141
12.0
290
     0
  0
SCALE
  5
5E
102
{ACAD_REACTORS
330
47
102
}
330
47
100
AcDbScale
 70
     0
300
1/8" = 1'-0"
140
0.125
141
12.0
290
     0
  0
SCALE
  5
5F
102
{ACAD_REACTORS
330
47
102
}
330
47
100
AcDbScale
 70
     0
300
3/16" = 1'-0"
140
0.1875
141
12.0
290
     0
  0
SCALE
  5
60
102
{ACAD_REACTORS
330
47
102
}
330
47
100
AcDbScale
 70
     0
300
1/4" = 1'-0"
140
0.25
141
12.0
290
     0
  0
SCALE
  5
61
102
{ACAD_REACTORS
330
47
102
}
330
47
100
AcDbScale
 70
     0
300
3/8" = 1'-0"
140
0.375
141
12.0
290
     0
  0
SCALE
  5
62
102
{ACAD_REACTORS
330
47
102
}
330
47
100
AcDbScale
 70
     0
300
1/2" = 1'-0"
140
0.5
141
12.0
290
     0
  0
SCALE
  5
63
102
{ACAD_REACTORS
330
47
102
}
330
47
100
AcDbScale
 70
     0
300
3/4" = 1'-0"
140
0.75
141
12.0
290
     0
  0
SCALE
  5
64
102
{ACAD_REACTORS
330
47
102
}
330
47
100
AcDbScale
 70
     0
300
1" = 1'-0"
140
1.0
141
12.0
290
     0
  0
SCALE
  5
65
102
{ACAD_REACTORS
330
47
102
}
330
47
100
AcDbScale
 70
     0
300
1-1/2" = 1'-0"
140
1.5
141
12.0
290
     0
  0
SCALE
  5
66
102
{ACAD_REACTORS
330
47
102
}
330
47
100
AcDbScale
 70
     0
300
3" = 1'-0"
140
3.0
141
12.0
290
     0
  0
SCALE
  5
67
102
{ACAD_REACTORS
330
47
102
}
330
47
100
AcDbScale
 70
     0
300
6" = 1'-0"
140
6.0
141
12.0
290
     0
  0
SCALE
  5
68
102
{ACAD_REACTORS
330
47
102
}
330
47
100
AcDbScale
 70
     0
300
1'-0" = 1'-0"
140
12.0
141
12.0
290
     0
  0
ENDSEC
  0
EOF
