  0
SECTION
  2
HEADER
  9
$ACADVER
  1
AC1024
  9
$ACADMAINTVER
 70
     6
  9
$DWGCODEPAGE
  3
ANSI_1252
  9
$INSBASE
 10
0.0
 20
0.0
 30
0.0
  9
$EXTMIN
 10
0.0
 20
0.0
 30
0.0
  9
$EXTMAX
 10
594.0
 20
841.0
 30
0.0
  9
$LIMMIN
 10
0.0
 20
0.0
  9
$LIMMAX
 10
594.0
 20
841.0
  9
$ORTHOMODE
 70
     0
  9
$REGENMODE
 70
     1
  9
$FILLMODE
 70
     1
  9
$QTEXTMODE
 70
     0
  9
$MIRRTEXT
 70
     1
  9
$LTSCALE
 40
1.0
  9
$ATTMODE
 70
     1
  9
$TEXTSIZE
 40
5.0
  9
$TRACEWID
 40
1.0
  9
$TEXTSTYLE
  7
Standard
  9
$CLAYER
  8
0
  9
$CELTYPE
  6
ByLayer
  9
$CECOLOR
 62
   256
  9
$CELTSCALE
 40
1.0
  9
$DISPSILH
 70
     0
  9
$DIMSCALE
 40
1.0
  9
$DIMASZ
 40
2.5
  9
$DIMEXO
 40
0.0
  9
$DIMDLI
 40
3.75
  9
$DIMRND
 40
0.0
  9
$DIMDLE
 40
0.0
  9
$DIMEXE
 40
1.0
  9
$DIMTP
 40
0.0
  9
$DIMTM
 40
0.0
  9
$DIMTXT
 40
3.5
  9
$DIMCEN
 40
2.5
  9
$DIMTSZ
 40
0.0
  9
$DIMTOL
 70
     0
  9
$DIMLIM
 70
     0
  9
$DIMTIH
 70
     1
  9
$DIMTOH
 70
     1
  9
$DIMSE1
 70
     0
  9
$DIMSE2
 70
     0
  9
$DIMTAD
 70
     1
  9
$DIMZIN
 70
     0
  9
$DIMBLK
  1

  9
$DIMASO
 70
     1
  9
$DIMSHO
 70
     1
  9
$DIMPOST
  1

  9
$DIMAPOST
  1

  9
$DIMALT
 70
     0
  9
$DIMALTD
 70
     3
  9
$DIMALTF
 40
0.0393700787
  9
$DIMLFAC
 40
1.0
  9
$DIMTOFL
 70
     1
  9
$DIMTVP
 40
0.0
  9
$DIMTIX
 70
     0
  9
$DIMSOXD
 70
     0
  9
$DIMSAH
 70
     0
  9
$DIMBLK1
  1

  9
$DIMBLK2
  1

  9
$DIMSTYLE
  2
ISO-25
  9
$DIMCLRD
 70
     0
  9
$DIMCLRE
 70
     0
  9
$DIMCLRT
 70
     0
  9
$DIMTFAC
 40
1.0
  9
$DIMGAP
 40
1.5
  9
$DIMJUST
 70
     0
  9
$DIMSD1
 70
     0
  9
$DIMSD2
 70
     0
  9
$DIMTOLJ
 70
     0
  9
$DIMTZIN
 70
     0
  9
$DIMALTZ
 70
     0
  9
$DIMALTTZ
 70
     0
  9
$DIMUPT
 70
     0
  9
$DIMDEC
 70
     2
  9
$DIMTDEC
 70
     2
  9
$DIMALTU
 70
     2
  9
$DIMALTTD
 70
     3
  9
$DIMTXSTY
  7
Standard
  9
$DIMAUNIT
 70
     0
  9
$DIMADEC
 70
     2
  9
$DIMALTRND
 40
0.0
  9
$DIMAZIN
 70
     0
  9
$DIMDSEP
 70
    44
  9
$DIMATFIT
 70
     3
  9
$DIMFRAC
 70
     0
  9
$DIMLDRBLK
  1

  9
$DIMLUNIT
 70
     2
  9
$DIMLWD
 70
    -2
  9
$DIMLWE
 70
    -2
  9
$DIMTMOVE
 70
     0
  9
$DIMFXL
 40
1.0
  9
$DIMFXLON
 70
     0
  9
$DIMJOGANG
 40
0.7853981634
  9
$DIMTFILL
 70
     0
  9
$DIMTFILLCLR
 70
     0
  9
$DIMARCSYM
 70
     0
  9
$DIMLTYPE
  6

  9
$DIMLTEX1
  6

  9
$DIMLTEX2
  6

  9
$DIMTXTDIRECTION
 70
     0
  9
$LUNITS
 70
     2
  9
$LUPREC
 70
     2
  9
$SKETCHINC
 40
1.0
  9
$FILLETRAD
 40
10.0
  9
$AUNITS
 70
     0
  9
$AUPREC
 70
     2
  9
$MENU
  1
.
  9
$ELEVATION
 40
0.0
  9
$PELEVATION
 40
0.0
  9
$THICKNESS
 40
0.0
  9
$LIMCHECK
 70
     0
  9
$CHAMFERA
 40
10.0
  9
$CHAMFERB
 40
10.0
  9
$CHAMFERC
 40
20.0
  9
$CHAMFERD
 40
0.0
  9
$SKPOLY
 70
     0
  9
$TDCREATE
 40
2456349.591293808
  9
$TDUCREATE
 40
2456349.549627141
  9
$TDUPDATE
 40
2456349.591294271
  9
$TDUUPDATE
 40
2456349.549627604
  9
$TDINDWG
 40
0.0000000116
  9
$TDUSRTIMER
 40
0.0000000116
  9
$USRTIMER
 70
     1
  9
$ANGBASE
 50
0.0
  9
$ANGDIR
 70
     0
  9
$PDMODE
 70
     0
  9
$PDSIZE
 40
-1.0
  9
$PLINEWID
 40
0.0
  9
$SPLFRAME
 70
     0
  9
$SPLINETYPE
 70
     6
  9
$SPLINESEGS
 70
     8
  9
$HANDSEED
  5
244
  9
$SURFTAB1
 70
     6
  9
$SURFTAB2
 70
     6
  9
$SURFTYPE
 70
     6
  9
$SURFU
 70
     6
  9
$SURFV
 70
     6
  9
$UCSBASE
  2

  9
$UCSNAME
  2

  9
$UCSORG
 10
0.0
 20
0.0
 30
0.0
  9
$UCSXDIR
 10
1.0
 20
0.0
 30
0.0
  9
$UCSYDIR
 10
0.0
 20
1.0
 30
0.0
  9
$UCSORTHOREF
  2

  9
$UCSORTHOVIEW
 70
     0
  9
$UCSORGTOP
 10
0.0
 20
0.0
 30
0.0
  9
$UCSORGBOTTOM
 10
0.0
 20
0.0
 30
0.0
  9
$UCSORGLEFT
 10
0.0
 20
0.0
 30
0.0
  9
$UCSORGRIGHT
 10
0.0
 20
0.0
 30
0.0
  9
$UCSORGFRONT
 10
0.0
 20
0.0
 30
0.0
  9
$UCSORGBACK
 10
0.0
 20
0.0
 30
0.0
  9
$PUCSBASE
  2

  9
$PUCSNAME
  2

  9
$PUCSORG
 10
0.0
 20
0.0
 30
0.0
  9
$PUCSXDIR
 10
1.0
 20
0.0
 30
0.0
  9
$PUCSYDIR
 10
0.0
 20
1.0
 30
0.0
  9
$PUCSORTHOREF
  2

  9
$PUCSORTHOVIEW
 70
     0
  9
$PUCSORGTOP
 10
0.0
 20
0.0
 30
0.0
  9
$PUCSORGBOTTOM
 10
0.0
 20
0.0
 30
0.0
  9
$PUCSORGLEFT
 10
0.0
 20
0.0
 30
0.0
  9
$PUCSORGRIGHT
 10
0.0
 20
0.0
 30
0.0
  9
$PUCSORGFRONT
 10
0.0
 20
0.0
 30
0.0
  9
$PUCSORGBACK
 10
0.0
 20
0.0
 30
0.0
  9
$USERI1
 70
     0
  9
$USERI2
 70
     0
  9
$USERI3
 70
     0
  9
$USERI4
 70
     0
  9
$USERI5
 70
     0
  9
$USERR1
 40
0.0
  9
$USERR2
 40
0.0
  9
$USERR3
 40
0.0
  9
$USERR4
 40
0.0
  9
$USERR5
 40
0.0
  9
$WORLDVIEW
 70
     1
  9
$SHADEDGE
 70
     3
  9
$SHADEDIF
 70
    70
  9
$TILEMODE
 70
     1
  9
$MAXACTVP
 70
    64
  9
$PINSBASE
 10
0.0
 20
0.0
 30
0.0
  9
$PLIMCHECK
 70
     0
  9
$PEXTMIN
 10
1.0000000000E+20
 20
1.0000000000E+20
 30
1.0000000000E+20
  9
$PEXTMAX
 10
-1.0000000000E+20
 20
-1.0000000000E+20
 30
-1.0000000000E+20
  9
$PLIMMIN
 10
0.0
 20
0.0
  9
$PLIMMAX
 10
420.0
 20
297.0
  9
$UNITMODE
 70
     0
  9
$VISRETAIN
 70
     1
  9
$PLINEGEN
 70
     0
  9
$PSLTSCALE
 70
     1
  9
$TREEDEPTH
 70
  3020
  9
$CMLSTYLE
  2
Standard
  9
$CMLJUST
 70
     0
  9
$CMLSCALE
 40
20.0
  9
$PROXYGRAPHICS
 70
     1
  9
$MEASUREMENT
 70
     1
  9
$CELWEIGHT
370
    -1
  9
$ENDCAPS
280
     0
  9
$JOINSTYLE
280
     0
  9
$LWDISPLAY
290
     1
  9
$INSUNITS
 70
     4
  9
$HYPERLINKBASE
  1

  9
$STYLESHEET
  1

  9
$XEDIT
290
     1
  9
$CEPSNTYPE
380
     0
  9
$PSTYLEMODE
290
     1
  9
$FINGERPRINTGUID
  2
{810B5AB4-D245-415C-B8CF-3D7422594B16}
  9
$VERSIONGUID
  2
{FAEB1C32-E019-11D5-929B-00C0DF256EC4}
  9
$EXTNAMES
290
     1
  9
$PSVPSCALE
 40
0.0
  9
$OLESTARTUP
290
     0
  9
$SORTENTS
280
   127
  9
$INDEXCTL
280
     0
  9
$HIDETEXT
280
     1
  9
$XCLIPFRAME
280
     2
  9
$HALOGAP
280
     0
  9
$OBSCOLOR
 70
   257
  9
$OBSLTYPE
280
     0
  9
$INTERSECTIONDISPLAY
280
     0
  9
$INTERSECTIONCOLOR
 70
   257
  9
$DIMASSOC
280
     2
  9
$PROJECTNAME
  1

  9
$CAMERADISPLAY
290
     0
  9
$LENSLENGTH
 40
50.0
  9
$CAMERAHEIGHT
 40
0.0
  9
$STEPSPERSEC
 40
2.0
  9
$STEPSIZE
 40
6.0
  9
$3DDWFPREC
 40
2.0
  9
$PSOLWIDTH
 40
5.0
  9
$PSOLHEIGHT
 40
80.0
  9
$LOFTANG1
 40
1.5707963268
  9
$LOFTANG2
 40
1.5707963268
  9
$LOFTMAG1
 40
0.0
  9
$LOFTMAG2
 40
0.0
  9
$LOFTPARAM
 70
     7
  9
$LOFTNORMALS
280
     1
  9
$LATITUDE
 40
37.795
  9
$LONGITUDE
 40
-122.394
  9
$NORTHDIRECTION
 40
0.0
  9
$TIMEZONE
 70
 -8000
  9
$LIGHTGLYPHDISPLAY
280
     1
  9
$TILEMODELIGHTSYNCH
280
     1
  9
$SOLIDHIST
280
     1
  9
$SHOWHIST
280
     1
  9
$DWFFRAME
280
     2
  9
$DGNFRAME
280
     2
  9
$REALWORLDSCALE
290
     1
  9
$INTERFERECOLOR
 62
   256
  9
$CSHADOW
280
     0
  9
$SHADOWPLANELOCATION
 40
0.0
  0
ENDSEC
  0
SECTION
  2
CLASSES
  0
CLASS
  1
ACDBDICTIONARYWDFLT
  2
AcDbDictionaryWithDefault
  3
ObjectDBX Classes
 90
        0
 91
        4
280
     0
281
     0
  0
CLASS
  1
VISUALSTYLE
  2
AcDbVisualStyle
  3
ObjectDBX Classes
 90
     4095
 91
        4
280
     0
281
     0
  0
CLASS
  1
MATERIAL
  2
AcDbMaterial
  3
ObjectDBX Classes
 90
     1153
 91
        4
280
     0
281
     0
  0
ENDSEC
  0
SECTION
  2
TABLES
  0
TABLE
  2
VPORT
  5
8
330
0
100
AcDbSymbolTable
 70
     1
  0
VPORT
  5
29
330
8
100
AcDbSymbolTableRecord
100
AcDbViewportTableRecord
  2
*Active
 70
     0
 10
0.0
 20
0.0
 11
1.0
 21
1.0
 12
297.0
 22
420.5
 13
0.0
 23
0.0
 14
10.0
 24
10.0
 15
10.0
 25
10.0
 16
0.0
 26
0.0
 36
1.0
 17
0.0
 27
0.0
 37
0.0
 40
841.0
 41
0.7063020214
 42
50.0
 43
0.0
 44
0.0
 50
0.0
 51
0.0
 71
     0
 72
  2000
 73
     1
 74
     3
 75
     0
 76
     0
 77
     0
 78
     0
281
     0
 65
     1
110
0.0
120
0.0
130
0.0
111
1.0
121
0.0
131
0.0
112
0.0
122
1.0
132
0.0
 79
     0
146
0.0
 60
     3
 61
     5
292
     1
282
     1
141
0.0
142
0.0
 63
   250
  0
ENDTAB
  0
TABLE
  2
LTYPE
  5
5
330
0
100
AcDbSymbolTable
 70
     6
  0
LTYPE
  5
14
330
5
100
AcDbSymbolTableRecord
100
AcDbLinetypeTableRecord
  2
ByBlock
 70
     0
  3

 72
    65
 73
     0
 40
0.0
  0
LTYPE
  5
15
330
5
100
AcDbSymbolTableRecord
100
AcDbLinetypeTableRecord
  2
ByLayer
 70
     0
  3

 72
    65
 73
     0
 40
0.0
  0
LTYPE
  5
16
330
5
100
AcDbSymbolTableRecord
100
AcDbLinetypeTableRecord
  2
Continuous
 70
     0
  3
Solid line
 72
    65
 73
     0
 40
0.0
  0
LTYPE
  5
3F
330
5
100
AcDbSymbolTableRecord
100
AcDbLinetypeTableRecord
  2
HIDDEN
 70
     0
  3
Hidden __ __ __ __ __ __ __ __ __ __ __ __ __ __
 72
    65
 73
     2
 40
1.905
 49
1.27
 74
     0
 49
-0.635
 74
     0
  0
LTYPE
  5
40
330
5
100
AcDbSymbolTableRecord
100
AcDbLinetypeTableRecord
  2
PHANTOM
 70
     0
  3
Phantom ______  __  __  ______  __  __  ______
 72
    65
 73
     6
 40
12.7
 49
6.35
 74
     0
 49
-1.27
 74
     0
 49
1.27
 74
     0
 49
-1.27
 74
     0
 49
1.27
 74
     0
 49
-1.27
 74
     0
  0
LTYPE
  5
41
330
5
100
AcDbSymbolTableRecord
100
AcDbLinetypeTableRecord
  2
CENTER
 70
     0
  3
Center ____ _ ____ _ ____ _ ____ _ ____ _ ____
 72
    65
 73
     4
 40
10.16
 49
6.35
 74
     0
 49
-1.27
 74
     0
 49
1.27
 74
     0
 49
-1.27
 74
     0
  0
LTYPE
  5
42
330
5
100
AcDbSymbolTableRecord
100
AcDbLinetypeTableRecord
  2
CENTERX2
 70
     0
  3
Center (2x) ________  __  ________  __  _____
 72
    65
 73
     4
 40
20.32
 49
12.7
 74
     0
 49
-2.54
 74
     0
 49
2.54
 74
     0
 49
-2.54
 74
     0
  0
LTYPE
  5
43
330
5
100
AcDbSymbolTableRecord
100
AcDbLinetypeTableRecord
  2
DOT2
 70
     0
  3
Dot (.5x) ........................................
 72
    65
 73
     2
 40
0.635
 49
0.0
 74
     0
 49
-0.635
 74
     0
  0
ENDTAB
  0
TABLE
  2
LAYER
  5
2
330
0
100
AcDbSymbolTable
 70
     1
  0
LAYER
  5
10
330
2
100
AcDbSymbolTableRecord
100
AcDbLayerTableRecord
  2
0
 70
     0
 62
     7
  6
Continuous
370
    -3
390
F
347
3E
  0
ENDTAB
  0
TABLE
  2
STYLE
  5
3
330
0
100
AcDbSymbolTable
 70
     2
  0
STYLE
  5
11
330
3
100
AcDbSymbolTableRecord
100
AcDbTextStyleTableRecord
  2
Standard
 70
     0
 40
0.0
 41
1.0
 50
0.0
 71
     0
 42
5.0
  3
txt
  4

  0
STYLE
  5
47
330
3
100
AcDbSymbolTableRecord
100
AcDbTextStyleTableRecord
  2
SLDTEXTSTYLE0
 70
     0
 40
0.0
 41
0.96
 50
0.0
 71
     0
 42
0.2
  3
ISOCP3
  4

  0
ENDTAB
  0
TABLE
  2
VIEW
  5
6
330
0
100
AcDbSymbolTable
 70
     0
  0
ENDTAB
  0
TABLE
  2
UCS
  5
7
330
0
100
AcDbSymbolTable
 70
     0
  0
ENDTAB
  0
TABLE
  2
APPID
  5
9
330
0
100
AcDbSymbolTable
 70
     1
  0
APPID
  5
12
330
9
100
AcDbSymbolTableRecord
100
AcDbRegAppTableRecord
  2
ACAD
 70
     0
  0
ENDTAB
  0
TABLE
  2
DIMSTYLE
  5
A
330
0
100
AcDbSymbolTable
 70
     2
100
AcDbDimStyleTable
  0
DIMSTYLE
105
27
330
A
100
AcDbSymbolTableRecord
100
AcDbDimStyleTableRecord
  2
ISO-25
 70
     0
 41
2.5
 42
0.625
 43
3.75
 44
1.25
 73
     0
 74
     0
 77
     1
 78
     8
140
2.5
141
2.5
143
0.0393700787
147
0.625
171
     3
172
     1
178
     0
271
     2
272
     2
274
     3
278
    44
283
     0
284
     8
340
11
  0
DIMSTYLE
105
48
102
{ACAD_REACTORS
330
46
330
53
102
}
330
A
100
AcDbSymbolTableRecord
100
AcDbDimStyleTableRecord
  2
SLDDIMSTYLE0
 70
     0
 41
2.5
 44
0.0
 45
0.000000001
 73
     0
 74
     0
 77
     1
 78
    12
 79
     3
140
6.0
147
1.5
173
     1
178
     0
271
     2
272
     2
276
     2
284
    12
340
47
  0
ENDTAB
  0
TABLE
  2
BLOCK_RECORD
  5
1
330
0
100
AcDbSymbolTable
 70
     3
  0
BLOCK_RECORD
  5
1F
330
1
100
AcDbSymbolTableRecord
100
AcDbBlockTableRecord
  2
*Model_Space
340
22
 70
     0
280
     1
281
     0
  0
BLOCK_RECORD
  5
1B
330
1
100
AcDbSymbolTableRecord
100
AcDbBlockTableRecord
  2
*Paper_Space
340
1E
 70
     0
280
     1
281
     0
  0
BLOCK_RECORD
  5
23
330
1
100
AcDbSymbolTableRecord
100
AcDbBlockTableRecord
  2
*Paper_Space0
340
26
 70
     0
280
     1
281
     0
  0
BLOCK_RECORD
  5
49
330
1
100
AcDbSymbolTableRecord
100
AcDbBlockTableRecord
  2
_D
340
0
 70
     0
280
     1
281
     0
  0
BLOCK_RECORD
  5
54
330
1
100
AcDbSymbolTableRecord
100
AcDbBlockTableRecord
  2
_D_1
340
0
 70
     0
280
     1
281
     0
  0
ENDTAB
  0
ENDSEC
  0
SECTION
  2
BLOCKS
  0
BLOCK
  5
20
330
1F
100
AcDbEntity
  8
0
100
AcDbBlockBegin
  2
*Model_Space
 70
     0
 10
0.0
 20
0.0
 30
0.0
  3
*Model_Space
  1

  0
ENDBLK
  5
21
330
1F
100
AcDbEntity
  8
0
100
AcDbBlockEnd
  0
BLOCK
  5
1C
330
1B
100
AcDbEntity
 67
     1
  8
0
100
AcDbBlockBegin
  2
*Paper_Space
 70
     0
 10
0.0
 20
0.0
 30
0.0
  3
*Paper_Space
  1

  0
ENDBLK
  5
1D
330
1B
100
AcDbEntity
 67
     1
  8
0
100
AcDbBlockEnd
  0
BLOCK
  5
24
330
23
100
AcDbEntity
  8
0
100
AcDbBlockBegin
  2
*Paper_Space0
 70
     0
 10
0.0
 20
0.0
 30
0.0
  3
*Paper_Space0
  1

  0
ENDBLK
  5
25
330
23
100
AcDbEntity
  8
0
100
AcDbBlockEnd
  0
BLOCK
  5
4A
330
49
100
AcDbEntity
  8
0
100
AcDbBlockBegin
  2
_D
 70
     0
 10
0.0
 20
0.0
 30
0.0
  3
_D
  1

  0
SOLID
  5
4C
330
49
100
AcDbEntity
  8
0
  6
Continuous
 62
     7
370
     0
100
AcDbTrace
 10
42.7614395004
 20
152.0299240879
 30
0.0
 11
42.4614395004
 21
149.5299240879
 31
0.0
 12
43.0614395004
 22
149.5299240879
 32
0.0
 13
43.0614395004
 23
149.5299240879
 33
0.0
  0
SOLID
  5
4D
330
49
100
AcDbEntity
  8
0
  6
Continuous
 62
     7
370
     0
100
AcDbTrace
 10
42.7614395004
 20
52.0299240879
 30
0.0
 11
43.0614395004
 21
54.5299240879
 31
0.0
 12
42.4614395004
 22
54.5299240879
 32
0.0
 13
42.4614395004
 23
54.5299240879
 33
0.0
  0
LINE
  5
4E
330
49
100
AcDbEntity
  8
0
  6
Continuous
 62
     7
370
     0
100
AcDbLine
 10
56.6850079902
 20
152.0299240879
 30
0.0
 11
41.7614395004
 21
152.0299240879
 31
0.0
  0
LINE
  5
4F
330
49
100
AcDbEntity
  8
0
  6
Continuous
 62
     7
370
     0
100
AcDbLine
 10
56.6850079902
 20
52.0299240879
 30
0.0
 11
41.7614395004
 21
52.0299240879
 31
0.0
  0
LINE
  5
50
330
49
100
AcDbEntity
  8
0
  6
Continuous
 62
     7
370
     0
100
AcDbLine
 10
42.7614395004
 20
152.0299240879
 30
0.0
 11
42.7614395004
 21
52.0299240879
 31
0.0
  0
MTEXT
  5
51
330
49
100
AcDbEntity
  8
0
  6
Continuous
 62
     7
370
     0
100
AcDbMText
 10
35.0270329453
 20
91.6722208134
 30
0.1
 40
6.0
 41
0.0
 46
0.0
 71
     1
 72
     1
  1
100
  7
SLDTEXTSTYLE0
 11
-7.044195017643634E-15
 21
1.0
 31
0.0
 73
     1
 44
1.0
  0
MTEXT
  5
52
330
49
100
AcDbEntity
  8
0
  6
Continuous
 62
     7
370
     0
100
AcDbMText
 10
35.0270329453
 20
108.4388881795
 30
0.1
 40
6.0
 41
0.0
 46
0.0
 71
     1
 72
     1
  1
mm
  7
SLDTEXTSTYLE0
 11
-7.044195017643634E-15
 21
1.0
 31
0.0
 73
     1
 44
1.0
  0
ENDBLK
  5
4B
330
49
100
AcDbEntity
  8
0
100
AcDbBlockEnd
  0
BLOCK
  5
55
330
54
100
AcDbEntity
  8
0
100
AcDbBlockBegin
  2
_D_1
 70
     0
 10
0.0
 20
0.0
 30
0.0
  3
_D_1
  1

  0
SOLID
  5
57
330
54
100
AcDbEntity
  8
0
  6
Continuous
 62
     7
370
     0
100
AcDbTrace
 10
56.6850079902
 20
38.4602342313
 30
0.0
 11
59.1850079902
 21
38.1602342313
 31
0.0
 12
59.1850079902
 22
38.7602342313
 32
0.0
 13
59.1850079902
 23
38.7602342313
 33
0.0
  0
SOLID
  5
58
330
54
100
AcDbEntity
  8
0
  6
Continuous
 62
     7
370
     0
100
AcDbTrace
 10
156.6850079902
 20
38.4602342313
 30
0.0
 11
154.1850079902
 21
38.7602342313
 31
0.0
 12
154.1850079902
 22
38.1602342313
 32
0.0
 13
154.1850079902
 23
38.1602342313
 33
0.0
  0
LINE
  5
59
330
54
100
AcDbEntity
  8
0
  6
Continuous
 62
     7
370
     0
100
AcDbLine
 10
56.6850079902
 20
52.0299240879
 30
0.0
 11
56.6850079902
 21
37.4602342313
 31
0.0
  0
LINE
  5
5A
330
54
100
AcDbEntity
  8
0
  6
Continuous
 62
     7
370
     0
100
AcDbLine
 10
156.6850079902
 20
52.0299240879
 30
0.0
 11
156.6850079902
 21
37.4602342313
 31
0.0
  0
LINE
  5
5B
330
54
100
AcDbEntity
  8
0
  6
Continuous
 62
     7
370
     0
100
AcDbLine
 10
56.6850079902
 20
38.4602342313
 30
0.0
 11
156.6850079902
 21
38.4602342313
 31
0.0
  0
MTEXT
  5
5C
330
54
100
AcDbEntity
  8
0
  6
Continuous
 62
     7
370
     0
100
AcDbMText
 10
91.2668151533
 20
46.1946407863
 30
0.1
 40
6.0
 41
0.0
 46
0.0
 71
     1
 72
     1
  1
100
  7
SLDTEXTSTYLE0
 73
     1
 44
1.0
  0
MTEXT
  5
5D
330
54
100
AcDbEntity
  8
0
  6
Continuous
 62
     7
370
     0
100
AcDbMText
 10
108.0334825193
 20
46.1946407863
 30
0.1
 40
6.0
 41
0.0
 46
0.0
 71
     1
 72
     1
  1
mm
  7
SLDTEXTSTYLE0
 73
     1
 44
1.0
  0
ENDBLK
  5
56
330
54
100
AcDbEntity
  8
0
100
AcDbBlockEnd
  0
ENDSEC
  0
SECTION
  2
ENTITIES
  0
LINE
  5
44
330
1F
100
AcDbEntity
  8
0
  6
Continuous
 62
     7
370
     0
100
AcDbLine
 10
56.6850079902
 20
152.0299240879
 30
0.0
 11
56.6850079902
 21
52.0299240879
 31
0.0
  0
LINE
  5
45
330
1F
100
AcDbEntity
  8
0
  6
Continuous
 62
     7
370
     0
100
AcDbLine
 10
56.6850079902
 20
52.0299240879
 30
0.0
 11
156.6850079902
 21
52.0299240879
 31
0.0
  0
DIMENSION
  5
46
330
1F
100
AcDbEntity
  8
0
  6
Continuous
 62
     7
370
     0
100
AcDbDimension
280
     0
  2
_D
 10
42.7614395004
 20
52.0299240879
 30
0.0
 11
42.7614395004
 21
105.4472211621
 31
0.0
 70
   160
  1
<>mm
 71
     2
 42
-1.0
 73
     0
 74
     0
 75
     0
  3
SLDDIMSTYLE0
100
AcDbAlignedDimension
 13
56.6850079902
 23
152.0299240879
 33
0.0
 14
56.6850079902
 24
52.0299240879
 34
0.0
 50
90.0
100
AcDbRotatedDimension
  0
DIMENSION
  5
53
330
1F
100
AcDbEntity
  8
0
  6
Continuous
 62
     7
370
     0
100
AcDbDimension
280
     0
  2
_D_1
 10
156.6850079902
 20
38.4602342313
 30
0.0
 11
105.0418155019
 21
38.4602342313
 31
0.0
 70
   160
  1
<>mm
 71
     2
 42
-1.0
 73
     0
 74
     0
 75
     0
  3
SLDDIMSTYLE0
100
AcDbAlignedDimension
 13
56.6850079902
 23
52.0299240879
 33
0.0
 14
156.6850079902
 24
52.0299240879
 34
0.0
100
AcDbRotatedDimension
  0
MTEXT
  5
5E
330
1F
100
AcDbEntity
  8
0
  6
Continuous
 62
     7
370
     0
100
AcDbMText
 10
412.8252631579
 20
48.3509116029
 30
0.0
 40
10.0
 41
0.0
 46
0.0
 71
     1
 72
     1
  1
KLUDI GmbH & Co KG
  7
SLDTEXTSTYLE0
 73
     1
 44
1.0
  0
MTEXT
  5
5F
330
1F
100
AcDbEntity
  8
0
  6
Continuous
 62
     7
370
     0
100
AcDbMText
 10
266.5627924703
 20
48.3509116029
 30
0.0
 40
10.0
 41
0.0
 46
0.0
 71
     1
 72
     1
  1
52 298 05 75
  7
SLDTEXTSTYLE0
 73
     1
 44
1.0
  0
ARC
  5
60
330
1F
100
AcDbEntity
  8
0
  6
Continuous
 62
     7
370
    15
100
AcDbCircle
 10
408.0609395804
 20
555.4022062817
 30
0.0
 40
140.3849367625911
100
AcDbArc
 50
92.3773019152
 51
97.2795714442
  0
LINE
  5
61
330
1F
100
AcDbEntity
  8
0
  6
Continuous
 62
     7
370
    15
100
AcDbLine
 10
298.4236621237
 20
588.8817651122
 30
0.0
 11
298.4236621237
 21
428.3656317549
 31
0.0
  0
LINE
  5
62
330
1F
100
AcDbEntity
  8
0
  6
Continuous
 62
     7
370
    15
100
AcDbLine
 10
347.5706607974
 20
428.3656317549
 30
0.0
 11
347.5706607974
 21
588.8817651122
 31
0.0
  0
ARC
  5
63
330
1F
100
AcDbEntity
  8
0
  6
Continuous
 62
     7
370
    15
100
AcDbCircle
 10
502.2288844649
 20
734.421537638
 30
0.0
 40
30.00114555207579
100
AcDbArc
 50
323.0522838169
 51
334.6929398104
  0
LWPOLYLINE
  5
64
330
1F
100
AcDbEntity
  8
0
  6
Continuous
 62
     7
370
    15
100
AcDbPolyline
 90
       19
 70
   128
 43
0.0
 10
509.4122880077
 20
703.8864258485
 10
510.9164559221
 20
704.5231599169
 10
513.9734887457
 20
706.0548428255
 10
515.347211895
 20
706.8106744247
 10
516.6344934082
 20
707.5652021723
 10
517.8392820931
 20
708.3285663086
 10
518.4156292057
 20
708.7166596013
 10
518.976970849
 20
709.1104972916
 10
519.5222639418
 20
709.5111224609
 10
520.0454437113
 20
709.9189597922
 10
521.0325115299
 20
710.751293953
 10
521.9506167746
 20
711.595012601
 10
522.807686863
 20
712.437397595
 10
523.7011902905
 20
713.3690554457
 10
524.525269208
 20
714.2849627691
 10
525.1235806322
 20
714.994310196
 10
525.6813012934
 20
715.6949180918
 10
525.982349453
 20
716.0887259799
 10
526.2053304291
 20
716.3882691222
  0
LWPOLYLINE
  5
65
330
1F
100
AcDbEntity
  8
0
  6
Continuous
 62
     7
370
    15
100
AcDbPolyline
 90
        3
 70
   128
 43
0.0
 10
528.5311334705
 20
723.647295292
 10
527.5771313286
 20
723.7111020642
 10
522.8633128977
 20
723.9384490805
  0
LWPOLYLINE
  5
66
330
1F
100
AcDbEntity
  8
0
  6
Continuous
 62
     7
370
    15
100
AcDbPolyline
 90
        5
 70
   128
 43
0.0
 10
368.4989058352
 20
746.7253643828
 10
374.6546500301
 20
747.264965232
 10
380.2189857638
 20
747.684105094
 10
385.1818957305
 20
748.0559933739
 10
389.6216967082
 20
748.4460014659
  0
LINE
  5
67
330
1F
100
AcDbEntity
  8
0
  6
Continuous
 62
     7
370
    15
100
AcDbLine
 10
350.2073709792
 20
743.9659077483
 30
0.0
 11
350.4047797001
 21
744.0144706326
 31
0.0
  0
ARC
  5
68
330
1F
100
AcDbEntity
  8
0
  6
Continuous
 62
     7
370
    15
100
AcDbCircle
 10
338.8302035279
 20
730.6474034918
 30
0.0
 40
8.263304889367689
100
AcDbArc
 50
132.0536433257
 51
163.5242941177
  0
LWPOLYLINE
  5
69
330
1F
100
AcDbEntity
  8
0
  6
Continuous
 62
     7
370
    15
100
AcDbPolyline
 90
        3
 70
   128
 43
0.0
 10
423.9938252545
 20
762.4369550305
 10
419.8885925984
 20
762.6328158932
 10
414.7677862024
 20
762.4927896815
  0
ARC
  5
6A
330
1F
100
AcDbEntity
  8
0
  6
Continuous
 62
     7
370
    15
100
AcDbCircle
 10
412.4471844572
 20
486.3275792136
 30
0.0
 40
274.7673356238792
100
AcDbArc
 50
102.6731991395
 51
109.0350395416
  0
LINE
  5
6B
330
1F
100
AcDbEntity
  8
0
  6
Continuous
 62
     7
370
    15
100
AcDbLine
 10
350.2086170888
 20
743.9662206727
 30
0.0
 11
350.4047797001
 21
744.0144706326
 31
0.0
  0
LWPOLYLINE
  5
6C
330
1F
100
AcDbEntity
  8
0
  6
Continuous
 62
     7
370
    15
100
AcDbPolyline
 90
        3
 70
   128
 43
0.0
 10
330.9063690654
 20
732.9914409476
 10
331.2615615255
 20
733.976362999
 10
331.3258833191
 20
734.0997595149
  0
LINE
  5
6D
330
1F
100
AcDbEntity
  8
0
  6
Continuous
 62
     7
370
    15
100
AcDbLine
 10
333.0960835269
 20
736.5917999106
 30
0.0
 11
333.2956706113
 21
736.7834884482
 31
0.0
  0
ARC
  5
6E
330
1F
100
AcDbEntity
  8
0
  6
Continuous
 62
     7
370
    15
100
AcDbCircle
 10
327.6138359812
 20
718.8864376247
 30
0.0
 40
11.35689049955132
100
AcDbArc
 50
29.0426467331
 51
78.7435243036
  0
LWPOLYLINE
  5
6F
330
1F
100
AcDbEntity
  8
0
  6
Continuous
 62
     7
370
    15
100
AcDbPolyline
 90
        3
 70
   128
 43
0.0
 10
312.5135957202
 20
729.7709721881
 10
312.0316483951
 20
729.3216127711
 10
311.6820131368
 20
728.8775730687
  0
LINE
  5
70
330
1F
100
AcDbEntity
  8
0
  6
Continuous
 62
     7
370
    15
100
AcDbLine
 10
507.5829618549
 20
703.1529012876
 30
0.0
 11
507.5124048567
 21
703.4996811109
 31
0.0
  0
LINE
  5
71
330
1F
100
AcDbEntity
  8
0
  6
Continuous
 62
     7
370
    15
100
AcDbLine
 10
489.3382781124
 20
700.2598184901
 30
0.0
 11
489.498256979
 21
699.4735289174
 31
0.0
  0
LWPOLYLINE
  5
72
330
1F
100
AcDbEntity
  8
0
  6
Continuous
 62
     7
370
    15
100
AcDbPolyline
 90
        3
 70
   128
 43
0.0
 10
324.1424017292
 20
730.0506520825
 10
323.981401842
 20
730.0514269429
 10
323.912052711
 20
730.0515461522
  0
LWPOLYLINE
  5
73
330
1F
100
AcDbEntity
  8
0
  6
Continuous
 62
     7
370
    15
100
AcDbPolyline
 90
        3
 70
   128
 43
0.0
 10
326.672689564
 20
730.0316232997
 10
326.6632398995
 20
730.0317425089
 10
326.6591846882
 20
730.0317872124
  0
LWPOLYLINE
  5
74
330
1F
100
AcDbEntity
  8
0
  6
Continuous
 62
     7
370
    15
100
AcDbPolyline
 90
        3
 70
   128
 43
0.0
 10
328.2321121483
 20
730.0246346551
 10
328.1119268327
 20
730.0249177771
 10
328.0569676249
 20
730.0251114922
  0
LWPOLYLINE
  5
75
330
1F
100
AcDbEntity
  8
0
  6
Continuous
 62
     7
370
    15
100
AcDbPolyline
 90
        3
 70
   128
 43
0.0
 10
330.9305154657
 20
730.0339180785
 10
330.9310742593
 20
730.033962782
 10
330.8900057277
 20
730.0331879216
  0
LINE
  5
76
330
1F
100
AcDbEntity
  8
0
  6
Continuous
 62
     7
370
    15
100
AcDbLine
 10
330.4919421612
 20
729.8449415522
 30
0.0
 11
330.5057397051
 21
730.6353885489
 31
0.0
  0
LINE
  5
77
330
1F
100
AcDbEntity
  8
0
  6
Continuous
 62
     7
370
    15
100
AcDbLine
 10
312.9110683626
 20
730.62911516
 30
0.0
 11
312.9286591834
 21
729.6213645297
 31
0.0
  0
ARC
  5
78
330
1F
100
AcDbEntity
  8
0
  6
Continuous
 62
     7
370
    15
100
AcDbCircle
 10
327.9123517736
 20
719.2105369487
 30
0.0
 40
10.93953723411188
100
AcDbArc
 50
28.2824273265
 51
75.5215184344
  0
ARC
  5
79
330
1F
100
AcDbEntity
  8
0
  6
Continuous
 62
     7
370
    15
100
AcDbCircle
 10
312.475791286
 20
729.5941917159
 30
0.0
 40
0.1853462496106031
100
AcDbArc
 50
109.0308079994
 51
136.4077006202
  0
LINE
  5
7A
330
1F
100
AcDbEntity
  8
0
  6
Continuous
 62
     7
370
    15
100
AcDbLine
 10
312.4137896052
 20
729.7685731011
 30
0.0
 11
312.3928972459
 21
729.7569054919
 31
0.0
  0
ARC
  5
7B
330
1F
100
AcDbEntity
  8
0
  6
Continuous
 62
     7
370
    15
100
AcDbCircle
 10
330.9474803974
 20
729.7391323152
 30
0.0
 40
0.2952522101604053
100
AcDbArc
 50
93.7886790058
 51
167.4342542588
  0
LWPOLYLINE
  5
7C
330
1F
100
AcDbEntity
  8
0
  6
Continuous
 62
     7
370
    15
100
AcDbPolyline
 90
        3
 70
   128
 43
0.0
 10
417.8550683832
 20
754.7214466887
 10
418.5350381708
 20
755.0253558713
 10
419.1185378409
 20
755.3019661265
  0
LINE
  5
7D
330
1F
100
AcDbEntity
  8
0
  6
Continuous
 62
     7
370
    15
100
AcDbLine
 10
329.6896333745
 20
748.3173895436
 30
0.0
 11
324.3685557213
 21
746.6015208321
 31
0.0
  0
LINE
  5
7E
330
1F
100
AcDbEntity
  8
0
  6
Continuous
 62
     7
370
    15
100
AcDbLine
 10
298.4236621237
 20
723.2052821475
 30
0.0
 11
298.4236621237
 21
603.8906311425
 31
0.0
  0
LWPOLYLINE
  5
7F
330
1F
100
AcDbEntity
  8
0
  6
Continuous
 62
     7
370
    15
100
AcDbPolyline
 90
       14
 70
   128
 43
0.0
 10
322.9971601072
 20
723.203300293
 10
322.9971010155
 20
723.203300293
 10
322.3851254847
 20
723.2032704907
 10
318.3146270862
 20
723.2072640019
 10
314.2616434893
 20
723.2075769263
 10
310.5726868785
 20
723.2074130135
 10
307.1370695657
 20
723.2073385077
 10
305.3049997366
 20
723.2070702868
 10
302.7373471236
 20
723.2065636473
 10
300.6718021757
 20
723.2062358218
 10
299.282905919
 20
723.2057291823
 10
298.5345956808
 20
723.2036579209
 10
298.4236621237
 20
723.2052821475
 10
298.4236621237
 20
723.2052821475
  0
LINE
  5
80
330
1F
100
AcDbEntity
  8
0
  6
Continuous
 62
     7
370
    15
100
AcDbLine
 10
310.468675842
 20
588.8456311933
 30
0.0
 11
322.997161195
 21
588.8456311933
 31
0.0
  0
LINE
  5
81
330
1F
100
AcDbEntity
  8
0
  6
Continuous
 62
     7
370
    15
100
AcDbLine
 10
301.8572938568
 20
588.8456311933
 30
0.0
 11
310.468675842
 21
588.8456311933
 31
0.0
  0
LINE
  5
82
330
1F
100
AcDbEntity
  8
0
  6
Continuous
 62
     7
370
    15
100
AcDbLine
 10
298.4236621237
 20
588.8456311933
 30
0.0
 11
301.8572938568
 21
588.8456311933
 31
0.0
  0
LINE
  5
83
330
1F
100
AcDbEntity
  8
0
  6
Continuous
 62
     7
370
    15
100
AcDbLine
 10
298.4236621237
 20
588.8456311933
 30
0.0
 11
298.4236621237
 21
603.8906311425
 31
0.0
  0
LINE
  5
84
330
1F
100
AcDbEntity
  8
0
  6
Continuous
 62
     7
370
    15
100
AcDbLine
 10
347.5706607974
 20
603.8906311425
 30
0.0
 11
347.5706607974
 21
652.4849075633
 31
0.0
  0
LINE
  5
85
330
1F
100
AcDbEntity
  8
0
  6
Continuous
 62
     7
370
    15
100
AcDbLine
 10
347.5706607974
 20
588.8456311933
 30
0.0
 11
347.5706607974
 21
603.8906311425
 31
0.0
  0
LINE
  5
86
330
1F
100
AcDbEntity
  8
0
  6
Continuous
 62
     7
370
    15
100
AcDbLine
 10
344.1370272017
 20
588.8456311933
 30
0.0
 11
347.5706607974
 21
588.8456311933
 31
0.0
  0
LINE
  5
87
330
1F
100
AcDbEntity
  8
0
  6
Continuous
 62
     7
370
    15
100
AcDbLine
 10
335.5256461477
 20
588.8456311933
 30
0.0
 11
344.1370272017
 21
588.8456311933
 31
0.0
  0
LINE
  5
88
330
1F
100
AcDbEntity
  8
0
  6
Continuous
 62
     7
370
    15
100
AcDbLine
 10
322.997161195
 20
588.8456311933
 30
0.0
 11
335.5256461477
 21
588.8456311933
 31
0.0
  0
LWPOLYLINE
  5
89
330
1F
100
AcDbEntity
  8
0
  6
Continuous
 62
     7
370
    15
100
AcDbPolyline
 90
       14
 70
   128
 43
0.0
 10
299.5110184825
 20
724.4910884457
 10
299.5110184825
 20
724.4910884457
 10
299.6152819073
 20
724.4891661959
 10
300.3267676509
 20
724.4933385211
 10
301.6722344732
 20
724.4943965035
 10
303.6221948391
 20
724.4960356312
 10
306.1090105152
 20
724.4974810439
 10
307.8602685532
 20
724.4981515961
 10
311.0918135321
 20
724.4984347182
 10
314.6588786444
 20
724.4978833752
 10
318.0052501088
 20
724.4964826661
 10
321.4622544297
 20
724.4900751668
 10
322.4126226091
 20
724.4871098357
 10
322.9971360238
 20
724.4863796788
  0
ARC
  5
8A
330
1F
100
AcDbEntity
  8
0
  6
Continuous
 62
     7
370
    15
100
AcDbCircle
 10
299.7275553374
 20
723.2053010203
 30
0.0
 40
1.303893213805896
100
AcDbArc
 50
99.5593677805
 51
180.0008293098
  0
ARC
  5
8B
330
1F
100
AcDbEntity
  8
0
  6
Continuous
 62
     7
370
    15
100
AcDbCircle
 10
528.4868140906
 20
722.3667105583
 30
0.0
 40
1.303908906391737
100
AcDbArc
 50
330.311401048
 51
85.7004620589
  0
LWPOLYLINE
  5
8C
330
1F
100
AcDbEntity
  8
0
  6
Continuous
 62
     7
370
    15
100
AcDbPolyline
 90
       11
 70
   128
 43
0.0
 10
529.6195589876
 20
721.7209029751
 10
529.6195589876
 20
721.7209029751
 10
529.5520865297
 20
721.6945875245
 10
529.5762264109
 20
721.6778386193
 10
529.557197628
 20
721.6638613301
 10
529.1855328655
 20
721.6629672604
 10
528.1953805065
 20
721.7033196049
 10
526.4273875332
 20
721.8091178494
 10
523.6462795115
 20
722.0087636071
 10
520.703240571
 20
722.2319531994
 10
520.7031809664
 20
722.2319531994
  0
LWPOLYLINE
  5
8D
330
1F
100
AcDbEntity
  8
0
  6
Continuous
 62
     7
370
    15
100
AcDbPolyline
 90
        3
 70
   128
 43
0.0
 10
520.7031809664
 20
722.2319531994
 10
520.7031213617
 20
722.2319531994
 10
520.4997503138
 20
722.2333539086
  0
LWPOLYLINE
  5
8E
330
1F
100
AcDbEntity
  8
0
  6
Continuous
 62
     7
370
    15
100
AcDbPolyline
 90
       14
 70
   128
 43
0.0
 10
402.2345834351
 20
695.6644642907
 10
391.787416575
 20
694.8502722936
 10
381.7059242106
 20
693.2328481036
 10
375.3086172915
 20
691.5442410665
 10
369.2834817743
 20
689.2496783095
 10
363.7485050535
 20
686.2487334567
 10
360.0061641014
 20
683.483897503
 10
356.684512732
 20
680.2563879448
 10
353.84116256
 20
676.5655193287
 10
351.5208952999
 20
672.4332932191
 10
349.7434773421
 20
667.9025504547
 10
348.5107750571
 20
663.0243126112
 10
347.7977451807
 20
657.8658062773
 10
347.5711413598
 20
652.4844083744
  0
LWPOLYLINE
  5
8F
330
1F
100
AcDbEntity
  8
0
  6
Continuous
 62
     7
370
    15
100
AcDbPolyline
 90
        4
 70
   128
 43
0.0
 10
344.6582828587
 20
723.3029294568
 10
333.8261705762
 20
723.2409853297
 10
322.9972213744
 20
723.2023317176
 10
322.997161195
 20
723.2023317176
  0
LWPOLYLINE
  5
90
330
1F
100
AcDbEntity
  8
0
  6
Continuous
 62
     7
370
    15
100
AcDbPolyline
 90
        4
 70
   128
 43
0.0
 10
402.234158752
 20
722.9581463891
 10
402.2340991473
 20
722.9581463891
 10
366.8407865739
 20
723.200066741
 10
344.6582828587
 20
723.3031976777
  0
LWPOLYLINE
  5
91
330
1F
100
AcDbEntity
  8
0
  6
Continuous
 62
     7
370
    15
100
AcDbPolyline
 90
        3
 70
   128
 43
0.0
 10
322.9971849219
 20
724.4871694403
 10
333.8305617622
 20
724.4454014855
 10
344.6620677537
 20
724.4674850064
  0
LWPOLYLINE
  5
92
330
1F
100
AcDbEntity
  8
0
  6
Continuous
 62
     7
370
    15
100
AcDbPolyline
 90
        5
 70
   128
 43
0.0
 10
344.6621776497
 20
724.4677532273
 10
344.6616505212
 20
724.3246573763
 10
344.6607583141
 20
724.0630823928
 10
344.6595941609
 20
723.7102825003
 10
344.6582828587
 20
723.3029294568
  0
LWPOLYLINE
  5
93
330
1F
100
AcDbEntity
  8
0
  6
Continuous
 62
     7
370
    15
100
AcDbPolyline
 90
        3
 70
   128
 43
0.0
 10
344.6620696163
 20
724.4676042157
 10
366.8429286158
 20
724.3998635369
 10
402.2378467894
 20
724.2643374758
  0
LINE
  5
94
330
1F
100
AcDbEntity
  8
0
  6
Continuous
 62
     7
370
    15
100
AcDbLine
 10
322.997161195
 20
428.3656317549
 30
0.0
 11
347.5706607974
 21
428.3656317549
 31
0.0
  0
LINE
  5
95
330
1F
100
AcDbEntity
  8
0
  6
Continuous
 62
     7
370
    15
100
AcDbLine
 10
298.4236621237
 20
428.3656317549
 30
0.0
 11
322.997161195
 21
428.3656317549
 31
0.0
  0
LWPOLYLINE
  5
96
330
1F
100
AcDbEntity
  8
0
  6
Continuous
 62
     7
370
    15
100
AcDbPolyline
 90
        5
 70
   128
 43
0.0
 10
402.234158752
 20
695.6649038749
 10
425.3407561159
 20
696.8084264355
 10
448.3546161032
 20
697.6659882622
 10
466.5531658507
 20
698.1476310449
 10
484.6807562685
 20
698.8641682821
  0
LWPOLYLINE
  5
97
330
1F
100
AcDbEntity
  8
0
  6
Continuous
 62
     7
370
    15
100
AcDbPolyline
 90
        4
 70
   128
 43
0.0
 10
484.8037653542
 20
722.479014452
 10
461.2171196318
 20
722.6304549533
 10
437.6289018369
 20
722.7711964207
 10
402.234158752
 20
722.9581463891
  0
LWPOLYLINE
  5
98
330
1F
100
AcDbEntity
  8
0
  6
Continuous
 62
     7
370
    15
100
AcDbPolyline
 90
        4
 70
   128
 43
0.0
 10
402.2378467894
 20
724.2643374758
 10
437.6322322464
 20
724.091573413
 10
461.2200551605
 20
723.9628720837
 10
484.806611476
 20
723.825990017
  0
LWPOLYLINE
  5
99
330
1F
100
AcDbEntity
  8
0
  6
Continuous
 62
     7
370
    15
100
AcDbPolyline
 90
        4
 70
   128
 43
0.0
 10
484.806611476
 20
723.825990017
 10
497.2635799027
 20
723.7510669785
 10
515.0405459976
 20
723.6420947867
 10
520.5011510229
 20
723.6082542496
  0
LWPOLYLINE
  5
9A
330
1F
100
AcDbEntity
  8
0
  6
Continuous
 62
     7
370
    15
100
AcDbPolyline
 90
        5
 70
   128
 43
0.0
 10
520.4997503138
 20
722.2335327225
 10
515.9090303755
 20
722.2651529866
 10
506.7275606966
 20
722.3282892066
 10
493.1954883909
 20
722.4213320571
 10
484.8037653542
 20
722.479014452
  0
LWPOLYLINE
  5
9B
330
1F
100
AcDbEntity
  8
0
  6
Continuous
 62
     7
370
    15
100
AcDbPolyline
 90
        3
 70
   128
 43
0.0
 10
529.6195589876
 20
721.7209029751
 10
529.5840793228
 20
721.6586906272
 10
529.5484059429
 20
721.5961951571
  0
LWPOLYLINE
  5
9C
330
1F
100
AcDbEntity
  8
0
  6
Continuous
 62
     7
370
    15
100
AcDbPolyline
 90
        3
 70
   128
 43
0.0
 10
526.2042873478
 20
716.3889843779
 10
528.0062400675
 20
719.0228987294
 10
529.5484059429
 20
721.5961951571
  0
LWPOLYLINE
  5
9D
330
1F
100
AcDbEntity
  8
0
  6
Continuous
 62
     7
370
    15
100
AcDbPolyline
 90
       14
 70
   128
 43
0.0
 10
486.4776276922
 20
698.976157959
 10
487.0155745125
 20
699.2649499136
 10
488.6632406092
 20
700.11185741
 10
489.8923479891
 20
700.6759036141
 10
491.4021187401
 20
701.2697595912
 10
493.1122207022
 20
701.8234643894
 10
495.0622164583
 20
702.3045185762
 10
496.9438009834
 20
702.6247594314
 10
498.9344918108
 20
702.8286669212
 10
502.6780807352
 20
702.9802340823
 10
504.5458071804
 20
703.0740070897
 10
506.278514204
 20
703.2788011985
 10
508.7997012711
 20
703.7301201182
 10
509.4116323567
 20
703.8881022292
  0
LWPOLYLINE
  5
9E
330
1F
100
AcDbEntity
  8
0
  6
Continuous
 62
     7
370
    15
100
AcDbPolyline
 90
        3
 70
   128
 43
0.0
 10
484.6807562685
 20
698.8641682821
 10
485.6933050728
 20
698.9239219385
 10
486.4776276922
 20
698.976157959
  0
LWPOLYLINE
  5
9F
330
1F
100
AcDbEntity
  8
0
  6
Continuous
 62
     7
370
    15
100
AcDbPolyline
 90
        3
 70
   128
 43
0.0
 10
528.5845690346
 20
723.6669499236
 10
525.5727016306
 20
723.8544363337
 10
523.2076787329
 20
723.921849187
  0
LINE
  5
A0
330
1F
100
AcDbEntity
  8
0
  6
Continuous
 62
     7
370
    15
100
AcDbLine
 10
522.8631191826
 20
723.9316690522
 30
0.0
 11
520.5035799122
 21
723.9989030915
 31
0.0
  0
LWPOLYLINE
  5
A1
330
1F
100
AcDbEntity
  8
0
  6
Continuous
 62
     7
370
    15
100
AcDbPolyline
 90
        3
 70
   128
 43
0.0
 10
520.5011510229
 20
723.6082542496
 10
520.5029093599
 20
723.8902438241
 10
520.5035799122
 20
723.9988136845
  0
LWPOLYLINE
  5
A2
330
1F
100
AcDbEntity
  8
0
  6
Continuous
 62
     7
370
    15
100
AcDbPolyline
 90
        3
 70
   128
 43
0.0
 10
322.9971618825
 20
724.6391016799
 10
322.9971638179
 20
724.5451498585
 10
322.9971630685
 20
724.4881380158
  0
LWPOLYLINE
  5
A3
330
1F
100
AcDbEntity
  8
0
  6
Continuous
 62
     7
370
    15
100
AcDbPolyline
 90
       10
 70
   128
 43
0.0
 10
322.997161315
 20
724.6421266156
 10
326.5340167968
 20
724.6424246388
 10
330.0708721331
 20
724.6436763363
 10
333.3887292943
 20
724.6442723828
 10
336.5029360107
 20
724.6439296561
 10
339.1520411646
 20
724.6432293015
 10
341.412320075
 20
724.6434230166
 10
343.0940166986
 20
724.6434677201
 10
344.2455449081
 20
724.6434379178
 10
344.6619615829
 20
724.6433783131
  0
LWPOLYLINE
  5
A4
330
1F
100
AcDbEntity
  8
0
  6
Continuous
 62
     7
370
    15
100
AcDbPolyline
 90
        9
 70
   128
 43
0.0
 10
520.5035799122
 20
723.9988136845
 10
500.1689487076
 20
724.1405088263
 10
480.3307645893
 20
724.2634732085
 10
460.8458273983
 20
724.3682134705
 10
441.5709965801
 20
724.4552511531
 10
422.3630943275
 20
724.5251226979
 10
397.0722698546
 20
724.5915222722
 10
371.3292063153
 20
724.6305484133
 10
344.8124111569
 20
724.6433932143
  0
LINE
  5
A5
330
1F
100
AcDbEntity
  8
0
  6
Continuous
 62
     7
370
    15
100
AcDbLine
 10
344.6619615829
 20
724.6433932143
 30
0.0
 11
344.8124111569
 21
724.6433932143
 31
0.0
  0
LWPOLYLINE
  5
A6
330
1F
100
AcDbEntity
  8
0
  6
Continuous
 62
     7
370
    15
100
AcDbPolyline
 90
        3
 70
   128
 43
0.0
 10
301.1819117642
 20
724.6423650342
 10
300.4180372632
 20
724.6052164393
 10
299.5110184825
 20
724.4910884457
  0
LWPOLYLINE
  5
A7
330
1F
100
AcDbEntity
  8
0
  6
Continuous
 62
     7
370
    15
100
AcDbPolyline
 90
       10
 70
   128
 43
0.0
 10
301.1819117642
 20
724.6423650342
 10
301.7299783355
 20
724.6422756272
 10
302.8496571756
 20
724.641977604
 10
304.5372639722
 20
724.6415305691
 10
306.7525581396
 20
724.6410239297
 10
309.4257631278
 20
724.6405619937
 10
312.4869161224
 20
724.6402043658
 10
315.8443354009
 20
724.6399063426
 10
319.3706239513
 20
724.6398318368
 10
322.9971618862
 20
724.6391016799
  0
LINE
  5
A8
330
1F
100
AcDbEntity
  8
0
  6
Continuous
 62
     7
370
    15
100
AcDbLine
 10
402.234158752
 20
695.7289863186
 30
0.0
 11
402.234158752
 21
695.6649038749
 31
0.0
  0
LWPOLYLINE
  5
A9
330
1F
100
AcDbEntity
  8
0
  6
Continuous
 62
     7
370
    15
100
AcDbPolyline
 90
       11
 70
   128
 43
0.0
 10
323.4003855437
 20
744.4277841406
 10
338.7457665926
 20
749.219297226
 10
354.3475077427
 20
753.0973989325
 10
362.6995378113
 20
754.8071134644
 10
371.0911677158
 20
756.3105214196
 10
387.9780464745
 20
758.6950499373
 10
396.4579769349
 20
759.573130663
 10
413.4751924253
 20
760.6970954495
 10
417.7350842333
 20
760.846062358
 10
418.8002862907
 20
760.8750749188
 10
419.0666072941
 20
760.8815420228
  0
LWPOLYLINE
  5
AA
330
1F
100
AcDbEntity
  8
0
  6
Continuous
 62
     7
370
    15
100
AcDbPolyline
 90
       11
 70
   128
 43
0.0
 10
419.027171371
 20
762.2838754016
 10
418.5969077921
 20
762.2731465655
 10
417.6885255551
 20
762.2480232077
 10
413.4115793681
 20
762.0982814389
 10
396.3269584751
 20
760.969846304
 10
387.8134184456
 20
760.0882340031
 10
370.859823463
 20
757.6941687422
 10
362.4351129806
 20
756.1848152238
 10
354.0497322506
 20
754.4683057624
 10
338.3691350868
 20
750.570713337
 10
322.9461812339
 20
745.755105074
  0
ARC
  5
AB
330
1F
100
AcDbEntity
  8
0
  6
Continuous
 62
     7
370
    15
100
AcDbCircle
 10
406.5592462659
 20
502.4817447423
 30
0.0
 40
257.2412692803906
100
AcDbArc
 50
108.9687748814
 51
112.4708063646
  0
ARC
  5
AC
330
1F
100
AcDbEntity
  8
0
  6
Continuous
 62
     7
370
    15
100
AcDbCircle
 10
437.287193081
 20
421.9642032174
 30
0.0
 40
341.9839005926649
100
AcDbArc
 50
109.4528128977
 51
112.2975340778
  0
ARC
  5
AD
330
1F
100
AcDbEntity
  8
0
  6
Continuous
 62
     7
370
    15
100
AcDbCircle
 10
308.8286709821
 20
738.9177155036
 30
0.0
 40
1.404200000000061
100
AcDbArc
 50
114.8582541058
 51
202.6650815674
  0
ARC
  5
AE
330
1F
100
AcDbEntity
  8
0
  6
Continuous
 62
     7
370
    15
100
AcDbCircle
 10
419.2221075937
 20
828.0061380487
 30
0.0
 40
65.72255174282314
100
AcDbArc
 50
269.8300577364
 51
274.1695099218
  0
ARC
  5
AF
330
1F
100
AcDbEntity
  8
0
  6
Continuous
 62
     7
370
    15
100
AcDbCircle
 10
423.8726931459
 20
761.0591800986
 30
0.0
 40
1.404193563570598
100
AcDbArc
 50
0.4000240763
 51
84.772597239
  0
ARC
  5
B0
330
1F
100
AcDbEntity
  8
0
  6
Continuous
 62
     7
370
    15
100
AcDbCircle
 10
416.767001429
 20
940.042608873
 30
0.0
 40
179.1758244352872
100
AcDbArc
 50
270.7353744764
 51
272.7222536548
  0
LWPOLYLINE
  5
B1
330
1F
100
AcDbEntity
  8
0
  6
Continuous
 62
     7
370
    15
100
AcDbPolyline
 90
       12
 70
   128
 43
0.0
 10
417.8357564783
 20
754.8008400756
 10
413.0562388277
 20
752.9336947756
 10
406.6064500189
 20
751.1601734715
 10
400.2265178537
 20
749.8535055476
 10
393.8184224939
 20
748.9092040616
 10
389.6024295068
 20
748.4685469227
 10
387.3219334459
 20
748.2301879483
 10
380.833889631
 20
747.7159339743
 10
370.6468821442
 20
746.9258297043
 10
368.5910620666
 20
746.6941017466
 10
360.3980311132
 20
745.7705575781
 10
350.387326715
 20
744.0171677428
  0
LWPOLYLINE
  5
B2
330
1F
100
AcDbEntity
  8
0
  6
Continuous
 62
     7
370
    15
100
AcDbPolyline
 90
        3
 70
   128
 43
0.0
 10
350.387326715
 20
744.0171677428
 10
350.3758546835
 20
744.0154541093
 10
350.3640287495
 20
744.0152156907
  0
LWPOLYLINE
  5
B3
330
1F
100
AcDbEntity
  8
0
  6
Continuous
 62
     7
370
    15
100
AcDbPolyline
 90
        3
 70
   128
 43
0.0
 10
323.3961528863
 20
744.4263238268
 10
323.4003286748
 20
744.4277692395
 10
323.4003855437
 20
744.4277841406
  0
ARC
  5
B4
330
1F
100
AcDbEntity
  8
0
  6
Continuous
 62
     7
370
    15
100
AcDbCircle
 10
321.1723895766
 20
751.5836403425
 30
0.0
 40
19.48686999829044
100
AcDbArc
 50
230.5070764998
 51
232.3606075975
  0
LWPOLYLINE
  5
B5
330
1F
100
AcDbEntity
  8
0
  6
Continuous
 62
     7
370
    15
100
AcDbPolyline
 90
        3
 70
   128
 43
0.0
 10
307.5329133248
 20
738.3766162949
 10
308.2683396465
 20
737.1157247382
 10
308.7790732211
 20
736.5455616074
  0
LWPOLYLINE
  5
B6
330
1F
100
AcDbEntity
  8
0
  6
Continuous
 62
     7
370
    15
100
AcDbPolyline
 90
        3
 70
   128
 43
0.0
 10
322.9461812339
 20
745.755105074
 10
322.9423040798
 20
745.7537788706
 10
322.9422472036
 20
745.7537490683
  0
LWPOLYLINE
  5
B7
330
1F
100
AcDbEntity
  8
0
  6
Continuous
 62
     7
370
    15
100
AcDbPolyline
 90
        9
 70
   128
 43
0.0
 10
419.2052849507
 20
755.3358662682
 10
420.7543128109
 20
756.1304110842
 10
422.08581352
 20
756.9265652257
 10
423.1939830756
 20
757.7182341176
 10
423.6175485826
 20
758.0946374493
 10
424.0729727721
 20
758.4993678885
 10
424.7416623807
 20
759.2998135644
 10
425.1458265758
 20
760.0750762778
 10
425.2786033726
 20
760.8181971865
  0
ARC
  5
B8
330
1F
100
AcDbEntity
  8
0
  6
Continuous
 62
     7
370
    15
100
AcDbCircle
 10
424.0038471095
 20
625.9712323444
 30
0.0
 40
134.8529900694733
100
AcDbArc
 50
89.4583787757
 51
92.0966149076
  0
LINE
  5
B9
330
1F
100
AcDbEntity
  8
0
  6
Continuous
 62
     7
370
    15
100
AcDbLine
 10
425.2768524861
 20
761.0689837294
 30
0.0
 11
425.2786033726
 21
760.8181971865
 31
0.0
  0
LWPOLYLINE
  5
BA
330
1F
100
AcDbEntity
  8
0
  6
Continuous
 62
     7
370
    15
100
AcDbPolyline
 90
        9
 70
   128
 43
0.0
 10
350.3873881823
 20
744.0170783358
 10
344.1412367797
 20
742.4386579352
 10
338.2524375743
 20
740.1900727111
 10
335.5573660633
 20
738.654046114
 10
333.1628053388
 20
736.6857368308
 10
331.3150175786
 20
734.0844560223
 10
330.92264579
 20
732.9850781518
 10
330.73909934
 20
732.4707943755
 10
330.5056605427
 20
730.6277889567
  0
LWPOLYLINE
  5
BB
330
1F
100
AcDbEntity
  8
0
  6
Continuous
 62
     7
370
    15
100
AcDbPolyline
 90
       11
 70
   128
 43
0.0
 10
424.0006276345
 20
762.4575335341
 10
420.3503423309
 20
762.635200079
 10
416.3263880587
 20
762.5474024373
 10
414.7697755075
 20
762.4870825368
 10
412.2857966399
 20
762.3908359366
 10
408.2468816018
 20
762.1869582492
 10
404.2098962641
 20
761.9366038399
 10
390.4029869413
 20
760.7238877373
 10
376.660387305
 20
758.9610803681
 10
358.4700443721
 20
755.7527411538
 10
352.1868412322
 20
754.2697626906
  0
LWPOLYLINE
  5
BC
330
1F
100
AcDbEntity
  8
0
  6
Continuous
 62
     7
370
    15
100
AcDbPolyline
 90
        3
 70
   128
 43
0.0
 10
322.8310792879
 20
746.0754949408
 10
314.5850340775
 20
742.9623890477
 10
308.2383808619
 20
740.1918161469
  0
LWPOLYLINE
  5
BD
330
1F
100
AcDbEntity
  8
0
  6
Continuous
 62
     7
370
    15
100
AcDbPolyline
 90
        3
 70
   128
 43
0.0
 10
312.9110907143
 20
730.6278634625
 10
312.8884726143
 20
731.0284811812
 10
312.8499400741
 20
731.3299614745
  0
LWPOLYLINE
  5
BE
330
1F
100
AcDbEntity
  8
0
  6
Continuous
 62
     7
370
    15
100
AcDbPolyline
 90
        9
 70
   128
 43
0.0
 10
312.8499400741
 20
731.3299614745
 10
312.866512028
 20
731.4764547902
 10
312.8726075342
 20
731.8996030646
 10
312.7592590577
 20
732.5339752989
 10
312.4884472168
 20
733.171923812
 10
311.9678099579
 20
733.9145678836
 10
310.9396130717
 20
734.8998326617
 10
309.7896736986
 20
735.7726532775
 10
309.2810206986
 20
736.1558366376
  0
LINE
  5
BF
330
1F
100
AcDbEntity
  8
0
  6
Continuous
 62
     7
370
    15
100
AcDbLine
 10
322.9638870875
 20
725.8156526642
 30
0.0
 11
322.9951982835
 21
725.809617694
 31
0.0
  0
ARC
  5
C0
330
1F
100
AcDbEntity
  8
0
  6
Continuous
 62
     7
370
    15
100
AcDbCircle
 10
322.9951982834
 20
717.3882599747
 30
0.0
 40
16.29875000000001
100
AcDbArc
 50
134.8416808003
 51
153.4528972942
  0
LINE
  5
C1
330
1F
100
AcDbEntity
  8
0
  6
Continuous
 62
     7
370
    15
100
AcDbLine
 10
325.8284849985
 20
730.0260800677
 30
0.0
 11
324.157526175
 21
730.0393868046
 31
0.0
  0
LINE
  5
C2
330
1F
100
AcDbEntity
  8
0
  6
Continuous
 62
     7
370
    15
100
AcDbLine
 10
326.694748172
 20
730.0162453013
 30
0.0
 11
325.8284849985
 21
730.0260800677
 31
0.0
  0
LINE
  5
C3
330
1F
100
AcDbEntity
  8
0
  6
Continuous
 62
     7
370
    15
100
AcDbLine
 10
326.708369696
 20
730.0160664874
 30
0.0
 11
326.694748172
 21
730.0162453013
 31
0.0
  0
LINE
  5
C4
330
1F
100
AcDbEntity
  8
0
  6
Continuous
 62
     7
370
    15
100
AcDbLine
 10
327.6010395898
 20
730.0100166159
 30
0.0
 11
326.708369696
 21
730.0160664874
 31
0.0
  0
LINE
  5
C5
330
1F
100
AcDbEntity
  8
0
  6
Continuous
 62
     7
370
    15
100
AcDbLine
 10
328.1232386766
 20
730.0077516394
 30
0.0
 11
327.6010395898
 21
730.0100166159
 31
0.0
  0
LINE
  5
C6
330
1F
100
AcDbEntity
  8
0
  6
Continuous
 62
     7
370
    15
100
AcDbLine
 10
328.2998849577
 20
730.0072449999
 30
0.0
 11
328.1232386766
 21
730.0077516394
 31
0.0
  0
LINE
  5
C7
330
1F
100
AcDbEntity
  8
0
  6
Continuous
 62
     7
370
    15
100
AcDbLine
 10
328.8145775846
 20
730.0072897034
 30
0.0
 11
328.2998849577
 21
730.0072449999
 31
0.0
  0
LWPOLYLINE
  5
C8
330
1F
100
AcDbEntity
  8
0
  6
Continuous
 62
     7
370
    15
100
AcDbPolyline
 90
        3
 70
   128
 43
0.0
 10
330.8901025853
 20
730.0176162081
 10
330.5216313279
 20
730.0130862551
 10
328.8145775846
 20
730.0072897034
  0
ARC
  5
C9
330
1F
100
AcDbEntity
  8
0
  6
Continuous
 62
     7
370
    15
100
AcDbCircle
 10
327.3505773365
 20
718.8760897567
 30
0.0
 40
11.73940593562448
100
AcDbArc
 50
28.1208979992
 51
71.6644832066
  0
LINE
  5
CA
330
1F
100
AcDbEntity
  8
0
  6
Continuous
 62
     7
370
    15
100
AcDbLine
 10
323.9258880317
 20
730.0405639964
 30
0.0
 11
322.9952513143
 21
730.0408620196
 31
0.0
  0
LINE
  5
CB
330
1F
100
AcDbEntity
  8
0
  6
Continuous
 62
     7
370
    15
100
AcDbLine
 10
324.157526175
 20
730.0393868046
 30
0.0
 11
323.9258880317
 21
730.0405639964
 31
0.0
  0
LINE
  5
CC
330
1F
100
AcDbEntity
  8
0
  6
Continuous
 62
     7
370
    15
100
AcDbLine
 10
315.9252771115
 20
729.8987943488
 30
0.0
 11
314.6149025238
 21
729.842706378
 31
0.0
  0
LINE
  5
CD
330
1F
100
AcDbEntity
  8
0
  6
Continuous
 62
     7
370
    15
100
AcDbLine
 10
316.2128229565
 20
729.9095976906
 30
0.0
 11
315.9252771115
 21
729.8987943488
 31
0.0
  0
LINE
  5
CE
330
1F
100
AcDbEntity
  8
0
  6
Continuous
 62
     7
370
    15
100
AcDbLine
 10
316.7552452473
 20
729.9291182118
 30
0.0
 11
316.2128229565
 21
729.9095976906
 31
0.0
  0
LINE
  5
CF
330
1F
100
AcDbEntity
  8
0
  6
Continuous
 62
     7
370
    15
100
AcDbLine
 10
317.3028754941
 20
729.9462992507
 30
0.0
 11
316.7552452473
 21
729.9291182118
 31
0.0
  0
ARC
  5
D0
330
1F
100
AcDbEntity
  8
0
  6
Continuous
 62
     7
370
    15
100
AcDbCircle
 10
326.2586500972
 20
363.1986521038
 30
0.0
 40
366.8569783805353
100
AcDbArc
 50
90.5096844211
 51
91.3988532255
  0
LWPOLYLINE
  5
D1
330
1F
100
AcDbEntity
  8
0
  6
Continuous
 62
     7
370
    15
100
AcDbPolyline
 90
        3
 70
   128
 43
0.0
 10
311.5021197996
 20
728.9450455266
 10
312.1646002805
 20
729.5679438668
 10
312.3408558717
 20
729.7225136119
  0
LINE
  5
D2
330
1F
100
AcDbEntity
  8
0
  6
Continuous
 62
     7
370
    15
100
AcDbLine
 10
312.3409816003
 20
729.7226030188
 30
0.0
 11
312.3408558717
 21
729.7225136119
 31
0.0
  0
LWPOLYLINE
  5
D3
330
1F
100
AcDbEntity
  8
0
  6
Continuous
 62
     7
370
    15
100
AcDbPolyline
 90
        3
 70
   128
 43
0.0
 10
314.6149025238
 20
729.842706378
 10
312.9004941261
 20
729.7622252064
 10
312.5402883566
 20
729.7367144185
  0
ARC
  5
D4
330
1F
100
AcDbEntity
  8
0
  6
Continuous
 62
     7
370
    15
100
AcDbCircle
 10
505.0648359462
 20
721.5368291265
 30
0.0
 40
18.18803459027788
100
AcDbArc
 50
282.3074130543
 51
287.3745621156
  0
LINE
  5
D5
330
1F
100
AcDbEntity
  8
0
  6
Continuous
 62
     7
370
    15
100
AcDbLine
 10
498.2206516838
 20
702.8857979732
 30
0.0
 11
498.3806305504
 21
702.0995084005
 31
0.0
  0
LWPOLYLINE
  5
D6
330
1F
100
AcDbEntity
  8
0
  6
Continuous
 62
     7
370
    15
100
AcDbPolyline
 90
        9
 70
   128
 43
0.0
 10
498.3806305504
 20
702.0995084005
 10
498.1107407189
 20
702.0445976215
 10
497.8409998989
 20
701.9897166448
 10
497.5715869045
 20
701.934910174
 10
497.3026656485
 20
701.88019311
 10
497.0343702412
 20
701.8256101566
 10
496.7668794966
 20
701.7711911159
 10
496.5003573275
 20
701.7169657903
 10
496.2349527454
 20
701.6629639822
  0
LINE
  5
D7
330
1F
100
AcDbEntity
  8
0
  6
Continuous
 62
     7
370
    15
100
AcDbLine
 10
496.2349527454
 20
701.6629639822
 30
0.0
 11
496.1749606705
 21
701.9578281599
 31
0.0
  0
LWPOLYLINE
  5
D8
330
1F
100
AcDbEntity
  8
0
  6
Continuous
 62
     7
370
    15
100
AcDbPolyline
 90
        9
 70
   128
 43
0.0
 10
494.5650392151
 20
701.6302857357
 10
494.7623305893
 20
701.6704220133
 10
494.9608885622
 20
701.7108190613
 10
495.1606535292
 20
701.7514619785
 10
495.3615509844
 20
701.7923358636
 10
495.5634915209
 20
701.8334183651
 10
495.7664304352
 20
701.8747094827
 10
495.9702783203
 20
701.9161794143
 10
496.1749606705
 20
701.9578281599
  0
LINE
  5
D9
330
1F
100
AcDbEntity
  8
0
  6
Continuous
 62
     7
370
    15
100
AcDbLine
 10
494.5650392151
 20
701.6302857357
 30
0.0
 11
494.6250312901
 21
701.335421558
 31
0.0
  0
LWPOLYLINE
  5
DA
330
1F
100
AcDbEntity
  8
0
  6
Continuous
 62
     7
370
    15
100
AcDbPolyline
 90
        9
 70
   128
 43
0.0
 10
494.6250312901
 20
701.335421558
 10
494.3722926951
 20
701.2840051013
 10
494.121953187
 20
701.2330729323
 10
493.8741468763
 20
701.1826548534
 10
493.6290376759
 20
701.1327881175
 10
493.3867447949
 20
701.0834876257
 10
493.1474321461
 20
701.0347980815
 10
492.91123384
 20
700.9867492872
 10
492.6782988882
 20
700.939356144
  0
LINE
  5
DB
330
1F
100
AcDbEntity
  8
0
  6
Continuous
 62
     7
370
    15
100
AcDbLine
 10
492.6782988882
 20
700.939356144
 30
0.0
 11
492.5183349228
 21
701.7256457167
 31
0.0
  0
LINE
  5
DC
330
1F
100
AcDbEntity
  8
0
  6
Continuous
 62
     7
370
    15
100
AcDbLine
 10
494.9548833943
 20
701.4025289374
 30
0.0
 11
494.8948913193
 21
701.6973931151
 31
0.0
  0
LINE
  5
DD
330
1F
100
AcDbEntity
  8
0
  6
Continuous
 62
     7
370
    15
100
AcDbLine
 10
494.6250312901
 20
701.335421558
 30
0.0
 11
494.9548833943
 21
701.4025289374
 31
0.0
  0
LINE
  5
DE
330
1F
100
AcDbEntity
  8
0
  6
Continuous
 62
     7
370
    15
100
AcDbLine
 10
489.8134463406
 20
700.6396937924
 30
0.0
 11
489.8687743521
 21
700.3677550512
 31
0.0
  0
LWPOLYLINE
  5
DF
330
1F
100
AcDbEntity
  8
0
  6
Continuous
 62
     7
370
    15
100
AcDbPolyline
 90
       17
 70
   128
 43
0.0
 10
507.5829618549
 20
703.1529012876
 10
507.4092143154
 20
703.1175557333
 10
506.8946474171
 20
703.0128676253
 10
506.059049902
 20
702.8428602772
 10
504.9345188713
 20
702.6140752988
 10
503.5642676926
 20
702.3352894741
 10
502.0009570694
 20
702.017231639
 10
500.3046833849
 20
701.6721207457
 10
498.540609417
 20
701.3132188278
 10
496.776535449
 20
700.9543094593
 10
495.0802468634
 20
700.609198566
 10
493.5169362402
 20
700.2911407309
 10
492.1466999626
 20
700.0123623567
 10
491.022168932
 20
699.7835699278
 10
490.1865565157
 20
699.6135700303
 10
489.6720045185
 20
699.5088819223
 10
489.498256979
 20
699.4735289174
  0
LWPOLYLINE
  5
E0
330
1F
100
AcDbEntity
  8
0
  6
Continuous
 62
     7
370
    15
100
AcDbPolyline
 90
        3
 70
   128
 43
0.0
 10
323.9258880317
 20
730.0405639964
 10
323.9146030796
 20
730.0514120417
 10
323.9120515468
 20
730.0516951638
  0
LWPOLYLINE
  5
E1
330
1F
100
AcDbEntity
  8
0
  6
Continuous
 62
     7
370
    15
100
AcDbPolyline
 90
        3
 70
   128
 43
0.0
 10
324.157526175
 20
730.0393868046
 10
324.1450407481
 20
730.0503540593
 10
324.1423796103
 20
730.0506818848
  0
LWPOLYLINE
  5
E2
330
1F
100
AcDbEntity
  8
0
  6
Continuous
 62
     7
370
    15
100
AcDbPolyline
 90
        3
 70
   128
 43
0.0
 10
326.694748172
 20
730.0162453013
 10
326.6687561231
 20
730.0306100207
 10
326.6591276447
 20
730.0317872124
  0
LWPOLYLINE
  5
E3
330
1F
100
AcDbEntity
  8
0
  6
Continuous
 62
     7
370
    15
100
AcDbPolyline
 90
        3
 70
   128
 43
0.0
 10
326.708369696
 20
730.0160664874
 10
326.6823057024
 20
730.0304610091
 10
326.6726311235
 20
730.0316382008
  0
LWPOLYLINE
  5
E4
330
1F
100
AcDbEntity
  8
0
  6
Continuous
 62
     7
370
    15
100
AcDbPolyline
 90
        3
 70
   128
 43
0.0
 10
328.1232386766
 20
730.0077516394
 10
328.079233685
 20
730.0234425622
 10
328.0568935847
 20
730.0250369864
  0
LWPOLYLINE
  5
E5
330
1F
100
AcDbEntity
  8
0
  6
Continuous
 62
     7
370
    15
100
AcDbPolyline
 90
        3
 70
   128
 43
0.0
 10
328.2998849577
 20
730.0072449999
 10
328.2536559677
 20
730.0229806262
 10
328.2320180847
 20
730.0246197539
  0
LWPOLYLINE
  5
E6
330
1F
100
AcDbEntity
  8
0
  6
Continuous
 62
     7
370
    15
100
AcDbPolyline
 90
        3
 70
   128
 43
0.0
 10
312.3409816003
 20
729.7226030188
 10
312.4124466381
 20
729.7685283976
 10
312.4152862406
 20
729.7698098975
  0
LINE
  5
E7
330
1F
100
AcDbEntity
  8
0
  6
Continuous
 62
     7
370
    15
100
AcDbLine
 10
488.8047867394
 20
700.151278432
 30
0.0
 11
489.8687743521
 21
700.3677550512
 31
0.0
  0
ARC
  5
E8
330
1F
100
AcDbEntity
  8
0
  6
Continuous
 62
     7
370
    15
100
AcDbCircle
 10
312.5340330414
 20
729.5096947794
 30
0.0
 40
0.2874182916086375
100
AcDbArc
 50
55.9219494293
 51
132.2302495358
  0
ARC
  5
E9
330
1F
100
AcDbEntity
  8
0
  6
Continuous
 62
     7
370
    15
100
AcDbCircle
 10
312.5378851849
 20
729.4941343659
 30
0.0
 40
0.3017048955389326
100
AcDbArc
 50
81.3971490503
 51
115.7189193137
  0
LWPOLYLINE
  5
EA
330
1F
100
AcDbEntity
  8
0
  6
Continuous
 62
     7
370
    15
100
AcDbPolyline
 90
        8
 70
   128
 43
0.0
 10
520.5011510229
 20
723.6080605345
 10
523.2391797876
 20
723.5979724484
 10
525.6608419991
 20
723.5940236407
 10
527.2309773541
 20
723.5952306347
 10
528.1288021183
 20
723.6029047328
 10
528.511300025
 20
723.6190575915
 10
528.5374217606
 20
723.6364323454
 10
528.5307311392
 20
723.6408132868
  0
LWPOLYLINE
  5
EB
330
1F
100
AcDbEntity
  8
0
  6
Continuous
 62
     7
370
    15
100
AcDbPolyline
 90
        3
 70
   128
 43
0.0
 10
510.4960941649
 20
704.1786599713
 10
516.0487883663
 20
707.0512685733
 10
517.6595740891
 20
708.2147065359
  0
LINE
  5
EC
330
1F
100
AcDbEntity
  8
0
  6
Continuous
 62
     7
370
    15
100
AcDbLine
 10
344.6619615829
 20
724.4676787215
 30
0.0
 11
344.6619615829
 21
724.6433932143
 31
0.0
  0
LINE
  5
ED
330
1F
100
AcDbEntity
  8
0
  6
Continuous
 62
     7
370
    15
100
AcDbLine
 10
419.2052849507
 20
755.3358662682
 30
0.0
 11
417.8357564783
 21
754.8008400756
 31
0.0
  0
LINE
  5
EE
330
1F
100
AcDbEntity
  8
0
  6
Continuous
 62
     7
370
    15
100
AcDbLine
 10
352.1868412322
 20
754.2697626906
 30
0.0
 11
340.8730917549
 21
751.5994597035
 31
0.0
  0
LINE
  5
EF
330
1F
100
AcDbEntity
  8
0
  6
Continuous
 62
     7
370
    15
100
AcDbLine
 10
340.0946271545
 20
751.3874012786
 30
0.0
 11
325.2213891069
 21
746.810986455
 31
0.0
  0
LWPOLYLINE
  5
F0
330
1F
100
AcDbEntity
  8
0
  6
Continuous
 62
     7
370
    15
100
AcDbPolyline
 90
        3
 70
   128
 43
0.0
 10
330.4951561554
 20
730.0290602999
 10
330.5368076949
 20
730.0282407361
 10
330.6025371826
 20
730.0135928946
  0
ARC
  5
F1
330
1F
100
AcDbEntity
  8
0
  6
Continuous
 62
     7
370
    15
100
AcDbCircle
 10
144.2452613352
 20
722.5494627999
 30
0.0
 40
26.72646493931676
100
AcDbArc
 50
342.9026547903
 51
358.291919279
  0
ARC
  5
F2
330
1F
100
AcDbEntity
  8
0
  6
Continuous
 62
     7
370
    15
100
AcDbCircle
 10
148.1514092042
 20
722.366186737
 30
0.0
 40
25.61513951941546
100
AcDbArc
 50
181.3721030977
 51
197.4333522553
  0
LINE
  5
F3
330
1F
100
AcDbEntity
  8
0
  6
Continuous
 62
     7
370
    15
100
AcDbLine
 10
135.1528717499
 20
702.9568616109
 30
0.0
 11
135.4679828803
 21
702.6545394021
 31
0.0
  0
LINE
  5
F4
330
1F
100
AcDbEntity
  8
0
  6
Continuous
 62
     7
370
    15
100
AcDbLine
 10
158.0354832407
 20
702.6545394021
 30
0.0
 11
158.3623141344
 21
702.9681045371
 31
0.0
  0
LINE
  5
F5
330
1F
100
AcDbEntity
  8
0
  6
Continuous
 62
     7
370
    15
100
AcDbLine
 10
155.9793334748
 20
701.3132188278
 30
0.0
 11
155.9793334748
 21
702.8832126217
 31
0.0
  0
LINE
  5
F6
330
1F
100
AcDbEntity
  8
0
  6
Continuous
 62
     7
370
    15
100
AcDbLine
 10
137.5241335775
 20
703.1173769193
 30
0.0
 11
137.5241335775
 21
701.3132188278
 31
0.0
  0
ARC
  5
F7
330
1F
100
AcDbEntity
  8
0
  6
Continuous
 62
     7
370
    15
100
AcDbCircle
 10
162.3673293338
 20
760.9463472907
 30
0.0
 40
1.331952747078019
100
AcDbArc
 50
13.9145328432
 51
74.6762633152
  0
ARC
  5
F8
330
1F
100
AcDbEntity
  8
0
  6
Continuous
 62
     7
370
    15
100
AcDbCircle
 10
131.1768398092
 20
760.8824588554
 30
0.0
 40
1.403668547832283
100
AcDbArc
 50
106.2258148257
 51
168.523404734
  0
LWPOLYLINE
  5
F9
330
1F
100
AcDbEntity
  8
0
  6
Continuous
 62
     7
370
    15
100
AcDbPolyline
 90
        3
 70
   128
 43
0.0
 10
161.12658105
 20
762.345297988
 10
154.5982566025
 20
762.5511128264
 10
146.7518585197
 20
762.6294333296
  0
LWPOLYLINE
  5
FA
330
1F
100
AcDbEntity
  8
0
  6
Continuous
 62
     7
370
    15
100
AcDbPolyline
 90
        3
 70
   128
 43
0.0
 10
146.7518585197
 20
762.6294333296
 10
138.9054609756
 20
762.5511128264
 10
132.3771365281
 20
762.345297988
  0
LWPOLYLINE
  5
FB
330
1F
100
AcDbEntity
  8
0
  6
Continuous
 62
     7
370
    15
100
AcDbPolyline
 90
       14
 70
   128
 43
0.0
 10
121.9835542436
 20
720.8080727416
 10
121.9792701598
 20
720.7409877139
 10
121.9205987002
 20
719.4714683848
 10
121.8905039425
 20
718.6273772078
 10
121.8703575726
 20
717.9132986622
 10
121.8522470738
 20
716.9669557171
 10
121.8400094952
 20
715.0384623366
 10
121.8599304851
 20
712.5672686654
 10
121.9135951545
 20
709.5827225404
 10
121.980575874
 20
706.5639633494
 10
122.0434774007
 20
703.678748365
 10
122.0916956957
 20
700.9187329369
 10
122.1248042132
 20
698.2835743385
 10
122.1249755766
 20
698.2646200615
  0
ARC
  5
FC
330
1F
100
AcDbEntity
  8
0
  6
Continuous
 62
     7
370
    15
100
AcDbCircle
 10
-264.2898121523
 20
712.2168928659
 30
0.0
 40
435.8916570692077
100
AcDbArc
 50
358.1657301728
 51
1.1282730877
  0
LINE
  5
FD
330
1F
100
AcDbEntity
  8
0
  6
Continuous
 62
     7
370
    15
100
AcDbLine
 10
163.8660840984
 20
754.567830618
 30
0.0
 11
163.8660840984
 21
754.7317880946
 31
0.0
  0
LINE
  5
FE
330
1F
100
AcDbEntity
  8
0
  6
Continuous
 62
     7
370
    15
100
AcDbLine
 10
129.6376325484
 20
754.7317880946
 30
0.0
 11
129.6376325484
 21
754.567830618
 31
0.0
  0
ARC
  5
FF
330
1F
100
AcDbEntity
  8
0
  6
Continuous
 62
     7
370
    15
100
AcDbCircle
 10
162.831272541
 20
761.0488619732
 30
0.0
 40
0.8724550532250328
100
AcDbArc
 50
10.9387796514
 51
35.1611398301
  0
LINE
  5
100
330
1F
100
AcDbEntity
  8
0
  6
Continuous
 62
     7
370
    15
100
AcDbLine
 10
162.5671461518
 20
762.2463393765
 30
0.0
 11
162.3871196355
 21
762.2505266028
 31
0.0
  0
ARC
  5
101
330
1F
100
AcDbEntity
  8
0
  6
Continuous
 62
     7
370
    15
100
AcDbCircle
 10
130.9238008308
 20
761.0397606796
 30
0.0
 40
1.107413581456866
100
AcDbArc
 50
127.5743112356
 51
160.3940407216
  0
LINE
  5
102
330
1F
100
AcDbEntity
  8
0
  6
Continuous
 62
     7
370
    15
100
AcDbLine
 10
171.4375783052
 20
721.8246150571
 30
0.0
 11
171.3523753281
 21
723.2598054963
 31
0.0
  0
LWPOLYLINE
  5
103
330
1F
100
AcDbEntity
  8
0
  6
Continuous
 62
     7
370
    15
100
AcDbPolyline
 90
        3
 70
   128
 43
0.0
 10
122.1486199941
 20
723.2601929265
 10
121.9410822089
 20
720.2037412482
 10
121.9180319752
 20
719.3861145335
  0
ARC
  5
104
330
1F
100
AcDbEntity
  8
0
  6
Continuous
 62
     7
370
    15
100
AcDbCircle
 10
163.6517686475
 20
729.8435967581
 30
0.0
 40
8.880088491366829
100
AcDbArc
 50
127.055676331
 51
174.9554780087
  0
LWPOLYLINE
  5
105
330
1F
100
AcDbEntity
  8
0
  6
Continuous
 62
     7
370
    15
100
AcDbPolyline
 90
        7
 70
   128
 43
0.0
 10
135.203007638
 20
736.9303542929
 10
135.9830322038
 20
736.1360180932
 10
137.589390419
 20
734.1517049628
 10
138.1357908543
 20
733.2090724068
 10
138.5064916979
 20
732.2295594769
 10
138.6931129094
 20
731.2026012498
 10
138.6989383321
 20
730.4588097888
  0
LINE
  5
106
330
1F
100
AcDbEntity
  8
0
  6
Continuous
 62
     7
370
    15
100
AcDbLine
 10
122.1782323267
 20
588.8817651122
 30
0.0
 11
122.1782323267
 21
428.3656317549
 31
0.0
  0
LINE
  5
107
330
1F
100
AcDbEntity
  8
0
  6
Continuous
 62
     7
370
    15
100
AcDbLine
 10
171.325232863
 20
428.3656317549
 30
0.0
 11
171.325232863
 21
588.8817651122
 31
0.0
  0
LINE
  5
108
330
1F
100
AcDbEntity
  8
0
  6
Continuous
 62
     7
370
    15
100
AcDbLine
 10
159.7598735537
 20
724.6433932143
 30
0.0
 11
158.024773031
 21
724.6435571271
 31
0.0
  0
LWPOLYLINE
  5
109
330
1F
100
AcDbEntity
  8
0
  6
Continuous
 62
     7
370
    15
100
AcDbPolyline
 90
        3
 70
   128
 43
0.0
 10
170.2565513845
 20
724.4414973813
 10
169.2865342196
 20
724.5724934893
 10
168.0030003484
 20
724.6396530228
  0
LINE
  5
10A
330
1F
100
AcDbEntity
  8
0
  6
Continuous
 62
     7
370
    15
100
AcDbLine
 10
135.4959355961
 20
724.6435571271
 30
0.0
 11
133.7435934986
 21
724.6433932143
 31
0.0
  0
LWPOLYLINE
  5
10B
330
1F
100
AcDbEntity
  8
0
  6
Continuous
 62
     7
370
    15
100
AcDbPolyline
 90
        3
 70
   128
 43
0.0
 10
125.5004648413
 20
724.6396530228
 10
124.2169328328
 20
724.5724934893
 10
123.2469138052
 20
724.4414973813
  0
LWPOLYLINE
  5
10C
330
1F
100
AcDbEntity
  8
0
  6
Continuous
 62
     7
370
    15
100
AcDbPolyline
 90
        3
 70
   128
 43
0.0
 10
160.8463339801
 20
725.3603327828
 10
159.5925167497
 20
727.282508071
 10
158.0680171322
 20
728.6999661284
  0
LWPOLYLINE
  5
10D
330
1F
100
AcDbEntity
  8
0
  6
Continuous
 62
     7
370
    15
100
AcDbPolyline
 90
        3
 70
   128
 43
0.0
 10
135.4355775114
 20
728.6998767214
 10
133.9110238771
 20
727.2823143559
 10
132.6571768444
 20
725.3599751549
  0
ARC
  5
10E
330
1F
100
AcDbEntity
  8
0
  6
Continuous
 62
     7
370
    15
100
AcDbCircle
 10
146.7518585197
 20
717.3882599747
 30
0.0
 40
16.29875000000002
100
AcDbArc
 50
26.7081121473
 51
29.8986320335
  0
LWPOLYLINE
  5
10F
330
1F
100
AcDbEntity
  8
0
  6
Continuous
 62
     7
370
    15
100
AcDbPolyline
 90
        3
 70
   128
 43
0.0
 10
140.250585537
 20
730.0246346551
 10
140.1444427031
 20
730.0249177771
 10
140.10431667
 20
730.0251114922
  0
LWPOLYLINE
  5
110
330
1F
100
AcDbEntity
  8
0
  6
Continuous
 62
     7
370
    15
100
AcDbPolyline
 90
        3
 70
   128
 43
0.0
 10
139.2771057147
 20
730.0315338927
 10
139.2731657545
 20
730.0316382008
 10
139.2714935649
 20
730.0316829043
  0
LINE
  5
111
330
1F
100
AcDbEntity
  8
0
  6
Continuous
 62
     7
370
    15
100
AcDbLine
 10
154.7864424359
 20
730.0306249219
 30
0.0
 11
154.7970017712
 21
730.6355375605
 31
0.0
  0
LINE
  5
112
330
1F
100
AcDbEntity
  8
0
  6
Continuous
 62
     7
370
    15
100
AcDbLine
 10
138.7067158069
 20
730.6355375605
 30
0.0
 11
138.7172742109
 21
730.0306547242
 31
0.0
  0
LWPOLYLINE
  5
113
330
1F
100
AcDbEntity
  8
0
  6
Continuous
 62
     7
370
    15
100
AcDbPolyline
 90
        3
 70
   128
 43
0.0
 10
154.5877848114
 20
730.0406385022
 10
154.5604630667
 20
730.0399530488
 10
154.5479819472
 20
730.0396401244
  0
ARC
  5
114
330
1F
100
AcDbEntity
  8
0
  6
Continuous
 62
     7
370
    15
100
AcDbCircle
 10
135.8794437543
 20
744.8454372131
 30
0.0
 40
6.221900278855829
100
AcDbArc
 50
190.022483453
 51
235.0585749128
  0
ARC
  5
115
330
1F
100
AcDbEntity
  8
0
  6
Continuous
 62
     7
370
    15
100
AcDbCircle
 10
157.6242728925
 20
744.8454372131
 30
0.0
 40
6.221900278855932
100
AcDbArc
 50
304.9414250872
 51
349.977516547
  0
LWPOLYLINE
  5
116
330
1F
100
AcDbEntity
  8
0
  6
Continuous
 62
     7
370
    15
100
AcDbPolyline
 90
        3
 70
   128
 43
0.0
 10
138.5280220132
 20
730.0505626755
 10
138.4978639256
 20
730.0513375359
 10
138.4868156459
 20
730.0514716464
  0
LWPOLYLINE
  5
117
330
1F
100
AcDbEntity
  8
0
  6
Continuous
 62
     7
370
    15
100
AcDbPolyline
 90
        3
 70
   128
 43
0.0
 10
169.1992990966
 20
724.6131140547
 10
168.757990032
 20
724.6294308262
 10
168.6871778514
 20
724.6305335122
  0
LWPOLYLINE
  5
118
330
1F
100
AcDbEntity
  8
0
  6
Continuous
 62
     7
370
    15
100
AcDbPolyline
 90
        3
 70
   128
 43
0.0
 10
124.8162333216
 20
724.630518611
 10
124.7452982064
 20
724.6294159251
 10
124.3041269775
 20
724.6131140547
  0
ARC
  5
119
330
1F
100
AcDbEntity
  8
0
  6
Continuous
 62
     7
370
    15
100
AcDbCircle
 10
100.2455864712
 20
705.340255762
 30
0.0
 40
47.02950293849861
100
AcDbArc
 50
39.7470584452
 51
46.9869252548
  0
LINE
  5
11A
330
1F
100
AcDbEntity
  8
0
  6
Continuous
 62
     7
370
    15
100
AcDbLine
 10
138.2997501935
 20
732.4152577477
 30
0.0
 11
138.4317362975
 21
732.1777779418
 31
0.0
  0
LINE
  5
11B
330
1F
100
AcDbEntity
  8
0
  6
Continuous
 62
     7
370
    15
100
AcDbLine
 10
155.0719803493
 20
732.1777779418
 30
0.0
 11
155.2039664532
 21
732.4152577477
 31
0.0
  0
ARC
  5
11C
330
1F
100
AcDbEntity
  8
0
  6
Continuous
 62
     7
370
    15
100
AcDbCircle
 10
193.2581311069
 20
705.340255762
 30
0.0
 40
47.02950293849864
100
AcDbArc
 50
133.0130747452
 51
140.2529415548
  0
LWPOLYLINE
  5
11D
330
1F
100
AcDbEntity
  8
0
  6
Continuous
 62
     7
370
    15
100
AcDbPolyline
 90
        9
 70
   128
 43
0.0
 10
169.5125252302
 20
723.6071962672
 10
169.1186782266
 20
723.5979724484
 10
167.6927879746
 20
723.5940236407
 10
165.7612212296
 20
723.5952306347
 10
163.3866038467
 20
723.6029047328
 10
160.9471012201
 20
723.6179996091
 10
158.4823448505
 20
723.6316341715
 10
153.545327514
 20
723.6497390824
 10
146.7517761573
 20
723.6669499236
  0
LWPOLYLINE
  5
11E
330
1F
100
AcDbEntity
  8
0
  6
Continuous
 62
     7
370
    15
100
AcDbPolyline
 90
        3
 70
   128
 43
0.0
 10
146.7516902186
 20
723.6669499236
 10
146.751660632
 20
723.8544363337
 10
146.7517331297
 20
723.9989030915
  0
LWPOLYLINE
  5
11F
330
1F
100
AcDbEntity
  8
0
  6
Continuous
 62
     7
370
    15
100
AcDbPolyline
 90
        3
 70
   128
 43
0.0
 10
169.5494782473
 20
723.6082542496
 10
158.8128255974
 20
723.8902438241
 10
146.751733188
 20
723.9988136845
  0
LWPOLYLINE
  5
120
330
1F
100
AcDbEntity
  8
0
  6
Continuous
 62
     7
370
    15
100
AcDbPolyline
 90
        9
 70
   128
 43
0.0
 10
123.953962728
 20
723.6080605345
 10
124.3847888257
 20
723.5979724484
 10
125.8106790777
 20
723.5940236407
 10
127.7422439601
 20
723.5952306347
 10
130.1168632056
 20
723.6029047328
 10
133.3678197409
 20
723.6190575915
 10
136.6623025681
 20
723.6364323454
 10
139.958138607
 20
723.6497390824
 10
146.7516902186
 20
723.6669499236
  0
LWPOLYLINE
  5
121
330
1F
100
AcDbEntity
  8
0
  6
Continuous
 62
     7
370
    15
100
AcDbPolyline
 90
        3
 70
   128
 43
0.0
 10
123.9539869423
 20
723.6082542496
 10
134.6906414549
 20
723.8902438241
 10
146.751733188
 20
723.9988136845
  0
LWPOLYLINE
  5
122
330
1F
100
AcDbEntity
  8
0
  6
Continuous
 62
     7
370
    15
100
AcDbPolyline
 90
       11
 70
   128
 43
0.0
 10
146.751733188
 20
721.7209029751
 10
146.7517933679
 20
721.7209029751
 10
153.5563385408
 20
721.6945875245
 10
158.5754361297
 20
721.6756481486
 10
161.0954609062
 20
721.6657090741
 10
163.5918598916
 20
721.6629672604
 10
166.3067881312
 20
721.7033196049
 10
168.5637980993
 20
721.8091178494
 10
170.2740192707
 20
722.0087636071
 10
170.805467322
 20
722.2319531994
 10
170.8054691847
 20
722.2319531994
  0
ARC
  5
123
330
1F
100
AcDbEntity
  8
0
  6
Continuous
 62
     7
370
    15
100
AcDbCircle
 10
169.5046575148
 20
722.3050831228
 30
0.0
 40
1.303942760765669
100
AcDbArc
 50
356.8465971648
 51
88.0287784107
  0
LINE
  5
124
330
1F
100
AcDbEntity
  8
0
  6
Continuous
 62
     7
370
    15
100
AcDbLine
 10
170.8066258873
 20
722.2333539086
 30
0.0
 11
170.8054691847
 21
722.2319531994
 31
0.0
  0
ARC
  5
125
330
1F
100
AcDbEntity
  8
0
  6
Continuous
 62
     7
370
    15
100
AcDbCircle
 10
123.9987891773
 20
722.3049179381
 30
0.0
 40
1.303913354906149
100
AcDbArc
 50
91.9701251872
 51
183.1462045947
  0
LWPOLYLINE
  5
126
330
1F
100
AcDbEntity
  8
0
  6
Continuous
 62
     7
370
    15
100
AcDbPolyline
 90
       11
 70
   128
 43
0.0
 10
146.751733188
 20
721.7209029751
 10
146.751673008
 20
721.7209029751
 10
139.9471275802
 20
721.6945875245
 10
136.5874763872
 20
721.6778386193
 10
133.2289735149
 20
721.6638613301
 10
129.9116071607
 20
721.6629672604
 10
127.1966789212
 20
721.7033196049
 10
124.939668953
 20
721.8091178494
 10
123.229445919
 20
722.0087636071
 10
122.6979978676
 20
722.2319531994
 10
122.6979978676
 20
722.2319531994
  0
LINE
  5
127
330
1F
100
AcDbEntity
  8
0
  6
Continuous
 62
     7
370
    15
100
AcDbLine
 10
122.696841165
 20
722.2333539086
 30
0.0
 11
122.6979978676
 21
722.2319531994
 31
0.0
  0
ARC
  5
128
330
1F
100
AcDbEntity
  8
0
  6
Continuous
 62
     7
370
    15
100
AcDbCircle
 10
169.0982292954
 20
723.6627017412
 30
0.0
 40
2.227369484503998
100
AcDbArc
 50
320.0857921606
 51
327.8979864524
  0
LINE
  5
129
330
1F
100
AcDbEntity
  8
0
  6
Continuous
 62
     7
370
    15
100
AcDbLine
 10
170.9598508026
 20
721.7528212624
 30
0.0
 11
170.9850412156
 21
722.479014452
 31
0.0
  0
LWPOLYLINE
  5
12A
330
1F
100
AcDbEntity
  8
0
  6
Continuous
 62
     7
370
    15
100
AcDbPolyline
 90
       14
 70
   128
 43
0.0
 10
146.751733188
 20
721.5961951571
 10
150.8047017563
 20
721.5962845641
 10
154.8570487942
 20
721.5964931803
 10
158.9094465892
 20
721.5967912036
 10
162.9580390002
 20
721.5973574477
 10
164.9117097552
 20
721.5991753893
 10
166.7072605635
 20
721.6025877553
 10
168.2576239403
 20
721.6074157315
 10
169.4834120865
 20
721.6134358006
 10
170.3246441032
 20
721.6203350382
 10
170.734694257
 20
721.6276813107
 10
170.7800366278
 20
721.6352063971
 10
170.7916017916
 20
721.6426718789
 10
170.9598508026
 20
721.7528212624
  0
LINE
  5
12B
330
1F
100
AcDbEntity
  8
0
  6
Continuous
 62
     7
370
    15
100
AcDbLine
 10
146.751733188
 20
721.7209029751
 30
0.0
 11
146.751733188
 21
721.5961951571
 31
0.0
  0
LINE
  5
12C
330
1F
100
AcDbEntity
  8
0
  6
Continuous
 62
     7
370
    15
100
AcDbLine
 10
122.5436143871
 20
721.7528212624
 30
0.0
 11
122.5184239741
 21
722.479014452
 31
0.0
  0
ARC
  5
12D
330
1F
100
AcDbEntity
  8
0
  6
Continuous
 62
     7
370
    15
100
AcDbCircle
 10
124.4052377569
 20
723.6627017412
 30
0.0
 40
2.227369484503975
100
AcDbArc
 50
212.1020135476
 51
219.9142078394
  0
LINE
  5
12E
330
1F
100
AcDbEntity
  8
0
  6
Continuous
 62
     7
370
    15
100
AcDbLine
 10
169.6810238357
 20
714.7346053081
 30
0.0
 11
170.3966278877
 21
716.9384646969
 31
0.0
  0
LWPOLYLINE
  5
12F
330
1F
100
AcDbEntity
  8
0
  6
Continuous
 62
     7
370
    15
100
AcDbPolyline
 90
       13
 70
   128
 43
0.0
 10
146.751733188
 20
704.1786599713
 10
150.4969704259
 20
704.0143746691
 10
152.3774401579
 20
703.8185063558
 10
154.1511006947
 20
703.5800579744
 10
155.6682372759
 20
703.3477414208
 10
156.9735221859
 20
703.1320471125
 10
157.9418443437
 20
703.0046943384
 10
158.6276050951
 20
702.9450226384
 10
158.976982377
 20
702.8644222575
 10
159.0129463296
 20
702.6890206891
 10
158.7201617952
 20
702.3885909277
 10
158.0809187438
 20
701.9475836115
 10
156.6250147592
 20
701.19287705
  0
LINE
  5
130
330
1F
100
AcDbEntity
  8
0
  6
Continuous
 62
     7
370
    15
100
AcDbLine
 10
155.3582027848
 20
700.6528813201
 30
0.0
 11
155.1943365778
 21
700.5937833148
 31
0.0
  0
ARC
  5
131
330
1F
100
AcDbEntity
  8
0
  6
Continuous
 62
     7
370
    15
100
AcDbCircle
 10
147.216252024
 20
718.877781777
 30
0.0
 40
19.90704418898848
100
AcDbArc
 50
268.6629162809
 51
289.3106048808
  0
LINE
  5
132
330
1F
100
AcDbEntity
  8
0
  6
Continuous
 62
     7
370
    15
100
AcDbLine
 10
123.8243580158
 20
714.7360730725
 30
0.0
 11
123.1127251233
 21
716.910182293
 31
0.0
  0
ARC
  5
133
330
1F
100
AcDbEntity
  8
0
  6
Continuous
 62
     7
370
    15
100
AcDbCircle
 10
146.4598968156
 20
720.8832717718
 30
0.0
 40
21.90905758067119
100
AcDbArc
 50
245.3640284651
 51
270.7632225573
  0
LINE
  5
134
330
1F
100
AcDbEntity
  8
0
  6
Continuous
 62
     7
370
    15
100
AcDbLine
 10
136.1387856598
 20
701.5484932619
 30
0.0
 11
135.9033668708
 21
701.6751978355
 31
0.0
  0
LWPOLYLINE
  5
135
330
1F
100
AcDbEntity
  8
0
  6
Continuous
 62
     7
370
    15
100
AcDbPolyline
 90
       10
 70
   128
 43
0.0
 10
135.5921281795
 20
701.8468368607
 10
134.8919626619
 20
702.3045185762
 10
134.5342975404
 20
702.6247594314
 10
134.4842668916
 20
702.8286669212
 10
135.274776287
 20
702.9802340823
 10
136.1649325411
 20
703.0740070897
 10
137.4044064726
 20
703.2788011985
 10
140.4289189089
 20
703.7301201182
 10
144.2042931742
 20
704.1017774301
 10
146.751733188
 20
704.1786599713
  0
ARC
  5
136
330
1F
100
AcDbEntity
  8
0
  6
Continuous
 62
     7
370
    15
100
AcDbCircle
 10
166.4301159538
 20
726.493347692
 30
0.0
 40
4.248998439780806
100
AcDbArc
 50
317.2340194697
 51
321.1148368083
  0
ARC
  5
137
330
1F
100
AcDbEntity
  8
0
  6
Continuous
 62
     7
370
    15
100
AcDbCircle
 10
169.6818684246
 20
722.5232563383
 30
0.0
 40
1.303923566654875
100
AcDbArc
 50
358.0555915647
 51
87.5520777327
  0
ARC
  5
138
330
1F
100
AcDbEntity
  8
0
  6
Continuous
 62
     7
370
    15
100
AcDbCircle
 10
127.07331427
 20
726.4932891894
 30
0.0
 40
4.248933046620352
100
AcDbArc
 50
218.8848608743
 51
222.7657215334
  0
ARC
  5
139
330
1F
100
AcDbEntity
  8
0
  6
Continuous
 62
     7
370
    15
100
AcDbCircle
 10
123.8215986277
 20
722.5232563383
 30
0.0
 40
1.303923566654833
100
AcDbArc
 50
92.4479222673
 51
181.9444084353
  0
ARC
  5
13A
330
1F
100
AcDbEntity
  8
0
  6
Continuous
 62
     7
370
    15
100
AcDbCircle
 10
165.0512810159
 20
603.1990257277
 30
0.0
 40
121.4488483016312
100
AcDbArc
 50
88.6081503206
 51
90.4921763855
  0
LWPOLYLINE
  5
13B
330
1F
100
AcDbEntity
  8
0
  6
Continuous
 62
     7
370
    15
100
AcDbPolyline
 90
        3
 70
   128
 43
0.0
 10
170.3033987726
 20
724.4676042157
 10
170.242428809
 20
724.3998635369
 10
170.0911466326
 20
724.2643374758
  0
ARC
  5
13C
330
1F
100
AcDbEntity
  8
0
  6
Continuous
 62
     7
370
    15
100
AcDbCircle
 10
159.85306788
 20
732.160896132
 30
0.0
 40
12.92957443829962
100
AcDbArc
 50
319.8613962329
 51
322.3572487461
  0
LINE
  5
13D
330
1F
100
AcDbEntity
  8
0
  6
Continuous
 62
     7
370
    15
100
AcDbLine
 10
146.751733188
 20
724.6433932143
 30
0.0
 11
149.309383269
 21
724.6433932143
 31
0.0
  0
ARC
  5
13E
330
1F
100
AcDbEntity
  8
0
  6
Continuous
 62
     7
370
    15
100
AcDbCircle
 10
133.6501266205
 20
732.1607197865
 30
0.0
 40
12.92925239678316
100
AcDbArc
 50
217.6428650691
 51
220.1387849424
  0
LWPOLYLINE
  5
13F
330
1F
100
AcDbEntity
  8
0
  6
Continuous
 62
     7
370
    15
100
AcDbPolyline
 90
        3
 70
   128
 43
0.0
 10
123.2000682797
 20
724.4676042157
 10
123.2610382433
 20
724.3998635369
 10
123.4123185571
 20
724.2643374758
  0
ARC
  5
140
330
1F
100
AcDbEntity
  8
0
  6
Continuous
 62
     7
370
    15
100
AcDbCircle
 10
128.4521855708
 20
603.1990850378
 30
0.0
 40
121.4487889976717
100
AcDbArc
 50
89.5078231544
 51
91.3918501394
  0
LINE
  5
141
330
1F
100
AcDbEntity
  8
0
  6
Continuous
 62
     7
370
    15
100
AcDbLine
 10
144.1940830849
 20
724.6433932143
 30
0.0
 11
146.751733188
 21
724.6433932143
 31
0.0
  0
LINE
  5
142
330
1F
100
AcDbEntity
  8
0
  6
Continuous
 62
     7
370
    15
100
AcDbLine
 10
158.4346555467
 20
702.9627550202
 30
0.0
 11
158.2442056681
 21
702.8547886568
 31
0.0
  0
LWPOLYLINE
  5
143
330
1F
100
AcDbEntity
  8
0
  6
Continuous
 62
     7
370
    15
100
AcDbPolyline
 90
        3
 70
   128
 43
0.0
 10
135.2592604529
 20
702.8547886568
 10
135.1668341379
 20
702.9051843839
 10
135.0743081714
 20
702.9594022589
  0
LWPOLYLINE
  5
144
330
1F
100
AcDbEntity
  8
0
  6
Continuous
 62
     7
370
    15
100
AcDbPolyline
 90
        3
 70
   128
 43
0.0
 10
135.2776037823
 20
702.985799666
 10
135.3136161636
 20
702.877132948
 10
135.4679828803
 20
702.6562977391
  0
LWPOLYLINE
  5
145
330
1F
100
AcDbEntity
  8
0
  6
Continuous
 62
     7
370
    15
100
AcDbPolyline
 90
        3
 70
   128
 43
0.0
 10
158.0354832407
 20
702.6562977391
 10
158.051525272
 20
702.6735458332
 10
158.236083604
 20
703.0823740917
  0
LINE
  5
146
330
1F
100
AcDbEntity
  8
0
  6
Continuous
 62
     7
370
    15
100
AcDbLine
 10
135.4679828803
 20
702.8857979732
 30
0.0
 11
135.4679828803
 21
702.0995084005
 31
0.0
  0
ARC
  5
147
330
1F
100
AcDbEntity
  8
0
  6
Continuous
 62
     7
370
    15
100
AcDbCircle
 10
136.1004928987
 20
702.1393179221
 30
0.0
 40
0.6337615650867898
100
AcDbArc
 50
183.6013862748
 51
228.7317351132
  0
LWPOLYLINE
  5
148
330
1F
100
AcDbEntity
  8
0
  6
Continuous
 62
     7
370
    15
100
AcDbPolyline
 90
        3
 70
   128
 43
0.0
 10
136.1387856598
 20
701.6302857357
 10
136.0682258676
 20
701.6704220133
 10
136.046757951
 20
701.6831401544
  0
LINE
  5
149
330
1F
100
AcDbEntity
  8
0
  6
Continuous
 62
     7
370
    15
100
AcDbLine
 10
136.1387856598
 20
701.6302857357
 30
0.0
 11
136.1387856598
 21
701.335421558
 31
0.0
  0
ARC
  5
14A
330
1F
100
AcDbEntity
  8
0
  6
Continuous
 62
     7
370
    15
100
AcDbCircle
 10
138.8005361031
 20
706.3628271226
 30
0.0
 40
5.688560638117329
100
AcDbArc
 50
242.1011018319
 51
252.4396182765
  0
ARC
  5
14B
330
1F
100
AcDbEntity
  8
0
  6
Continuous
 62
     7
370
    15
100
AcDbCircle
 10
152.7831014762
 20
711.9437934877
 30
0.0
 40
11.58874273891195
100
AcDbArc
 50
282.9354819614
 51
289.3611289382
  0
LINE
  5
14C
330
1F
100
AcDbEntity
  8
0
  6
Continuous
 62
     7
370
    15
100
AcDbLine
 10
156.6250147592
 20
701.0104197817
 30
0.0
 11
156.6250147592
 21
701.7967093545
 31
0.0
  0
ARC
  5
14D
330
1F
100
AcDbEntity
  8
0
  6
Continuous
 62
     7
370
    15
100
AcDbCircle
 10
154.9362788346
 20
706.6515687546
 30
0.0
 40
5.140183733833186
100
AcDbArc
 50
289.1799468751
 51
297.6766243938
  0
LINE
  5
14E
330
1F
100
AcDbEntity
  8
0
  6
Continuous
 62
     7
370
    15
100
AcDbLine
 10
158.0354832407
 20
702.8857979732
 30
0.0
 11
158.0354832407
 21
702.0995084005
 31
0.0
  0
LWPOLYLINE
  5
14F
330
1F
100
AcDbEntity
  8
0
  6
Continuous
 62
     7
370
    15
100
AcDbPolyline
 90
        9
 70
   128
 43
0.0
 10
158.0354832407
 20
702.0995084005
 10
158.0096120309
 20
702.251761015
 10
157.9321176107
 20
702.4033058243
 10
157.8033548142
 20
702.5534648257
 10
157.6239140998
 20
702.7015451151
 10
157.3946187566
 20
702.846861239
 10
157.1165193166
 20
702.9887500959
 10
156.7908916916
 20
703.1265560346
 10
156.4192297231
 20
703.259660657
  0
ARC
  5
150
330
1F
100
AcDbEntity
  8
0
  6
Continuous
 62
     7
370
    15
100
AcDbCircle
 10
146.7547364552
 20
654.3332878157
 30
0.0
 40
49.76589393571716
100
AcDbArc
 50
88.0770221742
 51
90.2140547139
  0
ARC
  5
151
330
1F
100
AcDbEntity
  8
0
  6
Continuous
 62
     7
370
    15
100
AcDbCircle
 10
147.4444111995
 20
665.9546324201
 30
0.0
 40
38.12245424532526
100
AcDbArc
 50
83.4898079306
 51
86.0422786379
  0
LWPOLYLINE
  5
152
330
1F
100
AcDbEntity
  8
0
  6
Continuous
 62
     7
370
    15
100
AcDbPolyline
 90
        3
 70
   128
 43
0.0
 10
136.9134076233
 20
703.1847450691
 10
137.1280188035
 20
703.010438736
 10
137.5241335775
 20
702.790102716
  0
LWPOLYLINE
  5
153
330
1F
100
AcDbEntity
  8
0
  6
Continuous
 62
     7
370
    15
100
AcDbPolyline
 90
        3
 70
   128
 43
0.0
 10
155.9793334748
 20
702.790102716
 10
156.0632633339
 20
702.8306040722
 10
156.0753556262
 20
702.8366539436
  0
LINE
  5
154
330
1F
100
AcDbEntity
  8
0
  6
Continuous
 62
     7
370
    15
100
AcDbLine
 10
155.3450636859
 20
703.3972281771
 30
0.0
 11
155.3450636859
 21
703.1307581621
 31
0.0
  0
LWPOLYLINE
  5
155
330
1F
100
AcDbEntity
  8
0
  6
Continuous
 62
     7
370
    15
100
AcDbPolyline
 90
        9
 70
   128
 43
0.0
 10
156.7817330654
 20
702.0995084005
 10
156.7587368484
 20
702.2348407465
 10
156.6898525055
 20
702.3695546942
 10
156.5753966864
 20
702.503024395
 10
156.4158937256
 20
702.6346538025
 10
156.2120756428
 20
702.7638170677
 10
155.9648765545
 20
702.889940496
 10
155.6754298802
 20
703.0124429422
 10
155.3450636859
 20
703.1307581621
  0
ARC
  5
156
330
1F
100
AcDbEntity
  8
0
  6
Continuous
 62
     7
370
    15
100
AcDbCircle
 10
155.0768659412
 20
704.1702712766
 30
0.0
 40
2.256503029623247
100
AcDbArc
 50
293.5744750695
 51
311.9730681703
  0
LWPOLYLINE
  5
157
330
1F
100
AcDbEntity
  8
0
  6
Continuous
 62
     7
370
    15
100
AcDbPolyline
 90
        4
 70
   128
 43
0.0
 10
137.350703619
 20
701.4025289374
 10
137.4344323124
 20
701.3591889101
 10
137.5231873538
 20
701.3162512141
 10
137.5241335775
 20
701.3158041793
  0
LINE
  5
158
330
1F
100
AcDbEntity
  8
0
  6
Continuous
 62
     7
370
    15
100
AcDbLine
 10
137.350703619
 20
701.4025289374
 30
0.0
 11
137.350703619
 21
701.6973931151
 31
0.0
  0
ARC
  5
159
330
1F
100
AcDbEntity
  8
0
  6
Continuous
 62
     7
370
    15
100
AcDbCircle
 10
138.1553577009
 20
703.3000145212
 30
0.0
 40
1.793282900969085
100
AcDbArc
 50
225.3188281599
 51
243.3394045594
  0
LINE
  5
15A
330
1F
100
AcDbEntity
  8
0
  6
Continuous
 62
     7
370
    15
100
AcDbLine
 10
136.8943909477
 20
702.0249355393
 30
0.0
 11
136.8943909477
 21
701.7300713616
 31
0.0
  0
ARC
  5
15B
330
1F
100
AcDbEntity
  8
0
  6
Continuous
 62
     7
370
    15
100
AcDbCircle
 10
137.2685721317
 20
702.1300111501
 30
0.0
 40
0.5476891389773794
100
AcDbArc
 50
183.1926570018
 51
226.9057938553
  0
LINE
  5
15C
330
1F
100
AcDbEntity
  8
0
  6
Continuous
 62
     7
370
    15
100
AcDbLine
 10
136.7217330556
 20
702.8857979732
 30
0.0
 11
136.7217330556
 21
702.0995084005
 31
0.0
  0
ARC
  5
15D
330
1F
100
AcDbEntity
  8
0
  6
Continuous
 62
     7
370
    15
100
AcDbCircle
 10
137.2551890548
 20
702.858421484
 30
0.0
 40
0.5341580058580666
100
AcDbArc
 50
135.9511649006
 51
177.0622085875
  0
ARC
  5
15E
330
1F
100
AcDbEntity
  8
0
  6
Continuous
 62
     7
370
    15
100
AcDbCircle
 10
143.3785628534
 20
686.1005205935
 30
0.0
 40
17.80659389840826
100
AcDbArc
 50
95.2903832441
 51
107.6638177239
  0
LINE
  5
15F
330
1F
100
AcDbEntity
  8
0
  6
Continuous
 62
     7
370
    15
100
AcDbLine
 10
137.9754832308
 20
703.0675921398
 30
0.0
 11
136.8784522931
 21
703.1885970193
 31
0.0
  0
LWPOLYLINE
  5
160
330
1F
100
AcDbEntity
  8
0
  6
Continuous
 62
     7
370
    15
100
AcDbPolyline
 90
       33
 70
   128
 43
0.0
 10
155.9793334748
 20
701.3132188278
 10
155.8020273517
 20
701.6721207457
 10
155.2769244011
 20
702.017231639
 10
154.4242021921
 20
702.3352894741
 10
153.276631638
 20
702.6140752988
 10
151.8783131908
 20
702.8428602772
 10
150.2829827662
 20
703.0128676253
 10
148.5519486308
 20
703.1175557333
 10
146.751733188
 20
703.1529012876
 10
144.9515177231
 20
703.1175557333
 10
143.2204835876
 20
703.0128676253
 10
141.6251533959
 20
702.8428602772
 10
140.226834483
 20
702.6140752988
 10
139.0792643945
 20
702.3352894741
 10
138.2265426512
 20
702.017231639
 10
137.7014387693
 20
701.6721207457
 10
137.5241335775
 20
701.3132188278
 10
137.7014387693
 20
700.9543094593
 10
138.2265426512
 20
700.609198566
 10
139.0792643945
 20
700.2911407309
 10
140.226834483
 20
700.0123623567
 10
141.6251533959
 20
699.7835699278
 10
143.2204835876
 20
699.6135700303
 10
144.9515177231
 20
699.5088819223
 10
146.751733188
 20
699.4735289174
 10
148.5519486308
 20
699.5088819223
 10
150.2829827662
 20
699.6135700303
 10
151.8783131908
 20
699.7835699278
 10
153.276631638
 20
700.0123623567
 10
154.4242021921
 20
700.2911407309
 10
155.2769244011
 20
700.609198566
 10
155.8020273517
 20
700.9543094593
 10
155.9793334748
 20
701.3132188278
  0
LINE
  5
161
330
1F
100
AcDbEntity
  8
0
  6
Continuous
 62
     7
370
    15
100
AcDbLine
 10
155.3450636859
 20
703.1307581621
 30
0.0
 11
156.4192297231
 21
703.259660657
 31
0.0
  0
LINE
  5
162
330
1F
100
AcDbEntity
  8
0
  6
Continuous
 62
     7
370
    15
100
AcDbLine
 10
158.0354832407
 20
702.0995084005
 30
0.0
 11
156.7817330654
 21
702.0995084005
 31
0.0
  0
LINE
  5
163
330
1F
100
AcDbEntity
  8
0
  6
Continuous
 62
     7
370
    15
100
AcDbLine
 10
135.4679828803
 20
702.8857979732
 30
0.0
 11
136.7217330556
 21
702.8857979732
 31
0.0
  0
LINE
  5
164
330
1F
100
AcDbEntity
  8
0
  6
Continuous
 62
     7
370
    15
100
AcDbLine
 10
135.4679828803
 20
702.0995084005
 30
0.0
 11
136.7217330556
 21
702.0995084005
 31
0.0
  0
LINE
  5
165
330
1F
100
AcDbEntity
  8
0
  6
Continuous
 62
     7
370
    15
100
AcDbLine
 10
136.8943909477
 20
701.7300713616
 30
0.0
 11
135.6824729885
 21
701.6629639822
 31
0.0
  0
LINE
  5
166
330
1F
100
AcDbEntity
  8
0
  6
Continuous
 62
     7
370
    15
100
AcDbLine
 10
155.9793334748
 20
701.8679294544
 30
0.0
 11
156.6250147592
 21
701.7967093545
 31
0.0
  0
LINE
  5
167
330
1F
100
AcDbEntity
  8
0
  6
Continuous
 62
     7
370
    15
100
AcDbLine
 10
136.1387856598
 20
701.6302857357
 30
0.0
 11
137.350703619
 21
701.6973931151
 31
0.0
  0
LINE
  5
168
330
1F
100
AcDbEntity
  8
0
  6
Continuous
 62
     7
370
    15
100
AcDbLine
 10
136.1387856598
 20
701.335421558
 30
0.0
 11
137.350703619
 21
701.4025289374
 31
0.0
  0
LINE
  5
169
330
1F
100
AcDbEntity
  8
0
  6
Continuous
 62
     7
370
    15
100
AcDbLine
 10
137.6524037044
 20
701.0075364071
 30
0.0
 11
137.0842363979
 21
700.939356144
 31
0.0
  0
LINE
  5
16A
330
1F
100
AcDbEntity
  8
0
  6
Continuous
 62
     7
370
    15
100
AcDbLine
 10
155.910674512
 20
701.0892171221
 30
0.0
 11
156.6250147592
 21
701.0104197817
 31
0.0
  0
LINE
  5
16B
330
1F
100
AcDbEntity
  8
0
  6
Continuous
 62
     7
370
    15
100
AcDbLine
 10
155.3772846531
 20
700.6491411286
 30
0.0
 11
155.3627094548
 21
700.651994701
 31
0.0
  0
ARC
  5
16C
330
1F
100
AcDbEntity
  8
0
  6
Continuous
 62
     7
370
    15
100
AcDbCircle
 10
168.6103963391
 20
724.1276525636
 30
0.0
 40
2.890839801570082
100
AcDbArc
 50
325.2290405429
 51
336.1367021235
  0
ARC
  5
16D
330
1F
100
AcDbEntity
  8
0
  6
Continuous
 62
     7
370
    15
100
AcDbCircle
 10
169.9502423751
 20
722.9680699862
 30
0.0
 40
1.303903146127131
100
AcDbArc
 50
359.563935616
 51
83.796306708
  0
ARC
  5
16E
330
1F
100
AcDbEntity
  8
0
  6
Continuous
 62
     7
370
    15
100
AcDbCircle
 10
124.8930707132
 20
724.1276525636
 30
0.0
 40
2.890839801570069
100
AcDbArc
 50
203.8632978765
 51
214.7709594571
  0
ARC
  5
16F
330
1F
100
AcDbEntity
  8
0
  6
Continuous
 62
     7
370
    15
100
AcDbCircle
 10
123.5532228686
 20
722.9680717975
 30
0.0
 40
1.303901351297895
100
AcDbArc
 50
96.2037042508
 51
180.436144577
  0
LINE
  5
170
330
1F
100
AcDbEntity
  8
0
  6
Continuous
 62
     7
370
    15
100
AcDbLine
 10
171.2454408701
 20
721.9536889153
 30
0.0
 11
171.254107758
 21
722.9581463891
 31
0.0
  0
LWPOLYLINE
  5
171
330
1F
100
AcDbEntity
  8
0
  6
Continuous
 62
     7
370
    15
100
AcDbPolyline
 90
        9
 70
   128
 43
0.0
 10
171.2454408701
 20
721.9536889153
 10
170.8453018512
 20
716.9277358609
 10
169.6840729858
 20
712.0218340116
 10
167.6796768154
 20
707.3971841293
 10
164.7856291677
 20
703.2723042923
 10
161.0439429353
 20
699.8988378602
 10
156.6225132267
 20
697.4827859359
 10
151.7764726016
 20
696.0957262474
 10
146.751733188
 20
695.6649038749
  0
LWPOLYLINE
  5
172
330
1F
100
AcDbEntity
  8
0
  6
Continuous
 62
     7
370
    15
100
AcDbPolyline
 90
        9
 70
   128
 43
0.0
 10
122.2580261822
 20
721.9536889153
 10
122.6581633385
 20
716.9277358609
 10
123.8193922039
 20
712.0218340116
 10
125.8237883742
 20
707.3971841293
 10
128.717836022
 20
703.2723042923
 10
132.459524117
 20
699.8988378602
 10
136.8809528943
 20
697.4827859359
 10
141.7269935194
 20
696.0957262474
 10
146.751733188
 20
695.6649038749
  0
LINE
  5
173
330
1F
100
AcDbEntity
  8
0
  6
Continuous
 62
     7
370
    15
100
AcDbLine
 10
122.2580261822
 20
721.9536889153
 30
0.0
 11
122.2493592943
 21
722.9581463891
 31
0.0
  0
ARC
  5
174
330
1F
100
AcDbEntity
  8
0
  6
Continuous
 62
     7
370
    15
100
AcDbCircle
 10
150.9599973937
 20
373.1654972375
 30
0.0
 40
387.92631164356
100
AcDbArc
 50
88.1134512028
 51
90.6215441408
  0
ARC
  5
175
330
1F
100
AcDbEntity
  8
0
  6
Continuous
 62
     7
370
    15
100
AcDbCircle
 10
150.5702634044
 20
402.2748019151
 30
0.0
 40
360.2029710765783
100
AcDbArc
 50
88.1199488104
 51
90.6073869448
  0
ARC
  5
176
330
1F
100
AcDbEntity
  8
0
  6
Continuous
 62
     7
370
    15
100
AcDbCircle
 10
162.3269387337
 20
760.8813810379
 30
0.0
 40
1.403801852092904
100
AcDbArc
 50
0.0065705533
 51
87.526924571
  0
ARC
  5
177
330
1F
100
AcDbEntity
  8
0
  6
Continuous
 62
     7
370
    15
100
AcDbCircle
 10
142.9334535672
 20
402.2747812975
 30
0.0
 40
360.2029916936901
100
AcDbArc
 50
89.3926130792
 51
91.8800511336
  0
ARC
  5
178
330
1F
100
AcDbEntity
  8
0
  6
Continuous
 62
     7
370
    15
100
AcDbCircle
 10
142.543717346
 20
373.1658057003
 30
0.0
 40
387.926003223857
100
AcDbArc
 50
89.3784550254
 51
91.8865497406
  0
ARC
  5
179
330
1F
100
AcDbEntity
  8
0
  6
Continuous
 62
     7
370
    15
100
AcDbCircle
 10
131.176781336
 20
760.8813796238
 30
0.0
 40
1.403803412564018
100
AcDbArc
 50
92.4732125152
 51
179.9933717387
  0
LWPOLYLINE
  5
17A
330
1F
100
AcDbEntity
  8
0
  6
Continuous
 62
     7
370
    15
100
AcDbPolyline
 90
       11
 70
   128
 43
0.0
 10
163.7307405766
 20
760.7339460211
 10
163.7307405766
 20
760.7160199242
 10
163.7159865643
 20
760.4926813202
 10
163.6672001626
 20
760.2504182416
 10
163.4314786937
 20
759.7083587008
 10
162.4719035174
 20
758.6825478631
 10
160.9202977564
 20
757.7531773406
 10
158.8472351726
 20
756.9426137763
 10
155.3939730223
 20
756.0853350716
 10
151.3064196627
 20
755.5320698577
 10
146.7518585197
 20
755.3358662682
  0
LWPOLYLINE
  5
17B
330
1F
100
AcDbEntity
  8
0
  6
Continuous
 62
     7
370
    15
100
AcDbPolyline
 90
        9
 70
   128
 43
0.0
 10
146.7518585197
 20
760.8181971865
 10
156.9819469299
 20
760.8311164933
 10
159.5055293586
 20
760.8328003245
 10
160.6674883808
 20
760.8296412783
 10
161.6973635103
 20
760.8222205001
 10
162.5479162033
 20
760.8095098096
 10
163.1856914903
 20
760.7908237534
 10
163.5875832583
 20
760.7657749014
 10
163.7307405766
 20
760.7339460211
  0
LWPOLYLINE
  5
17C
330
1F
100
AcDbEntity
  8
0
  6
Continuous
 62
     7
370
    15
100
AcDbPolyline
 90
        9
 70
   128
 43
0.0
 10
129.7729779329
 20
760.7339460211
 10
129.864810064
 20
760.1570177632
 10
130.1202066536
 20
759.6308279591
 10
130.9158057268
 20
758.7742645102
 10
132.9359263475
 20
757.5907844859
 10
135.1417098488
 20
756.7919779378
 10
137.4186566393
 20
756.2220979291
 10
142.0624694149
 20
755.5440354901
 10
146.7518585197
 20
755.3358662682
  0
LWPOLYLINE
  5
17D
330
1F
100
AcDbEntity
  8
0
  6
Continuous
 62
     7
370
    15
100
AcDbPolyline
 90
        9
 70
   128
 43
0.0
 10
146.7518585197
 20
760.8181971865
 10
136.5217697169
 20
760.8311164933
 10
133.9981882195
 20
760.8328003245
 10
132.8362291973
 20
760.8296412783
 10
131.806481659
 20
760.8222205001
 10
130.9559308286
 20
760.8095098096
 10
130.3180251564
 20
760.7908237534
 10
129.9161333885
 20
760.7657749014
 10
129.7729779329
 20
760.7339460211
  0
LINE
  5
17E
330
1F
100
AcDbEntity
  8
0
  6
Continuous
 62
     7
370
    15
100
AcDbLine
 10
163.7307405766
 20
760.8815420228
 30
0.0
 11
163.7307405766
 21
760.7339460211
 31
0.0
  0
LINE
  5
17F
330
1F
100
AcDbEntity
  8
0
  6
Continuous
 62
     7
370
    15
100
AcDbLine
 10
129.7729779329
 20
760.8815420228
 30
0.0
 11
129.7729779329
 21
760.7339460211
 31
0.0
  0
LWPOLYLINE
  5
180
330
1F
100
AcDbEntity
  8
0
  6
Continuous
 62
     7
370
    15
100
AcDbPolyline
 90
       22
 70
   128
 43
0.0
 10
146.751733188
 20
652.4849075633
 10
144.5873291525
 20
652.4851310807
 10
143.3068609625
 20
652.4857792812
 10
142.3220890868
 20
652.4873886066
 10
141.4379324126
 20
652.4901006179
 10
140.6516172286
 20
652.493900414
 10
139.9603821631
 20
652.4988028961
 10
137.697800092
 20
652.5311682182
 10
135.6375878971
 20
652.5962341385
 10
133.7123262058
 20
652.7107793646
 10
130.9492010917
 20
653.0401471811
 10
128.5159681286
 20
653.6404553609
 10
126.4723483767
 20
654.6213615494
 10
124.8842217322
 20
656.0598376947
 10
123.742969736
 20
657.9949099379
 10
122.993955418
 20
660.4059401708
 10
122.5559022571
 20
663.1801713067
 10
122.3277710672
 20
666.1991093116
 10
122.2239826168
 20
669.4143105107
 10
122.187174886
 20
672.7137256222
 10
122.1788022961
 20
676.0736543494
 10
122.1782323267
 20
679.4920552331
  0
LWPOLYLINE
  5
181
330
1F
100
AcDbEntity
  8
0
  6
Continuous
 62
     7
370
    15
100
AcDbPolyline
 90
        8
 70
   128
 43
0.0
 10
121.8908001031
 20
709.5819029766
 10
121.9884045716
 20
705.4189953762
 10
122.0839266028
 20
700.7879901486
 10
122.114002734
 20
698.4195846873
 10
122.1471634056
 20
695.8082306939
 10
122.1733577843
 20
690.5500057893
 10
122.1777219619
 20
685.0717503386
 10
122.1782323267
 20
679.4920552331
  0
ARC
  5
182
330
1F
100
AcDbEntity
  8
0
  6
Continuous
 62
     7
370
    15
100
AcDbCircle
 10
238.5789444377
 20
714.225397142
 30
0.0
 40
116.7804995121687
100
AcDbArc
 50
176.7686571407
 51
182.2788288847
  0
LWPOLYLINE
  5
183
330
1F
100
AcDbEntity
  8
0
  6
Continuous
 62
     7
370
    15
100
AcDbPolyline
 90
        3
 70
   128
 43
0.0
 10
122.2580261822
 20
721.9536889153
 10
122.1798509653
 20
721.9827908831
 10
122.0880896147
 20
722.0062453108
  0
ARC
  5
184
330
1F
100
AcDbEntity
  8
0
  6
Continuous
 62
     7
370
    15
100
AcDbCircle
 10
146.1582767331
 20
719.0641317872
 30
0.0
 40
25.42788170463539
100
AcDbArc
 50
1.3177465978
 51
6.6442457268
  0
LWPOLYLINE
  5
185
330
1F
100
AcDbEntity
  8
0
  6
Continuous
 62
     7
370
    15
100
AcDbPolyline
 90
        5
 70
   128
 43
0.0
 10
171.3894643183
 20
698.4195846873
 10
171.3563017841
 20
695.8082306939
 10
171.3301074054
 20
690.5500057893
 10
171.3257450904
 20
685.0717503386
 10
171.325232863
 20
679.4920552331
  0
LWPOLYLINE
  5
186
330
1F
100
AcDbEntity
  8
0
  6
Continuous
 62
     7
370
    15
100
AcDbPolyline
 90
       22
 70
   128
 43
0.0
 10
146.751733188
 20
652.4849075633
 10
148.9161372013
 20
652.4851310807
 10
150.1966053914
 20
652.4857792812
 10
151.1813770342
 20
652.4873886066
 10
152.0655337084
 20
652.4901006179
 10
152.8518493581
 20
652.493900414
 10
153.5430844236
 20
652.4988028961
 10
155.8056669604
 20
652.5311682182
 10
157.8658791553
 20
652.5962341385
 10
159.7911408465
 20
652.7107793646
 10
162.5542659606
 20
653.0401471811
 10
164.9874989237
 20
653.6404553609
 10
167.0311186756
 20
654.6213615494
 10
168.6192453201
 20
656.0598376947
 10
169.7604954536
 20
657.9949099379
 10
170.5095116343
 20
660.4059401708
 10
170.9475647952
 20
663.1801713067
 10
171.1756959851
 20
666.1991093116
 10
171.2794844355
 20
669.4143105107
 10
171.3162921663
 20
672.7137256222
 10
171.3246647562
 20
676.0736543494
 10
171.325232863
 20
679.4920552331
  0
LWPOLYLINE
  5
187
330
1F
100
AcDbEntity
  8
0
  6
Continuous
 62
     7
370
    15
100
AcDbPolyline
 90
        3
 70
   128
 43
0.0
 10
171.2454408701
 20
721.9536889153
 10
171.323616087
 20
721.9827908831
 10
171.4153774376
 20
722.0062453108
  0
LWPOLYLINE
  5
188
330
1F
100
AcDbEntity
  8
0
  6
Continuous
 62
     7
370
    15
100
AcDbPolyline
 90
        4
 70
   128
 43
0.0
 10
163.8029367025
 20
744.288502987
 10
163.8469454195
 20
749.6538895922
 10
163.8655420687
 20
753.8488346892
 10
163.8639066662
 20
754.4945765095
  0
ARC
  5
189
330
1F
100
AcDbEntity
  8
0
  6
Continuous
 62
     7
370
    15
100
AcDbCircle
 10
161.4031341898
 20
744.2757790008
 30
0.0
 40
2.399836244405444
100
AcDbArc
 50
347.6634019635
 51
0.3037849445
  0
LWPOLYLINE
  5
18A
330
1F
100
AcDbEntity
  8
0
  6
Continuous
 62
     7
370
    15
100
AcDbPolyline
 90
       12
 70
   128
 43
0.0
 10
147.2316784787
 20
744.0152156907
 10
149.2416968397
 20
744.0276730614
 10
151.2199701104
 20
744.0544206458
 10
152.9408735517
 20
744.0851021367
 10
154.5908656265
 20
744.1139358836
 10
156.40316534
 20
744.1313404399
 10
157.9531003084
 20
744.1113281804
 10
159.2300869818
 20
744.0381038743
 10
160.6660811524
 20
743.8031423646
 10
161.6436215411
 20
743.3801580029
 10
162.2389201369
 20
742.7262950497
 10
162.503106549
 20
741.7755115586
  0
LWPOLYLINE
  5
18B
330
1F
100
AcDbEntity
  8
0
  6
Continuous
 62
     7
370
    15
100
AcDbPolyline
 90
        3
 70
   128
 43
0.0
 10
146.7518585197
 20
744.0171677428
 10
146.9921643295
 20
744.0154541093
 10
147.2316784787
 20
744.0152156907
  0
LWPOLYLINE
  5
18C
330
1F
100
AcDbEntity
  8
0
  6
Continuous
 62
     7
370
    15
100
AcDbPolyline
 90
       12
 70
   128
 43
0.0
 10
146.2720385464
 20
744.0152156907
 10
144.2620202727
 20
744.0276730614
 10
142.2837470021
 20
744.0544206458
 10
140.5628435607
 20
744.0851021367
 10
138.9128510203
 20
744.1139358836
 10
137.1005513068
 20
744.1313404399
 10
135.5506172697
 20
744.1113281804
 10
134.2736296649
 20
744.0381038743
 10
132.8376364257
 20
743.8031423646
 10
131.8600951056
 20
743.3801580029
 10
131.2647974412
 20
742.7262950497
 10
131.0006100978
 20
741.7755115586
  0
LINE
  5
18D
330
1F
100
AcDbEntity
  8
0
  6
Continuous
 62
     7
370
    15
100
AcDbLine
 10
129.7600232358
 20
743.7631625491
 30
0.0
 11
129.7007799442
 21
744.288502987
 31
0.0
  0
LWPOLYLINE
  5
18E
330
1F
100
AcDbEntity
  8
0
  6
Continuous
 62
     7
370
    15
100
AcDbPolyline
 90
        4
 70
   128
 43
0.0
 10
129.7007799442
 20
744.288502987
 10
129.6567712273
 20
749.6538895922
 10
129.6381764408
 20
753.8488346892
 10
129.6398118432
 20
754.4945765095
  0
LWPOLYLINE
  5
18F
330
1F
100
AcDbEntity
  8
0
  6
Continuous
 62
     7
370
    15
100
AcDbPolyline
 90
        3
 70
   128
 43
0.0
 10
146.7518585197
 20
744.0171677428
 10
146.5115527101
 20
744.0154541093
 10
146.2720385464
 20
744.0152156907
  0
ARC
  5
190
330
1F
100
AcDbEntity
  8
0
  6
Continuous
 62
     7
370
    15
100
AcDbCircle
 10
8.9273313301
 20
755.1478059056
 30
0.0
 40
154.9392267874249
100
AcDbArc
 50
359.8351045729
 51
0.5962750438
  0
ARC
  5
191
330
1F
100
AcDbEntity
  8
0
  6
Continuous
 62
     7
370
    15
100
AcDbCircle
 10
144.1986009883
 20
758.6772720025
 30
0.0
 40
19.65612584461268
100
AcDbArc
 50
358.18700624
 51
6.4387860117
  0
ARC
  5
192
330
1F
100
AcDbEntity
  8
0
  6
Continuous
 62
     7
370
    15
100
AcDbCircle
 10
284.3401622689
 20
755.1488632863
 30
0.0
 40
154.703005533933
100
AcDbArc
 50
179.4032060833
 51
180.1652518468
  0
ARC
  5
193
330
1F
100
AcDbEntity
  8
0
  6
Continuous
 62
     7
370
    15
100
AcDbCircle
 10
149.3044314161
 20
758.677286766
 30
0.0
 40
19.65544241187635
100
AcDbArc
 50
173.5610324692
 51
181.8130998774
  0
LWPOLYLINE
  5
194
330
1F
100
AcDbEntity
  8
0
  6
Continuous
 62
     7
370
    15
100
AcDbPolyline
 90
        4
 70
   128
 43
0.0
 10
171.254107758
 20
722.9581463891
 10
171.254107758
 20
722.9581463891
 10
171.3424884077
 20
723.200066741
 10
171.3611800517
 20
723.3031976777
  0
ARC
  5
195
330
1F
100
AcDbEntity
  8
0
  6
Continuous
 62
     7
370
    15
100
AcDbCircle
 10
170.0625830449
 20
723.1858749867
 30
0.0
 40
1.303886047570303
100
AcDbArc
 50
5.1505793198
 51
79.3938702406
  0
LWPOLYLINE
  5
196
330
1F
100
AcDbEntity
  8
0
  6
Continuous
 62
     7
370
    15
100
AcDbPolyline
 90
        4
 70
   128
 43
0.0
 10
122.2493592943
 20
722.9581463891
 10
122.2493592943
 20
722.9581463891
 10
122.1609786447
 20
723.200066741
 10
122.1422870006
 20
723.3031976777
  0
ARC
  5
197
330
1F
100
AcDbEntity
  8
0
  6
Continuous
 62
     7
370
    15
100
AcDbCircle
 10
123.4409053589
 20
723.1861590124
 30
0.0
 40
1.303883701192001
100
AcDbArc
 50
100.6093519673
 51
174.8619426341
  0
LINE
  5
198
330
1F
100
AcDbEntity
  8
0
  6
Continuous
 62
     7
370
    15
100
AcDbLine
 10
153.8549792315
 20
730.6278634625
 30
0.0
 11
154.7968676608
 21
730.6278634625
 31
0.0
  0
LINE
  5
199
330
1F
100
AcDbEntity
  8
0
  6
Continuous
 62
     7
370
    15
100
AcDbLine
 10
152.4700769517
 20
730.6278634625
 30
0.0
 11
153.8549792315
 21
730.6278634625
 31
0.0
  0
LINE
  5
19A
330
1F
100
AcDbEntity
  8
0
  6
Continuous
 62
     7
370
    15
100
AcDbLine
 10
146.7518585197
 20
730.6278634625
 30
0.0
 11
152.4700769517
 21
730.6278634625
 31
0.0
  0
LWPOLYLINE
  5
19B
330
1F
100
AcDbEntity
  8
0
  6
Continuous
 62
     7
370
    15
100
AcDbPolyline
 90
        3
 70
   128
 43
0.0
 10
162.5036299522
 20
741.7755115586
 10
162.4644398983
 20
741.3803625661
 10
162.2822759967
 20
740.9449357348
  0
ARC
  5
19C
330
1F
100
AcDbEntity
  8
0
  6
Continuous
 62
     7
370
    15
100
AcDbCircle
 10
168.7020945909
 20
726.4529673276
 30
0.0
 40
14.7578009560779
100
AcDbArc
 50
134.7902783852
 51
157.0724743064
  0
LWPOLYLINE
  5
19D
330
1F
100
AcDbEntity
  8
0
  6
Continuous
 62
     7
370
    15
100
AcDbPolyline
 90
        3
 70
   128
 43
0.0
 10
131.0000866945
 20
741.7755115586
 10
131.0392767485
 20
741.3803625661
 10
131.2214415814
 20
740.9449357348
  0
LINE
  5
19E
330
1F
100
AcDbEntity
  8
0
  6
Continuous
 62
     7
370
    15
100
AcDbLine
 10
146.7518585197
 20
730.6278634625
 30
0.0
 11
141.0336401607
 21
730.6278634625
 31
0.0
  0
LINE
  5
19F
330
1F
100
AcDbEntity
  8
0
  6
Continuous
 62
     7
370
    15
100
AcDbLine
 10
141.0336401607
 20
730.6278634625
 30
0.0
 11
139.6487378809
 21
730.6278634625
 31
0.0
  0
LINE
  5
1A0
330
1F
100
AcDbEntity
  8
0
  6
Continuous
 62
     7
370
    15
100
AcDbLine
 10
139.6487378809
 20
730.6278634625
 30
0.0
 11
138.7068499173
 21
730.6278634625
 31
0.0
  0
ARC
  5
1A1
330
1F
100
AcDbEntity
  8
0
  6
Continuous
 62
     7
370
    15
100
AcDbCircle
 10
124.8016000593
 20
726.4529497729
 30
0.0
 40
14.75782891131821
100
AcDbArc
 50
22.9275537861
 51
45.2097090232
  0
LINE
  5
1A2
330
1F
100
AcDbEntity
  8
0
  6
Continuous
 62
     7
370
    15
100
AcDbLine
 10
171.325232863
 20
588.8456311933
 30
0.0
 11
171.325232863
 21
603.8906311425
 31
0.0
  0
LINE
  5
1A3
330
1F
100
AcDbEntity
  8
0
  6
Continuous
 62
     7
370
    15
100
AcDbLine
 10
167.8915992673
 20
588.8456311933
 30
0.0
 11
171.325232863
 21
588.8456311933
 31
0.0
  0
LINE
  5
1A4
330
1F
100
AcDbEntity
  8
0
  6
Continuous
 62
     7
370
    15
100
AcDbLine
 10
159.2802182134
 20
588.8456311933
 30
0.0
 11
167.8915992673
 21
588.8456311933
 31
0.0
  0
LINE
  5
1A5
330
1F
100
AcDbEntity
  8
0
  6
Continuous
 62
     7
370
    15
100
AcDbLine
 10
146.751733188
 20
588.8456311933
 30
0.0
 11
159.2802182134
 21
588.8456311933
 31
0.0
  0
LINE
  5
1A6
330
1F
100
AcDbEntity
  8
0
  6
Continuous
 62
     7
370
    15
100
AcDbLine
 10
171.325232863
 20
603.8906311425
 30
0.0
 11
171.325232863
 21
679.4920552331
 31
0.0
  0
LINE
  5
1A7
330
1F
100
AcDbEntity
  8
0
  6
Continuous
 62
     7
370
    15
100
AcDbLine
 10
122.1782323267
 20
603.8906311425
 30
0.0
 11
122.1782323267
 21
679.4920552331
 31
0.0
  0
LINE
  5
1A8
330
1F
100
AcDbEntity
  8
0
  6
Continuous
 62
     7
370
    15
100
AcDbLine
 10
134.2232479076
 20
588.8456311933
 30
0.0
 11
146.751733188
 21
588.8456311933
 31
0.0
  0
LINE
  5
1A9
330
1F
100
AcDbEntity
  8
0
  6
Continuous
 62
     7
370
    15
100
AcDbLine
 10
125.6118659224
 20
588.8456311933
 30
0.0
 11
134.2232479076
 21
588.8456311933
 31
0.0
  0
LINE
  5
1AA
330
1F
100
AcDbEntity
  8
0
  6
Continuous
 62
     7
370
    15
100
AcDbLine
 10
122.1782323267
 20
588.8456311933
 30
0.0
 11
125.6118659224
 21
588.8456311933
 31
0.0
  0
LINE
  5
1AB
330
1F
100
AcDbEntity
  8
0
  6
Continuous
 62
     7
370
    15
100
AcDbLine
 10
122.1782323267
 20
588.8456311933
 30
0.0
 11
122.1782323267
 21
603.8906311425
 31
0.0
  0
LINE
  5
1AC
330
1F
100
AcDbEntity
  8
0
  6
Continuous
 62
     7
370
    15
100
AcDbLine
 10
122.1782323267
 20
428.3656317549
 30
0.0
 11
171.325232863
 21
428.3656317549
 31
0.0
  0
LWPOLYLINE
  5
1AD
330
1F
100
AcDbEntity
  8
0
  6
Continuous
 62
     7
370
    15
100
AcDbPolyline
 90
        3
 70
   128
 43
0.0
 10
169.1979207392
 20
724.5941150742
 10
169.8849965181
 20
724.5451498585
 10
170.243641391
 20
724.4881380158
  0
LWPOLYLINE
  5
1AE
330
1F
100
AcDbEntity
  8
0
  6
Continuous
 62
     7
370
    15
100
AcDbPolyline
 90
        4
 70
   128
 43
0.0
 10
149.980634946
 20
724.6433932143
 10
154.5651620548
 20
724.6434677201
 10
157.8283701386
 20
724.6434528189
 10
158.024773031
 20
724.6434379178
  0
LWPOLYLINE
  5
1AF
330
1F
100
AcDbEntity
  8
0
  6
Continuous
 62
     7
370
    15
100
AcDbPolyline
 90
        6
 70
   128
 43
0.0
 10
161.5156280171
 20
724.6433932143
 10
163.4248756166
 20
724.6437657433
 10
165.5767541673
 20
724.6442574816
 10
167.1416089232
 20
724.6439147549
 10
168.1644972708
 20
724.6425289469
 10
168.5669832225
 20
724.6421266156
  0
LWPOLYLINE
  5
1B0
330
1F
100
AcDbEntity
  8
0
  6
Continuous
 62
     7
370
    15
100
AcDbPolyline
 90
        3
 70
   128
 43
0.0
 10
124.3055034723
 20
724.5941150742
 10
123.6184705343
 20
724.5451498585
 10
123.2598237987
 20
724.4881380158
  0
LWPOLYLINE
  5
1B1
330
1F
100
AcDbEntity
  8
0
  6
Continuous
 62
     7
370
    15
100
AcDbPolyline
 90
        7
 70
   128
 43
0.0
 10
124.9364838298
 20
724.6421266156
 10
125.225104421
 20
724.6424246388
 10
126.1151694055
 20
724.6436763363
 10
127.5704801376
 20
724.6442723828
 10
129.6199150677
 20
724.6439296561
 10
132.0914142128
 20
724.6432293015
 10
132.1770660873
 20
724.6432442027
  0
LWPOLYLINE
  5
1B2
330
1F
100
AcDbEntity
  8
0
  6
Continuous
 62
     7
370
    15
100
AcDbPolyline
 90
        4
 70
   128
 43
0.0
 10
135.4959355961
 20
724.6434230166
 10
138.2651841562
 20
724.6434677201
 10
141.8109480585
 20
724.6434379178
 10
143.640595052
 20
724.6433932143
  0
LINE
  5
1B3
330
1F
100
AcDbEntity
  8
0
  6
Continuous
 62
     7
370
    15
100
AcDbLine
 10
168.0189166512
 20
724.6396977263
 30
0.0
 11
167.5582081373
 21
724.6398318368
 31
0.0
  0
LINE
  5
1B4
330
1F
100
AcDbEntity
  8
0
  6
Continuous
 62
     7
370
    15
100
AcDbLine
 10
125.9453725364
 20
724.6398318368
 30
0.0
 11
125.3561824854
 21
724.6396232205
 31
0.0
  0
LINE
  5
1B5
330
1F
100
AcDbEntity
  8
0
  6
Continuous
 62
     7
370
    15
100
AcDbLine
 10
150.8524674285
 20
730.0107765751
 30
0.0
 11
149.5896985582
 21
730.0135928946
 31
0.0
  0
LINE
  5
1B6
330
1F
100
AcDbEntity
  8
0
  6
Continuous
 62
     7
370
    15
100
AcDbLine
 10
152.223340265
 20
730.0080049592
 30
0.0
 11
150.8524674285
 21
730.0107765751
 31
0.0
  0
LINE
  5
1B7
330
1F
100
AcDbEntity
  8
0
  6
Continuous
 62
     7
370
    15
100
AcDbLine
 10
152.8028562027
 20
730.0072897034
 30
0.0
 11
152.223340265
 21
730.0080049592
 31
0.0
  0
LINE
  5
1B8
330
1F
100
AcDbEntity
  8
0
  6
Continuous
 62
     7
370
    15
100
AcDbLine
 10
153.3296620767
 20
730.0072449999
 30
0.0
 11
152.8028562027
 21
730.0072897034
 31
0.0
  0
LINE
  5
1B9
330
1F
100
AcDbEntity
  8
0
  6
Continuous
 62
     7
370
    15
100
AcDbLine
 10
154.0706130038
 20
730.0117302495
 30
0.0
 11
153.3296620767
 21
730.0072449999
 31
0.0
  0
LINE
  5
1BA
330
1F
100
AcDbEntity
  8
0
  6
Continuous
 62
     7
370
    15
100
AcDbLine
 10
154.3220826718
 20
730.0160664874
 30
0.0
 11
154.0706130038
 21
730.0117302495
 31
0.0
  0
LINE
  5
1BB
330
1F
100
AcDbEntity
  8
0
  6
Continuous
 62
     7
370
    15
100
AcDbLine
 10
154.6405963893
 20
730.0260502654
 30
0.0
 11
154.3220826718
 21
730.0160664874
 31
0.0
  0
LINE
  5
1BC
330
1F
100
AcDbEntity
  8
0
  6
Continuous
 62
     7
370
    15
100
AcDbLine
 10
154.6796253245
 20
730.0272870618
 30
0.0
 11
154.6405963893
 21
730.0260502654
 31
0.0
  0
LINE
  5
1BD
330
1F
100
AcDbEntity
  8
0
  6
Continuous
 62
     7
370
    15
100
AcDbLine
 10
155.1048709373
 20
730.0405639964
 30
0.0
 11
154.6796253245
 21
730.0272870618
 31
0.0
  0
LINE
  5
1BE
330
1F
100
AcDbEntity
  8
0
  6
Continuous
 62
     7
370
    15
100
AcDbLine
 10
155.2291624542
 20
730.0408620196
 30
0.0
 11
155.1048709373
 21
730.0405639964
 31
0.0
  0
ARC
  5
1BF
330
1F
100
AcDbEntity
  8
0
  6
Continuous
 62
     7
370
    15
100
AcDbCircle
 10
152.769482267
 20
721.1962247772
 30
0.0
 40
9.180281609653635
100
AcDbArc
 50
30.167390068
 51
74.4589100999
  0
LINE
  5
1C0
330
1F
100
AcDbEntity
  8
0
  6
Continuous
 62
     7
370
    15
100
AcDbLine
 10
160.70541463
 20
725.5022812443
 30
0.0
 11
160.7064465355
 21
725.8095878916
 31
0.0
  0
LINE
  5
1C1
330
1F
100
AcDbEntity
  8
0
  6
Continuous
 62
     7
370
    15
100
AcDbLine
 10
160.5849918272
 20
725.198208149
 30
0.0
 11
160.7047934379
 21
725.3174323397
 31
0.0
  0
LINE
  5
1C2
330
1F
100
AcDbEntity
  8
0
  6
Continuous
 62
     7
370
    15
100
AcDbLine
 10
147.7810035288
 20
730.0174820977
 30
0.0
 11
146.7518585194
 21
730.0194937544
 31
0.0
  0
LINE
  5
1C3
330
1F
100
AcDbEntity
  8
0
  6
Continuous
 62
     7
370
    15
100
AcDbLine
 10
149.5896985582
 20
730.0135928946
 30
0.0
 11
147.7810035288
 21
730.0174820977
 31
0.0
  0
LINE
  5
1C4
330
1F
100
AcDbEntity
  8
0
  6
Continuous
 62
     7
370
    15
100
AcDbLine
 10
138.8623686801
 20
730.0260800677
 30
0.0
 11
138.4397736113
 21
730.0393868046
 31
0.0
  0
LINE
  5
1C5
330
1F
100
AcDbEntity
  8
0
  6
Continuous
 62
     7
370
    15
100
AcDbLine
 10
139.1761345151
 20
730.0162453013
 30
0.0
 11
138.8623686801
 21
730.0260800677
 31
0.0
  0
LINE
  5
1C6
330
1F
100
AcDbEntity
  8
0
  6
Continuous
 62
     7
370
    15
100
AcDbLine
 10
139.1816344406
 20
730.0160664874
 30
0.0
 11
139.1761345151
 21
730.0162453013
 31
0.0
  0
LINE
  5
1C7
330
1F
100
AcDbEntity
  8
0
  6
Continuous
 62
     7
370
    15
100
AcDbLine
 10
139.6431639153
 20
730.0100166159
 30
0.0
 11
139.1816344406
 21
730.0160664874
 31
0.0
  0
LINE
  5
1C8
330
1F
100
AcDbEntity
  8
0
  6
Continuous
 62
     7
370
    15
100
AcDbLine
 10
140.0226443368
 20
730.0077516394
 30
0.0
 11
139.6431639153
 21
730.0100166159
 31
0.0
  0
LINE
  5
1C9
330
1F
100
AcDbEntity
  8
0
  6
Continuous
 62
     7
370
    15
100
AcDbLine
 10
140.1740550357
 20
730.0072449999
 30
0.0
 11
140.0226443368
 21
730.0077516394
 31
0.0
  0
LINE
  5
1CA
330
1F
100
AcDbEntity
  8
0
  6
Continuous
 62
     7
370
    15
100
AcDbLine
 10
140.7008609097
 20
730.0072897034
 30
0.0
 11
140.1740550357
 21
730.0072449999
 31
0.0
  0
LWPOLYLINE
  5
1CB
330
1F
100
AcDbEntity
  8
0
  6
Continuous
 62
     7
370
    15
100
AcDbPolyline
 90
        3
 70
   128
 43
0.0
 10
146.75185852
 20
730.0194937544
 10
143.6720073983
 20
730.0130862551
 10
140.7008609097
 20
730.0072897034
  0
LINE
  5
1CC
330
1F
100
AcDbEntity
  8
0
  6
Continuous
 62
     7
370
    15
100
AcDbLine
 10
132.7972933944
 20
725.809617694
 30
0.0
 11
132.79680445
 21
725.5019832211
 31
0.0
  0
ARC
  5
1CD
330
1F
100
AcDbEntity
  8
0
  6
Continuous
 62
     7
370
    15
100
AcDbCircle
 10
140.7583737189
 20
721.1653523206
 30
0.0
 40
9.216767414270755
100
AcDbArc
 50
105.6342298597
 51
149.7417778057
  0
LINE
  5
1CE
330
1F
100
AcDbEntity
  8
0
  6
Continuous
 62
     7
370
    15
100
AcDbLine
 10
138.3988447781
 20
730.0405639964
 30
0.0
 11
138.2745551239
 21
730.0408620196
 31
0.0
  0
LINE
  5
1CF
330
1F
100
AcDbEntity
  8
0
  6
Continuous
 62
     7
370
    15
100
AcDbLine
 10
138.4397736113
 20
730.0393868046
 30
0.0
 11
138.3988447781
 21
730.0405639964
 31
0.0
  0
LINE
  5
1D0
330
1F
100
AcDbEntity
  8
0
  6
Continuous
 62
     7
370
    15
100
AcDbLine
 10
160.7064465355
 20
725.8095878916
 30
0.0
 11
160.7027510475
 21
725.8156526642
 31
0.0
  0
ARC
  5
1D1
330
1F
100
AcDbEntity
  8
0
  6
Continuous
 62
     7
370
    15
100
AcDbCircle
 10
146.7518585197
 20
717.3882599747
 30
0.0
 40
16.29875000000008
100
AcDbArc
 50
148.8897349868
 51
153.5358410351
  0
LWPOLYLINE
  5
1D2
330
1F
100
AcDbEntity
  8
0
  6
Continuous
 62
     7
370
    15
100
AcDbPolyline
 90
        3
 70
   128
 43
0.0
 10
140.1740550357
 20
730.0072449999
 10
140.2257364537
 20
730.0229806262
 10
140.2506912421
 20
730.0246197539
  0
LWPOLYLINE
  5
1D3
330
1F
100
AcDbEntity
  8
0
  6
Continuous
 62
     7
370
    15
100
AcDbPolyline
 90
        3
 70
   128
 43
0.0
 10
140.0226443368
 20
730.0077516394
 10
140.076217271
 20
730.0234425622
 10
140.1044316884
 20
730.0250220852
  0
LWPOLYLINE
  5
1D4
330
1F
100
AcDbEntity
  8
0
  6
Continuous
 62
     7
370
    15
100
AcDbPolyline
 90
        3
 70
   128
 43
0.0
 10
139.1816344406
 20
730.0160664874
 10
139.2454463351
 20
730.0304610091
 10
139.2772300463
 20
730.0315338927
  0
LWPOLYLINE
  5
1D5
330
1F
100
AcDbEntity
  8
0
  6
Continuous
 62
     7
370
    15
100
AcDbPolyline
 90
        3
 70
   128
 43
0.0
 10
154.5481267679
 20
730.0396401244
 10
154.5755612026
 20
730.0389844733
 10
154.6405963893
 20
730.0260502654
  0
LWPOLYLINE
  5
1D6
330
1F
100
AcDbEntity
  8
0
  6
Continuous
 62
     7
370
    15
100
AcDbPolyline
 90
        3
 70
   128
 43
0.0
 10
139.1761345151
 20
730.0162453013
 10
139.2399682957
 20
730.0306100207
 10
139.2716192934
 20
730.0316829043
  0
LWPOLYLINE
  5
1D7
330
1F
100
AcDbEntity
  8
0
  6
Continuous
 62
     7
370
    15
100
AcDbPolyline
 90
        3
 70
   128
 43
0.0
 10
154.5879310291
 20
730.0406534033
 10
154.6144457828
 20
730.0400275546
 10
154.6796253245
 20
730.0272870618
  0
LWPOLYLINE
  5
1D8
330
1F
100
AcDbEntity
  8
0
  6
Continuous
 62
     7
370
    15
100
AcDbPolyline
 90
        3
 70
   128
 43
0.0
 10
138.4397736113
 20
730.0393868046
 10
138.5063436176
 20
730.0503540593
 10
138.5281710248
 20
730.0505626755
  0
LINE
  5
1D9
330
1F
100
AcDbEntity
  8
0
  6
Continuous
 62
     7
370
    15
100
AcDbLine
 10
138.2745113518
 20
730.0411153393
 30
0.0
 11
138.2703669663
 21
730.03470784
 31
0.0
  0
LINE
  5
1DA
330
1F
100
AcDbEntity
  8
0
  6
Continuous
 62
     7
370
    15
100
AcDbLine
 10
132.8009655993
 20
725.8156526642
 30
0.0
 11
132.7972933944
 21
725.809617694
 31
0.0
  0
LINE
  5
1DB
330
1F
100
AcDbEntity
  8
0
  6
Continuous
 62
     7
370
    15
100
AcDbLine
 10
155.2355885799
 20
730.0346631365
 30
0.0
 11
155.229205295
 21
730.0411153393
 31
0.0
  0
LWPOLYLINE
  5
1DC
330
1F
100
AcDbEntity
  8
0
  6
Continuous
 62
     7
370
    15
100
AcDbPolyline
 90
        3
 70
   128
 43
0.0
 10
132.3334742631
 20
739.7640336114
 10
131.9685718338
 20
740.0443989592
 10
131.2214415814
 20
740.9449357348
  0
LWPOLYLINE
  5
1DD
330
1F
100
AcDbEntity
  8
0
  6
Continuous
 62
     7
370
    15
100
AcDbPolyline
 90
        3
 70
   128
 43
0.0
 10
161.1702423837
 20
739.7640336114
 10
161.5351457443
 20
740.0443989592
 10
162.2822759967
 20
740.9449357348
  0
LWPOLYLINE
  5
1DE
330
1F
100
AcDbEntity
  8
0
  6
Continuous
 62
     7
370
    15
100
AcDbPolyline
 90
        3
 70
   128
 43
0.0
 10
138.3988447781
 20
730.0405639964
 10
138.4655768346
 20
730.0514120417
 10
138.4869581382
 20
730.0515908557
  0
LINE
  5
1DF
330
1F
100
AcDbEntity
  8
0
  6
Continuous
 62
     7
370
    15
100
AcDbLine
 10
169.5495043244
 20
723.6080605345
 30
0.0
 11
169.5125252302
 21
723.6071962672
 31
0.0
  0
LWPOLYLINE
  5
1E0
330
1F
100
AcDbEntity
  8
0
  6
Continuous
 62
     7
370
    15
100
AcDbPolyline
 90
        8
 70
   128
 43
0.0
 10
146.751733188
 20
698.8641682821
 10
151.458520006
 20
699.2657396751
 10
155.9620220508
 20
700.4942659097
 10
160.1051306646
 20
702.5395396906
 10
163.7597009833
 20
705.3509194213
 10
166.7836159761
 20
708.8217351394
 10
169.0584067549
 20
712.8171238857
 10
169.6810238357
 20
714.7346053081
  0
LWPOLYLINE
  5
1E1
330
1F
100
AcDbEntity
  8
0
  6
Continuous
 62
     7
370
    15
100
AcDbPolyline
 90
        8
 70
   128
 43
0.0
 10
146.751733188
 20
698.8641682821
 10
142.1410958576
 20
699.2490727263
 10
137.6725863959
 20
700.4451293307
 10
133.5132271345
 20
702.4683419424
 10
129.8317257609
 20
705.2685085493
 10
126.7767139073
 20
708.7419841247
 10
124.4731545742
 20
712.7539280611
 10
123.8243580158
 20
714.7360730725
  0
LINE
  5
1E2
330
1F
100
AcDbEntity
  8
0
  6
Continuous
 62
     7
370
    15
100
AcDbLine
 10
149.309383269
 20
724.6433932143
 30
0.0
 11
164.0080362852
 21
724.6433932143
 31
0.0
  0
LINE
  5
1E3
330
1F
100
AcDbEntity
  8
0
  6
Continuous
 62
     7
370
    15
100
AcDbLine
 10
168.001269951
 20
724.6120411711
 30
0.0
 11
170.3030094798
 21
724.4676787215
 31
0.0
  0
LINE
  5
1E4
330
1F
100
AcDbEntity
  8
0
  6
Continuous
 62
     7
370
    15
100
AcDbLine
 10
144.1940830849
 20
724.6433932143
 30
0.0
 11
129.4954307671
 21
724.6433932143
 31
0.0
  0
LINE
  5
1E5
330
1F
100
AcDbEntity
  8
0
  6
Continuous
 62
     7
370
    15
100
AcDbLine
 10
125.5021971013
 20
724.6120411711
 30
0.0
 11
123.2004557099
 21
724.4676787215
 31
0.0
  0
LINE
  5
1E6
330
1F
100
AcDbEntity
  8
0
  6
Continuous
 62
     7
370
    15
100
AcDbLine
 10
146.7518585197
 20
762.4575335341
 30
0.0
 11
146.7518585197
 21
762.635200079
 31
0.0
  0
LWPOLYLINE
  5
1E7
330
1F
100
AcDbEntity
  8
0
  6
Continuous
 62
     7
370
    15
100
AcDbPolyline
 90
        3
 70
   128
 43
0.0
 10
122.0880896147
 20
722.0062453108
 10
122.0443230416
 20
721.6482151108
 10
121.9841167625
 20
720.8080429392
  0
ARC
  5
1E8
330
1F
100
AcDbEntity
  8
0
  6
Continuous
 62
     7
370
    15
100
AcDbCircle
 10
102.3282567201
 20
756.3023345941
 30
0.0
 40
61.56219784558326
100
AcDbArc
 50
358.3172823006
 51
4.1280598773
  0
ARC
  5
1E9
330
1F
100
AcDbEntity
  8
0
  6
Continuous
 62
     7
370
    15
100
AcDbCircle
 10
160.5444411617
 20
744.3852460764
 30
0.0
 40
3.262987029226426
100
AcDbArc
 50
306.8890653666
 51
349.0072363108
  0
ARC
  5
1EA
330
1F
100
AcDbEntity
  8
0
  6
Continuous
 62
     7
370
    15
100
AcDbCircle
 10
133.0311536877
 20
744.4233148733
 30
0.0
 40
3.337078890881655
100
AcDbArc
 50
191.409706729
 51
232.5090439385
  0
ARC
  5
1EB
330
1F
100
AcDbEntity
  8
0
  6
Continuous
 62
     7
370
    15
100
AcDbCircle
 10
191.1730324385
 20
756.3023864434
 30
0.0
 40
61.55977106512022
100
AcDbArc
 50
175.8718254896
 51
181.6828323325
  0
ARC
  5
1EC
330
1F
100
AcDbEntity
  8
0
  6
Continuous
 62
     7
370
    15
100
AcDbCircle
 10
199.5018424305
 20
700.1299109911
 30
0.0
 40
55.23732769018874
100
AcDbArc
 50
132.3619520319
 51
138.2291409606
  0
ARC
  5
1ED
330
1F
100
AcDbEntity
  8
0
  6
Continuous
 62
     7
370
    15
100
AcDbCircle
 10
94.0020745521
 20
700.1301178967
 30
0.0
 40
55.23704044586981
100
AcDbArc
 50
41.7708374031
 51
47.6380561887
  0
LINE
  5
1EE
330
1F
100
AcDbEntity
  8
0
  6
Continuous
 62
     7
370
    15
100
AcDbLine
 10
168.5669310685
 20
724.6391016799
 30
0.0
 11
169.1979207392
 21
724.5941150742
 31
0.0
  0
LINE
  5
1EF
330
1F
100
AcDbEntity
  8
0
  6
Continuous
 62
     7
370
    15
100
AcDbLine
 10
124.9365583356
 20
724.6391016799
 30
0.0
 11
124.3055034723
 21
724.5941150742
 31
0.0
  0
LINE
  5
1F0
330
1F
100
AcDbEntity
  8
0
  6
Continuous
 62
     7
370
    15
100
AcDbLine
 10
160.7047934379
 20
725.3174323397
 30
0.0
 11
160.70541463
 21
725.5022812443
 31
0.0
  0
ARC
  5
1F1
330
1F
100
AcDbEntity
  8
0
  6
Continuous
 62
     7
370
    15
100
AcDbCircle
 10
158.2460187181
 20
729.8339748168
 30
0.0
 40
5.192410596559817
100
AcDbArc
 50
271.5269825892
 51
296.7731988231
  0
LWPOLYLINE
  5
1F2
330
1F
100
AcDbEntity
  8
0
  6
Continuous
 62
     7
370
    15
100
AcDbPolyline
 90
        5
 70
   128
 43
0.0
 10
132.79680445
 20
725.5019832211
 10
132.7965166714
 20
725.3206360894
 10
133.4335338618
 20
724.9454099494
 10
134.6714245449
 20
724.6854889947
 10
135.1647898849
 20
724.6415305691
  0
LINE
  5
1F3
330
1F
100
AcDbEntity
  8
0
  6
Continuous
 62
     7
370
    15
100
AcDbLine
 10
163.8660747852
 20
305.0079250238
 30
0.0
 11
163.8660747852
 21
305.0375522576
 31
0.0
  0
LINE
  5
1F4
330
1F
100
AcDbEntity
  8
0
  6
Continuous
 62
     7
370
    15
100
AcDbLine
 10
129.6376418616
 20
305.0375522576
 30
0.0
 11
129.6376418616
 21
305.0079250238
 31
0.0
  0
LWPOLYLINE
  5
1F5
330
1F
100
AcDbEntity
  8
0
  6
Continuous
 62
     7
370
    15
100
AcDbPolyline
 90
       20
 70
   128
 43
0.0
 10
121.8250468667
 20
324.8899930618
 10
121.8300499316
 20
321.5291199736
 10
121.8515076037
 20
317.6274148277
 10
121.8741983469
 20
314.4667220763
 10
121.8966767486
 20
311.7137493096
 10
121.917413577
 20
309.4660097263
 10
121.9345294233
 20
307.6806457243
 10
121.9526175703
 20
305.8212825558
 10
121.979741409
 20
303.1092861197
 10
122.013907909
 20
299.8261877797
 10
122.0455486621
 20
296.9431260131
 10
122.0719293054
 20
294.5379742882
 10
122.1048683222
 20
291.3163953922
 10
122.1339311744
 20
288.1261759899
 10
122.1613437231
 20
284.6666851542
 10
122.1846286501
 20
281.1549731991
 10
122.1940759863
 20
279.5503193042
 10
122.2023796584
 20
278.0037501357
 10
122.2128216471
 20
275.772405555
 10
122.2206633832
 20
273.7947383425
  0
LWPOLYLINE
  5
1F6
330
1F
100
AcDbEntity
  8
0
  6
Continuous
 62
     7
370
    15
100
AcDbPolyline
 90
       20
 70
   128
 43
0.0
 10
171.2883971925
 20
275.1850613854
 10
171.3016294237
 20
278.1116792462
 10
171.3236868675
 20
281.9344641171
 10
171.3405605699
 20
284.4476529858
 10
171.3538188781
 20
286.2112277649
 10
171.3671554174
 20
287.8441156349
 10
171.3866032954
 20
290.046168258
 10
171.4134309735
 20
292.8106838367
 10
171.45441848
 20
296.6236376665
 10
171.4882422532
 20
299.6969611845
 10
171.5180576141
 20
302.5504627726
 10
171.5507954653
 20
305.8147372208
 10
171.5663094367
 20
307.4009509287
 10
171.5799253728
 20
308.8162669442
 10
171.5917308177
 20
310.0666308305
 10
171.6069542165
 20
311.72190397
 10
171.6280170079
 20
314.1576030753
 10
171.6522854115
 20
317.3757118634
 10
171.6739777769
 20
321.380594512
 10
171.6784015592
 20
324.7178455345
  0
ARC
  5
1F7
330
1F
100
AcDbEntity
  8
0
  6
Continuous
 62
     7
370
    15
100
AcDbCircle
 10
147.153970236
 20
342.6222163322
 30
0.0
 40
16.69817053460431
100
AcDbArc
 50
8.9669339992
 51
91.3800687251
  0
ARC
  5
1F8
330
1F
100
AcDbEntity
  8
0
  6
Continuous
 62
     7
370
    15
100
AcDbCircle
 10
146.4299945634
 20
342.3606875716
 30
0.0
 40
16.93778202761403
100
AcDbArc
 50
88.9089389269
 51
160.3685087287
  0
LWPOLYLINE
  5
1F9
330
1F
100
AcDbEntity
  8
0
  6
Continuous
 62
     7
370
    15
100
AcDbPolyline
 90
       13
 70
   128
 43
0.0
 10
146.751627751
 20
136.9751521847
 10
151.8659792203
 20
136.9989493392
 10
158.2840141203
 20
136.9764783881
 10
160.9666366424
 20
137.0536366008
 10
162.9046332385
 20
137.2722068331
 10
164.4977815743
 20
137.6240232489
 10
166.0010125782
 20
138.2312008641
 10
167.4515400376
 20
139.1533443234
 10
168.6840113546
 20
140.3210887215
 10
169.6381196673
 20
141.6596451304
 10
170.3322287943
 20
143.1753316424
 10
170.7043666686
 20
144.7591909669
 10
170.7799211438
 20
145.8727100394
  0
LWPOLYLINE
  5
1FA
330
1F
100
AcDbEntity
  8
0
  6
Continuous
 62
     7
370
    15
100
AcDbPolyline
 90
       13
 70
   128
 43
0.0
 10
122.9286734309
 20
144.0676876805
 10
123.3637966509
 20
142.669079592
 10
124.1099052425
 20
141.2627079985
 10
125.1396872397
 20
139.9714478753
 10
126.3934597667
 20
138.900009682
 10
127.8252248015
 20
138.0746045611
 10
129.4136774089
 20
137.5092247031
 10
131.0012266334
 20
137.2119614384
 10
132.8775221776
 20
137.0318362019
 10
135.4701482053
 20
136.9777151845
 10
138.7090543579
 20
137.0265909932
 10
146.5161212112
 20
136.9641849301
 10
146.75166626
 20
136.963991215
  0
ARC
  5
1FB
330
1F
100
AcDbEntity
  8
0
  6
Continuous
 62
     7
370
    15
100
AcDbCircle
 10
128.8687809925
 20
145.7047024355
 30
0.0
 40
6.161549736193815
100
AcDbArc
 50
178.4382095717
 51
195.4074995861
  0
LWPOLYLINE
  5
1FC
330
1F
100
AcDbEntity
  8
0
  6
Continuous
 62
     7
370
    15
100
AcDbPolyline
 90
        3
 70
   128
 43
0.0
 10
122.1587844487
 20
286.1078993879
 10
122.1907884176
 20
282.2548390827
 10
122.2139727618
 20
275.6935113571
  0
ARC
  5
1FD
330
1F
100
AcDbEntity
  8
0
  6
Continuous
 62
     7
370
    15
100
AcDbCircle
 10
556.5122948766
 20
325.8753238783
 30
0.0
 40
434.703621226323
100
AcDbArc
 50
177.6658943183
 51
180.8646352956
  0
ARC
  5
1FE
330
1F
100
AcDbEntity
  8
0
  6
Continuous
 62
     7
370
    15
100
AcDbCircle
 10
-270.7445485657
 20
325.9515648042
 30
0.0
 40
442.4262523042381
100
AcDbArc
 50
359.5233617725
 51
2.2901931871
  0
LWPOLYLINE
  5
1FF
330
1F
100
AcDbEntity
  8
0
  6
Continuous
 62
     7
370
    15
100
AcDbPolyline
 90
        4
 70
   128
 43
0.0
 10
171.2893899824
 20
276.72349452
 10
171.297244757
 20
279.4159555338
 10
171.3405344929
 20
288.0068400405
 10
171.3767834302
 20
292.7864731751
  0
LWPOLYLINE
  5
200
330
1F
100
AcDbEntity
  8
0
  6
Continuous
 62
     7
370
    15
100
AcDbPolyline
 90
       11
 70
   128
 43
0.0
 10
131.1162039931
 20
247.7240914009
 10
131.1139092143
 20
248.1543549798
 10
131.1093401458
 20
249.0627372167
 10
131.0906373258
 20
253.3396834037
 10
131.030198216
 20
270.4243042968
 10
131.0087666209
 20
278.9378443263
 10
130.9838816817
 20
295.8914393089
 10
130.9805978383
 20
304.3161497913
 10
130.9835501309
 20
312.7015305213
 10
131.0044173445
 20
328.3559733532
 10
131.0440618839
 20
343.805081538
  0
LWPOLYLINE
  5
201
330
1F
100
AcDbEntity
  8
0
  6
Continuous
 62
     7
370
    15
100
AcDbPolyline
 90
       12
 70
   128
 43
0.0
 10
129.7007799442
 20
343.3508772282
 10
129.6607591506
 20
328.0340728811
 10
129.640201136
 20
312.4037550292
 10
129.6379436101
 20
305.0305598877
 10
129.6376437243
 20
304.0517249606
 10
129.6409368809
 20
295.6600950561
 10
129.6653896864
 20
278.7732162974
 10
129.6866834457
 20
270.293285837
 10
129.7474541064
 20
253.2760703466
 10
129.7665946479
 20
249.0161785386
 10
129.7716871198
 20
247.9509764812
 10
129.7729779329
 20
247.6846554778
  0
LWPOLYLINE
  5
202
330
1F
100
AcDbEntity
  8
0
  6
Continuous
 62
     7
370
    15
100
AcDbPolyline
 90
        9
 70
   128
 43
0.0
 10
129.7007799442
 20
343.3508772282
 10
129.7262963201
 20
343.4378120578
 10
129.8019159879
 20
343.5214407796
 10
129.9248896833
 20
343.598724146
 10
130.0907526459
 20
343.666853521
 10
130.2934717681
 20
343.723352958
 10
130.5256840135
 20
343.7661691492
 10
130.7789497371
 20
343.7937460763
 10
131.0440618839
 20
343.805081538
  0
LWPOLYLINE
  5
203
330
1F
100
AcDbEntity
  8
0
  6
Continuous
 62
     7
370
    15
100
AcDbPolyline
 90
       12
 70
   128
 43
0.0
 10
163.8029367025
 20
343.3508772282
 10
163.8429574962
 20
328.0340728811
 10
163.8635173734
 20
312.4037550292
 10
163.8657730367
 20
305.034337332
 10
163.8660729225
 20
304.0517249606
 10
163.8627797659
 20
295.6600950561
 10
163.8383269604
 20
278.7732162974
 10
163.817033201
 20
270.293285837
 10
163.7562625404
 20
253.2760703466
 10
163.7371219988
 20
249.0161785386
 10
163.7320313896
 20
247.9509764812
 10
163.7307405766
 20
247.6846554778
  0
LWPOLYLINE
  5
204
330
1F
100
AcDbEntity
  8
0
  6
Continuous
 62
     7
370
    15
100
AcDbPolyline
 90
       11
 70
   128
 43
0.0
 10
162.3875126536
 20
247.7240914009
 10
162.3898092951
 20
248.1543549798
 10
162.394376501
 20
249.0627372167
 10
162.413079321
 20
253.3396834037
 10
162.4735184308
 20
270.4243042968
 10
162.4949500258
 20
278.9378443263
 10
162.519834965
 20
295.8914393089
 10
162.5231188084
 20
304.3161497913
 10
162.5201665159
 20
312.7015305213
 10
162.4993309672
 20
328.382127685
 10
162.4596547629
 20
343.805081538
  0
LWPOLYLINE
  5
205
330
1F
100
AcDbEntity
  8
0
  6
Continuous
 62
     7
370
    15
100
AcDbPolyline
 90
       12
 70
   128
 43
0.0
 10
163.7307405766
 20
247.6846554778
 10
163.7307387139
 20
247.6845958731
 10
163.7184955473
 20
247.3341876171
 10
163.4644288863
 20
245.9575363896
 10
162.538049772
 20
244.1235685251
 10
161.037483282
 20
242.7087852261
 10
159.2497974928
 20
241.9087195299
 10
157.8670507591
 20
241.7090812228
 10
156.4462799873
 20
241.6525611184
 10
153.5984389778
 20
241.5628859303
 10
148.3454677803
 20
241.4791637562
 10
146.7518585197
 20
241.4744102857
  0
LWPOLYLINE
  5
206
330
1F
100
AcDbEntity
  8
0
  6
Continuous
 62
     7
370
    15
100
AcDbPolyline
 90
       11
 70
   128
 43
0.0
 10
146.7518585197
 20
242.7506351373
 10
148.3400698346
 20
242.7566552065
 10
153.5762450952
 20
242.8635486863
 10
156.24954275
 20
242.9683411024
 10
157.5955953743
 20
243.015778949
 10
158.9182177852
 20
243.2110735676
 10
160.3050306733
 20
243.8450658224
 10
161.4607293453
 20
244.9452558062
 10
162.1809313368
 20
246.3813403151
 10
162.3780019875
 20
247.4546635053
 10
162.3875126536
 20
247.7240914009
  0
LWPOLYLINE
  5
207
330
1F
100
AcDbEntity
  8
0
  6
Continuous
 62
     7
370
    15
100
AcDbPolyline
 90
       11
 70
   128
 43
0.0
 10
146.7518585197
 20
242.7506351373
 10
145.1636471614
 20
242.7566552065
 10
139.9274720173
 20
242.8635486863
 10
137.2541748281
 20
242.9683411024
 10
135.9081222038
 20
243.015778949
 10
134.5854988615
 20
243.2110735676
 10
133.1986869048
 20
243.8450658224
 10
132.0429873015
 20
244.9452558062
 10
131.32278531
 20
246.3813403151
 10
131.1257146593
 20
247.4546635053
 10
131.1162039931
 20
247.7240914009
  0
LWPOLYLINE
  5
208
330
1F
100
AcDbEntity
  8
0
  6
Continuous
 62
     7
370
    15
100
AcDbPolyline
 90
       12
 70
   128
 43
0.0
 10
129.7729779329
 20
247.6846554778
 10
129.7729779329
 20
247.6845958731
 10
129.7852210994
 20
247.3341876171
 10
130.0392877604
 20
245.9575363896
 10
130.9656668748
 20
244.1235685251
 10
132.4662342961
 20
242.7087852261
 10
134.253919154
 20
241.9087195299
 10
135.6366658877
 20
241.7090812228
 10
137.0574375908
 20
241.6525611184
 10
139.9052781347
 20
241.5628859303
 10
145.1582492157
 20
241.4791637562
 10
146.7518585197
 20
241.4744102857
  0
LWPOLYLINE
  5
209
330
1F
100
AcDbEntity
  8
0
  6
Continuous
 62
     7
370
    15
100
AcDbPolyline
 90
        4
 70
   128
 43
0.0
 10
163.8029367025
 20
343.3027517745
 10
163.8469454195
 20
325.8788974486
 10
163.8655420687
 20
308.1614912949
 10
163.8640519525
 20
304.8336708448
  0
LWPOLYLINE
  5
20A
330
1F
100
AcDbEntity
  8
0
  6
Continuous
 62
     7
370
    15
100
AcDbPolyline
 90
        6
 70
   128
 43
0.0
 10
163.858674496
 20
292.8257824383
 10
163.8574954416
 20
290.1903071902
 10
163.8399549122
 20
279.524316778
 10
163.8127006884
 20
268.8054197929
 10
163.7759451117
 20
258.1222483418
 10
163.7307405766
 20
247.6809674404
  0
LINE
  5
20B
330
1F
100
AcDbEntity
  8
0
  6
Continuous
 62
     7
370
    15
100
AcDbLine
 10
163.7307405766
 20
247.6846554778
 30
0.0
 11
163.7307405766
 21
247.6809674404
 31
0.0
  0
LINE
  5
20C
330
1F
100
AcDbEntity
  8
0
  6
Continuous
 62
     7
370
    15
100
AcDbLine
 10
129.7729779329
 20
247.6846554778
 30
0.0
 11
129.7729779329
 21
247.6809674404
 31
0.0
  0
LWPOLYLINE
  5
20D
330
1F
100
AcDbEntity
  8
0
  6
Continuous
 62
     7
370
    15
100
AcDbPolyline
 90
        4
 70
   128
 43
0.0
 10
129.7007799442
 20
343.3027517745
 10
129.6567712273
 20
325.8788974486
 10
129.6381764408
 20
308.1614912949
 10
129.6396646942
 20
304.8336708448
  0
LWPOLYLINE
  5
20E
330
1F
100
AcDbEntity
  8
0
  6
Continuous
 62
     7
370
    15
100
AcDbPolyline
 90
        6
 70
   128
 43
0.0
 10
129.6450421508
 20
292.8257824383
 10
129.6462212052
 20
290.1903071902
 10
129.6637617345
 20
279.524316778
 10
129.6910159584
 20
268.8054197929
 10
129.7277715351
 20
258.1222483418
 10
129.7729779329
 20
247.6809674404
  0
LWPOLYLINE
  5
20F
330
1F
100
AcDbEntity
  8
0
  6
Continuous
 62
     7
370
    15
100
AcDbPolyline
 90
        3
 70
   128
 43
0.0
 10
131.0440618839
 20
343.805081538
 10
131.0440749224
 20
343.8089586921
 10
131.0440749224
 20
343.8090155683
  0
LWPOLYLINE
  5
210
330
1F
100
AcDbEntity
  8
0
  6
Continuous
 62
     7
370
    15
100
AcDbPolyline
 90
        3
 70
   128
 43
0.0
 10
162.4596547629
 20
343.805081538
 10
162.4596417244
 20
343.8089586921
 10
162.4596417244
 20
343.8090155683
  0
LWPOLYLINE
  5
211
330
1F
100
AcDbEntity
  8
0
  6
Continuous
 62
     7
370
    15
100
AcDbPolyline
 90
        9
 70
   128
 43
0.0
 10
146.7518585197
 20
241.4726593993
 10
156.9819469299
 20
241.6702562473
 10
159.5055293586
 20
241.9800588391
 10
160.6674883808
 20
242.4811550877
 10
161.6973635103
 20
243.2078400157
 10
162.5479162033
 20
244.1337683699
 10
163.1856914903
 20
245.220115175
 10
163.5875832583
 20
246.4186677239
 10
163.7307405766
 20
247.6809674404
  0
LINE
  5
212
330
1F
100
AcDbEntity
  8
0
  6
Continuous
 62
     7
370
    15
100
AcDbLine
 10
146.7518585197
 20
241.4744102857
 30
0.0
 11
146.7518585197
 21
241.4726593993
 31
0.0
  0
LWPOLYLINE
  5
213
330
1F
100
AcDbEntity
  8
0
  6
Continuous
 62
     7
370
    15
100
AcDbPolyline
 90
        9
 70
   128
 43
0.0
 10
146.7518585197
 20
241.4726593993
 10
136.5217697169
 20
241.6702562473
 10
133.9981882195
 20
241.9800588391
 10
132.8362291973
 20
242.4811550877
 10
131.806481659
 20
243.207959225
 10
130.9559308286
 20
244.1338875792
 10
130.3180251564
 20
245.220115175
 10
129.9161333885
 20
246.4186677239
 10
129.7729779329
 20
247.6809674404
  0
LINE
  5
214
330
1F
100
AcDbEntity
  8
0
  6
Continuous
 62
     7
370
    15
100
AcDbLine
 10
122.2371049519
 20
269.4247195027
 30
0.0
 11
122.2184747751
 21
273.794730892
 31
0.0
  0
LINE
  5
215
330
1F
100
AcDbEntity
  8
0
  6
Continuous
 62
     7
370
    15
100
AcDbLine
 10
171.2663621004
 20
269.4247195027
 30
0.0
 11
171.2909192141
 21
275.1850539348
 31
0.0
  0
LINE
  5
216
330
1F
100
AcDbEntity
  8
0
  6
Continuous
 62
     7
370
    15
100
AcDbLine
 10
163.6143662329
 20
345.2000947432
 30
0.0
 11
163.8029218014
 21
343.3551098856
 31
0.0
  0
LWPOLYLINE
  5
217
330
1F
100
AcDbEntity
  8
0
  6
Continuous
 62
     7
370
    15
100
AcDbPolyline
 90
        9
 70
   128
 43
0.0
 10
163.8029218014
 20
343.3551098856
 10
163.7774072881
 20
343.442046898
 10
163.7017876204
 20
343.525664633
 10
163.5788120623
 20
343.6029242216
 10
163.4129509624
 20
343.6710179281
 10
163.2102299775
 20
343.7274710864
 10
162.9780195947
 20
343.7702320803
 10
162.7247538711
 20
343.7977468852
 10
162.4596417244
 20
343.8090155683
  0
ARC
  5
218
330
1F
100
AcDbEntity
  8
0
  6
Continuous
 62
     7
370
    15
100
AcDbCircle
 10
147.2098936304
 20
343.2601349202
 30
0.0
 40
15.25962276392943
100
AcDbArc
 50
2.0613438746
 51
91.7200570077
  0
ARC
  5
219
330
1F
100
AcDbEntity
  8
0
  6
Continuous
 62
     7
370
    15
100
AcDbCircle
 10
146.2938235594
 20
343.2601343524
 30
0.0
 40
15.2596233269881
100
AcDbArc
 50
88.2799436207
 51
177.9386540681
  0
LWPOLYLINE
  5
21A
330
1F
100
AcDbEntity
  8
0
  6
Continuous
 62
     7
370
    15
100
AcDbPolyline
 90
        9
 70
   128
 43
0.0
 10
129.7007948454
 20
343.3551098856
 10
129.7263093586
 20
343.442046898
 10
129.8019290264
 20
343.525664633
 10
129.9249045845
 20
343.6029242216
 10
130.0907656844
 20
343.6710179281
 10
130.2934866692
 20
343.7274710864
 10
130.5256989147
 20
343.7702320803
 10
130.7789627756
 20
343.7977468852
 10
131.0440749224
 20
343.8090155683
  0
LWPOLYLINE
  5
21B
330
1F
100
AcDbEntity
  8
0
  6
Continuous
 62
     7
370
    15
100
AcDbPolyline
 90
        3
 70
   128
 43
0.0
 10
130.5228285785
 20
347.9822461955
 10
129.9957298036
 20
346.2410036004
 10
129.7007948454
 20
343.3551098856
  0
ARC
  5
21C
330
1F
100
AcDbEntity
  8
0
  6
Continuous
 62
     7
370
    15
100
AcDbCircle
 10
146.8365847704
 20
343.653607473
 30
0.0
 40
23.58678944025919
100
AcDbArc
 50
90.2061174139
 51
179.7558231624
  0
ARC
  5
21D
330
1F
100
AcDbEntity
  8
0
  6
Continuous
 62
     7
370
    15
100
AcDbCircle
 10
146.7413685362
 20
343.7644644399
 30
0.0
 40
24.5631383949981
100
AcDbArc
 50
89.9758234956
 51
180.0241697945
  0
LINE
  5
21E
330
1F
100
AcDbEntity
  8
0
  6
Continuous
 62
     7
370
    15
100
AcDbLine
 10
146.751733188
 20
367.2402442894
 30
0.0
 11
146.751733188
 21
368.3276006482
 31
0.0
  0
ARC
  5
21F
330
1F
100
AcDbEntity
  8
0
  6
Continuous
 62
     7
370
    15
100
AcDbCircle
 10
146.7621017653
 20
343.7644695512
 30
0.0
 40
24.56313328535967
100
AcDbArc
 50
359.9758182779
 51
90.0241856661
  0
ARC
  5
220
330
1F
100
AcDbEntity
  8
0
  6
Continuous
 62
     7
370
    15
100
AcDbCircle
 10
146.6668821064
 20
343.6536072949
 30
0.0
 40
23.58678961654981
100
AcDbArc
 50
0.2441772684
 51
89.7938838043
  0
LWPOLYLINE
  5
221
330
1F
100
AcDbEntity
  8
0
  6
Continuous
 62
     7
370
    15
100
AcDbPolyline
 90
        3
 70
   128
 43
0.0
 10
123.2600026126
 20
343.75407785
 10
123.2426334466
 20
332.9207010097
 10
123.2008934315
 20
322.0891950182
  0
ARC
  5
222
330
1F
100
AcDbEntity
  8
0
  6
Continuous
 62
     7
370
    15
100
AcDbCircle
 10
145.3264978988
 20
343.2658890516
 30
0.0
 40
20.39585803756268
100
AcDbArc
 50
178.628389048
 51
219.8481742193
  0
LWPOLYLINE
  5
223
330
1F
100
AcDbEntity
  8
0
  6
Continuous
 62
     7
370
    15
100
AcDbPolyline
 90
        3
 70
   128
 43
0.0
 10
170.2434644397
 20
343.75407785
 10
170.2608317431
 20
332.9207010097
 10
170.3025717582
 20
322.0891950182
  0
ARC
  5
224
330
1F
100
AcDbEntity
  8
0
  6
Continuous
 62
     7
370
    15
100
AcDbCircle
 10
147.348600834
 20
343.6243364237
 30
0.0
 40
21.21877918611208
100
AcDbArc
 50
320.987864989
 51
0.3503988146
  0
LINE
  5
225
330
1F
100
AcDbEntity
  8
0
  6
Continuous
 62
     7
370
    15
100
AcDbLine
 10
146.751733188
 20
365.5693510077
 30
0.0
 11
146.751733188
 21
367.2402442894
 31
0.0
  0
ARC
  5
226
330
1F
100
AcDbEntity
  8
0
  6
Continuous
 62
     7
370
    15
100
AcDbCircle
 10
146.7517331408
 20
343.754100926
 30
0.0
 40
21.81525008173875
100
AcDbArc
 50
359.9999998942
 51
89.9999998761
  0
ARC
  5
227
330
1F
100
AcDbEntity
  8
0
  6
Continuous
 62
     7
370
    15
100
AcDbCircle
 10
146.7517309824
 20
343.7541038551
 30
0.0
 40
21.81524715264095
100
AcDbArc
 50
89.9999942074
 51
180.0000077988
  0
LWPOLYLINE
  5
228
330
1F
100
AcDbEntity
  8
0
  6
Continuous
 62
     7
370
    15
100
AcDbPolyline
 90
        4
 70
   128
 43
0.0
 10
123.7659063484
 20
181.9446512959
 10
123.8274928476
 20
169.4876828692
 10
123.9231936927
 20
151.7107167742
 10
123.9540186073
 20
146.250111749
  0
LWPOLYLINE
  5
229
330
1F
100
AcDbEntity
  8
0
  6
Continuous
 62
     7
370
    15
100
AcDbPolyline
 90
        4
 70
   128
 43
0.0
 10
123.4123185571
 20
264.5134159825
 10
123.5480979379
 20
229.1190305255
 10
123.6519106026
 20
205.5312076113
 10
123.7659044858
 20
181.9446512959
  0
LWPOLYLINE
  5
22A
330
1F
100
AcDbEntity
  8
0
  6
Continuous
 62
     7
370
    15
100
AcDbPolyline
 90
        3
 70
   128
 43
0.0
 10
123.2000682797
 20
322.0891931555
 10
123.2610382433
 20
299.9083341561
 10
123.4123185571
 20
264.5134159825
  0
LWPOLYLINE
  5
22B
330
1F
100
AcDbEntity
  8
0
  6
Continuous
 62
     7
370
    15
100
AcDbPolyline
 90
        3
 70
   128
 43
0.0
 10
170.3033987726
 20
322.0891931555
 10
170.242428809
 20
299.9083341561
 10
170.0911466326
 20
264.5134159825
  0
LWPOLYLINE
  5
22C
330
1F
100
AcDbEntity
  8
0
  6
Continuous
 62
     7
370
    15
100
AcDbPolyline
 90
        4
 70
   128
 43
0.0
 10
170.0911466326
 20
264.5134159825
 10
169.9553672518
 20
229.1190305255
 10
169.8515564497
 20
205.5312076113
 10
169.7375625666
 20
181.9446512959
  0
LWPOLYLINE
  5
22D
330
1F
100
AcDbEntity
  8
0
  6
Continuous
 62
     7
370
    15
100
AcDbPolyline
 90
        4
 70
   128
 43
0.0
 10
169.7375607039
 20
181.9446512959
 10
169.6759742047
 20
169.4876828692
 10
169.5802714969
 20
151.7107167742
 10
169.5494465824
 20
146.250111749
  0
LWPOLYLINE
  5
22E
330
1F
100
AcDbEntity
  8
0
  6
Continuous
 62
     7
370
    15
100
AcDbPolyline
 90
        4
 70
   128
 43
0.0
 10
122.1422609236
 20
322.0929799131
 10
122.1456099595
 20
332.9250921956
 10
122.1782323267
 20
343.7540413975
 10
122.1782323267
 20
343.7541015769
  0
LWPOLYLINE
  5
22F
330
1F
100
AcDbEntity
  8
0
  6
Continuous
 62
     7
370
    15
100
AcDbPolyline
 90
        4
 70
   128
 43
0.0
 10
171.3612042661
 20
322.0929799131
 10
171.3578570928
 20
332.9250921956
 10
171.325232863
 20
343.7540413975
 10
171.325232863
 20
343.7541015769
  0
LWPOLYLINE
  5
230
330
1F
100
AcDbEntity
  8
0
  6
Continuous
 62
     7
370
    15
100
AcDbPolyline
 90
        4
 70
   128
 43
0.0
 10
122.2493592943
 20
264.5171040199
 10
122.2493592943
 20
264.5171636245
 10
122.1609786447
 20
299.910476198
 10
122.1422870006
 20
322.0929799131
  0
LWPOLYLINE
  5
231
330
1F
100
AcDbEntity
  8
0
  6
Continuous
 62
     7
370
    15
100
AcDbPolyline
 90
        4
 70
   128
 43
0.0
 10
171.254107758
 20
264.5171040199
 10
171.254107758
 20
264.5171636245
 10
171.3424884077
 20
299.910476198
 10
171.3611800517
 20
322.0929799131
  0
LWPOLYLINE
  5
232
330
1F
100
AcDbEntity
  8
0
  6
Continuous
 62
     7
370
    15
100
AcDbPolyline
 90
        4
 70
   128
 43
0.0
 10
170.9850430782
 20
181.9474974177
 10
171.0828785147
 20
205.5341431401
 10
171.1637229021
 20
229.122360935
 10
171.254107758
 20
264.5171040199
  0
LWPOLYLINE
  5
233
330
1F
100
AcDbEntity
  8
0
  6
Continuous
 62
     7
370
    15
100
AcDbPolyline
 90
        4
 70
   128
 43
0.0
 10
122.5184239741
 20
181.9474974177
 10
122.4205885376
 20
205.5341431401
 10
122.3397441502
 20
229.122360935
 10
122.2493592943
 20
264.5171040199
  0
ARC
  5
234
330
1F
100
AcDbEntity
  8
0
  6
Continuous
 62
     7
370
    15
100
AcDbCircle
 10
146.7518585197
 20
343.7560644884
 30
0.0
 40
21.66480000000001
100
AcDbArc
 50
322.5150142805
 51
90.0
  0
ARC
  5
235
330
1F
100
AcDbEntity
  8
0
  6
Continuous
 62
     7
370
    15
100
AcDbCircle
 10
146.7518585197
 20
343.7560644884
 30
0.0
 40
21.66480000000001
100
AcDbArc
 50
90.0
 51
217.8076977006
  0
LWPOLYLINE
  5
236
330
1F
100
AcDbEntity
  8
0
  6
Continuous
 62
     7
370
    15
100
AcDbPolyline
 90
        9
 70
   128
 43
0.0
 10
169.5495043244
 20
146.250111749
 10
169.1186782266
 20
143.5120829842
 10
167.6927879746
 20
141.0904207728
 10
165.7612212296
 20
139.5202854178
 10
163.3866038467
 20
138.6224606536
 10
160.9471012201
 20
138.4246477387
 10
158.4823448505
 20
138.3490839503
 10
153.545327514
 20
138.2341214917
 10
146.7517761573
 20
138.1666937373
  0
LWPOLYLINE
  5
237
330
1F
100
AcDbEntity
  8
0
  6
Continuous
 62
     7
370
    15
100
AcDbPolyline
 90
        3
 70
   128
 43
0.0
 10
170.8054691847
 20
146.0480818055
 10
170.8054691847
 20
146.0481414101
 10
170.8066258873
 20
146.2515124581
  0
LWPOLYLINE
  5
238
330
1F
100
AcDbEntity
  8
0
  6
Continuous
 62
     7
370
    15
100
AcDbPolyline
 90
        9
 70
   128
 43
0.0
 10
123.953962728
 20
146.250111749
 10
124.3847888257
 20
143.5120829842
 10
125.8106790777
 20
141.0904207728
 10
127.7422439601
 20
139.5202854178
 10
130.1168632056
 20
138.6224606536
 10
133.3678197409
 20
138.2399627469
 10
136.6623025681
 20
138.2138410113
 10
139.958138607
 20
138.2341214917
 10
146.7516902186
 20
138.1666937373
  0
LWPOLYLINE
  5
239
330
1F
100
AcDbEntity
  8
0
  6
Continuous
 62
     7
370
    15
100
AcDbPolyline
 90
        3
 70
   128
 43
0.0
 10
122.6979978676
 20
146.0480818055
 10
122.6979978676
 20
146.0481414101
 10
122.696841165
 20
146.2515124581
  0
LWPOLYLINE
  5
23A
330
1F
100
AcDbEntity
  8
0
  6
Continuous
 62
     7
370
    15
100
AcDbPolyline
 90
        5
 70
   128
 43
0.0
 10
170.8066352006
 20
146.2515124581
 10
170.8323713686
 20
150.8422323964
 10
170.8815917666
 20
160.0237020753
 10
170.9480062421
 20
173.5557743809
 10
170.9850412156
 20
181.9474974177
  0
LWPOLYLINE
  5
23B
330
1F
100
AcDbEntity
  8
0
  6
Continuous
 62
     7
370
    15
100
AcDbPolyline
 90
        5
 70
   128
 43
0.0
 10
122.6968318518
 20
146.2515124581
 10
122.6710956837
 20
150.8422323964
 10
122.6218752857
 20
160.0237020753
 10
122.5554608102
 20
173.5557743809
 10
122.5184258367
 20
181.9474974177
  0
LWPOLYLINE
  5
23C
330
1F
100
AcDbEntity
  8
0
  6
Continuous
 62
     7
370
    15
100
AcDbPolyline
 90
        6
 70
   128
 43
0.0
 10
122.0880896147
 20
301.1920282147
 10
122.0443230416
 20
306.7462162576
 10
121.9672654118
 20
312.1864662967
 10
121.8835655894
 20
317.47573032
 10
121.8297519084
 20
322.4527628622
 10
121.8299120958
 20
324.890002375
  0
LWPOLYLINE
  5
23D
330
1F
100
AcDbEntity
  8
0
  6
Continuous
 62
     7
370
    15
100
AcDbPolyline
 90
        3
 70
   128
 43
0.0
 10
122.2184747751
 20
273.794730892
 10
122.1798509653
 20
282.8545921943
 10
122.0880896147
 20
301.1920282147
  0
LWPOLYLINE
  5
23E
330
1F
100
AcDbEntity
  8
0
  6
Continuous
 62
     7
370
    15
100
AcDbPolyline
 90
        6
 70
   128
 43
0.0
 10
171.4153774376
 20
301.1920282147
 10
171.4591440107
 20
306.7462162576
 10
171.5362016405
 20
312.1864662967
 10
171.619901463
 20
317.47573032
 10
171.673715144
 20
322.4527628622
 10
171.6735642697
 20
324.7178548477
  0
LWPOLYLINE
  5
23F
330
1F
100
AcDbEntity
  8
0
  6
Continuous
 62
     7
370
    15
100
AcDbPolyline
 90
        3
 70
   128
 43
0.0
 10
171.2909192141
 20
275.1850539348
 10
171.323616087
 20
282.8545921943
 10
171.4153774376
 20
301.1920282147
  0
ARC
  5
240
330
1F
100
AcDbEntity
  8
0
  6
Continuous
 62
     7
370
    15
100
AcDbCircle
 10
146.7518585197
 20
343.7560644884
 30
0.0
 40
21.46420000000001
100
AcDbArc
 50
90.0
 51
216.6892996694
  0
ARC
  5
241
330
1F
100
AcDbEntity
  8
0
  6
Continuous
 62
     7
370
    15
100
AcDbCircle
 10
146.7518585197
 20
343.7560644884
 30
0.0
 40
21.46420000000001
100
AcDbArc
 50
322.9321948497
 51
90.0
  0
ENDSEC
  0
SECTION
  2
OBJECTS
  0
DICTIONARY
  5
C
330
0
100
AcDbDictionary
281
     1
  3
ACAD_GROUP
350
D
  3
ACAD_LAYOUT
350
1A
  3
ACAD_MATERIAL
350
3B
  3
ACAD_MLEADERSTYLE
350
243
  3
ACAD_MLINESTYLE
350
17
  3
ACAD_PLOTSETTINGS
350
19
  3
ACAD_PLOTSTYLENAME
350
E
  3
ACAD_TABLESTYLE
350
242
  3
ACAD_VISUALSTYLE
350
2A
  0
DICTIONARY
  5
D
102
{ACAD_REACTORS
330
C
102
}
330
C
100
AcDbDictionary
281
     1
  0
DICTIONARY
  5
1A
102
{ACAD_REACTORS
330
C
102
}
330
C
100
AcDbDictionary
281
     1
  3
Layout1
350
1E
  3
Layout2
350
26
  3
Model
350
22
  0
DICTIONARY
  5
3B
102
{ACAD_REACTORS
330
C
102
}
330
C
100
AcDbDictionary
281
     1
  3
ByBlock
350
3D
  3
ByLayer
350
3C
  3
Global
350
3E
  0
DICTIONARY
  5
243
102
{ACAD_REACTORS
330
C
102
}
330
C
100
AcDbDictionary
281
     1
  0
DICTIONARY
  5
17
102
{ACAD_REACTORS
330
C
102
}
330
C
100
AcDbDictionary
281
     1
  3
Standard
350
18
  0
DICTIONARY
  5
19
102
{ACAD_REACTORS
330
C
102
}
330
C
100
AcDbDictionary
281
     1
  0
ACDBDICTIONARYWDFLT
  5
E
102
{ACAD_REACTORS
330
C
102
}
330
C
100
AcDbDictionary
281
     1
  3
Normal
350
F
100
AcDbDictionaryWithDefault
340
F
  0
DICTIONARY
  5
242
102
{ACAD_REACTORS
330
C
102
}
330
C
100
AcDbDictionary
281
     1
  0
DICTIONARY
  5
2A
102
{ACAD_REACTORS
330
C
102
}
330
C
100
AcDbDictionary
281
     1
  3
2dWireframe
350
2F
  3
3D Hidden
350
31
  3
3dWireframe
350
30
  3
Basic
350
32
  3
Brighten
350
36
  3
ColorChange
350
3A
  3
Conceptual
350
34
  3
Dim
350
35
  3
Facepattern
350
39
  3
Flat
350
2B
  3
FlatWithEdges
350
2C
  3
Gouraud
350
2D
  3
GouraudWithEdges
350
2E
  3
Linepattern
350
38
  3
Realistic
350
33
  3
Thicken
350
37
  0
LAYOUT
  5
1E
102
{ACAD_REACTORS
330
1A
102
}
330
1A
100
AcDbPlotSettings
  1

  2
none_device
  4

  6

 40
0.0
 41
0.0
 42
0.0
 43
0.0
 44
0.0
 45
0.0
 46
0.0
 47
0.0
 48
0.0
 49
0.0
140
0.0
141
0.0
142
1.0
143
1.0
 70
   688
 72
     0
 73
     0
 74
     5
  7

 75
    16
 76
     0
 77
     2
 78
   300
147
1.0
148
0.0
149
0.0
100
AcDbLayout
  1
Layout1
 70
     1
 71
     1
 10
0.0
 20
0.0
 11
420.0
 21
297.0
 12
0.0
 22
0.0
 32
0.0
 14
1.0000000000E+20
 24
1.0000000000E+20
 34
1.0000000000E+20
 15
-1.0000000000E+20
 25
-1.0000000000E+20
 35
-1.0000000000E+20
146
0.0
 13
0.0
 23
0.0
 33
0.0
 16
1.0
 26
0.0
 36
0.0
 17
0.0
 27
1.0
 37
0.0
 76
     0
330
1B
  0
LAYOUT
  5
26
102
{ACAD_REACTORS
330
1A
102
}
330
1A
100
AcDbPlotSettings
  1

  2
none_device
  4

  6

 40
0.0
 41
0.0
 42
0.0
 43
0.0
 44
0.0
 45
0.0
 46
0.0
 47
0.0
 48
0.0
 49
0.0
140
0.0
141
0.0
142
1.0
143
1.0
 70
   688
 72
     0
 73
     0
 74
     5
  7

 75
    16
 76
     0
 77
     2
 78
   300
147
1.0
148
0.0
149
0.0
100
AcDbLayout
  1
Layout2
 70
     1
 71
     2
 10
0.0
 20
0.0
 11
0.0
 21
0.0
 12
0.0
 22
0.0
 32
0.0
 14
0.0
 24
0.0
 34
0.0
 15
0.0
 25
0.0
 35
0.0
146
0.0
 13
0.0
 23
0.0
 33
0.0
 16
1.0
 26
0.0
 36
0.0
 17
0.0
 27
1.0
 37
0.0
 76
     0
330
23
  0
LAYOUT
  5
22
102
{ACAD_REACTORS
330
1A
102
}
330
1A
100
AcDbPlotSettings
  1

  2
none_device
  4

  6

 40
0.0
 41
0.0
 42
0.0
 43
0.0
 44
0.0
 45
0.0
 46
0.0
 47
0.0
 48
0.0
 49
0.0
140
0.0
141
0.0
142
1.0
143
1.0
 70
  1712
 72
     0
 73
     0
 74
     0
  7

 75
     0
 76
     0
 77
     2
 78
   300
147
1.0
148
0.0
149
0.0
100
AcDbLayout
  1
Model
 70
     1
 71
     0
 10
0.0
 20
0.0
 11
594.0
 21
841.0
 12
0.0
 22
0.0
 32
0.0
 14
0.0
 24
0.0
 34
0.0
 15
594.0
 25
841.0
 35
0.0
146
0.0
 13
0.0
 23
0.0
 33
0.0
 16
1.0
 26
0.0
 36
0.0
 17
0.0
 27
1.0
 37
0.0
 76
     0
330
1F
331
29
  0
MATERIAL
  5
3D
102
{ACAD_REACTORS
330
3B
102
}
330
3B
100
AcDbMaterial
  1
ByBlock
 72
     1
 94
      127
  0
MATERIAL
  5
3C
102
{ACAD_REACTORS
330
3B
102
}
330
3B
100
AcDbMaterial
  1
ByLayer
 72
     1
 94
      127
  0
MATERIAL
  5
3E
102
{ACAD_REACTORS
330
3B
102
}
330
3B
100
AcDbMaterial
  1
Global
 72
     1
 94
      127
  0
MLINESTYLE
  5
18
102
{ACAD_REACTORS
330
17
102
}
330
17
100
AcDbMlineStyle
  2
Standard
 70
     0
  3

 62
   256
 51
90.0
 52
90.0
 71
     2
 49
0.5
 62
   256
  6
BYLAYER
 49
-0.5
 62
   256
  6
BYLAYER
  0
ACDBPLACEHOLDER
  5
F
102
{ACAD_REACTORS
330
E
102
}
330
E
  0
VISUALSTYLE
  5
2F
102
{ACAD_REACTORS
330
2A
102
}
330
2A
100
AcDbVisualStyle
  2
2dWireframe
 70
     4
177
     2
291
     0
 71
     0
176
     1
 72
     2
176
     1
 73
     0
176
     1
 90
        0
176
     1
 40
-0.6
176
     1
 41
-30.0
176
     1
 62
     5
 63
     7
421
 16777215
176
     1
 74
     1
176
     1
 91
        4
176
     1
 64
     7
176
     1
 65
   257
176
     1
 75
     1
176
     1
175
     1
176
     1
 42
1.0
176
     1
 92
        0
176
     1
 66
   257
176
     1
 43
1.0
176
     1
 76
     1
176
     1
 77
     6
176
     1
 78
     2
176
     1
 67
     7
176
     1
 79
     5
176
     1
170
     0
176
     1
171
     0
176
     1
290
     0
176
     1
 93
        1
176
     1
 44
0.0
176
     1
173
     0
176
     1
  0
VISUALSTYLE
  5
31
102
{ACAD_REACTORS
330
2A
102
}
330
2A
100
AcDbVisualStyle
  2
3D Hidden
 70
     6
177
     2
291
     0
 71
     1
176
     1
 72
     2
176
     1
 73
     2
176
     1
 90
        0
176
     1
 40
-0.6
176
     1
 41
-30.0
176
     1
 62
     5
 63
     7
421
 16777215
176
     1
 74
     2
176
     1
 91
        2
176
     1
 64
     7
176
     1
 65
   257
176
     1
 75
     2
176
     1
175
     1
176
     1
 42
40.0
176
     1
 92
        0
176
     1
 66
   257
176
     1
 43
1.0
176
     1
 76
     1
176
     1
 77
     6
176
     1
 78
     2
176
     1
 67
     7
176
     1
 79
     3
176
     1
170
     0
176
     1
171
     0
176
     1
290
     0
176
     1
 93
        1
176
     1
 44
0.0
176
     1
173
     0
176
     1
  0
VISUALSTYLE
  5
30
102
{ACAD_REACTORS
330
2A
102
}
330
2A
100
AcDbVisualStyle
  2
3dWireframe
 70
     5
177
     2
291
     0
 71
     0
176
     1
 72
     2
176
     1
 73
     0
176
     1
 90
        0
176
     1
 40
-0.6
176
     1
 41
-30.0
176
     1
 62
     5
 63
     7
421
 16777215
176
     1
 74
     1
176
     1
 91
        4
176
     1
 64
     7
176
     1
 65
   257
176
     1
 75
     1
176
     1
175
     1
176
     1
 42
1.0
176
     1
 92
        0
176
     1
 66
   257
176
     1
 43
1.0
176
     1
 76
     1
176
     1
 77
     6
176
     1
 78
     2
176
     1
 67
     7
176
     1
 79
     5
176
     1
170
     0
176
     1
171
     0
176
     1
290
     0
176
     1
 93
        1
176
     1
 44
0.0
176
     1
173
     0
176
     1
  0
VISUALSTYLE
  5
32
102
{ACAD_REACTORS
330
2A
102
}
330
2A
100
AcDbVisualStyle
  2
Basic
 70
     7
177
     2
291
     1
 71
     1
176
     1
 72
     0
176
     1
 73
     1
176
     1
 90
        0
176
     1
 40
-0.6
176
     1
 41
-30.0
176
     1
 62
     5
 63
     7
421
 16777215
176
     1
 74
     0
176
     1
 91
        4
176
     1
 64
     7
176
     1
 65
   257
176
     1
 75
     1
176
     1
175
     1
176
     1
 42
1.0
176
     1
 92
        8
176
     1
 66
     7
176
     1
 43
1.0
176
     1
 76
     1
176
     1
 77
     6
176
     1
 78
     2
176
     1
 67
     7
176
     1
 79
     5
176
     1
170
     0
176
     1
171
     0
176
     1
290
     0
176
     1
 93
        1
176
     1
 44
0.0
176
     1
173
     0
176
     1
  0
VISUALSTYLE
  5
36
102
{ACAD_REACTORS
330
2A
102
}
330
2A
100
AcDbVisualStyle
  2
Brighten
 70
    12
177
     2
291
     1
 71
     2
176
     1
 72
     2
176
     1
 73
     0
176
     1
 90
        0
176
     1
 40
-0.6
176
     1
 41
-30.0
176
     1
 62
     5
 63
     7
421
 16777215
176
     1
 74
     1
176
     1
 91
        4
176
     1
 64
     7
176
     1
 65
   257
176
     1
 75
     1
176
     1
175
     1
176
     1
 42
1.0
176
     1
 92
        8
176
     1
 66
     7
176
     1
 43
1.0
176
     1
 76
     1
176
     1
 77
     6
176
     1
 78
     2
176
     1
 67
     7
176
     1
 79
     5
176
     1
170
     0
176
     1
171
     0
176
     1
290
     0
176
     1
 93
        1
176
     1
 44
50.0
176
     1
173
     0
176
     1
  0
VISUALSTYLE
  5
3A
102
{ACAD_REACTORS
330
2A
102
}
330
2A
100
AcDbVisualStyle
  2
ColorChange
 70
    16
177
     2
291
     1
 71
     2
176
     1
 72
     2
176
     1
 73
     3
176
     1
 90
        0
176
     1
 40
-0.6
176
     1
 41
-30.0
176
     1
 62
     5
 63
     8
421
  8421504
176
     1
 74
     1
176
     1
 91
        4
176
     1
 64
     7
176
     1
 65
   257
176
     1
 75
     1
176
     1
175
     1
176
     1
 42
1.0
176
     1
 92
        8
176
     1
 66
     8
424
  8421504
176
     1
 43
1.0
176
     1
 76
     1
176
     1
 77
     6
176
     1
 78
     2
176
     1
 67
     7
176
     1
 79
     5
176
     1
170
     0
176
     1
171
     0
176
     1
290
     0
176
     1
 93
        1
176
     1
 44
0.0
176
     1
173
     0
176
     1
  0
VISUALSTYLE
  5
34
102
{ACAD_REACTORS
330
2A
102
}
330
2A
100
AcDbVisualStyle
  2
Conceptual
 70
     9
177
     2
291
     0
 71
     3
176
     1
 72
     2
176
     1
 73
     0
176
     1
 90
        0
176
     1
 40
-0.6
176
     1
 41
-30.0
176
     1
 62
     5
 63
     7
421
 16777215
176
     1
 74
     2
176
     1
 91
        2
176
     1
 64
     7
176
     1
 65
   257
176
     1
 75
     1
176
     1
175
     1
176
     1
 42
40.0
176
     1
 92
        8
176
     1
 66
     7
176
     1
 43
1.0
176
     1
 76
     1
176
     1
 77
     6
176
     1
 78
     2
176
     1
 67
     7
176
     1
 79
     3
176
     1
170
     0
176
     1
171
     0
176
     1
290
     0
176
     1
 93
        1
176
     1
 44
0.0
176
     1
173
     0
176
     1
  0
VISUALSTYLE
  5
35
102
{ACAD_REACTORS
330
2A
102
}
330
2A
100
AcDbVisualStyle
  2
Dim
 70
    11
177
     2
291
     1
 71
     2
176
     1
 72
     2
176
     1
 73
     0
176
     1
 90
        0
176
     1
 40
-0.6
176
     1
 41
-30.0
176
     1
 62
     5
 63
     7
421
 16777215
176
     1
 74
     1
176
     1
 91
        4
176
     1
 64
     7
176
     1
 65
   257
176
     1
 75
     1
176
     1
175
     1
176
     1
 42
1.0
176
     1
 92
        8
176
     1
 66
     7
176
     1
 43
1.0
176
     1
 76
     1
176
     1
 77
     6
176
     1
 78
     2
176
     1
 67
     7
176
     1
 79
     5
176
     1
170
     0
176
     1
171
     0
176
     1
290
     0
176
     1
 93
        1
176
     1
 44
-50.0
176
     1
173
     0
176
     1
  0
VISUALSTYLE
  5
39
102
{ACAD_REACTORS
330
2A
102
}
330
2A
100
AcDbVisualStyle
  2
Facepattern
 70
    15
177
     2
291
     1
 71
     2
176
     1
 72
     2
176
     1
 73
     0
176
     1
 90
        0
176
     1
 40
-0.6
176
     1
 41
-30.0
176
     1
 62
     5
 63
     7
421
 16777215
176
     1
 74
     1
176
     1
 91
        4
176
     1
 64
     7
176
     1
 65
   257
176
     1
 75
     1
176
     1
175
     1
176
     1
 42
1.0
176
     1
 92
        8
176
     1
 66
     7
176
     1
 43
1.0
176
     1
 76
     1
176
     1
 77
     6
176
     1
 78
     2
176
     1
 67
     7
176
     1
 79
     5
176
     1
170
     0
176
     1
171
     0
176
     1
290
     0
176
     1
 93
        1
176
     1
 44
0.0
176
     1
173
     0
176
     1
  0
VISUALSTYLE
  5
2B
102
{ACAD_REACTORS
330
2A
102
}
330
2A
100
AcDbVisualStyle
  2
Flat
 70
     0
177
     2
291
     1
 71
     2
176
     1
 72
     1
176
     1
 73
     1
176
     1
 90
        2
176
     1
 40
-0.6
176
     1
 41
30.0
176
     1
 62
     5
 63
     7
421
 16777215
176
     1
 74
     0
176
     1
 91
        4
176
     1
 64
     7
176
     1
 65
   257
176
     1
 75
     1
176
     1
175
     1
176
     1
 42
1.0
176
     1
 92
        8
176
     1
 66
     7
176
     1
 43
1.0
176
     1
 76
     1
176
     1
 77
     6
176
     1
 78
     2
176
     1
 67
     7
176
     1
 79
     5
176
     1
170
     0
176
     1
171
     0
176
     1
290
     0
176
     1
 93
       13
176
     1
 44
0.0
176
     1
173
     0
176
     1
  0
VISUALSTYLE
  5
2C
102
{ACAD_REACTORS
330
2A
102
}
330
2A
100
AcDbVisualStyle
  2
FlatWithEdges
 70
     1
177
     2
291
     1
 71
     2
176
     1
 72
     1
176
     1
 73
     1
176
     1
 90
        2
176
     1
 40
-0.6
176
     1
 41
30.0
176
     1
 62
     5
 63
     7
421
 16777215
176
     1
 74
     1
176
     1
 91
        4
176
     1
 64
     7
176
     1
 65
   257
176
     1
 75
     1
176
     1
175
     1
176
     1
 42
1.0
176
     1
 92
        0
176
     1
 66
   257
176
     1
 43
1.0
176
     1
 76
     1
176
     1
 77
     6
176
     1
 78
     2
176
     1
 67
     7
176
     1
 79
     5
176
     1
170
     0
176
     1
171
     0
176
     1
290
     0
176
     1
 93
       13
176
     1
 44
0.0
176
     1
173
     0
176
     1
  0
VISUALSTYLE
  5
2D
102
{ACAD_REACTORS
330
2A
102
}
330
2A
100
AcDbVisualStyle
  2
Gouraud
 70
     2
177
     2
291
     1
 71
     2
176
     1
 72
     2
176
     1
 73
     1
176
     1
 90
        2
176
     1
 40
-0.6
176
     1
 41
30.0
176
     1
 62
     5
 63
     7
421
 16777215
176
     1
 74
     0
176
     1
 91
        4
176
     1
 64
     7
176
     1
 65
   257
176
     1
 75
     1
176
     1
175
     1
176
     1
 42
1.0
176
     1
 92
        0
176
     1
 66
     7
176
     1
 43
1.0
176
     1
 76
     1
176
     1
 77
     6
176
     1
 78
     2
176
     1
 67
     7
176
     1
 79
     5
176
     1
170
     0
176
     1
171
     0
176
     1
290
     0
176
     1
 93
       13
176
     1
 44
0.0
176
     1
173
     0
176
     1
  0
VISUALSTYLE
  5
2E
102
{ACAD_REACTORS
330
2A
102
}
330
2A
100
AcDbVisualStyle
  2
GouraudWithEdges
 70
     3
177
     2
291
     1
 71
     2
176
     1
 72
     2
176
     1
 73
     1
176
     1
 90
        2
176
     1
 40
-0.6
176
     1
 41
30.0
176
     1
 62
     5
 63
     7
421
 16777215
176
     1
 74
     1
176
     1
 91
        4
176
     1
 64
     7
176
     1
 65
   257
176
     1
 75
     1
176
     1
175
     1
176
     1
 42
1.0
176
     1
 92
        0
176
     1
 66
   257
176
     1
 43
1.0
176
     1
 76
     1
176
     1
 77
     6
176
     1
 78
     2
176
     1
 67
     7
176
     1
 79
     5
176
     1
170
     0
176
     1
171
     0
176
     1
290
     0
176
     1
 93
       13
176
     1
 44
0.0
176
     1
173
     0
176
     1
  0
VISUALSTYLE
  5
38
102
{ACAD_REACTORS
330
2A
102
}
330
2A
100
AcDbVisualStyle
  2
Linepattern
 70
    14
177
     2
291
     1
 71
     2
176
     1
 72
     2
176
     1
 73
     0
176
     1
 90
        0
176
     1
 40
-0.6
176
     1
 41
-30.0
176
     1
 62
     5
 63
     7
421
 16777215
176
     1
 74
     1
176
     1
 91
        4
176
     1
 64
     7
176
     1
 65
   257
176
     1
 75
     7
176
     1
175
     7
176
     1
 42
1.0
176
     1
 92
        8
176
     1
 66
     7
176
     1
 43
1.0
176
     1
 76
     1
176
     1
 77
     6
176
     1
 78
     2
176
     1
 67
     7
176
     1
 79
     5
176
     1
170
     0
176
     1
171
     0
176
     1
290
     0
176
     1
 93
        1
176
     1
 44
0.0
176
     1
173
     0
176
     1
  0
VISUALSTYLE
  5
33
102
{ACAD_REACTORS
330
2A
102
}
330
2A
100
AcDbVisualStyle
  2
Realistic
 70
     8
177
     2
291
     0
 71
     2
176
     1
 72
     2
176
     1
 73
     0
176
     1
 90
        0
176
     1
 40
-0.6
176
     1
 41
-30.0
176
     1
 62
     5
 63
     7
421
 16777215
176
     1
 74
     1
176
     1
 91
        0
176
     1
 64
     7
176
     1
 65
   257
176
     1
 75
     1
176
     1
175
     1
176
     1
 42
1.0
176
     1
 92
        8
176
     1
 66
     8
424
  7895160
176
     1
 43
1.0
176
     1
 76
     1
176
     1
 77
     6
176
     1
 78
     2
176
     1
 67
     7
176
     1
 79
     5
176
     1
170
     0
176
     1
171
     0
176
     1
290
     0
176
     1
 93
       13
176
     1
 44
0.0
176
     1
173
     0
176
     1
  0
VISUALSTYLE
  5
37
102
{ACAD_REACTORS
330
2A
102
}
330
2A
100
AcDbVisualStyle
  2
Thicken
 70
    13
177
     2
291
     1
 71
     2
176
     1
 72
     2
176
     1
 73
     0
176
     1
 90
        0
176
     1
 40
-0.6
176
     1
 41
-30.0
176
     1
 62
     5
 63
     7
421
 16777215
176
     1
 74
     1
176
     1
 91
        4
176
     1
 64
     7
176
     1
 65
   257
176
     1
 75
     1
176
     1
175
     1
176
     1
 42
1.0
176
     1
 92
       12
176
     1
 66
     7
176
     1
 43
1.0
176
     1
 76
     1
176
     1
 77
     6
176
     1
 78
     2
176
     1
 67
     7
176
     1
 79
     5
176
     1
170
     0
176
     1
171
     0
176
     1
290
     0
176
     1
 93
        1
176
     1
 44
0.0
176
     1
173
     0
176
     1
  0
ENDSEC
  0
EOF
