  0
SECTION
  2
HEADER
  9
$ACADVER
  1
AC1024
  9
$ACADMAINTVER
 70
     6
  9
$DWGCODEPAGE
  3
ANSI_1252
  9
$INSBASE
 10
0.0
 20
0.0
 30
0.0
  9
$EXTMIN
 10
0.0
 20
0.0
 30
0.0
  9
$EXTMAX
 10
594.0
 20
841.0
 30
0.0
  9
$LIMMIN
 10
0.0
 20
0.0
  9
$LIMMAX
 10
594.0
 20
841.0
  9
$ORTHOMODE
 70
     0
  9
$REGENMODE
 70
     1
  9
$FILLMODE
 70
     1
  9
$QTEXTMODE
 70
     0
  9
$MIRRTEXT
 70
     1
  9
$LTSCALE
 40
1.0
  9
$ATTMODE
 70
     1
  9
$TEXTSIZE
 40
10.0
  9
$TRACEWID
 40
1.0
  9
$TEXTSTYLE
  7
Standard
  9
$CLAYER
  8
0
  9
$CELTYPE
  6
ByLayer
  9
$CECOLOR
 62
   256
  9
$CELTSCALE
 40
1.0
  9
$DISPSILH
 70
     0
  9
$DIMSCALE
 40
1.0
  9
$DIMASZ
 40
2.5
  9
$DIMEXO
 40
0.0
  9
$DIMDLI
 40
3.75
  9
$DIMRND
 40
0.0
  9
$DIMDLE
 40
0.0
  9
$DIMEXE
 40
1.0
  9
$DIMTP
 40
0.0
  9
$DIMTM
 40
0.0
  9
$DIMTXT
 40
3.5
  9
$DIMCEN
 40
2.5
  9
$DIMTSZ
 40
0.0
  9
$DIMTOL
 70
     0
  9
$DIMLIM
 70
     0
  9
$DIMTIH
 70
     1
  9
$DIMTOH
 70
     1
  9
$DIMSE1
 70
     0
  9
$DIMSE2
 70
     0
  9
$DIMTAD
 70
     1
  9
$DIMZIN
 70
     0
  9
$DIMBLK
  1

  9
$DIMASO
 70
     1
  9
$DIMSHO
 70
     1
  9
$DIMPOST
  1

  9
$DIMAPOST
  1

  9
$DIMALT
 70
     0
  9
$DIMALTD
 70
     3
  9
$DIMALTF
 40
0.0393700787
  9
$DIMLFAC
 40
1.0
  9
$DIMTOFL
 70
     1
  9
$DIMTVP
 40
0.0
  9
$DIMTIX
 70
     0
  9
$DIMSOXD
 70
     0
  9
$DIMSAH
 70
     0
  9
$DIMBLK1
  1

  9
$DIMBLK2
  1

  9
$DIMSTYLE
  2
ISO-25
  9
$DIMCLRD
 70
     0
  9
$DIMCLRE
 70
     0
  9
$DIMCLRT
 70
     0
  9
$DIMTFAC
 40
1.0
  9
$DIMGAP
 40
1.5
  9
$DIMJUST
 70
     0
  9
$DIMSD1
 70
     0
  9
$DIMSD2
 70
     0
  9
$DIMTOLJ
 70
     0
  9
$DIMTZIN
 70
     0
  9
$DIMALTZ
 70
     0
  9
$DIMALTTZ
 70
     0
  9
$DIMUPT
 70
     0
  9
$DIMDEC
 70
     2
  9
$DIMTDEC
 70
     2
  9
$DIMALTU
 70
     2
  9
$DIMALTTD
 70
     3
  9
$DIMTXSTY
  7
Standard
  9
$DIMAUNIT
 70
     0
  9
$DIMADEC
 70
     2
  9
$DIMALTRND
 40
0.0
  9
$DIMAZIN
 70
     0
  9
$DIMDSEP
 70
    44
  9
$DIMATFIT
 70
     3
  9
$DIMFRAC
 70
     0
  9
$DIMLDRBLK
  1

  9
$DIMLUNIT
 70
     2
  9
$DIMLWD
 70
    -2
  9
$DIMLWE
 70
    -2
  9
$DIMTMOVE
 70
     0
  9
$DIMFXL
 40
1.0
  9
$DIMFXLON
 70
     0
  9
$DIMJOGANG
 40
0.7853981634
  9
$DIMTFILL
 70
     0
  9
$DIMTFILLCLR
 70
     0
  9
$DIMARCSYM
 70
     0
  9
$DIMLTYPE
  6

  9
$DIMLTEX1
  6

  9
$DIMLTEX2
  6

  9
$DIMTXTDIRECTION
 70
     0
  9
$LUNITS
 70
     2
  9
$LUPREC
 70
     2
  9
$SKETCHINC
 40
1.0
  9
$FILLETRAD
 40
10.0
  9
$AUNITS
 70
     0
  9
$AUPREC
 70
     2
  9
$MENU
  1
.
  9
$ELEVATION
 40
0.0
  9
$PELEVATION
 40
0.0
  9
$THICKNESS
 40
0.0
  9
$LIMCHECK
 70
     0
  9
$CHAMFERA
 40
10.0
  9
$CHAMFERB
 40
10.0
  9
$CHAMFERC
 40
20.0
  9
$CHAMFERD
 40
0.0
  9
$SKPOLY
 70
     0
  9
$TDCREATE
 40
2456156.541839329
  9
$TDUCREATE
 40
2456156.458505996
  9
$TDUPDATE
 40
2456156.54183934
  9
$TDUUPDATE
 40
2456156.458506007
  9
$TDINDWG
 40
0.0000000116
  9
$TDUSRTIMER
 40
0.0000000116
  9
$USRTIMER
 70
     1
  9
$ANGBASE
 50
0.0
  9
$ANGDIR
 70
     0
  9
$PDMODE
 70
     0
  9
$PDSIZE
 40
-1.0
  9
$PLINEWID
 40
0.0
  9
$SPLFRAME
 70
     0
  9
$SPLINETYPE
 70
     6
  9
$SPLINESEGS
 70
     8
  9
$HANDSEED
  5
1B7
  9
$SURFTAB1
 70
     6
  9
$SURFTAB2
 70
     6
  9
$SURFTYPE
 70
     6
  9
$SURFU
 70
     6
  9
$SURFV
 70
     6
  9
$UCSBASE
  2

  9
$UCSNAME
  2

  9
$UCSORG
 10
0.0
 20
0.0
 30
0.0
  9
$UCSXDIR
 10
1.0
 20
0.0
 30
0.0
  9
$UCSYDIR
 10
0.0
 20
1.0
 30
0.0
  9
$UCSORTHOREF
  2

  9
$UCSORTHOVIEW
 70
     0
  9
$UCSORGTOP
 10
0.0
 20
0.0
 30
0.0
  9
$UCSORGBOTTOM
 10
0.0
 20
0.0
 30
0.0
  9
$UCSORGLEFT
 10
0.0
 20
0.0
 30
0.0
  9
$UCSORGRIGHT
 10
0.0
 20
0.0
 30
0.0
  9
$UCSORGFRONT
 10
0.0
 20
0.0
 30
0.0
  9
$UCSORGBACK
 10
0.0
 20
0.0
 30
0.0
  9
$PUCSBASE
  2

  9
$PUCSNAME
  2

  9
$PUCSORG
 10
0.0
 20
0.0
 30
0.0
  9
$PUCSXDIR
 10
1.0
 20
0.0
 30
0.0
  9
$PUCSYDIR
 10
0.0
 20
1.0
 30
0.0
  9
$PUCSORTHOREF
  2

  9
$PUCSORTHOVIEW
 70
     0
  9
$PUCSORGTOP
 10
0.0
 20
0.0
 30
0.0
  9
$PUCSORGBOTTOM
 10
0.0
 20
0.0
 30
0.0
  9
$PUCSORGLEFT
 10
0.0
 20
0.0
 30
0.0
  9
$PUCSORGRIGHT
 10
0.0
 20
0.0
 30
0.0
  9
$PUCSORGFRONT
 10
0.0
 20
0.0
 30
0.0
  9
$PUCSORGBACK
 10
0.0
 20
0.0
 30
0.0
  9
$USERI1
 70
     0
  9
$USERI2
 70
     0
  9
$USERI3
 70
     0
  9
$USERI4
 70
     0
  9
$USERI5
 70
     0
  9
$USERR1
 40
0.0
  9
$USERR2
 40
0.0
  9
$USERR3
 40
0.0
  9
$USERR4
 40
0.0
  9
$USERR5
 40
0.0
  9
$WORLDVIEW
 70
     1
  9
$SHADEDGE
 70
     3
  9
$SHADEDIF
 70
    70
  9
$TILEMODE
 70
     1
  9
$MAXACTVP
 70
    64
  9
$PINSBASE
 10
0.0
 20
0.0
 30
0.0
  9
$PLIMCHECK
 70
     0
  9
$PEXTMIN
 10
1.0000000000E+20
 20
1.0000000000E+20
 30
1.0000000000E+20
  9
$PEXTMAX
 10
-1.0000000000E+20
 20
-1.0000000000E+20
 30
-1.0000000000E+20
  9
$PLIMMIN
 10
0.0
 20
0.0
  9
$PLIMMAX
 10
420.0
 20
297.0
  9
$UNITMODE
 70
     0
  9
$VISRETAIN
 70
     1
  9
$PLINEGEN
 70
     0
  9
$PSLTSCALE
 70
     1
  9
$TREEDEPTH
 70
  3020
  9
$CMLSTYLE
  2
Standard
  9
$CMLJUST
 70
     0
  9
$CMLSCALE
 40
20.0
  9
$PROXYGRAPHICS
 70
     1
  9
$MEASUREMENT
 70
     1
  9
$CELWEIGHT
370
    -1
  9
$ENDCAPS
280
     0
  9
$JOINSTYLE
280
     0
  9
$LWDISPLAY
290
     1
  9
$INSUNITS
 70
     4
  9
$HYPERLINKBASE
  1

  9
$STYLESHEET
  1

  9
$XEDIT
290
     1
  9
$CEPSNTYPE
380
     0
  9
$PSTYLEMODE
290
     1
  9
$FINGERPRINTGUID
  2
{BED54588-D0D3-48A0-98DF-847C33DADE93}
  9
$VERSIONGUID
  2
{FAEB1C32-E019-11D5-929B-00C0DF256EC4}
  9
$EXTNAMES
290
     1
  9
$PSVPSCALE
 40
0.0
  9
$OLESTARTUP
290
     0
  9
$SORTENTS
280
   127
  9
$INDEXCTL
280
     0
  9
$HIDETEXT
280
     1
  9
$XCLIPFRAME
280
     2
  9
$HALOGAP
280
     0
  9
$OBSCOLOR
 70
   257
  9
$OBSLTYPE
280
     0
  9
$INTERSECTIONDISPLAY
280
     0
  9
$INTERSECTIONCOLOR
 70
   257
  9
$DIMASSOC
280
     2
  9
$PROJECTNAME
  1

  9
$CAMERADISPLAY
290
     0
  9
$LENSLENGTH
 40
50.0
  9
$CAMERAHEIGHT
 40
0.0
  9
$STEPSPERSEC
 40
2.0
  9
$STEPSIZE
 40
6.0
  9
$3DDWFPREC
 40
2.0
  9
$PSOLWIDTH
 40
5.0
  9
$PSOLHEIGHT
 40
80.0
  9
$LOFTANG1
 40
1.5707963268
  9
$LOFTANG2
 40
1.5707963268
  9
$LOFTMAG1
 40
0.0
  9
$LOFTMAG2
 40
0.0
  9
$LOFTPARAM
 70
     7
  9
$LOFTNORMALS
280
     1
  9
$LATITUDE
 40
37.795
  9
$LONGITUDE
 40
-122.394
  9
$NORTHDIRECTION
 40
0.0
  9
$TIMEZONE
 70
 -8000
  9
$LIGHTGLYPHDISPLAY
280
     1
  9
$TILEMODELIGHTSYNCH
280
     1
  9
$SOLIDHIST
280
     1
  9
$SHOWHIST
280
     1
  9
$DWFFRAME
280
     2
  9
$DGNFRAME
280
     2
  9
$REALWORLDSCALE
290
     1
  9
$INTERFERECOLOR
 62
   256
  9
$CSHADOW
280
     0
  9
$SHADOWPLANELOCATION
 40
0.0
  0
ENDSEC
  0
SECTION
  2
CLASSES
  0
CLASS
  1
ACDBDICTIONARYWDFLT
  2
AcDbDictionaryWithDefault
  3
ObjectDBX Classes
 90
        0
 91
        4
280
     0
281
     0
  0
CLASS
  1
VISUALSTYLE
  2
AcDbVisualStyle
  3
ObjectDBX Classes
 90
     4095
 91
        4
280
     0
281
     0
  0
CLASS
  1
MATERIAL
  2
AcDbMaterial
  3
ObjectDBX Classes
 90
     1153
 91
        4
280
     0
281
     0
  0
ENDSEC
  0
SECTION
  2
TABLES
  0
TABLE
  2
VPORT
  5
8
330
0
100
AcDbSymbolTable
 70
     1
  0
VPORT
  5
29
330
8
100
AcDbSymbolTableRecord
100
AcDbViewportTableRecord
  2
*Active
 70
     0
 10
0.0
 20
0.0
 11
1.0
 21
1.0
 12
297.0
 22
420.5
 13
0.0
 23
0.0
 14
10.0
 24
10.0
 15
10.0
 25
10.0
 16
0.0
 26
0.0
 36
1.0
 17
0.0
 27
0.0
 37
0.0
 40
841.0
 41
0.7063020214
 42
50.0
 43
0.0
 44
0.0
 50
0.0
 51
0.0
 71
     0
 72
  2000
 73
     1
 74
     3
 75
     0
 76
     0
 77
     0
 78
     0
281
     0
 65
     1
110
0.0
120
0.0
130
0.0
111
1.0
121
0.0
131
0.0
112
0.0
122
1.0
132
0.0
 79
     0
146
0.0
 60
     3
 61
     5
292
     1
282
     1
141
0.0
142
0.0
 63
   250
  0
ENDTAB
  0
TABLE
  2
LTYPE
  5
5
330
0
100
AcDbSymbolTable
 70
     6
  0
LTYPE
  5
14
330
5
100
AcDbSymbolTableRecord
100
AcDbLinetypeTableRecord
  2
ByBlock
 70
     0
  3

 72
    65
 73
     0
 40
0.0
  0
LTYPE
  5
15
330
5
100
AcDbSymbolTableRecord
100
AcDbLinetypeTableRecord
  2
ByLayer
 70
     0
  3

 72
    65
 73
     0
 40
0.0
  0
LTYPE
  5
16
330
5
100
AcDbSymbolTableRecord
100
AcDbLinetypeTableRecord
  2
Continuous
 70
     0
  3
Solid line
 72
    65
 73
     0
 40
0.0
  0
LTYPE
  5
3F
330
5
100
AcDbSymbolTableRecord
100
AcDbLinetypeTableRecord
  2
HIDDEN
 70
     0
  3
Hidden __ __ __ __ __ __ __ __ __ __ __ __ __ __
 72
    65
 73
     2
 40
1.905
 49
1.27
 74
     0
 49
-0.635
 74
     0
  0
LTYPE
  5
40
330
5
100
AcDbSymbolTableRecord
100
AcDbLinetypeTableRecord
  2
PHANTOM
 70
     0
  3
Phantom ______  __  __  ______  __  __  ______
 72
    65
 73
     6
 40
12.7
 49
6.35
 74
     0
 49
-1.27
 74
     0
 49
1.27
 74
     0
 49
-1.27
 74
     0
 49
1.27
 74
     0
 49
-1.27
 74
     0
  0
LTYPE
  5
41
330
5
100
AcDbSymbolTableRecord
100
AcDbLinetypeTableRecord
  2
CENTER
 70
     0
  3
Center ____ _ ____ _ ____ _ ____ _ ____ _ ____
 72
    65
 73
     4
 40
10.16
 49
6.35
 74
     0
 49
-1.27
 74
     0
 49
1.27
 74
     0
 49
-1.27
 74
     0
  0
LTYPE
  5
42
330
5
100
AcDbSymbolTableRecord
100
AcDbLinetypeTableRecord
  2
CENTERX2
 70
     0
  3
Center (2x) ________  __  ________  __  _____
 72
    65
 73
     4
 40
20.32
 49
12.7
 74
     0
 49
-2.54
 74
     0
 49
2.54
 74
     0
 49
-2.54
 74
     0
  0
LTYPE
  5
43
330
5
100
AcDbSymbolTableRecord
100
AcDbLinetypeTableRecord
  2
DOT2
 70
     0
  3
Dot (.5x) ........................................
 72
    65
 73
     2
 40
0.635
 49
0.0
 74
     0
 49
-0.635
 74
     0
  0
ENDTAB
  0
TABLE
  2
LAYER
  5
2
330
0
100
AcDbSymbolTable
 70
     1
  0
LAYER
  5
10
330
2
100
AcDbSymbolTableRecord
100
AcDbLayerTableRecord
  2
0
 70
     0
 62
     7
  6
Continuous
370
    -3
390
F
347
3E
  0
ENDTAB
  0
TABLE
  2
STYLE
  5
3
330
0
100
AcDbSymbolTable
 70
     3
  0
STYLE
  5
11
330
3
100
AcDbSymbolTableRecord
100
AcDbTextStyleTableRecord
  2
Standard
 70
     0
 40
0.0
 41
1.0
 50
0.0
 71
     0
 42
2.5
  3
txt
  4

  0
STYLE
  5
47
330
3
100
AcDbSymbolTableRecord
100
AcDbTextStyleTableRecord
  2
SLDTEXTSTYLE0
 70
     0
 40
0.0
 41
0.96
 50
0.0
 71
     0
 42
0.2
  3
ISOCP3
  4

  0
STYLE
  5
5E
330
3
100
AcDbSymbolTableRecord
100
AcDbTextStyleTableRecord
  2
SLDTEXTSTYLE1
 70
     0
 40
0.0
 41
0.605
 50
0.0
 71
     0
 42
0.2
  3
TXT
  4

  0
ENDTAB
  0
TABLE
  2
VIEW
  5
6
330
0
100
AcDbSymbolTable
 70
     0
  0
ENDTAB
  0
TABLE
  2
UCS
  5
7
330
0
100
AcDbSymbolTable
 70
     0
  0
ENDTAB
  0
TABLE
  2
APPID
  5
9
330
0
100
AcDbSymbolTable
 70
     1
  0
APPID
  5
12
330
9
100
AcDbSymbolTableRecord
100
AcDbRegAppTableRecord
  2
ACAD
 70
     0
  0
ENDTAB
  0
TABLE
  2
DIMSTYLE
  5
A
330
0
100
AcDbSymbolTable
 70
     2
100
AcDbDimStyleTable
  0
DIMSTYLE
105
27
330
A
100
AcDbSymbolTableRecord
100
AcDbDimStyleTableRecord
  2
ISO-25
 70
     0
 41
2.5
 42
0.625
 43
3.75
 44
1.25
 73
     0
 74
     0
 77
     1
 78
     8
140
2.5
141
2.5
143
0.0393700787
147
0.625
171
     3
172
     1
178
     0
271
     2
272
     2
274
     3
278
    44
283
     0
284
     8
340
11
  0
DIMSTYLE
105
48
102
{ACAD_REACTORS
330
46
330
53
102
}
330
A
100
AcDbSymbolTableRecord
100
AcDbDimStyleTableRecord
  2
SLDDIMSTYLE0
 70
     0
 41
2.5
 44
0.0
 45
0.000000001
 73
     0
 74
     0
 77
     1
 78
    12
 79
     3
140
6.0
147
1.5
173
     1
178
     0
271
     2
272
     2
276
     2
284
    12
340
47
  0
ENDTAB
  0
TABLE
  2
BLOCK_RECORD
  5
1
330
0
100
AcDbSymbolTable
 70
     3
  0
BLOCK_RECORD
  5
1F
330
1
100
AcDbSymbolTableRecord
100
AcDbBlockTableRecord
  2
*Model_Space
340
22
 70
     0
280
     1
281
     0
  0
BLOCK_RECORD
  5
1B
330
1
100
AcDbSymbolTableRecord
100
AcDbBlockTableRecord
  2
*Paper_Space
340
1E
 70
     0
280
     1
281
     0
  0
BLOCK_RECORD
  5
23
330
1
100
AcDbSymbolTableRecord
100
AcDbBlockTableRecord
  2
*Paper_Space0
340
26
 70
     0
280
     1
281
     0
  0
BLOCK_RECORD
  5
49
330
1
100
AcDbSymbolTableRecord
100
AcDbBlockTableRecord
  2
*D1
340
0
 70
     0
280
     1
281
     0
  0
BLOCK_RECORD
  5
54
330
1
100
AcDbSymbolTableRecord
100
AcDbBlockTableRecord
  2
*D2
340
0
 70
     0
280
     1
281
     0
  0
ENDTAB
  0
ENDSEC
  0
SECTION
  2
BLOCKS
  0
BLOCK
  5
20
330
1F
100
AcDbEntity
  8
0
100
AcDbBlockBegin
  2
*Model_Space
 70
     0
 10
0.0
 20
0.0
 30
0.0
  3
*Model_Space
  1

  0
ENDBLK
  5
21
330
1F
100
AcDbEntity
  8
0
100
AcDbBlockEnd
  0
BLOCK
  5
1C
330
1B
100
AcDbEntity
 67
     1
  8
0
100
AcDbBlockBegin
  2
*Paper_Space
 70
     0
 10
0.0
 20
0.0
 30
0.0
  3
*Paper_Space
  1

  0
ENDBLK
  5
1D
330
1B
100
AcDbEntity
 67
     1
  8
0
100
AcDbBlockEnd
  0
BLOCK
  5
24
330
23
100
AcDbEntity
  8
0
100
AcDbBlockBegin
  2
*Paper_Space0
 70
     0
 10
0.0
 20
0.0
 30
0.0
  3
*Paper_Space0
  1

  0
ENDBLK
  5
25
330
23
100
AcDbEntity
  8
0
100
AcDbBlockEnd
  0
BLOCK
  5
4A
330
49
100
AcDbEntity
  8
0
100
AcDbBlockBegin
  2
*D1
 70
     1
 10
0.0
 20
0.0
 30
0.0
  3
*D1
  1

  0
SOLID
  5
4C
330
49
100
AcDbEntity
  8
0
  6
Continuous
 62
     7
370
     0
100
AcDbTrace
 10
42.7614395004
 20
152.0299240879
 30
0.0
 11
42.4614395004
 21
149.5299240879
 31
0.0
 12
43.0614395004
 22
149.5299240879
 32
0.0
 13
43.0614395004
 23
149.5299240879
 33
0.0
  0
SOLID
  5
4D
330
49
100
AcDbEntity
  8
0
  6
Continuous
 62
     7
370
     0
100
AcDbTrace
 10
42.7614395004
 20
52.0299240879
 30
0.0
 11
43.0614395004
 21
54.5299240879
 31
0.0
 12
42.4614395004
 22
54.5299240879
 32
0.0
 13
42.4614395004
 23
54.5299240879
 33
0.0
  0
LINE
  5
4E
330
49
100
AcDbEntity
  8
0
  6
Continuous
 62
     7
370
     0
100
AcDbLine
 10
56.6850079902
 20
152.0299240879
 30
0.0
 11
41.7614395004
 21
152.0299240879
 31
0.0
  0
LINE
  5
4F
330
49
100
AcDbEntity
  8
0
  6
Continuous
 62
     7
370
     0
100
AcDbLine
 10
56.6850079902
 20
52.0299240879
 30
0.0
 11
41.7614395004
 21
52.0299240879
 31
0.0
  0
LINE
  5
50
330
49
100
AcDbEntity
  8
0
  6
Continuous
 62
     7
370
     0
100
AcDbLine
 10
42.7614395004
 20
152.0299240879
 30
0.0
 11
42.7614395004
 21
52.0299240879
 31
0.0
  0
MTEXT
  5
51
330
49
100
AcDbEntity
  8
0
  6
Continuous
 62
     7
370
     0
100
AcDbMText
 10
35.0270332946
 20
91.6722208134
 30
0.1
 40
6.0
 41
0.0
 46
0.0
 71
     1
 72
     1
  1
100
  7
SLDTEXTSTYLE0
 11
-7.044195017643634E-15
 21
1.0
 31
0.0
 73
     1
 44
1.0
  0
MTEXT
  5
52
330
49
100
AcDbEntity
  8
0
  6
Continuous
 62
     7
370
     0
100
AcDbMText
 10
35.0270332946
 20
108.4388881795
 30
0.1
 40
6.0
 41
0.0
 46
0.0
 71
     1
 72
     1
  1
mm
  7
SLDTEXTSTYLE0
 11
-7.044195017643634E-15
 21
1.0
 31
0.0
 73
     1
 44
1.0
  0
ENDBLK
  5
4B
330
49
100
AcDbEntity
  8
0
100
AcDbBlockEnd
  0
BLOCK
  5
55
330
54
100
AcDbEntity
  8
0
100
AcDbBlockBegin
  2
*D2
 70
     1
 10
0.0
 20
0.0
 30
0.0
  3
*D2
  1

  0
SOLID
  5
57
330
54
100
AcDbEntity
  8
0
  6
Continuous
 62
     7
370
     0
100
AcDbTrace
 10
56.6850079902
 20
38.4602342313
 30
0.0
 11
59.1850079902
 21
38.1602342313
 31
0.0
 12
59.1850079902
 22
38.7602342313
 32
0.0
 13
59.1850079902
 23
38.7602342313
 33
0.0
  0
SOLID
  5
58
330
54
100
AcDbEntity
  8
0
  6
Continuous
 62
     7
370
     0
100
AcDbTrace
 10
156.6850079902
 20
38.4602342313
 30
0.0
 11
154.1850079902
 21
38.7602342313
 31
0.0
 12
154.1850079902
 22
38.1602342313
 32
0.0
 13
154.1850079902
 23
38.1602342313
 33
0.0
  0
LINE
  5
59
330
54
100
AcDbEntity
  8
0
  6
Continuous
 62
     7
370
     0
100
AcDbLine
 10
56.6850079902
 20
52.0299240879
 30
0.0
 11
56.6850079902
 21
37.4602342313
 31
0.0
  0
LINE
  5
5A
330
54
100
AcDbEntity
  8
0
  6
Continuous
 62
     7
370
     0
100
AcDbLine
 10
156.6850079902
 20
52.0299240879
 30
0.0
 11
156.6850079902
 21
37.4602342313
 31
0.0
  0
LINE
  5
5B
330
54
100
AcDbEntity
  8
0
  6
Continuous
 62
     7
370
     0
100
AcDbLine
 10
56.6850079902
 20
38.4602342313
 30
0.0
 11
156.6850079902
 21
38.4602342313
 31
0.0
  0
MTEXT
  5
5C
330
54
100
AcDbEntity
  8
0
  6
Continuous
 62
     7
370
     0
100
AcDbMText
 10
91.2668151533
 20
46.1946404371
 30
0.1
 40
6.0
 41
0.0
 46
0.0
 71
     1
 72
     1
  1
100
  7
SLDTEXTSTYLE0
 73
     1
 44
1.0
  0
MTEXT
  5
5D
330
54
100
AcDbEntity
  8
0
  6
Continuous
 62
     7
370
     0
100
AcDbMText
 10
108.0334825193
 20
46.1946404371
 30
0.1
 40
6.0
 41
0.0
 46
0.0
 71
     1
 72
     1
  1
mm
  7
SLDTEXTSTYLE0
 73
     1
 44
1.0
  0
ENDBLK
  5
56
330
54
100
AcDbEntity
  8
0
100
AcDbBlockEnd
  0
ENDSEC
  0
SECTION
  2
ENTITIES
  0
LINE
  5
44
330
1F
100
AcDbEntity
  8
0
  6
Continuous
 62
     7
370
     0
100
AcDbLine
 10
56.6850079902
 20
152.0299240879
 30
0.0
 11
56.6850079902
 21
52.0299240879
 31
0.0
  0
LINE
  5
45
330
1F
100
AcDbEntity
  8
0
  6
Continuous
 62
     7
370
     0
100
AcDbLine
 10
56.6850079902
 20
52.0299240879
 30
0.0
 11
156.6850079902
 21
52.0299240879
 31
0.0
  0
DIMENSION
  5
46
330
1F
100
AcDbEntity
  8
0
  6
Continuous
 62
     7
370
     0
100
AcDbDimension
280
     0
  2
*D1
 10
42.7614395004
 20
52.0299240879
 30
0.0
 11
42.7614395004
 21
105.4472211621
 31
0.0
 70
   160
  1
<>mm
 71
     2
 42
-1.0
 73
     0
 74
     0
 75
     0
  3
SLDDIMSTYLE0
100
AcDbAlignedDimension
 13
56.6850079902
 23
152.0299240879
 33
0.0
 14
56.6850079902
 24
52.0299240879
 34
0.0
 50
90.0
100
AcDbRotatedDimension
  0
DIMENSION
  5
53
330
1F
100
AcDbEntity
  8
0
  6
Continuous
 62
     7
370
     0
100
AcDbDimension
280
     0
  2
*D2
 10
156.6850079902
 20
38.4602342313
 30
0.0
 11
105.0418155019
 21
38.4602342313
 31
0.0
 70
   160
  1
<>mm
 71
     2
 42
-1.0
 73
     0
 74
     0
 75
     0
  3
SLDDIMSTYLE0
100
AcDbAlignedDimension
 13
56.6850079902
 23
52.0299240879
 33
0.0
 14
156.6850079902
 24
52.0299240879
 34
0.0
100
AcDbRotatedDimension
  0
MTEXT
  5
5F
330
1F
100
AcDbEntity
  8
0
  6
Continuous
 62
     7
370
     0
100
AcDbMText
 10
266.166973279
 20
48.2969145169
 30
0.0
 40
10.0
 41
0.0
 46
0.0
 71
     1
 72
     1
  1
32 764 05 75
  7
SLDTEXTSTYLE1
 73
     1
 44
1.0
  0
MTEXT
  5
60
330
1F
100
AcDbEntity
  8
0
  6
Continuous
 62
     7
370
     0
100
AcDbMText
 10
412.8252631579
 20
48.4342449499
 30
0.0
 40
10.0
 41
0.0
 46
0.0
 71
     1
 72
     1
  1
KLUDI GmbH & Co KG
  7
SLDTEXTSTYLE1
 73
     1
 44
1.0
  0
SPLINE
  5
61
330
1F
100
AcDbEntity
  8
0
  6
Continuous
 62
     7
370
    15
100
AcDbSpline
210
0.0
220
0.0
230
1.0
 70
     8
 71
     3
 72
    25
 73
    21
 74
     0
 42
0.00000001
 43
0.00000001
 40
0.0
 40
0.0
 40
0.0
 40
0.0
 40
0.001319030129237
 40
0.1520272973192041
 40
0.3643621722925538
 40
0.5360094302345076
 40
0.5754579934103645
 40
0.6103118703694407
 40
0.6424515567512654
 40
0.6735324588636937
 40
0.7058074959160593
 40
0.7403344143627063
 40
0.7756025644926043
 40
0.8113939052596044
 40
0.8475493459220824
 40
0.8838222012638316
 40
0.9199186787683975
 40
0.9557494090582849
 40
0.9901273145034085
 40
1.0
 40
1.0
 40
1.0
 40
1.0
 10
188.9491428530158
 20
353.4415078771724
 30
0.0
 10
188.9500700148118
 20
353.4150249942184
 30
0.0
 10
189.0569317906756
 20
350.3626905315817
 30
0.0
 10
189.1315122978476
 20
343.0423404751187
 30
0.0
 10
189.4118032416108
 20
332.3033737771684
 30
0.0
 10
189.5577528099993
 20
323.8000375192657
 30
0.0
 10
189.7221174766227
 20
318.8588649789758
 30
0.0
 10
190.0088087062196
 20
316.7354995040353
 30
0.0
 10
190.4832747394992
 20
314.8185182194423
 30
0.0
 10
191.1822438168319
 20
313.0259383477465
 30
0.0
 10
192.1273708773681
 20
311.2960885015394
 30
0.0
 10
193.3162710785422
 20
309.6193440886587
 30
0.0
 10
194.749202068505
 20
308.0480416773135
 30
0.0
 10
196.3862406994582
 20
306.6402218321222
 30
0.0
 10
198.1990178972483
 20
305.429842056693
 30
0.0
 10
200.1522471238433
 20
304.4497160925735
 30
0.0
 10
202.2062416341518
 20
303.716993391098
 30
0.0
 10
204.3008117856507
 20
303.2820119017022
 30
0.0
 10
205.9082218438595
 20
303.114358261738
 30
0.0
 10
206.7970827017289
 20
303.1408356302256
 30
0.0
 10
206.9953951652062
 20
303.1467429577052
 30
0.0
  0
SPLINE
  5
62
330
1F
100
AcDbEntity
  8
0
  6
Continuous
 62
     7
370
    15
100
AcDbSpline
210
0.0
220
0.0
230
1.0
 70
     8
 71
     3
 72
    24
 73
    20
 74
     0
 42
0.00000001
 43
0.00000001
 40
0.0
 40
0.0
 40
0.0
 40
0.0
 40
0.0258824292245742
 40
0.0583236049476659
 40
0.0928755914086758
 40
0.1269318022868562
 40
0.1621694748298876
 40
0.1978145332081236
 40
0.2336545573961686
 40
0.2693765984190504
 40
0.3047958406105938
 40
0.3396421687632369
 40
0.3738673690056153
 40
0.4070073674401192
 40
0.4375129613418202
 40
0.4766964362034188
 40
0.5851393306675537
 40
0.8547602513763448
 40
1.0
 40
1.0
 40
1.0
 40
1.0
 10
206.9952643527918
 20
303.1469603509774
 30
0.0
 10
207.5225405255256
 20
303.1506395596547
 30
0.0
 10
208.7107074835035
 20
303.1589303082377
 30
0.0
 10
210.5880249049823
 20
303.434707305777
 30
0.0
 10
212.578623049947
 20
303.9704077909046
 30
0.0
 10
214.5411309548306
 20
304.7703362276487
 30
0.0
 10
216.4131382416839
 20
305.8099606457325
 30
0.0
 10
218.1746476754294
 20
307.0907212911098
 30
0.0
 10
219.7735356661201
 20
308.5842063248682
 30
0.0
 10
221.1714826162086
 20
310.2614521785393
 30
0.0
 10
222.3352136045004
 20
312.0854385745951
 30
0.0
 10
223.2398211285921
 20
314.0166502921417
 30
0.0
 10
223.881634497993
 20
316.0025485878457
 30
0.0
 10
224.2157456187523
 20
317.9737012620155
 30
0.0
 10
224.3166243569373
 20
320.0660414675822
 30
0.0
 10
224.4107722744765
 20
323.6903867153616
 30
0.0
 10
224.5868643564877
 20
332.1826539079774
 30
0.0
 10
224.8020339381248
 20
342.8326905192009
 30
0.0
 10
225.0138021264014
 20
351.2750649471338
 30
0.0
 10
225.0879406521895
 20
354.23067976035
 30
0.0
  0
SPLINE
  5
63
330
1F
100
AcDbEntity
  8
0
  6
Continuous
 62
     7
370
    15
100
AcDbSpline
210
0.0
220
0.0
230
1.0
 70
     8
 71
     3
 72
    17
 73
    13
 74
     0
 42
0.00000001
 43
0.00000001
 40
0.0
 40
0.0
 40
0.0
 40
0.0
 40
0.0393963708541026
 40
0.2661914454715967
 40
0.3650607502189883
 40
0.4640524759118946
 40
0.5641307040515776
 40
0.6653513731077398
 40
0.7490159861608828
 40
0.8327237196583569
 40
0.916307658948396
 40
1.0
 40
1.0
 40
1.0
 40
1.0
 10
188.9694150345419
 20
353.4431581906658
 30
0.0
 10
188.9596637392481
 20
353.8650961056957
 30
0.0
 10
188.8937766706376
 20
356.7160252919663
 30
0.0
 10
188.7067865704179
 20
360.6237757318787
 30
0.0
 10
188.3526107701345
 20
365.1595670724608
 30
0.0
 10
187.9905014875484
 20
368.3316625146193
 30
0.0
 10
187.4062345816678
 20
371.5001150121304
 30
0.0
 10
186.4857699185322
 20
374.4199025456685
 30
0.0
 10
185.3382596624802
 20
377.0596928656108
 30
0.0
 10
184.2589094348339
 20
379.5215406232866
 30
0.0
 10
183.2496016638249
 20
382.0147136151779
 30
0.0
 10
182.6572730192613
 20
383.7062396014076
 30
0.0
 10
182.3609167705798
 20
384.552550682979
 30
0.0
  0
SPLINE
  5
64
330
1F
100
AcDbEntity
  8
0
  6
Continuous
 62
     7
370
    15
100
AcDbSpline
210
0.0
220
0.0
230
1.0
 70
     8
 71
     3
 72
    19
 73
    15
 74
     0
 42
0.00000001
 43
0.00000001
 40
0.0
 40
0.0
 40
0.0
 40
0.0
 40
0.0856174139809765
 40
0.171352657360523
 40
0.2572057068684005
 40
0.3430557040359423
 40
0.3931382430857419
 40
0.4433876431102313
 40
0.494113266060752
 40
0.5449694609191238
 40
0.6485435479191815
 40
0.7523213065244558
 40
0.9845988436305391
 40
1.0
 40
1.0
 40
1.0
 40
1.0
 10
231.6298315551275
 20
384.5525498473019
 30
0.0
 10
231.3341009432565
 20
383.7079876558171
 30
0.0
 10
230.742232725674
 20
382.0177009595933
 30
0.0
 10
229.7334845194243
 20
379.5252128595631
 30
0.0
 10
228.6531956233217
 20
377.0618574242801
 30
0.0
 10
227.7295927449002
 20
374.9348659828514
 30
0.0
 10
227.0874830956944
 20
373.0970543970607
 30
0.0
 10
226.6565926797992
 20
371.5776487392869
 30
0.0
 10
226.3130516369956
 20
370.0279192846435
 30
0.0
 10
225.9547365780319
 20
367.9136294417495
 30
0.0
 10
225.6437470733833
 20
365.231794101481
 30
0.0
 10
225.2861424878367
 20
360.6514000251631
 30
0.0
 10
225.1060695627349
 20
356.9814884764798
 30
0.0
 10
225.0444342018989
 20
354.3938802269668
 30
0.0
 10
225.0406015919283
 20
354.2329775723443
 30
0.0
  0
SPLINE
  5
65
330
1F
100
AcDbEntity
  8
0
  6
Continuous
 62
     7
370
    15
100
AcDbSpline
210
0.0
220
0.0
230
1.0
 70
     8
 71
     3
 72
     9
 73
     5
 74
     0
 42
0.00000001
 43
0.00000001
 40
0.0
 40
0.0
 40
0.0
 40
0.0
 40
0.4968794251617312
 40
1.0
 40
1.0
 40
1.0
 40
1.0
 10
231.6199208457262
 20
384.5243262636002
 30
0.0
 10
231.5986602381415
 20
384.459478748129
 30
0.0
 10
231.5558719750176
 20
384.3289691874842
 30
0.0
 10
231.386902230761
 20
383.8701754389426
 30
0.0
 10
231.3018900759004
 20
383.6393468644442
 30
0.0
  0
SPLINE
  5
66
330
1F
100
AcDbEntity
  8
0
  6
Continuous
 62
     7
370
    15
100
AcDbSpline
210
0.0
220
0.0
230
1.0
 70
     8
 71
     3
 72
    78
 73
    74
 74
     0
 42
0.00000001
 43
0.00000001
 40
0.0
 40
0.0
 40
0.0
 40
0.0
 40
0.0625000000000002
 40
0.0625000000000002
 40
0.0781250000000002
 40
0.0781250000000002
 40
0.0937500000000003
 40
0.0937500000000003
 40
0.1250000000000004
 40
0.1250000000000004
 40
0.1562500000000005
 40
0.1562500000000005
 40
0.1718750000000005
 40
0.1718750000000005
 40
0.1875000000000006
 40
0.1875000000000006
 40
0.2500000000000007
 40
0.2500000000000007
 40
0.2812500000000007
 40
0.2812500000000007
 40
0.3125000000000007
 40
0.3125000000000007
 40
0.3437500000000008
 40
0.3437500000000008
 40
0.3593750000000008
 40
0.3593750000000008
 40
0.3750000000000008
 40
0.3750000000000008
 40
0.4375000000000008
 40
0.4375000000000008
 40
0.4531250000000008
 40
0.4531250000000008
 40
0.4687500000000008
 40
0.4687500000000008
 40
0.5000000000000008
 40
0.5000000000000008
 40
0.5312500000000008
 40
0.5312500000000008
 40
0.5468750000000007
 40
0.5468750000000007
 40
0.5625000000000007
 40
0.5625000000000007
 40
0.5937500000000004
 40
0.5937500000000004
 40
0.6093750000000004
 40
0.6093750000000004
 40
0.6250000000000003
 40
0.6250000000000003
 40
0.6875000000000003
 40
0.6875000000000003
 40
0.7031250000000002
 40
0.7031250000000002
 40
0.7187500000000002
 40
0.7187500000000002
 40
0.7500000000000001
 40
0.7500000000000001
 40
0.7812500000000001
 40
0.7812500000000001
 40
0.7968750000000001
 40
0.7968750000000001
 40
0.8125
 40
0.8125
 40
0.875
 40
0.875
 40
0.90625
 40
0.90625
 40
0.9374999999999999
 40
0.9374999999999999
 40
0.9687499999999999
 40
0.9687499999999999
 40
0.984375
 40
0.984375
 40
1.0
 40
1.0
 40
1.0
 40
1.0
 10
182.3610874211107
 20
384.5526081259472
 30
0.0
 10
181.6978448207731
 20
386.5173717948975
 30
0.0
 10
181.2796609616952
 20
388.5209000250324
 30
0.0
 10
181.0524436006507
 20
391.0720558843423
 30
0.0
 10
181.0219736303438
 20
391.5846556361931
 30
0.0
 10
180.9915071680361
 20
392.6146755801223
 30
0.0
 10
180.9915916999859
 20
393.1338439350019
 30
0.0
 10
181.0382402933784
 20
394.6838423260959
 30
0.0
 10
181.1304645786154
 20
395.7060210795332
 30
0.0
 10
181.4332503280077
 20
397.7287856248856
 30
0.0
 10
181.6438213764146
 20
398.7293696679642
 30
0.0
 10
182.0493033180119
 20
400.2138918093146
 30
0.0
 10
182.1994397749395
 20
400.7059998900732
 30
0.0
 10
182.5302918007348
 20
401.684636287112
 30
0.0
 10
182.7113175039843
 20
402.1716170292412
 30
0.0
 10
183.6810632413798
 20
404.5600672441118
 30
0.0
 10
184.6689279940109
 20
406.3500090466651
 30
0.0
 10
186.4656807944212
 20
408.8554868454406
 30
0.0
 10
187.1221302271061
 20
409.664579180643
 30
0.0
 10
188.5114232427846
 20
411.1823545129919
 30
0.0
 10
189.2462498395439
 20
411.8950192528512
 30
0.0
 10
190.79471075514
 20
413.2296888154678
 30
0.0
 10
191.6083442386644
 20
413.8516945991632
 30
0.0
 10
192.889244955746
 20
414.715161402027
 30
0.0
 10
193.3276744252215
 20
414.9921492201528
 30
0.0
 10
194.2184817826404
 20
415.5182849083604
 30
0.0
 10
194.6696498624508
 20
415.7668450145414
 30
0.0
 10
196.9536704440185
 20
416.9387221840444
 30
0.0
 10
198.8698903090671
 20
417.6522218115646
 30
0.0
 10
201.3782098324359
 20
418.2595875588077
 30
0.0
 10
201.8867501635851
 20
418.366765222994
 30
0.0
 10
202.9022730311218
 20
418.5493497678833
 30
0.0
 10
203.4106666786454
 20
418.6251688615549
 30
0.0
 10
204.9377082086631
 20
418.807089009045
 30
0.0
 10
205.9582103371744
 20
418.8678081332979
 30
0.0
 10
208.0041307343801
 20
418.8689258172849
 30
0.0
 10
209.0295484989503
 20
418.809336715259
 30
0.0
 10
210.5714950721973
 20
418.6264618917625
 30
0.0
 10
211.0838811398834
 20
418.5500574182228
 30
0.0
 10
212.0970707237973
 20
418.3681278444126
 30
0.0
 10
212.5991719613067
 20
418.2624562088161
 30
0.0
 10
214.0922076993135
 20
417.902016860194
 30
0.0
 10
215.0699196575791
 20
417.6039733996084
 30
0.0
 10
216.5100258770396
 20
417.0703022743028
 30
0.0
 10
216.9856396362659
 20
416.877940393851
 30
0.0
 10
217.9278842087528
 20
416.4638165603183
 30
0.0
 10
218.3955630662973
 20
416.2415114841622
 30
0.0
 10
220.6989985344527
 20
415.0606846116324
 30
0.0
 10
222.3954047303383
 20
413.9169474453169
 30
0.0
 10
224.3383713579467
 20
412.2457590379375
 30
0.0
 10
224.7179694296696
 20
411.8992847191632
 30
0.0
 10
225.4588308016932
 20
411.1813944898748
 30
0.0
 10
225.8210987538849
 20
410.8087894809475
 30
0.0
 10
226.867096929274
 20
409.6666066563405
 30
0.0
 10
227.51332016053
 20
408.8702215843028
 30
0.0
 10
228.7065198035453
 20
407.2096221962204
 30
0.0
 10
229.2534902972004
 20
406.3454038355068
 30
0.0
 10
229.9985582301632
 20
404.9975532530195
 30
0.0
 10
230.2343174025875
 20
404.5396605652505
 30
0.0
 10
230.680074524804
 20
403.6062689403166
 30
0.0
 10
230.8895188795037
 20
403.1316589735948
 30
0.0
 10
231.8587303832466
 20
400.7460083433625
 30
0.0
 10
232.3991316268164
 20
398.7744385121654
 30
0.0
 10
232.8586668128038
 20
395.7228814838015
 30
0.0
 10
232.9521811398871
 20
394.6851432235695
 30
0.0
 10
233.0145949901369
 20
392.6303837950594
 30
0.0
 10
232.9848982564265
 20
391.6075934789785
 30
0.0
 10
232.8056926408936
 20
389.5710412970635
 30
0.0
 10
232.6561875640704
 20
388.5572791445035
 30
0.0
 10
232.3397532819165
 20
387.0435818928798
 30
0.0
 10
232.2185612982034
 20
386.53913321167
 30
0.0
 10
231.94640242574
 20
385.5393458885877
 30
0.0
 10
231.7954718266571
 20
385.0437989570398
 30
0.0
 10
231.6296609049485
 20
384.5526072901478
 30
0.0
  0
LINE
  5
67
330
1F
100
AcDbEntity
  8
0
  6
Continuous
 62
     7
370
    15
100
AcDbLine
 10
260.9301089171
 20
366.7313451167
 30
0.0
 11
256.7913434383
 21
366.5744184471
 31
0.0
  0
LINE
  5
68
330
1F
100
AcDbEntity
  8
0
  6
Continuous
 62
     7
370
    15
100
AcDbLine
 10
153.0606397091
 20
366.7313451167
 30
0.0
 11
153.9901023559
 21
366.696103333
 31
0.0
  0
SPLINE
  5
69
330
1F
100
AcDbEntity
  8
0
  6
Continuous
 62
     7
370
    15
100
AcDbSpline
210
0.0
220
0.0
230
1.0
 70
     8
 71
     3
 72
    11
 73
     7
 74
     0
 42
0.00000001
 43
0.00000001
 40
0.0
 40
0.0
 40
0.0
 40
0.0
 40
0.0321108125078591
 40
0.3388646161226411
 40
0.6776644878925111
 40
1.0
 40
1.0
 40
1.0
 40
1.0
 10
225.7023718306712
 20
365.5462056493157
 30
0.0
 10
226.3247173067282
 20
365.5525548119304
 30
0.0
 10
232.8923138379
 20
365.6195573691409
 30
0.0
 10
246.020426628551
 20
366.0518701574233
 30
0.0
 10
264.7620594724605
 20
366.8534460944027
 30
0.0
 10
277.5459147318618
 20
367.7133328233876
 30
0.0
 10
283.7786631707376
 20
368.1325692398628
 30
0.0
  0
SPLINE
  5
6A
330
1F
100
AcDbEntity
  8
0
  6
Continuous
 62
     7
370
    15
100
AcDbSpline
210
0.0
220
0.0
230
1.0
 70
     8
 71
     3
 72
    14
 73
    10
 74
     0
 42
0.00000001
 43
0.00000001
 40
0.0
 40
0.0
 40
0.0
 40
0.0
 40
0.0321092533761194
 40
0.1854805617229586
 40
0.3388633416900657
 40
0.5082562949688703
 40
0.6776640791386923
 40
0.838825801996917
 40
1.0
 40
1.0
 40
1.0
 40
1.0
 10
188.2881788882234
 20
365.5384133377002
 30
0.0
 10
187.6658999489194
 20
365.5474077701782
 30
0.0
 10
184.0712773689897
 20
365.5993645182485
 30
0.0
 10
177.5055796182409
 20
365.7671984097691
 30
0.0
 10
168.2818376541879
 20
366.0554929588205
 30
0.0
 10
158.7507799064924
 20
366.4436784712746
 30
0.0
 10
149.0734087304109
 20
366.9269876447791
 30
0.0
 10
139.5596980556567
 20
367.4824926305777
 30
0.0
 10
133.3280367154202
 20
367.9158714458474
 30
0.0
 10
130.2120854554562
 20
368.1325692398629
 30
0.0
  0
SPLINE
  5
6B
330
1F
100
AcDbEntity
  8
0
  6
Continuous
 62
     7
370
    15
100
AcDbSpline
210
0.0
220
0.0
230
1.0
 70
     8
 71
     3
 72
    14
 73
    10
 74
     0
 42
0.00000001
 43
0.00000001
 40
0.0
 40
0.0
 40
0.0
 40
0.0
 40
0.2499999999999998
 40
0.2499999999999998
 40
0.4999999999999997
 40
0.4999999999999997
 40
0.7499999999999997
 40
0.7499999999999997
 40
1.0
 40
1.0
 40
1.0
 40
1.0
 10
130.2120854554565
 20
417.6041724421129
 30
0.0
 10
136.5994353338888
 20
418.0646584231915
 30
0.0
 10
142.9908279213124
 20
418.467674580731
 30
0.0
 10
155.7790976758561
 20
419.1586284597741
 30
0.0
 10
162.1762642440548
 20
419.4465898123789
 30
0.0
 10
174.9767208630772
 20
419.9074346874771
 30
0.0
 10
181.3786133949903
 20
420.080268170574
 30
0.0
 10
194.1858764571732
 20
420.31074541561
 30
0.0
 10
200.5903483681583
 20
420.3683708409881
 30
0.0
 10
206.995374313097
 20
420.3683708409881
 30
0.0
  0
SPLINE
  5
6C
330
1F
100
AcDbEntity
  8
0
  6
Continuous
 62
     7
370
    15
100
AcDbSpline
210
0.0
220
0.0
230
1.0
 70
     8
 71
     3
 72
    14
 73
    10
 74
     0
 42
0.00000001
 43
0.00000001
 40
0.0
 40
0.0
 40
0.0
 40
0.0
 40
0.2499999999999998
 40
0.2499999999999998
 40
0.4999999999999997
 40
0.4999999999999997
 40
0.7499999999999997
 40
0.7499999999999997
 40
1.0
 40
1.0
 40
1.0
 40
1.0
 10
283.7786631707373
 20
417.6041724421129
 30
0.0
 10
277.391313292305
 20
418.0646584231915
 30
0.0
 10
270.9999207048816
 20
418.467674580731
 30
0.0
 10
258.2116509503377
 20
419.1586284597741
 30
0.0
 10
251.8144843821391
 20
419.4465898123789
 30
0.0
 10
239.0140277631166
 20
419.9074346874771
 30
0.0
 10
232.6121352312036
 20
420.080268170574
 30
0.0
 10
219.8048721690207
 20
420.31074541561
 30
0.0
 10
213.4004002580356
 20
420.3683708409881
 30
0.0
 10
206.9953743130969
 20
420.3683708409881
 30
0.0
  0
SPLINE
  5
6D
330
1F
100
AcDbEntity
  8
0
  6
Continuous
 62
     7
370
    15
100
AcDbSpline
210
0.0
220
0.0
230
1.0
 70
     8
 71
     3
 72
    62
 73
    58
 74
     0
 42
0.00000001
 43
0.00000001
 40
0.0
 40
0.0
 40
0.0
 40
0.0
 40
0.0312500000000001
 40
0.0312500000000001
 40
0.0625000000000002
 40
0.0625000000000002
 40
0.1250000000000004
 40
0.1250000000000004
 40
0.1562500000000007
 40
0.1562500000000007
 40
0.1718750000000008
 40
0.1718750000000008
 40
0.187500000000001
 40
0.187500000000001
 40
0.2500000000000016
 40
0.2500000000000016
 40
0.2656250000000016
 40
0.2656250000000016
 40
0.2812500000000017
 40
0.2812500000000017
 40
0.3125000000000018
 40
0.3125000000000018
 40
0.3750000000000023
 40
0.3750000000000023
 40
0.4062500000000024
 40
0.4062500000000024
 40
0.4375000000000026
 40
0.4375000000000026
 40
0.500000000000003
 40
0.500000000000003
 40
0.5625000000000033
 40
0.5625000000000033
 40
0.5937500000000034
 40
0.5937500000000034
 40
0.6250000000000036
 40
0.6250000000000036
 40
0.6875000000000037
 40
0.6875000000000037
 40
0.7187500000000038
 40
0.7187500000000038
 40
0.7343750000000038
 40
0.7343750000000038
 40
0.7500000000000039
 40
0.7500000000000039
 40
0.8125000000000049
 40
0.8125000000000049
 40
0.8281250000000049
 40
0.8281250000000049
 40
0.8437500000000048
 40
0.8437500000000048
 40
0.875000000000004
 40
0.875000000000004
 40
0.937500000000002
 40
0.937500000000002
 40
0.968750000000001
 40
0.968750000000001
 40
1.0
 40
1.0
 40
1.0
 40
1.0
 10
130.1593543202761
 20
368.1364273147311
 30
0.0
 10
129.3814243284046
 20
368.1941783368687
 30
0.0
 10
128.6088826600927
 20
368.288354135912
 30
0.0
 10
127.0745290201286
 20
368.5490199339357
 30
0.0
 10
126.3101948779875
 20
368.7163560264492
 30
0.0
 10
124.0639407880424
 20
369.3197678785612
 30
0.0
 10
122.6215930334779
 20
369.8564939755674
 30
0.0
 10
120.5392669621432
 20
370.8594824671906
 30
0.0
 10
119.8587781383177
 20
371.2270080511843
 30
0.0
 10
118.85909681719
 20
371.8296065931069
 30
0.0
 10
118.5294659290542
 20
372.0390653073488
 30
0.0
 10
117.8842194959358
 20
372.470675693074
 30
0.0
 10
117.5677023607789
 20
372.6933531197386
 30
0.0
 10
116.015163054025
 20
373.84055498161
 30
0.0
 10
114.8685035241099
 20
374.8656482853277
 30
0.0
 10
113.5545868415427
 20
376.2814304937937
 30
0.0
 10
113.2978225328318
 20
376.5713624281401
 30
0.0
 10
112.7965371458164
 20
377.1650088694744
 30
0.0
 10
112.5514896622203
 20
377.4694598315033
 30
0.0
 10
111.8418814855933
 20
378.3949065276218
 30
0.0
 10
111.4010426484827
 20
379.0297775377861
 30
0.0
 10
110.1725306216196
 20
380.9866142994829
 30
0.0
 10
109.4780528048173
 20
382.3603548699555
 30
0.0
 10
108.6273446159092
 20
384.5270741815935
 30
0.0
 10
108.3759203205013
 20
385.2683598873329
 30
0.0
 10
107.9480584405742
 20
386.755648637981
 30
0.0
 10
107.7699670886408
 20
387.5054171957036
 30
0.0
 10
107.3412924440212
 20
389.7727682887009
 30
0.0
 10
107.1953574240992
 20
391.3083035798929
 30
0.0
 10
107.195391205001
 20
394.4289750162583
 30
0.0
 10
107.3413470986622
 20
395.9644657515753
 30
0.0
 10
107.7701094398176
 20
398.2319757123237
 30
0.0
 10
107.9482392816819
 20
398.9818176534212
 30
0.0
 10
108.3762099800522
 20
400.4692925848416
 30
0.0
 10
108.6276954458972
 20
401.2106394038094
 30
0.0
 10
109.4783554210542
 20
403.3770007171735
 30
0.0
 10
110.1728203165509
 20
404.7506716385647
 30
0.0
 10
111.4014633409449
 20
406.7075928084663
 30
0.0
 10
111.8423708861214
 20
407.3425237772814
 30
0.0
 10
112.5521376319431
 20
408.2681016811148
 30
0.0
 10
112.7971800967412
 20
408.5725170945564
 30
0.0
 10
113.2983966066122
 20
409.166036175802
 30
0.0
 10
113.5551320002957
 20
409.4559161952218
 30
0.0
 10
114.8689375105313
 20
410.8714906091088
 30
0.0
 10
116.0156146992596
 20
411.8965811019443
 30
0.0
 10
117.5683773389567
 20
413.0438721296509
 30
0.0
 10
117.8849493476289
 20
413.266572217556
 30
0.0
 10
118.5303291241695
 20
413.6982357028941
 30
0.0
 10
118.860038522233
 20
413.9077215988794
 30
0.0
 10
119.859543877381
 20
414.5101574179999
 30
0.0
 10
120.5399430996661
 20
414.8776085856614
 30
0.0
 10
122.6220992824376
 20
415.8804441232558
 30
0.0
 10
124.0644301119788
 20
416.4171501927609
 30
0.0
 10
126.3109559606766
 20
417.0205676192232
 30
0.0
 10
127.0753606408118
 20
417.1878906120502
 30
0.0
 10
128.6097607584992
 20
417.448509109303
 30
0.0
 10
129.3823279530203
 20
417.542659213394
 30
0.0
 10
130.1602650002908
 20
417.600381956343
 30
0.0
  0
SPLINE
  5
6E
330
1F
100
AcDbEntity
  8
0
  6
Continuous
 62
     7
370
    15
100
AcDbSpline
210
0.0
220
0.0
230
1.0
 70
     8
 71
     3
 72
    62
 73
    58
 74
     0
 42
0.00000001
 43
0.00000001
 40
0.0
 40
0.0
 40
0.0
 40
0.0
 40
0.0312500000000001
 40
0.0312500000000001
 40
0.0625000000000002
 40
0.0625000000000002
 40
0.1250000000000004
 40
0.1250000000000004
 40
0.1562500000000007
 40
0.1562500000000007
 40
0.1718750000000008
 40
0.1718750000000008
 40
0.187500000000001
 40
0.187500000000001
 40
0.2500000000000016
 40
0.2500000000000016
 40
0.2656250000000016
 40
0.2656250000000016
 40
0.2812500000000017
 40
0.2812500000000017
 40
0.3125000000000018
 40
0.3125000000000018
 40
0.3750000000000023
 40
0.3750000000000023
 40
0.4062500000000024
 40
0.4062500000000024
 40
0.4375000000000026
 40
0.4375000000000026
 40
0.500000000000003
 40
0.500000000000003
 40
0.5625000000000033
 40
0.5625000000000033
 40
0.5937500000000034
 40
0.5937500000000034
 40
0.6250000000000036
 40
0.6250000000000036
 40
0.6875000000000037
 40
0.6875000000000037
 40
0.7187500000000038
 40
0.7187500000000038
 40
0.7343750000000038
 40
0.7343750000000038
 40
0.7500000000000039
 40
0.7500000000000039
 40
0.8125000000000049
 40
0.8125000000000049
 40
0.8281250000000049
 40
0.8281250000000049
 40
0.8437500000000048
 40
0.8437500000000048
 40
0.875000000000004
 40
0.875000000000004
 40
0.937500000000002
 40
0.937500000000002
 40
0.968750000000001
 40
0.968750000000001
 40
1.0
 40
1.0
 40
1.0
 40
1.0
 10
283.8313943059177
 20
368.1364273147311
 30
0.0
 10
284.6093242977893
 20
368.1941783368687
 30
0.0
 10
285.3818659661011
 20
368.288354135912
 30
0.0
 10
286.9162196060653
 20
368.5490199339357
 30
0.0
 10
287.6805537482063
 20
368.7163560264492
 30
0.0
 10
289.9268078381515
 20
369.3197678785612
 30
0.0
 10
291.369155592716
 20
369.8564939755674
 30
0.0
 10
293.4514816640506
 20
370.8594824671906
 30
0.0
 10
294.1319704878762
 20
371.2270080511843
 30
0.0
 10
295.1316518090039
 20
371.8296065931069
 30
0.0
 10
295.4612826971396
 20
372.0390653073488
 30
0.0
 10
296.1065291302581
 20
372.470675693074
 30
0.0
 10
296.423046265415
 20
372.6933531197386
 30
0.0
 10
297.9755855721689
 20
373.84055498161
 30
0.0
 10
299.122245102084
 20
374.8656482853277
 30
0.0
 10
300.4361617846512
 20
376.2814304937937
 30
0.0
 10
300.6929260933621
 20
376.5713624281401
 30
0.0
 10
301.1942114803775
 20
377.1650088694744
 30
0.0
 10
301.4392589639736
 20
377.4694598315033
 30
0.0
 10
302.1488671406006
 20
378.3949065276218
 30
0.0
 10
302.5897059777112
 20
379.0297775377861
 30
0.0
 10
303.8182180045742
 20
380.9866142994829
 30
0.0
 10
304.5126958213765
 20
382.3603548699555
 30
0.0
 10
305.3634040102846
 20
384.5270741815935
 30
0.0
 10
305.6148283056925
 20
385.2683598873329
 30
0.0
 10
306.0426901856197
 20
386.755648637981
 30
0.0
 10
306.2207815375531
 20
387.5054171957036
 30
0.0
 10
306.6494561821727
 20
389.7727682887009
 30
0.0
 10
306.7953912020947
 20
391.3083035798929
 30
0.0
 10
306.7953574211929
 20
394.4289750162583
 30
0.0
 10
306.6494015275317
 20
395.9644657515753
 30
0.0
 10
306.2206391863763
 20
398.2319757123237
 30
0.0
 10
306.042509344512
 20
398.9818176534212
 30
0.0
 10
305.6145386461416
 20
400.4692925848416
 30
0.0
 10
305.3630531802967
 20
401.2106394038094
 30
0.0
 10
304.5123932051397
 20
403.3770007171735
 30
0.0
 10
303.817928309643
 20
404.7506716385647
 30
0.0
 10
302.589285285249
 20
406.7075928084663
 30
0.0
 10
302.1483777400724
 20
407.3425237772814
 30
0.0
 10
301.4386109942508
 20
408.2681016811148
 30
0.0
 10
301.1935685294526
 20
408.5725170945564
 30
0.0
 10
300.6923520195817
 20
409.166036175802
 30
0.0
 10
300.4356166258982
 20
409.4559161952218
 30
0.0
 10
299.1218111156625
 20
410.8714906091088
 30
0.0
 10
297.9751339269343
 20
411.8965811019443
 30
0.0
 10
296.4223712872371
 20
413.0438721296509
 30
0.0
 10
296.105799278565
 20
413.266572217556
 30
0.0
 10
295.4604195020244
 20
413.6982357028941
 30
0.0
 10
295.1307101039608
 20
413.9077215988794
 30
0.0
 10
294.1312047488129
 20
414.5101574179999
 30
0.0
 10
293.4508055265278
 20
414.8776085856614
 30
0.0
 10
291.3686493437563
 20
415.8804441232558
 30
0.0
 10
289.926318514215
 20
416.4171501927609
 30
0.0
 10
287.6797926655173
 20
417.0205676192232
 30
0.0
 10
286.9153879853821
 20
417.1878906120502
 30
0.0
 10
285.3809878676947
 20
417.448509109303
 30
0.0
 10
284.6084206731735
 20
417.542659213394
 30
0.0
 10
283.8304836259031
 20
417.600381956343
 30
0.0
  0
SPLINE
  5
6F
330
1F
100
AcDbEntity
  8
0
  6
Continuous
 62
     7
370
    15
100
AcDbSpline
210
0.0
220
0.0
230
1.0
 70
     8
 71
     3
 72
     8
 73
     4
 74
     0
 42
0.00000001
 43
0.00000001
 40
0.0
 40
0.0
 40
0.0
 40
0.0
 40
0.0000519666557565
 40
0.0000519666557565
 40
0.0000519666557565
 40
0.0000519666557565
 10
283.8304836219177
 20
417.6003819566387
 30
0.0
 10
283.8132114212449
 20
417.6016635497971
 30
0.0
 10
283.795937918092
 20
417.6029270462702
 30
0.0
 10
283.7786631707373
 20
417.6041724421128
 30
0.0
  0
SPLINE
  5
70
330
1F
100
AcDbEntity
  8
0
  6
Continuous
 62
     7
370
    15
100
AcDbSpline
210
0.0
220
0.0
230
1.0
 70
     8
 71
     3
 72
     8
 73
     4
 74
     0
 42
0.00000001
 43
0.00000001
 40
0.0
 40
0.0
 40
0.0
 40
0.0
 40
0.0000519666557565
 40
0.0000519666557565
 40
0.0000519666557565
 40
0.0000519666557565
 10
130.1602650042762
 20
417.6003819566387
 30
0.0
 10
130.1775372049489
 20
417.6016635497971
 30
0.0
 10
130.1948107081018
 20
417.6029270462702
 30
0.0
 10
130.2120854554566
 20
417.6041724421128
 30
0.0
  0
SPLINE
  5
71
330
1F
100
AcDbEntity
  8
0
  6
Continuous
 62
     7
370
    15
100
AcDbSpline
210
0.0
220
0.0
230
1.0
 70
     8
 71
     3
 72
     8
 73
     4
 74
     0
 42
0.00000001
 43
0.00000001
 40
0.0
 40
0.0
 40
0.0
 40
0.0
 40
0.0000528796280679
 40
0.0000528796280679
 40
0.0000528796280679
 40
0.0000528796280679
 10
283.7786631707376
 20
368.1325692398631
 30
0.0
 10
283.7962415244366
 20
368.1338365237294
 30
0.0
 10
283.8138185896775
 20
368.1351225500508
 30
0.0
 10
283.831394305002
 20
368.1364273146632
 30
0.0
  0
SPLINE
  5
72
330
1F
100
AcDbEntity
  8
0
  6
Continuous
 62
     7
370
    15
100
AcDbSpline
210
0.0
220
0.0
230
1.0
 70
     8
 71
     3
 72
     8
 73
     4
 74
     0
 42
0.00000001
 43
0.00000001
 40
0.0
 40
0.0
 40
0.0
 40
0.0
 40
0.0000528796280679
 40
0.0000528796280679
 40
0.0000528796280679
 40
0.0000528796280679
 10
130.2120854554563
 20
368.1325692398631
 30
0.0
 10
130.1945071017572
 20
368.1338365237294
 30
0.0
 10
130.1769300365164
 20
368.1351225500508
 30
0.0
 10
130.1593543211918
 20
368.1364273146632
 30
0.0
  0
LWPOLYLINE
  5
73
330
1F
100
AcDbEntity
  8
0
  6
Continuous
 62
     7
370
    15
100
AcDbPolyline
 90
        3
 70
   128
 43
0.0
 10
130.2120854555
 20
368.1325692399
 10
127.4824295055
 20
368.4824460243
 10
125.5383483889
 20
368.923709302
  0
LWPOLYLINE
  5
74
330
1F
100
AcDbEntity
  8
0
  6
Continuous
 62
     7
370
    15
100
AcDbPolyline
 90
        3
 70
   128
 43
0.0
 10
126.5789894781
 20
417.069667817
 10
127.4824295055
 20
417.2542956576
 10
130.2120854555
 20
417.6041724421
  0
ARC
  5
75
330
1F
100
AcDbEntity
  8
0
  6
Continuous
 62
     7
370
    15
100
AcDbCircle
 10
281.9953743131
 20
392.868370841
 30
0.0
 40
24.79999999999987
100
AcDbArc
 50
274.1235153815
 51
85.8764846185
  0
ARC
  5
76
330
1F
100
AcDbEntity
  8
0
  6
Continuous
 62
     7
370
    15
100
AcDbCircle
 10
281.9953743131
 20
392.868370841
 30
0.0
 40
35.05541344904218
100
AcDbArc
 50
228.6193908541
 51
131.3005624097
  0
ARC
  5
77
330
1F
100
AcDbEntity
  8
0
  6
Continuous
 62
     7
370
    15
100
AcDbCircle
 10
131.9953743131
 20
392.868370841
 30
0.0
 40
35.05541344904217
100
AcDbArc
 50
132.1550716395
 51
311.5378090399
  0
ARC
  5
78
330
1F
100
AcDbEntity
  8
0
  6
Continuous
 62
     7
370
    15
100
AcDbCircle
 10
131.9953743131
 20
392.868370841
 30
0.0
 40
35.05541344904217
100
AcDbArc
 50
48.6026956153
 51
132.1550716395
  0
LINE
  5
79
330
1F
100
AcDbEntity
  8
0
  6
Continuous
 62
     8
370
     0
100
AcDbLine
 10
182.3611872432
 20
384.5523124228
 30
0.0
 11
182.3689651475
 21
384.5301414559
 31
0.0
  0
LINE
  5
7A
330
1F
100
AcDbEntity
  8
0
  6
Continuous
 62
     8
370
     0
100
AcDbLine
 10
231.6295607991
 20
384.5523107466
 30
0.0
 11
231.6199208457
 21
384.5243262636
 31
0.0
  0
SPLINE
  5
7B
330
1F
100
AcDbEntity
  8
0
  6
Continuous
 62
     8
370
     0
100
AcDbSpline
210
0.0
220
0.0
230
1.0
 70
     8
 71
     3
 72
    78
 73
    74
 74
     0
 42
0.00000001
 43
0.00000001
 40
0.0
 40
0.0
 40
0.0
 40
0.0
 40
0.0156249999999999
 40
0.0156249999999999
 40
0.0312499999999999
 40
0.0312499999999999
 40
0.0624999999999998
 40
0.0624999999999998
 40
0.0937499999999996
 40
0.0937499999999996
 40
0.1249999999999995
 40
0.1249999999999995
 40
0.1874999999999993
 40
0.1874999999999993
 40
0.2031249999999992
 40
0.2031249999999992
 40
0.2187499999999992
 40
0.2187499999999992
 40
0.2499999999999992
 40
0.2499999999999992
 40
0.2812499999999991
 40
0.2812499999999991
 40
0.2968749999999991
 40
0.2968749999999991
 40
0.3124999999999991
 40
0.3124999999999991
 40
0.3749999999999992
 40
0.3749999999999992
 40
0.3906249999999993
 40
0.3906249999999993
 40
0.4062499999999994
 40
0.4062499999999994
 40
0.4374999999999996
 40
0.4374999999999996
 40
0.4531249999999996
 40
0.4531249999999996
 40
0.4687499999999996
 40
0.4687499999999996
 40
0.4999999999999998
 40
0.4999999999999998
 40
0.5312499999999999
 40
0.5312499999999999
 40
0.5468749999999999
 40
0.5468749999999999
 40
0.5624999999999999
 40
0.5624999999999999
 40
0.6250000000000002
 40
0.6250000000000002
 40
0.6406250000000002
 40
0.6406250000000002
 40
0.6562500000000003
 40
0.6562500000000003
 40
0.6875000000000003
 40
0.6875000000000003
 40
0.7187500000000004
 40
0.7187500000000004
 40
0.7500000000000006
 40
0.7500000000000006
 40
0.8125000000000004
 40
0.8125000000000004
 40
0.8281250000000004
 40
0.8281250000000004
 40
0.8437500000000003
 40
0.8437500000000003
 40
0.8750000000000003
 40
0.8750000000000003
 40
0.9062500000000003
 40
0.9062500000000003
 40
0.9218750000000002
 40
0.9218750000000002
 40
0.9375000000000001
 40
0.9375000000000001
 40
1.0
 40
1.0
 40
1.0
 40
1.0
 10
230.5498326959358
 20
384.9168045351791
 30
0.0
 10
230.7083810108203
 20
385.3864640031119
 30
0.0
 10
230.8527013249064
 20
385.8602877529568
 30
0.0
 10
231.1129417765566
 20
386.816247467024
 30
0.0
 10
231.2288275037172
 20
387.2985837184601
 30
0.0
 10
231.5314094353055
 20
388.7459284745564
 30
0.0
 10
231.6743733000046
 20
389.7152523754937
 30
0.0
 10
231.8457486167104
 20
391.6625317206986
 30
0.0
 10
231.8741564270785
 20
392.6404874393144
 30
0.0
 10
231.8145052417799
 20
394.6051746903923
 30
0.0
 10
231.7251041027182
 20
395.5974243991545
 30
0.0
 10
231.2857533484326
 20
398.5152261935252
 30
0.0
 10
230.769067784915
 20
400.4003778311651
 30
0.0
 10
229.8423787677725
 20
402.6814606194728
 30
0.0
 10
229.6421233506013
 20
403.1352668837288
 30
0.0
 10
229.2159191061089
 20
404.0277510236844
 30
0.0
 10
228.9905009701261
 20
404.4655758170518
 30
0.0
 10
228.2781127229673
 20
405.7543548458645
 30
0.0
 10
227.7551318127668
 20
406.58069782196
 30
0.0
 10
226.6142629872851
 20
408.1685205023516
 30
0.0
 10
225.9963807264859
 20
408.9300040709881
 30
0.0
 10
224.996255518353
 20
410.0221320350712
 30
0.0
 10
224.6498736479406
 20
410.3784096872095
 30
0.0
 10
223.9414985089951
 20
411.0648441200931
 30
0.0
 10
223.5785453982748
 20
411.3961371874143
 30
0.0
 10
221.7207752175354
 20
412.9941014389662
 30
0.0
 10
220.0987524958896
 20
414.0877291771467
 30
0.0
 10
217.896317881144
 20
415.2168310683022
 30
0.0
 10
217.4491411583395
 20
415.4294010895974
 30
0.0
 10
216.5482060369706
 20
415.8253893810526
 30
0.0
 10
216.0934438961135
 20
416.0093278616752
 30
0.0
 10
214.7164740714495
 20
416.5196319927342
 30
0.0
 10
213.7816264366145
 20
416.8046285413658
 30
0.0
 10
212.3540477138787
 20
417.1492956154852
 30
0.0
 10
211.8739594011027
 20
417.2503444718294
 30
0.0
 10
210.9051897536061
 20
417.4243182333366
 30
0.0
 10
210.4152693977397
 20
417.4973830966813
 30
0.0
 10
208.9409140073166
 20
417.6722726457523
 30
0.0
 10
207.9604454500637
 20
417.7292701583201
 30
0.0
 10
206.0042080544362
 20
417.7282429664146
 30
0.0
 10
205.028439698355
 20
417.6702064583806
 30
0.0
 10
203.5683361146097
 20
417.4962933204177
 30
0.0
 10
203.0822279275956
 20
417.4238087789675
 30
0.0
 10
202.1112205430975
 20
417.2492503544009
 30
0.0
 10
201.6249705375264
 20
417.1467820973238
 30
0.0
 10
199.2265845283595
 20
416.566093678763
 30
0.0
 10
197.3943475725388
 20
415.8839124683806
 30
0.0
 10
195.2104274131759
 20
414.7634610099921
 30
0.0
 10
194.7790322923551
 20
414.5258080226785
 30
0.0
 10
193.9272652953088
 20
414.0227589864458
 30
0.0
 10
193.5080455329986
 20
413.7579219899039
 30
0.0
 10
192.2832702762744
 20
412.9323342044692
 30
0.0
 10
191.5052873226449
 20
412.3376132749903
 30
0.0
 10
190.0246725969213
 20
411.0614880522156
 30
0.0
 10
189.3220416285126
 20
410.3800828351126
 30
0.0
 10
187.9936161888976
 20
408.9288803576392
 30
0.0
 10
187.3659218920097
 20
408.1552718720544
 30
0.0
 10
185.6478638354875
 20
405.7596647725999
 30
0.0
 10
184.7032588092634
 20
404.0482136464913
 30
0.0
 10
183.7759635630278
 20
401.7644990212594
 30
0.0
 10
183.6028608553222
 20
401.2988720986246
 30
0.0
 10
183.2864847516844
 20
400.3631406891765
 30
0.0
 10
183.1429161349571
 20
399.8926073532381
 30
0.0
 10
182.7551683858428
 20
398.4731686920197
 30
0.0
 10
182.5538010692411
 20
397.5164514054659
 30
0.0
 10
182.2642336653829
 20
395.5823668734944
 30
0.0
 10
182.1760244225311
 20
394.6050012984965
 30
0.0
 10
182.131377582024
 20
393.1229560251048
 30
0.0
 10
182.1312820701319
 20
392.6265429489225
 30
0.0
 10
182.1603841360613
 20
391.6416697066992
 30
0.0
 10
182.1895040882892
 20
391.151537611417
 30
0.0
 10
182.4066895685507
 20
388.7122006316592
 30
0.0
 10
182.8064850833495
 20
386.7964873688867
 30
0.0
 10
183.4405921677388
 20
384.9178379024745
 30
0.0
  0
SPLINE
  5
7C
330
1F
100
AcDbEntity
  8
0
  6
Continuous
 62
     8
370
     0
100
AcDbSpline
210
0.0
220
0.0
230
1.0
 70
     8
 71
     3
 72
    57
 73
    53
 74
     0
 42
0.00000001
 43
0.00000001
 40
0.0
 40
0.0
 40
0.0
 40
0.0
 40
0.0092832394887431
 40
0.0186287259948427
 40
0.0280397547105594
 40
0.0375176707859776
 40
0.0470618237144031
 40
0.0566694463055493
 40
0.0663362718660614
 40
0.0760579677313215
 40
0.0858306113606676
 40
0.0956404751471771
 40
0.1054647880830236
 40
0.1153132997566114
 40
0.1251890026592804
 40
0.1528542858563354
 40
0.1790496138765979
 40
0.2040151054676071
 40
0.227757312338452
 40
0.2502318483836344
 40
0.2842640808482086
 40
0.3371953356296907
 40
0.4090592140500127
 40
0.4999091228445839
 40
0.5550476447810936
 40
0.6245235864907746
 40
0.665501210346726
 40
0.6867205230134334
 40
0.7014315562890138
 40
0.7166850064649997
 40
0.7325247281809414
 40
0.7491042472945684
 40
0.7669608855525066
 40
0.7804156898833918
 40
0.796199679320173
 40
0.811949767177214
 40
0.8424904396797221
 40
0.8745987573479315
 40
0.8834303850138587
 40
0.8922733608780514
 40
0.9011492542005007
 40
0.9100804840112738
 40
0.9190628284785405
 40
0.9280072928454547
 40
0.9369234025228718
 40
0.9458328911820493
 40
0.954758144031249
 40
0.9637237258551276
 40
0.9727572333410279
 40
0.9818418301725289
 40
0.9909194887343521
 40
1.0
 40
1.0
 40
1.0
 40
1.0
 10
183.4405786154258
 20
384.917832714492
 30
0.0
 10
183.5318739537816
 20
384.6514080678201
 30
0.0
 10
183.7150767942229
 20
384.1167723140895
 30
0.0
 10
184.002886588875
 20
383.3162555472157
 30
0.0
 10
184.301391209182
 20
382.5133766014583
 30
0.0
 10
184.6118081407408
 20
381.7085566921961
 30
0.0
 10
184.9339983978251
 20
380.9019544164902
 30
0.0
 10
185.267587995985
 20
380.0937984621868
 30
0.0
 10
185.611239058965
 20
379.2840219484238
 30
0.0
 10
185.9626872632386
 20
378.4721479158458
 30
0.0
 10
186.3187529955709
 20
377.6575553885679
 30
0.0
 10
186.6760451410906
 20
376.840098654745
 30
0.0
 10
187.0261410612438
 20
376.0170036043752
 30
0.0
 10
187.3603970021821
 20
375.1851193050325
 30
0.0
 10
187.8601897368505
 20
373.8369878237092
 30
0.0
 10
188.4215116527239
 20
371.983367028617
 30
0.0
 10
188.9088071924079
 20
369.6398282683079
 30
0.0
 10
189.2327981436663
 20
367.3898538059144
 30
0.0
 10
189.4631110301656
 20
365.2424167619689
 30
0.0
 10
189.6657847147143
 20
362.8161732988963
 30
0.0
 10
189.8724234008691
 20
359.5022846831515
 30
0.0
 10
190.0679264136861
 20
354.6874895715428
 30
0.0
 10
190.2185353183571
 20
348.1469458648108
 30
0.0
 10
190.320394955479
 20
341.538648858093
 30
0.0
 10
190.4686554863372
 20
335.0036745692097
 30
0.0
 10
190.5895165159186
 20
329.9814979735943
 30
0.0
 10
190.6772920270157
 20
325.9878527413408
 30
0.0
 10
190.7286223146857
 20
323.6552222348242
 30
0.0
 10
190.76414604802
 20
322.1028622197061
 30
0.0
 10
190.8010323095673
 20
320.7137025625551
 30
0.0
 10
190.8499939847347
 20
319.2684956725352
 30
0.0
 10
190.9549250610336
 20
317.7450738191454
 30
0.0
 10
191.2338673015791
 20
316.3147846955241
 30
0.0
 10
191.6474022325192
 20
314.9457911829181
 30
0.0
 10
192.1572674187546
 20
313.6773820410978
 30
0.0
 10
193.0184434730527
 20
312.0001532178877
 30
0.0
 10
194.3825990425753
 20
310.0365473364084
 30
0.0
 10
195.923131777281
 20
308.4918588035346
 30
0.0
 10
197.1044450113741
 20
307.5503535506464
 30
0.0
 10
197.758674113515
 20
307.0798569957022
 30
0.0
 10
198.4378842991477
 20
306.6407044255759
 30
0.0
 10
199.1417620990442
 20
306.2337322649215
 30
0.0
 10
199.866964669088
 20
305.8615163526595
 30
0.0
 10
200.6095416143448
 20
305.5264154925622
 30
0.0
 10
201.3658643382591
 20
305.2296282280271
 30
0.0
 10
202.1354129362968
 20
304.9708926359095
 30
0.0
 10
202.9182030133572
 20
304.7499169334557
 30
0.0
 10
203.7145997238279
 20
304.5669733532298
 30
0.0
 10
204.5239623850907
 20
304.4231924061306
 30
0.0
 10
205.3431186674117
 20
304.3221543568193
 30
0.0
 10
206.1678867520779
 20
304.2614992289986
 30
0.0
 10
206.7188231460433
 20
304.2549189024028
 30
0.0
 10
206.9943346199192
 20
304.2516282222103
 30
0.0
  0
LWPOLYLINE
  5
7D
330
1F
100
AcDbEntity
  8
0
  6
Continuous
 62
     8
370
     0
100
AcDbPolyline
 90
        7
 70
   128
 43
0.0
 10
206.995732297
 20
303.1117983677
 10
206.9957319101
 20
303.1122498546
 10
206.995680495
 20
303.1719163384
 10
206.9955458122
 20
303.3281710751
 10
206.9953363546
 20
303.5711608057
 10
206.9950653305
 20
303.8855628535
 10
206.9947498302
 20
304.2515513568
  0
SPLINE
  5
7E
330
1F
100
AcDbEntity
  8
0
  6
Continuous
 62
     8
370
     0
100
AcDbSpline
210
0.0
220
0.0
230
1.0
 70
     8
 71
     3
 72
    68
 73
    64
 74
     0
 42
0.00000001
 43
0.00000001
 40
0.0
 40
0.0
 40
0.0
 40
0.0
 40
0.0049152098052219
 40
0.0098260805781283
 40
0.0147343768707533
 40
0.0196417992223141
 40
0.0245500629262902
 40
0.0294524649179067
 40
0.034328109918793
 40
0.039180039826211
 40
0.044012889957216
 40
0.0488309546236117
 40
0.0536382477516342
 40
0.0584385424433937
 40
0.063235402931897
 40
0.0680322381721044
 40
0.0728324079321917
 40
0.0776393736570857
 40
0.0824561937462415
 40
0.0872856341798894
 40
0.0921028215689914
 40
0.0968968011138541
 40
0.1016712969622527
 40
0.1064298781160955
 40
0.111175990471208
 40
0.115912991119792
 40
0.1206441827545436
 40
0.1253728471304141
 40
0.1406358186425357
 40
0.1562074383115195
 40
0.1718789982607289
 40
0.1877424412696211
 40
0.2288670750828632
 40
0.2503469134421928
 40
0.2592677602041022
 40
0.2682262628077959
 40
0.2771684278392082
 40
0.286127431729151
 40
0.3126013211805229
 40
0.343854172953251
 40
0.3750972587363028
 40
0.4373453749074102
 40
0.5006959792490426
 40
0.556496564270995
 40
0.6065427639476046
 40
0.6508433914421048
 40
0.689410345262239
 40
0.7222485630511372
 40
0.7493628234155816
 40
0.7799059046770364
 40
0.807659354864618
 40
0.8326354946855394
 40
0.8549617580215039
 40
0.8747948925838983
 40
0.8843014773923831
 40
0.8948958832785112
 40
0.9065982863035034
 40
0.9194341045504654
 40
0.9333731166031316
 40
0.9484073999033044
 40
0.9645270502637433
 40
0.981722240694211
 40
1.0
 40
1.0
 40
1.0
 40
1.0
 10
206.9943347589015
 20
304.2516284232564
 30
0.0
 10
207.1434538386988
 20
304.2525152604533
 30
0.0
 10
207.4415603594557
 20
304.2542881519681
 30
0.0
 10
207.8883133539176
 20
304.2712710448213
 30
0.0
 10
208.3342319385914
 20
304.2994769672831
 30
0.0
 10
208.7791122525094
 20
304.3402887220905
 30
0.0
 10
209.2224809441146
 20
304.3936250198831
 30
0.0
 10
209.6632010808556
 20
304.4594050002823
 30
0.0
 10
210.1002257907428
 20
304.5371696264961
 30
0.0
 10
210.5328946985845
 20
304.6264151068025
 30
0.0
 10
210.9613061448479
 20
304.72685913235
 30
0.0
 10
211.3855815604906
 20
304.8383269952996
 30
0.0
 10
211.8058047080639
 20
304.9607256182196
 30
0.0
 10
212.2220229332703
 20
305.0940249283523
 30
0.0
 10
212.6342513037956
 20
305.2382371101128
 30
0.0
 10
213.0424815960603
 20
305.3933965874823
 30
0.0
 10
213.4466940750204
 20
305.5595496487221
 30
0.0
 10
213.8468536519062
 20
305.7367435232715
 30
0.0
 10
214.2428855278916
 20
305.9250585244887
 30
0.0
 10
214.6339611983925
 20
306.1241457606496
 30
0.0
 10
215.0189180729805
 20
306.3333727982755
 30
0.0
 10
215.3966790216142
 20
306.5520183186344
 30
0.0
 10
215.7669499278162
 20
306.7797445943093
 30
0.0
 10
216.1298111941627
 20
307.016452382428
 30
0.0
 10
216.485324548863
 20
307.2620637331788
 30
0.0
 10
216.8335320225972
 20
307.5165179469997
 30
0.0
 10
217.1744724979659
 20
307.7797757532135
 30
0.0
 10
217.7558216131834
 20
308.253742285732
 30
0.0
 10
218.5538866347833
 20
308.9819393716145
 30
0.0
 10
219.5117358194953
 20
310.0201187046875
 30
0.0
 10
220.3859343277977
 20
311.1533110015351
 30
0.0
 10
221.5712588957688
 20
313.0138203556669
 30
0.0
 10
222.5181843537581
 20
315.2286026306598
 30
0.0
 10
222.9726763121629
 20
317.3575319359118
 30
0.0
 10
223.0924722626841
 20
318.5461675193785
 30
0.0
 10
223.1421362794308
 20
319.3584446056295
 30
0.0
 10
223.1720655766209
 20
320.1727753763234
 30
0.0
 10
223.2141417308175
 20
321.5183316157144
 30
0.0
 10
223.2592274797356
 20
323.5409214367134
 30
0.0
 10
223.3192991467926
 20
326.2393410403369
 30
0.0
 10
223.4024584827089
 20
330.0228244648383
 30
0.0
 10
223.5162677430542
 20
334.7796089861513
 30
0.0
 10
223.6422171346468
 20
340.2813407803687
 30
0.0
 10
223.7336412739292
 20
345.4135181859113
 30
0.0
 10
223.8120805786818
 20
349.9679115488279
 30
0.0
 10
223.9116218459612
 20
353.9989774878044
 30
0.0
 10
224.0339708864665
 20
357.5071171133835
 30
0.0
 10
224.1782672375255
 20
360.4925622694112
 30
0.0
 10
224.3556883304496
 20
363.2323241016703
 30
0.0
 10
224.577379718316
 20
365.8142760652049
 30
0.0
 10
224.8763204568031
 20
368.3234207529364
 30
0.0
 10
225.2563747436739
 20
370.5698682536854
 30
0.0
 10
225.7339312427886
 20
372.5516365996239
 30
0.0
 10
226.2090310291248
 20
374.0466015481957
 30
0.0
 10
226.6300747348036
 20
375.1827061498565
 30
0.0
 10
226.9901089643525
 20
376.0779686490823
 30
0.0
 10
227.4099103138699
 20
377.0576844778269
 30
0.0
 10
227.8788318664528
 20
378.1266454072272
 30
0.0
 10
228.3843179711192
 20
379.2899473042439
 30
0.0
 10
228.9164754760843
 20
380.5502537773009
 30
0.0
 10
229.4622206616565
 20
381.9118035235177
 30
0.0
 10
230.0161803352644
 20
383.3758756154663
 30
0.0
 10
230.3683749860188
 20
384.3928135464903
 30
0.0
 10
230.5498464763554
 20
384.9168000452276
 30
0.0
  0
SPLINE
  5
7F
330
1F
100
AcDbEntity
  8
0
  6
Continuous
 62
     8
370
     0
100
AcDbSpline
210
0.0
220
0.0
230
1.0
 70
     8
 71
     3
 72
    13
 73
     9
 74
     0
 42
0.00000001
 43
0.00000001
 40
0.0
 40
0.0
 40
0.0
 40
0.0
 40
0.1615299988070985
 40
0.3230729491794547
 40
0.4928726941082772
 40
0.6626870970156667
 40
0.9937898648312088
 40
1.0
 40
1.0
 40
1.0
 40
1.0
 10
130.2626304164019
 20
369.12862786763
 30
0.0
 10
133.3758585647465
 20
368.9168972225691
 30
0.0
 10
139.6025644818023
 20
368.4934189557665
 30
0.0
 10
149.1087807407655
 20
367.9563189366951
 30
0.0
 10
158.779183474153
 20
367.4862370401993
 30
0.0
 10
171.7272655206568
 20
366.9968002407735
 30
0.0
 10
181.5212385548152
 20
366.6796149965691
 30
0.0
 10
188.0381673362455
 20
366.6260288885816
 30
0.0
 10
188.1581479484901
 20
366.6250423358265
 30
0.0
  0
SPLINE
  5
80
330
1F
100
AcDbEntity
  8
0
  6
Continuous
 62
     8
370
     0
100
AcDbSpline
210
0.0
220
0.0
230
1.0
 70
     8
 71
     3
 72
    11
 73
     7
 74
     0
 42
0.00000001
 43
0.00000001
 40
-0.00000006
 40
-0.00000006
 40
-0.00000006
 40
-0.00000006
 40
0.0
 40
0.0
 40
0.0
 40
0.0000506231226545
 40
0.0000506231226545
 40
0.0000506231226545
 40
0.0000506231226545
 10
130.2120854554565
 20
369.1322547762279
 30
0.0
 10
130.2121053994154
 20
369.1322533230426
 30
0.0
 10
130.2121253433766
 20
369.1322518698872
 30
0.0
 10
130.2121452873392
 20
369.1322504167539
 30
0.0
 10
130.2289723817465
 20
369.1310243810498
 30
0.0
 10
130.2458007790441
 20
369.1298168631921
 30
0.0
 10
130.2626304164019
 20
369.1286278676299
 30
0.0
  0
SPLINE
  5
81
330
1F
100
AcDbEntity
  8
0
  6
Continuous
 62
     8
370
     0
100
AcDbSpline
210
0.0
220
0.0
230
1.0
 70
     8
 71
     3
 72
    11
 73
     7
 74
     0
 42
0.00000001
 43
0.00000001
 40
0.0
 40
0.0
 40
0.0
 40
0.0
 40
0.0000501449774697
 40
0.0000501449774697
 40
0.0000501449774697
 40
0.0000502049774697
 40
0.0000502049774697
 40
0.0000502049774697
 40
0.0000502049774697
 10
130.2621536025299
 20
416.6081081260725
 30
0.0
 10
130.2454829299421
 20
416.6069321174988
 30
0.0
 10
130.228813471258
 20
416.6057379442877
 30
0.0
 10
130.2121452874269
 20
416.6045256107094
 30
0.0
 10
130.2121253434348
 20
416.6045241601151
 30
0.0
 10
130.2121053994446
 20
416.6045227094948
 30
0.0
 10
130.2120854554563
 20
416.6045212588486
 30
0.0
  0
SPLINE
  5
82
330
1F
100
AcDbEntity
  8
0
  6
Continuous
 62
     8
370
     0
100
AcDbSpline
210
0.0
220
0.0
230
1.0
 70
     8
 71
     3
 72
    14
 73
    10
 74
     0
 42
0.00000001
 43
0.00000001
 40
0.0
 40
0.0
 40
0.0
 40
0.0
 40
0.2500000000000001
 40
0.2500000000000001
 40
0.5000000000000001
 40
0.5000000000000001
 40
0.7500000000000002
 40
0.7500000000000002
 40
1.0
 40
1.0
 40
1.0
 40
1.0
 10
206.995374313097
 20
419.2693827367777
 30
0.0
 10
200.5948777203927
 20
419.2706285474482
 30
0.0
 10
194.1949060305189
 20
419.2158869175296
 30
0.0
 10
181.3965001166879
 20
418.9973459331968
 30
0.0
 10
174.9988924795146
 20
418.833558407285
 30
0.0
 10
162.2067988397098
 20
418.3934582566383
 30
0.0
 10
155.8136612812244
 20
418.1170961056839
 30
0.0
 10
143.0332510646756
 20
417.4495199383735
 30
0.0
 10
136.6456726843595
 20
417.0584242804602
 30
0.0
 10
130.2621536025298
 20
416.6081081260729
 30
0.0
  0
SPLINE
  5
83
330
1F
100
AcDbEntity
  8
0
  6
Continuous
 62
     8
370
     0
100
AcDbSpline
210
0.0
220
0.0
230
1.0
 70
     8
 71
     3
 72
    14
 73
    10
 74
     0
 42
0.00000001
 43
0.00000001
 40
0.0
 40
0.0
 40
0.0
 40
0.0
 40
0.2500000000000001
 40
0.2500000000000001
 40
0.5000000000000001
 40
0.5000000000000001
 40
0.7500000000000002
 40
0.7500000000000002
 40
1.0
 40
1.0
 40
1.0
 40
1.0
 10
206.995374313097
 20
419.2693827367777
 30
0.0
 10
213.3958709058012
 20
419.2706285474482
 30
0.0
 10
219.795842595675
 20
419.2158869175296
 30
0.0
 10
232.594248509506
 20
418.9973459331968
 30
0.0
 10
238.9918561466793
 20
418.833558407285
 30
0.0
 10
251.783949786484
 20
418.3934582566383
 30
0.0
 10
258.1770873449696
 20
418.1170961056839
 30
0.0
 10
270.9574975615182
 20
417.4495199383735
 30
0.0
 10
277.3450759418344
 20
417.0584242804602
 30
0.0
 10
283.728595023664
 20
416.6081081260729
 30
0.0
  0
SPLINE
  5
84
330
1F
100
AcDbEntity
  8
0
  6
Continuous
 62
     8
370
     0
100
AcDbSpline
210
0.0
220
0.0
230
1.0
 70
     8
 71
     3
 72
    11
 73
     7
 74
     0
 42
0.00000001
 43
0.00000001
 40
0.0
 40
0.0
 40
0.0
 40
0.0
 40
0.0000501449774697
 40
0.0000501449774697
 40
0.0000501449774697
 40
0.0000502049774697
 40
0.0000502049774697
 40
0.0000502049774697
 40
0.0000502049774697
 10
283.728595023664
 20
416.6081081260725
 30
0.0
 10
283.7452656962517
 20
416.6069321174988
 30
0.0
 10
283.7619351549359
 20
416.6057379442877
 30
0.0
 10
283.778603338767
 20
416.6045256107094
 30
0.0
 10
283.778623282759
 20
416.6045241601151
 30
0.0
 10
283.7786432267474
 20
416.6045227094689
 30
0.0
 10
283.7786631707376
 20
416.6045212588486
 30
0.0
  0
SPLINE
  5
85
330
1F
100
AcDbEntity
  8
0
  6
Continuous
 62
     8
370
     0
100
AcDbSpline
210
0.0
220
0.0
230
1.0
 70
     8
 71
     3
 72
    11
 73
     7
 74
     0
 42
0.00000001
 43
0.00000001
 40
-0.00000006
 40
-0.00000006
 40
-0.00000006
 40
-0.00000006
 40
0.0
 40
0.0
 40
0.0
 40
0.0000506231226545
 40
0.0000506231226545
 40
0.0000506231226545
 40
0.0000506231226545
 10
283.7786631707373
 20
369.1322547762279
 30
0.0
 10
283.7786432267764
 20
369.1322533230699
 30
0.0
 10
283.7786232828173
 20
369.1322518698872
 30
0.0
 10
283.7786033388547
 20
369.1322504167539
 30
0.0
 10
283.7617762444474
 20
369.1310243810498
 30
0.0
 10
283.7449478471497
 20
369.1298168631921
 30
0.0
 10
283.7281182097919
 20
369.1286278676299
 30
0.0
  0
SPLINE
  5
86
330
1F
100
AcDbEntity
  8
0
  6
Continuous
 62
     8
370
     0
100
AcDbSpline
210
0.0
220
0.0
230
1.0
 70
     8
 71
     3
 72
    14
 73
    10
 74
     0
 42
0.00000001
 43
0.00000001
 40
0.0
 40
0.0
 40
0.0
 40
0.0
 40
0.1615312691819047
 40
0.3230754900309262
 40
0.492876570373106
 40
0.6626923088091327
 40
0.8282399324422006
 40
0.993801058552363
 40
0.9999999999999999
 40
0.9999999999999999
 40
0.9999999999999999
 40
0.9999999999999999
 10
283.7281182097919
 20
369.12862786763
 30
0.0
 10
280.6148893547056
 20
368.9169549403755
 30
0.0
 10
274.3881820241098
 20
368.4935921138137
 30
0.0
 10
264.8819765479873
 20
367.9556114874383
 30
0.0
 10
255.2115308065637
 20
367.4890419483424
 30
0.0
 10
245.4596503000304
 20
367.1072662044792
 30
0.0
 10
235.786253529766
 20
366.8245692085844
 30
0.0
 10
229.2712393548304
 20
366.6666900317218
 30
0.0
 10
225.9530295353727
 20
366.6249953536828
 30
0.0
 10
225.8332730129502
 20
366.6234905634745
 30
0.0
  0
SPLINE
  5
87
330
1F
100
AcDbEntity
  8
0
  6
Continuous
 62
     8
370
     0
100
AcDbSpline
210
0.0
220
0.0
230
1.0
 70
     8
 71
     3
 72
    62
 73
    58
 74
     0
 42
0.00000001
 43
0.00000001
 40
0.0
 40
0.0
 40
0.0
 40
0.0
 40
0.0312500000000002
 40
0.0312500000000002
 40
0.0625000000000005
 40
0.0625000000000005
 40
0.125000000000001
 40
0.125000000000001
 40
0.1562500000000009
 40
0.1562500000000009
 40
0.1718750000000011
 40
0.1718750000000011
 40
0.1875000000000014
 40
0.1875000000000014
 40
0.2500000000000027
 40
0.2500000000000027
 40
0.2656250000000028
 40
0.2656250000000028
 40
0.281250000000003
 40
0.281250000000003
 40
0.3125000000000029
 40
0.3125000000000029
 40
0.3750000000000026
 40
0.3750000000000026
 40
0.4062500000000023
 40
0.4062500000000023
 40
0.4375000000000022
 40
0.4375000000000022
 40
0.5000000000000017
 40
0.5000000000000017
 40
0.5625000000000012
 40
0.5625000000000012
 40
0.5937500000000011
 40
0.5937500000000011
 40
0.6250000000000009
 40
0.6250000000000009
 40
0.6875000000000004
 40
0.6875000000000004
 40
0.7187500000000002
 40
0.7187500000000002
 40
0.734375
 40
0.734375
 40
0.7499999999999998
 40
0.7499999999999998
 40
0.8124999999999997
 40
0.8124999999999997
 40
0.8281249999999998
 40
0.8281249999999998
 40
0.8437499999999998
 40
0.8437499999999998
 40
0.8749999999999998
 40
0.8749999999999998
 40
0.9374999999999999
 40
0.9374999999999999
 40
0.96875
 40
0.96875
 40
1.0
 40
1.0
 40
1.0
 40
1.0
 10
130.2120854554562
 20
416.6045738990746
 30
0.0
 10
129.4649159192589
 20
416.5574203404782
 30
0.0
 10
128.7185008531979
 20
416.4726494562242
 30
0.0
 10
127.2400910467706
 20
416.2319345029584
 30
0.0
 10
126.5034017895057
 20
416.0753237307251
 30
0.0
 10
124.3375209862314
 20
415.5091855095833
 30
0.0
 10
122.946121685498
 20
415.0019249085568
 30
0.0
 10
120.9373479575801
 20
414.0470996906293
 30
0.0
 10
120.2808355852097
 20
413.6964703746654
 30
0.0
 10
119.3163196750892
 20
413.1204151279256
 30
0.0
 10
118.9981901263719
 20
412.9199503356716
 30
0.0
 10
118.3756161429843
 20
412.5066330274572
 30
0.0
 10
118.0702779973752
 20
412.2932662973267
 30
0.0
 10
116.5728405301707
 20
411.1934444550848
 30
0.0
 10
115.4677634318988
 20
410.2088537486129
 30
0.0
 10
114.2022332714817
 20
408.8475123901895
 30
0.0
 10
113.9549628979877
 20
408.5686634952063
 30
0.0
 10
113.4722855395036
 20
407.9975868332724
 30
0.0
 10
113.2363304246639
 20
407.7046005419724
 30
0.0
 10
112.5530801588743
 20
406.8137197644783
 30
0.0
 10
112.1288791292698
 20
406.2024879511209
 30
0.0
 10
110.9473002193505
 20
404.3184440757423
 30
0.0
 10
110.28016563922
 20
402.9957147532626
 30
0.0
 10
109.4634378008582
 20
400.9098584493318
 30
0.0
 10
109.2220484946044
 20
400.1960239259167
 30
0.0
 10
108.8114104664646
 20
398.7638139339884
 30
0.0
 10
108.6405836247198
 20
398.0418752697875
 30
0.0
 10
108.229597436916
 20
395.8588927612765
 30
0.0
 10
108.090034244455
 20
394.3808338936856
 30
0.0
 10
108.0905361013387
 20
391.3774264468348
 30
0.0
 10
108.2306526863621
 20
389.8990431495175
 30
0.0
 10
108.6424018844962
 20
387.7164073574605
 30
0.0
 10
108.8134711750133
 20
386.9946479407838
 30
0.0
 10
109.2245341837517
 20
385.5629201481882
 30
0.0
 10
109.4661202411374
 20
384.8493067695583
 30
0.0
 10
110.2838154074742
 20
382.7631783092087
 30
0.0
 10
110.9515375438584
 20
381.4405887358387
 30
0.0
 10
112.1336605824031
 20
379.5570960655233
 30
0.0
 10
112.5579857820818
 20
378.9461049581654
 30
0.0
 10
113.2412902787246
 20
378.0556506079896
 30
0.0
 10
113.4773362269522
 20
377.7626952635374
 30
0.0
 10
113.9602843330902
 20
377.1915663231114
 30
0.0
 10
114.2076779645119
 20
376.9127001290988
 30
0.0
 10
115.4737523329316
 20
375.5513025843582
 30
0.0
 10
116.5790123728267
 20
374.5667359420343
 30
0.0
 10
118.0758372190006
 20
373.4663949147514
 30
0.0
 10
118.3810123947956
 20
373.2528991348622
 30
0.0
 10
119.0031734388858
 20
372.8392683952691
 30
0.0
 10
119.3210359479584
 20
372.6386244081614
 30
0.0
 10
120.2852548328946
 20
372.0615869939439
 30
0.0
 10
120.9415304604302
 20
371.7101571079258
 30
0.0
 10
122.9494828320014
 20
370.7525293946708
 30
0.0
 10
124.3399550589079
 20
370.2421773280744
 30
0.0
 10
126.5044891829728
 20
369.6714175655191
 30
0.0
 10
127.2409148583729
 20
369.5137468344219
 30
0.0
 10
128.7189158635164
 20
369.2698161726404
 30
0.0
 10
129.4651152609715
 20
369.1827734746178
 30
0.0
 10
130.2120854554563
 20
369.1322291993542
 30
0.0
  0
SPLINE
  5
88
330
1F
100
AcDbEntity
  8
0
  6
Continuous
 62
     8
370
     0
100
AcDbSpline
210
0.0
220
0.0
230
1.0
 70
     8
 71
     3
 72
    62
 73
    58
 74
     0
 42
0.00000001
 43
0.00000001
 40
0.0
 40
0.0
 40
0.0
 40
0.0
 40
0.0312500000000002
 40
0.0312500000000002
 40
0.0625000000000005
 40
0.0625000000000005
 40
0.125000000000001
 40
0.125000000000001
 40
0.1562500000000009
 40
0.1562500000000009
 40
0.1718750000000011
 40
0.1718750000000011
 40
0.1875000000000014
 40
0.1875000000000014
 40
0.2500000000000027
 40
0.2500000000000027
 40
0.2656250000000028
 40
0.2656250000000028
 40
0.281250000000003
 40
0.281250000000003
 40
0.3125000000000029
 40
0.3125000000000029
 40
0.3750000000000026
 40
0.3750000000000026
 40
0.4062500000000023
 40
0.4062500000000023
 40
0.4375000000000022
 40
0.4375000000000022
 40
0.5000000000000017
 40
0.5000000000000017
 40
0.5625000000000012
 40
0.5625000000000012
 40
0.5937500000000011
 40
0.5937500000000011
 40
0.6250000000000009
 40
0.6250000000000009
 40
0.6875000000000004
 40
0.6875000000000004
 40
0.7187500000000002
 40
0.7187500000000002
 40
0.734375
 40
0.734375
 40
0.7499999999999998
 40
0.7499999999999998
 40
0.8124999999999997
 40
0.8124999999999997
 40
0.8281249999999998
 40
0.8281249999999998
 40
0.8437499999999998
 40
0.8437499999999998
 40
0.8749999999999998
 40
0.8749999999999998
 40
0.9374999999999999
 40
0.9374999999999999
 40
0.96875
 40
0.96875
 40
1.0
 40
1.0
 40
1.0
 40
1.0
 10
283.7786631707376
 20
416.6045738990746
 30
0.0
 10
284.5258326455616
 20
416.5574193534891
 30
0.0
 10
285.272247772996
 20
416.4726494562243
 30
0.0
 10
286.7506575794233
 20
416.2319345029584
 30
0.0
 10
287.4873468366881
 20
416.0753237307251
 30
0.0
 10
289.6532276399625
 20
415.5091855095833
 30
0.0
 10
291.0446269406959
 20
415.0019249085568
 30
0.0
 10
293.0534006686137
 20
414.0470996906293
 30
0.0
 10
293.7099130409841
 20
413.6964703746654
 30
0.0
 10
294.6744289511046
 20
413.1204151279256
 30
0.0
 10
294.992558499822
 20
412.9199503356716
 30
0.0
 10
295.6151324832095
 20
412.5066330274572
 30
0.0
 10
295.9204706288186
 20
412.2932662973267
 30
0.0
 10
297.4179080960232
 20
411.1934444550848
 30
0.0
 10
298.5229851942951
 20
410.2088537486129
 30
0.0
 10
299.7885153547121
 20
408.8475123901895
 30
0.0
 10
300.0357857282062
 20
408.5686634952063
 30
0.0
 10
300.5184630866902
 20
407.9975868332724
 30
0.0
 10
300.7544182015299
 20
407.7046005419724
 30
0.0
 10
301.4376684673196
 20
406.8137197644783
 30
0.0
 10
301.861869496924
 20
406.2024879511209
 30
0.0
 10
303.0434484068434
 20
404.3184440757423
 30
0.0
 10
303.7105829869739
 20
402.9957147532626
 30
0.0
 10
304.5273108253356
 20
400.9098584493318
 30
0.0
 10
304.7687001315895
 20
400.1960239259167
 30
0.0
 10
305.1793381597293
 20
398.7638139339884
 30
0.0
 10
305.3501650014741
 20
398.0418752697875
 30
0.0
 10
305.7611511892779
 20
395.8588927612765
 30
0.0
 10
305.9007143817389
 20
394.3808338936856
 30
0.0
 10
305.9002125248552
 20
391.3774264468348
 30
0.0
 10
305.7600959398318
 20
389.8990431495175
 30
0.0
 10
305.3483467416977
 20
387.7164073574605
 30
0.0
 10
305.1772774511805
 20
386.9946479407838
 30
0.0
 10
304.7662144424421
 20
385.5629201481882
 30
0.0
 10
304.5246283850565
 20
384.8493067695583
 30
0.0
 10
303.7069332187196
 20
382.7631783092087
 30
0.0
 10
303.0392110823354
 20
381.4405887358387
 30
0.0
 10
301.8570880437907
 20
379.5570960655233
 30
0.0
 10
301.432762844112
 20
378.9461049581654
 30
0.0
 10
300.7494583474693
 20
378.0556506079896
 30
0.0
 10
300.5134123992416
 20
377.7626952635374
 30
0.0
 10
300.0304642931036
 20
377.1915663231114
 30
0.0
 10
299.783070661682
 20
376.9127001290988
 30
0.0
 10
298.5169962932623
 20
375.5513025843582
 30
0.0
 10
297.4117362533672
 20
374.5667359420343
 30
0.0
 10
295.9149114071933
 20
373.4663949147514
 30
0.0
 10
295.6097362313983
 20
373.2528991348622
 30
0.0
 10
294.987575187308
 20
372.8392683952691
 30
0.0
 10
294.6697126782354
 20
372.6386244081614
 30
0.0
 10
293.7054937932992
 20
372.0615869939439
 30
0.0
 10
293.0492181657637
 20
371.7101571079258
 30
0.0
 10
291.0412657941924
 20
370.7525293946708
 30
0.0
 10
289.650793567286
 20
370.2421773280744
 30
0.0
 10
287.4862594432211
 20
369.6714175655191
 30
0.0
 10
286.749833767821
 20
369.5137468344219
 30
0.0
 10
285.2718327626775
 20
369.2698161726404
 30
0.0
 10
284.5256333033561
 20
369.1827744217374
 30
0.0
 10
283.7786631707376
 20
369.1322291993542
 30
0.0
  0
ARC
  5
89
330
1F
100
AcDbEntity
  8
0
  6
Continuous
 62
     8
370
     0
100
AcDbCircle
 10
281.9953743131
 20
392.868370841
 30
0.0
 40
34.70155394625695
100
AcDbArc
 50
229.1924942423
 51
130.7097473179
  0
ARC
  5
8A
330
1F
100
AcDbEntity
  8
0
  6
Continuous
 62
     7
370
    15
100
AcDbCircle
 10
343.1378225354
 20
392.8731803959
 30
0.0
 40
72.17143677315545
100
AcDbArc
 50
332.7747858923
 51
346.6996501573
  0
ARC
  5
8B
330
1F
100
AcDbEntity
  8
0
  6
Continuous
 62
     7
370
    15
100
AcDbCircle
 10
343.1378225354
 20
392.8731803959
 30
0.0
 40
72.17143677315538
100
AcDbArc
 50
13.3005892665
 51
27.2253153273
  0
ARC
  5
8C
330
1F
100
AcDbEntity
  8
0
  6
Continuous
 62
     7
370
    15
100
AcDbCircle
 10
404.6200560248
 20
361.1663046588
 30
0.0
 40
3.000000000000015
100
AcDbArc
 50
271.0588103613
 51
334.0392878697
  0
ARC
  5
8D
330
1F
100
AcDbEntity
  8
0
  6
Continuous
 62
     7
370
    15
100
AcDbCircle
 10
404.6200560248
 20
424.5704370231
 30
0.0
 40
3.000000000000012
100
AcDbArc
 50
26.1589233986
 51
88.9411896387
  0
LINE
  5
8E
330
1F
100
AcDbEntity
  8
0
  6
Continuous
 62
     7
370
    15
100
AcDbLine
 10
387.0176796893
 20
357.8129573919
 30
0.0
 11
404.6754920503
 21
358.1668168947
 31
0.0
  0
LINE
  5
8F
330
1F
100
AcDbEntity
  8
0
  6
Continuous
 62
     7
370
    15
100
AcDbLine
 10
404.6754920503
 20
427.5699247872
 30
0.0
 11
387.0176796893
 21
427.92378429
 31
0.0
  0
ARC
  5
90
330
1F
100
AcDbEntity
  8
0
  6
Continuous
 62
     7
370
    15
100
AcDbCircle
 10
417.4908487798
 20
382.8683708409
 30
0.0
 40
5.999999999875791
100
AcDbArc
 50
228.5903778903
 51
236.4408667787
  0
ARC
  5
91
330
1F
100
AcDbEntity
  8
0
  6
Continuous
 62
     7
370
    15
100
AcDbCircle
 10
417.4908487798
 20
402.8683708411
 30
0.0
 40
5.999999999875829
100
AcDbArc
 50
123.5082207079
 51
131.4096221097
  0
ARC
  5
92
330
1F
100
AcDbEntity
  8
0
  6
Continuous
 62
     7
370
    15
100
AcDbCircle
 10
426.5535948467
 20
382.868370841
 30
0.0
 40
6.000000000000044
100
AcDbArc
 50
303.5357208799
 51
311.4096221093
  0
ARC
  5
93
330
1F
100
AcDbEntity
  8
0
  6
Continuous
 62
     7
370
    15
100
AcDbCircle
 10
426.5535948467
 20
402.868370841
 30
0.0
 40
6.000000000000123
100
AcDbArc
 50
48.5903778907
 51
56.4695494591
  0
ARC
  5
94
330
1F
100
AcDbEntity
  8
0
  6
Continuous
 62
     7
370
    15
100
AcDbCircle
 10
407.5176926634
 20
377.5875788867
 30
0.0
 40
6.004529102111061
100
AcDbArc
 50
347.3188947619
 51
0.0000056709
  0
ARC
  5
95
330
1F
100
AcDbEntity
  8
0
  6
Continuous
 62
     7
370
    15
100
AcDbCircle
 10
407.5176926634
 20
408.1491627953
 30
0.0
 40
6.004529102111037
100
AcDbArc
 50
359.9999943291
 51
12.7754162728
  0
LINE
  5
96
330
1F
100
AcDbEntity
  8
0
  6
Continuous
 62
     7
370
    15
100
AcDbLine
 10
431.5222218133
 20
403.368370841
 30
0.0
 11
430.5222218133
 21
403.368370841
 31
0.0
  0
LINE
  5
97
330
1F
100
AcDbEntity
  8
0
  6
Continuous
 62
     7
370
    15
100
AcDbLine
 10
430.5222218133
 20
382.368370841
 30
0.0
 11
431.5222218133
 21
382.368370841
 31
0.0
  0
SPLINE
  5
98
330
1F
100
AcDbEntity
  8
0
  6
Continuous
 62
     7
370
    15
100
AcDbSpline
210
0.0
220
0.0
230
1.0
 70
     8
 71
     3
 72
    12
 73
     8
 74
     0
 42
0.00000001
 43
0.00000001
 40
0.0
 40
0.0
 40
0.0
 40
0.0
 40
0.1053892448822997
 40
0.3921384690743626
 40
0.6629276054053282
 40
0.9127550009163408
 40
1.0
 40
1.0
 40
1.0
 40
1.0
 10
434.6894288801842
 20
410.9333274221168
 30
0.0
 10
434.6926940220742
 20
410.9478950206203
 30
0.0
 10
434.7048431530744
 20
411.0020989935364
 30
0.0
 10
434.432533479923
 20
410.8483648234488
 30
0.0
 10
433.8271598297905
 20
410.46217974105
 30
0.0
 10
433.1352569059559
 20
409.9954128648529
 30
0.0
 10
432.5354855066778
 20
409.5746179498313
 30
0.0
 10
432.3802456946389
 20
409.4657029138801
 30
0.0
  0
SPLINE
  5
99
330
1F
100
AcDbEntity
  8
0
  6
Continuous
 62
     7
370
    15
100
AcDbSpline
210
0.0
220
0.0
230
1.0
 70
     8
 71
     3
 72
    13
 73
     9
 74
     0
 42
0.00000001
 43
0.00000001
 40
0.0
 40
0.0
 40
0.0
 40
0.0
 40
0.0847893667015805
 40
0.2836831277205007
 40
0.501663952244066
 40
0.7342751076815869
 40
0.9736824155642894
 40
1.0
 40
1.0
 40
1.0
 40
1.0
 10
432.3783279289964
 20
376.2698201999598
 30
0.0
 10
432.5797493298985
 20
376.1285022805221
 30
0.0
 10
433.2536528536606
 20
375.65568934479
 30
0.0
 10
434.014687913613
 20
375.1495602085698
 30
0.0
 10
434.734430922734
 20
374.6750513568875
 30
0.0
 10
435.1323535664557
 20
374.4160012764785
 30
0.0
 10
435.2970267162533
 20
374.2998305658803
 30
0.0
 10
435.2557584920126
 20
374.3294655337801
 30
0.0
 10
435.2516712574051
 20
374.3324006023134
 30
0.0
  0
LINE
  5
9A
330
1F
100
AcDbEntity
  8
0
  6
Continuous
 62
     7
370
    15
100
AcDbLine
 10
458.437131283
 20
420.368370841
 30
0.0
 11
456.9002051249
 21
420.368370841
 31
0.0
  0
LINE
  5
9B
330
1F
100
AcDbEntity
  8
0
  6
Continuous
 62
     7
370
    15
100
AcDbLine
 10
456.8228868236
 20
365.368370841
 30
0.0
 11
458.4371294368
 21
365.368370841
 31
0.0
  0
ARC
  5
9C
330
1F
100
AcDbEntity
  8
0
  6
Continuous
 62
     7
370
    15
100
AcDbCircle
 10
433.5222216659
 20
377.9067789455
 30
0.0
 40
1.999999852628404
100
AcDbArc
 50
179.9999358991
 51
235.0637430392
  0
ARC
  5
9D
330
1F
100
AcDbEntity
  8
0
  6
Continuous
 62
     7
370
    15
100
AcDbCircle
 10
433.522176658
 20
407.8274380918
 30
0.0
 40
1.999954833462816
100
AcDbArc
 50
125.204266871
 51
180.1243351954
  0
SPLINE
  5
9E
330
1F
100
AcDbEntity
  8
0
  6
Continuous
 62
     7
370
    15
100
AcDbSpline
210
0.0
220
0.0
230
1.0
 70
     8
 71
     3
 72
    12
 73
     8
 74
     0
 42
0.00000001
 43
0.00000001
 40
0.0
 40
0.0
 40
0.0
 40
0.0
 40
0.2039651569650198
 40
0.4138895659465647
 40
0.6078498147366409
 40
0.8442729816931509
 40
1.0
 40
1.0
 40
1.0
 40
1.0
 10
456.9222988925136
 20
420.366646392658
 30
0.0
 10
455.843484012798
 20
420.3668740766595
 30
0.0
 10
453.654334508313
 20
420.3673360969081
 30
0.0
 10
450.4364283124452
 20
420.3576921748052
 30
0.0
 10
447.0480625278496
 20
420.3418846433134
 30
0.0
 10
443.9465239605036
 20
420.3219573683871
 30
0.0
 10
441.8741050210133
 20
420.3026186104956
 30
0.0
 10
441.0511253712327
 20
420.2949389836145
 30
0.0
  0
SPLINE
  5
9F
330
1F
100
AcDbEntity
  8
0
  6
Continuous
 62
     7
370
    15
100
AcDbSpline
210
0.0
220
0.0
230
1.0
 70
     8
 71
     3
 72
    14
 73
    10
 74
     0
 42
0.00000001
 43
0.00000001
 40
0.0
 40
0.0
 40
0.0
 40
0.0
 40
0.0079593913642236
 40
0.1329772008639676
 40
0.2674320276139064
 40
0.418465741858274
 40
0.6540212133961587
 40
0.9356044720226727
 40
1.0
 40
1.0
 40
1.0
 40
1.0
 10
438.1312840205191
 20
364.9487427207752
 30
0.0
 10
438.1692769032211
 20
364.9517626044335
 30
0.0
 10
438.8040223207145
 20
365.002215667669
 30
0.0
 10
440.4872065059112
 20
365.0773374643362
 30
0.0
 10
443.1073716556977
 20
365.1878360149344
 30
0.0
 10
446.5675232016063
 20
365.2807321005561
 30
0.0
 10
450.8951365238964
 20
365.3456954028545
 30
0.0
 10
454.5636738488997
 20
365.3741613448358
 30
0.0
 10
456.6322787616076
 20
365.3652526378568
 30
0.0
 10
457.0172992041552
 20
365.3635944989427
 30
0.0
  0
LINE
  5
A0
330
1F
100
AcDbEntity
  8
0
  6
Continuous
 62
     7
370
    15
100
AcDbLine
 10
464.3635956464
 20
366.868370855
 30
0.0
 11
465.2177071273
 21
366.868370855
 31
0.0
  0
LINE
  5
A1
330
1F
100
AcDbEntity
  8
0
  6
Continuous
 62
     7
370
    15
100
AcDbLine
 10
495.1783842836
 20
418.868370855
 30
0.0
 11
473.5673419621
 21
418.868370855
 31
0.0
  0
ARC
  5
A2
330
1F
100
AcDbEntity
  8
0
  6
Continuous
 62
     7
370
    15
100
AcDbCircle
 10
495.1783843655
 20
417.2765341099
 30
0.0
 40
1.591836736608722
100
AcDbArc
 50
16.3313652882
 51
90.1217747625
  0
SPLINE
  5
A3
330
1F
100
AcDbEntity
  8
0
  6
Continuous
 62
     7
370
    15
100
AcDbSpline
210
0.0
220
0.0
230
1.0
 70
     8
 71
     3
 72
    33
 73
    29
 74
     0
 42
0.00000001
 43
0.00000001
 40
0.0
 40
0.0
 40
0.0
 40
0.0
 40
0.0469718472404404
 40
0.0966131175995989
 40
0.1433582442378428
 40
0.1875582017730808
 40
0.2292926164898593
 40
0.3041027634782787
 40
0.3694127266674813
 40
0.4125655792075723
 40
0.4502663220600501
 40
0.4825150141341825
 40
0.509311808341515
 40
0.530656860354407
 40
0.5465501347678827
 40
0.5569912582206784
 40
0.5656632885271367
 40
0.580492287772697
 40
0.601748987705502
 40
0.629438923399891
 40
0.6635680924585181
 40
0.6979427038656084
 40
0.7370252501266357
 40
0.7808002148711438
 40
0.8293160873877259
 40
0.8827686534277842
 40
0.9415541939998935
 40
0.9999999999999999
 40
0.9999999999999999
 40
0.9999999999999999
 40
0.9999999999999999
 10
496.6733519007043
 20
304.2597752914655
 30
0.0
 10
497.1501730894414
 20
305.982334701942
 30
0.0
 10
498.1309133474439
 20
309.525347052399
 30
0.0
 10
498.8758473562337
 20
314.9392680164863
 30
0.0
 10
499.1834191001127
 20
320.2768482863601
 30
0.0
 10
499.2236794785729
 20
325.3218145976828
 30
0.0
 10
499.1951959403435
 20
331.4324674225213
 30
0.0
 10
499.1759828432472
 20
338.3460505533464
 30
0.0
 10
499.1959016969045
 20
345.3134197247383
 30
0.0
 10
499.2163424039537
 20
350.8700174688315
 30
0.0
 10
499.2347169660906
 20
355.1697364867335
 30
0.0
 10
499.2542091082639
 20
358.8476436507033
 30
0.0
 10
499.276940822175
 20
361.9037332801063
 30
0.0
 10
499.3026941863547
 20
364.3379960077162
 30
0.0
 10
499.3284358622489
 20
366.1504251328222
 30
0.0
 10
499.351749303054
 20
367.4810457095057
 30
0.0
 10
499.3778750935514
 20
368.7711450796126
 30
0.0
 10
499.4185434669373
 20
370.4722000810418
 30
0.0
 10
499.4915769659228
 20
372.8956526395089
 30
0.0
 10
499.6147785141094
 20
376.0515555357703
 30
0.0
 10
499.7918216701864
 20
379.7042538207039
 30
0.0
 10
500.0016777244247
 20
383.7889041483857
 30
0.0
 10
500.1913514634285
 20
388.2418318858262
 30
0.0
 10
500.2729385481916
 20
393.2364146054692
 30
0.0
 10
500.1108596968814
 20
398.7780389243137
 30
0.0
 10
499.5304253576189
 20
404.8652332881812
 30
0.0
 10
498.4654664358724
 20
411.2775084752924
 30
0.0
 10
497.2738762463021
 20
415.5746995281943
 30
0.0
 10
496.679807756196
 20
417.7170684590893
 30
0.0
  0
ARC
  5
A4
330
1F
100
AcDbEntity
  8
0
  6
Continuous
 62
     7
370
    15
100
AcDbCircle
 10
457.1722218133
 20
392.868370855
 30
0.0
 40
24.30000000000044
100
AcDbArc
 50
279.3893727434
 51
287.2139910179
  0
ARC
  5
A5
330
1F
100
AcDbEntity
  8
0
  6
Continuous
 62
     7
370
    15
100
AcDbCircle
 10
457.1722218133
 20
392.868370855
 30
0.0
 40
24.30000000000043
100
AcDbArc
 50
55.5855770653
 51
80.6106272566
  0
LINE
  5
A6
330
1F
100
AcDbEntity
  8
0
  6
Continuous
 62
     7
370
    15
100
AcDbLine
 10
459.6722218133
 20
368.868370855
 30
0.0
 11
461.1365959702
 21
368.893931601
 31
0.0
  0
LINE
  5
A7
330
1F
100
AcDbEntity
  8
0
  6
Continuous
 62
     7
370
    15
100
AcDbLine
 10
461.1365959702
 20
416.8428101091
 30
0.0
 11
459.6722218133
 21
416.868370855
 31
0.0
  0
LINE
  5
A8
330
1F
100
AcDbEntity
  8
0
  6
Continuous
 62
     7
370
    15
100
AcDbLine
 10
433.9345384625
 20
364.719286098
 30
0.0
 11
435.1865022481
 21
364.7882404784
 31
0.0
  0
LINE
  5
A9
330
1F
100
AcDbEntity
  8
0
  6
Continuous
 62
     7
370
    15
100
AcDbLine
 10
403.5222218133
 20
358.1437055588
 30
0.0
 11
403.5222218133
 21
357.368370841
 31
0.0
  0
LINE
  5
AA
330
1F
100
AcDbEntity
  8
0
  6
Continuous
 62
     7
370
    15
100
AcDbLine
 10
427.5222218133
 20
357.368370841
 30
0.0
 11
427.5222218133
 21
364.368370841
 31
0.0
  0
LINE
  5
AB
330
1F
100
AcDbEntity
  8
0
  6
Continuous
 62
     7
370
    15
100
AcDbLine
 10
405.0722218133
 20
347.368370841
 30
0.0
 11
406.0722218133
 21
346.368370841
 31
0.0
  0
LINE
  5
AC
330
1F
100
AcDbEntity
  8
0
  6
Continuous
 62
     7
370
    15
100
AcDbLine
 10
424.9722218133
 20
346.368370841
 30
0.0
 11
425.9722218133
 21
347.368370841
 31
0.0
  0
LINE
  5
AD
330
1F
100
AcDbEntity
  8
0
  6
Continuous
 62
     7
370
    15
100
AcDbLine
 10
405.0722218133
 20
357.368370841
 30
0.0
 11
405.0722218133
 21
347.368370841
 31
0.0
  0
LINE
  5
AE
330
1F
100
AcDbEntity
  8
0
  6
Continuous
 62
     7
370
    15
100
AcDbLine
 10
425.9722218133
 20
347.368370841
 30
0.0
 11
425.9722218133
 21
357.368370841
 31
0.0
  0
LINE
  5
AF
330
1F
100
AcDbEntity
  8
0
  6
Continuous
 62
     7
370
    15
100
AcDbLine
 10
470.3635956464
 20
366.7282703403
 30
0.0
 11
470.3635956464
 21
366.618370855
 31
0.0
  0
LINE
  5
B0
330
1F
100
AcDbEntity
  8
0
  6
Continuous
 62
     7
370
    15
100
AcDbLine
 10
470.3635956464
 20
366.618370855
 30
0.0
 11
470.5821770133
 21
366.0178234851
 31
0.0
  0
ARC
  5
B1
330
1F
100
AcDbEntity
  8
0
  6
Continuous
 62
     7
370
    15
100
AcDbCircle
 10
470.7701155375
 20
366.0862275138
 30
0.0
 40
0.1999999999999886
100
AcDbArc
 50
200.0
 51
270.0
  0
LINE
  5
B2
330
1F
100
AcDbEntity
  8
0
  6
Continuous
 62
     7
370
    15
100
AcDbLine
 10
470.7701155375
 20
365.8862275138
 30
0.0
 11
476.9882683484
 21
365.8862275138
 31
0.0
  0
LINE
  5
B3
330
1F
100
AcDbEntity
  8
0
  6
Continuous
 62
     7
370
    15
100
AcDbLine
 10
387.0176796893
 20
418.8560389388
 30
0.0
 11
387.0176796893
 21
357.8129573919
 31
0.0
  0
LINE
  5
B4
330
1F
100
AcDbEntity
  8
0
  6
Continuous
 62
     7
370
    15
100
AcDbLine
 10
387.0176796893
 20
427.92378429
 30
0.0
 11
387.0176796893
 21
418.8560389388
 31
0.0
  0
SPLINE
  5
B5
330
1F
100
AcDbEntity
  8
0
  6
Continuous
 62
     7
370
    15
100
AcDbSpline
210
0.0
220
0.0
230
1.0
 70
     8
 71
     3
 72
    10
 73
     6
 74
     0
 42
0.00000001
 43
0.00000001
 40
0.0572063232070654
 40
0.0572063232070654
 40
0.0572063232070654
 40
0.0572063232070654
 40
0.5572063232070654
 40
0.9947063232070654
 40
1.0
 40
1.0
 40
1.0
 40
1.0
 10
460.0885472268303
 20
392.868370840988
 30
0.0
 10
460.0885472268303
 20
397.6517711345628
 30
0.0
 10
459.8333228242948
 20
406.6206466850154
 30
0.0
 10
459.0954093688156
 20
413.8880720534539
 30
0.0
 10
458.64208610066
 20
416.5725588089917
 30
0.0
 10
458.6366512828034
 20
416.6045475789629
 30
0.0
  0
SPLINE
  5
B6
330
1F
100
AcDbEntity
  8
0
  6
Continuous
 62
     7
370
    15
100
AcDbSpline
210
0.0
220
0.0
230
1.0
 70
     8
 71
     3
 72
    34
 73
    30
 74
     0
 42
0.00000001
 43
0.00000001
 40
0.0
 40
0.0
 40
0.0
 40
0.0
 40
0.0102436354286844
 40
0.0204882363148966
 40
0.0307731700808745
 40
0.0411373572379768
 40
0.0516188027429777
 40
0.0622541783753202
 40
0.092715746086141
 40
0.1246808247159632
 40
0.1551799782847842
 40
0.1872228984688095
 40
0.2496668338805083
 40
0.3134441107052885
 40
0.3776841904591401
 40
0.4408749461224306
 40
0.5027365256519667
 40
0.5662850802371352
 40
0.6304752486815605
 40
0.6941267219931466
 40
0.7563617984168559
 40
0.8183780767708319
 40
0.8500594693940436
 40
0.8802067043053808
 40
0.9109406958167388
 40
0.9402519345270591
 40
0.9604662120675432
 40
0.9802908615995273
 40
0.9999999999999999
 40
0.9999999999999999
 40
0.9999999999999999
 40
0.9999999999999999
 10
417.4908487799205
 20
380.5465454604912
 30
0.0
 10
417.4422959003015
 20
380.5473873212075
 30
0.0
 10
417.345185564979
 20
380.5490711219848
 30
0.0
 10
417.2000279926211
 20
380.562700949842
 30
0.0
 10
417.0557014355654
 20
380.584428500962
 30
0.0
 10
416.9123468929553
 20
380.6150209023056
 30
0.0
 10
416.7700901331788
 20
380.6542411476298
 30
0.0
 10
416.5424028994233
 20
380.7315135188454
 30
0.0
 10
416.2360364162929
 20
380.8747589247024
 30
0.0
 10
415.8864532776707
 20
381.1089882483849
 30
0.0
 10
415.5720821545193
 20
381.3866229161657
 30
0.0
 10
415.2091945809848
 20
381.7932359536867
 30
0.0
 10
414.8419776416024
 20
382.3638253539252
 30
0.0
 10
414.5260542946325
 20
383.0983251838176
 30
0.0
 10
414.3152123547607
 20
383.8630805777211
 30
0.0
 10
414.1968865558463
 20
384.6344514135961
 30
0.0
 10
414.1611843876415
 20
385.4088080388435
 30
0.0
 10
414.2054264774951
 20
386.1870049397131
 30
0.0
 10
414.3349318344501
 20
386.9657692577757
 30
0.0
 10
414.5568207184477
 20
387.7236074117156
 30
0.0
 10
414.8810950082762
 20
388.4440545241797
 30
0.0
 10
415.2530824101695
 20
389.0012944364659
 30
0.0
 10
415.6213393793904
 20
389.3983911871175
 30
0.0
 10
415.935863288097
 20
389.664564334428
 30
0.0
 10
416.2805859838039
 20
389.8856666188371
 30
0.0
 10
416.6198842056658
 20
390.0382397120884
 30
0.0
 10
416.9315834388523
 20
390.1301770671293
 30
0.0
 10
417.2098966812498
 20
390.1808578883828
 30
0.0
 10
417.3973806793495
 20
390.1870895130398
 30
0.0
 10
417.4908487799205
 20
390.1901962214845
 30
0.0
  0
SPLINE
  5
B7
330
1F
100
AcDbEntity
  8
0
  6
Continuous
 62
     7
370
    15
100
AcDbSpline
210
0.0
220
0.0
230
1.0
 70
     8
 71
     3
 72
    22
 73
    18
 74
     0
 42
0.00000001
 43
0.00000001
 40
0.0
 40
0.0
 40
0.0
 40
0.0
 40
0.0419748895807827
 40
0.0838882729949278
 40
0.125790888127046
 40
0.1902103340013114
 40
0.2540400555479332
 40
0.3820284021383947
 40
0.5077426131969238
 40
0.6329608069202451
 40
0.6967652307076008
 40
0.7579203677365789
 40
0.8198708122221294
 40
0.8792962455090788
 40
0.9200761609852454
 40
0.9601245962717846
 40
0.9999999999999999
 40
0.9999999999999999
 40
0.9999999999999999
 40
0.9999999999999999
 10
414.1742239895131
 20
377.868370840988
 30
0.0
 10
414.1750849807398
 20
377.8683706122912
 30
0.0
 10
414.1768057015756
 20
377.8683701552328
 30
0.0
 10
414.1907799149843
 20
377.8683399893096
 30
0.0
 10
414.2171708867295
 20
377.8682981693086
 30
0.0
 10
414.2633525185682
 20
377.8683299556254
 30
0.0
 10
414.3626002635143
 20
377.8683538839961
 30
0.0
 10
414.5436780990924
 20
377.868444426796
 30
0.0
 10
414.8654620999325
 20
377.8683604429581
 30
0.0
 10
415.236836566832
 20
377.8683431142046
 30
0.0
 10
415.6058442104867
 20
377.8684376914703
 30
0.0
 10
415.9214997071135
 20
377.8683185236289
 30
0.0
 10
416.2688922929832
 20
377.8683931183016
 30
0.0
 10
416.6108878162611
 20
377.8683746298339
 30
0.0
 10
416.9257345020357
 20
377.86847746804
 30
0.0
 10
417.2067640609514
 20
377.8684283748335
 30
0.0
 10
417.3962906458077
 20
377.8683899912368
 30
0.0
 10
417.4908487799205
 20
377.8683708409879
 30
0.0
  0
SPLINE
  5
B8
330
1F
100
AcDbEntity
  8
0
  6
Continuous
 62
     7
370
    15
100
AcDbSpline
210
0.0
220
0.0
230
1.0
 70
    24
 71
     3
 72
    14
 73
    10
 74
     0
 42
0.00000001
 43
0.00000001
 40
0.0
 40
0.0
 40
0.0
 40
0.0
 40
0.0623244655734011
 40
0.1246130767618443
 40
0.2493535318402436
 40
0.3745205089314252
 40
0.4997078809478016
 40
0.7558596997911066
 40
0.9999999999999999
 40
0.9999999999999999
 40
0.9999999999999999
 40
0.9999999999999999
 10
417.4908487799205
 20
407.868370840988
 30
0.0
 10
417.3432597564255
 20
407.868370840988
 30
0.0
 10
417.0481666153166
 20
407.868370840988
 30
0.0
 10
416.483737050648
 20
407.868370840988
 30
0.0
 10
415.8587909343952
 20
407.868370840988
 30
0.0
 10
415.2791224711991
 20
407.868370840988
 30
0.0
 10
414.6958711465924
 20
407.868370840988
 30
0.0
 10
414.2615225821814
 20
407.868370840988
 30
0.0
 10
414.2056218138604
 20
407.868370840988
 30
0.0
 10
414.1783424907609
 20
407.868370840988
 30
0.0
  0
SPLINE
  5
B9
330
1F
100
AcDbEntity
  8
0
  6
Continuous
 62
     7
370
    15
100
AcDbSpline
210
0.0
220
0.0
230
1.0
 70
     8
 71
     3
 72
    34
 73
    30
 74
     0
 42
0.00000001
 43
0.00000001
 40
0.0
 40
0.0
 40
0.0
 40
0.0
 40
0.0101839707203912
 40
0.0203577798393036
 40
0.0305597664428388
 40
0.0408276875246769
 40
0.051198121169086
 40
0.06170593459638
 40
0.0920327062721188
 40
0.1236635961771289
 40
0.1545024458572562
 40
0.1866689656638955
 40
0.2497014961248268
 40
0.3121197613878368
 40
0.3756237360393678
 40
0.4393446122143898
 40
0.5020370603776148
 40
0.5646001550624147
 40
0.6284029109821706
 40
0.6921178686082377
 40
0.7547244549902878
 40
0.817127041431541
 40
0.8489138342596433
 40
0.8793842041990604
 40
0.9102454410581284
 40
0.9398535167124873
 40
0.9601720033452328
 40
0.9801286608725697
 40
1.0
 40
1.0
 40
1.0
 40
1.0
 10
417.4908487799205
 20
395.5465454604913
 30
0.0
 10
417.4425787782089
 20
395.5473711921412
 30
0.0
 10
417.3460869387616
 20
395.5490218315232
 30
0.0
 10
417.2019253766003
 20
395.5624227918137
 30
0.0
 10
417.0587369817317
 20
395.5838091470464
 30
0.0
 10
416.9166613518901
 20
395.6139177900889
 30
0.0
 10
416.7758222689798
 20
395.6524831539007
 30
0.0
 10
416.5495452090137
 20
395.728699980297
 30
0.0
 10
416.2451669949997
 20
395.869837893505
 30
0.0
 10
415.8949093520196
 20
396.102472872265
 30
0.0
 10
415.5788633836601
 20
396.3794209252403
 30
0.0
 10
415.2120602901911
 20
396.7889949442086
 30
0.0
 10
414.8461332066405
 20
397.3571273448213
 30
0.0
 10
414.5311649547642
 20
398.0852114331066
 30
0.0
 10
414.3191819555243
 20
398.843258219516
 30
0.0
 10
414.1985103978104
 20
399.6168902529792
 30
0.0
 10
414.160982820858
 20
400.3927428769022
 30
0.0
 10
414.2036265681299
 20
401.1688532448192
 30
0.0
 10
414.3298284002115
 20
401.9424528500421
 30
0.0
 10
414.5485867966412
 20
402.7010726506347
 30
0.0
 10
414.8709190824264
 20
403.4258778363996
 30
0.0
 10
415.2423169531064
 20
403.9875397640467
 30
0.0
 10
415.6110258522907
 20
404.3885093986881
 30
0.0
 10
415.9261585777834
 20
404.6575506199479
 30
0.0
 10
416.2727657428426
 20
404.8815410775324
 30
0.0
 10
416.6137798087043
 20
405.0360497046584
 30
0.0
 10
416.9276327033999
 20
405.1292196422569
 30
0.0
 10
417.2077274131602
 20
405.1806740452826
 30
0.0
 10
417.3966098638689
 20
405.1870266989084
 30
0.0
 10
417.4908487799205
 20
405.1901962214845
 30
0.0
  0
LINE
  5
BA
330
1F
100
AcDbEntity
  8
0
  6
Continuous
 62
     7
370
    15
100
AcDbLine
 10
430.5222218133
 20
378.368370841
 30
0.0
 11
430.5222218133
 21
407.368370841
 31
0.0
  0
SPLINE
  5
BB
330
1F
100
AcDbEntity
  8
0
  6
Continuous
 62
     7
370
    15
100
AcDbSpline
210
0.0
220
0.0
230
1.0
 70
    24
 71
     3
 72
    14
 73
    10
 74
     0
 42
0.00000001
 43
0.00000001
 40
0.0
 40
0.0
 40
0.0
 40
0.0
 40
0.0062518907664787
 40
0.261769369249177
 40
0.5133745976126203
 40
0.6375677597288645
 40
0.7611628238443279
 40
0.8810325901250173
 40
1.0
 40
1.0
 40
1.0
 40
1.0
 10
429.8661207525093
 20
407.868370840988
 30
0.0
 10
429.86744239911
 20
407.868370840988
 30
0.0
 10
429.9227803136621
 20
407.868370840988
 30
0.0
 10
429.7312348674311
 20
407.8683708409881
 30
0.0
 10
429.3169470740885
 20
407.868370840988
 30
0.0
 10
428.7196568480335
 20
407.868370840988
 30
0.0
 10
428.1377081686502
 20
407.868370840988
 30
0.0
 10
427.4047441607074
 20
407.868370840988
 30
0.0
 10
426.8365957730549
 20
407.868370840988
 30
0.0
 10
426.5535948466847
 20
407.868370840988
 30
0.0
  0
SPLINE
  5
BC
330
1F
100
AcDbEntity
  8
0
  6
Continuous
 62
     7
370
    15
100
AcDbSpline
210
0.0
220
0.0
230
1.0
 70
     8
 71
     3
 72
    24
 73
    20
 74
     0
 42
0.00000001
 43
0.00000001
 40
0.0
 40
0.0
 40
0.0
 40
0.0
 40
0.0202722082353804
 40
0.0405292034007028
 40
0.0608467835272115
 40
0.0812995356600824
 40
0.1019596686968313
 40
0.1228959757414189
 40
0.1834686160021985
 40
0.2465832355189126
 40
0.3072887160243867
 40
0.3706308374856714
 40
0.4940972471710668
 40
0.6203986198865672
 40
0.7485514964866085
 40
0.812060048567556
 40
0.876142860882788
 40
0.9380859446732068
 40
1.0
 40
1.0
 40
1.0
 40
1.0
 10
426.5535948466847
 20
377.8683708409878
 30
0.0
 10
426.6016428385628
 20
377.8683746049066
 30
0.0
 10
426.6977027651979
 20
377.8683821299195
 30
0.0
 10
426.8412404636817
 20
377.8684110207186
 30
0.0
 10
426.9838513202132
 20
377.8684210239577
 30
0.0
 10
427.1253977825856
 20
377.8684091629915
 30
0.0
 10
427.2657573947947
 20
377.8683814905757
 30
0.0
 10
427.491665732771
 20
377.8683523287795
 30
0.0
 10
427.7957322662921
 20
377.8684718964611
 30
0.0
 10
428.1441398763056
 20
377.8683742845585
 30
0.0
 10
428.4573163088752
 20
377.868385152393
 30
0.0
 10
428.8194003883798
 20
377.8683150574162
 30
0.0
 10
429.1867594850585
 20
377.8684933878779
 30
0.0
 10
429.5056580518404
 20
377.8684781004498
 30
0.0
 10
429.6850569224179
 20
377.8682090205053
 30
0.0
 10
429.7830970180859
 20
377.868177084049
 30
0.0
 10
429.8335327417293
 20
377.8681804935807
 30
0.0
 10
429.8645527601557
 20
377.8683374129694
 30
0.0
 10
429.8683309732457
 20
377.8683597000563
 30
0.0
 10
429.8702196370398
 20
377.868370840988
 30
0.0
  0
SPLINE
  5
BD
330
1F
100
AcDbEntity
  8
0
  6
Continuous
 62
     7
370
    15
100
AcDbSpline
210
0.0
220
0.0
230
1.0
 70
     8
 71
     3
 72
    34
 73
    30
 74
     0
 42
0.00000001
 43
0.00000001
 40
0.0
 40
0.0
 40
0.0
 40
0.0
 40
0.0102436354287369
 40
0.0204882363149867
 40
0.0307731700809946
 40
0.0411373572381273
 40
0.0516188027431669
 40
0.0622541783755627
 40
0.0927157460883269
 40
0.1246808247159972
 40
0.155179978282067
 40
0.1872228984685589
 40
0.2496668338801906
 40
0.3134441107048311
 40
0.3776841904584274
 40
0.4408749461213849
 40
0.5027365256508329
 40
0.5662850802358691
 40
0.6304752486800583
 40
0.6941267219913974
 40
0.7563617984149172
 40
0.8183780767687605
 40
0.8500594693849577
 40
0.8802067043032326
 40
0.9109406958120185
 40
0.9402519345259123
 40
0.9604662120700537
 40
0.9802908616023699
 40
1.0
 40
1.0
 40
1.0
 40
1.0
 10
426.5535948466847
 20
390.1901962214846
 30
0.0
 10
426.6021477263035
 20
390.1893575598755
 30
0.0
 10
426.6992580616256
 20
390.1876801576138
 30
0.0
 10
426.8444156339824
 20
390.1740754774652
 30
0.0
 10
426.9887421910364
 20
390.1523570885441
 30
0.0
 10
427.1320967336443
 20
390.1217549257642
 30
0.0
 10
427.2743534934182
 20
390.0825112138665
 30
0.0
 10
427.5020407271759
 20
390.0052120085274
 30
0.0
 10
427.8084072102985
 20
389.8620821977224
 30
0.0
 10
428.1579903489038
 20
389.6277362631483
 30
0.0
 10
428.4723614720314
 20
389.3501318590843
 30
0.0
 10
428.8352490455762
 20
388.9434676240668
 30
0.0
 10
429.202465984952
 20
388.3730630433739
 30
0.0
 10
429.5183893319211
 20
387.638431495785
 30
0.0
 10
429.7292312717909
 20
386.8734569732972
 30
0.0
 10
429.8475570707055
 20
386.1023211592024
 30
0.0
 10
429.8832592389113
 20
385.3278631883039
 30
0.0
 10
429.8390171490595
 20
384.5495786201473
 30
0.0
 10
429.7095117921074
 20
383.770976259317
 30
0.0
 10
429.4876229081146
 20
383.0132133722598
 30
0.0
 10
429.1633486182929
 20
382.2926742955434
 30
0.0
 10
428.7913612164273
 20
381.7354208775395
 30
0.0
 10
428.4231042472189
 20
381.3384180013628
 30
0.0
 10
428.1085803385347
 20
381.0721227025826
 30
0.0
 10
427.7638576428192
 20
380.8510902402145
 30
0.0
 10
427.4245594209383
 20
380.6985131964681
 30
0.0
 10
427.1128601877257
 20
380.60666185568
 30
0.0
 10
426.8345469453279
 20
380.5559321458566
 30
0.0
 10
426.6470629472415
 20
380.5496682549315
 30
0.0
 10
426.5535948466847
 20
380.5465454604911
 30
0.0
  0
SPLINE
  5
BE
330
1F
100
AcDbEntity
  8
0
  6
Continuous
 62
     7
370
    15
100
AcDbSpline
210
0.0
220
0.0
230
1.0
 70
     8
 71
     3
 72
    34
 73
    30
 74
     0
 42
0.00000001
 43
0.00000001
 40
0.0
 40
0.0
 40
0.0
 40
0.0
 40
0.0101839707187693
 40
0.020357779836687
 40
0.0305597664398735
 40
0.0408276875220179
 40
0.0511981211673891
 40
0.0617059345962908
 40
0.0920327062664205
 40
0.1236635961767595
 40
0.1545024458512607
 40
0.1866689656632598
 40
0.2497014961240253
 40
0.3121197613865924
 40
0.3756237360374919
 40
0.4393446122119183
 40
0.5020370603746828
 40
0.5646001550593492
 40
0.6284029109788557
 40
0.6921178686046616
 40
0.7547244549865441
 40
0.817127041427618
 40
0.8489138342582653
 40
0.8793842041951703
 40
0.9102454410601223
 40
0.9398535167104922
 40
0.9601720033435405
 40
0.9801286608716201
 40
1.0
 40
1.0
 40
1.0
 40
1.0
 10
426.5535948466847
 20
405.1901962214846
 30
0.0
 10
426.6018648483882
 20
405.1893662338276
 30
0.0
 10
426.6983566878222
 20
405.1877070866782
 30
0.0
 10
426.8425182499678
 20
405.1742719990223
 30
0.0
 10
426.9857066448293
 20
405.1528711837236
 30
0.0
 10
427.1277822746727
 20
405.1227729001411
 30
0.0
 10
427.2686213575934
 20
405.0842386689104
 30
0.0
 10
427.4948984175444
 20
405.0080705377276
 30
0.0
 10
427.799276631553
 20
404.8668588005294
 30
0.0
 10
428.1495342745133
 20
404.6342909291675
 30
0.0
 10
428.4655802428946
 20
404.3572325262085
 30
0.0
 10
428.8323833363497
 20
403.9477932476063
 30
0.0
 10
429.1983104199132
 20
403.3796236347812
 30
0.0
 10
429.5132786717846
 20
402.65148867441
 30
0.0
 10
429.725261671024
 20
401.8934902081212
 30
0.0
 10
429.8459332287392
 20
401.1199303667543
 30
0.0
 10
429.8834608056948
 20
400.3439595561146
 30
0.0
 10
429.8408170584273
 20
399.5679703882211
 30
0.0
 10
429.7146152263516
 20
398.7943102620382
 30
0.0
 10
429.4958568299295
 20
398.035601997888
 30
0.0
 10
429.1735245441567
 20
397.3108728854836
 30
0.0
 10
428.8021266734801
 20
396.7492288912463
 30
0.0
 10
428.433417774316
 20
396.3481663613461
 30
0.0
 10
428.1182850488069
 20
396.0792441408927
 30
0.0
 10
427.7716778837598
 20
395.8551789810508
 30
0.0
 10
427.4306638178981
 20
395.7006870646306
 30
0.0
 10
427.1168109232166
 20
395.6074159271988
 30
0.0
 10
426.8367162134536
 20
395.5560106481395
 30
0.0
 10
426.6478337627396
 20
395.5496960140309
 30
0.0
 10
426.5535948466847
 20
395.5465454604912
 30
0.0
  0
LINE
  5
BF
330
1F
100
AcDbEntity
  8
0
  6
Continuous
 62
     7
370
    15
100
AcDbLine
 10
413.5222217655
 20
404.1964962179
 30
0.0
 11
413.5222217655
 21
377.5875800753
 31
0.0
  0
LINE
  5
C0
330
1F
100
AcDbEntity
  8
0
  6
Continuous
 62
     7
370
    15
100
AcDbLine
 10
413.5222217655
 20
408.1491616067
 30
0.0
 11
413.5222217655
 21
404.1964962179
 31
0.0
  0
LINE
  5
C1
330
1F
100
AcDbEntity
  8
0
  6
Continuous
 62
     7
370
    15
100
AcDbLine
 10
431.5222218133
 20
377.9701695327
 30
0.0
 11
431.5222218133
 21
407.7665108892
 31
0.0
  0
LINE
  5
C2
330
1F
100
AcDbEntity
  8
0
  6
Continuous
 62
     7
370
    15
100
AcDbLine
 10
417.4908487799
 20
390.1901962215
 30
0.0
 11
426.5535948467
 21
390.1901962215
 31
0.0
  0
LINE
  5
C3
330
1F
100
AcDbEntity
  8
0
  6
Continuous
 62
     7
370
    15
100
AcDbLine
 10
426.5535948467
 20
395.5465454605
 30
0.0
 11
417.4908487799
 21
395.5465454605
 31
0.0
  0
LINE
  5
C4
330
1F
100
AcDbEntity
  8
0
  6
Continuous
 62
     7
370
    15
100
AcDbLine
 10
417.4908487799
 20
405.1901962215
 30
0.0
 11
426.5535948467
 21
405.1901962215
 31
0.0
  0
LINE
  5
C5
330
1F
100
AcDbEntity
  8
0
  6
Continuous
 62
     7
370
    15
100
AcDbLine
 10
426.5535948467
 20
380.5465454605
 30
0.0
 11
417.4908487799
 21
380.5465454605
 31
0.0
  0
LINE
  5
C6
330
1F
100
AcDbEntity
  8
0
  6
Continuous
 62
     7
370
    15
100
AcDbLine
 10
426.5535948467
 20
407.868370841
 30
0.0
 11
417.4908487799
 21
407.868370841
 31
0.0
  0
LINE
  5
C7
330
1F
100
AcDbEntity
  8
0
  6
Continuous
 62
     7
370
    15
100
AcDbLine
 10
417.4908487799
 20
377.868370841
 30
0.0
 11
426.5535948467
 21
377.868370841
 31
0.0
  0
LINE
  5
C8
330
1F
100
AcDbEntity
  8
0
  6
Continuous
 62
     7
370
    15
100
AcDbLine
 10
432.366331186
 20
409.4505898585
 30
0.0
 11
432.3834945837
 21
409.4610462569
 31
0.0
  0
SPLINE
  5
C9
330
1F
100
AcDbEntity
  8
0
  6
Continuous
 62
     7
370
    15
100
AcDbSpline
210
0.0
220
0.0
230
1.0
 70
     8
 71
     3
 72
    10
 73
     6
 74
     0
 42
0.00000001
 43
0.00000001
 40
0.0
 40
0.0
 40
0.0
 40
0.0
 40
0.5
 40
0.5
 40
1.0
 40
1.0
 40
1.0
 40
1.0
 10
458.4371311775791
 20
420.3683708409847
 30
0.0
 10
458.7344352120319
 20
420.368370840975
 30
0.0
 10
459.0302663944669
 20
420.253073787444
 30
0.0
 10
459.4680566417116
 20
419.8507074941064
 30
0.0
 10
459.6078468315015
 20
419.5656316282167
 30
0.0
 10
459.6328731792428
 20
419.2693827528291
 30
0.0
  0
SPLINE
  5
CA
330
1F
100
AcDbEntity
  8
0
  6
Continuous
 62
     7
370
    15
100
AcDbSpline
210
0.0
220
0.0
230
1.0
 70
     8
 71
     3
 72
    19
 73
    15
 74
     0
 42
0.00000001
 43
0.00000001
 40
0.0
 40
0.0
 40
0.0
 40
0.0
 40
0.0619722257843165
 40
0.1278303613445856
 40
0.1975738594170147
 40
0.2712021395314209
 40
0.3487145881405191
 40
0.4301105587195926
 40
0.5153893718458022
 40
0.6045503152609205
 40
0.697592643921369
 40
0.7945155800405631
 40
0.8953183131241235
 40
1.0
 40
1.0
 40
1.0
 40
1.0
 10
459.6328731181505
 20
366.4673590788802
 30
0.0
 10
459.6287913081695
 20
366.430736188781
 30
0.0
 10
459.6203717421748
 20
366.3551940049138
 30
0.0
 10
459.5934776855894
 20
366.2406325130188
 30
0.0
 10
459.5537661204582
 20
366.1226323338287
 30
0.0
 10
459.4985790866959
 20
366.003240493788
 30
0.0
 10
459.4268139960521
 20
365.8848157327053
 30
0.0
 10
459.3372854259138
 20
365.770182589276
 30
0.0
 10
459.2293450266102
 20
365.6625565510948
 30
0.0
 10
459.1028570409651
 20
365.5655743450035
 30
0.0
 10
458.9583661464659
 20
365.4829717402739
 30
0.0
 10
458.7972067667583
 20
365.4194457795228
 30
0.0
 10
458.6216181122795
 20
365.3766541471064
 30
0.0
 10
458.4993946183127
 20
365.3711664735182
 30
0.0
 10
458.4371292576259
 20
365.3683708409912
 30
0.0
  0
LINE
  5
CB
330
1F
100
AcDbEntity
  8
0
  6
Continuous
 62
     7
370
    15
100
AcDbLine
 10
456.9222218133
 20
420.368370841
 30
0.0
 11
456.9222218133
 21
420.3626487318
 31
0.0
  0
SPLINE
  5
CC
330
1F
100
AcDbEntity
  8
0
  6
Continuous
 62
     7
370
    15
100
AcDbSpline
210
0.0
220
0.0
230
1.0
 70
     8
 71
     3
 72
     8
 73
     4
 74
     0
 42
0.00000001
 43
0.00000001
 40
0.9046094016676883
 40
0.9046094016676883
 40
0.9046094016676883
 40
0.9046094016676883
 40
0.9588287656830797
 40
0.9588287656830797
 40
0.9588287656830797
 40
0.9588287656830797
 10
459.6328732989666
 20
366.4673590974997
 30
0.0
 10
459.6793607897155
 20
367.0176601834193
 30
0.0
 10
459.723101588919
 20
367.654749323588
 30
0.0
 10
459.7640956965769
 20
368.3683708552021
 30
0.0
  0
SPLINE
  5
CD
330
1F
100
AcDbEntity
  8
0
  6
Continuous
 62
     7
370
    15
100
AcDbSpline
210
0.0
220
0.0
230
1.0
 70
     8
 71
     3
 72
     8
 73
     4
 74
     0
 42
0.00000001
 43
0.00000001
 40
0.041171229060111
 40
0.041171229060111
 40
0.041171229060111
 40
0.041171229060111
 40
0.0953905976201642
 40
0.0953905976201642
 40
0.0953905976201642
 40
0.0953905976201642
 10
459.7640956949616
 20
417.3683708548933
 30
0.0
 10
459.7231015837954
 20
418.0819924443126
 30
0.0
 10
459.6793607806232
 20
418.7190816293219
 30
0.0
 10
459.632873285445
 20
419.2693827445388
 30
0.0
  0
SPLINE
  5
CE
330
1F
100
AcDbEntity
  8
0
  6
Continuous
 62
     7
370
    15
100
AcDbSpline
210
0.0
220
0.0
230
1.0
 70
     8
 71
     3
 72
    63
 73
    59
 74
     0
 42
0.00000001
 43
0.00000001
 40
0.0
 40
0.0
 40
0.0
 40
0.0
 40
0.0624999999999999
 40
0.0624999999999999
 40
0.0937499999999999
 40
0.0937499999999999
 40
0.1249999999999999
 40
0.1249999999999999
 40
0.1874999999999998
 40
0.1874999999999998
 40
0.2031249999999998
 40
0.2031249999999998
 40
0.2187499999999998
 40
0.2187499999999998
 40
0.2499999999999998
 40
0.2499999999999998
 40
0.3124999999999998
 40
0.3124999999999998
 40
0.3281249999999998
 40
0.3281249999999998
 40
0.3437499999999998
 40
0.3437499999999998
 40
0.3749999999999998
 40
0.4062499999999997
 40
0.4062499999999997
 40
0.4218749999999997
 40
0.4218749999999997
 40
0.4374999999999997
 40
0.4374999999999997
 40
0.4999999999999997
 40
0.4999999999999997
 40
0.5312499999999997
 40
0.5312499999999997
 40
0.5468749999999997
 40
0.5468749999999997
 40
0.5624999999999996
 40
0.5624999999999996
 40
0.6249999999999997
 40
0.6249999999999997
 40
0.6562499999999997
 40
0.6562499999999997
 40
0.6874999999999996
 40
0.6874999999999996
 40
0.7499999999999996
 40
0.7499999999999996
 40
0.7812499999999996
 40
0.7812499999999996
 40
0.8124999999999996
 40
0.8124999999999996
 40
0.8437499999999997
 40
0.8437499999999997
 40
0.8749999999999998
 40
0.8749999999999998
 40
0.9374999999999999
 40
0.9374999999999999
 40
0.96875
 40
0.96875
 40
1.0
 40
1.0
 40
1.0
 40
1.0
 10
459.764095694953
 20
417.3683708550424
 30
0.0
 10
459.7623997478514
 20
417.3683708556368
 30
0.0
 10
459.7679112042424
 20
417.2095548328986
 30
0.0
 10
459.7850908074396
 20
416.7428719455693
 30
0.0
 10
459.7922723944464
 20
416.5489512402152
 30
0.0
 10
459.8090597605784
 20
416.0826423339912
 30
0.0
 10
459.8187032228241
 20
415.8089457704053
 30
0.0
 10
459.8498484104469
 20
414.8867968172388
 30
0.0
 10
459.873649275988
 20
414.1344063220067
 30
0.0
 10
459.9051153603693
 20
413.0234146293263
 30
0.0
 10
459.9114987953787
 20
412.7926143135311
 30
0.0
 10
459.9244083256282
 20
412.3135342481897
 30
0.0
 10
459.9309519992134
 20
412.0645623097192
 30
0.0
 10
459.9506060915097
 20
411.2962513182716
 30
0.0
 10
459.9637001157196
 20
410.7572331600604
 30
0.0
 10
460.0025422613581
 20
409.0622460969641
 30
0.0
 10
460.0278710965263
 20
407.82908314401
 30
0.0
 10
460.0574191069144
 20
406.1555426934133
 30
0.0
 10
460.0632367654054
 20
405.813201927887
 30
0.0
 10
460.0745138047891
 20
405.1213035926631
 30
0.0
 10
460.0799786104493
 20
404.7715221408469
 30
0.0
 10
460.095810891769
 20
403.7108918738924
 30
0.0
 10
460.1154223836652
 20
402.2666757159408
 30
0.0
 10
460.1315859061664
 20
400.7632713604741
 30
0.0
 10
460.1422349364961
 20
399.6132155654462
 30
0.0
 10
460.1455388426808
 20
399.2261065822813
 30
0.0
 10
460.1516229090154
 20
398.4442393323124
 30
0.0
 10
460.1544069695548
 20
398.0486540224615
 30
0.0
 10
460.1668133667341
 20
396.0722705121192
 30
0.0
 10
460.1720190687946
 20
394.4827308834866
 30
0.0
 10
460.1724742752647
 20
392.0861074260831
 30
0.0
 10
460.1714003318802
 20
391.2851658500869
 30
0.0
 10
460.1679139684011
 20
390.0805583950668
 30
0.0
 10
460.1664362046083
 20
389.6782767659593
 30
0.0
 10
460.162897013494
 20
388.8815867384972
 30
0.0
 10
460.1608330380565
 20
388.4860537965122
 30
0.0
 10
460.1490996066239
 20
386.5222157537107
 30
0.0
 10
460.135195827359
 20
384.9949965922652
 30
0.0
 10
460.1085953967794
 20
382.7703034465974
 30
0.0
 10
460.0987073641068
 20
382.0359824116796
 30
0.0
 10
460.0775801777171
 20
380.6165048358987
 30
0.0
 10
460.0663386057778
 20
379.9299977250385
 30
0.0
 10
460.0310230160013
 20
377.9384960755165
 30
0.0
 10
460.0053622858404
 20
376.7008569292083
 30
0.0
 10
459.9653064508649
 20
374.9847045684031
 30
0.0
 10
459.9518705972366
 20
374.4438886875389
 30
0.0
 10
459.9252829534911
 20
373.4283802343365
 30
0.0
 10
459.9121065853578
 20
372.952710393017
 30
0.0
 10
459.88633543939
 20
372.0650344383415
 30
0.0
 10
459.873738606049
 20
371.6530263118644
 30
0.0
 10
459.849561342578
 20
370.894015692425
 30
0.0
 10
459.8379422927446
 20
370.5460398768116
 30
0.0
 10
459.8061347050138
 20
369.6225778349879
 30
0.0
 10
459.7887321243411
 20
369.1586687109306
 30
0.0
 10
459.7717920542036
 20
368.6876589676241
 30
0.0
 10
459.7676813537649
 20
368.5682888853952
 30
0.0
 10
459.7631038940563
 20
368.4083708410487
 30
0.0
 10
459.7626573218672
 20
368.3683708547451
 30
0.0
 10
459.7640956965677
 20
368.3683708550424
 30
0.0
  0
SPLINE
  5
CF
330
1F
100
AcDbEntity
  8
0
  6
Continuous
 62
     7
370
    15
100
AcDbSpline
210
0.0
220
0.0
230
1.0
 70
     8
 71
     3
 72
     9
 73
     5
 74
     0
 42
0.00000001
 43
0.00000001
 40
0.0
 40
0.0
 40
0.0
 40
0.0
 40
0.5639769392478537
 40
0.9999999999999999
 40
0.9999999999999999
 40
0.9999999999999999
 40
0.9999999999999999
 10
456.9223527068479
 20
420.3682204101939
 30
0.0
 10
448.129446364193
 20
420.3501933857737
 30
0.0
 10
432.5385494130137
 20
420.3182292695739
 30
0.0
 10
416.9569476943639
 20
419.7888696381205
 30
0.0
 10
410.1630100215772
 20
419.5580566313756
 30
0.0
  0
SPLINE
  5
D0
330
1F
100
AcDbEntity
  8
0
  6
Continuous
 62
     7
370
    15
100
AcDbSpline
210
0.0
220
0.0
230
1.0
 70
     8
 71
     3
 72
    15
 73
    11
 74
     0
 42
0.00000001
 43
0.00000001
 40
0.0
 40
0.0
 40
0.0
 40
0.0
 40
0.1240304858667093
 40
0.2483913886499779
 40
0.3730647277503099
 40
0.4979576136371584
 40
0.6229823462246716
 40
0.7482475314748515
 40
0.8739651985187189
 40
1.0
 40
1.0
 40
1.0
 40
1.0
 10
456.9222159622018
 20
365.3683582380551
 30
0.0
 10
456.1517394996876
 20
365.3675451481853
 30
0.0
 10
454.608734027213
 20
365.365916802376
 30
0.0
 10
452.2912979733256
 20
365.3510440525706
 30
0.0
 10
449.9685943149426
 20
365.3258077535058
 30
0.0
 10
447.64196114722
 20
365.2863508700905
 30
0.0
 10
445.3119258269406
 20
365.2327592669395
 30
0.0
 10
442.9772788601425
 20
365.1601850042401
 30
0.0
 10
440.6369500419227
 20
365.0699769184441
 30
0.0
 10
439.0749143738221
 20
364.9938110445688
 30
0.0
 10
438.2929126858582
 20
364.9556801342753
 30
0.0
  0
SPLINE
  5
D1
330
1F
100
AcDbEntity
  8
0
  6
Continuous
 62
     7
370
    15
100
AcDbSpline
210
0.0
220
0.0
230
1.0
 70
     8
 71
     3
 72
     9
 73
     5
 74
     0
 42
0.00000001
 43
0.00000001
 40
0.0
 40
0.0
 40
0.0
 40
0.0
 40
0.504346593403496
 40
1.0
 40
1.0
 40
1.0
 40
1.0
 10
438.2929079286878
 20
364.9557738813811
 30
0.0
 10
438.239362407647
 20
364.9530577476245
 30
0.0
 10
438.133194304717
 20
364.947672296841
 30
0.0
 10
438.0156918585411
 20
364.9416659837872
 30
0.0
 10
437.9574513708105
 20
364.9386889342611
 30
0.0
  0
SPLINE
  5
D2
330
1F
100
AcDbEntity
  8
0
  6
Continuous
 62
     7
370
    15
100
AcDbSpline
210
0.0
220
0.0
230
1.0
 70
     8
 71
     3
 72
    13
 73
     9
 74
     0
 42
0.00000001
 43
0.00000001
 40
0.0
 40
0.0
 40
0.0
 40
0.0
 40
0.150565897284794
 40
0.3075552340987535
 40
0.4709887130932422
 40
0.6408727190783386
 40
0.8172064666984513
 40
1.0
 40
1.0
 40
1.0
 40
1.0
 10
470.113595677351
 20
366.7434893286949
 30
0.0
 10
469.8681318254011
 20
366.7569890800447
 30
0.0
 10
469.3667321471826
 20
366.7845645088871
 30
0.0
 10
468.5983297500046
 20
366.8153289077993
 30
0.0
 10
467.798155110135
 20
366.8396342043425
 30
0.0
 10
466.9661960417197
 20
366.8564679945459
 30
0.0
 10
466.1025157835391
 20
366.8667724768563
 30
0.0
 10
465.5161590394392
 20
366.867709610027
 30
0.0
 10
465.2177071347158
 20
366.8681866049326
 30
0.0
  0
SPLINE
  5
D3
330
1F
100
AcDbEntity
  8
0
  6
Continuous
 62
     7
370
    15
100
AcDbSpline
210
0.0
220
0.0
230
1.0
 70
     8
 71
     3
 72
    36
 73
    32
 74
     0
 42
0.00000001
 43
0.00000001
 40
0.0
 40
0.0
 40
0.0
 40
0.0
 40
0.0035234692570935
 40
0.0070755897199093
 40
0.010658299307001
 40
0.0305523444815415
 40
0.0517289540772214
 40
0.0744111684850083
 40
0.1094004385361848
 40
0.1484596182300713
 40
0.1887697832988971
 40
0.2334513010186893
 40
0.2783419270570918
 40
0.3279432631512542
 40
0.4295524945550236
 40
0.5354767712066532
 40
0.562281339896454
 40
0.5890758459092343
 40
0.641852693867149
 40
0.6921818248051937
 40
0.7384782858719707
 40
0.7803436301199012
 40
0.8171503319474911
 40
0.8505603524170029
 40
0.8805371254806361
 40
0.908265544604359
 40
0.9345868906723364
 40
0.9604709182476197
 40
0.987319748701878
 40
0.9935889671062523
 40
1.0
 40
1.0
 40
1.0
 40
1.0
 10
494.1150480674495
 20
303.5189266894557
 30
0.0
 10
494.0576813771319
 20
303.5711334646983
 30
0.0
 10
493.9424815173746
 20
303.6759715362872
 30
0.0
 10
493.7737420612204
 20
303.8390399543915
 30
0.0
 10
493.3548733317105
 20
304.2616276920584
 30
0.0
 10
492.7153106417549
 20
305.0115159525017
 30
0.0
 10
491.9256663166466
 20
306.1744699587974
 30
0.0
 10
491.0911020472657
 20
307.6989599759887
 30
0.0
 10
490.2618448686019
 20
309.6648203106112
 30
0.0
 10
489.5042214813609
 20
312.0684370084685
 30
0.0
 10
488.8732195272223
 20
314.7271050716433
 30
0.0
 10
488.3726325558659
 20
317.5433390605846
 30
0.0
 10
487.9696192174263
 20
320.5810742904565
 30
0.0
 10
487.5512166953071
 20
324.8782663774656
 30
0.0
 10
487.230116833891
 20
330.5312927714979
 30
0.0
 10
487.0808783551546
 20
335.6877510801233
 30
0.0
 10
487.0002201342235
 20
339.1984315148943
 30
0.0
 10
486.9483675961446
 20
341.5395205541336
 30
0.0
 10
486.8772588044677
 20
344.3981821746258
 30
0.0
 10
486.7442940865483
 20
347.6845592163499
 30
0.0
 10
486.5247565143698
 20
350.7261340394699
 30
0.0
 10
486.1851528642373
 20
353.4576736748793
 30
0.0
 10
485.7163766604809
 20
355.8823962998077
 30
0.0
 10
485.1068608400435
 20
358.0059857276489
 30
0.0
 10
484.3353640971365
 20
359.8631632610411
 30
0.0
 10
483.3900350288789
 20
361.4614334841676
 30
0.0
 10
482.2531392824541
 20
362.8157310635029
 30
0.0
 10
480.9134086622179
 20
363.9397499839946
 30
0.0
 10
479.7867753406507
 20
364.5979256066108
 30
0.0
 10
479.0003025277446
 20
364.9704120872216
 30
0.0
 10
478.7434555489502
 20
365.0797861243232
 30
0.0
 10
478.6135957858434
 20
365.1350847562741
 30
0.0
  0
LINE
  5
D4
330
1F
100
AcDbEntity
  8
0
  6
Continuous
 62
     7
370
    15
100
AcDbLine
 10
464.3635956464
 20
366.868370855
 30
0.0
 11
464.3635956464
 21
389.7466069445
 31
0.0
  0
SPLINE
  5
D5
330
1F
100
AcDbEntity
  8
0
  6
Continuous
 62
     7
370
    15
100
AcDbSpline
210
0.0
220
0.0
230
1.0
 70
     8
 71
     3
 72
    20
 73
    16
 74
     0
 42
0.00000001
 43
0.00000001
 40
0.0
 40
0.0
 40
0.0
 40
0.0
 40
0.2500000000000002
 40
0.2500000000000002
 40
0.3750000000000002
 40
0.3750000000000002
 40
0.4375000000000003
 40
0.4375000000000003
 40
0.5000000000000004
 40
0.5000000000000004
 40
0.7500000000000002
 40
0.7500000000000002
 40
0.8750000000000001
 40
0.8750000000000001
 40
1.0
 40
1.0
 40
1.0
 40
1.0
 10
467.8465273947015
 20
406.0715487912278
 30
0.0
 10
467.3201574426249
 20
404.8941181059539
 30
0.0
 10
466.8384055303571
 20
403.6641572562053
 30
0.0
 10
466.1962223728573
 20
401.734565168385
 30
0.0
 10
465.9955829927338
 20
401.0772001071799
 30
0.0
 10
465.716739811
 20
400.0685359376117
 30
0.0
 10
465.6274809912492
 20
399.7285401695565
 30
0.0
 10
465.4567156640492
 20
399.0407050462742
 30
0.0
 10
465.3750596440736
 20
398.6920988953955
 30
0.0
 10
464.9909687154366
 20
396.946641816426
 30
0.0
 10
464.7579398901131
 20
395.5320094963555
 30
0.0
 10
464.5226269605635
 20
393.3821160994481
 30
0.0
 10
464.463266597032
 20
392.660811428339
 30
0.0
 10
464.3837062087508
 20
391.2085531045164
 30
0.0
 10
464.3635956464276
 20
390.4753468351697
 30
0.0
 10
464.3635956464276
 20
389.7466069445082
 30
0.0
  0
LINE
  5
D6
330
1F
100
AcDbEntity
  8
0
  6
Continuous
 62
     7
370
    15
100
AcDbLine
 10
467.8465273947
 20
406.0715487912
 30
0.0
 11
473.5673419621
 21
418.868370855
 31
0.0
  0
ARC
  5
D7
330
1F
100
AcDbEntity
  8
0
  6
Continuous
 62
     7
370
    15
100
AcDbCircle
 10
495.1782606651
 20
304.7036307938
 30
0.0
 40
1.591836939728445
100
AcDbArc
 50
228.0936132098
 51
343.5010015542
  0
SPLINE
  5
D8
330
1F
100
AcDbEntity
  8
0
  6
Continuous
 62
     7
370
    15
100
AcDbSpline
210
0.0
220
0.0
230
1.0
 70
     8
 71
     3
 72
    38
 73
    34
 74
     0
 42
0.00000001
 43
0.00000001
 40
0.0
 40
0.0
 40
0.0
 40
0.0
 40
0.0625
 40
0.0625
 40
0.125
 40
0.125
 40
0.1875000000000001
 40
0.1875000000000001
 40
0.2500000000000001
 40
0.2500000000000001
 40
0.3125000000000001
 40
0.3125000000000001
 40
0.3750000000000001
 40
0.3750000000000001
 40
0.4375000000000001
 40
0.4375000000000001
 40
0.5
 40
0.5
 40
0.5625
 40
0.5625
 40
0.625
 40
0.625
 40
0.6875
 40
0.6875
 40
0.75
 40
0.75
 40
0.8125000000000001
 40
0.8125000000000001
 40
0.8750000000000001
 40
0.8750000000000001
 40
0.9375000000000001
 40
0.9375000000000001
 40
1.0
 40
1.0
 40
1.0
 40
1.0
 10
470.1135956475087
 20
366.7434893304439
 30
0.0
 10
470.1135893136264
 20
366.7438043559588
 30
0.0
 10
470.1414842259824
 20
366.7463651364313
 30
0.0
 10
470.2538659070374
 20
366.7558487120742
 30
0.0
 10
470.3368215401712
 20
366.7626402659524
 30
0.0
 10
470.5547075880622
 20
366.7784200125845
 30
0.0
 10
470.6916352144235
 20
366.7875144154931
 30
0.0
 10
471.0086827645052
 20
366.8040225814391
 30
0.0
 10
471.1888022117658
 20
366.8114764695418
 30
0.0
 10
471.5926825319702
 20
366.8205085293329
 30
0.0
 10
471.816193630177
 20
366.8219461586578
 30
0.0
 10
472.2874241402674
 20
366.8140777779225
 30
0.0
 10
472.5378625656672
 20
366.8048361270825
 30
0.0
 10
473.0664437326607
 20
366.7709862342859
 30
0.0
 10
473.3361778181574
 20
366.7468955862342
 30
0.0
 10
473.8856320737685
 20
366.6818601058172
 30
0.0
 10
474.1685835729451
 20
366.6402769393613
 30
0.0
 10
474.7241876031329
 20
366.5413674351302
 30
0.0
 10
474.9974883899522
 20
366.4841876972498
 30
0.0
 10
475.5353641025068
 20
366.3549260792661
 30
0.0
 10
475.7986984707107
 20
366.28294976602
 30
0.0
 10
476.2961779209098
 20
366.1320233457877
 30
0.0
 10
476.5335357414486
 20
366.0522688797893
 30
0.0
 10
476.9834847093561
 20
365.8883628805833
 30
0.0
 10
477.1902723572741
 20
365.8063834694802
 30
0.0
 10
477.5696965203348
 20
365.6468545876671
 30
0.0
 10
477.7438405162219
 20
365.5685528381123
 30
0.0
 10
478.0481041595631
 20
365.4257833425384
 30
0.0
 10
478.1774412439926
 20
365.3618123612541
 30
0.0
 10
478.3901476136724
 20
365.2539716713525
 30
0.0
 10
478.4739902363385
 20
365.2098410734437
 30
0.0
 10
478.5851638485339
 20
365.1507548456044
 30
0.0
 10
478.6135956464277
 20
365.135278011059
 30
0.0
 10
478.6135956464277
 20
365.135084963322
 30
0.0
  0
SPLINE
  5
D9
330
1F
100
AcDbEntity
  8
0
  6
Continuous
 62
     7
370
    15
100
AcDbSpline
210
0.0
220
0.0
230
1.0
 70
     8
 71
     3
 72
    32
 73
    28
 74
     0
 42
0.00000001
 43
0.00000001
 40
0.0
 40
0.0
 40
0.0
 40
0.0
 40
0.03125
 40
0.03125
 40
0.0624999999999999
 40
0.0624999999999999
 40
0.1250000000000001
 40
0.1250000000000001
 40
0.1875000000000001
 40
0.1875000000000001
 40
0.2500000000000002
 40
0.2500000000000002
 40
0.3125000000000002
 40
0.3125000000000002
 40
0.3750000000000002
 40
0.3750000000000002
 40
0.4375000000000002
 40
0.4375000000000002
 40
0.5000000000000001
 40
0.5000000000000001
 40
0.6250000000000001
 40
0.6250000000000001
 40
0.7500000000000001
 40
0.7500000000000001
 40
0.8750000000000001
 40
0.8750000000000001
 40
1.0
 40
1.0
 40
1.0
 40
1.0
 10
437.9574513603893
 20
364.9386889337352
 30
0.0
 10
437.8472280529938
 20
364.933038589913
 30
0.0
 10
437.7420088111794
 20
364.9276166258712
 30
0.0
 10
437.5198955165375
 20
364.9160943285137
 30
0.0
 10
437.4046855608703
 20
364.9100797668024
 30
0.0
 10
437.0414610005053
 20
364.8909604782199
 30
0.0
 10
436.7751256190479
 20
364.8767334455814
 30
0.0
 10
436.1915956265943
 20
364.8450037453107
 30
0.0
 10
435.8753646369145
 20
364.8275473951974
 30
0.0
 10
435.1919948563997
 20
364.7894616293955
 30
0.0
 10
434.8244990379437
 20
364.768804332648
 30
0.0
 10
434.0472225713169
 20
364.7254182631185
 30
0.0
 10
433.6363111382379
 20
364.702623949162
 30
0.0
 10
432.7692895476985
 20
364.6560715460296
 30
0.0
 10
432.3141140510814
 20
364.6323886175549
 30
0.0
 10
431.3756362055075
 20
364.5866765468048
 30
0.0
 10
430.8905681290858
 20
364.564565299241
 30
0.0
 10
429.8908821510716
 20
364.5235722706404
 30
0.0
 10
429.3747184693886
 20
364.5046566277903
 30
0.0
 10
427.7981342260466
 20
364.4551820608524
 30
0.0
 10
426.7054383937573
 20
364.432078683438
 30
0.0
 10
424.5087032545944
 20
364.3988338043557
 30
0.0
 10
423.4000117868554
 20
364.3885095167424
 30
0.0
 10
421.1683730168566
 20
364.3748847590782
 30
0.0
 10
420.0450493933445
 20
364.371632954565
 30
0.0
 10
417.7887049958014
 20
364.3683631402782
 30
0.0
 10
416.6548257157116
 20
364.368370840988
 30
0.0
 10
415.5222218132812
 20
364.368370840988
 30
0.0
  0
SPLINE
  5
DA
330
1F
100
AcDbEntity
  8
0
  6
Continuous
 62
     7
370
    15
100
AcDbSpline
210
0.0
220
0.0
230
1.0
 70
    24
 71
     3
 72
    11
 73
     7
 74
     0
 42
0.00000001
 43
0.00000001
 40
0.0
 40
0.0
 40
0.0
 40
0.0
 40
0.3570299653670234
 40
0.6615510768015833
 40
0.9739369107298556
 40
1.0
 40
1.0
 40
1.0
 40
1.0
 10
415.442374885317
 20
364.368370840988
 30
0.0
 10
414.6778355174002
 20
364.368370840988
 30
0.0
 10
413.2611985648615
 20
364.368370840988
 30
0.0
 10
411.2631492334535
 20
364.368370840988
 30
0.0
 10
409.9694024353587
 20
364.368370840988
 30
0.0
 10
409.3724659467255
 20
364.368370840988
 30
0.0
 10
409.3264973886199
 20
364.368370840988
 30
0.0
  0
SPLINE
  5
DB
330
1F
100
AcDbEntity
  8
0
  6
Continuous
 62
     7
370
    15
100
AcDbSpline
210
0.0
220
0.0
230
1.0
 70
    24
 71
     3
 72
     8
 73
     4
 74
     0
 42
0.00000001
 43
0.00000001
 40
0.0
 40
0.0
 40
0.0
 40
0.0
 40
0.0000798548083086
 40
0.0000798548083086
 40
0.0000798548083086
 40
0.0000798548083086
 10
415.5222218132811
 20
364.368370840988
 30
0.0
 10
415.4956047563754
 20
364.368370840988
 30
0.0
 10
415.4689877684784
 20
364.368370840988
 30
0.0
 10
415.4423708461119
 20
364.368370840988
 30
0.0
  0
SPLINE
  5
DC
330
1F
100
AcDbEntity
  8
0
  6
Continuous
 62
     7
370
    15
100
AcDbSpline
210
0.0
220
0.0
230
1.0
 70
     8
 71
     3
 72
    11
 73
     7
 74
     0
 42
0.00000001
 43
0.00000001
 40
0.0
 40
0.0
 40
0.0
 40
0.0
 40
0.2955271209577732
 40
0.3969690929044039
 40
0.7761492685173981
 40
1.0
 40
1.0
 40
1.0
 40
1.0
 10
438.2929573735585
 20
364.9557763893845
 30
0.0
 10
437.2574915976738
 20
364.899489821215
 30
0.0
 10
435.8665941786678
 20
364.8238824528063
 30
0.0
 10
433.1471449079635
 20
364.6766584675601
 30
0.0
 10
430.6786880374219
 20
364.5378472359429
 30
0.0
 10
428.5631111982604
 20
364.4904961823127
 30
0.0
 10
427.7777892232478
 20
364.4729190268686
 30
0.0
  0
LINE
  5
DD
330
1F
100
AcDbEntity
  8
0
  6
Continuous
 62
     7
370
    15
100
AcDbLine
 10
427.5222218133
 20
364.368370841
 30
0.0
 11
415.6732809029
 21
364.368370841
 31
0.0
  0
LINE
  5
DE
330
1F
100
AcDbEntity
  8
0
  6
Continuous
 62
     7
370
    15
100
AcDbLine
 10
427.5222218133
 20
357.368370841
 30
0.0
 11
403.5222218133
 21
357.368370841
 31
0.0
  0
LINE
  5
DF
330
1F
100
AcDbEntity
  8
0
  6
Continuous
 62
     7
370
    15
100
AcDbLine
 10
424.9722218133
 20
346.368370841
 30
0.0
 11
406.0722218133
 21
346.368370841
 31
0.0
  0
LINE
  5
E0
330
1F
100
AcDbEntity
  8
0
  6
Continuous
 62
     7
370
    15
100
AcDbLine
 10
405.0722218133
 20
347.368370841
 30
0.0
 11
425.9722218133
 21
347.368370841
 31
0.0
  0
LINE
  5
E1
330
1F
100
AcDbEntity
  8
0
  6
Continuous
 62
     7
370
    15
100
AcDbLine
 10
470.3635956464
 20
366.618370855
 30
0.0
 11
474.3635956464
 21
366.618370855
 31
0.0
  0
SPLINE
  5
E2
330
1F
100
AcDbEntity
  8
0
  6
Continuous
 62
     8
370
     0
100
AcDbSpline
210
0.0
220
0.0
230
1.0
 70
    24
 71
     3
 72
    26
 73
    22
 74
     0
 42
0.00000001
 43
0.00000001
 40
0.0
 40
0.0
 40
0.0
 40
0.0
 40
0.0544081420481431
 40
0.1088162840962867
 40
0.1632244261444297
 40
0.2176325681925727
 40
0.2720407102407164
 40
0.3264488522888593
 40
0.3808569943370023
 40
0.4352651363851467
 40
0.4896732784332889
 40
0.5440814204814326
 40
0.5984895625295762
 40
0.6528977045777186
 40
0.7073058466258622
 40
0.7617139886740051
 40
0.8161221307221487
 40
0.8705302727702917
 40
0.9249384148184346
 40
0.9793465568665783
 40
1.0
 40
1.0
 40
1.0
 40
1.0
 10
407.2866734607373
 20
417.3891825838861
 30
0.0
 10
407.2866734607373
 20
416.3802760911602
 30
0.0
 10
407.2866734607373
 20
414.3624631057083
 30
0.0
 10
407.2866734607374
 20
410.8556578955156
 30
0.0
 10
407.2866734607373
 20
407.0712845026438
 30
0.0
 10
407.2866734607373
 20
403.0359077868459
 30
0.0
 10
407.2866734607373
 20
398.8288062955299
 30
0.0
 10
407.2866734607373
 20
394.5192229879349
 30
0.0
 10
407.2866734607373
 20
390.1816307511381
 30
0.0
 10
407.2866734607373
 20
385.8900498172575
 30
0.0
 10
407.2866734607373
 20
381.7179642987257
 30
0.0
 10
407.2866734607373
 20
377.7367410179354
 30
0.0
 10
407.2866734607374
 20
374.014520706422
 30
0.0
 10
407.2866734607373
 20
370.6149267136697
 30
0.0
 10
407.2866734607374
 20
367.5963656262041
 30
0.0
 10
407.2866734607373
 20
365.0095963701179
 30
0.0
 10
407.2866734607373
 20
362.9021986578754
 30
0.0
 10
407.2866734607373
 20
361.2978426464121
 30
0.0
 10
407.2866734607373
 20
360.2702119473993
 30
0.0
 10
407.2866734607374
 20
359.7896395071667
 30
0.0
 10
407.2866734607373
 20
359.8523696543747
 30
0.0
 10
407.2866734607373
 20
359.8696300616121
 30
0.0
  0
SPLINE
  5
E3
330
1F
100
AcDbEntity
  8
0
  6
Continuous
 62
     8
370
     0
100
AcDbSpline
210
0.0
220
0.0
230
1.0
 70
    24
 71
     3
 72
    13
 73
     9
 74
     0
 42
0.00000001
 43
0.00000001
 40
0.0
 40
0.0
 40
0.0
 40
0.0
 40
0.1103779378340352
 40
0.2883023502672295
 40
0.4662267627004218
 40
0.644151175133615
 40
0.822075587566808
 40
0.9999999999999999
 40
0.9999999999999999
 40
0.9999999999999999
 40
0.9999999999999999
 10
407.2866734607373
 20
425.8767284259376
 30
0.0
 10
407.2866734607373
 20
425.8818705635142
 30
0.0
 10
407.2866734607373
 20
425.8953016021603
 30
0.0
 10
407.2866734607373
 20
425.2791609542912
 30
0.0
 10
407.2866734607373
 20
424.1109998635116
 30
0.0
 10
407.2866734607373
 20
422.3762923353065
 30
0.0
 10
407.2866734607373
 20
420.173292404467
 30
0.0
 10
407.2866734607373
 20
418.3172191907467
 30
0.0
 10
407.2866734607373
 20
417.3891825838865
 30
0.0
  0
LINE
  5
E4
330
1F
100
AcDbEntity
  8
0
  6
Continuous
 62
     8
370
     0
100
AcDbLine
 10
404.6754920503
 20
418.5937118855
 30
0.0
 11
404.6754920503
 21
427.5699247872
 31
0.0
  0
LINE
  5
E5
330
1F
100
AcDbEntity
  8
0
  6
Continuous
 62
     8
370
     0
100
AcDbLine
 10
404.6754920503
 20
358.1668168947
 30
0.0
 11
404.6754920503
 21
418.5937118855
 31
0.0
  0
SPLINE
  5
E6
330
1F
100
AcDbEntity
  8
0
  6
Continuous
 62
     8
370
    15
100
AcDbSpline
210
0.0
220
0.0
230
1.0
 70
     8
 71
     3
 72
    19
 73
    15
 74
     0
 42
0.00000001
 43
0.00000001
 40
0.0
 40
0.0
 40
0.0
 40
0.0
 40
0.0665742295712128
 40
0.1361967427196256
 40
0.2088672191803736
 40
0.284585324512779
 40
0.3633507101064106
 40
0.4451630131863754
 40
0.5300218568181979
 40
0.6179268499126483
 40
0.7088775872305795
 40
0.8028736493882739
 40
0.8999146028629552
 40
1.0
 40
1.0
 40
1.0
 40
1.0
 10
457.454161414563
 20
417.6003819566276
 30
0.0
 10
457.4914487585767
 20
417.5993268504449
 30
0.0
 10
457.5677307498524
 20
417.5971683271511
 30
0.0
 10
457.6836798314886
 20
417.5798529296765
 30
0.0
 10
457.8024001324625
 20
417.5506893475295
 30
0.0
 10
457.9222874617365
 20
417.5074289825046
 30
0.0
 10
458.0414415979475
 20
417.4493238177878
 30
0.0
 10
458.1576668206332
 20
417.3754762139831
 30
0.0
 10
458.2685003161564
 20
417.285398426421
 30
0.0
 10
458.3711902382668
 20
417.1789370797246
 30
0.0
 10
458.4629458261712
 20
417.0564202773991
 30
0.0
 10
458.5402017346076
 20
416.9185807156524
 30
0.0
 10
458.6018391957151
 20
416.7671570952209
 30
0.0
 10
458.6249313555321
 20
416.6592885161839
 30
0.0
 10
458.6366557545222
 20
416.6045212588486
 30
0.0
  0
SPLINE
  5
E7
330
1F
100
AcDbEntity
  8
0
  6
Continuous
 62
     8
370
    15
100
AcDbSpline
210
0.0
220
0.0
230
1.0
 70
     8
 71
     3
 72
    10
 73
     6
 74
     0
 42
0.00000001
 43
0.00000001
 40
0.0
 40
0.0
 40
0.0
 40
0.0
 40
0.5
 40
0.5
 40
1.0
 40
1.0
 40
1.0
 40
1.0
 10
457.4541457953195
 20
368.1364273147312
 30
0.0
 10
457.7342589438825
 20
368.1367979726464
 30
0.0
 10
458.0132746193514
 20
368.2388148261115
 30
0.0
 10
458.4416168343632
 20
368.5995250626843
 30
0.0
 10
458.589265144739
 20
368.8568051962482
 30
0.0
 10
458.6366572455771
 20
369.1322291993543
 30
0.0
  0
SPLINE
  5
E8
330
1F
100
AcDbEntity
  8
0
  6
Continuous
 62
     8
370
    15
100
AcDbSpline
210
0.0
220
0.0
230
1.0
 70
     8
 71
     3
 72
    19
 73
    15
 74
     0
 42
0.00000001
 43
0.00000001
 40
0.300000000091286
 40
0.300000000091286
 40
0.300000000091286
 40
0.300000000091286
 40
0.362500000091286
 40
0.425000000091286
 40
0.487500000091286
 40
0.5500000000912859
 40
0.6125000000912859
 40
0.6750000000912859
 40
0.7375000000912859
 40
0.8000000000912859
 40
0.8625000000912859
 40
0.9250000000912859
 40
0.9875000000912859
 40
1.0
 40
1.0
 40
1.0
 40
1.0
 10
456.9222218132812
 20
417.6041724421128
 30
0.0
 10
456.4246790311337
 20
417.6041724421128
 30
0.0
 10
455.429581536494
 20
417.6005776252954
 30
0.0
 10
453.9372447904657
 20
417.572540844186
 30
0.0
 10
452.4455628273346
 20
417.5099994017621
 30
0.0
 10
450.9573940387223
 20
417.3949171089119
 30
0.0
 10
449.4755968162498
 20
417.2092577765235
 30
0.0
 10
448.0062880124296
 20
416.9444146788198
 30
0.0
 10
446.5555844797738
 20
416.5917810900233
 30
0.0
 10
445.1265960638927
 20
416.1588998373031
 30
0.0
 10
443.7224326103968
 20
415.6533137478281
 30
0.0
 10
442.342336731237
 20
415.0850576645987
 30
0.0
 10
441.3473605571241
 20
414.6297374266467
 30
0.0
 10
440.8098750742468
 20
414.370438292744
 30
0.0
 10
440.7204373738494
 20
414.3269271962072
 30
0.0
  0
SPLINE
  5
E9
330
1F
100
AcDbEntity
  8
0
  6
Continuous
 62
     8
370
    15
100
AcDbSpline
210
0.0
220
0.0
230
1.0
 70
     8
 71
     3
 72
    18
 73
    14
 74
     0
 42
0.00000001
 43
0.00000001
 40
0.0
 40
0.0
 40
0.0
 40
0.0
 40
0.25
 40
0.25
 40
0.5
 40
0.5
 40
0.625
 40
0.625
 40
0.75
 40
0.75
 40
0.875
 40
0.875
 40
1.0
 40
1.0
 40
1.0
 40
1.0
 10
440.5254857460952
 20
371.5052513097876
 30
0.0
 10
441.7750298658092
 20
370.8900603612598
 30
0.0
 10
443.0083636791364
 20
370.3523635016811
 30
0.0
 10
445.4545729346459
 20
369.4555243033836
 30
0.0
 10
446.6655017219778
 20
369.0967363714523
 30
0.0
 10
448.5387391102803
 20
368.6929286483154
 30
0.0
 10
449.1734970261442
 20
368.5805036682258
 30
0.0
 10
450.4891425163124
 20
368.396930911478
 30
0.0
 10
451.1699692576528
 20
368.3257942100316
 30
0.0
 10
452.6140558090873
 20
368.2192663998165
 30
0.0
 10
453.3772547862173
 20
368.1838863662598
 30
0.0
 10
455.0352005324598
 20
368.1405322486771
 30
0.0
 10
455.9298864686082
 20
368.1325692398632
 30
0.0
 10
456.9222218132812
 20
368.1325692398632
 30
0.0
  0
SPLINE
  5
EA
330
1F
100
AcDbEntity
  8
0
  6
Continuous
 62
     8
370
    15
100
AcDbSpline
210
0.0
220
0.0
230
1.0
 70
     8
 71
     3
 72
    10
 73
     6
 74
     0
 42
0.00000001
 43
0.00000001
 40
0.0
 40
0.0
 40
0.0
 40
0.0
 40
0.5
 40
0.5
 40
1.0
 40
1.0
 40
1.0
 40
1.0
 10
432.4094027195794
 20
376.313079921784
 30
0.0
 10
433.7794492548569
 20
375.397427221181
 30
0.0
 10
435.1363483361968
 20
374.523310322992
 30
0.0
 10
437.8445079587362
 20
372.9049700643122
 30
0.0
 10
439.1930849767326
 20
372.1612352644086
 30
0.0
 10
440.5254857460952
 20
371.5052513097876
 30
0.0
  0
SPLINE
  5
EB
330
1F
100
AcDbEntity
  8
0
  6
Continuous
 62
     8
370
    15
100
AcDbSpline
210
0.0
220
0.0
230
1.0
 70
     8
 71
     3
 72
    10
 73
     6
 74
     0
 42
0.00000001
 43
0.00000001
 40
0.0
 40
0.0
 40
0.0
 40
0.0
 40
0.5
 40
0.5
 40
1.0
 40
1.0
 40
1.0
 40
1.0
 10
440.7204473905336
 20
414.3269067123751
 30
0.0
 10
439.3570828729686
 20
413.6636619191448
 30
0.0
 10
437.9762456995212
 20
412.9073006905601
 30
0.0
 10
435.2024808999238
 20
411.2559257485409
 30
0.0
 10
433.8125812337748
 20
410.3614633036457
 30
0.0
 10
432.4090398541925
 20
409.4234192431386
 30
0.0
  0
LINE
  5
EC
330
1F
100
AcDbEntity
  8
0
  6
Continuous
 62
     8
370
    15
100
AcDbLine
 10
456.9222218133
 20
417.6041724421
 30
0.0
 11
457.4550593955
 21
417.6041724421
 31
0.0
  0
SPLINE
  5
ED
330
1F
100
AcDbEntity
  8
0
  6
Continuous
 62
     8
370
     0
100
AcDbSpline
210
0.0
220
0.0
230
1.0
 70
     8
 71
     3
 72
     8
 73
     4
 74
     0
 42
0.00000001
 43
0.00000001
 40
0.0
 40
0.0
 40
0.0
 40
0.0
 40
0.0000519666557565
 40
0.0000519666557565
 40
0.0000519666557565
 40
0.0000519666557565
 10
457.4541614145656
 20
417.6003819566387
 30
0.0
 10
457.454457825801
 20
417.6016635497971
 30
0.0
 10
457.4547571543375
 20
417.6029270462703
 30
0.0
 10
457.4550593955494
 20
417.6041724421128
 30
0.0
  0
SPLINE
  5
EE
330
1F
100
AcDbEntity
  8
0
  6
Continuous
 62
     8
370
     0
100
AcDbSpline
210
0.0
220
0.0
230
1.0
 70
     8
 71
     3
 72
     8
 73
     4
 74
     0
 42
0.00000001
 43
0.00000001
 40
0.0
 40
0.0
 40
0.0
 40
0.0
 40
0.0000528796280679
 40
0.0000528796280679
 40
0.0000528796280679
 40
0.0000528796280679
 10
457.4550389383722
 20
368.1325692398632
 30
0.0
 10
457.4547381394178
 20
368.1338365237294
 30
0.0
 10
457.4544404051488
 20
368.1351225500509
 30
0.0
 10
457.4541457403977
 20
368.1364273146633
 30
0.0
  0
LINE
  5
EF
330
1F
100
AcDbEntity
  8
0
  6
Continuous
 62
     8
370
     0
100
AcDbLine
 10
456.9222218133
 20
368.1325692399
 30
0.0
 11
457.4550389384
 21
368.1325692399
 31
0.0
  0
SPLINE
  5
F0
330
1F
100
AcDbEntity
  8
0
  6
Continuous
 62
     8
370
    15
100
AcDbSpline
210
0.0
220
0.0
230
1.0
 70
     8
 71
     3
 72
    10
 73
     6
 74
     0
 42
0.00000001
 43
0.00000001
 40
0.0572089646145833
 40
0.0572089646145833
 40
0.0572089646145833
 40
0.0572089646145833
 40
0.0625
 40
0.5
 40
1.0
 40
1.0
 40
1.0
 40
1.0
 10
458.6366594182917
 20
369.1322419877928
 30
0.0
 10
458.6420915090961
 20
369.164214900674
 30
0.0
 10
459.095411436214
 20
371.8486899895327
 30
0.0
 10
459.8333228242948
 20
379.1160949969606
 30
0.0
 10
460.0885472268303
 20
388.0849705474133
 30
0.0
 10
460.0885472268303
 20
392.868370840988
 30
0.0
  0
LINE
  5
F1
330
1F
100
AcDbEntity
  8
0
  6
Continuous
 62
     8
370
     0
100
AcDbLine
 10
417.4908487799
 20
390.1901962215
 30
0.0
 11
417.4908487799
 21
395.5465454605
 31
0.0
  0
LINE
  5
F2
330
1F
100
AcDbEntity
  8
0
  6
Continuous
 62
     8
370
     0
100
AcDbLine
 10
417.4908487799
 20
377.868370841
 30
0.0
 11
417.4908487799
 21
380.5465454605
 31
0.0
  0
LINE
  5
F3
330
1F
100
AcDbEntity
  8
0
  6
Continuous
 62
     8
370
     0
100
AcDbLine
 10
417.4908487799
 20
405.1901962215
 30
0.0
 11
417.4908487799
 21
407.868370841
 31
0.0
  0
LINE
  5
F4
330
1F
100
AcDbEntity
  8
0
  6
Continuous
 62
     8
370
     0
100
AcDbLine
 10
426.5535948467
 20
405.1901962215
 30
0.0
 11
426.5535948467
 21
407.868370841
 31
0.0
  0
LINE
  5
F5
330
1F
100
AcDbEntity
  8
0
  6
Continuous
 62
     8
370
     0
100
AcDbLine
 10
426.5535948467
 20
377.868370841
 30
0.0
 11
426.5535948467
 21
380.5465454605
 31
0.0
  0
LINE
  5
F6
330
1F
100
AcDbEntity
  8
0
  6
Continuous
 62
     8
370
     0
100
AcDbLine
 10
426.5535948467
 20
390.1901962215
 30
0.0
 11
426.5535948467
 21
395.5465454605
 31
0.0
  0
SPLINE
  5
F7
330
1F
100
AcDbEntity
  8
0
  6
Continuous
 62
     8
370
     0
100
AcDbSpline
210
0.0
220
0.0
230
1.0
 70
     8
 71
     3
 72
    10
 73
     6
 74
     0
 42
0.00000001
 43
0.00000001
 40
0.0
 40
0.0
 40
0.0
 40
0.0
 40
0.5000000000000012
 40
0.5000000000000012
 40
1.0
 40
1.0
 40
1.0
 40
1.0
 10
432.4098769632652
 20
376.3127028656254
 30
0.0
 10
432.1381116301014
 20
376.4940571918107
 30
0.0
 10
431.9120838287457
 20
376.7430013371643
 30
0.0
 10
431.6039919881823
 20
377.3182588812982
 30
0.0
 10
431.5222218132811
 20
377.6440235876527
 30
0.0
 10
431.5222218132811
 20
377.9700993117103
 30
0.0
  0
SPLINE
  5
F8
330
1F
100
AcDbEntity
  8
0
  6
Continuous
 62
     8
370
     0
100
AcDbSpline
210
0.0
220
0.0
230
1.0
 70
     8
 71
     3
 72
    10
 73
     6
 74
     0
 42
0.00000001
 43
0.00000001
 40
0.0
 40
0.0
 40
0.0
 40
0.0
 40
0.5
 40
0.5
 40
1.0
 40
1.0
 40
1.0
 40
1.0
 10
432.4089018012513
 20
409.4233269779153
 30
0.0
 10
432.1374057343066
 20
409.2419421846327
 30
0.0
 10
431.9116307400898
 20
408.993056238444
 30
0.0
 10
431.6038923648229
 20
408.4180237761719
 30
0.0
 10
431.5222218132811
 20
408.0924245213017
 30
0.0
 10
431.5222218132811
 20
407.7665108892428
 30
0.0
  0
SPLINE
  5
F9
330
1F
100
AcDbEntity
  8
0
  6
Continuous
 62
     8
370
     0
100
AcDbSpline
210
0.0
220
0.0
230
1.0
 70
     8
 71
     3
 72
     9
 73
     5
 74
     0
 42
0.00000001
 43
0.00000001
 40
0.0
 40
0.0
 40
0.0
 40
0.0
 40
0.356418764844409
 40
1.0
 40
1.0
 40
1.0
 40
1.0
 10
432.3834945836975
 20
409.461046256902
 30
0.0
 10
432.3900830471093
 20
409.4668128582576
 30
0.0
 10
432.4085682225872
 20
409.4829921448844
 30
0.0
 10
432.4089667845959
 20
409.4467606057972
 30
0.0
 10
432.4092232916258
 20
409.4234426671199
 30
0.0
  0
SPLINE
  5
FA
330
1F
100
AcDbEntity
  8
0
  6
Continuous
 62
     8
370
     0
100
AcDbSpline
210
0.0
220
0.0
230
1.0
 70
     8
 71
     3
 72
    10
 73
     6
 74
     0
 42
0.00000001
 43
0.00000001
 40
0.0
 40
0.0
 40
0.0
 40
0.0
 40
0.4172739961142167
 40
0.8353231299596225
 40
1.0
 40
1.0
 40
1.0
 40
1.0
 10
432.4098769632652
 20
376.3127028656253
 30
0.0
 10
432.4088149965812
 20
376.2974314118029
 30
0.0
 10
432.4066890904796
 20
376.2668601355556
 30
0.0
 10
432.394770154968
 20
376.2544574866171
 30
0.0
 10
432.3817518082204
 20
376.266152302272
 30
0.0
 10
432.3780728569101
 20
376.2694572270993
 30
0.0
  0
ARC
  5
FB
330
1F
100
AcDbEntity
  8
0
  6
Continuous
 62
     8
370
     0
100
AcDbCircle
 10
457.4542961894
 20
416.4032937459
 30
0.0
 40
1.200878938779118
100
AcDbArc
 50
9.8200155393
 51
89.9635862573
  0
SPLINE
  5
FC
330
1F
100
AcDbEntity
  8
0
  6
Continuous
 62
     8
370
     0
100
AcDbSpline
210
0.0
220
0.0
230
1.0
 70
     8
 71
     3
 72
    11
 73
     7
 74
     0
 42
0.00000001
 43
0.00000001
 40
0.0
 40
0.0
 40
0.0
 40
0.0
 40
0.0000501449774697
 40
0.0000501449774697
 40
0.0000501449774697
 40
0.0000502049774697
 40
0.0000502049774697
 40
0.0000502049774697
 40
0.0000502049774697
 10
458.6375803037018
 20
416.6081081260726
 30
0.0
 10
458.6372694126559
 20
416.6069321174988
 30
0.0
 10
458.6369615925787
 20
416.6057379442878
 30
0.0
 10
458.6366568484162
 20
416.6045256107094
 30
0.0
 10
458.6366564837805
 20
416.6045241601151
 30
0.0
 10
458.6366561191537
 20
416.6045227094949
 30
0.0
 10
458.6366557545222
 20
416.6045212588486
 30
0.0
  0
SPLINE
  5
FD
330
1F
100
AcDbEntity
  8
0
  6
Continuous
 62
     8
370
     0
100
AcDbSpline
210
0.0
220
0.0
230
1.0
 70
     8
 71
     3
 72
    11
 73
     7
 74
     0
 42
0.00000001
 43
0.00000001
 40
-0.00000006
 40
-0.00000006
 40
-0.00000006
 40
-0.00000006
 40
0.0
 40
0.0
 40
0.0
 40
0.0000506231226545
 40
0.0000506231226545
 40
0.0000506231226545
 40
0.0000506231226545
 10
458.6366615910016
 20
369.1322547762279
 30
0.0
 10
458.6366619470314
 20
369.1322533230427
 30
0.0
 10
458.6366623030568
 20
369.1322518698873
 30
0.0
 10
458.6366626590905
 20
369.132250416754
 30
0.0
 10
458.6369630513584
 20
369.1310243810499
 30
0.0
 10
458.6372666296156
 20
369.1298168631922
 30
0.0
 10
458.6375733888256
 20
369.12862786763
 30
0.0
  0
ARC
  5
FE
330
1F
100
AcDbEntity
  8
0
  6
Continuous
 62
     8
370
     0
100
AcDbCircle
 10
457.4543207053
 20
369.333411801
 30
0.0
 40
1.20084277591942
100
AcDbArc
 50
270.0342690385
 51
350.1811601139
  0
SPLINE
  5
FF
330
1F
100
AcDbEntity
  8
0
  6
Continuous
 62
     8
370
     0
100
AcDbSpline
210
0.0
220
0.0
230
1.0
 70
     8
 71
     3
 72
    11
 73
     7
 74
     0
 42
0.00000001
 43
0.00000001
 40
0.0
 40
0.0
 40
0.0
 40
0.0
 40
0.0000001960440459
 40
0.0000001960440459
 40
0.0000001960440459
 40
0.0000804618779547
 40
0.0000804618779547
 40
0.0000804618779547
 40
0.0000804618779547
 10
415.4347462169956
 20
364.6918287492644
 30
0.0
 10
415.4348115600482
 20
364.6918279477944
 30
0.0
 10
415.4348769031005
 20
364.6918271462997
 30
0.0
 10
415.4349422461524
 20
364.6918263447802
 30
0.0
 10
415.4616954893169
 20
364.6914981806473
 30
0.0
 10
415.4884486717963
 20
364.6911658699736
 30
0.0
 10
415.5152017694851
 20
364.6908289778036
 30
0.0
  0
SPLINE
  5
100
330
1F
100
AcDbEntity
  8
0
  6
Continuous
 62
     8
370
     0
100
AcDbSpline
210
0.0
220
0.0
230
1.0
 70
     8
 71
     3
 72
    27
 73
    23
 74
     0
 42
0.00000001
 43
0.00000001
 40
0.0
 40
0.0
 40
0.0
 40
0.0
 40
0.0880442389855741
 40
0.1325730905450188
 40
0.1778593283581016
 40
0.2217542699782871
 40
0.2659567840019113
 40
0.310513887485525
 40
0.3558017777257554
 40
0.3910359186111938
 40
0.4619917778863709
 40
0.533681601439904
 40
0.5775765430641863
 40
0.6217790570920091
 40
0.6663361605799417
 40
0.7116240508247325
 40
0.7554793923815124
 40
0.7996414678302093
 40
0.8442786081628461
 40
0.8895664984097387
 40
0.9776071202434763
 40
1.0
 40
1.0
 40
1.0
 40
1.0
 10
495.1784182949834
 20
384.5526081259473
 30
0.0
 10
495.1784213392991
 20
385.9462953003864
 30
0.0
 10
495.1784259232941
 20
388.0448473248819
 30
0.0
 10
495.1784199316756
 20
390.9554644522283
 30
0.0
 10
495.1784129908226
 20
393.1524530471307
 30
0.0
 10
495.1784041438448
 20
395.3431623618662
 30
0.0
 10
495.1783947354798
 20
397.5043081878437
 30
0.0
 10
495.1783855538685
 20
399.6551997951251
 30
0.0
 10
495.1783780686748
 20
401.6168091690938
 30
0.0
 10
495.1783707349048
 20
403.9265722945624
 30
0.0
 10
495.178365216429
 20
406.5224171493971
 30
0.0
 10
495.178363831674
 20
409.0268837944952
 30
0.0
 10
495.1783649368122
 20
410.988023343513
 30
0.0
 10
495.1783669070464
 20
412.4896798067499
 30
0.0
 10
495.1783695701494
 20
413.8672870151588
 30
0.0
 10
495.1783725356747
 20
415.0903535702345
 30
0.0
 10
495.1783754964439
 20
416.1517122546319
 30
0.0
 10
495.1783782249639
 20
417.0445806256046
 30
0.0
 10
495.1783806059513
 20
417.7769337531077
 30
0.0
 10
495.1783830552587
 20
418.4994420122551
 30
0.0
 10
495.1783843624564
 20
418.8674027021184
 30
0.0
 10
495.1783842968575
 20
418.8489449280228
 30
0.0
 10
495.1783842835558
 20
418.8452021985979
 30
0.0
  0
SPLINE
  5
101
330
1F
100
AcDbEntity
  8
0
  6
Continuous
 62
     8
370
     0
100
AcDbSpline
210
0.0
220
0.0
230
1.0
 70
     8
 71
     3
 72
    38
 73
    34
 74
     0
 42
0.00000001
 43
0.00000001
 40
0.0
 40
0.0
 40
0.0
 40
0.0
 40
0.0313303418623002
 40
0.0624375252409744
 40
0.0940077366633852
 40
0.125150779368649
 40
0.156510257460072
 40
0.1876417671345455
 40
0.2190807157109407
 40
0.2506561195026817
 40
0.2815602854986985
 40
0.3128967156410037
 40
0.3445485292651683
 40
0.375337326577905
 40
0.4377533440602081
 40
0.4682359211729182
 40
0.499287901877409
 40
0.5149544980720621
 40
0.5306213221256613
 40
0.561505678703217
 40
0.5922084760081139
 40
0.6241069947571355
 40
0.6550092403723476
 40
0.6865771981568614
 40
0.7180127900648494
 40
0.7488822655303279
 40
0.7795896948254407
 40
0.8113129532016264
 40
0.8423727600776297
 40
0.8736783713947667
 40
0.9359573888313654
 40
0.9980720029864465
 40
1.0
 40
1.0
 40
1.0
 40
1.0
 10
496.7044676809595
 20
384.9178569365905
 30
0.0
 10
496.7042909924614
 20
385.3869865222155
 30
0.0
 10
496.7039388739749
 20
386.3219041963501
 30
0.0
 10
496.7051109755794
 20
387.7599498573518
 30
0.0
 10
496.7045195996957
 20
389.2114090725893
 30
0.0
 10
496.7045214632291
 20
390.6801433809054
 30
0.0
 10
496.7045785411501
 20
392.1495212974361
 30
0.0
 10
496.7046922370017
 20
393.6261144756749
 30
0.0
 10
496.7048871542776
 20
395.1034071373111
 30
0.0
 10
496.70485796148
 20
396.5692711223898
 30
0.0
 10
496.7047639423563
 20
398.0205266128658
 30
0.0
 10
496.70462342826
 20
399.4549838734154
 30
0.0
 10
496.7047027043645
 20
400.8642683527116
 30
0.0
 10
496.7048672877872
 20
402.7027249501115
 30
0.0
 10
496.7044829766845
 20
404.4618473570729
 30
0.0
 10
496.7046218835054
 20
406.1390414469082
 30
0.0
 10
496.7047534486716
 20
407.1461027599128
 30
0.0
 10
496.7047553891225
 20
407.9346438987386
 30
0.0
 10
496.7047516397545
 20
408.703502666553
 30
0.0
 10
496.7048007359425
 20
409.6245011482876
 30
0.0
 10
496.7047779946072
 20
410.6813065631189
 30
0.0
 10
496.7048461532794
 20
411.6756826843445
 30
0.0
 10
496.704695743202
 20
412.6129326826379
 30
0.0
 10
496.7045496773285
 20
413.4762074262247
 30
0.0
 10
496.7046011376075
 20
414.2655648156372
 30
0.0
 10
496.7047177221039
 20
414.9731721198866
 30
0.0
 10
496.7045441805204
 20
415.6076820010262
 30
0.0
 10
496.704358838305
 20
416.1643581088864
 30
0.0
 10
496.7044420606308
 20
416.6403624772859
 30
0.0
 10
496.7046219793613
 20
417.165009546961
 30
0.0
 10
496.7046092783052
 20
417.5764173861331
 30
0.0
 10
496.7046918293353
 20
417.7827640181674
 30
0.0
 10
496.704700614658
 20
417.7251964927517
 30
0.0
 10
496.7047008791393
 20
417.7234634276087
 30
0.0
  0
SPLINE
  5
102
330
1F
100
AcDbEntity
  8
0
  6
Continuous
 62
     8
370
     0
100
AcDbSpline
210
0.0
220
0.0
230
1.0
 70
     8
 71
     3
 72
    70
 73
    66
 74
     0
 42
0.00000001
 43
0.00000001
 40
0.0
 40
0.0
 40
0.0
 40
0.0
 40
0.0156249999999995
 40
0.0156249999999995
 40
0.0312499999999989
 40
0.0312499999999989
 40
0.0624999999999979
 40
0.0624999999999979
 40
0.0781249999999974
 40
0.0781249999999974
 40
0.0937499999999969
 40
0.0937499999999969
 40
0.1249999999999959
 40
0.1249999999999959
 40
0.1406249999999954
 40
0.1406249999999954
 40
0.1562499999999949
 40
0.1562499999999949
 40
0.1874999999999939
 40
0.1874999999999939
 40
0.2031249999999934
 40
0.2031249999999934
 40
0.218749999999993
 40
0.218749999999993
 40
0.2499999999999924
 40
0.2499999999999924
 40
0.2656249999999923
 40
0.2656249999999923
 40
0.2812499999999923
 40
0.2812499999999923
 40
0.2968749999999922
 40
0.2968749999999922
 40
0.3124999999999922
 40
0.3124999999999922
 40
0.3749999999999928
 40
0.3749999999999928
 40
0.4374999999999934
 40
0.4374999999999934
 40
0.499999999999994
 40
0.499999999999994
 40
0.5624999999999946
 40
0.5624999999999946
 40
0.6249999999999951
 40
0.6249999999999951
 40
0.6874999999999958
 40
0.6874999999999958
 40
0.7499999999999963
 40
0.7499999999999963
 40
0.7812499999999968
 40
0.7812499999999968
 40
0.8124999999999972
 40
0.8124999999999972
 40
0.8437499999999977
 40
0.8437499999999977
 40
0.8749999999999981
 40
0.8749999999999981
 40
0.8906249999999984
 40
0.8906249999999984
 40
0.9062499999999987
 40
0.9062499999999987
 40
0.9374999999999991
 40
0.9374999999999991
 40
0.9687499999999996
 40
0.9687499999999996
 40
1.0
 40
1.0
 40
1.0
 40
1.0
 10
494.1150480587763
 20
303.5189266912411
 30
0.0
 10
494.1144389574048
 20
303.5190590195853
 30
0.0
 10
494.1139908662772
 20
303.5372225569441
 30
0.0
 10
494.1154681555728
 20
303.612735120766
 30
0.0
 10
494.1174725962305
 20
303.6703322761448
 30
0.0
 10
494.1269378159391
 20
303.9008345763565
 30
0.0
 10
494.1370198324636
 20
304.1290419987592
 30
0.0
 10
494.1554319140807
 20
304.5802643326034
 30
0.0
 10
494.1621645158285
 20
304.7490781026935
 30
0.0
 10
494.176290199998
 20
305.1249856853271
 30
0.0
 10
494.1838847600176
 20
305.3329603111047
 30
0.0
 10
494.2089702109807
 20
306.0070261730866
 30
0.0
 10
494.2285344429398
 20
306.5202823341696
 30
0.0
 10
494.2646739876329
 20
307.3822181370776
 30
0.0
 10
494.2778338655995
 20
307.6849705450899
 30
0.0
 10
494.3066091007977
 20
308.3219169997155
 30
0.0
 10
494.3222992819585
 20
308.6576934861615
 30
0.0
 10
494.3727240780717
 20
309.7016346956248
 30
0.0
 10
494.4107938670603
 20
310.443078398126
 30
0.0
 10
494.4738625930219
 20
311.6237148387326
 30
0.0
 10
494.4958909888149
 20
312.02867037343
 30
0.0
 10
494.5411283010895
 20
312.8623107391531
 30
0.0
 10
494.5644634691271
 20
313.2932705725465
 30
0.0
 10
494.6334635868334
 20
314.6070265371892
 30
0.0
 10
494.6796702545016
 20
315.5036596693896
 30
0.0
 10
494.7210067018008
 20
316.8846165256283
 30
0.0
 10
494.7306455699516
 20
317.351279996603
 30
0.0
 10
494.7567130899249
 20
318.2953368117528
 30
0.0
 10
494.7733906840591
 20
318.7730388259173
 30
0.0
 10
494.7985189957295
 20
319.7311225489767
 30
0.0
 10
494.8063288901321
 20
320.2105290678941
 30
0.0
 10
494.8165701283129
 20
321.1695590875638
 30
0.0
 10
494.8192229697048
 20
321.6491927553775
 30
0.0
 10
494.827612171873
 20
324.0475330558224
 30
0.0
 10
494.8232980198522
 20
325.9665643846393
 30
0.0
 10
494.8238379004883
 20
329.8043152117841
 30
0.0
 10
494.8245161860976
 20
331.7231391281096
 30
0.0
 10
494.8309988687088
 20
335.5607337502412
 30
0.0
 10
494.834143278523
 20
337.4795213857851
 30
0.0
 10
494.8431300487256
 20
341.3174048336692
 30
0.0
 10
494.8482868078392
 20
343.2364631175296
 30
0.0
 10
494.8569820154327
 20
347.0747463950772
 30
0.0
 10
494.8627825800985
 20
348.9938910506693
 30
0.0
 10
494.8776208955496
 20
352.8315218196939
 30
0.0
 10
494.8862607434014
 20
354.750038748133
 30
0.0
 10
494.9081104204877
 20
358.5858959341187
 30
0.0
 10
494.9221614275515
 20
360.5040168262994
 30
0.0
 10
494.943880373292
 20
363.3769916945505
 30
0.0
 10
494.951301508909
 20
364.3328998982141
 30
0.0
 10
494.9673758488704
 20
366.2391651686901
 30
0.0
 10
494.9760012376332
 20
367.1895719948903
 30
0.0
 10
494.996615456076
 20
369.0806502830363
 30
0.0
 10
495.0095212833874
 20
370.0211828355634
 30
0.0
 10
495.0389799136474
 20
371.8852613586147
 30
0.0
 10
495.0551676163417
 20
372.8087531601811
 30
0.0
 10
495.0769568829612
 20
374.1799821358556
 30
0.0
 10
495.0837729795891
 20
374.6354316435647
 30
0.0
 10
495.0968560963581
 20
375.5381622765639
 30
0.0
 10
495.1033321098792
 20
375.9857076146012
 30
0.0
 10
495.1219455199792
 20
377.3239741697122
 30
0.0
 10
495.131370195655
 20
378.2126436289032
 30
0.0
 10
495.1497210845295
 20
380.001229465963
 30
0.0
 10
495.1585339268665
 20
380.9008683234745
 30
0.0
 10
495.1718698387554
 20
382.7157209118059
 30
0.0
 10
495.1762394305568
 20
383.6303678923092
 30
0.0
 10
495.1782313806279
 20
384.5525506829837
 30
0.0
  0
SPLINE
  5
103
330
1F
100
AcDbEntity
  8
0
  6
Continuous
 62
     8
370
     0
100
AcDbSpline
210
0.0
220
0.0
230
1.0
 70
     8
 71
     3
 72
    57
 73
    53
 74
     0
 42
0.00000001
 43
0.00000001
 40
0.0
 40
0.0
 40
0.0
 40
0.0
 40
0.0092832394887431
 40
0.0186287259948427
 40
0.0280397547105594
 40
0.0375176707859776
 40
0.0470618237144031
 40
0.0566694463055493
 40
0.0663362718660614
 40
0.0760579677313215
 40
0.0858306113606676
 40
0.0956404751471771
 40
0.1054647880830236
 40
0.1153132997566114
 40
0.1251890026592804
 40
0.1528542858563354
 40
0.1790496138765979
 40
0.2040151054676071
 40
0.227757312338452
 40
0.2502318483836344
 40
0.2842640808482086
 40
0.3371953356296907
 40
0.4090592140500127
 40
0.4999091228445839
 40
0.5550476447810936
 40
0.6245235864907746
 40
0.665501210346726
 40
0.6867205230134334
 40
0.7014315562890138
 40
0.7166850064649997
 40
0.7325247281809414
 40
0.7491042472945684
 40
0.7669608855525066
 40
0.7804156898833918
 40
0.796199679320173
 40
0.811949767177214
 40
0.8424904396797221
 40
0.8745987573479315
 40
0.8834303850138587
 40
0.8922733608780514
 40
0.9011492542005007
 40
0.9100804840112738
 40
0.9190628284785405
 40
0.9280072928454547
 40
0.9369234025228718
 40
0.9458328911820493
 40
0.954758144031249
 40
0.9637237258551276
 40
0.9727572333410279
 40
0.9818418301725289
 40
0.9909194887343521
 40
1.0
 40
1.0
 40
1.0
 40
1.0
 10
496.7047176760585
 20
384.9178327144921
 30
0.0
 10
496.7047614124498
 20
384.6514080678201
 30
0.0
 10
496.7048491784987
 20
384.1167723140895
 30
0.0
 10
496.7049275243747
 20
383.3162555472158
 30
0.0
 10
496.7049692371066
 20
382.5133766014584
 30
0.0
 10
496.7049746148878
 20
381.7085566921962
 30
0.0
 10
496.7049537232426
 20
380.9019544164902
 30
0.0
 10
496.7049242791326
 20
380.0937984621868
 30
0.0
 10
496.7049075944905
 20
379.2840219484239
 30
0.0
 10
496.7048957039776
 20
378.4721479158459
 30
0.0
 10
496.7048831093407
 20
377.657555388568
 30
0.0
 10
496.7048495622973
 20
376.840098654745
 30
0.0
 10
496.7047832703126
 20
376.0170036043752
 30
0.0
 10
496.7047603088939
 20
375.1851193050326
 30
0.0
 10
496.7047326543271
 20
373.8369878237092
 30
0.0
 10
496.70452455843
 20
371.9833670286171
 30
0.0
 10
496.7042782040928
 20
369.639828268308
 30
0.0
 10
496.7044538397059
 20
367.3898538059144
 30
0.0
 10
496.704675551281
 20
365.242416761969
 30
0.0
 10
496.7049079657844
 20
362.8161732988964
 30
0.0
 10
496.7047316073922
 20
359.5022846831516
 30
0.0
 10
496.7044397583132
 20
354.6874895715428
 30
0.0
 10
496.7044657930699
 20
348.1469458648109
 30
0.0
 10
496.704972246589
 20
341.5386488580931
 30
0.0
 10
496.7049832907654
 20
335.0036745692098
 30
0.0
 10
496.7046856409269
 20
329.9814979735944
 30
0.0
 10
496.7047467933271
 20
325.9878527413409
 30
0.0
 10
496.7045976576754
 20
323.6552222348242
 30
0.0
 10
496.7045901090583
 20
322.1028622197062
 30
0.0
 10
496.7049882799486
 20
320.7137025625551
 30
0.0
 10
496.7051249236821
 20
319.2684956725353
 30
0.0
 10
496.7044689834446
 20
317.7450738191455
 30
0.0
 10
496.7050922515911
 20
316.3147846955241
 30
0.0
 10
496.7046800799336
 20
314.9457911829181
 30
0.0
 10
496.7046172154504
 20
313.6773820410978
 30
0.0
 10
496.7046000259051
 20
312.0001532178878
 30
0.0
 10
496.7047880226163
 20
310.0365473364085
 30
0.0
 10
496.7046249205311
 20
308.4918588035347
 30
0.0
 10
496.7045757729717
 20
307.5503535506464
 30
0.0
 10
496.7045887810057
 20
307.0798569957023
 30
0.0
 10
496.7046209909267
 20
306.640704425576
 30
0.0
 10
496.7046607548119
 20
306.2337322649215
 30
0.0
 10
496.7046926312111
 20
305.8615163526596
 30
0.0
 10
496.7047185276165
 20
305.5264154925622
 30
0.0
 10
496.7047002395261
 20
305.2296282280271
 30
0.0
 10
496.7046617296824
 20
304.9708926359096
 30
0.0
 10
496.7046099067335
 20
304.7499169334558
 30
0.0
 10
496.7045513842982
 20
304.5669733532299
 30
0.0
 10
496.7044993295403
 20
304.4231924061307
 30
0.0
 10
496.7044888485846
 20
304.3221543568194
 30
0.0
 10
496.704538523289
 20
304.2614992289987
 30
0.0
 10
496.704563579795
 20
304.2549189024029
 30
0.0
 10
496.7045761100163
 20
304.2516282222103
 30
0.0
  0
SPLINE
  5
104
330
1F
100
AcDbEntity
  8
0
  6
Continuous
 62
     8
370
     0
100
AcDbSpline
210
0.0
220
0.0
230
1.0
 70
     8
 71
     3
 72
    10
 73
     6
 74
     0
 42
0.00000001
 43
0.00000001
 40
0.0
 40
0.0
 40
0.0
 40
0.0
 40
0.5
 40
0.5
 40
1.0
 40
1.0
 40
1.0
 40
1.0
 10
415.5152017694852
 20
364.6908289778036
 30
0.0
 10
415.5160924700083
 20
364.5895306073992
 30
0.0
 10
415.5171852861201
 20
364.5078297249528
 30
0.0
 10
415.519593234955
 20
364.3972231935132
 30
0.0
 10
415.5209072073924
 20
364.368370840988
 30
0.0
 10
415.5222218132812
 20
364.368370840988
 30
0.0
  0
SPLINE
  5
105
330
1F
100
AcDbEntity
  8
0
  6
Continuous
 62
     8
370
     0
100
AcDbSpline
210
0.0
220
0.0
230
1.0
 70
     8
 71
     3
 72
    10
 73
     6
 74
     0
 42
0.00000001
 43
0.00000001
 40
0.0
 40
0.0
 40
0.0
 40
0.0
 40
0.5
 40
0.5
 40
1.0
 40
1.0
 40
1.0
 40
1.0
 10
415.4348542896662
 20
364.6918274236685
 30
0.0
 10
415.4357933205578
 20
364.5902360317015
 30
0.0
 10
415.4369463743652
 20
364.5082787996523
 30
0.0
 10
415.4394879708846
 20
364.3973192957531
 30
0.0
 10
415.4408752808826
 20
364.368370840988
 30
0.0
 10
415.4422632640741
 20
364.368370840988
 30
0.0
  0
SPLINE
  5
106
330
1F
100
AcDbEntity
  8
0
  6
Continuous
 62
     8
370
     0
100
AcDbSpline
210
0.0
220
0.0
230
1.0
 70
     8
 71
     3
 72
     9
 73
     5
 74
     0
 42
0.00000001
 43
0.00000001
 40
0.0
 40
0.0
 40
0.0
 40
0.0
 40
0.5000982459004243
 40
1.0
 40
1.0
 40
1.0
 40
1.0
 10
438.2929126858581
 20
364.9556801342752
 30
0.0
 10
438.2398558104907
 20
364.9529341358088
 30
0.0
 10
438.1337629061416
 20
364.9474432177964
 30
0.0
 10
438.0163883683927
 20
364.9415921862708
 30
0.0
 10
437.9577126310853
 20
364.9386672453479
 30
0.0
  0
ARC
  5
107
330
1F
100
AcDbEntity
  8
0
  6
Continuous
 62
     7
370
    15
100
AcDbCircle
 10
131.9910201423
 20
290.6080063384
 30
0.0
 40
72.17143677315539
100
AcDbArc
 50
242.7747858923
 51
256.6996501573
  0
ARC
  5
108
330
1F
100
AcDbEntity
  8
0
  6
Continuous
 62
     7
370
    15
100
AcDbCircle
 10
131.9910201423
 20
290.6080063384
 30
0.0
 40
72.17143677315539
100
AcDbArc
 50
283.3005892665
 51
297.2253153273
  0
ARC
  5
109
330
1F
100
AcDbEntity
  8
0
  6
Continuous
 62
     7
370
    15
100
AcDbCircle
 10
250.293308131
 20
229.1257728489
 30
0.0
 40
3.000000000000004
100
AcDbArc
 50
181.0588103613
 51
242.7519034398
  0
ARC
  5
10A
330
1F
100
AcDbEntity
  8
0
  6
Continuous
 62
     7
370
    15
100
AcDbCircle
 10
313.6974404952
 20
229.1257728489
 30
0.0
 40
3.000000000000013
100
AcDbArc
 50
297.0350783715
 51
358.9411896387
  0
ARC
  5
10B
330
1F
100
AcDbEntity
  8
0
  6
Continuous
 62
     7
370
    15
100
AcDbCircle
 10
100.293308131
 20
229.1257728489
 30
0.0
 40
3.00000000000002
100
AcDbArc
 50
181.0588103613
 51
243.8880470473
  0
ARC
  5
10C
330
1F
100
AcDbEntity
  8
0
  6
Continuous
 62
     7
370
    15
100
AcDbCircle
 10
163.6974404952
 20
229.1257728489
 30
0.0
 40
3.000000000000067
100
AcDbArc
 50
296.0137328259
 51
358.9411896387
  0
LINE
  5
10D
330
1F
100
AcDbEntity
  8
0
  6
Continuous
 62
     7
370
    15
100
AcDbLine
 10
246.9399608641
 20
246.7281491844
 30
0.0
 11
247.2938203668
 21
229.0703368234
 31
0.0
  0
LINE
  5
10E
330
1F
100
AcDbEntity
  8
0
  6
Continuous
 62
     7
370
    15
100
AcDbLine
 10
316.6969282594
 20
229.0703368234
 30
0.0
 11
317.0507877621
 21
246.7281491844
 31
0.0
  0
LINE
  5
10F
330
1F
100
AcDbEntity
  8
0
  6
Continuous
 62
     7
370
    15
100
AcDbLine
 10
96.9399608641
 20
246.7281491844
 30
0.0
 11
97.2938203668
 21
229.0703368234
 31
0.0
  0
LINE
  5
110
330
1F
100
AcDbEntity
  8
0
  6
Continuous
 62
     7
370
    15
100
AcDbLine
 10
166.6969282594
 20
229.0703368234
 30
0.0
 11
167.0507877621
 21
246.7281491844
 31
0.0
  0
ARC
  5
111
330
1F
100
AcDbEntity
  8
0
  6
Continuous
 62
     7
370
    15
100
AcDbCircle
 10
281.9888865846
 20
290.6080063384
 30
0.0
 40
72.17143677315539
100
AcDbArc
 50
242.7269905245
 51
256.6523143155
  0
ARC
  5
112
330
1F
100
AcDbEntity
  8
0
  6
Continuous
 62
     7
370
    15
100
AcDbCircle
 10
281.9888865846
 20
290.6080063384
 30
0.0
 40
72.17143677315542
100
AcDbArc
 50
283.3478075671
 51
297.2728758248
  0
SPLINE
  5
113
330
1F
100
AcDbEntity
  8
0
  6
Continuous
 62
     7
370
    15
100
AcDbSpline
210
0.0
220
0.0
230
1.0
 70
     8
 71
     3
 72
    14
 73
    10
 74
     0
 42
0.00000001
 43
0.00000001
 40
0.0
 40
0.0
 40
0.0
 40
0.0
 40
0.1566199553890354
 40
0.2525843864469868
 40
0.3571834549975364
 40
0.4778834162274745
 40
0.6194337143184706
 40
0.852388161305546
 40
1.0
 40
1.0
 40
1.0
 40
1.0
 10
172.6117244600095
 20
207.1802991998985
 30
0.0
 10
172.0770649945663
 20
206.6820818506289
 30
0.0
 10
171.2148081212223
 20
205.8785959655132
 30
0.0
 10
169.6452586765689
 20
204.8519547742764
 30
0.0
 10
168.0360979856274
 20
204.058847150314
 30
0.0
 10
166.134401676202
 20
203.3902378758119
 30
0.0
 10
163.5539329536242
 20
202.7850085659886
 30
0.0
 10
160.7881959070366
 20
202.405339924236
 30
0.0
 10
158.7391012825153
 20
202.3487031473726
 30
0.0
 10
157.9443103707485
 20
202.3267352035869
 30
0.0
  0
SPLINE
  5
114
330
1F
100
AcDbEntity
  8
0
  6
Continuous
 62
     7
370
    15
100
AcDbSpline
210
0.0
220
0.0
230
1.0
 70
     8
 71
     3
 72
    14
 73
    10
 74
     0
 42
0.00000001
 43
0.00000001
 40
0.0
 40
0.0
 40
0.0
 40
0.0
 40
0.1476118386741626
 40
0.3805662856675788
 40
0.5221165837618614
 40
0.6428165449948275
 40
0.7474156135481731
 40
0.8433800446086008
 40
1.0
 40
1.0
 40
1.0
 40
1.0
 10
256.0464382548587
 20
202.3267352036139
 30
0.0
 10
255.251647343216
 20
202.348703147399
 30
0.0
 10
253.2025527188081
 20
202.4053399242671
 30
0.0
 10
250.4368156723348
 20
202.7850085660346
 30
0.0
 10
247.8563469497503
 20
203.3902378758896
 30
0.0
 10
245.9546506403267
 20
204.0588471504213
 30
0.0
 10
244.3454899493881
 20
204.851954774411
 30
0.0
 10
242.7759405047368
 20
205.8785959656763
 30
0.0
 10
241.9136836314018
 20
206.6820818508083
 30
0.0
 10
241.3790241659663
 20
207.1802992000862
 30
0.0
  0
SPLINE
  5
115
330
1F
100
AcDbEntity
  8
0
  6
Continuous
 62
     7
370
    15
100
AcDbSpline
210
0.0
220
0.0
230
1.0
 70
     8
 71
     3
 72
     9
 73
     5
 74
     0
 42
0.00000001
 43
0.00000001
 40
0.0
 40
0.0
 40
0.0
 40
0.0
 40
0.6638663756577441
 40
1.0
 40
1.0
 40
1.0
 40
1.0
 10
130.2120854554562
 20
173.6572816469031
 30
0.0
 10
141.7861784436399
 20
173.6428849611001
 30
0.0
 10
159.2205498963532
 20
173.6211988412258
 30
0.0
 10
176.6548975819819
 20
173.5844467046743
 30
0.0
 10
182.5151680575953
 20
173.572093075813
 30
0.0
  0
SPLINE
  5
116
330
1F
100
AcDbEntity
  8
0
  6
Continuous
 62
     7
370
    15
100
AcDbSpline
210
0.0
220
0.0
230
1.0
 70
     8
 71
     3
 72
     9
 73
     5
 74
     0
 42
0.00000001
 43
0.00000001
 40
0.0
 40
0.0
 40
0.0
 40
0.0
 40
0.1965919818864567
 40
1.0
 40
1.0
 40
1.0
 40
1.0
 10
231.4751501072804
 20
173.573632060146
 30
0.0
 10
234.9026303927967
 20
173.5809401337927
 30
0.0
 10
252.3371170520535
 20
173.618113947173
 30
0.0
 10
269.7716331476254
 20
173.6398326593761
 30
0.0
 10
283.7786631707376
 20
173.6572816469031
 30
0.0
  0
ARC
  5
117
330
1F
100
AcDbEntity
  8
0
  6
Continuous
 62
     7
370
    15
100
AcDbCircle
 10
231.4035315165
 20
138.5674151397
 30
0.0
 40
1.591836680029925
100
AcDbArc
 50
285.3083343676
 51
0.0430551938
  0
ARC
  5
118
330
1F
100
AcDbEntity
  8
0
  6
Continuous
 62
     7
370
    15
100
AcDbCircle
 10
182.5872133225
 20
138.567415189
 30
0.0
 40
1.591836718922677
100
AcDbArc
 50
180.0517634053
 51
253.8536259291
  0
LINE
  5
119
330
1F
100
AcDbEntity
  8
0
  6
Continuous
 62
     7
370
    15
100
AcDbLine
 10
180.9953743041
 20
169.3822332273
 30
0.0
 11
180.9953743041
 21
138.5674153295
 31
0.0
  0
LINE
  5
11A
330
1F
100
AcDbEntity
  8
0
  6
Continuous
 62
     7
370
    15
100
AcDbLine
 10
232.9953743041
 20
138.5674153126
 30
0.0
 11
232.9953743041
 21
169.3822332273
 31
0.0
  0
SPLINE
  5
11B
330
1F
100
AcDbEntity
  8
0
  6
Continuous
 62
     7
370
    15
100
AcDbSpline
210
0.0
220
0.0
230
1.0
 70
     8
 71
     3
 72
    13
 73
     9
 74
     0
 42
0.00000001
 43
0.00000001
 40
0.0
 40
0.0
 40
0.0
 40
0.0
 40
0.1650652131122467
 40
0.3333029916799768
 40
0.5000729052709743
 40
0.6668426863355185
 40
0.8350802465272111
 40
1.0
 40
1.0
 40
1.0
 40
1.0
 10
182.1498218224828
 20
137.0555386028282
 30
0.0
 10
184.8287304208441
 20
136.3421438430222
 30
0.0
 10
190.2380364365451
 20
134.9016428240069
 30
0.0
 10
198.5755506278719
 20
133.7885502007762
 30
0.0
 10
206.9954492385591
 20
133.3783068818233
 30
0.0
 10
215.4153345481558
 20
133.7882992330947
 30
0.0
 10
223.7505318645781
 20
134.9005095782904
 30
0.0
 10
229.1573758237734
 20
136.340788286138
 30
0.0
 10
231.8338752918725
 20
137.0537560034534
 30
0.0
  0
SPLINE
  5
11C
330
1F
100
AcDbEntity
  8
0
  6
Continuous
 62
     7
370
    15
100
AcDbSpline
210
0.0
220
0.0
230
1.0
 70
     8
 71
     3
 72
    12
 73
     8
 74
     0
 42
0.00000001
 43
0.00000001
 40
0.0
 40
0.0
 40
0.0
 40
0.0
 40
0.073890239959131
 40
0.4031210215121226
 40
0.6660152127824472
 40
0.8872584536878731
 40
1.0
 40
1.0
 40
1.0
 40
1.0
 10
107.2087521269333
 20
176.6938829238472
 30
0.0
 10
107.2046217612627
 20
176.6627373214246
 30
0.0
 10
107.1820878348707
 20
176.4928170847176
 30
0.0
 10
107.2808066710931
 20
176.2115762325039
 30
0.0
 10
107.4627787591125
 20
175.9204235413165
 30
0.0
 10
107.6487731472444
 20
175.7416364516483
 30
0.0
 10
107.7731626515236
 20
175.6740033553277
 30
0.0
 10
107.8151521839639
 20
175.6511727949163
 30
0.0
  0
SPLINE
  5
11D
330
1F
100
AcDbEntity
  8
0
  6
Continuous
 62
     7
370
    15
100
AcDbSpline
210
0.0
220
0.0
230
1.0
 70
     8
 71
     3
 72
    11
 73
     7
 74
     0
 42
0.00000001
 43
0.00000001
 40
0.0
 40
0.0
 40
0.0
 40
0.0
 40
0.1900453414917531
 40
0.5534644328476725
 40
0.8890035365765439
 40
1.0
 40
1.0
 40
1.0
 40
1.0
 10
306.175864929361
 20
175.650509760304
 30
0.0
 10
306.2451078907723
 20
175.6922589444021
 30
0.0
 10
306.4467624857515
 20
175.813844079388
 30
0.0
 10
306.6733750415405
 20
176.1247577328002
 30
0.0
 10
306.8023547306921
 20
176.4581637189823
 30
0.0
 10
306.7829003768122
 20
176.6471670844342
 30
0.0
 10
306.778064559382
 20
176.6941481239829
 30
0.0
  0
LINE
  5
11E
330
1F
100
AcDbEntity
  8
0
  6
Continuous
 62
     7
370
    15
100
AcDbLine
 10
107.1953743131
 20
176.8236070605
 30
0.0
 11
107.1953743131
 21
176.6952407927
 31
0.0
  0
LINE
  5
11F
330
1F
100
AcDbEntity
  8
0
  6
Continuous
 62
     7
370
    15
100
AcDbLine
 10
306.7953743131
 20
176.6952407927
 30
0.0
 11
306.7953743131
 21
176.8236070605
 31
0.0
  0
SPLINE
  5
120
330
1F
100
AcDbEntity
  8
0
  6
Continuous
 62
     7
370
    15
100
AcDbSpline
210
0.0
220
0.0
230
1.0
 70
     8
 71
     3
 72
    14
 73
    10
 74
     0
 42
0.00000001
 43
0.00000001
 40
0.0
 40
0.0
 40
0.0
 40
0.0
 40
0.1678246668349647
 40
0.3621001046862262
 40
0.542163298651579
 40
0.6434369538268356
 40
0.7466214417067208
 40
0.8608593307624628
 40
1.0
 40
1.0
 40
1.0
 40
1.0
 10
115.4559766164069
 20
201.3919946250007
 30
0.0
 10
114.6355082447422
 20
200.1601735949185
 30
0.0
 10
112.8652578466666
 20
197.5023847706686
 30
0.0
 10
110.5336876834802
 20
193.3219589852306
 30
0.0
 10
108.8658947608182
 20
189.4606751826938
 30
0.0
 10
107.9240030315531
 20
186.1976472251694
 30
0.0
 10
107.4397073302925
 20
183.4243346421255
 30
0.0
 10
107.2110287319962
 20
180.2849001764202
 30
0.0
 10
107.2009235095934
 20
178.0505702428989
 30
0.0
 10
107.1953743130971
 20
176.8236070604509
 30
0.0
  0
SPLINE
  5
121
330
1F
100
AcDbEntity
  8
0
  6
Continuous
 62
     7
370
    15
100
AcDbSpline
210
0.0
220
0.0
230
1.0
 70
     8
 71
     3
 72
    14
 73
    10
 74
     0
 42
0.00000001
 43
0.00000001
 40
0.0
 40
0.0
 40
0.0
 40
0.0
 40
0.1413917565842921
 40
0.2572572290149436
 40
0.3620748481595483
 40
0.4652868936449276
 40
0.571986364807789
 40
0.7966034129948293
 40
1.0
 40
1.0
 40
1.0
 40
1.0
 10
306.7953743130968
 20
176.8236070604509
 30
0.0
 10
306.7896942255692
 20
178.0704140839581
 30
0.0
 10
306.7793595100723
 20
180.3389347370176
 30
0.0
 10
306.5405097207133
 20
183.5266416190253
 30
0.0
 10
306.0342972210886
 20
186.3428734213083
 30
0.0
 10
305.246261445416
 20
189.0088513788474
 30
0.0
 10
303.8195993355033
 20
192.5684088329615
 30
0.0
 10
301.6100348694604
 20
196.7494777554673
 30
0.0
 10
299.5226326889974
 20
199.8942911915211
 30
0.0
 10
298.5306771896763
 20
201.3887396554681
 30
0.0
  0
SPLINE
  5
122
330
1F
100
AcDbEntity
  8
0
  6
Continuous
 62
     7
370
    15
100
AcDbSpline
210
0.0
220
0.0
230
1.0
 70
     8
 71
     3
 72
    15
 73
    11
 74
     0
 42
0.00000001
 43
0.00000001
 40
0.0
 40
0.0
 40
0.0
 40
0.0
 40
0.1220225137234436
 40
0.2188489686456238
 40
0.2912011268555297
 40
0.3745653121343684
 40
0.4877032278445951
 40
0.6300486322711134
 40
0.8009180778216743
 40
1.0
 40
1.0
 40
1.0
 40
1.0
 10
283.7786631707376
 20
173.6572816469018
 30
0.0
 10
284.6869475942123
 20
173.6587709136177
 30
0.0
 10
286.3159675451113
 20
173.661441932882
 30
0.0
 10
288.4923093522463
 20
173.6790877108557
 30
0.0
 10
290.3774837460951
 20
173.7111886033697
 30
0.0
 10
292.3846058975563
 20
173.7677190676104
 30
0.0
 10
294.9126549022009
 20
173.8837284757479
 30
0.0
 10
298.086503781042
 20
174.1341943129627
 30
0.0
 10
301.8883588998565
 20
174.6012780937245
 30
0.0
 10
304.5802583457265
 20
175.2301957542646
 30
0.0
 10
306.0288501411413
 20
175.5686352024571
 30
0.0
  0
SPLINE
  5
123
330
1F
100
AcDbEntity
  8
0
  6
Continuous
 62
     7
370
    15
100
AcDbSpline
210
0.0
220
0.0
230
1.0
 70
     8
 71
     3
 72
    15
 73
    11
 74
     0
 42
0.00000001
 43
0.00000001
 40
0.0
 40
0.0
 40
0.0
 40
0.0
 40
0.1990819221783257
 40
0.3699513677288855
 40
0.5122967721554044
 40
0.6254346878656305
 40
0.7087988731444699
 40
0.7811510313543762
 40
0.8779774862765565
 40
1.0
 40
1.0
 40
1.0
 40
1.0
 10
107.9618984850525
 20
175.5686352024571
 30
0.0
 10
109.4104902804674
 20
175.2301957542646
 30
0.0
 10
112.1023897263374
 20
174.6012780937245
 30
0.0
 10
115.9042448451519
 20
174.1341943129627
 30
0.0
 10
119.078093723993
 20
173.8837284757479
 30
0.0
 10
121.6061427286376
 20
173.7677190676104
 30
0.0
 10
123.6132648800988
 20
173.7111886033697
 30
0.0
 10
125.4984392739476
 20
173.6790877108557
 30
0.0
 10
127.6747810810826
 20
173.661441932882
 30
0.0
 10
129.3038010319815
 20
173.6587709136177
 30
0.0
 10
130.2120854554562
 20
173.6572816469018
 30
0.0
  0
SPLINE
  5
124
330
1F
100
AcDbEntity
  8
0
  6
Continuous
 62
     7
370
    15
100
AcDbSpline
210
0.0
220
0.0
230
1.0
 70
     8
 71
     3
 72
    10
 73
     6
 74
     0
 42
0.00000001
 43
0.00000001
 40
0.0
 40
0.0
 40
0.0
 40
0.0
 40
0.2303309293703707
 40
0.650366382578261
 40
1.0
 40
1.0
 40
1.0
 40
1.0
 10
268.455783805646
 20
202.251130515333
 30
0.0
 10
267.8838385223439
 20
202.2370941430774
 30
0.0
 10
266.2688839613094
 20
202.1974608004195
 30
0.0
 10
263.7505905958049
 20
202.1852527076812
 30
0.0
 10
261.8109172687805
 20
202.1859340675651
 30
0.0
 10
260.9297918243226
 20
202.1862435854215
 30
0.0
  0
SPLINE
  5
125
330
1F
100
AcDbEntity
  8
0
  6
Continuous
 62
     7
370
    15
100
AcDbSpline
210
0.0
220
0.0
230
1.0
 70
     8
 71
     3
 72
     9
 73
     5
 74
     0
 42
0.00000001
 43
0.00000001
 40
0.0
 40
0.0
 40
0.0
 40
0.0
 40
0.4441466763538323
 40
1.0
 40
1.0
 40
1.0
 40
1.0
 10
153.0614402757459
 20
202.1882325824537
 30
0.0
 10
152.0157765063314
 20
202.1905890052132
 30
0.0
 10
149.6614556815113
 20
202.1958945109952
 30
0.0
 10
147.3498868584208
 20
202.2121670228117
 30
0.0
 10
146.064993645269
 20
202.221212152589
 30
0.0
  0
LINE
  5
126
330
1F
100
AcDbEntity
  8
0
  6
Continuous
 62
     7
370
    15
100
AcDbLine
 10
183.0038152667
 20
173.5900246364
 30
0.0
 11
183.0209350501
 21
172.6092329036
 31
0.0
  0
LINE
  5
127
330
1F
100
AcDbEntity
  8
0
  6
Continuous
 62
     7
370
    15
100
AcDbLine
 10
230.9698135581
 20
172.6092329036
 30
0.0
 11
230.9869343424
 21
173.5900819788
 31
0.0
  0
ARC
  5
128
330
1F
100
AcDbEntity
  8
0
  6
Continuous
 62
     7
370
    15
100
AcDbCircle
 10
206.9953743041
 20
176.5736070605
 30
0.0
 40
24.30000000000043
100
AcDbArc
 50
189.3893727434
 51
197.5672433231
  0
ARC
  5
129
330
1F
100
AcDbEntity
  8
0
  6
Continuous
 62
     7
370
    15
100
AcDbCircle
 10
206.9953743041
 20
176.5736070605
 30
0.0
 40
24.30000000000047
100
AcDbArc
 50
342.4577713094
 51
350.6106272566
  0
ARC
  5
12A
330
1F
100
AcDbEntity
  8
0
  6
Continuous
 62
     7
370
    15
100
AcDbCircle
 10
266.7145823588
 20
226.2281362104
 30
0.0
 40
6.004529102111323
100
AcDbArc
 50
256.637399313
 51
270.0000056709
  0
ARC
  5
12B
330
1F
100
AcDbEntity
  8
0
  6
Continuous
 62
     7
370
    15
100
AcDbCircle
 10
297.2761662674
 20
226.2281362104
 30
0.0
 40
6.004529102111291
100
AcDbArc
 50
269.9999943291
 51
283.2367846891
  0
ARC
  5
12C
330
1F
100
AcDbEntity
  8
0
  6
Continuous
 62
     7
370
    15
100
AcDbCircle
 10
116.7145823588
 20
226.2281362104
 30
0.0
 40
6.004529102111045
100
AcDbArc
 50
257.2324970179
 51
270.0000056709
  0
ARC
  5
12D
330
1F
100
AcDbEntity
  8
0
  6
Continuous
 62
     7
370
    15
100
AcDbCircle
 10
147.2761662674
 20
226.2281362104
 30
0.0
 40
6.004529102111066
100
AcDbArc
 50
269.9999943291
 51
282.6893642858
  0
ARC
  5
12E
330
1F
100
AcDbEntity
  8
0
  6
Continuous
 62
     7
370
    15
100
AcDbCircle
 10
296.9318157484
 20
200.2236070605
 30
0.0
 40
2.000000000000012
100
AcDbArc
 50
33.8251281526
 51
90.0
  0
ARC
  5
12F
330
1F
100
AcDbEntity
  8
0
  6
Continuous
 62
     7
370
    15
100
AcDbCircle
 10
117.0589328778
 20
200.2236070605
 30
0.0
 40
2.000000000000012
100
AcDbArc
 50
90.0
 51
146.1748718474
  0
ARC
  5
130
330
1F
100
AcDbEntity
  8
0
  6
Continuous
 62
     7
370
    15
100
AcDbCircle
 10
271.995374313
 20
216.2549800939
 30
0.0
 40
5.999999999875853
100
AcDbArc
 50
138.5903778903
 51
180.0000000009
  0
ARC
  5
131
330
1F
100
AcDbEntity
  8
0
  6
Continuous
 62
     7
370
    15
100
AcDbCircle
 10
291.9953743132
 20
216.2549800939
 30
0.0
 40
5.99999999987581
100
AcDbArc
 50
359.9999999991
 51
41.4096221097
  0
ARC
  5
132
330
1F
100
AcDbEntity
  8
0
  6
Continuous
 62
     7
370
    15
100
AcDbCircle
 10
121.995374313
 20
216.2549800939
 30
0.0
 40
5.999999999875789
100
AcDbArc
 50
138.5903778903
 51
180.0000000009
  0
ARC
  5
133
330
1F
100
AcDbEntity
  8
0
  6
Continuous
 62
     7
370
    15
100
AcDbCircle
 10
141.9953743132
 20
216.2549800939
 30
0.0
 40
5.99999999987581
100
AcDbArc
 50
359.9999999991
 51
41.4096221097
  0
ARC
  5
134
330
1F
100
AcDbEntity
  8
0
  6
Continuous
 62
     7
370
    15
100
AcDbCircle
 10
121.9953743131
 20
207.192234027
 30
0.0
 40
6.000000000000075
100
AcDbArc
 50
180.0
 51
221.4096221093
  0
ARC
  5
135
330
1F
100
AcDbEntity
  8
0
  6
Continuous
 62
     7
370
    15
100
AcDbCircle
 10
141.9953743131
 20
207.192234027
 30
0.0
 40
6.000000000000096
100
AcDbArc
 50
318.5903778907
 51
360.0
  0
ARC
  5
136
330
1F
100
AcDbEntity
  8
0
  6
Continuous
 62
     7
370
    15
100
AcDbCircle
 10
271.9953743131
 20
207.192234027
 30
0.0
 40
6.000000000000075
100
AcDbArc
 50
180.0
 51
221.4096221093
  0
ARC
  5
137
330
1F
100
AcDbEntity
  8
0
  6
Continuous
 62
     7
370
    15
100
AcDbCircle
 10
291.9953743131
 20
207.192234027
 30
0.0
 40
6.000000000000075
100
AcDbArc
 50
318.5903778907
 51
360.0
  0
LINE
  5
138
330
1F
100
AcDbEntity
  8
0
  6
Continuous
 62
     7
370
    15
100
AcDbLine
 10
142.4953743131
 20
202.2236070605
 30
0.0
 11
142.4953743131
 21
203.2236070605
 31
0.0
  0
LINE
  5
139
330
1F
100
AcDbEntity
  8
0
  6
Continuous
 62
     7
370
    15
100
AcDbLine
 10
121.4953743131
 20
203.2236070605
 30
0.0
 11
121.4953743131
 21
202.2236070605
 31
0.0
  0
LINE
  5
13A
330
1F
100
AcDbEntity
  8
0
  6
Continuous
 62
     7
370
    15
100
AcDbLine
 10
292.4953743131
 20
202.2236070605
 30
0.0
 11
292.4953743131
 21
203.2236070605
 31
0.0
  0
LINE
  5
13B
330
1F
100
AcDbEntity
  8
0
  6
Continuous
 62
     7
370
    15
100
AcDbLine
 10
271.4953743131
 20
203.2236070605
 30
0.0
 11
271.4953743131
 21
202.2236070605
 31
0.0
  0
SPLINE
  5
13C
330
1F
100
AcDbEntity
  8
0
  6
Continuous
 62
     7
370
    15
100
AcDbSpline
210
0.0
220
0.0
230
1.0
 70
     8
 71
     3
 72
     9
 73
     5
 74
     0
 42
0.00000001
 43
0.00000001
 40
0.0
 40
0.0
 40
0.0
 40
0.0
 40
0.84286725530622
 40
1.0
 40
1.0
 40
1.0
 40
1.0
 10
260.9301427796386
 20
202.2236070604509
 30
0.0
 10
259.4081750674266
 20
202.1996439885307
 30
0.0
 10
257.6024723276055
 20
202.1712135663386
 30
0.0
 10
255.8045079231597
 20
202.3183393693197
 30
0.0
 10
255.5219888414275
 20
202.3414576505574
 30
0.0
  0
SPLINE
  5
13D
330
1F
100
AcDbEntity
  8
0
  6
Continuous
 62
     7
370
    15
100
AcDbSpline
210
0.0
220
0.0
230
1.0
 70
     8
 71
     3
 72
    18
 73
    14
 74
     0
 42
0.00000001
 43
0.00000001
 40
0.0
 40
0.0
 40
0.0
 40
0.0
 40
0.0869420120467372
 40
0.1513450495927734
 40
0.2128509459570218
 40
0.3348408867261022
 40
0.4150583091203012
 40
0.4952096551009935
 40
0.5933369688185314
 40
0.6795109694235726
 40
0.7752080638322569
 40
0.8816338574698193
 40
1.0
 40
1.0
 40
1.0
 40
1.0
 10
252.0008100138238
 20
202.6592618316067
 30
0.0
 10
251.0163891600029
 20
202.8192241907964
 30
0.0
 10
249.302750155863
 20
203.0976800329676
 30
0.0
 10
246.9848394875201
 20
203.8806221054997
 30
0.0
 10
244.4189992764063
 20
205.1091927090333
 30
0.0
 10
241.9685504145681
 20
206.9255407194545
 30
0.0
 10
239.7077032462038
 20
209.2446994421156
 30
0.0
 10
237.8982518210642
 20
211.5956735470913
 30
0.0
 10
236.3542782414317
 20
214.2127247465346
 30
0.0
 10
235.1138400753879
 20
217.1795753585154
 30
0.0
 10
234.2706700171452
 20
220.3817235917381
 30
0.0
 10
233.7633671503366
 20
224.0234124353454
 30
0.0
 10
233.626704941983
 20
226.5946179269465
 30
0.0
 10
233.5547442715593
 20
227.9485084662679
 30
0.0
  0
SPLINE
  5
13E
330
1F
100
AcDbEntity
  8
0
  6
Continuous
 62
     7
370
    15
100
AcDbSpline
210
0.0
220
0.0
230
1.0
 70
     8
 71
     3
 72
    18
 73
    14
 74
     0
 42
0.00000001
 43
0.00000001
 40
0.0
 40
0.0
 40
0.0
 40
0.0
 40
0.1183661424771132
 40
0.2247919360815922
 40
0.3204890304869339
 40
0.406663031111667
 40
0.5047903448272466
 40
0.5849416907828298
 40
0.6651591131373614
 40
0.7871490538379602
 40
0.8486549501719267
 40
0.913057987694499
 40
1.0
 40
1.0
 40
1.0
 40
1.0
 10
180.4360043517367
 20
227.9485084061289
 30
0.0
 10
180.3640436806974
 20
226.5946178689322
 30
0.0
 10
180.2273814711656
 20
224.0234123811988
 30
0.0
 10
179.7200785995193
 20
220.3817235432909
 30
0.0
 10
178.8769085362468
 20
217.1795753153256
 30
0.0
 10
177.6364703655192
 20
214.2127247089826
 30
0.0
 10
176.0924967834082
 20
211.5956735150455
 30
0.0
 10
174.2830453571897
 20
209.2446994159936
 30
0.0
 10
172.022198189061
 20
206.9255407002279
 30
0.0
 10
169.5717493286506
 20
205.1091926962259
 30
0.0
 10
167.005909119952
 20
203.880622098168
 30
0.0
 10
164.6879984511756
 20
203.0976800282102
 30
0.0
 10
162.9743594461238
 20
202.819224186821
 30
0.0
 10
161.9899385903795
 20
202.6592618278532
 30
0.0
  0
SPLINE
  5
13F
330
1F
100
AcDbEntity
  8
0
  6
Continuous
 62
     7
370
    15
100
AcDbSpline
210
0.0
220
0.0
230
1.0
 70
     8
 71
     3
 72
     9
 73
     5
 74
     0
 42
0.00000001
 43
0.00000001
 40
0.0
 40
0.0
 40
0.0
 40
0.0
 40
0.1571327451449975
 40
1.0
 40
1.0
 40
1.0
 40
1.0
 10
158.468759779975
 20
202.3414576502673
 30
0.0
 10
158.1862406976772
 20
202.3183393690477
 30
0.0
 10
156.3882762947951
 20
202.1712135666047
 30
0.0
 10
154.5825735565902
 20
202.1996439886593
 30
0.0
 10
153.0606058465553
 20
202.2236070604509
 30
0.0
  0
SPLINE
  5
140
330
1F
100
AcDbEntity
  8
0
  6
Continuous
 62
     7
370
    15
100
AcDbSpline
210
0.0
220
0.0
230
1.0
 70
     8
 71
     3
 72
    20
 73
    16
 74
     0
 42
0.00000001
 43
0.00000001
 40
0.0
 40
0.0
 40
0.0
 40
0.0
 40
0.0020352522106824
 40
0.1297905775219114
 40
0.2338529264003397
 40
0.3691702750561009
 40
0.5067139530535452
 40
0.6474707392581689
 40
0.7772143012729332
 40
0.8369738748598341
 40
0.8518160004504461
 40
0.8678479999382375
 40
0.9059900058728767
 40
0.9550814090644656
 40
1.0
 40
1.0
 40
1.0
 40
1.0
 10
230.9322140614498
 20
229.695325589165
 30
0.0
 10
230.9155739923054
 20
229.697982914131
 30
0.0
 10
229.8544159830327
 20
229.8674438488494
 30
0.0
 10
227.888163742103
 20
230.1858797489949
 30
0.0
 10
224.7687181673991
 20
230.6479821898292
 30
0.0
 10
221.6158439015909
 20
231.0505968033362
 30
0.0
 10
218.2790597166498
 20
231.3966445456369
 30
0.0
 10
215.2165413507532
 20
231.6450743709592
 30
0.0
 10
212.7401682817399
 20
231.7935857850307
 30
0.0
 10
211.3179553737936
 20
231.8555303342976
 30
0.0
 10
210.6214587770048
 20
231.880857358624
 30
0.0
 10
210.0344539411296
 20
231.9001152871289
 30
0.0
 10
209.1435369187648
 20
231.9227695147709
 30
0.0
 10
208.0603233011554
 20
231.9395089266763
 30
0.0
 10
207.3396989006814
 20
231.9397496973025
 30
0.0
 10
206.9953798422279
 20
231.9398647390847
 30
0.0
  0
SPLINE
  5
141
330
1F
100
AcDbEntity
  8
0
  6
Continuous
 62
     7
370
    15
100
AcDbSpline
210
0.0
220
0.0
230
1.0
 70
     8
 71
     3
 72
    16
 73
    12
 74
     0
 42
0.00000001
 43
0.00000001
 40
0.0
 40
0.0
 40
0.0
 40
0.0
 40
0.1105149409034501
 40
0.2728673003180564
 40
0.4093620360534366
 40
0.5263191666178056
 40
0.6222076880426224
 40
0.6938817367252331
 40
0.7625317387533626
 40
0.8622559420977574
 40
1.0
 40
1.0
 40
1.0
 40
1.0
 10
233.5321088816156
 20
227.6765613768247
 30
0.0
 10
233.5318079132686
 20
227.8124082344822
 30
0.0
 10
233.5310648063216
 20
228.1478213922206
 30
0.0
 10
233.3074927412659
 20
228.6113808998233
 30
0.0
 10
232.9955581989215
 20
229.0091996076696
 30
0.0
 10
232.6637242361793
 20
229.2688394128671
 30
0.0
 10
232.3763052485619
 20
229.4169193617055
 30
0.0
 10
232.1773101947375
 20
229.4888495177319
 30
0.0
 10
232.0412473646668
 20
229.5269554919961
 30
0.0
 10
231.935308099305
 20
229.5504873890287
 30
0.0
 10
231.8913806329604
 20
229.5581025479117
 30
0.0
 10
231.8659003964188
 20
229.5625197398372
 30
0.0
  0
SPLINE
  5
142
330
1F
100
AcDbEntity
  8
0
  6
Continuous
 62
     7
370
    15
100
AcDbSpline
210
0.0
220
0.0
230
1.0
 70
     8
 71
     3
 72
    14
 73
    10
 74
     0
 42
0.00000001
 43
0.00000001
 40
0.0
 40
0.0
 40
0.0
 40
0.0
 40
0.2197828544236409
 40
0.3113504951863241
 40
0.3946322145876048
 40
0.5205366207324356
 40
0.6633947985178982
 40
0.8290106860200308
 40
1.0
 40
1.0
 40
1.0
 40
1.0
 10
182.1246859817093
 20
229.5626026717627
 30
0.0
 10
182.0835228897908
 20
229.5560066417097
 30
0.0
 10
182.0252101106351
 20
229.5466625223577
 30
0.0
 10
181.8094485093946
 20
229.4890461532023
 30
0.0
 10
181.5413488005563
 20
229.3873218219145
 30
0.0
 10
181.1821180759646
 20
229.1761478682816
 30
0.0
 10
180.8103735955908
 20
228.806412695068
 30
0.0
 10
180.5072118625433
 20
228.294387725608
 30
0.0
 10
180.4572746078424
 20
227.8854520390948
 30
0.0
 10
180.4319073916326
 20
227.6777201555977
 30
0.0
  0
LINE
  5
143
330
1F
100
AcDbEntity
  8
0
  6
Continuous
 62
     7
370
    15
100
AcDbLine
 10
265.9953743131
 20
216.2549800938
 30
0.0
 11
265.9953743131
 21
207.192234027
 31
0.0
  0
LINE
  5
144
330
1F
100
AcDbEntity
  8
0
  6
Continuous
 62
     7
370
    15
100
AcDbLine
 10
115.9953743131
 20
216.2549800938
 30
0.0
 11
115.9953743131
 21
207.192234027
 31
0.0
  0
LINE
  5
145
330
1F
100
AcDbEntity
  8
0
  6
Continuous
 62
     7
370
    15
100
AcDbLine
 10
297.9953743131
 20
207.192234027
 30
0.0
 11
297.9953743131
 21
216.2549800938
 31
0.0
  0
LINE
  5
146
330
1F
100
AcDbEntity
  8
0
  6
Continuous
 62
     7
370
    15
100
AcDbLine
 10
147.9953743131
 20
207.192234027
 30
0.0
 11
147.9953743131
 21
216.2549800938
 31
0.0
  0
LINE
  5
147
330
1F
100
AcDbEntity
  8
0
  6
Continuous
 62
     7
370
    15
100
AcDbLine
 10
153.0607853636
 20
202.1897350294
 30
0.0
 11
152.4456993806
 21
202.1900496958
 31
0.0
  0
LINE
  5
148
330
1F
100
AcDbEntity
  8
0
  6
Continuous
 62
     7
370
    15
100
AcDbLine
 10
146.9736547307
 20
202.215633433
 30
0.0
 11
145.5364089934
 21
202.2507326878
 31
0.0
  0
LINE
  5
149
330
1F
100
AcDbEntity
  8
0
  6
Continuous
 62
     7
370
    15
100
AcDbLine
 10
317.0507877621
 20
246.7281491844
 30
0.0
 11
246.9399608641
 21
246.7281491844
 31
0.0
  0
LINE
  5
14A
330
1F
100
AcDbEntity
  8
0
  6
Continuous
 62
     7
370
    15
100
AcDbLine
 10
108.46830227
 20
246.7281491844
 30
0.0
 11
96.9399608641
 21
246.7281491844
 31
0.0
  0
LINE
  5
14B
330
1F
100
AcDbEntity
  8
0
  6
Continuous
 62
     7
370
    15
100
AcDbLine
 10
167.0507877621
 20
246.7281491844
 30
0.0
 11
108.46830227
 21
246.7281491844
 31
0.0
  0
SPLINE
  5
14C
330
1F
100
AcDbEntity
  8
0
  6
Continuous
 62
     7
370
    15
100
AcDbSpline
210
0.0
220
0.0
230
1.0
 70
     8
 71
     3
 72
    24
 73
    20
 74
     0
 42
0.00000001
 43
0.00000001
 40
0.0
 40
0.0
 40
0.0
 40
0.0
 40
0.0527061813593736
 40
0.1057786841185167
 40
0.1600061805493919
 40
0.2146325862635567
 40
0.2675295332775932
 40
0.3207961598376331
 40
0.3746351697519189
 40
0.4292581496920624
 40
0.4821831541705611
 40
0.535478210306685
 40
0.5893464141249036
 40
0.6439997568377928
 40
0.7502367826771839
 40
0.8040156107538204
 40
0.858677144678577
 40
0.9648780213296005
 40
1.0
 40
1.0
 40
1.0
 40
1.0
 10
206.995374313097
 20
173.981733178779
 30
0.0
 10
206.3190810688243
 20
173.9817284332198
 30
0.0
 10
204.9617941697862
 20
173.9817189091186
 30
0.0
 10
202.9228270160411
 20
173.9722787963354
 30
0.0
 10
200.8883916610159
 20
173.9563829198902
 30
0.0
 10
198.9003687481324
 20
173.9345185177054
 30
0.0
 10
196.9819640050656
 20
173.9083438641962
 30
0.0
 10
195.1428657242963
 20
173.879017031308
 30
0.0
 10
193.3683166970252
 20
173.8470800792819
 30
0.0
 10
191.6954999177857
 20
173.8138216200723
 30
0.0
 10
190.1373084012024
 20
173.7801477690085
 30
0.0
 10
188.704235371258
 20
173.746864535296
 30
0.0
 10
187.3859907546465
 20
173.7142083302564
 30
0.0
 10
185.8244555867447
 20
173.673215566276
 30
0.0
 10
184.5576069258912
 20
173.6372333151783
 30
0.0
 10
183.611846297504
 20
173.6089660815987
 30
0.0
 10
182.8973536221037
 20
173.5869066767636
 30
0.0
 10
182.5145378927037
 20
173.5744825817384
 30
0.0
 10
182.5150455728706
 20
173.5741935056457
 30
0.0
 10
182.5151717430641
 20
173.5741216635906
 30
0.0
  0
SPLINE
  5
14D
330
1F
100
AcDbEntity
  8
0
  6
Continuous
 62
     7
370
    15
100
AcDbSpline
210
0.0
220
0.0
230
1.0
 70
     8
 71
     3
 72
    23
 73
    19
 74
     0
 42
0.00000001
 43
0.00000001
 40
0.0
 40
0.0
 40
0.0
 40
0.0
 40
0.0194197263729473
 40
0.0740636281573283
 40
0.1269608237528803
 40
0.180227936596305
 40
0.2340678596592933
 40
0.2886923288962966
 40
0.3947850421951719
 40
0.4486351082142299
 40
0.5032695186413432
 40
0.6094061045655846
 40
0.6632789127658578
 40
0.7179370180776398
 40
0.8240809965349557
 40
0.8779584988503166
 40
0.932622536801556
 40
1.0
 40
1.0
 40
1.0
 40
1.0
 10
231.4751488578624
 20
173.5741351320837
 30
0.0
 10
231.4806938338481
 20
173.5740031540179
 30
0.0
 10
231.5018414562015
 20
173.5734998114783
 30
0.0
 10
231.356030884319
 20
173.5783466398026
 30
0.0
 10
231.0417389440619
 20
173.58842839914
 30
0.0
 10
230.5496752998667
 20
173.6037455070805
 30
0.0
 10
229.8875169811502
 20
173.6237328822573
 30
0.0
 10
228.7895645744013
 20
173.6557112025168
 30
0.0
 10
227.3757979136252
 20
173.6945640940681
 30
0.0
 10
225.6822649763019
 20
173.7372756420987
 30
0.0
 10
223.8099104920112
 20
173.7816130738081
 30
0.0
 10
221.6879062072783
 20
173.8269455010304
 30
0.0
 10
219.3697617703964
 20
173.8699987421683
 30
0.0
 10
216.9331700954211
 20
173.9103334914604
 30
0.0
 10
214.3417896825435
 20
173.9447919389128
 30
0.0
 10
211.6606658277742
 20
173.9683147795263
 30
0.0
 10
209.4262976201042
 20
173.981033770635
 30
0.0
 10
207.8600683326202
 20
173.9814843951018
 30
0.0
 10
206.995374313097
 20
173.981733178779
 30
0.0
  0
SPLINE
  5
14E
330
1F
100
AcDbEntity
  8
0
  6
Continuous
 62
     7
370
    15
100
AcDbSpline
210
0.0
220
0.0
230
1.0
 70
     8
 71
     3
 72
    19
 73
    15
 74
     0
 42
0.00000001
 43
0.00000001
 40
0.0
 40
0.0
 40
0.0
 40
0.0
 40
0.0030959689679184
 40
0.0695524893830736
 40
0.1354004427501715
 40
0.2024830064644954
 40
0.3370144731161692
 40
0.4683094694335286
 40
0.6012261143096372
 40
0.734149999855621
 40
0.8670633473235673
 40
0.9335149195213707
 40
0.961100266660065
 40
1.0
 40
1.0
 40
1.0
 40
1.0
 10
182.6603530198435
 20
229.5338449119847
 30
0.0
 10
182.6837704969178
 20
229.5387374785915
 30
0.0
 10
183.2098558170428
 20
229.648651431378
 30
0.0
 10
184.2403495413389
 20
229.8552138555472
 30
0.0
 10
185.7776616791778
 20
230.1397216760072
 30
0.0
 10
187.8619922822
 20
230.4941738822421
 30
0.0
 10
190.4978190697998
 20
230.8838906499283
 30
0.0
 10
193.7155255791408
 20
231.267938242042
 30
0.0
 10
196.9730170606988
 20
231.5673374946258
 30
0.0
 10
200.2871728960934
 20
231.7827776802427
 30
0.0
 10
203.0751293367346
 20
231.8909075211447
 30
0.0
 10
204.9869128092081
 20
231.9276547705994
 30
0.0
 10
206.1071548555212
 20
231.9395216448732
 30
0.0
 10
206.6675139754138
 20
231.9408050221874
 30
0.0
 10
206.9953743040995
 20
231.9415559129879
 30
0.0
  0
LINE
  5
14F
330
1F
100
AcDbEntity
  8
0
  6
Continuous
 62
     7
370
    15
100
AcDbLine
 10
182.1458536449
 20
137.0411828802
 30
0.0
 11
182.1463094687
 21
137.041136676
 31
0.0
  0
LINE
  5
150
330
1F
100
AcDbEntity
  8
0
  6
Continuous
 62
     7
370
    15
100
AcDbLine
 10
231.8369576387
 20
137.0411206043
 30
0.0
 11
231.8216867186
 21
137.0411598017
 31
0.0
  0
SPLINE
  5
151
330
1F
100
AcDbEntity
  8
0
  6
Continuous
 62
     7
370
    15
100
AcDbSpline
210
0.0
220
0.0
230
1.0
 70
     8
 71
     3
 72
     8
 73
     4
 74
     0
 42
0.00000001
 43
0.00000001
 40
0.0
 40
0.0
 40
0.0
 40
0.0
 40
1.0
 40
1.0
 40
1.0
 40
1.0
 10
232.8072822166674
 20
169.3822332273044
 30
0.0
 10
232.9240200347845
 20
169.3822332273044
 30
0.0
 10
232.9854159405782
 20
169.3473443532016
 30
0.0
 10
232.9942606253371
 20
169.2783377275472
 30
0.0
  0
SPLINE
  5
152
330
1F
100
AcDbEntity
  8
0
  6
Continuous
 62
     7
370
    15
100
AcDbSpline
210
0.0
220
0.0
230
1.0
 70
     8
 71
     3
 72
    16
 73
    12
 74
     0
 42
0.00000001
 43
0.00000001
 40
0.0
 40
0.0
 40
0.0
 40
0.0
 40
0.1185073887342265
 40
0.2544328720030838
 40
0.3226024643037712
 40
0.3823637712186442
 40
0.5020662649310755
 40
0.6219697787499634
 40
0.7420398995789419
 40
0.8622999571189333
 40
1.0
 40
1.0
 40
1.0
 40
1.0
 10
232.9875715389508
 20
169.2551161785323
 30
0.0
 10
232.9801879015166
 20
169.2062007224163
 30
0.0
 10
232.9643353871858
 20
169.1011802665792
 30
0.0
 10
232.7995415776054
 20
168.8739387962275
 30
0.0
 10
232.6067552709439
 20
168.6511035455198
 30
0.0
 10
232.3857715768615
 20
168.4166059227092
 30
0.0
 10
232.0546957088393
 20
168.093151877737
 30
0.0
 10
231.558837534099
 20
167.645065288431
 30
0.0
 10
230.9670162806446
 20
167.1412990432365
 30
0.0
 10
230.2592151456201
 20
166.5645901225912
 30
0.0
 10
229.6947922755467
 20
166.1308392679572
 30
0.0
 10
229.3935012879664
 20
165.8993014790306
 30
0.0
  0
SPLINE
  5
153
330
1F
100
AcDbEntity
  8
0
  6
Continuous
 62
     7
370
    15
100
AcDbSpline
210
0.0
220
0.0
230
1.0
 70
     8
 71
     3
 72
    20
 73
    16
 74
     0
 42
0.00000001
 43
0.00000001
 40
0.0
 40
0.0
 40
0.0
 40
0.0
 40
0.2500000000000002
 40
0.2500000000000002
 40
0.3750000000000002
 40
0.3750000000000002
 40
0.4375000000000003
 40
0.4375000000000003
 40
0.5000000000000004
 40
0.5000000000000004
 40
0.7500000000000002
 40
0.7500000000000002
 40
0.8750000000000001
 40
0.8750000000000001
 40
1.0
 40
1.0
 40
1.0
 40
1.0
 10
184.5972473202325
 20
165.8993014790306
 30
0.0
 10
183.9031791574619
 20
166.4256714311072
 30
0.0
 10
183.3023087300221
 20
166.9074233433749
 30
0.0
 10
182.5440310183551
 20
167.5496065008747
 30
0.0
 10
182.3152450847256
 20
167.7502458809982
 30
0.0
 10
182.0097577061909
 20
168.0290890627321
 30
0.0
 10
181.9142203498376
 20
168.1183478824829
 30
0.0
 10
181.7361483196609
 20
168.2891132096829
 30
0.0
 10
181.6534779605259
 20
168.3707692296584
 30
0.0
 10
181.2775205214003
 20
168.7548601582955
 30
0.0
 10
181.0924038089282
 20
168.987888983619
 30
0.0
 10
180.9905520850349
 20
169.2232019131685
 30
0.0
 10
180.9860516776834
 20
169.2825622767001
 30
0.0
 10
181.0382375314188
 20
169.3621226649812
 30
0.0
 10
181.0953305629621
 20
169.3822332273045
 30
0.0
 10
181.1834663915315
 20
169.3822332273045
 30
0.0
  0
ELLIPSE
  5
154
330
1F
100
AcDbEntity
  8
0
  6
Continuous
 62
     7
370
    15
100
AcDbEllipse
 10
206.9953743041
 20
171.8017772888
 30
0.0
 11
26.0
 21
-2.842170943040401E-14
 31
0.0
210
0.0
220
0.0
230
1.0
 40
0.4470496299
 41
3.674238629974259
 42
5.750539330795172
  0
LWPOLYLINE
  5
155
330
1F
100
AcDbEntity
  8
0
  6
Continuous
 62
     7
370
    15
100
AcDbPolyline
 90
       15
 70
   128
 43
0.0
 10
224.3800023628
 20
165.899301479
 10
222.3580428322
 20
165.1211275561
 10
220.1284600662
 20
164.4439830217
 10
217.7213864072
 20
163.8770193417
 10
215.1693529496
 20
163.4278989112
 10
212.506849889
 20
163.1026914982
 10
209.7698603947
 20
162.9057922126
 10
206.9953743041
 20
162.8398621069
 10
204.2208882135
 20
162.9057922126
 10
201.4838987192
 20
163.1026914982
 10
198.8213956586
 20
163.4278989112
 10
196.269362201
 20
163.8770193417
 10
193.862288542
 20
164.4439830217
 10
191.632705776
 20
165.1211275561
 10
189.6107462454
 20
165.899301479
  0
SPLINE
  5
156
330
1F
100
AcDbEntity
  8
0
  6
Continuous
 62
     7
370
     0
100
AcDbSpline
210
0.0
220
0.0
230
1.0
 70
     8
 71
     3
 72
    34
 73
    30
 74
     0
 42
0.00000001
 43
0.00000001
 40
0.0
 40
0.0
 40
0.0
 40
0.0
 40
0.0625000000000004
 40
0.0625000000000004
 40
0.1250000000000008
 40
0.1250000000000008
 40
0.2500000000000016
 40
0.2500000000000016
 40
0.3125000000000019
 40
0.3125000000000019
 40
0.3437500000000022
 40
0.3437500000000022
 40
0.3750000000000024
 40
0.3750000000000024
 40
0.5000000000000026
 40
0.5000000000000026
 40
0.5312500000000026
 40
0.5312500000000026
 40
0.5625000000000026
 40
0.5625000000000026
 40
0.6250000000000023
 40
0.6250000000000023
 40
0.7500000000000017
 40
0.7500000000000017
 40
0.8125000000000013
 40
0.8125000000000013
 40
0.8750000000000009
 40
0.8750000000000009
 40
1.0
 40
1.0
 40
1.0
 40
1.0
 10
130.2120854554562
 20
175.1091820626621
 30
0.0
 10
129.4646204718511
 20
175.1245399631344
 30
0.0
 10
128.7179123011987
 20
175.1351115394662
 30
0.0
 10
127.2389258153724
 20
175.1530433273801
 30
0.0
 10
126.5019535549448
 20
175.1611523325586
 30
0.0
 10
124.3352789057053
 20
175.1932079364848
 30
0.0
 10
122.9433911000594
 20
175.2179504464438
 30
0.0
 10
120.9339475157456
 20
175.2525747266038
 30
0.0
 10
120.2772225596619
 20
175.2644084921481
 30
0.0
 10
119.3124055611412
 20
175.2823521595958
 30
0.0
 10
118.9941997926642
 20
175.2883661194876
 30
0.0
 10
118.3714832267886
 20
175.3002933760432
 30
0.0
 10
118.0660779774312
 20
175.3062230970858
 30
0.0
 10
116.5683262673819
 20
175.335642717729
 30
0.0
 10
115.4630647816555
 20
175.3583327373942
 30
0.0
 10
114.1974037861763
 20
175.3857973379179
 30
0.0
 10
113.9501123382773
 20
175.3912491013752
 30
0.0
 10
113.4674037804267
 20
175.4020242384211
 30
0.0
 10
113.2314468912572
 20
175.4073600761128
 30
0.0
 10
112.5482614966645
 20
175.4229648825944
 30
0.0
 10
112.1241234733823
 20
175.43286035008
 30
0.0
 10
110.9427991353913
 20
175.4607892981317
 30
0.0
 10
110.2759203387679
 20
175.4770236463329
 30
0.0
 10
109.4597504432242
 20
175.4978024751099
 30
0.0
 10
109.2186105948277
 20
175.5041296185837
 30
0.0
 10
108.8085212066695
 20
175.5149728089419
 30
0.0
 10
108.6379901844869
 20
175.5195301264753
 30
0.0
 10
108.22796812088
 20
175.5304934756485
 30
0.0
 10
108.0891478373781
 20
175.5341214760238
 30
0.0
 10
108.0902917893387
 20
175.53467745483
 30
0.0
  0
SPLINE
  5
157
330
1F
100
AcDbEntity
  8
0
  6
Continuous
 62
     7
370
     0
100
AcDbSpline
210
0.0
220
0.0
230
1.0
 70
     8
 71
     3
 72
    34
 73
    30
 74
     0
 42
0.00000001
 43
0.00000001
 40
0.0
 40
0.0
 40
0.0
 40
0.0
 40
0.0625000000000004
 40
0.0625000000000004
 40
0.1250000000000008
 40
0.1250000000000008
 40
0.2500000000000016
 40
0.2500000000000016
 40
0.3125000000000019
 40
0.3125000000000019
 40
0.3437500000000022
 40
0.3437500000000022
 40
0.3750000000000024
 40
0.3750000000000024
 40
0.5000000000000026
 40
0.5000000000000026
 40
0.5312500000000026
 40
0.5312500000000026
 40
0.5625000000000026
 40
0.5625000000000026
 40
0.6250000000000023
 40
0.6250000000000023
 40
0.7500000000000017
 40
0.7500000000000017
 40
0.8125000000000013
 40
0.8125000000000013
 40
0.8750000000000009
 40
0.8750000000000009
 40
1.0
 40
1.0
 40
1.0
 40
1.0
 10
283.7786631707376
 20
175.1091820626621
 30
0.0
 10
284.5261280929451
 20
175.124539918514
 30
0.0
 10
285.2728363249951
 20
175.1351115394662
 30
0.0
 10
286.7518228108214
 20
175.1530433273801
 30
0.0
 10
287.4887950712491
 20
175.1611523325586
 30
0.0
 10
289.6554697204886
 20
175.1932079364848
 30
0.0
 10
291.0473575261344
 20
175.2179504464438
 30
0.0
 10
293.0568011104482
 20
175.2525747266038
 30
0.0
 10
293.713526066532
 20
175.2644084921481
 30
0.0
 10
294.6783430650527
 20
175.2823521595958
 30
0.0
 10
294.9965488335297
 20
175.2883661194876
 30
0.0
 10
295.6192653994053
 20
175.3002933760432
 30
0.0
 10
295.9246706487626
 20
175.3062230970858
 30
0.0
 10
297.422422358812
 20
175.335642717729
 30
0.0
 10
298.5276838445384
 20
175.3583327373942
 30
0.0
 10
299.7933448400175
 20
175.3857973379179
 30
0.0
 10
300.0406362879165
 20
175.3912491013752
 30
0.0
 10
300.5233448457672
 20
175.4020242384211
 30
0.0
 10
300.7593017349366
 20
175.4073600761128
 30
0.0
 10
301.4424871295294
 20
175.4229648825944
 30
0.0
 10
301.8666251528116
 20
175.43286035008
 30
0.0
 10
303.0479494908026
 20
175.4607892981317
 30
0.0
 10
303.714828287426
 20
175.4770236463329
 30
0.0
 10
304.5309981829697
 20
175.4978024751099
 30
0.0
 10
304.7721380313662
 20
175.5041296185837
 30
0.0
 10
305.1822274195244
 20
175.5149728089419
 30
0.0
 10
305.352758441707
 20
175.5195301264753
 30
0.0
 10
305.7627805053139
 20
175.5304934756485
 30
0.0
 10
305.9016007888158
 20
175.5341214760238
 30
0.0
 10
305.9004568368552
 20
175.53467745483
 30
0.0
  0
SPLINE
  5
158
330
1F
100
AcDbEntity
  8
0
  6
Continuous
 62
     7
370
    15
100
AcDbSpline
210
0.0
220
0.0
230
1.0
 70
     8
 71
     3
 72
     9
 73
     5
 74
     0
 42
0.00000001
 43
0.00000001
 40
0.0
 40
0.0
 40
0.0
 40
0.0
 40
0.5001721945709879
 40
1.0
 40
1.0
 40
1.0
 40
1.0
 10
267.0744925449791
 20
202.2234100346692
 30
0.0
 10
266.0501905889675
 20
202.223454404867
 30
0.0
 10
264.0022919509992
 20
202.223543114712
 30
0.0
 10
261.9539039053116
 20
202.2236962813912
 30
0.0
 10
260.9300626037685
 20
202.2237728383563
 30
0.0
  0
LINE
  5
159
330
1F
100
AcDbEntity
  8
0
  6
Continuous
 62
     7
370
    15
100
AcDbLine
 10
145.9039461565
 20
202.2236070605
 30
0.0
 11
145.8301721939
 21
202.2236070605
 31
0.0
  0
LWPOLYLINE
  5
15A
330
1F
100
AcDbEntity
  8
0
  6
Continuous
 62
     7
370
    15
100
AcDbPolyline
 90
        3
 70
   128
 43
0.0
 10
145.8301728528
 20
202.2236699629
 10
145.8365565256
 20
202.2236072884
 10
145.8429404203
 20
202.2235450728
  0
SPLINE
  5
15B
330
1F
100
AcDbEntity
  8
0
  6
Continuous
 62
     7
370
    15
100
AcDbSpline
210
0.0
220
0.0
230
1.0
 70
     8
 71
     3
 72
    16
 73
    12
 74
     0
 42
0.00000001
 43
0.00000001
 40
0.0
 40
0.0
 40
0.0
 40
0.0
 40
0.0813554304648497
 40
0.1974032121906373
 40
0.2546092870873066
 40
0.3693887486898535
 40
0.4846903236936382
 40
0.6004953979054373
 40
0.6798497946098189
 40
0.8393675680701262
 40
0.9999999999999999
 40
0.9999999999999999
 40
0.9999999999999999
 40
0.9999999999999999
 10
230.1523383886024
 20
169.2521203899588
 30
0.0
 10
230.1411610845078
 20
169.2194463327455
 30
0.0
 10
230.1140401447092
 20
169.1401650381553
 30
0.0
 10
229.9297322878156
 20
168.9661362319558
 30
0.0
 10
229.6434070344704
 20
168.7344262723693
 30
0.0
 10
229.2613452904178
 20
168.4606055189899
 30
0.0
 10
228.6582094165019
 20
168.0734131155884
 30
0.0
 10
227.993003566999
 20
167.6816758931844
 30
0.0
 10
227.1192627294531
 20
167.2012632051829
 30
0.0
 10
225.9973263035175
 20
166.62295127109
 30
0.0
 10
224.9203602244502
 20
166.1410773189652
 30
0.0
 10
224.3800023628155
 20
165.8993014790306
 30
0.0
  0
SPLINE
  5
15C
330
1F
100
AcDbEntity
  8
0
  6
Continuous
 62
     7
370
    15
100
AcDbSpline
210
0.0
220
0.0
230
1.0
 70
     8
 71
     3
 72
    17
 73
    13
 74
     0
 42
0.00000001
 43
0.00000001
 40
0.0
 40
0.0
 40
0.0
 40
0.0
 40
0.1231273287370078
 40
0.2463253495346029
 40
0.369522701909743
 40
0.4312297763508497
 40
0.5547181310094593
 40
0.6784144552102666
 40
0.8022496862099221
 40
0.8643291240751263
 40
0.9322566277972563
 40
1.0
 40
1.0
 40
1.0
 40
1.0
 10
189.6107462453826
 20
165.8993014790306
 30
0.0
 10
189.1933427816817
 20
166.0845722298158
 30
0.0
 10
188.35829620715
 20
166.4552201023378
 30
0.0
 10
187.2597017407622
 20
166.9989739961221
 30
0.0
 10
186.4490986666415
 20
167.4302072260287
 30
0.0
 10
185.7310788735061
 20
167.836344425597
 30
0.0
 10
185.1056216552989
 20
168.213884151088
 30
0.0
 10
184.5167444380504
 20
168.6067733414288
 30
0.0
 10
184.1646439666285
 20
168.8762503924058
 30
0.0
 10
183.9714907373474
 20
169.0534906384131
 30
0.0
 10
183.8558190095877
 20
169.1755509545103
 30
0.0
 10
183.8516060477262
 20
169.2230232150466
 30
0.0
 10
183.8495024256959
 20
169.2467271308125
 30
0.0
  0
LINE
  5
15D
330
1F
100
AcDbEntity
  8
0
  6
Continuous
 62
     7
370
    15
100
AcDbLine
 10
266.7145835474
 20
220.2236071083
 30
0.0
 11
297.2761650788
 21
220.2236071083
 31
0.0
  0
LINE
  5
15E
330
1F
100
AcDbEntity
  8
0
  6
Continuous
 62
     7
370
    15
100
AcDbLine
 10
121.7398323055
 20
220.2236071083
 30
0.0
 11
116.7145835474
 21
220.2236071083
 31
0.0
  0
LINE
  5
15F
330
1F
100
AcDbEntity
  8
0
  6
Continuous
 62
     7
370
    15
100
AcDbLine
 10
147.2761650788
 20
220.2236071083
 30
0.0
 11
121.7398323055
 21
220.2236071083
 31
0.0
  0
SPLINE
  5
160
330
1F
100
AcDbEntity
  8
0
  6
Continuous
 62
     7
370
    15
100
AcDbSpline
210
0.0
220
0.0
230
1.0
 70
    24
 71
     3
 72
    28
 73
    24
 74
     0
 42
0.00000001
 43
0.00000001
 40
0.0
 40
0.0
 40
0.0
 40
0.0
 40
0.1249999999999983
 40
0.1249999999999983
 40
0.2499999999999966
 40
0.2499999999999966
 40
0.3124999999999958
 40
0.3124999999999958
 40
0.3749999999999949
 40
0.3749999999999949
 40
0.4999999999999956
 40
0.4999999999999956
 40
0.6249999999999962
 40
0.6249999999999962
 40
0.7499999999999968
 40
0.7499999999999968
 40
0.8749999999999974
 40
0.8749999999999974
 40
0.9374999999999987
 40
0.9374999999999987
 40
0.9687499999999993
 40
0.9687499999999993
 40
1.0
 40
1.0
 40
1.0
 40
1.0
 10
130.9264065116019
 20
202.2236070604509
 30
0.0
 10
131.6467710711452
 20
202.2236070604509
 30
0.0
 10
132.3647701679734
 20
202.2236070604509
 30
0.0
 10
133.7949987134217
 20
202.2236070604509
 30
0.0
 10
134.5073027978825
 20
202.2236070604509
 30
0.0
 10
135.5711940929252
 20
202.2236070604509
 30
0.0
 10
135.9250634351502
 20
202.223607060451
 30
0.0
 10
136.6311981391964
 20
202.223607060451
 30
0.0
 10
136.9829663442294
 20
202.2236070604509
 30
0.0
 10
138.0213059711139
 20
202.2236070604509
 30
0.0
 10
138.6956444255478
 20
202.2236070604509
 30
0.0
 10
140.0066599520031
 20
202.2236070604509
 30
0.0
 10
140.6433599588062
 20
202.2236070604509
 30
0.0
 10
141.8753245354056
 20
202.2236070604509
 30
0.0
 10
142.45863037003
 20
202.2236070604509
 30
0.0
 10
143.5578893969369
 20
202.2236070604509
 30
0.0
 10
144.0759763423454
 20
202.2236070604509
 30
0.0
 10
144.7813248722027
 20
202.2236070604509
 30
0.0
 10
145.0042806210975
 20
202.2236070604511
 30
0.0
 10
145.320277869117
 20
202.2236070604511
 30
0.0
 10
145.4226742708688
 20
202.2236070604509
 30
0.0
 10
145.6251014400221
 20
202.2236070604509
 30
0.0
 10
145.7240733939448
 20
202.2236070604509
 30
0.0
 10
145.8301724334328
 20
202.2236070604509
 30
0.0
  0
SPLINE
  5
161
330
1F
100
AcDbEntity
  8
0
  6
Continuous
 62
     7
370
    15
100
AcDbSpline
210
0.0
220
0.0
230
1.0
 70
    24
 71
     3
 72
    28
 73
    24
 74
     0
 42
0.00000001
 43
0.00000001
 40
0.0
 40
0.0
 40
0.0
 40
0.0
 40
0.1249999999999983
 40
0.1249999999999983
 40
0.2499999999999966
 40
0.2499999999999966
 40
0.3124999999999958
 40
0.3124999999999958
 40
0.3749999999999949
 40
0.3749999999999949
 40
0.4999999999999956
 40
0.4999999999999956
 40
0.6249999999999962
 40
0.6249999999999962
 40
0.7499999999999968
 40
0.7499999999999968
 40
0.8749999999999974
 40
0.8749999999999974
 40
0.9374999999999987
 40
0.9374999999999987
 40
0.9687499999999993
 40
0.9687499999999993
 40
1.0
 40
1.0
 40
1.0
 40
1.0
 10
283.064342114592
 20
202.2236070604509
 30
0.0
 10
282.3439775550487
 20
202.2236070604509
 30
0.0
 10
281.6259784582205
 20
202.2236070604509
 30
0.0
 10
280.1957499127722
 20
202.2236070604509
 30
0.0
 10
279.4834458283113
 20
202.2236070604509
 30
0.0
 10
278.4195545332686
 20
202.2236070604509
 30
0.0
 10
278.0656851910438
 20
202.223607060451
 30
0.0
 10
277.3595504869975
 20
202.223607060451
 30
0.0
 10
277.0077822819645
 20
202.2236070604509
 30
0.0
 10
275.96944265508
 20
202.2236070604509
 30
0.0
 10
275.2951042006461
 20
202.2236070604509
 30
0.0
 10
273.9840886741908
 20
202.2236070604509
 30
0.0
 10
273.3473886673876
 20
202.2236070604509
 30
0.0
 10
272.1154240907883
 20
202.2236070604509
 30
0.0
 10
271.5321182561639
 20
202.2236070604509
 30
0.0
 10
270.432859229257
 20
202.2236070604509
 30
0.0
 10
269.9147722838485
 20
202.2236070604509
 30
0.0
 10
269.2094237539911
 20
202.2236070604509
 30
0.0
 10
268.9864680050964
 20
202.2236070604511
 30
0.0
 10
268.6704707570769
 20
202.2236070604511
 30
0.0
 10
268.5680743553251
 20
202.2236070604509
 30
0.0
 10
268.3656471861718
 20
202.2236070604509
 30
0.0
 10
268.266675232249
 20
202.2236070604509
 30
0.0
 10
268.1605761927611
 20
202.2236070604509
 30
0.0
  0
LINE
  5
162
330
1F
100
AcDbEntity
  8
0
  6
Continuous
 62
     7
370
    15
100
AcDbLine
 10
296.9318157484
 20
202.2236070605
 30
0.0
 11
283.0643485193
 21
202.2236070605
 31
0.0
  0
LINE
  5
163
330
1F
100
AcDbEntity
  8
0
  6
Continuous
 62
     7
370
    15
100
AcDbLine
 10
117.0589328778
 20
202.2236070605
 30
0.0
 11
130.9264001069
 21
202.2236070605
 31
0.0
  0
SPLINE
  5
164
330
1F
100
AcDbEntity
  8
0
  6
Continuous
 62
     7
370
    15
100
AcDbSpline
210
0.0
220
0.0
230
1.0
 70
     8
 71
     3
 72
    34
 73
    30
 74
     0
 42
0.00000001
 43
0.00000001
 40
0.0
 40
0.0
 40
0.0
 40
0.0
 40
0.0101839707203314
 40
0.0203577798392031
 40
0.0305597664427194
 40
0.0408276875245586
 40
0.0511981211689887
 40
0.0617059345963199
 40
0.0920327062692907
 40
0.1236635961769491
 40
0.1545024458522563
 40
0.1866689656636634
 40
0.2497014961245382
 40
0.3121197613874878
 40
0.3756237360389752
 40
0.439344612213961
 40
0.5020370603771658
 40
0.5646001550619132
 40
0.6284029109816278
 40
0.6921178686076676
 40
0.7547244549896996
 40
0.8171270414309229
 40
0.8489138342592853
 40
0.8793842041984018
 40
0.9102454410560717
 40
0.9398535167121396
 40
0.9601720033448407
 40
0.9801286608722908
 40
1.0
 40
1.0
 40
1.0
 40
1.0
 10
292.2018731884482
 20
216.2549800938116
 30
0.0
 10
292.2023474676322
 20
216.3032500955229
 30
0.0
 10
292.2032955527626
 20
216.3997419349697
 30
0.0
 10
292.2110128973516
 20
216.5439034971304
 30
0.0
 10
292.2233519667809
 20
216.6870918919987
 30
0.0
 10
292.2407411809857
 20
216.8291675218403
 30
0.0
 10
292.2630248785716
 20
216.9700066047509
 30
0.0
 10
292.3070567979966
 20
217.1962836647057
 30
0.0
 10
292.3885001878925
 20
217.5006618787152
 30
0.0
 10
292.5228507999472
 20
217.8509195216851
 30
0.0
 10
292.6826831222977
 20
218.1669654900574
 30
0.0
 10
292.919228584789
 20
218.5337685835271
 30
0.0
 10
293.2472184947508
 20
218.8996956670904
 30
0.0
 10
293.6675486680957
 20
219.2146639189665
 30
0.0
 10
294.1052350819133
 20
219.4266469182068
 30
0.0
 10
294.5519334248046
 20
219.5473184759212
 30
0.0
 10
294.9998039109378
 20
219.5848460528741
 30
0.0
 10
295.4479614156355
 20
219.5422023056029
 30
0.0
 10
295.8945644141577
 20
219.4160004735219
 30
0.0
 10
296.3325026857782
 20
219.1972420770936
 30
0.0
 10
296.7510130758618
 20
218.8749097913078
 30
0.0
 10
297.0752990948429
 20
218.5035119206336
 30
0.0
 10
297.3067453882443
 20
218.13480302144
 30
0.0
 10
297.4621451149142
 20
217.8196702959601
 30
0.0
 10
297.5914229365318
 20
217.4730631309033
 30
0.0
 10
297.6806381819349
 20
217.1320490650395
 30
0.0
 10
297.7343714427312
 20
216.818196170337
 30
0.0
 10
297.7641070179118
 20
216.538101460575
 30
0.0
 10
297.7677966747822
 20
216.3492190098645
 30
0.0
 10
297.7696375512786
 20
216.2549800938116
 30
0.0
  0
SPLINE
  5
165
330
1F
100
AcDbEntity
  8
0
  6
Continuous
 62
     7
370
    15
100
AcDbSpline
210
0.0
220
0.0
230
1.0
 70
     8
 71
     3
 72
    34
 73
    30
 74
     0
 42
0.00000001
 43
0.00000001
 40
0.0
 40
0.0
 40
0.0
 40
0.0
 40
0.0102436354304555
 40
0.0204882363177378
 40
0.0307731700840698
 40
0.041137357240811
 40
0.0516188027447443
 40
0.0622541783753256
 40
0.0927157460901437
 40
0.1246808247157936
 40
0.155179978283249
 40
0.1872228984684479
 40
0.2496668338799976
 40
0.3134441107046499
 40
0.3776841904583961
 40
0.4408749461216011
 40
0.5027365256510179
 40
0.5662850802360692
 40
0.630475248680399
 40
0.6941267219918857
 40
0.7563617984154709
 40
0.8183780767692798
 40
0.8500594693880467
 40
0.880206704303834
 40
0.9109406958193333
 40
0.9402519345262175
 40
0.9604662120732312
 40
0.9802908616054354
 40
0.9999999999999999
 40
0.9999999999999999
 40
0.9999999999999999
 40
0.9999999999999999
 10
276.4276099502667
 20
216.2549800938116
 30
0.0
 10
276.4285802002838
 20
216.3035329734389
 30
0.0
 10
276.4305207917635
 20
216.400643308775
 30
0.0
 10
276.4462446422913
 20
216.545800881148
 30
0.0
 10
276.4713281674673
 20
216.6901274382087
 30
0.0
 10
276.5066588655338
 20
216.8334819808137
 30
0.0
 10
276.5519600523523
 20
216.9757387405752
 30
0.0
 10
276.6412019936919
 20
217.2034259743309
 30
0.0
 10
276.8065408021165
 20
217.5097924574511
 30
0.0
 10
277.0770728536027
 20
217.8593755960705
 30
0.0
 10
277.3976402811886
 20
218.1737467191982
 30
0.0
 10
277.8671861334126
 20
218.5366342927464
 30
0.0
 10
278.5259393154496
 20
218.9038512321253
 30
0.0
 10
279.3741427117161
 20
219.2197745790975
 30
0.0
 10
280.2573326907364
 20
219.4306165189695
 30
0.0
 10
281.1478993203274
 20
219.5489423178848
 30
0.0
 10
282.042107844341
 20
219.5846444860906
 30
0.0
 10
282.9407428394756
 20
219.5404023962381
 30
0.0
 10
283.8398889107658
 20
219.4108970392849
 30
0.0
 10
284.7149215797731
 20
219.1890081552886
 30
0.0
 10
285.5468753440013
 20
218.8647338654659
 30
0.0
 10
286.1903283682445
 20
218.4927464635769
 30
0.0
 10
286.6488020015762
 20
218.1244894943815
 30
0.0
 10
286.9562228022655
 20
217.8099655856498
 30
0.0
 10
287.2114894173401
 20
217.4652428899316
 30
0.0
 10
287.387667931081
 20
217.1259446680335
 30
0.0
 10
287.4937783840732
 20
216.8142454348284
 30
0.0
 10
287.5523277814928
 20
216.5359321924285
 30
0.0
 10
287.5595420707658
 20
216.3484481943549
 30
0.0
 10
287.5631386759271
 20
216.2549800938116
 30
0.0
  0
SPLINE
  5
166
330
1F
100
AcDbEntity
  8
0
  6
Continuous
 62
     7
370
    15
100
AcDbSpline
210
0.0
220
0.0
230
1.0
 70
     8
 71
     3
 72
    34
 73
    30
 74
     0
 42
0.00000001
 43
0.00000001
 40
0.0
 40
0.0
 40
0.0
 40
0.0
 40
0.0101839707203912
 40
0.0203577798393038
 40
0.0305597664428385
 40
0.040827687524677
 40
0.0511981211690861
 40
0.0617059345963802
 40
0.0920327062721183
 40
0.1236635961771294
 40
0.154502445857257
 40
0.186668965663896
 40
0.249701496124827
 40
0.3121197613878364
 40
0.3756237360393674
 40
0.4393446122143884
 40
0.5020370603776153
 40
0.5646001550624147
 40
0.6284029109821714
 40
0.6921178686082379
 40
0.7547244549902885
 40
0.8171270414315408
 40
0.8489138342596444
 40
0.879384204199061
 40
0.9102454410581281
 40
0.9398535167124874
 40
0.9601720033452329
 40
0.9801286608725697
 40
1.0
 40
1.0
 40
1.0
 40
1.0
 10
266.2211110749152
 20
216.2549800938116
 30
0.0
 10
266.2215927257185
 20
216.3032500955232
 30
0.0
 10
266.2225555467322
 20
216.3997419349705
 30
0.0
 10
266.230332001648
 20
216.5439034971318
 30
0.0
 10
266.2426961166412
 20
216.6870918920004
 30
0.0
 10
266.260067387728
 20
216.8291675218419
 30
0.0
 10
266.2822971620907
 20
216.9700066047523
 30
0.0
 10
266.3262447389437
 20
217.1962836647184
 30
0.0
 10
266.4078159957163
 20
217.5006618787324
 30
0.0
 10
266.5420503744033
 20
217.8509195217125
 30
0.0
 10
266.7020738285165
 20
218.166965490072
 30
0.0
 10
266.9383859138497
 20
218.5337685835409
 30
0.0
 10
267.2664402772296
 20
218.8996956670915
 30
0.0
 10
267.6868585636321
 20
219.2146639189679
 30
0.0
 10
268.1244612845715
 20
219.4266469182077
 30
0.0
 10
268.5710345871094
 20
219.5473184759217
 30
0.0
 10
269.0191097786626
 20
219.5848460528741
 30
0.0
 10
269.4670573587801
 20
219.5422023056022
 30
0.0
 10
269.9137651826964
 20
219.4160004735206
 30
0.0
 10
270.3518566777092
 20
219.1972420770908
 30
0.0
 10
270.7702353048766
 20
218.8749097913056
 30
0.0
 10
271.0944902622764
 20
218.5035119206256
 30
0.0
 10
271.3260974549674
 20
218.1348030214414
 30
0.0
 10
271.4812910661746
 20
217.8196702959487
 30
0.0
 10
271.6106982758893
 20
217.4730631308894
 30
0.0
 10
271.6998845774751
 20
217.1320490650278
 30
0.0
 10
271.7537931215451
 20
216.8181961703321
 30
0.0
 10
271.7834436114983
 20
216.5381014605719
 30
0.0
 10
271.7870674166003
 20
216.3492190098632
 30
0.0
 10
271.7888754377454
 20
216.2549800938116
 30
0.0
  0
SPLINE
  5
167
330
1F
100
AcDbEntity
  8
0
  6
Continuous
 62
     7
370
    15
100
AcDbSpline
210
0.0
220
0.0
230
1.0
 70
     8
 71
     3
 72
    34
 73
    30
 74
     0
 42
0.00000001
 43
0.00000001
 40
0.0
 40
0.0
 40
0.0
 40
0.0
 40
0.0101839707203314
 40
0.0203577798392031
 40
0.0305597664427193
 40
0.0408276875245586
 40
0.0511981211689885
 40
0.0617059345963202
 40
0.0920327062692907
 40
0.1236635961769486
 40
0.1545024458522564
 40
0.1866689656636638
 40
0.249701496124537
 40
0.3121197613874879
 40
0.3756237360389753
 40
0.4393446122139614
 40
0.5020370603771658
 40
0.564600155061913
 40
0.6284029109816278
 40
0.6921178686076671
 40
0.7547244549897
 40
0.8171270414309237
 40
0.8489138342592849
 40
0.8793842041984017
 40
0.9102454410560716
 40
0.9398535167121391
 40
0.9601720033448405
 40
0.9801286608722909
 40
0.9999999999999999
 40
0.9999999999999999
 40
0.9999999999999999
 40
0.9999999999999999
 10
142.2018731884483
 20
216.2549800938116
 30
0.0
 10
142.2023474676322
 20
216.3032500955229
 30
0.0
 10
142.2032955527626
 20
216.3997419349697
 30
0.0
 10
142.2110128973516
 20
216.5439034971304
 30
0.0
 10
142.2233519667808
 20
216.6870918919987
 30
0.0
 10
142.2407411809857
 20
216.8291675218403
 30
0.0
 10
142.2630248785716
 20
216.9700066047509
 30
0.0
 10
142.3070567979967
 20
217.1962836647057
 30
0.0
 10
142.3885001878925
 20
217.5006618787152
 30
0.0
 10
142.5228507999472
 20
217.8509195216851
 30
0.0
 10
142.6826831222978
 20
218.1669654900574
 30
0.0
 10
142.9192285847891
 20
218.5337685835271
 30
0.0
 10
143.2472184947508
 20
218.8996956670904
 30
0.0
 10
143.6675486680958
 20
219.2146639189665
 30
0.0
 10
144.1052350819133
 20
219.4266469182068
 30
0.0
 10
144.5519334248046
 20
219.5473184759212
 30
0.0
 10
144.9998039109379
 20
219.5848460528741
 30
0.0
 10
145.4479614156355
 20
219.5422023056029
 30
0.0
 10
145.8945644141577
 20
219.4160004735219
 30
0.0
 10
146.3325026857782
 20
219.1972420770936
 30
0.0
 10
146.7510130758619
 20
218.8749097913078
 30
0.0
 10
147.075299094843
 20
218.5035119206337
 30
0.0
 10
147.3067453882444
 20
218.13480302144
 30
0.0
 10
147.4621451149142
 20
217.8196702959601
 30
0.0
 10
147.5914229365318
 20
217.4730631309033
 30
0.0
 10
147.6806381819348
 20
217.1320490650395
 30
0.0
 10
147.7343714427313
 20
216.818196170337
 30
0.0
 10
147.7641070179119
 20
216.538101460575
 30
0.0
 10
147.7677966747823
 20
216.3492190098645
 30
0.0
 10
147.7696375512786
 20
216.2549800938116
 30
0.0
  0
SPLINE
  5
168
330
1F
100
AcDbEntity
  8
0
  6
Continuous
 62
     7
370
    15
100
AcDbSpline
210
0.0
220
0.0
230
1.0
 70
     8
 71
     3
 72
    34
 73
    30
 74
     0
 42
0.00000001
 43
0.00000001
 40
0.0
 40
0.0
 40
0.0
 40
0.0
 40
0.0102436354304555
 40
0.0204882363177377
 40
0.0307731700840703
 40
0.0411373572408116
 40
0.0516188027447442
 40
0.0622541783753258
 40
0.0927157460901444
 40
0.1246808247157937
 40
0.1551799782832499
 40
0.1872228984684495
 40
0.2496668338799975
 40
0.3134441107046508
 40
0.3776841904583951
 40
0.4408749461215991
 40
0.5027365256510159
 40
0.5662850802360699
 40
0.6304752486803998
 40
0.6941267219918855
 40
0.7563617984154709
 40
0.8183780767692806
 40
0.8500594693880476
 40
0.8802067043038314
 40
0.9109406958193325
 40
0.9402519345262169
 40
0.9604662120732322
 40
0.9802908616054355
 40
1.0
 40
1.0
 40
1.0
 40
1.0
 10
126.4276099502667
 20
216.2549800938116
 30
0.0
 10
126.4285802002838
 20
216.3035329734389
 30
0.0
 10
126.4305207917635
 20
216.400643308775
 30
0.0
 10
126.4462446422912
 20
216.545800881148
 30
0.0
 10
126.4713281674674
 20
216.6901274382087
 30
0.0
 10
126.506658865534
 20
216.8334819808136
 30
0.0
 10
126.5519600523523
 20
216.9757387405752
 30
0.0
 10
126.641201993692
 20
217.2034259743309
 30
0.0
 10
126.8065408021165
 20
217.5097924574511
 30
0.0
 10
127.0770728536028
 20
217.8593755960706
 30
0.0
 10
127.3976402811886
 20
218.1737467191982
 30
0.0
 10
127.8671861334127
 20
218.5366342927463
 30
0.0
 10
128.5259393154496
 20
218.9038512321252
 30
0.0
 10
129.3741427117162
 20
219.2197745790975
 30
0.0
 10
130.2573326907364
 20
219.4306165189695
 30
0.0
 10
131.1478993203274
 20
219.5489423178848
 30
0.0
 10
132.0421078443411
 20
219.5846444860906
 30
0.0
 10
132.9407428394757
 20
219.5404023962381
 30
0.0
 10
133.8398889107658
 20
219.4108970392849
 30
0.0
 10
134.7149215797731
 20
219.1890081552886
 30
0.0
 10
135.5468753440013
 20
218.8647338654659
 30
0.0
 10
136.1903283682446
 20
218.4927464635769
 30
0.0
 10
136.6488020015763
 20
218.1244894943816
 30
0.0
 10
136.9562228022654
 20
217.8099655856497
 30
0.0
 10
137.2114894173402
 20
217.4652428899316
 30
0.0
 10
137.387667931081
 20
217.1259446680335
 30
0.0
 10
137.4937783840733
 20
216.8142454348284
 30
0.0
 10
137.5523277814928
 20
216.5359321924285
 30
0.0
 10
137.5595420707659
 20
216.3484481943549
 30
0.0
 10
137.5631386759271
 20
216.2549800938116
 30
0.0
  0
SPLINE
  5
169
330
1F
100
AcDbEntity
  8
0
  6
Continuous
 62
     7
370
    15
100
AcDbSpline
210
0.0
220
0.0
230
1.0
 70
     8
 71
     3
 72
    34
 73
    30
 74
     0
 42
0.00000001
 43
0.00000001
 40
0.0
 40
0.0
 40
0.0
 40
0.0
 40
0.0101839707203912
 40
0.0203577798393036
 40
0.0305597664428388
 40
0.0408276875246769
 40
0.051198121169086
 40
0.06170593459638
 40
0.0920327062721188
 40
0.1236635961771289
 40
0.1545024458572562
 40
0.1866689656638955
 40
0.2497014961248268
 40
0.3121197613878368
 40
0.3756237360393678
 40
0.4393446122143898
 40
0.5020370603776148
 40
0.5646001550624147
 40
0.6284029109821706
 40
0.6921178686082377
 40
0.7547244549902878
 40
0.817127041431541
 40
0.8489138342596433
 40
0.8793842041990604
 40
0.9102454410581284
 40
0.9398535167124873
 40
0.9601720033452328
 40
0.9801286608725697
 40
1.0
 40
1.0
 40
1.0
 40
1.0
 10
116.2211110749152
 20
216.2549800938116
 30
0.0
 10
116.2215927257185
 20
216.3032500955231
 30
0.0
 10
116.2225555467323
 20
216.3997419349704
 30
0.0
 10
116.2303320016479
 20
216.5439034971318
 30
0.0
 10
116.2426961166413
 20
216.6870918920004
 30
0.0
 10
116.260067387728
 20
216.8291675218419
 30
0.0
 10
116.2822971620907
 20
216.9700066047523
 30
0.0
 10
116.3262447389437
 20
217.1962836647184
 30
0.0
 10
116.4078159957164
 20
217.5006618787324
 30
0.0
 10
116.5420503744032
 20
217.8509195217125
 30
0.0
 10
116.7020738285164
 20
218.166965490072
 30
0.0
 10
116.9383859138498
 20
218.5337685835409
 30
0.0
 10
117.2664402772296
 20
218.8996956670915
 30
0.0
 10
117.6868585636321
 20
219.2146639189679
 30
0.0
 10
118.1244612845715
 20
219.4266469182077
 30
0.0
 10
118.5710345871095
 20
219.5473184759217
 30
0.0
 10
119.0191097786626
 20
219.5848460528741
 30
0.0
 10
119.4670573587801
 20
219.5422023056022
 30
0.0
 10
119.9137651826963
 20
219.4160004735206
 30
0.0
 10
120.3518566777093
 20
219.1972420770908
 30
0.0
 10
120.7702353048766
 20
218.8749097913056
 30
0.0
 10
121.0944902622765
 20
218.5035119206256
 30
0.0
 10
121.3260974549673
 20
218.1348030214414
 30
0.0
 10
121.4812910661746
 20
217.8196702959487
 30
0.0
 10
121.6106982758894
 20
217.4730631308895
 30
0.0
 10
121.6998845774752
 20
217.1320490650278
 30
0.0
 10
121.7537931215451
 20
216.8181961703322
 30
0.0
 10
121.7834436114983
 20
216.5381014605719
 30
0.0
 10
121.7870674166004
 20
216.3492190098632
 30
0.0
 10
121.7888754377454
 20
216.2549800938116
 30
0.0
  0
LINE
  5
16A
330
1F
100
AcDbEntity
  8
0
  6
Continuous
 62
     7
370
    15
100
AcDbLine
 10
117.4953743131
 20
203.2236070605
 30
0.0
 11
146.4953743131
 21
203.2236070605
 31
0.0
  0
SPLINE
  5
16B
330
1F
100
AcDbEntity
  8
0
  6
Continuous
 62
     7
370
    15
100
AcDbSpline
210
0.0
220
0.0
230
1.0
 70
     8
 71
     3
 72
    34
 73
    30
 74
     0
 42
0.00000001
 43
0.00000001
 40
0.0
 40
0.0
 40
0.0
 40
0.0
 40
0.0102436354293117
 40
0.0204882363159112
 40
0.0307731700820117
 40
0.0411373572389538
 40
0.0516188027434936
 40
0.0622541783750662
 40
0.092715746080186
 40
0.1246808247150711
 40
0.1551799782755464
 40
0.1872228984674195
 40
0.2496668338787204
 40
0.313444110703027
 40
0.3776841904563127
 40
0.4408749461190336
 40
0.5027365256481462
 40
0.5662850802328054
 40
0.6304752486766786
 40
0.6941267219877606
 40
0.7563617984110631
 40
0.8183780767645892
 40
0.8500594693802291
 40
0.8802067042990492
 40
0.9109406958049908
 40
0.9402519345235192
 40
0.9604662120624199
 40
0.9802908615955391
 40
0.9999999999999999
 40
0.9999999999999999
 40
0.9999999999999999
 40
0.9999999999999999
 10
137.5631386759272
 20
207.1922340270473
 30
0.0
 10
137.562168425907
 20
207.1436811474259
 30
0.0
 10
137.5602278344209
 20
207.0465708120996
 30
0.0
 10
137.5445039838862
 20
206.9014132397386
 30
0.0
 10
137.5194204587045
 20
206.7570866826837
 30
0.0
 10
137.4840897606344
 20
206.6137321400783
 30
0.0
 10
137.4387885738126
 20
206.4714753803105
 30
0.0
 10
137.3495466324979
 20
206.2437881465885
 30
0.0
 10
137.184207824057
 20
205.9374216634783
 30
0.0
 10
136.9136757726076
 20
205.5878385248819
 30
0.0
 10
136.5931083450107
 20
205.27346740171
 30
0.0
 10
136.1235624927769
 20
204.9105798281861
 30
0.0
 10
135.4648093107303
 20
204.5433628887852
 30
0.0
 10
134.6166059144744
 20
204.2274395418191
 30
0.0
 10
133.73341593547
 20
204.0165976019462
 30
0.0
 10
132.8428493058935
 20
203.8982718030296
 30
0.0
 10
131.9486407818941
 20
203.8625696348207
 30
0.0
 10
131.0500057867731
 20
203.9068117246686
 30
0.0
 10
130.1508597154968
 20
204.0363170816156
 30
0.0
 10
129.2758270465012
 20
204.2582059656023
 30
0.0
 10
128.4438732822838
 20
204.5824802554141
 30
0.0
 10
127.8004202580514
 20
204.9544676572751
 30
0.0
 10
127.3419466247255
 20
205.3227246264639
 30
0.0
 10
127.034525824048
 20
205.6372485351381
 30
0.0
 10
126.7792592089569
 20
205.9819712308685
 30
0.0
 10
126.6030806952026
 20
206.3212694527215
 30
0.0
 10
126.4969702421513
 20
206.6329686859262
 30
0.0
 10
126.4384208447294
 20
206.9112819283365
 30
0.0
 10
126.4312065554379
 20
207.0987659264585
 30
0.0
 10
126.4276099502666
 20
207.1922340270473
 30
0.0
  0
SPLINE
  5
16C
330
1F
100
AcDbEntity
  8
0
  6
Continuous
 62
     7
370
    15
100
AcDbSpline
210
0.0
220
0.0
230
1.0
 70
     8
 71
     3
 72
    34
 73
    30
 74
     0
 42
0.00000001
 43
0.00000001
 40
0.0
 40
0.0
 40
0.0
 40
0.0
 40
0.0101839707191862
 40
0.0203577798373601
 40
0.0305597664406409
 40
0.0408276875227192
 40
0.0511981211678665
 40
0.0617059345963921
 40
0.092032706270772
 40
0.1236635961770064
 40
0.1545024458580559
 40
0.1866689656635774
 40
0.249701496124423
 40
0.3121197613870649
 40
0.3756237360380039
 40
0.4393446122124479
 40
0.5020370603752214
 40
0.5646001550599399
 40
0.6284029109794818
 40
0.6921178686053102
 40
0.7547244549872167
 40
0.8171270414283535
 40
0.8489138342584155
 40
0.8793842041958209
 40
0.9102454410612613
 40
0.9398535167109344
 40
0.9601720033512869
 40
0.9801286608791577
 40
1.0
 40
1.0
 40
1.0
 40
1.0
 10
147.7696375512786
 20
207.1922340270473
 30
0.0
 10
147.7691559004747
 20
207.1439640253419
 30
0.0
 10
147.7681930794596
 20
207.0474721859047
 30
0.0
 10
147.7604166245425
 20
206.9033106237554
 30
0.0
 10
147.7480525095478
 20
206.7601222288925
 30
0.0
 10
147.7306812384589
 20
206.6180465990501
 30
0.0
 10
147.7084514640932
 20
206.4772075161325
 30
0.0
 10
147.6645038872375
 20
206.2509304561672
 30
0.0
 10
147.5829326304615
 20
205.946552242155
 30
0.0
 10
147.4486982517727
 20
205.5962945991796
 30
0.0
 10
147.2886747976569
 20
205.2802486308168
 30
0.0
 10
147.0523627123261
 20
204.9134455373639
 30
0.0
 10
146.724308348952
 20
204.5475184538169
 30
0.0
 10
146.303890062556
 20
204.2325502019455
 30
0.0
 10
145.8662873416244
 20
204.0205672027067
 30
0.0
 10
145.4197140390946
 20
203.8998956449921
 30
0.0
 10
144.9716388475483
 20
203.8623680680372
 30
0.0
 10
144.5236912674365
 20
203.9050118153054
 30
0.0
 10
144.0769834435255
 20
204.0312136473825
 30
0.0
 10
143.6388919485169
 20
204.2499720438048
 30
0.0
 10
143.2205133213557
 20
204.5723043295828
 30
0.0
 10
142.8962583639465
 20
204.9437022002483
 30
0.0
 10
142.6646511712689
 20
205.3124110994368
 30
0.0
 10
142.5094575600431
 20
205.6275438249342
 30
0.0
 10
142.380050350306
 20
205.9741509899695
 30
0.0
 10
142.2908640487236
 20
206.315165055875
 30
0.0
 10
142.2369555046721
 20
206.6290179505899
 30
0.0
 10
142.2073050146994
 20
206.9091126603495
 30
0.0
 10
142.2036812095944
 20
207.0979951110278
 30
0.0
 10
142.2018731884484
 20
207.1922340270473
 30
0.0
  0
SPLINE
  5
16D
330
1F
100
AcDbEntity
  8
0
  6
Continuous
 62
     7
370
    15
100
AcDbSpline
210
0.0
220
0.0
230
1.0
 70
     8
 71
     3
 72
    34
 73
    30
 74
     0
 42
0.00000001
 43
0.00000001
 40
0.0
 40
0.0
 40
0.0
 40
0.0
 40
0.0101839707187693
 40
0.020357779836687
 40
0.0305597664398735
 40
0.0408276875220179
 40
0.0511981211673891
 40
0.0617059345962908
 40
0.0920327062664205
 40
0.1236635961767595
 40
0.1545024458512607
 40
0.1866689656632598
 40
0.2497014961240253
 40
0.3121197613865924
 40
0.3756237360374919
 40
0.4393446122119183
 40
0.5020370603746828
 40
0.5646001550593492
 40
0.6284029109788557
 40
0.6921178686046616
 40
0.7547244549865441
 40
0.817127041427618
 40
0.8489138342582653
 40
0.8793842041951703
 40
0.9102454410601223
 40
0.9398535167104922
 40
0.9601720033435405
 40
0.9801286608716201
 40
1.0
 40
1.0
 40
1.0
 40
1.0
 10
121.7888754377455
 20
207.1922340270473
 30
0.0
 10
121.7884011585619
 20
207.1439640253438
 30
0.0
 10
121.7874530734319
 20
207.0474721859098
 30
0.0
 10
121.7797357288413
 20
206.9033106237643
 30
0.0
 10
121.7673966594094
 20
206.7601222289028
 30
0.0
 10
121.750007445201
 20
206.6180465990594
 30
0.0
 10
121.7277237476109
 20
206.4772075161387
 30
0.0
 10
121.6836918281881
 20
206.2509304561876
 30
0.0
 10
121.6022484382863
 20
205.9465522421791
 30
0.0
 10
121.4678978262328
 20
205.5962945992188
 30
0.0
 10
121.3080655038847
 20
205.2802486308374
 30
0.0
 10
121.0715200413877
 20
204.9134455373823
 30
0.0
 10
120.7435301314324
 20
204.5475184538188
 30
0.0
 10
120.3231999580929
 20
204.2325502019475
 30
0.0
 10
119.8855135442836
 20
204.0205672027081
 30
0.0
 10
119.4388152014003
 20
203.8998956449928
 30
0.0
 10
118.9909447152739
 20
203.8623680680372
 30
0.0
 10
118.5427872105821
 20
203.9050118153047
 30
0.0
 10
118.0961842120652
 20
204.0312136473805
 30
0.0
 10
117.6582459404495
 20
204.2499720438026
 30
0.0
 10
117.2397355503701
 20
204.5723043295754
 30
0.0
 10
116.9154495313848
 20
204.943702200252
 30
0.0
 10
116.6840032379848
 20
205.3124110994161
 30
0.0
 10
116.5286035113
 20
205.6275438249251
 30
0.0
 10
116.3993256896822
 20
205.9741509899722
 30
0.0
 10
116.3101104442738
 20
206.3151650558339
 30
0.0
 10
116.2563771834783
 20
206.6290179505154
 30
0.0
 10
116.2266416082912
 20
206.9091126602785
 30
0.0
 10
116.2229519514146
 20
207.0979951109925
 30
0.0
 10
116.2211110749152
 20
207.1922340270473
 30
0.0
  0
LINE
  5
16E
330
1F
100
AcDbEntity
  8
0
  6
Continuous
 62
     7
370
    15
100
AcDbLine
 10
267.4953743131
 20
203.2236070605
 30
0.0
 11
296.4953743131
 21
203.2236070605
 31
0.0
  0
SPLINE
  5
16F
330
1F
100
AcDbEntity
  8
0
  6
Continuous
 62
     7
370
    15
100
AcDbSpline
210
0.0
220
0.0
230
1.0
 70
     8
 71
     3
 72
    34
 73
    30
 74
     0
 42
0.00000001
 43
0.00000001
 40
0.0
 40
0.0
 40
0.0
 40
0.0
 40
0.0102436354293118
 40
0.0204882363159112
 40
0.0307731700820113
 40
0.0411373572389538
 40
0.0516188027434937
 40
0.0622541783750662
 40
0.0927157460801865
 40
0.124680824715071
 40
0.1551799782755462
 40
0.1872228984674194
 40
0.2496668338787211
 40
0.3134441107030249
 40
0.3776841904563125
 40
0.4408749461190324
 40
0.5027365256481469
 40
0.5662850802328052
 40
0.6304752486766804
 40
0.6941267219877624
 40
0.7563617984110657
 40
0.8183780767645884
 40
0.8500594693802291
 40
0.8802067042990478
 40
0.9109406958049912
 40
0.9402519345235194
 40
0.9604662120624192
 40
0.9802908615955394
 40
1.0
 40
1.0
 40
1.0
 40
1.0
 10
287.5631386759272
 20
207.1922340270473
 30
0.0
 10
287.5621684259069
 20
207.1436811474259
 30
0.0
 10
287.5602278344209
 20
207.0465708120995
 30
0.0
 10
287.5445039838862
 20
206.9014132397386
 30
0.0
 10
287.5194204587045
 20
206.7570866826837
 30
0.0
 10
287.4840897606343
 20
206.6137321400783
 30
0.0
 10
287.4387885738126
 20
206.4714753803105
 30
0.0
 10
287.3495466324979
 20
206.2437881465885
 30
0.0
 10
287.1842078240569
 20
205.9374216634783
 30
0.0
 10
286.9136757726076
 20
205.5878385248819
 30
0.0
 10
286.5931083450107
 20
205.27346740171
 30
0.0
 10
286.1235624927769
 20
204.9105798281861
 30
0.0
 10
285.4648093107303
 20
204.5433628887852
 30
0.0
 10
284.6166059144743
 20
204.2274395418191
 30
0.0
 10
283.73341593547
 20
204.0165976019462
 30
0.0
 10
282.8428493058934
 20
203.8982718030296
 30
0.0
 10
281.948640781894
 20
203.8625696348207
 30
0.0
 10
281.0500057867731
 20
203.9068117246686
 30
0.0
 10
280.1508597154968
 20
204.0363170816156
 30
0.0
 10
279.2758270465011
 20
204.2582059656024
 30
0.0
 10
278.4438732822837
 20
204.582480255414
 30
0.0
 10
277.8004202580514
 20
204.9544676572751
 30
0.0
 10
277.3419466247254
 20
205.3227246264639
 30
0.0
 10
277.034525824048
 20
205.6372485351381
 30
0.0
 10
276.7792592089568
 20
205.9819712308685
 30
0.0
 10
276.6030806952026
 20
206.3212694527215
 30
0.0
 10
276.4969702421513
 20
206.6329686859262
 30
0.0
 10
276.4384208447294
 20
206.9112819283365
 30
0.0
 10
276.4312065554378
 20
207.0987659264584
 30
0.0
 10
276.4276099502666
 20
207.1922340270473
 30
0.0
  0
SPLINE
  5
170
330
1F
100
AcDbEntity
  8
0
  6
Continuous
 62
     7
370
    15
100
AcDbSpline
210
0.0
220
0.0
230
1.0
 70
     8
 71
     3
 72
    34
 73
    30
 74
     0
 42
0.00000001
 43
0.00000001
 40
0.0
 40
0.0
 40
0.0
 40
0.0
 40
0.0101839707191862
 40
0.0203577798373602
 40
0.0305597664406411
 40
0.0408276875227193
 40
0.0511981211678667
 40
0.0617059345963919
 40
0.0920327062707719
 40
0.1236635961770057
 40
0.1545024458580554
 40
0.1866689656635768
 40
0.2497014961244233
 40
0.3121197613870654
 40
0.3756237360380051
 40
0.4393446122124481
 40
0.5020370603752219
 40
0.5646001550599407
 40
0.6284029109794824
 40
0.6921178686053109
 40
0.7547244549872163
 40
0.8171270414283534
 40
0.8489138342584147
 40
0.879384204195821
 40
0.9102454410612613
 40
0.9398535167109343
 40
0.9601720033512869
 40
0.9801286608791577
 40
1.0
 40
1.0
 40
1.0
 40
1.0
 10
297.7696375512786
 20
207.1922340270473
 30
0.0
 10
297.7691559004747
 20
207.1439640253419
 30
0.0
 10
297.7681930794596
 20
207.0474721859047
 30
0.0
 10
297.7604166245425
 20
206.9033106237554
 30
0.0
 10
297.7480525095477
 20
206.7601222288925
 30
0.0
 10
297.7306812384589
 20
206.6180465990501
 30
0.0
 10
297.7084514640931
 20
206.4772075161325
 30
0.0
 10
297.6645038872376
 20
206.2509304561672
 30
0.0
 10
297.5829326304614
 20
205.946552242155
 30
0.0
 10
297.4486982517728
 20
205.5962945991796
 30
0.0
 10
297.288674797657
 20
205.2802486308168
 30
0.0
 10
297.0523627123261
 20
204.9134455373639
 30
0.0
 10
296.7243083489519
 20
204.5475184538169
 30
0.0
 10
296.303890062556
 20
204.2325502019455
 30
0.0
 10
295.8662873416243
 20
204.0205672027067
 30
0.0
 10
295.4197140390945
 20
203.8998956449921
 30
0.0
 10
294.9716388475482
 20
203.8623680680372
 30
0.0
 10
294.5236912674364
 20
203.9050118153054
 30
0.0
 10
294.0769834435255
 20
204.0312136473825
 30
0.0
 10
293.6388919485169
 20
204.2499720438048
 30
0.0
 10
293.2205133213557
 20
204.5723043295828
 30
0.0
 10
292.8962583639465
 20
204.9437022002483
 30
0.0
 10
292.6646511712689
 20
205.3124110994368
 30
0.0
 10
292.5094575600431
 20
205.6275438249342
 30
0.0
 10
292.380050350306
 20
205.9741509899695
 30
0.0
 10
292.2908640487235
 20
206.315165055875
 30
0.0
 10
292.236955504672
 20
206.6290179505899
 30
0.0
 10
292.2073050146993
 20
206.9091126603495
 30
0.0
 10
292.2036812095944
 20
207.0979951110278
 30
0.0
 10
292.2018731884483
 20
207.1922340270473
 30
0.0
  0
SPLINE
  5
171
330
1F
100
AcDbEntity
  8
0
  6
Continuous
 62
     7
370
    15
100
AcDbSpline
210
0.0
220
0.0
230
1.0
 70
     8
 71
     3
 72
    34
 73
    30
 74
     0
 42
0.00000001
 43
0.00000001
 40
0.0
 40
0.0
 40
0.0
 40
0.0
 40
0.0101839707187693
 40
0.0203577798366869
 40
0.0305597664398736
 40
0.0408276875220176
 40
0.0511981211673892
 40
0.0617059345962905
 40
0.0920327062664204
 40
0.1236635961767594
 40
0.154502445851261
 40
0.1866689656632596
 40
0.2497014961240243
 40
0.3121197613865923
 40
0.3756237360374923
 40
0.4393446122119182
 40
0.5020370603746824
 40
0.5646001550593479
 40
0.628402910978855
 40
0.6921178686046607
 40
0.7547244549865445
 40
0.8171270414276184
 40
0.8489138342582648
 40
0.8793842041951703
 40
0.910245441060122
 40
0.9398535167104922
 40
0.9601720033435405
 40
0.9801286608716201
 40
1.0
 40
1.0
 40
1.0
 40
1.0
 10
271.7888754377454
 20
207.1922340270473
 30
0.0
 10
271.7884011585618
 20
207.1439640253438
 30
0.0
 10
271.7874530734318
 20
207.0474721859098
 30
0.0
 10
271.7797357288413
 20
206.9033106237643
 30
0.0
 10
271.7673966594094
 20
206.7601222289028
 30
0.0
 10
271.750007445201
 20
206.6180465990594
 30
0.0
 10
271.7277237476109
 20
206.4772075161387
 30
0.0
 10
271.6836918281881
 20
206.2509304561875
 30
0.0
 10
271.6022484382863
 20
205.9465522421791
 30
0.0
 10
271.4678978262328
 20
205.5962945992188
 30
0.0
 10
271.3080655038846
 20
205.2802486308374
 30
0.0
 10
271.0715200413877
 20
204.9134455373823
 30
0.0
 10
270.7435301314324
 20
204.5475184538188
 30
0.0
 10
270.3231999580929
 20
204.2325502019475
 30
0.0
 10
269.8855135442836
 20
204.0205672027081
 30
0.0
 10
269.4388152014004
 20
203.8998956449928
 30
0.0
 10
268.9909447152739
 20
203.8623680680372
 30
0.0
 10
268.5427872105821
 20
203.9050118153047
 30
0.0
 10
268.0961842120651
 20
204.0312136473805
 30
0.0
 10
267.6582459404494
 20
204.2499720438026
 30
0.0
 10
267.2397355503701
 20
204.5723043295753
 30
0.0
 10
266.9154495313848
 20
204.943702200252
 30
0.0
 10
266.6840032379848
 20
205.3124110994161
 30
0.0
 10
266.5286035112999
 20
205.6275438249251
 30
0.0
 10
266.3993256896821
 20
205.9741509899722
 30
0.0
 10
266.3101104442738
 20
206.3151650558339
 30
0.0
 10
266.2563771834782
 20
206.6290179505154
 30
0.0
 10
266.2266416082912
 20
206.9091126602785
 30
0.0
 10
266.2229519514145
 20
207.0979951109925
 30
0.0
 10
266.2211110749152
 20
207.1922340270473
 30
0.0
  0
LINE
  5
172
330
1F
100
AcDbEntity
  8
0
  6
Continuous
 62
     7
370
    15
100
AcDbLine
 10
276.4276099503
 20
207.192234027
 30
0.0
 11
276.4276099503
 21
216.2549800938
 31
0.0
  0
LINE
  5
173
330
1F
100
AcDbEntity
  8
0
  6
Continuous
 62
     7
370
    15
100
AcDbLine
 10
287.5631386759
 20
216.2549800938
 30
0.0
 11
287.5631386759
 21
207.192234027
 31
0.0
  0
LINE
  5
174
330
1F
100
AcDbEntity
  8
0
  6
Continuous
 62
     7
370
    15
100
AcDbLine
 10
126.4276099503
 20
207.192234027
 30
0.0
 11
126.4276099503
 21
216.2549800938
 31
0.0
  0
LINE
  5
175
330
1F
100
AcDbEntity
  8
0
  6
Continuous
 62
     7
370
    15
100
AcDbLine
 10
137.5631386759
 20
216.2549800938
 30
0.0
 11
137.5631386759
 21
207.192234027
 31
0.0
  0
LINE
  5
176
330
1F
100
AcDbEntity
  8
0
  6
Continuous
 62
     7
370
    15
100
AcDbLine
 10
292.2018731884
 20
207.192234027
 30
0.0
 11
292.2018731884
 21
216.2549800938
 31
0.0
  0
LINE
  5
177
330
1F
100
AcDbEntity
  8
0
  6
Continuous
 62
     7
370
    15
100
AcDbLine
 10
142.2018731884
 20
207.192234027
 30
0.0
 11
142.2018731884
 21
216.2549800938
 31
0.0
  0
LINE
  5
178
330
1F
100
AcDbEntity
  8
0
  6
Continuous
 62
     7
370
    15
100
AcDbLine
 10
121.7888754377
 20
216.2549800938
 30
0.0
 11
121.7888754377
 21
207.192234027
 31
0.0
  0
LINE
  5
179
330
1F
100
AcDbEntity
  8
0
  6
Continuous
 62
     7
370
    15
100
AcDbLine
 10
271.7888754377
 20
216.2549800938
 30
0.0
 11
271.7888754377
 21
207.192234027
 31
0.0
  0
LINE
  5
17A
330
1F
100
AcDbEntity
  8
0
  6
Continuous
 62
     7
370
    15
100
AcDbLine
 10
230.206883139
 20
169.3822332273
 30
0.0
 11
232.8072822167
 21
169.3822332273
 31
0.0
  0
LINE
  5
17B
330
1F
100
AcDbEntity
  8
0
  6
Continuous
 62
     7
370
    15
100
AcDbLine
 10
181.1834663915
 20
169.3822332273
 30
0.0
 11
183.7838654692
 21
169.3822332273
 31
0.0
  0
LINE
  5
17C
330
1F
100
AcDbEntity
  8
0
  6
Continuous
 62
     7
370
    15
100
AcDbLine
 10
297.7696375513
 20
216.2549800938
 30
0.0
 11
297.7696375513
 21
207.192234027
 31
0.0
  0
LINE
  5
17D
330
1F
100
AcDbEntity
  8
0
  6
Continuous
 62
     7
370
    15
100
AcDbLine
 10
147.7696375513
 20
216.2549800938
 30
0.0
 11
147.7696375513
 21
207.192234027
 31
0.0
  0
LINE
  5
17E
330
1F
100
AcDbEntity
  8
0
  6
Continuous
 62
     7
370
    15
100
AcDbLine
 10
266.2211110749
 20
207.192234027
 30
0.0
 11
266.2211110749
 21
216.2549800938
 31
0.0
  0
LINE
  5
17F
330
1F
100
AcDbEntity
  8
0
  6
Continuous
 62
     7
370
    15
100
AcDbLine
 10
116.2211110749
 20
207.192234027
 30
0.0
 11
116.2211110749
 21
216.2549800938
 31
0.0
  0
SPLINE
  5
180
330
1F
100
AcDbEntity
  8
0
  6
Continuous
 62
     7
370
    15
100
AcDbSpline
210
0.0
220
0.0
230
1.0
 70
     8
 71
     3
 72
    10
 73
     6
 74
     0
 42
0.00000001
 43
0.00000001
 40
0.0
 40
0.0
 40
0.0
 40
0.0
 40
0.4942581735646638
 40
0.9920546991745403
 40
1.0
 40
1.0
 40
1.0
 40
1.0
 10
182.7808552841585
 20
229.6570674357025
 30
0.0
 10
182.6355859612083
 20
229.6368894349505
 30
0.0
 10
182.3440073446336
 20
229.5963889808629
 30
0.0
 10
182.1482850392941
 20
229.5696499335461
 30
0.0
 10
182.1250075550714
 20
229.5629311877543
 30
0.0
 10
182.1246418613421
 20
229.5628256349728
 30
0.0
  0
LINE
  5
181
330
1F
100
AcDbEntity
  8
0
  6
Continuous
 62
     7
370
    15
100
AcDbLine
 10
183.0391073305
 20
229.6920403878
 30
0.0
 11
182.7807940161
 21
229.6570573256
 31
0.0
  0
LINE
  5
182
330
1F
100
AcDbEntity
  8
0
  6
Continuous
 62
     7
370
    15
100
AcDbLine
 10
206.9953743041
 20
231.941555913
 30
0.0
 11
206.9953841749
 21
231.9413725539
 31
0.0
  0
LINE
  5
183
330
1F
100
AcDbEntity
  8
0
  6
Continuous
 62
     7
370
    15
100
AcDbLine
 10
231.209572355
 20
229.6571095789
 30
0.0
 11
230.9320289827
 21
229.6941528998
 31
0.0
  0
SPLINE
  5
184
330
1F
100
AcDbEntity
  8
0
  6
Continuous
 62
     7
370
    15
100
AcDbSpline
210
0.0
220
0.0
230
1.0
 70
     8
 71
     3
 72
    12
 73
     8
 74
     0
 42
0.00000001
 43
0.00000001
 40
0.0
 40
0.0
 40
0.0
 40
0.0
 40
0.0043557133185667
 40
0.252151782995968
 40
0.5003916228383586
 40
0.7499724299837892
 40
1.0
 40
1.0
 40
1.0
 40
1.0
 10
231.8659758185754
 20
229.5629390604737
 30
0.0
 10
231.8656495205965
 20
229.5630071777522
 30
0.0
 10
231.8467601651334
 20
229.566950479793
 30
0.0
 10
231.7698614269522
 20
229.5785027090311
 30
0.0
 10
231.6309457283043
 20
229.598835498118
 30
0.0
 10
231.4466119595547
 20
229.6245890249594
 30
0.0
 10
231.2885927200117
 20
229.64626952224
 30
0.0
 10
231.2095124477729
 20
229.6571194645141
 30
0.0
  0
SPLINE
  5
185
330
1F
100
AcDbEntity
  8
0
  6
Continuous
 62
     7
370
    15
100
AcDbSpline
210
0.0
220
0.0
230
1.0
 70
    24
 71
     3
 72
     9
 73
     5
 74
     0
 42
0.00000001
 43
0.00000001
 40
0.0
 40
0.0
 40
0.0
 40
0.0
 40
0.499999999999473
 40
1.0
 40
1.0
 40
1.0
 40
1.0
 10
153.0606058465561
 20
202.2236070604509
 30
0.0
 10
152.0364405983765
 20
202.2236070604509
 30
0.0
 10
149.988110102015
 20
202.2236070604509
 30
0.0
 10
147.9402709470908
 20
202.2236070604509
 30
0.0
 10
146.9163513696276
 20
202.2236070604509
 30
0.0
  0
SPLINE
  5
186
330
1F
100
AcDbEntity
  8
0
  6
Continuous
 62
     8
370
     0
100
AcDbSpline
210
0.0
220
0.0
230
1.0
 70
    24
 71
     3
 72
    14
 73
    10
 74
     0
 42
0.00000001
 43
0.00000001
 40
0.0
 40
0.0
 40
0.0
 40
0.0
 40
0.1567495887111633
 40
0.3134991774223281
 40
0.4702487661334911
 40
0.626998354844654
 40
0.7837479435558189
 40
0.9404975322669819
 40
1.0
 40
1.0
 40
1.0
 40
1.0
 10
109.7962719443243
 20
226.4591554129947
 30
0.0
 10
108.7632443354386
 20
226.4591554129947
 30
0.0
 10
106.6971891176672
 20
226.4591554129948
 30
0.0
 10
104.1319956522516
 20
226.4591554129947
 30
0.0
 10
102.0188165165186
 20
226.4591554129948
 30
0.0
 10
100.4160104083468
 20
226.4591554129947
 30
0.0
 10
99.38796151965889
 20
226.4591554129947
 30
0.0
 10
98.90748652842142
 20
226.4591554129947
 30
0.0
 10
98.9702109705786
 20
226.4591554129947
 30
0.0
 10
98.98746980805235
 20
226.4591554129947
 30
0.0
  0
SPLINE
  5
187
330
1F
100
AcDbEntity
  8
0
  6
Continuous
 62
     8
370
     0
100
AcDbSpline
210
0.0
220
0.0
230
1.0
 70
    24
 71
     3
 72
    25
 73
    21
 74
     0
 42
0.00000001
 43
0.00000001
 40
0.0
 40
0.0
 40
0.0
 40
0.0
 40
0.0352072297767976
 40
0.0919597456722806
 40
0.1487122615677628
 40
0.205464777463245
 40
0.262217293358728
 40
0.3189698092542103
 40
0.3757223251496928
 40
0.4324748410451754
 40
0.4892273569406576
 40
0.5459798728361401
 40
0.6027323887316227
 40
0.6594849046271054
 40
0.7162374205225877
 40
0.7729899364180705
 40
0.8297424523135528
 40
0.8864949682090354
 40
0.9432474841045179
 40
1.0
 40
1.0
 40
1.0
 40
1.0
 10
164.9945681723779
 20
226.4591554129947
 30
0.0
 10
164.999695849566
 20
226.4591554129947
 30
0.0
 10
165.0130891183094
 20
226.4591554129947
 30
0.0
 10
164.3973660013279
 20
226.4591554129948
 30
0.0
 10
163.2274911293217
 20
226.4591554129947
 30
0.0
 10
161.4991607036708
 20
226.4591554129948
 30
0.0
 10
159.2723661438408
 20
226.4591554129947
 30
0.0
 10
156.5770577366683
 20
226.4591554129948
 30
0.0
 10
153.4615368914458
 20
226.4591554129948
 30
0.0
 10
149.9785260784268
 20
226.4591554129947
 30
0.0
 10
146.1877764639052
 20
226.4591554129948
 30
0.0
 10
142.154110237533
 20
226.4591554129948
 30
0.0
 10
137.9465430101641
 20
226.4591554129948
 30
0.0
 10
133.6371121573551
 20
226.4591554129947
 30
0.0
 10
129.2993758374674
 20
226.4591554129948
 30
0.0
 10
125.0082187811645
 20
226.4591554129948
 30
0.0
 10
120.8345818354127
 20
226.4591554129948
 30
0.0
 10
116.8591403859247
 20
226.4591554129948
 30
0.0
 10
113.1153441764219
 20
226.4591554129947
 30
0.0
 10
110.9026293550238
 20
226.4591554129947
 30
0.0
 10
109.7962719443247
 20
226.4591554129947
 30
0.0
  0
SPLINE
  5
188
330
1F
100
AcDbEntity
  8
0
  6
Continuous
 62
     8
370
     0
100
AcDbSpline
210
0.0
220
0.0
230
1.0
 70
    24
 71
     3
 72
    12
 73
     8
 74
     0
 42
0.00000001
 43
0.00000001
 40
0.0
 40
0.0
 40
0.0
 40
0.0
 40
0.2350939833348595
 40
0.4701879666696949
 40
0.7052819500045341
 40
0.9403759333393695
 40
1.0
 40
1.0
 40
1.0
 40
1.0
 10
120.8094336730707
 20
220.3859251015142
 30
0.0
 10
120.0433893972686
 20
220.3859251015142
 30
0.0
 10
118.5113008456643
 20
220.3859251015142
 30
0.0
 10
116.8336834342935
 20
220.3859251015142
 30
0.0
 10
115.7582666176745
 20
220.3859251015142
 30
0.0
 10
115.2827914202995
 20
220.3859251015142
 30
0.0
 10
115.3729000432659
 20
220.3859251015142
 30
0.0
 10
115.3911298142031
 20
220.3859251015142
 30
0.0
  0
SPLINE
  5
189
330
1F
100
AcDbEntity
  8
0
  6
Continuous
 62
     8
370
     0
100
AcDbSpline
210
0.0
220
0.0
230
1.0
 70
    24
 71
     3
 72
    19
 73
    15
 74
     0
 42
0.00000001
 43
0.00000001
 40
0.0
 40
0.0
 40
0.0
 40
0.0
 40
0.0635343501720861
 40
0.1486675910655335
 40
0.2338008319589801
 40
0.3189340728524266
 40
0.4040673137458734
 40
0.4892005546393198
 40
0.574333795532767
 40
0.6594670364262135
 40
0.7446002773196602
 40
0.8297335182131069
 40
0.9148667591065534
 40
1.0
 40
1.0
 40
1.0
 40
1.0
 10
148.5908963880866
 20
220.3859251015142
 30
0.0
 10
148.5804929218262
 20
220.3859251015142
 30
0.0
 10
148.5561492673545
 20
220.3859251015142
 30
0.0
 10
147.7686307492501
 20
220.3859251015142
 30
0.0
 10
146.3818760805243
 20
220.3859251015142
 30
0.0
 10
144.4206984549254
 20
220.3859251015142
 30
0.0
 10
141.9875762136841
 20
220.3859251015142
 30
0.0
 10
139.1687985573402
 20
220.3859251015142
 30
0.0
 10
136.0744354362406
 20
220.3859251015142
 30
0.0
 10
132.8236321892608
 20
220.3859251015142
 30
0.0
 10
129.5386466584269
 20
220.3859251015142
 30
0.0
 10
126.3561631107132
 20
220.3859251015142
 30
0.0
 10
123.3593748467224
 20
220.3859251015142
 30
0.0
 10
121.659414064288
 20
220.3859251015142
 30
0.0
 10
120.8094336730708
 20
220.3859251015142
 30
0.0
  0
LINE
  5
18A
330
1F
100
AcDbEntity
  8
0
  6
Continuous
 62
     8
370
     0
100
AcDbLine
 10
247.2938203668
 20
229.0703368234
 30
0.0
 11
316.6969282594
 21
229.0703368234
 31
0.0
  0
LINE
  5
18B
330
1F
100
AcDbEntity
  8
0
  6
Continuous
 62
     8
370
     0
100
AcDbLine
 10
248.9186399744
 20
226.459155413
 30
0.0
 11
315.0591331947
 21
226.459155413
 31
0.0
  0
LINE
  5
18C
330
1F
100
AcDbEntity
  8
0
  6
Continuous
 62
     8
370
     0
100
AcDbLine
 10
108.7057913536
 20
229.0703368234
 30
0.0
 11
166.6969282594
 21
229.0703368234
 31
0.0
  0
LINE
  5
18D
330
1F
100
AcDbEntity
  8
0
  6
Continuous
 62
     8
370
     0
100
AcDbLine
 10
97.2938203668
 20
229.0703368234
 30
0.0
 11
108.7057913536
 21
229.0703368234
 31
0.0
  0
SPLINE
  5
18E
330
1F
100
AcDbEntity
  8
0
  6
Continuous
 62
     8
370
     0
100
AcDbSpline
210
0.0
220
0.0
230
1.0
 70
    24
 71
     3
 72
    23
 73
    19
 74
     0
 42
0.00000001
 43
0.00000001
 40
0.0
 40
0.0
 40
0.0
 40
0.0
 40
0.0624694085336155
 40
0.1249714479647077
 40
0.1874734873957999
 40
0.2499755268268922
 40
0.3124775662579846
 40
0.3749796056890773
 40
0.4374816451201696
 40
0.4999836845512617
 40
0.5624857239823541
 40
0.6249877634134463
 40
0.6874898028445388
 40
0.749991842275631
 40
0.8124938817067232
 40
0.8749959211378155
 40
0.9374979605689078
 40
1.0
 40
1.0
 40
1.0
 40
1.0
 10
298.6493194617623
 20
220.3859251015142
 30
0.0
 10
298.5873350542261
 20
220.3859251015142
 30
0.0
 10
298.4633338615966
 20
220.3859251015142
 30
0.0
 10
297.4727753981932
 20
220.3859251015142
 30
0.0
 10
295.9330357272494
 20
220.3859251015142
 30
0.0
 10
293.845096982281
 20
220.3859251015142
 30
0.0
 10
291.3048353217194
 20
220.3859251015142
 30
0.0
 10
288.4056818142682
 20
220.3859251015142
 30
0.0
 10
285.2601705092298
 20
220.3859251015142
 30
0.0
 10
281.9888865808494
 20
220.3859251015142
 30
0.0
 10
278.7176026748007
 20
220.3859251015142
 30
0.0
 10
275.5720913027673
 20
220.3859251015142
 30
0.0
 10
272.6729380409645
 20
220.3859251015142
 30
0.0
 10
270.1326754648042
 20
220.3859251015142
 30
0.0
 10
268.0447401365822
 20
220.3859251015142
 30
0.0
 10
266.5049877142515
 20
220.3859251015142
 30
0.0
 10
265.5143044269412
 20
220.3859251015142
 30
0.0
 10
265.3902925259241
 20
220.3859251015142
 30
0.0
 10
265.3282865754154
 20
220.3859251015142
 30
0.0
  0
SPLINE
  5
18F
330
1F
100
AcDbEntity
  8
0
  6
Continuous
 62
     8
370
     0
100
AcDbSpline
210
0.0
220
0.0
230
1.0
 70
     8
 71
     3
 72
    24
 73
    20
 74
     0
 42
0.00000001
 43
0.00000001
 40
0.0
 40
0.0
 40
0.0
 40
0.0
 40
0.25
 40
0.25
 40
0.3749999999999999
 40
0.3749999999999999
 40
0.4999999999999998
 40
0.4999999999999998
 40
0.5624999999999999
 40
0.5624999999999999
 40
0.625
 40
0.625
 40
0.75
 40
0.75
 40
0.8125
 40
0.8125
 40
0.875
 40
0.875
 40
1.0
 40
1.0
 40
1.0
 40
1.0
 10
206.9988393782939
 20
229.5343084839155
 30
0.0
 10
209.8013660121027
 20
229.5352965087414
 30
0.0
 10
212.528075180617
 20
229.5335055055293
 30
0.0
 10
216.4993704560138
 20
229.5327507911997
 30
0.0
 10
217.7694083959179
 20
229.5325558524104
 30
0.0
 10
220.1944338542668
 20
229.5321825346666
 30
0.0
 10
221.3515225581922
 20
229.5320175097451
 30
0.0
 10
223.0007409343662
 20
229.5318206175272
 30
0.0
 10
223.5315016786315
 20
229.5317614763596
 30
0.0
 10
224.5462204489758
 20
229.531679186541
 30
0.0
 10
225.0317679632643
 20
229.531657146512
 30
0.0
 10
226.4236559604326
 20
229.5316984478773
 30
0.0
 10
227.2656464187283
 20
229.5318852169219
 30
0.0
 10
228.3952753660354
 20
229.5323317894758
 30
0.0
 10
228.7470558515429
 20
229.5324956882864
 30
0.0
 10
229.3939094293823
 20
229.5329075444923
 30
0.0
 10
229.6901883916469
 20
229.5331788261032
 30
0.0
 10
230.5009887257211
 20
229.5336718343312
 30
0.0
 10
230.9343692954208
 20
229.534339069428
 30
0.0
 10
231.2642618315369
 20
229.5337283905248
 30
0.0
  0
SPLINE
  5
190
330
1F
100
AcDbEntity
  8
0
  6
Continuous
 62
     8
370
     0
100
AcDbSpline
210
0.0
220
0.0
230
1.0
 70
     8
 71
     3
 72
    26
 73
    22
 74
     0
 42
0.00000001
 43
0.00000001
 40
0.0
 40
0.0
 40
0.0
 40
0.0
 40
0.125
 40
0.125
 40
0.1874999999999999
 40
0.1874999999999999
 40
0.2499999999999999
 40
0.2499999999999999
 40
0.3749999999999997
 40
0.3749999999999997
 40
0.4374999999999997
 40
0.4374999999999997
 40
0.4999999999999997
 40
0.4999999999999997
 40
0.6249999999999996
 40
0.6249999999999996
 40
0.6874999999999997
 40
0.6874999999999997
 40
0.7499999999999998
 40
0.7499999999999998
 40
1.0
 40
1.0
 40
1.0
 40
1.0
 10
182.7264867946569
 20
229.5337283905248
 30
0.0
 10
183.0564492676036
 20
229.5343391988912
 30
0.0
 10
183.4899446120786
 20
229.5336718168007
 30
0.0
 10
184.3009835661182
 20
229.5331785212588
 30
0.0
 10
184.5973532309847
 20
229.5329071275778
 30
0.0
 10
185.2444129961373
 20
229.5324953195128
 30
0.0
 10
185.5963134541267
 20
229.5323314020714
 30
0.0
 10
186.7262957244421
 20
229.5318848558101
 30
0.0
 10
187.568556500609
 20
229.5316982235728
 30
0.0
 10
188.9609046105131
 20
229.5316571801161
 30
0.0
 10
189.4466146499566
 20
229.5316793050959
 30
0.0
 10
190.4616782664927
 20
229.5317617244064
 30
0.0
 10
190.9926391230235
 20
229.5318209106369
 30
0.0
 10
192.6423547577461
 20
229.5320179255135
 30
0.0
 10
193.7997952484213
 20
229.5321830187486
 30
0.0
 10
195.6191275635402
 20
229.5324631714584
 30
0.0
 10
196.2395121689909
 20
229.5325632550125
 30
0.0
 10
197.5084872335432
 20
229.5327685328814
 30
0.0
 10
198.1581468046806
 20
229.5328774442719
 30
0.0
 10
201.4683866581701
 20
229.5335068373073
 30
0.0
 10
204.1957286040847
 20
229.5353084723215
 30
0.0
 10
206.9988394037919
 20
229.5343060231431
 30
0.0
  0
SPLINE
  5
191
330
1F
100
AcDbEntity
  8
0
  6
Continuous
 62
     8
370
     0
100
AcDbSpline
210
0.0
220
0.0
230
1.0
 70
     8
 71
     3
 72
    14
 73
    10
 74
     0
 42
0.00000001
 43
0.00000001
 40
0.0
 40
0.0
 40
0.0
 40
0.0
 40
0.2499999999999998
 40
0.2499999999999998
 40
0.4999999999999997
 40
0.4999999999999997
 40
0.7499999999999997
 40
0.7499999999999997
 40
1.0
 40
1.0
 40
1.0
 40
1.0
 10
283.7786631707373
 20
176.2907694781827
 30
0.0
 10
277.391313292305
 20
176.1734651512795
 30
0.0
 10
270.9999207048816
 20
176.0542258305781
 30
0.0
 10
258.2116509503377
 20
175.8369936545549
 30
0.0
 10
251.8144843821391
 20
175.7368550595336
 30
0.0
 10
239.0140277631166
 20
175.5570625260733
 30
0.0
 10
232.6121352312036
 20
175.4786142545589
 30
0.0
 10
219.8048721690207
 20
175.3585547472157
 30
0.0
 10
213.4004002580356
 20
175.3168870641791
 30
0.0
 10
206.9953743130969
 20
175.3086975906912
 30
0.0
  0
SPLINE
  5
192
330
1F
100
AcDbEntity
  8
0
  6
Continuous
 62
     8
370
     0
100
AcDbSpline
210
0.0
220
0.0
230
1.0
 70
     8
 71
     3
 72
    14
 73
    10
 74
     0
 42
0.00000001
 43
0.00000001
 40
0.0
 40
0.0
 40
0.0
 40
0.0
 40
0.2500000000000001
 40
0.2500000000000001
 40
0.5000000000000001
 40
0.5000000000000001
 40
0.7500000000000002
 40
0.7500000000000002
 40
1.0
 40
1.0
 40
1.0
 40
1.0
 10
206.995374313097
 20
174.1129555876314
 30
0.0
 10
213.3958709058012
 20
174.121247594098
 30
0.0
 10
219.795842595675
 20
174.1631490050645
 30
0.0
 10
232.594248509506
 20
174.2843276531113
 30
0.0
 10
238.9918561466793
 20
174.3636754753697
 30
0.0
 10
251.783949786484
 20
174.5458590684908
 30
0.0
 10
258.1770873449696
 20
174.6474803195959
 30
0.0
 10
270.9574975615182
 20
174.8680634488978
 30
0.0
 10
277.3450759418344
 20
174.9892024479458
 30
0.0
 10
283.728595023664
 20
175.1082485700303
 30
0.0
  0
SPLINE
  5
193
330
1F
100
AcDbEntity
  8
0
  6
Continuous
 62
     8
370
     0
100
AcDbSpline
210
0.0
220
0.0
230
1.0
 70
     8
 71
     3
 72
    14
 73
    10
 74
     0
 42
0.00000001
 43
0.00000001
 40
0.0
 40
0.0
 40
0.0
 40
0.0
 40
0.2500000000000001
 40
0.2500000000000001
 40
0.5000000000000001
 40
0.5000000000000001
 40
0.7500000000000002
 40
0.7500000000000002
 40
1.0
 40
1.0
 40
1.0
 40
1.0
 10
206.995374313097
 20
174.1129555876314
 30
0.0
 10
200.5948777203927
 20
174.121247594098
 30
0.0
 10
194.1949060305189
 20
174.1631490050645
 30
0.0
 10
181.3965001166879
 20
174.2843276531113
 30
0.0
 10
174.9988924795146
 20
174.3636754753697
 30
0.0
 10
162.2067988397098
 20
174.5458590684908
 30
0.0
 10
155.8136612812244
 20
174.6474803195959
 30
0.0
 10
143.0332510646756
 20
174.8680634488978
 30
0.0
 10
136.6456726843595
 20
174.9892024479458
 30
0.0
 10
130.2621536025298
 20
175.1082485700303
 30
0.0
  0
SPLINE
  5
194
330
1F
100
AcDbEntity
  8
0
  6
Continuous
 62
     8
370
     0
100
AcDbSpline
210
0.0
220
0.0
230
1.0
 70
     8
 71
     3
 72
    14
 73
    10
 74
     0
 42
0.00000001
 43
0.00000001
 40
0.0
 40
0.0
 40
0.0
 40
0.0
 40
0.2499999999999998
 40
0.2499999999999998
 40
0.4999999999999997
 40
0.4999999999999997
 40
0.7499999999999997
 40
0.7499999999999997
 40
1.0
 40
1.0
 40
1.0
 40
1.0
 10
130.2120854554565
 20
176.2907694781827
 30
0.0
 10
136.5994353338888
 20
176.1734651512795
 30
0.0
 10
142.9908279213124
 20
176.0542258305781
 30
0.0
 10
155.7790976758561
 20
175.8369936545549
 30
0.0
 10
162.1762642440548
 20
175.7368550595336
 30
0.0
 10
174.9767208630772
 20
175.5570625260733
 30
0.0
 10
181.3786133949903
 20
175.4786142545589
 30
0.0
 10
194.1858764571732
 20
175.3585547472157
 30
0.0
 10
200.5903483681583
 20
175.3168870641791
 30
0.0
 10
206.995374313097
 20
175.3086975906912
 30
0.0
  0
SPLINE
  5
195
330
1F
100
AcDbEntity
  8
0
  6
Continuous
 62
     8
370
     0
100
AcDbSpline
210
0.0
220
0.0
230
1.0
 70
     8
 71
     3
 72
    11
 73
     7
 74
     0
 42
0.00000001
 43
0.00000001
 40
0.0
 40
0.0
 40
0.0
 40
0.0
 40
0.0000501449774697
 40
0.0000501449774697
 40
0.0000501449774697
 40
0.0000502049774697
 40
0.0000502049774697
 40
0.0000502049774697
 40
0.0000502049774697
 10
130.2621536025299
 20
175.1082485700302
 30
0.0
 10
130.2454829299421
 20
175.1085594610762
 30
0.0
 10
130.228813471258
 20
175.1088672811533
 30
0.0
 10
130.2121452874269
 20
175.1091720253159
 30
0.0
 10
130.2121253434348
 20
175.1091723899516
 30
0.0
 10
130.2121053994446
 20
175.1091727545784
 30
0.0
 10
130.2120854554563
 20
175.1091731192098
 30
0.0
  0
SPLINE
  5
196
330
1F
100
AcDbEntity
  8
0
  6
Continuous
 62
     8
370
     0
100
AcDbSpline
210
0.0
220
0.0
230
1.0
 70
    24
 71
     3
 72
     8
 73
     4
 74
     0
 42
0.00000001
 43
0.00000001
 40
0.041171229060111
 40
0.041171229060111
 40
0.041171229060111
 40
0.041171229060111
 40
0.0953905976201642
 40
0.0953905976201642
 40
0.0953905976201642
 40
0.0953905976201642
 10
206.995374313097
 20
173.9817331787704
 30
0.0
 10
206.995374313097
 20
174.0227272899367
 30
0.0
 10
206.995374313097
 20
174.0664680931089
 30
0.0
 10
206.995374313097
 20
174.112955588287
 30
0.0
  0
SPLINE
  5
197
330
1F
100
AcDbEntity
  8
0
  6
Continuous
 62
     8
370
     0
100
AcDbSpline
210
0.0
220
0.0
230
1.0
 70
     8
 71
     3
 72
    11
 73
     7
 74
     0
 42
0.00000001
 43
0.00000001
 40
0.0
 40
0.0
 40
0.0
 40
0.0
 40
0.0000501449774697
 40
0.0000501449774697
 40
0.0000501449774697
 40
0.0000502049774697
 40
0.0000502049774697
 40
0.0000502049774697
 40
0.0000502049774697
 10
283.728595023664
 20
175.1082485700302
 30
0.0
 10
283.7452656962517
 20
175.1085594610762
 30
0.0
 10
283.7619351549359
 20
175.1088672811533
 30
0.0
 10
283.778603338767
 20
175.1091720253159
 30
0.0
 10
283.778623282759
 20
175.1091723899516
 30
0.0
 10
283.7786432267474
 20
175.1091727545784
 30
0.0
 10
283.7786631707376
 20
175.1091731192098
 30
0.0
  0
SPLINE
  5
198
330
1F
100
AcDbEntity
  8
0
  6
Continuous
 62
     8
370
     0
100
AcDbSpline
210
0.0
220
0.0
230
1.0
 70
     8
 71
     3
 72
     8
 73
     4
 74
     0
 42
0.00000001
 43
0.00000001
 40
0.0
 40
0.0
 40
0.0
 40
0.0
 40
0.0002935264857569
 40
0.0002935264857569
 40
0.0002935264857569
 40
0.0002935264857569
 10
231.2645806970489
 20
229.5336645263169
 30
0.0
 10
231.2873934056556
 20
229.5336664102827
 30
0.0
 10
231.309648063217
 20
229.5336680783614
 30
0.0
 10
231.3313425394214
 20
229.5336694966271
 30
0.0
  0
SPLINE
  5
199
330
1F
100
AcDbEntity
  8
0
  6
Continuous
 62
     8
370
     0
100
AcDbSpline
210
0.0
220
0.0
230
1.0
 70
     8
 71
     3
 72
     8
 73
     4
 74
     0
 42
0.00000001
 43
0.00000001
 40
0.0
 40
0.0
 40
0.0
 40
0.0
 40
0.0002935264857569
 40
0.0002935264857569
 40
0.0002935264857569
 40
0.0002935264857569
 10
182.6594060867725
 20
229.5336694966271
 30
0.0
 10
182.6811005629768
 20
229.5336680783614
 30
0.0
 10
182.7033552205382
 20
229.5336664102826
 30
0.0
 10
182.7261679291449
 20
229.5336645263168
 30
0.0
  0
SPLINE
  5
19A
330
1F
100
AcDbEntity
  8
0
  6
Continuous
 62
     8
370
     0
100
AcDbSpline
210
0.0
220
0.0
230
1.0
 70
     8
 71
     3
 72
    40
 73
    36
 74
     0
 42
0.00000001
 43
0.00000001
 40
0.0
 40
0.0
 40
0.0
 40
0.0
 40
0.0036260684390835
 40
0.0567792031333954
 40
0.0836859501878827
 40
0.1110339982443143
 40
0.1536952175024159
 40
0.1967558068869887
 40
0.2184511987941415
 40
0.2716043334934473
 40
0.2985110805505427
 40
0.3258591286097282
 40
0.3789640565953789
 40
0.4059191355898563
 40
0.433267183650311
 40
0.4597815436365162
 40
0.4864817961437501
 40
0.5133734383800104
 40
0.5407214864406957
 40
0.5672358464267431
 40
0.5939360989338156
 40
0.6208277411699096
 40
0.6481757892304167
 40
0.6746901492165627
 40
0.7013904017237335
 40
0.7282820439599267
 40
0.755630092020537
 40
0.7821429572905729
 40
0.8356889361100871
 40
0.8630369841708257
 40
0.9161419121543923
 40
0.9430969911477911
 40
0.9704450392071154
 40
0.9969593991932584
 40
1.0
 40
1.0
 40
1.0
 40
1.0
 10
181.0063948046154
 20
138.5674153627835
 30
0.0
 10
181.0029892226074
 20
138.567415667217
 30
0.0
 10
180.9496625312155
 20
138.5674204342233
 30
0.0
 10
181.2347067395235
 20
138.5674312903099
 30
0.0
 10
181.8619659172408
 20
138.5674432896071
 30
0.0
 10
182.6608790563797
 20
138.5674529425524
 30
0.0
 10
183.9065988782982
 20
138.5674610108249
 30
0.0
 10
185.441620211174
 20
138.5674643520692
 30
0.0
 10
187.3896620306148
 20
138.5674649221326
 30
0.0
 10
189.3275600795054
 20
138.5674628371172
 30
0.0
 10
191.6109311302334
 20
138.5674593039294
 30
0.0
 10
194.040235749938
 20
138.5674553582398
 30
0.0
 10
196.6682154576782
 20
138.5674514192508
 30
0.0
 10
199.4275013051189
 20
138.5674482731584
 30
0.0
 10
201.5590193838427
 20
138.5674464082748
 30
0.0
 10
203.7221284359905
 20
138.5674451318651
 30
0.0
 10
205.8960109270904
 20
138.5674444818465
 30
0.0
 10
208.1003626974364
 20
138.5674444800591
 30
0.0
 10
210.2918542897978
 20
138.5674451397355
 30
0.0
 10
212.4544207449148
 20
138.5674464278136
 30
0.0
 10
214.5665971198569
 20
138.5674482784876
 30
0.0
 10
216.6468585386449
 20
138.567450649606
 30
0.0
 10
218.6530659363711
 20
138.5674534044196
 30
0.0
 10
220.5712379453335
 20
138.5674563694576
 30
0.0
 10
222.3835919053333
 20
138.5674593090783
 30
0.0
 10
224.1052054884198
 20
138.5674619750714
 30
0.0
 10
225.6999944875162
 20
138.5674639569814
 30
0.0
 10
227.6427911776198
 20
138.5674651630988
 30
0.0
 10
229.3038065903243
 20
138.5674633780913
 30
0.0
 10
230.9683932878933
 20
138.5674561365526
 30
0.0
 10
231.9668158411577
 20
138.567446334166
 30
0.0
 10
232.6143252206065
 20
138.5674340915181
 30
0.0
 10
232.8988244030015
 20
138.56742476639
 30
0.0
 10
233.0176604221911
 20
138.567418092682
 30
0.0
 10
232.9890922785269
 20
138.5674156215742
 30
0.0
 10
232.9861532010136
 20
138.5674153673477
 30
0.0
  0
SPLINE
  5
19B
330
1F
100
AcDbEntity
  8
0
  6
Continuous
 62
     8
370
     0
100
AcDbSpline
210
0.0
220
0.0
230
1.0
 70
     8
 71
     3
 72
    56
 73
    52
 74
     0
 42
0.00000001
 43
0.00000001
 40
0.0
 40
0.0
 40
0.0
 40
0.0
 40
0.0021166810965943
 40
0.0213823009960458
 40
0.0407315399232063
 40
0.059669447911511
 40
0.0788722450616882
 40
0.0982683075263621
 40
0.11713551820127
 40
0.1553837206031281
 40
0.1740632811737421
 40
0.1930917692265196
 40
0.2026921757627291
 40
0.2122927219296847
 40
0.2312184908120784
 40
0.2500330011411598
 40
0.2695802431896928
 40
0.2885169743788893
 40
0.3078616504325599
 40
0.3271252133835259
 40
0.3460418631998584
 40
0.3648592119878235
 40
0.3842990554152388
 40
0.4033323393041513
 40
0.4225162508427439
 40
0.460680500347757
 40
0.4987440043992686
 40
0.5370551393844011
 40
0.5753837476588002
 40
0.5945429565553226
 40
0.6139511526316352
 40
0.6526701521834766
 40
0.6718366831525221
 40
0.691524147078914
 40
0.7107647565792119
 40
0.7300153151671852
 40
0.7492000895286314
 40
0.7682599699949934
 40
0.7876315716462661
 40
0.8065010983348025
 40
0.8251543283386766
 40
0.8440443386813031
 40
0.8631096906791308
 40
0.8819735845248831
 40
0.9009566377388013
 40
0.9204187635301644
 40
0.9398892871246222
 40
0.9590881639679213
 40
0.9779516076248642
 40
0.9971510252384358
 40
1.0
 40
1.0
 40
1.0
 40
1.0
 10
182.1463094687212
 20
137.0411366759653
 30
0.0
 10
182.1462089982301
 20
137.0411324703227
 30
0.0
 10
182.1451940648584
 20
137.0410899857378
 30
0.0
 10
182.226757831053
 20
137.0409371195979
 30
0.0
 10
182.3958999623818
 20
137.0409721172522
 30
0.0
 10
182.6600810354676
 20
137.0410646065652
 30
0.0
 10
183.0072589792936
 20
137.0412055339434
 30
0.0
 10
183.4403285876802
 20
137.0411261467817
 30
0.0
 10
184.1266373904622
 20
137.0409615992074
 30
0.0
 10
184.9650876440664
 20
137.0413458949665
 30
0.0
 10
185.9562385344777
 20
137.0412069906294
 30
0.0
 10
186.6336623005719
 20
137.0410754250097
 30
0.0
 10
187.2159698008426
 20
137.0410734846191
 30
0.0
 10
187.8197928823189
 20
137.0410772339721
 30
0.0
 10
188.6114517404411
 20
137.0410281377919
 30
0.0
 10
189.6325924795835
 20
137.0410508791221
 30
0.0
 10
190.715144420165
 20
137.0409827204613
 30
0.0
 10
191.8649960790476
 20
137.0411331304992
 30
0.0
 10
193.0625105725677
 20
137.0412791965215
 30
0.0
 10
194.3093634330338
 20
137.0412277356901
 30
0.0
 10
195.5888706663671
 20
137.0411111532137
 30
0.0
 10
196.9111218409763
 20
137.0412846872431
 30
0.0
 10
198.2714171449463
 20
137.0414700583243
 30
0.0
 10
199.6715838051151
 20
137.0413867294438
 30
0.0
 10
201.5603105151078
 20
137.0412073414107
 30
0.0
 10
203.9727323027304
 20
137.0412160195798
 30
0.0
 10
206.9102158566708
 20
137.0411105040942
 30
0.0
 10
209.8532359954325
 20
137.0411141937466
 30
0.0
 10
212.2782397347792
 20
137.0410568693142
 30
0.0
 10
214.1828622577603
 20
137.0411790565556
 30
0.0
 10
216.0631024513002
 20
137.0413787096915
 30
0.0
 10
217.882936318597
 20
137.0409933129588
 30
0.0
 10
219.6270446773096
 20
137.04125913034
 30
0.0
 10
220.8879678981949
 20
137.0413840701087
 30
0.0
 10
222.1000766750626
 20
137.0413452300187
 30
0.0
 10
223.2480657810528
 20
137.0412259231108
 30
0.0
 10
224.3355891866179
 20
137.0412906941978
 30
0.0
 10
225.3642994838734
 20
137.041268416366
 30
0.0
 10
226.3226668628506
 20
137.0411480326184
 30
0.0
 10
227.2075210893684
 20
137.0411747425385
 30
0.0
 10
228.0168306372183
 20
137.041269973092
 30
0.0
 10
228.7575182059945
 20
137.0413017354798
 30
0.0
 10
229.425668035624
 20
137.0411936708288
 30
0.0
 10
230.0173087262634
 20
137.0409831503133
 30
0.0
 10
230.534443262567
 20
137.0411424938158
 30
0.0
 10
230.9735347129268
 20
137.041208817504
 30
0.0
 10
231.3259323685639
 20
137.0411367788582
 30
0.0
 10
231.5927424498633
 20
137.0409727178469
 30
0.0
 10
231.7560880110674
 20
137.0410466707078
 30
0.0
 10
231.8578706979742
 20
137.0410748527264
 30
0.0
 10
231.8393506940291
 20
137.0411153689618
 30
0.0
 10
231.8369576386568
 20
137.041120604252
 30
0.0
  0
SPLINE
  5
19C
330
1F
100
AcDbEntity
  8
0
  6
Continuous
 62
     8
370
     0
100
AcDbSpline
210
0.0
220
0.0
230
1.0
 70
     8
 71
     3
 72
    22
 73
    18
 74
     0
 42
0.00000001
 43
0.00000001
 40
0.0
 40
0.0
 40
0.0
 40
0.0
 40
0.1112879652969054
 40
0.1678315153719775
 40
0.2251994785372922
 40
0.2807520834874497
 40
0.3366931047238931
 40
0.3932356321309534
 40
0.4506020479281943
 40
0.5620235681754838
 40
0.618578754193992
 40
0.6759581136389085
 40
0.7315339512561693
 40
0.7874985211998463
 40
0.844065149107629
 40
0.90145655529863
 40
1.0
 40
1.0
 40
1.0
 40
1.0
 10
107.195713294659
 20
176.6952380809349
 30
0.0
 10
107.2591429838958
 20
176.6931419587061
 30
0.0
 10
107.3548002352059
 20
176.6899808319019
 30
0.0
 10
107.9507967070884
 20
176.6740747275269
 30
0.0
 10
108.5557794501436
 20
176.6581640884955
 30
0.0
 10
109.3296973025337
 20
176.6387930203098
 30
0.0
 10
110.2569959891678
 20
176.6167302680898
 30
0.0
 10
111.3496864994622
 20
176.5916549326227
 30
0.0
 10
112.9960475802765
 20
176.5552973371245
 30
0.0
 10
114.9220497185099
 20
176.5163333213464
 30
0.0
 10
117.0782823603757
 20
176.476756659856
 30
0.0
 10
118.8081718078948
 20
176.4468305956182
 30
0.0
 10
120.625569472321
 20
176.4172957326302
 30
0.0
 10
122.5137292165736
 20
176.3900903087339
 30
0.0
 10
124.4903310947144
 20
176.3601884219428
 30
0.0
 10
127.02822342931
 20
176.3297803060245
 30
0.0
 10
128.9474222129237
 20
176.3064260254931
 30
0.0
 10
130.1602650002908
 20
176.2916672256551
 30
0.0
  0
SPLINE
  5
19D
330
1F
100
AcDbEntity
  8
0
  6
Continuous
 62
     8
370
     0
100
AcDbSpline
210
0.0
220
0.0
230
1.0
 70
     8
 71
     3
 72
    22
 73
    18
 74
     0
 42
0.00000001
 43
0.00000001
 40
0.0
 40
0.0
 40
0.0
 40
0.0
 40
0.1112800100231535
 40
0.1678240662457763
 40
0.225192542938346
 40
0.2807456451656447
 40
0.3366871671561238
 40
0.3932302007015805
 40
0.450597130012225
 40
0.5620196476452377
 40
0.6185753399154554
 40
0.6759552129896402
 40
0.7315315480920087
 40
0.7874966190005167
 40
0.8440637532624305
 40
0.9014556731905359
 40
1.0
 40
1.0
 40
1.0
 40
1.0
 10
306.7950077000654
 20
176.6952372676929
 30
0.0
 10
306.7315818566072
 20
176.6931412827321
 30
0.0
 10
306.6359278127946
 20
176.6899802772752
 30
0.0
 10
306.039951316928
 20
176.6740747125067
 30
0.0
 10
305.4349693326405
 20
176.6581640924014
 30
0.0
 10
304.6610512819713
 20
176.63879301927
 30
0.0
 10
303.7337526483421
 20
176.616730268372
 30
0.0
 10
302.6410621236977
 20
176.591654932547
 30
0.0
 10
300.9947010476454
 20
176.5552973371676
 30
0.0
 10
299.0686989074053
 20
176.5163333213395
 30
0.0
 10
296.9124662658721
 20
176.4767566598574
 30
0.0
 10
295.1825768182851
 20
176.4468305956179
 30
0.0
 10
293.3651791538765
 20
176.4172957326303
 30
0.0
 10
291.4770194096193
 20
176.3900903087339
 30
0.0
 10
289.5004175314798
 20
176.3601884219428
 30
0.0
 10
286.9625251968837
 20
176.3297803060245
 30
0.0
 10
285.0433264132701
 20
176.3064260254931
 30
0.0
 10
283.8304836259031
 20
176.2916672256551
 30
0.0
  0
SPLINE
  5
19E
330
1F
100
AcDbEntity
  8
0
  6
Continuous
 62
     8
370
     0
100
AcDbSpline
210
0.0
220
0.0
230
1.0
 70
     8
 71
     3
 72
     8
 73
     4
 74
     0
 42
0.00000001
 43
0.00000001
 40
0.0
 40
0.0
 40
0.0
 40
0.0
 40
0.0000519666557565
 40
0.0000519666557565
 40
0.0000519666557565
 40
0.0000519666557565
 10
130.1602650042762
 20
176.2916674591664
 30
0.0
 10
130.1775372049489
 20
176.2913710479311
 30
0.0
 10
130.1948107081018
 20
176.2910717193946
 30
0.0
 10
130.2120854554566
 20
176.2907694781827
 30
0.0
  0
SPLINE
  5
19F
330
1F
100
AcDbEntity
  8
0
  6
Continuous
 62
     8
370
     0
100
AcDbSpline
210
0.0
220
0.0
230
1.0
 70
     8
 71
     3
 72
     8
 73
     4
 74
     0
 42
0.00000001
 43
0.00000001
 40
0.0
 40
0.0
 40
0.0
 40
0.0
 40
0.0000519666557565
 40
0.0000519666557565
 40
0.0000519666557565
 40
0.0000519666557565
 10
283.8304836219177
 20
176.2916674591664
 30
0.0
 10
283.8132114212449
 20
176.2913710479311
 30
0.0
 10
283.795937918092
 20
176.2910717193946
 30
0.0
 10
283.7786631707373
 20
176.2907694781827
 30
0.0
  0
LINE
  5
1A0
330
1F
100
AcDbEntity
  8
0
  6
Continuous
 62
     8
370
     0
100
AcDbLine
 10
268.0868024697
 20
202.2236070605
 30
0.0
 11
268.1605764323
 21
202.2236070605
 31
0.0
  0
SPLINE
  5
1A1
330
1F
100
AcDbEntity
  8
0
  6
Continuous
 62
     8
370
     0
100
AcDbSpline
210
0.0
220
0.0
230
1.0
 70
     8
 71
     3
 72
     8
 73
     4
 74
     0
 42
0.00000001
 43
0.00000001
 40
0.0
 40
0.0
 40
0.0
 40
0.0
 40
1.0
 40
1.0
 40
1.0
 40
1.0
 10
268.1478082060632
 20
202.2235450727931
 30
0.0
 10
268.1520641136887
 20
202.2235863976848
 30
0.0
 10
268.1563201532248
 20
202.2236070604509
 30
0.0
 10
268.1605761927611
 20
202.2236070604509
 30
0.0
  0
LINE
  5
1A2
330
1F
100
AcDbEntity
  8
0
  6
Continuous
 62
     8
370
     0
100
AcDbLine
 10
265.9953743131
 20
216.2549800938
 30
0.0
 11
266.2211110749
 21
216.2549800938
 31
0.0
  0
LINE
  5
1A3
330
1F
100
AcDbEntity
  8
0
  6
Continuous
 62
     8
370
     0
100
AcDbLine
 10
297.7696375513
 20
216.2549800938
 30
0.0
 11
297.9953743131
 21
216.2549800938
 31
0.0
  0
LINE
  5
1A4
330
1F
100
AcDbEntity
  8
0
  6
Continuous
 62
     8
370
     0
100
AcDbLine
 10
287.5631386759
 20
216.2549800938
 30
0.0
 11
292.2018731884
 21
216.2549800938
 31
0.0
  0
LINE
  5
1A5
330
1F
100
AcDbEntity
  8
0
  6
Continuous
 62
     8
370
     0
100
AcDbLine
 10
271.7888754377
 20
216.2549800938
 30
0.0
 11
276.4276099503
 21
216.2549800938
 31
0.0
  0
LINE
  5
1A6
330
1F
100
AcDbEntity
  8
0
  6
Continuous
 62
     8
370
     0
100
AcDbLine
 10
115.9953743131
 20
216.2549800938
 30
0.0
 11
116.2211110749
 21
216.2549800938
 31
0.0
  0
LINE
  5
1A7
330
1F
100
AcDbEntity
  8
0
  6
Continuous
 62
     8
370
     0
100
AcDbLine
 10
147.7696375513
 20
216.2549800938
 30
0.0
 11
147.9953743131
 21
216.2549800938
 31
0.0
  0
LINE
  5
1A8
330
1F
100
AcDbEntity
  8
0
  6
Continuous
 62
     8
370
     0
100
AcDbLine
 10
137.5631386759
 20
216.2549800938
 30
0.0
 11
142.2018731884
 21
216.2549800938
 31
0.0
  0
LINE
  5
1A9
330
1F
100
AcDbEntity
  8
0
  6
Continuous
 62
     8
370
     0
100
AcDbLine
 10
121.7888754377
 20
216.2549800938
 30
0.0
 11
126.4276099503
 21
216.2549800938
 31
0.0
  0
LINE
  5
1AA
330
1F
100
AcDbEntity
  8
0
  6
Continuous
 62
     8
370
     0
100
AcDbLine
 10
121.7888754377
 20
207.192234027
 30
0.0
 11
126.4276099503
 21
207.192234027
 31
0.0
  0
LINE
  5
1AB
330
1F
100
AcDbEntity
  8
0
  6
Continuous
 62
     8
370
     0
100
AcDbLine
 10
137.5631386759
 20
207.192234027
 30
0.0
 11
142.2018731884
 21
207.192234027
 31
0.0
  0
LINE
  5
1AC
330
1F
100
AcDbEntity
  8
0
  6
Continuous
 62
     8
370
     0
100
AcDbLine
 10
147.7696375513
 20
207.192234027
 30
0.0
 11
147.9953743131
 21
207.192234027
 31
0.0
  0
LINE
  5
1AD
330
1F
100
AcDbEntity
  8
0
  6
Continuous
 62
     8
370
     0
100
AcDbLine
 10
115.9953743131
 20
207.192234027
 30
0.0
 11
116.2211110749
 21
207.192234027
 31
0.0
  0
LINE
  5
1AE
330
1F
100
AcDbEntity
  8
0
  6
Continuous
 62
     8
370
     0
100
AcDbLine
 10
271.7888754377
 20
207.192234027
 30
0.0
 11
276.4276099503
 21
207.192234027
 31
0.0
  0
LINE
  5
1AF
330
1F
100
AcDbEntity
  8
0
  6
Continuous
 62
     8
370
     0
100
AcDbLine
 10
287.5631386759
 20
207.192234027
 30
0.0
 11
292.2018731884
 21
207.192234027
 31
0.0
  0
LINE
  5
1B0
330
1F
100
AcDbEntity
  8
0
  6
Continuous
 62
     8
370
     0
100
AcDbLine
 10
297.7696375513
 20
207.192234027
 30
0.0
 11
297.9953743131
 21
207.192234027
 31
0.0
  0
LINE
  5
1B1
330
1F
100
AcDbEntity
  8
0
  6
Continuous
 62
     8
370
     0
100
AcDbLine
 10
265.9953743131
 20
207.192234027
 30
0.0
 11
266.2211110749
 21
207.192234027
 31
0.0
  0
SPLINE
  5
1B2
330
1F
100
AcDbEntity
  8
0
  6
Continuous
 62
     8
370
     0
100
AcDbSpline
210
0.0
220
0.0
230
1.0
 70
     8
 71
     3
 72
    11
 73
     7
 74
     0
 42
0.00000001
 43
0.00000001
 40
0.0
 40
0.0
 40
0.0
 40
0.0
 40
0.2779354470195382
 40
0.5624585836901824
 40
0.7807650128093706
 40
0.9999999999999999
 40
0.9999999999999999
 40
0.9999999999999999
 40
0.9999999999999999
 10
182.1246418613421
 20
229.5628256349728
 30
0.0
 10
182.089955088459
 20
229.5554781312701
 30
0.0
 10
182.0197593888538
 20
229.5406089716482
 30
0.0
 10
182.1267697029294
 20
229.5348290446459
 30
0.0
 10
182.3376862960344
 20
229.5333495796155
 30
0.0
 10
182.5524319855477
 20
229.5336349301886
 30
0.0
 10
182.6600326988396
 20
229.5337779082631
 30
0.0
  0
SPLINE
  5
1B3
330
1F
100
AcDbEntity
  8
0
  6
Continuous
 62
     8
370
     0
100
AcDbSpline
210
0.0
220
0.0
230
1.0
 70
     8
 71
     3
 72
    14
 73
    10
 74
     0
 42
0.00000001
 43
0.00000001
 40
0.0
 40
0.0
 40
0.0
 40
0.0
 40
0.2179697282875347
 40
0.3271548522884771
 40
0.4366009281506316
 40
0.5774376018074613
 40
0.7185257485023765
 40
0.8603766223256666
 40
1.0
 40
1.0
 40
1.0
 40
1.0
 10
231.3307159273542
 20
229.5337779082631
 30
0.0
 10
231.4382977183709
 20
229.5336492221572
 30
0.0
 10
231.59976924575
 20
229.533456074768
 30
0.0
 10
231.7471253886777
 20
229.5339575881868
 30
0.0
 10
231.8426753843473
 20
229.5351443644321
 30
0.0
 10
231.910810609612
 20
229.5377455613826
 30
0.0
 10
231.9407979886334
 20
229.5428831732995
 30
0.0
 10
231.9306615403783
 20
229.5505837027831
 30
0.0
 10
231.8874236690018
 20
229.5588423934454
 30
0.0
 10
231.8659758185754
 20
229.5629390604737
 30
0.0
  0
LINE
  5
1B4
330
1F
100
AcDbEntity
  8
0
  6
Continuous
 62
     8
370
     0
100
AcDbLine
 10
146.2013725818
 20
202.2236070605
 30
0.0
 11
146.9163513696
 21
202.2236070605
 31
0.0
  0
ENDSEC
  0
SECTION
  2
OBJECTS
  0
DICTIONARY
  5
C
330
0
100
AcDbDictionary
281
     1
  3
ACAD_GROUP
350
D
  3
ACAD_LAYOUT
350
1A
  3
ACAD_MATERIAL
350
3B
  3
ACAD_MLEADERSTYLE
350
1B6
  3
ACAD_MLINESTYLE
350
17
  3
ACAD_PLOTSETTINGS
350
19
  3
ACAD_PLOTSTYLENAME
350
E
  3
ACAD_TABLESTYLE
350
1B5
  3
ACAD_VISUALSTYLE
350
2A
  0
DICTIONARY
  5
D
102
{ACAD_REACTORS
330
C
102
}
330
C
100
AcDbDictionary
281
     1
  0
DICTIONARY
  5
1A
102
{ACAD_REACTORS
330
C
102
}
330
C
100
AcDbDictionary
281
     1
  3
Layout1
350
1E
  3
Layout2
350
26
  3
Model
350
22
  0
DICTIONARY
  5
3B
102
{ACAD_REACTORS
330
C
102
}
330
C
100
AcDbDictionary
281
     1
  3
ByBlock
350
3D
  3
ByLayer
350
3C
  3
Global
350
3E
  0
DICTIONARY
  5
1B6
102
{ACAD_REACTORS
330
C
102
}
330
C
100
AcDbDictionary
281
     1
  0
DICTIONARY
  5
17
102
{ACAD_REACTORS
330
C
102
}
330
C
100
AcDbDictionary
281
     1
  3
Standard
350
18
  0
DICTIONARY
  5
19
102
{ACAD_REACTORS
330
C
102
}
330
C
100
AcDbDictionary
281
     1
  0
ACDBDICTIONARYWDFLT
  5
E
102
{ACAD_REACTORS
330
C
102
}
330
C
100
AcDbDictionary
281
     1
  3
Normal
350
F
100
AcDbDictionaryWithDefault
340
F
  0
DICTIONARY
  5
1B5
102
{ACAD_REACTORS
330
C
102
}
330
C
100
AcDbDictionary
281
     1
  0
DICTIONARY
  5
2A
102
{ACAD_REACTORS
330
C
102
}
330
C
100
AcDbDictionary
281
     1
  3
2dWireframe
350
2F
  3
3D Hidden
350
31
  3
3dWireframe
350
30
  3
Basic
350
32
  3
Brighten
350
36
  3
ColorChange
350
3A
  3
Conceptual
350
34
  3
Dim
350
35
  3
Facepattern
350
39
  3
Flat
350
2B
  3
FlatWithEdges
350
2C
  3
Gouraud
350
2D
  3
GouraudWithEdges
350
2E
  3
Linepattern
350
38
  3
Realistic
350
33
  3
Thicken
350
37
  0
LAYOUT
  5
1E
102
{ACAD_REACTORS
330
1A
102
}
330
1A
100
AcDbPlotSettings
  1

  2
none_device
  4

  6

 40
0.0
 41
0.0
 42
0.0
 43
0.0
 44
0.0
 45
0.0
 46
0.0
 47
0.0
 48
0.0
 49
0.0
140
0.0
141
0.0
142
1.0
143
1.0
 70
   688
 72
     0
 73
     0
 74
     5
  7

 75
    16
 76
     0
 77
     2
 78
   300
147
1.0
148
0.0
149
0.0
100
AcDbLayout
  1
Layout1
 70
     1
 71
     1
 10
0.0
 20
0.0
 11
420.0
 21
297.0
 12
0.0
 22
0.0
 32
0.0
 14
1.0000000000E+20
 24
1.0000000000E+20
 34
1.0000000000E+20
 15
-1.0000000000E+20
 25
-1.0000000000E+20
 35
-1.0000000000E+20
146
0.0
 13
0.0
 23
0.0
 33
0.0
 16
1.0
 26
0.0
 36
0.0
 17
0.0
 27
1.0
 37
0.0
 76
     0
330
1B
  0
LAYOUT
  5
26
102
{ACAD_REACTORS
330
1A
102
}
330
1A
100
AcDbPlotSettings
  1

  2
none_device
  4

  6

 40
0.0
 41
0.0
 42
0.0
 43
0.0
 44
0.0
 45
0.0
 46
0.0
 47
0.0
 48
0.0
 49
0.0
140
0.0
141
0.0
142
1.0
143
1.0
 70
   688
 72
     0
 73
     0
 74
     5
  7

 75
    16
 76
     0
 77
     2
 78
   300
147
1.0
148
0.0
149
0.0
100
AcDbLayout
  1
Layout2
 70
     1
 71
     2
 10
0.0
 20
0.0
 11
0.0
 21
0.0
 12
0.0
 22
0.0
 32
0.0
 14
0.0
 24
0.0
 34
0.0
 15
0.0
 25
0.0
 35
0.0
146
0.0
 13
0.0
 23
0.0
 33
0.0
 16
1.0
 26
0.0
 36
0.0
 17
0.0
 27
1.0
 37
0.0
 76
     0
330
23
  0
LAYOUT
  5
22
102
{ACAD_REACTORS
330
1A
102
}
330
1A
100
AcDbPlotSettings
  1

  2
none_device
  4

  6

 40
0.0
 41
0.0
 42
0.0
 43
0.0
 44
0.0
 45
0.0
 46
0.0
 47
0.0
 48
0.0
 49
0.0
140
0.0
141
0.0
142
1.0
143
1.0
 70
  1712
 72
     0
 73
     0
 74
     0
  7

 75
     0
 76
     0
 77
     2
 78
   300
147
1.0
148
0.0
149
0.0
100
AcDbLayout
  1
Model
 70
     1
 71
     0
 10
0.0
 20
0.0
 11
594.0
 21
841.0
 12
0.0
 22
0.0
 32
0.0
 14
0.0
 24
0.0
 34
0.0
 15
594.0
 25
841.0
 35
0.0
146
0.0
 13
0.0
 23
0.0
 33
0.0
 16
1.0
 26
0.0
 36
0.0
 17
0.0
 27
1.0
 37
0.0
 76
     0
330
1F
331
29
  0
MATERIAL
  5
3D
102
{ACAD_REACTORS
330
3B
102
}
330
3B
100
AcDbMaterial
  1
ByBlock
 72
     1
 94
      127
  0
MATERIAL
  5
3C
102
{ACAD_REACTORS
330
3B
102
}
330
3B
100
AcDbMaterial
  1
ByLayer
 72
     1
 94
      127
  0
MATERIAL
  5
3E
102
{ACAD_REACTORS
330
3B
102
}
330
3B
100
AcDbMaterial
  1
Global
 72
     1
 94
      127
  0
MLINESTYLE
  5
18
102
{ACAD_REACTORS
330
17
102
}
330
17
100
AcDbMlineStyle
  2
Standard
 70
     0
  3

 62
   256
 51
90.0
 52
90.0
 71
     2
 49
0.5
 62
   256
  6
BYLAYER
 49
-0.5
 62
   256
  6
BYLAYER
  0
ACDBPLACEHOLDER
  5
F
102
{ACAD_REACTORS
330
E
102
}
330
E
  0
VISUALSTYLE
  5
2F
102
{ACAD_REACTORS
330
2A
102
}
330
2A
100
AcDbVisualStyle
  2
2dWireframe
 70
     4
177
     2
291
     0
 71
     0
176
     1
 72
     2
176
     1
 73
     0
176
     1
 90
        0
176
     1
 40
-0.6
176
     1
 41
-30.0
176
     1
 62
     5
 63
     7
421
 16777215
176
     1
 74
     1
176
     1
 91
        4
176
     1
 64
     7
176
     1
 65
   257
176
     1
 75
     1
176
     1
175
     1
176
     1
 42
1.0
176
     1
 92
        0
176
     1
 66
   257
176
     1
 43
1.0
176
     1
 76
     1
176
     1
 77
     6
176
     1
 78
     2
176
     1
 67
     7
176
     1
 79
     5
176
     1
170
     0
176
     1
171
     0
176
     1
290
     0
176
     1
 93
        1
176
     1
 44
0.0
176
     1
173
     0
176
     1
  0
VISUALSTYLE
  5
31
102
{ACAD_REACTORS
330
2A
102
}
330
2A
100
AcDbVisualStyle
  2
3D Hidden
 70
     6
177
     2
291
     0
 71
     1
176
     1
 72
     2
176
     1
 73
     2
176
     1
 90
        0
176
     1
 40
-0.6
176
     1
 41
-30.0
176
     1
 62
     5
 63
     7
421
 16777215
176
     1
 74
     2
176
     1
 91
        2
176
     1
 64
     7
176
     1
 65
   257
176
     1
 75
     2
176
     1
175
     1
176
     1
 42
40.0
176
     1
 92
        0
176
     1
 66
   257
176
     1
 43
1.0
176
     1
 76
     1
176
     1
 77
     6
176
     1
 78
     2
176
     1
 67
     7
176
     1
 79
     3
176
     1
170
     0
176
     1
171
     0
176
     1
290
     0
176
     1
 93
        1
176
     1
 44
0.0
176
     1
173
     0
176
     1
  0
VISUALSTYLE
  5
30
102
{ACAD_REACTORS
330
2A
102
}
330
2A
100
AcDbVisualStyle
  2
3dWireframe
 70
     5
177
     2
291
     0
 71
     0
176
     1
 72
     2
176
     1
 73
     0
176
     1
 90
        0
176
     1
 40
-0.6
176
     1
 41
-30.0
176
     1
 62
     5
 63
     7
421
 16777215
176
     1
 74
     1
176
     1
 91
        4
176
     1
 64
     7
176
     1
 65
   257
176
     1
 75
     1
176
     1
175
     1
176
     1
 42
1.0
176
     1
 92
        0
176
     1
 66
   257
176
     1
 43
1.0
176
     1
 76
     1
176
     1
 77
     6
176
     1
 78
     2
176
     1
 67
     7
176
     1
 79
     5
176
     1
170
     0
176
     1
171
     0
176
     1
290
     0
176
     1
 93
        1
176
     1
 44
0.0
176
     1
173
     0
176
     1
  0
VISUALSTYLE
  5
32
102
{ACAD_REACTORS
330
2A
102
}
330
2A
100
AcDbVisualStyle
  2
Basic
 70
     7
177
     2
291
     1
 71
     1
176
     1
 72
     0
176
     1
 73
     1
176
     1
 90
        0
176
     1
 40
-0.6
176
     1
 41
-30.0
176
     1
 62
     5
 63
     7
421
 16777215
176
     1
 74
     0
176
     1
 91
        4
176
     1
 64
     7
176
     1
 65
   257
176
     1
 75
     1
176
     1
175
     1
176
     1
 42
1.0
176
     1
 92
        8
176
     1
 66
     7
176
     1
 43
1.0
176
     1
 76
     1
176
     1
 77
     6
176
     1
 78
     2
176
     1
 67
     7
176
     1
 79
     5
176
     1
170
     0
176
     1
171
     0
176
     1
290
     0
176
     1
 93
        1
176
     1
 44
0.0
176
     1
173
     0
176
     1
  0
VISUALSTYLE
  5
36
102
{ACAD_REACTORS
330
2A
102
}
330
2A
100
AcDbVisualStyle
  2
Brighten
 70
    12
177
     2
291
     1
 71
     2
176
     1
 72
     2
176
     1
 73
     0
176
     1
 90
        0
176
     1
 40
-0.6
176
     1
 41
-30.0
176
     1
 62
     5
 63
     7
421
 16777215
176
     1
 74
     1
176
     1
 91
        4
176
     1
 64
     7
176
     1
 65
   257
176
     1
 75
     1
176
     1
175
     1
176
     1
 42
1.0
176
     1
 92
        8
176
     1
 66
     7
176
     1
 43
1.0
176
     1
 76
     1
176
     1
 77
     6
176
     1
 78
     2
176
     1
 67
     7
176
     1
 79
     5
176
     1
170
     0
176
     1
171
     0
176
     1
290
     0
176
     1
 93
        1
176
     1
 44
50.0
176
     1
173
     0
176
     1
  0
VISUALSTYLE
  5
3A
102
{ACAD_REACTORS
330
2A
102
}
330
2A
100
AcDbVisualStyle
  2
ColorChange
 70
    16
177
     2
291
     1
 71
     2
176
     1
 72
     2
176
     1
 73
     3
176
     1
 90
        0
176
     1
 40
-0.6
176
     1
 41
-30.0
176
     1
 62
     5
 63
     8
421
  8421504
176
     1
 74
     1
176
     1
 91
        4
176
     1
 64
     7
176
     1
 65
   257
176
     1
 75
     1
176
     1
175
     1
176
     1
 42
1.0
176
     1
 92
        8
176
     1
 66
     8
424
  8421504
176
     1
 43
1.0
176
     1
 76
     1
176
     1
 77
     6
176
     1
 78
     2
176
     1
 67
     7
176
     1
 79
     5
176
     1
170
     0
176
     1
171
     0
176
     1
290
     0
176
     1
 93
        1
176
     1
 44
0.0
176
     1
173
     0
176
     1
  0
VISUALSTYLE
  5
34
102
{ACAD_REACTORS
330
2A
102
}
330
2A
100
AcDbVisualStyle
  2
Conceptual
 70
     9
177
     2
291
     0
 71
     3
176
     1
 72
     2
176
     1
 73
     0
176
     1
 90
        0
176
     1
 40
-0.6
176
     1
 41
-30.0
176
     1
 62
     5
 63
     7
421
 16777215
176
     1
 74
     2
176
     1
 91
        2
176
     1
 64
     7
176
     1
 65
   257
176
     1
 75
     1
176
     1
175
     1
176
     1
 42
40.0
176
     1
 92
        8
176
     1
 66
     7
176
     1
 43
1.0
176
     1
 76
     1
176
     1
 77
     6
176
     1
 78
     2
176
     1
 67
     7
176
     1
 79
     3
176
     1
170
     0
176
     1
171
     0
176
     1
290
     0
176
     1
 93
        1
176
     1
 44
0.0
176
     1
173
     0
176
     1
  0
VISUALSTYLE
  5
35
102
{ACAD_REACTORS
330
2A
102
}
330
2A
100
AcDbVisualStyle
  2
Dim
 70
    11
177
     2
291
     1
 71
     2
176
     1
 72
     2
176
     1
 73
     0
176
     1
 90
        0
176
     1
 40
-0.6
176
     1
 41
-30.0
176
     1
 62
     5
 63
     7
421
 16777215
176
     1
 74
     1
176
     1
 91
        4
176
     1
 64
     7
176
     1
 65
   257
176
     1
 75
     1
176
     1
175
     1
176
     1
 42
1.0
176
     1
 92
        8
176
     1
 66
     7
176
     1
 43
1.0
176
     1
 76
     1
176
     1
 77
     6
176
     1
 78
     2
176
     1
 67
     7
176
     1
 79
     5
176
     1
170
     0
176
     1
171
     0
176
     1
290
     0
176
     1
 93
        1
176
     1
 44
-50.0
176
     1
173
     0
176
     1
  0
VISUALSTYLE
  5
39
102
{ACAD_REACTORS
330
2A
102
}
330
2A
100
AcDbVisualStyle
  2
Facepattern
 70
    15
177
     2
291
     1
 71
     2
176
     1
 72
     2
176
     1
 73
     0
176
     1
 90
        0
176
     1
 40
-0.6
176
     1
 41
-30.0
176
     1
 62
     5
 63
     7
421
 16777215
176
     1
 74
     1
176
     1
 91
        4
176
     1
 64
     7
176
     1
 65
   257
176
     1
 75
     1
176
     1
175
     1
176
     1
 42
1.0
176
     1
 92
        8
176
     1
 66
     7
176
     1
 43
1.0
176
     1
 76
     1
176
     1
 77
     6
176
     1
 78
     2
176
     1
 67
     7
176
     1
 79
     5
176
     1
170
     0
176
     1
171
     0
176
     1
290
     0
176
     1
 93
        1
176
     1
 44
0.0
176
     1
173
     0
176
     1
  0
VISUALSTYLE
  5
2B
102
{ACAD_REACTORS
330
2A
102
}
330
2A
100
AcDbVisualStyle
  2
Flat
 70
     0
177
     2
291
     1
 71
     2
176
     1
 72
     1
176
     1
 73
     1
176
     1
 90
        2
176
     1
 40
-0.6
176
     1
 41
30.0
176
     1
 62
     5
 63
     7
421
 16777215
176
     1
 74
     0
176
     1
 91
        4
176
     1
 64
     7
176
     1
 65
   257
176
     1
 75
     1
176
     1
175
     1
176
     1
 42
1.0
176
     1
 92
        8
176
     1
 66
     7
176
     1
 43
1.0
176
     1
 76
     1
176
     1
 77
     6
176
     1
 78
     2
176
     1
 67
     7
176
     1
 79
     5
176
     1
170
     0
176
     1
171
     0
176
     1
290
     0
176
     1
 93
       13
176
     1
 44
0.0
176
     1
173
     0
176
     1
  0
VISUALSTYLE
  5
2C
102
{ACAD_REACTORS
330
2A
102
}
330
2A
100
AcDbVisualStyle
  2
FlatWithEdges
 70
     1
177
     2
291
     1
 71
     2
176
     1
 72
     1
176
     1
 73
     1
176
     1
 90
        2
176
     1
 40
-0.6
176
     1
 41
30.0
176
     1
 62
     5
 63
     7
421
 16777215
176
     1
 74
     1
176
     1
 91
        4
176
     1
 64
     7
176
     1
 65
   257
176
     1
 75
     1
176
     1
175
     1
176
     1
 42
1.0
176
     1
 92
        0
176
     1
 66
   257
176
     1
 43
1.0
176
     1
 76
     1
176
     1
 77
     6
176
     1
 78
     2
176
     1
 67
     7
176
     1
 79
     5
176
     1
170
     0
176
     1
171
     0
176
     1
290
     0
176
     1
 93
       13
176
     1
 44
0.0
176
     1
173
     0
176
     1
  0
VISUALSTYLE
  5
2D
102
{ACAD_REACTORS
330
2A
102
}
330
2A
100
AcDbVisualStyle
  2
Gouraud
 70
     2
177
     2
291
     1
 71
     2
176
     1
 72
     2
176
     1
 73
     1
176
     1
 90
        2
176
     1
 40
-0.6
176
     1
 41
30.0
176
     1
 62
     5
 63
     7
421
 16777215
176
     1
 74
     0
176
     1
 91
        4
176
     1
 64
     7
176
     1
 65
   257
176
     1
 75
     1
176
     1
175
     1
176
     1
 42
1.0
176
     1
 92
        0
176
     1
 66
     7
176
     1
 43
1.0
176
     1
 76
     1
176
     1
 77
     6
176
     1
 78
     2
176
     1
 67
     7
176
     1
 79
     5
176
     1
170
     0
176
     1
171
     0
176
     1
290
     0
176
     1
 93
       13
176
     1
 44
0.0
176
     1
173
     0
176
     1
  0
VISUALSTYLE
  5
2E
102
{ACAD_REACTORS
330
2A
102
}
330
2A
100
AcDbVisualStyle
  2
GouraudWithEdges
 70
     3
177
     2
291
     1
 71
     2
176
     1
 72
     2
176
     1
 73
     1
176
     1
 90
        2
176
     1
 40
-0.6
176
     1
 41
30.0
176
     1
 62
     5
 63
     7
421
 16777215
176
     1
 74
     1
176
     1
 91
        4
176
     1
 64
     7
176
     1
 65
   257
176
     1
 75
     1
176
     1
175
     1
176
     1
 42
1.0
176
     1
 92
        0
176
     1
 66
   257
176
     1
 43
1.0
176
     1
 76
     1
176
     1
 77
     6
176
     1
 78
     2
176
     1
 67
     7
176
     1
 79
     5
176
     1
170
     0
176
     1
171
     0
176
     1
290
     0
176
     1
 93
       13
176
     1
 44
0.0
176
     1
173
     0
176
     1
  0
VISUALSTYLE
  5
38
102
{ACAD_REACTORS
330
2A
102
}
330
2A
100
AcDbVisualStyle
  2
Linepattern
 70
    14
177
     2
291
     1
 71
     2
176
     1
 72
     2
176
     1
 73
     0
176
     1
 90
        0
176
     1
 40
-0.6
176
     1
 41
-30.0
176
     1
 62
     5
 63
     7
421
 16777215
176
     1
 74
     1
176
     1
 91
        4
176
     1
 64
     7
176
     1
 65
   257
176
     1
 75
     7
176
     1
175
     7
176
     1
 42
1.0
176
     1
 92
        8
176
     1
 66
     7
176
     1
 43
1.0
176
     1
 76
     1
176
     1
 77
     6
176
     1
 78
     2
176
     1
 67
     7
176
     1
 79
     5
176
     1
170
     0
176
     1
171
     0
176
     1
290
     0
176
     1
 93
        1
176
     1
 44
0.0
176
     1
173
     0
176
     1
  0
VISUALSTYLE
  5
33
102
{ACAD_REACTORS
330
2A
102
}
330
2A
100
AcDbVisualStyle
  2
Realistic
 70
     8
177
     2
291
     0
 71
     2
176
     1
 72
     2
176
     1
 73
     0
176
     1
 90
        0
176
     1
 40
-0.6
176
     1
 41
-30.0
176
     1
 62
     5
 63
     7
421
 16777215
176
     1
 74
     1
176
     1
 91
        0
176
     1
 64
     7
176
     1
 65
   257
176
     1
 75
     1
176
     1
175
     1
176
     1
 42
1.0
176
     1
 92
        8
176
     1
 66
     8
424
  7895160
176
     1
 43
1.0
176
     1
 76
     1
176
     1
 77
     6
176
     1
 78
     2
176
     1
 67
     7
176
     1
 79
     5
176
     1
170
     0
176
     1
171
     0
176
     1
290
     0
176
     1
 93
       13
176
     1
 44
0.0
176
     1
173
     0
176
     1
  0
VISUALSTYLE
  5
37
102
{ACAD_REACTORS
330
2A
102
}
330
2A
100
AcDbVisualStyle
  2
Thicken
 70
    13
177
     2
291
     1
 71
     2
176
     1
 72
     2
176
     1
 73
     0
176
     1
 90
        0
176
     1
 40
-0.6
176
     1
 41
-30.0
176
     1
 62
     5
 63
     7
421
 16777215
176
     1
 74
     1
176
     1
 91
        4
176
     1
 64
     7
176
     1
 65
   257
176
     1
 75
     1
176
     1
175
     1
176
     1
 42
1.0
176
     1
 92
       12
176
     1
 66
     7
176
     1
 43
1.0
176
     1
 76
     1
176
     1
 77
     6
176
     1
 78
     2
176
     1
 67
     7
176
     1
 79
     5
176
     1
170
     0
176
     1
171
     0
176
     1
290
     0
176
     1
 93
        1
176
     1
 44
0.0
176
     1
173
     0
176
     1
  0
ENDSEC
  0
EOF
