  0
SECTION
  2
HEADER
  9
$ACADVER
  1
AC1015
  9
$ACADMAINTVER
 70
     6
  9
$DWGCODEPAGE
  3
ANSI_1252
  9
$INSBASE
 10
0.0
 20
0.0
 30
0.0
  9
$EXTMIN
 10
0.0
 20
0.0
 30
0.0
  9
$EXTMAX
 10
594.0
 20
841.0
 30
0.0
  9
$LIMMIN
 10
0.0
 20
0.0
  9
$LIMMAX
 10
594.0
 20
841.0
  9
$ORTHOMODE
 70
     0
  9
$REGENMODE
 70
     1
  9
$FILLMODE
 70
     1
  9
$QTEXTMODE
 70
     0
  9
$MIRRTEXT
 70
     1
  9
$LTSCALE
 40
1.0
  9
$ATTMODE
 70
     1
  9
$TEXTSIZE
 40
10.0
  9
$TRACEWID
 40
1.0
  9
$TEXTSTYLE
  7
Standard
  9
$CLAYER
  8
0
  9
$CELTYPE
  6
ByLayer
  9
$CECOLOR
 62
   256
  9
$CELTSCALE
 40
1.0
  9
$DISPSILH
 70
     0
  9
$DIMSCALE
 40
1.0
  9
$DIMASZ
 40
2.5
  9
$DIMEXO
 40
0.0
  9
$DIMDLI
 40
3.75
  9
$DIMRND
 40
0.0
  9
$DIMDLE
 40
0.0
  9
$DIMEXE
 40
1.0
  9
$DIMTP
 40
0.0
  9
$DIMTM
 40
0.0
  9
$DIMTXT
 40
3.5
  9
$DIMCEN
 40
2.5
  9
$DIMTSZ
 40
0.0
  9
$DIMTOL
 70
     0
  9
$DIMLIM
 70
     0
  9
$DIMTIH
 70
     1
  9
$DIMTOH
 70
     1
  9
$DIMSE1
 70
     0
  9
$DIMSE2
 70
     0
  9
$DIMTAD
 70
     1
  9
$DIMZIN
 70
     0
  9
$DIMBLK
  1

  9
$DIMASO
 70
     1
  9
$DIMSHO
 70
     1
  9
$DIMPOST
  1

  9
$DIMAPOST
  1

  9
$DIMALT
 70
     0
  9
$DIMALTD
 70
     3
  9
$DIMALTF
 40
0.0393700787
  9
$DIMLFAC
 40
2.0
  9
$DIMTOFL
 70
     1
  9
$DIMTVP
 40
0.0
  9
$DIMTIX
 70
     0
  9
$DIMSOXD
 70
     0
  9
$DIMSAH
 70
     0
  9
$DIMBLK1
  1

  9
$DIMBLK2
  1

  9
$DIMSTYLE
  2
ISO-25
  9
$DIMCLRD
 70
     0
  9
$DIMCLRE
 70
     0
  9
$DIMCLRT
 70
     0
  9
$DIMTFAC
 40
1.0
  9
$DIMGAP
 40
1.5
  9
$DIMJUST
 70
     0
  9
$DIMSD1
 70
     0
  9
$DIMSD2
 70
     0
  9
$DIMTOLJ
 70
     0
  9
$DIMTZIN
 70
     0
  9
$DIMALTZ
 70
     0
  9
$DIMALTTZ
 70
     0
  9
$DIMUPT
 70
     0
  9
$DIMDEC
 70
     2
  9
$DIMTDEC
 70
     2
  9
$DIMALTU
 70
     2
  9
$DIMALTTD
 70
     3
  9
$DIMTXSTY
  7
Standard
  9
$DIMAUNIT
 70
     0
  9
$DIMADEC
 70
     2
  9
$DIMALTRND
 40
0.0
  9
$DIMAZIN
 70
     0
  9
$DIMDSEP
 70
    44
  9
$DIMATFIT
 70
     3
  9
$DIMFRAC
 70
     0
  9
$DIMLDRBLK
  1

  9
$DIMLUNIT
 70
     2
  9
$DIMLWD
 70
    -2
  9
$DIMLWE
 70
    -2
  9
$DIMTMOVE
 70
     0
  9
$LUNITS
 70
     2
  9
$LUPREC
 70
     2
  9
$SKETCHINC
 40
1.0
  9
$FILLETRAD
 40
10.0
  9
$AUNITS
 70
     0
  9
$AUPREC
 70
     2
  9
$MENU
  1
.
  9
$ELEVATION
 40
0.0
  9
$PELEVATION
 40
0.0
  9
$THICKNESS
 40
0.0
  9
$LIMCHECK
 70
     0
  9
$CHAMFERA
 40
0.0
  9
$CHAMFERB
 40
0.0
  9
$CHAMFERC
 40
0.0
  9
$CHAMFERD
 40
0.0
  9
$SKPOLY
 70
     0
  9
$TDCREATE
 40
2459989.321707697
  9
$TDUCREATE
 40
2459989.28004103
  9
$TDUPDATE
 40
2459989.321708356
  9
$TDUUPDATE
 40
2459989.28004169
  9
$TDINDWG
 40
0.0000000116
  9
$TDUSRTIMER
 40
0.0000000116
  9
$USRTIMER
 70
     1
  9
$ANGBASE
 50
0.0
  9
$ANGDIR
 70
     0
  9
$PDMODE
 70
     0
  9
$PDSIZE
 40
-1.0
  9
$PLINEWID
 40
0.0
  9
$SPLFRAME
 70
     0
  9
$SPLINETYPE
 70
     6
  9
$SPLINESEGS
 70
     8
  9
$HANDSEED
  5
10D
  9
$SURFTAB1
 70
     6
  9
$SURFTAB2
 70
     6
  9
$SURFTYPE
 70
     6
  9
$SURFU
 70
     6
  9
$SURFV
 70
     6
  9
$UCSBASE
  2

  9
$UCSNAME
  2

  9
$UCSORG
 10
0.0
 20
0.0
 30
0.0
  9
$UCSXDIR
 10
1.0
 20
0.0
 30
0.0
  9
$UCSYDIR
 10
0.0
 20
1.0
 30
0.0
  9
$UCSORTHOREF
  2

  9
$UCSORTHOVIEW
 70
     0
  9
$UCSORGTOP
 10
0.0
 20
0.0
 30
0.0
  9
$UCSORGBOTTOM
 10
0.0
 20
0.0
 30
0.0
  9
$UCSORGLEFT
 10
0.0
 20
0.0
 30
0.0
  9
$UCSORGRIGHT
 10
0.0
 20
0.0
 30
0.0
  9
$UCSORGFRONT
 10
0.0
 20
0.0
 30
0.0
  9
$UCSORGBACK
 10
0.0
 20
0.0
 30
0.0
  9
$PUCSBASE
  2

  9
$PUCSNAME
  2

  9
$PUCSORG
 10
0.0
 20
0.0
 30
0.0
  9
$PUCSXDIR
 10
1.0
 20
0.0
 30
0.0
  9
$PUCSYDIR
 10
0.0
 20
1.0
 30
0.0
  9
$PUCSORTHOREF
  2

  9
$PUCSORTHOVIEW
 70
     0
  9
$PUCSORGTOP
 10
0.0
 20
0.0
 30
0.0
  9
$PUCSORGBOTTOM
 10
0.0
 20
0.0
 30
0.0
  9
$PUCSORGLEFT
 10
0.0
 20
0.0
 30
0.0
  9
$PUCSORGRIGHT
 10
0.0
 20
0.0
 30
0.0
  9
$PUCSORGFRONT
 10
0.0
 20
0.0
 30
0.0
  9
$PUCSORGBACK
 10
0.0
 20
0.0
 30
0.0
  9
$USERI1
 70
     0
  9
$USERI2
 70
     0
  9
$USERI3
 70
     0
  9
$USERI4
 70
     0
  9
$USERI5
 70
     0
  9
$USERR1
 40
0.0
  9
$USERR2
 40
0.0
  9
$USERR3
 40
0.0
  9
$USERR4
 40
0.0
  9
$USERR5
 40
0.0
  9
$WORLDVIEW
 70
     1
  9
$SHADEDGE
 70
     3
  9
$SHADEDIF
 70
    70
  9
$TILEMODE
 70
     1
  9
$MAXACTVP
 70
    64
  9
$PINSBASE
 10
0.0
 20
0.0
 30
0.0
  9
$PLIMCHECK
 70
     0
  9
$PEXTMIN
 10
1.0000000000E+20
 20
1.0000000000E+20
 30
1.0000000000E+20
  9
$PEXTMAX
 10
-1.0000000000E+20
 20
-1.0000000000E+20
 30
-1.0000000000E+20
  9
$PLIMMIN
 10
0.0
 20
0.0
  9
$PLIMMAX
 10
420.0
 20
297.0
  9
$UNITMODE
 70
     0
  9
$VISRETAIN
 70
     1
  9
$PLINEGEN
 70
     0
  9
$PSLTSCALE
 70
     1
  9
$TREEDEPTH
 70
  3020
  9
$CMLSTYLE
  2
Standard
  9
$CMLJUST
 70
     0
  9
$CMLSCALE
 40
20.0
  9
$PROXYGRAPHICS
 70
     1
  9
$MEASUREMENT
 70
     1
  9
$CELWEIGHT
370
    -1
  9
$ENDCAPS
280
     0
  9
$JOINSTYLE
280
     0
  9
$LWDISPLAY
290
     1
  9
$INSUNITS
 70
     4
  9
$HYPERLINKBASE
  1

  9
$STYLESHEET
  1

  9
$XEDIT
290
     1
  9
$CEPSNTYPE
380
     0
  9
$PSTYLEMODE
290
     1
  9
$FINGERPRINTGUID
  2
{903112e5-5a34-4815-9ccd-ec3777b839ae}
  9
$VERSIONGUID
  2
{FAEB1C32-E019-11D5-929B-00C0DF256EC4}
  9
$EXTNAMES
290
     1
  9
$PSVPSCALE
 40
0.0
  9
$OLESTARTUP
290
     0
  0
ENDSEC
  0
SECTION
  2
CLASSES
  0
CLASS
  1
ACDBDICTIONARYWDFLT
  2
AcDbDictionaryWithDefault
  3
ObjectDBX Classes
 90
        0
280
     0
281
     0
  0
CLASS
  1
VISUALSTYLE
  2
AcDbVisualStyle
  3
ObjectDBX Classes
 90
     4095
280
     0
281
     0
  0
CLASS
  1
MATERIAL
  2
AcDbMaterial
  3
ObjectDBX Classes
 90
     1153
280
     0
281
     0
  0
CLASS
  1
SCALE
  2
AcDbScale
  3
ObjectDBX Classes
 90
     1153
280
     0
281
     0
  0
CLASS
  1
TABLESTYLE
  2
AcDbTableStyle
  3
ObjectDBX Classes
 90
     4095
280
     0
281
     0
  0
CLASS
  1
MLEADERSTYLE
  2
AcDbMLeaderStyle
  3
ACDB_MLEADERSTYLE_CLASS
 90
     4095
280
     0
281
     0
  0
CLASS
  1
SUN
  2
AcDbSun
  3
SCENEOE
 90
     1153
280
     0
281
     0
  0
CLASS
  1
ACDBPLACEHOLDER
  2
AcDbPlaceHolder
  3
ObjectDBX Classes
 90
        0
280
     0
281
     0
  0
CLASS
  1
LAYOUT
  2
AcDbLayout
  3
ObjectDBX Classes
 90
        0
280
     0
281
     0
  0
ENDSEC
  0
SECTION
  2
TABLES
  0
TABLE
  2
VPORT
  5
8
330
0
100
AcDbSymbolTable
 70
     1
  0
VPORT
  5
29
330
8
100
AcDbSymbolTableRecord
100
AcDbViewportTableRecord
  2
*Active
 70
     0
 10
0.0
 20
0.0
 11
1.0
 21
1.0
 12
297.0
 22
420.5
 13
0.0
 23
0.0
 14
10.0
 24
10.0
 15
10.0
 25
10.0
 16
0.0
 26
0.0
 36
1.0
 17
0.0
 27
0.0
 37
0.0
 40
841.0
 41
0.7063020214
 42
50.0
 43
0.0
 44
0.0
 50
0.0
 51
0.0
 71
     0
 72
  2000
 73
     1
 74
     3
 75
     0
 76
     0
 77
     0
 78
     0
281
     0
 65
     1
110
0.0
120
0.0
130
0.0
111
1.0
121
0.0
131
0.0
112
0.0
122
1.0
132
0.0
 79
     0
146
0.0
  0
ENDTAB
  0
TABLE
  2
LTYPE
  5
5
330
0
100
AcDbSymbolTable
 70
     6
  0
LTYPE
  5
14
330
5
100
AcDbSymbolTableRecord
100
AcDbLinetypeTableRecord
  2
ByBlock
 70
     0
  3

 72
    65
 73
     0
 40
0.0
  0
LTYPE
  5
15
330
5
100
AcDbSymbolTableRecord
100
AcDbLinetypeTableRecord
  2
ByLayer
 70
     0
  3

 72
    65
 73
     0
 40
0.0
  0
LTYPE
  5
16
330
5
100
AcDbSymbolTableRecord
100
AcDbLinetypeTableRecord
  2
Continuous
 70
     0
  3
Solid line
 72
    65
 73
     0
 40
0.0
  0
LTYPE
  5
6E
330
5
100
AcDbSymbolTableRecord
100
AcDbLinetypeTableRecord
  2
HIDDEN
 70
     0
  3
Hidden __ __ __ __ __ __ __ __ __ __ __ __ __ __
 72
    65
 73
     2
 40
1.905
 49
1.27
 74
     0
 49
-0.635
 74
     0
  0
LTYPE
  5
6F
330
5
100
AcDbSymbolTableRecord
100
AcDbLinetypeTableRecord
  2
PHANTOM
 70
     0
  3
Phantom ______  __  __  ______  __  __  ______
 72
    65
 73
     6
 40
12.7
 49
6.35
 74
     0
 49
-1.27
 74
     0
 49
1.27
 74
     0
 49
-1.27
 74
     0
 49
1.27
 74
     0
 49
-1.27
 74
     0
  0
LTYPE
  5
70
330
5
100
AcDbSymbolTableRecord
100
AcDbLinetypeTableRecord
  2
CENTER
 70
     0
  3
Center ____ _ ____ _ ____ _ ____ _ ____ _ ____
 72
    65
 73
     4
 40
10.16
 49
6.35
 74
     0
 49
-1.27
 74
     0
 49
1.27
 74
     0
 49
-1.27
 74
     0
  0
LTYPE
  5
71
330
5
100
AcDbSymbolTableRecord
100
AcDbLinetypeTableRecord
  2
CENTERX2
 70
     0
  3
Center (2x) ________  __  ________  __  _____
 72
    65
 73
     4
 40
20.32
 49
12.7
 74
     0
 49
-2.54
 74
     0
 49
2.54
 74
     0
 49
-2.54
 74
     0
  0
LTYPE
  5
72
330
5
100
AcDbSymbolTableRecord
100
AcDbLinetypeTableRecord
  2
DOT2
 70
     0
  3
Dot (.5x) ........................................
 72
    65
 73
     2
 40
0.635
 49
0.0
 74
     0
 49
-0.635
 74
     0
  0
ENDTAB
  0
TABLE
  2
LAYER
  5
2
330
0
100
AcDbSymbolTable
 70
     1
  0
LAYER
  5
10
330
2
100
AcDbSymbolTableRecord
100
AcDbLayerTableRecord
  2
0
 70
     0
 62
     7
  6
Continuous
370
    -3
390
F
  0
ENDTAB
  0
TABLE
  2
STYLE
  5
3
330
0
100
AcDbSymbolTable
 70
     3
  0
STYLE
  5
11
330
3
100
AcDbSymbolTableRecord
100
AcDbTextStyleTableRecord
  2
Standard
 70
     0
 40
0.0
 41
1.0
 50
0.0
 71
     0
 42
10.0
  3
txt
  4

  0
STYLE
  5
76
330
3
100
AcDbSymbolTableRecord
100
AcDbTextStyleTableRecord
  2
SLDTEXTSTYLE0
 70
     0
 40
0.0
 41
0.96
 50
0.0
 71
     0
 42
10.0
  3
ISOCP3
  4

  0
STYLE
  5
8D
330
3
100
AcDbSymbolTableRecord
100
AcDbTextStyleTableRecord
  2
SLDTEXTSTYLE1
 70
     0
 40
0.0
 41
0.605
 50
0.0
 71
     0
 42
10.0
  3
TXT
  4

  0
ENDTAB
  0
TABLE
  2
VIEW
  5
6
330
0
100
AcDbSymbolTable
 70
     0
  0
ENDTAB
  0
TABLE
  2
UCS
  5
7
330
0
100
AcDbSymbolTable
 70
     0
  0
ENDTAB
  0
TABLE
  2
APPID
  5
9
330
0
100
AcDbSymbolTable
 70
     1
  0
APPID
  5
12
330
9
100
AcDbSymbolTableRecord
100
AcDbRegAppTableRecord
  2
ACAD
 70
     0
  0
ENDTAB
  0
TABLE
  2
DIMSTYLE
  5
A
330
0
100
AcDbSymbolTable
 70
     2
100
AcDbDimStyleTable
  0
DIMSTYLE
105
27
330
A
100
AcDbSymbolTableRecord
100
AcDbDimStyleTableRecord
  2
ISO-25
 70
     0
 41
2.5
 42
0.625
 43
3.75
 44
1.25
 73
     0
 74
     0
 77
     1
 78
     8
140
2.5
141
2.5
143
0.0393700787
147
0.625
171
     3
172
     1
178
     0
271
     2
272
     2
274
     3
278
    44
283
     0
284
     8
340
11
  0
DIMSTYLE
105
77
102
{ACAD_REACTORS
330
75
330
82
102
}
330
A
100
AcDbSymbolTableRecord
100
AcDbDimStyleTableRecord
  2
SLDDIMSTYLE0
 70
     0
 41
2.5
 44
0.0
 45
0.000000001
 73
     0
 74
     0
 77
     1
 78
    12
 79
     3
140
6.0
144
2.0
147
1.5
173
     1
178
     0
271
     2
272
     2
276
     2
284
    12
340
76
  0
ENDTAB
  0
TABLE
  2
BLOCK_RECORD
  5
1
330
0
100
AcDbSymbolTable
 70
     3
  0
BLOCK_RECORD
  5
1F
330
1
100
AcDbSymbolTableRecord
100
AcDbBlockTableRecord
  2
*Model_Space
340
22
  0
BLOCK_RECORD
  5
1B
330
1
100
AcDbSymbolTableRecord
100
AcDbBlockTableRecord
  2
*Paper_Space
340
1E
  0
BLOCK_RECORD
  5
23
330
1
100
AcDbSymbolTableRecord
100
AcDbBlockTableRecord
  2
*Paper_Space0
340
26
  0
BLOCK_RECORD
  5
78
330
1
100
AcDbSymbolTableRecord
100
AcDbBlockTableRecord
  2
_D
340
0
  0
BLOCK_RECORD
  5
83
330
1
100
AcDbSymbolTableRecord
100
AcDbBlockTableRecord
  2
_D_1
340
0
  0
ENDTAB
  0
ENDSEC
  0
SECTION
  2
BLOCKS
  0
BLOCK
  5
20
330
1F
100
AcDbEntity
  8
0
100
AcDbBlockBegin
  2
*Model_Space
 70
     0
 10
0.0
 20
0.0
 30
0.0
  3
*Model_Space
  1

  0
ENDBLK
  5
21
330
1F
100
AcDbEntity
  8
0
100
AcDbBlockEnd
  0
BLOCK
  5
1C
330
1B
100
AcDbEntity
 67
     1
  8
0
100
AcDbBlockBegin
  2
*Paper_Space
 70
     0
 10
0.0
 20
0.0
 30
0.0
  3
*Paper_Space
  1

  0
ENDBLK
  5
1D
330
1B
100
AcDbEntity
 67
     1
  8
0
100
AcDbBlockEnd
  0
BLOCK
  5
24
330
23
100
AcDbEntity
  8
0
100
AcDbBlockBegin
  2
*Paper_Space0
 70
     0
 10
0.0
 20
0.0
 30
0.0
  3
*Paper_Space0
  1

  0
ENDBLK
  5
25
330
23
100
AcDbEntity
  8
0
100
AcDbBlockEnd
  0
BLOCK
  5
79
330
78
100
AcDbEntity
  8
0
100
AcDbBlockBegin
  2
_D
 70
     0
 10
0.0
 20
0.0
 30
0.0
  3
_D
  1

  0
SOLID
  5
7B
330
78
100
AcDbEntity
  8
0
  6
Continuous
 62
     7
370
    18
100
AcDbTrace
 10
42.7614395004
 20
152.0299240879
 30
0.0
 11
42.4614395004
 21
149.5299240879
 31
0.0
 12
43.0614395004
 22
149.5299240879
 32
0.0
 13
43.0614395004
 23
149.5299240879
 33
0.0
  0
SOLID
  5
7C
330
78
100
AcDbEntity
  8
0
  6
Continuous
 62
     7
370
    18
100
AcDbTrace
 10
42.7614395004
 20
52.0299240879
 30
0.0
 11
43.0614395004
 21
54.5299240879
 31
0.0
 12
42.4614395004
 22
54.5299240879
 32
0.0
 13
42.4614395004
 23
54.5299240879
 33
0.0
  0
LINE
  5
7D
330
78
100
AcDbEntity
  8
0
  6
Continuous
 62
     7
370
     0
100
AcDbLine
 10
56.6850079902
 20
152.0299240879
 30
0.0
 11
41.7614395004
 21
152.0299240879
 31
0.0
  0
LINE
  5
7E
330
78
100
AcDbEntity
  8
0
  6
Continuous
 62
     7
370
     0
100
AcDbLine
 10
56.6850079902
 20
52.0299240879
 30
0.0
 11
41.7614395004
 21
52.0299240879
 31
0.0
  0
LINE
  5
7F
330
78
100
AcDbEntity
  8
0
  6
Continuous
 62
     7
370
     0
100
AcDbLine
 10
42.7614395004
 20
152.0299240879
 30
0.0
 11
42.7614395004
 21
52.0299240879
 31
0.0
  0
MTEXT
  5
80
330
78
100
AcDbEntity
  8
0
  6
Continuous
 62
     7
370
    18
100
AcDbMText
 10
35.0270332946
 20
94.3680541463
 30
0.0
 40
6.0
 41
0.0
 71
     1
 72
     1
  1
100
  7
SLDTEXTSTYLE0
 11
-7.044195017643634E-15
 21
1.0
 31
0.0
 73
     1
 44
1.0
  0
MTEXT
  5
81
330
78
100
AcDbEntity
  8
0
  6
Continuous
 62
     7
370
    18
100
AcDbMText
 10
35.0270332946
 20
105.7430548466
 30
0.0
 40
6.0
 41
0.0
 71
     1
 72
     1
  1
mm
  7
SLDTEXTSTYLE0
 11
-7.044195017643634E-15
 21
1.0
 31
0.0
 73
     1
 44
1.0
  0
ENDBLK
  5
7A
330
78
100
AcDbEntity
  8
0
100
AcDbBlockEnd
  0
BLOCK
  5
84
330
83
100
AcDbEntity
  8
0
100
AcDbBlockBegin
  2
_D_1
 70
     0
 10
0.0
 20
0.0
 30
0.0
  3
_D_1
  1

  0
SOLID
  5
86
330
83
100
AcDbEntity
  8
0
  6
Continuous
 62
     7
370
    18
100
AcDbTrace
 10
56.6850079902
 20
38.4602342313
 30
0.0
 11
59.1850079902
 21
38.1602342313
 31
0.0
 12
59.1850079902
 22
38.7602342313
 32
0.0
 13
59.1850079902
 23
38.7602342313
 33
0.0
  0
SOLID
  5
87
330
83
100
AcDbEntity
  8
0
  6
Continuous
 62
     7
370
    18
100
AcDbTrace
 10
156.6850079902
 20
38.4602342313
 30
0.0
 11
154.1850079902
 21
38.7602342313
 31
0.0
 12
154.1850079902
 22
38.1602342313
 32
0.0
 13
154.1850079902
 23
38.1602342313
 33
0.0
  0
LINE
  5
88
330
83
100
AcDbEntity
  8
0
  6
Continuous
 62
     7
370
     0
100
AcDbLine
 10
56.6850079902
 20
52.0299240879
 30
0.0
 11
56.6850079902
 21
37.4602342313
 31
0.0
  0
LINE
  5
89
330
83
100
AcDbEntity
  8
0
  6
Continuous
 62
     7
370
     0
100
AcDbLine
 10
156.6850079902
 20
52.0299240879
 30
0.0
 11
156.6850079902
 21
37.4602342313
 31
0.0
  0
LINE
  5
8A
330
83
100
AcDbEntity
  8
0
  6
Continuous
 62
     7
370
     0
100
AcDbLine
 10
56.6850079902
 20
38.4602342313
 30
0.0
 11
156.6850079902
 21
38.4602342313
 31
0.0
  0
MTEXT
  5
8B
330
83
100
AcDbEntity
  8
0
  6
Continuous
 62
     7
370
    18
100
AcDbMText
 10
93.9626484861
 20
46.1946404371
 30
0.0
 40
6.0
 41
0.0
 71
     1
 72
     1
  1
100
  7
SLDTEXTSTYLE0
 73
     1
 44
1.0
  0
MTEXT
  5
8C
330
83
100
AcDbEntity
  8
0
  6
Continuous
 62
     7
370
    18
100
AcDbMText
 10
105.3376491864
 20
46.1946404371
 30
0.0
 40
6.0
 41
0.0
 71
     1
 72
     1
  1
mm
  7
SLDTEXTSTYLE0
 73
     1
 44
1.0
  0
ENDBLK
  5
85
330
83
100
AcDbEntity
  8
0
100
AcDbBlockEnd
  0
ENDSEC
  0
SECTION
  2
ENTITIES
  0
LINE
  5
73
330
1F
100
AcDbEntity
  8
0
  6
Continuous
 62
     7
370
    18
100
AcDbLine
 10
56.6850079902
 20
152.0299240879
 30
0.0
 11
56.6850079902
 21
52.0299240879
 31
0.0
  0
LINE
  5
74
330
1F
100
AcDbEntity
  8
0
  6
Continuous
 62
     7
370
    18
100
AcDbLine
 10
56.6850079902
 20
52.0299240879
 30
0.0
 11
156.6850079902
 21
52.0299240879
 31
0.0
  0
DIMENSION
  5
75
330
1F
100
AcDbEntity
  8
0
  6
Continuous
 62
     7
370
    18
100
AcDbDimension
  2
_D
 10
42.7614395004
 20
52.0299240879
 30
0.0
 11
42.7614395004
 21
105.4472211621
 31
0.0
 70
   160
  1
<>mm
 71
     2
 42
-1.0
  3
SLDDIMSTYLE0
100
AcDbAlignedDimension
 13
56.6850079902
 23
152.0299240879
 33
0.0
 14
56.6850079902
 24
52.0299240879
 34
0.0
 50
90.0
100
AcDbRotatedDimension
  0
DIMENSION
  5
82
330
1F
100
AcDbEntity
  8
0
  6
Continuous
 62
     7
370
    18
100
AcDbDimension
  2
_D_1
 10
156.6850079902
 20
38.4602342313
 30
0.0
 11
105.0418155019
 21
38.4602342313
 31
0.0
 70
   160
  1
<>mm
 71
     2
 42
-1.0
  3
SLDDIMSTYLE0
100
AcDbAlignedDimension
 13
56.6850079902
 23
52.0299240879
 33
0.0
 14
156.6850079902
 24
52.0299240879
 34
0.0
100
AcDbRotatedDimension
  0
MTEXT
  5
8E
330
1F
100
AcDbEntity
  8
0
  6
Continuous
 62
     7
370
     0
100
AcDbMText
 10
412.8252631579
 20
48.4342449499
 30
0.0
 40
10.0
 41
0.0
 71
     1
 72
     1
  1
KLUDI GmbH & Co KG
  7
SLDTEXTSTYLE1
 73
     1
 44
1.0
  0
MTEXT
  5
8F
330
1F
100
AcDbEntity
  8
0
  6
Continuous
 62
     7
370
     0
100
AcDbMText
 10
210.0873490389
 20
48.4342449499
 30
0.0
 40
10.0
 41
0.0
 71
     1
 72
     1
  1
38 759 .. 76
  7
SLDTEXTSTYLE1
 73
     1
 44
1.0
  0
SPLINE
  5
90
330
1F
100
AcDbEntity
  8
0
  6
Continuous
 62
     7
370
    25
100
AcDbSpline
210
0.0
220
0.0
230
1.0
 70
     8
 71
     3
 72
    12
 73
     8
 74
     0
 42
0.00000001
 43
0.00000001
 40
0.0
 40
0.0
 40
0.0
 40
0.0
 40
0.0957889560489996
 40
0.2289871589019179
 40
0.4593212882477881
 40
0.7136147924200373
 40
1.0
 40
1.0
 40
1.0
 40
1.0
 10
184.2143893270351
 20
337.7508716049912
 30
0.0
 10
184.2407420716607
 20
337.7373916720537
 30
0.0
 10
184.3037393144536
 20
337.7051673773869
 30
0.0
 10
184.505991545414
 20
337.5680910081028
 30
0.0
 10
184.7505775714972
 20
337.3118192048271
 30
0.0
 10
184.9707453684233
 20
336.9104887231816
 30
0.0
 10
184.9985948157975
 20
336.5941446105028
 30
0.0
 10
185.0133460342085
 20
336.4265843341187
 30
0.0
  0
SPLINE
  5
91
330
1F
100
AcDbEntity
  8
0
  6
Continuous
 62
     7
370
    25
100
AcDbSpline
210
0.0
220
0.0
230
1.0
 70
     8
 71
     3
 72
    13
 73
     9
 74
     0
 42
0.00000001
 43
0.00000001
 40
0.0
 40
0.0
 40
0.0
 40
0.0
 40
0.242025150704671
 40
0.4744906685970126
 40
0.670960639410333
 40
0.8328506765775772
 40
0.9519020561957797
 40
0.9999999999999999
 40
0.9999999999999999
 40
0.9999999999999999
 40
0.9999999999999999
 10
195.0272416889077
 20
336.3983204867095
 30
0.0
 10
195.0313974751244
 20
336.5399018051418
 30
0.0
 10
195.0395449001948
 20
336.8174721908979
 30
0.0
 10
195.2017751671044
 20
337.1790599672566
 30
0.0
 10
195.4066729061555
 20
337.452092070045
 30
0.0
 10
195.6063743023186
 20
337.6254303923341
 30
0.0
 10
195.7455523624016
 20
337.7135262096922
 30
0.0
 10
195.7900720035153
 20
337.7362315249484
 30
0.0
 10
195.8028827236105
 20
337.7427650780307
 30
0.0
  0
LINE
  5
92
330
1F
100
AcDbEntity
  8
0
  6
Continuous
 62
     7
370
    25
100
AcDbLine
 10
185.0165199447
 20
336.427312117
 30
0.0
 11
185.0165199463
 21
257.621487603
 31
0.0
  0
LINE
  5
93
330
1F
100
AcDbEntity
  8
0
  6
Continuous
 62
     7
370
    25
100
AcDbLine
 10
195.0165199463
 20
257.6214876032
 30
0.0
 11
195.0165199447
 21
336.4057764807
 31
0.0
  0
ARC
  5
94
330
1F
100
AcDbEntity
  8
0
  6
Continuous
 62
     7
370
    25
100
AcDbCircle
 10
186.0165199463
 20
257.621487603
 30
0.0
 40
1.0
100
AcDbArc
 50
180.0000000012
 51
270.0000000012
  0
ARC
  5
95
330
1F
100
AcDbEntity
  8
0
  6
Continuous
 62
     7
370
    25
100
AcDbCircle
 10
194.0165199463
 20
257.6214876031
 30
0.0
 40
1.0
100
AcDbArc
 50
270.0000000012
 51
0.0000000012
  0
SPLINE
  5
96
330
1F
100
AcDbEntity
  8
0
  6
Continuous
 62
     7
370
    25
100
AcDbSpline
210
0.0
220
0.0
230
1.0
 70
     8
 71
     3
 72
     8
 73
     4
 74
     0
 42
0.00000001
 43
0.00000001
 40
0.0
 40
0.0
 40
0.0
 40
0.0
 40
1.0
 40
1.0
 40
1.0
 40
1.0
 10
165.158184475648
 20
364.1648185528433
 30
0.0
 10
164.9767450764146
 20
362.4693528247896
 30
0.0
 10
164.9696429143723
 20
360.7438987883012
 30
0.0
 10
165.1555656593871
 20
358.9884376507929
 30
0.0
  0
ELLIPSE
  5
97
330
1F
100
AcDbEntity
  8
0
  6
Continuous
 62
     7
370
    25
100
AcDbEllipse
 10
190.0165199441
 20
361.5045582814
 30
0.0
 11
-5.724984930566280E-10
 21
25.00054688668672
 31
0.0
210
0.0
220
0.0
230
1.0
 40
0.9999890624
 41
4.818998897735291
 42
7.747371716619325
  0
SPLINE
  5
98
330
1F
100
AcDbEntity
  8
0
  6
Continuous
 62
     7
370
    25
100
AcDbSpline
210
0.0
220
0.0
230
1.0
 70
     8
 71
     3
 72
     8
 73
     4
 74
     0
 42
0.00000001
 43
0.00000001
 40
0.0
 40
0.0
 40
0.0
 40
0.0
 40
1.0
 40
1.0
 40
1.0
 40
1.0
 10
214.8774742290147
 20
358.9884376518179
 30
0.0
 10
215.0633969739571
 20
360.7438987893338
 30
0.0
 10
215.0562948118437
 20
362.4693528258219
 30
0.0
 10
214.8748554125403
 20
364.1648185538681
 30
0.0
  0
ARC
  5
99
330
1F
100
AcDbEntity
  8
0
  6
Continuous
 62
     7
370
    25
100
AcDbCircle
 10
190.0165199441
 20
361.6214876031
 30
0.0
 40
25.0
100
AcDbArc
 50
282.0396894371
 51
353.9542814436
  0
ARC
  5
9A
330
1F
100
AcDbEntity
  8
0
  6
Continuous
 62
     7
370
    25
100
AcDbCircle
 10
190.0165199441
 20
361.6214876031
 30
0.0
 40
25.00000000000002
100
AcDbArc
 50
186.0457185587
 51
257.8834864653
  0
SPLINE
  5
9B
330
1F
100
AcDbEntity
  8
0
  6
Continuous
 62
     7
370
    25
100
AcDbSpline
210
0.0
220
0.0
230
1.0
 70
     8
 71
     3
 72
    14
 73
    10
 74
     0
 42
0.00000001
 43
0.00000001
 40
0.0
 40
0.0
 40
0.0
 40
0.0
 40
0.0226884245644527
 40
0.1922396607670401
 40
0.3589979708236831
 40
0.5295474010776257
 40
0.707550379254774
 40
0.8887644470344761
 40
0.9999999999999999
 40
0.9999999999999999
 40
0.9999999999999999
 40
0.9999999999999999
 10
188.2820029419389
 20
337.2733056355935
 30
0.0
 10
188.3694252375176
 20
337.2678261435383
 30
0.0
 10
189.1101568117965
 20
337.221398252925
 30
0.0
 10
190.5910842462099
 20
337.1955721868785
 30
0.0
 10
192.589378332074
 20
337.3195154565312
 30
0.0
 10
194.3086164100122
 20
337.5509011148726
 30
0.0
 10
195.5396381736194
 20
337.7808591910425
 30
0.0
 10
196.1708084360538
 20
337.9092908506528
 30
0.0
 10
196.083351356626
 20
337.8656694800122
 30
0.0
 10
196.0500863567736
 20
337.8490777427004
 30
0.0
  0
LINE
  5
9C
330
1F
100
AcDbEntity
  8
0
  6
Continuous
 62
     7
370
    25
100
AcDbLine
 10
196.031996074
 20
337.8300734305
 30
0.0
 11
195.7732257429
 21
337.7552393864
 31
0.0
  0
SPLINE
  5
9D
330
1F
100
AcDbEntity
  8
0
  6
Continuous
 62
     7
370
    25
100
AcDbSpline
210
0.0
220
0.0
230
1.0
 70
     8
 71
     3
 72
    12
 73
     8
 74
     0
 42
0.00000001
 43
0.00000001
 40
0.0
 40
0.0
 40
0.0
 40
0.0
 40
0.0557907988243068
 40
0.302267581928719
 40
0.5444336484011768
 40
0.7881452570548243
 40
1.0
 40
1.0
 40
1.0
 40
1.0
 10
183.9691525918218
 20
337.8518945468583
 30
0.0
 10
183.9390118238908
 20
337.8622975529381
 30
0.0
 10
183.7757129066502
 20
337.9186597409473
 30
0.0
 10
184.1416129085024
 20
337.8518788562532
 30
0.0
 10
185.058520037739
 20
337.6726800082142
 30
0.0
 10
186.5005791324529
 20
337.4265010647439
 30
0.0
 10
187.7165382206104
 20
337.3219333738061
 30
0.0
 10
188.2820029419389
 20
337.2733056355935
 30
0.0
  0
LINE
  5
9E
330
1F
100
AcDbEntity
  8
0
  6
Continuous
 62
     7
370
    25
100
AcDbLine
 10
194.0165194645
 20
256.6214876031
 30
0.0
 11
186.0165199463
 21
256.621487603
 31
0.0
  0
SPLINE
  5
9F
330
1F
100
AcDbEntity
  8
0
  6
Continuous
 62
     7
370
    25
100
AcDbSpline
210
0.0
220
0.0
230
1.0
 70
    11
 71
     3
 72
    95
 73
    91
 74
     0
 42
0.00000001
 43
0.00000001
 40
0.0
 40
0.0
 40
0.0
 40
0.0
 40
0.0312499999999999
 40
0.0312499999999999
 40
0.0468749999999999
 40
0.0468749999999999
 40
0.0624999999999998
 40
0.0624999999999998
 40
0.0937499999999998
 40
0.0937499999999998
 40
0.1093749999999998
 40
0.1093749999999998
 40
0.1249999999999998
 40
0.1249999999999998
 40
0.1562499999999998
 40
0.1562499999999998
 40
0.1718749999999998
 40
0.1718749999999998
 40
0.1874999999999998
 40
0.2031249999999999
 40
0.2031249999999999
 40
0.2187499999999999
 40
0.2187499999999999
 40
0.2499999999999999
 40
0.2499999999999999
 40
0.2656249999999999
 40
0.2656249999999999
 40
0.2812499999999998
 40
0.2812499999999998
 40
0.3124999999999996
 40
0.3124999999999996
 40
0.3281249999999992
 40
0.3281249999999992
 40
0.3437499999999989
 40
0.3437499999999989
 40
0.3749999999999986
 40
0.3749999999999986
 40
0.4062499999999983
 40
0.4062499999999983
 40
0.4218749999999982
 40
0.4218749999999982
 40
0.4374999999999982
 40
0.4374999999999982
 40
0.4687499999999982
 40
0.4687499999999982
 40
0.4999999999999981
 40
0.4999999999999981
 40
0.531249999999998
 40
0.531249999999998
 40
0.546874999999998
 40
0.546874999999998
 40
0.5624999999999979
 40
0.5781249999999979
 40
0.5781249999999979
 40
0.5937499999999979
 40
0.5937499999999979
 40
0.6249999999999978
 40
0.6249999999999978
 40
0.6406249999999977
 40
0.6406249999999977
 40
0.6562499999999977
 40
0.6562499999999977
 40
0.6874999999999976
 40
0.6874999999999976
 40
0.7031249999999976
 40
0.7031249999999976
 40
0.7187499999999974
 40
0.7187499999999974
 40
0.7499999999999976
 40
0.7499999999999976
 40
0.7656249999999976
 40
0.7656249999999976
 40
0.7812499999999977
 40
0.7968749999999977
 40
0.7968749999999977
 40
0.8124999999999978
 40
0.8124999999999978
 40
0.8437499999999981
 40
0.8437499999999981
 40
0.8749999999999984
 40
0.8749999999999984
 40
0.9062499999999988
 40
0.9062499999999988
 40
0.921874999999999
 40
0.921874999999999
 40
0.9374999999999992
 40
0.9374999999999992
 40
0.9687499999999997
 40
0.9687499999999997
 40
1.0
 40
1.0
 40
1.0
 40
1.0
 10
181.965670597431
 20
437.6994859427981
 30
0.0
 10
182.499271309743
 20
438.2313642706449
 30
0.0
 10
183.0761456878024
 20
438.7019966675033
 30
0.0
 10
184.0037136840049
 20
439.3198327145507
 30
0.0
 10
184.3233562423266
 20
439.5109834404936
 30
0.0
 10
184.9840249238689
 20
439.8630203812204
 30
0.0
 10
185.3261718358003
 20
440.024158726513
 30
0.0
 10
186.3628542815425
 20
440.4513372798736
 30
0.0
 10
187.0740623930278
 20
440.6656708220617
 30
0.0
 10
188.1707345737656
 20
440.8824388802581
 30
0.0
 10
188.542597198918
 20
440.9372329864703
 30
0.0
 10
189.2909694814753
 20
441.0097392104128
 30
0.0
 10
189.6640368717417
 20
441.0272551885807
 30
0.0
 10
190.7799875904107
 20
441.0253469546031
 30
0.0
 10
191.5196502471332
 20
440.9519820929788
 30
0.0
 10
192.6225333676788
 20
440.7312143166773
 30
0.0
 10
192.9887146594233
 20
440.6388350698658
 30
0.0
 10
193.7027023518238
 20
440.4209077757387
 30
0.0
 10
194.4024814058031
 20
440.1690917435724
 30
0.0
 10
195.0742728070596
 20
439.8505229231819
 30
0.0
 10
195.7318797960778
 20
439.4981231461323
 30
0.0
 10
196.0552279314667
 20
439.3038682207398
 30
0.0
 10
196.9902395051267
 20
438.6770254416048
 30
0.0
 10
197.5639063867538
 20
438.2041099001967
 30
0.0
 10
198.3518836380717
 20
437.4144082133012
 30
0.0
 10
198.6023685319811
 20
437.1376898792574
 30
0.0
 10
199.0782493996181
 20
436.5564640931389
 30
0.0
 10
199.3020478922467
 20
436.2536120647358
 30
0.0
 10
199.9219443120466
 20
435.3226832720493
 30
0.0
 10
200.2713651937209
 20
434.6672645386242
 30
0.0
 10
200.6991973898873
 20
433.6316460443205
 30
0.0
 10
200.826165185037
 20
433.2756054351244
 30
0.0
 10
201.0425851609889
 20
432.5583817259503
 30
0.0
 10
201.1324677124634
 20
432.1967803293063
 30
0.0
 10
201.3484528526023
 20
431.1032227960831
 30
0.0
 10
201.4214167293835
 20
430.3625987580201
 30
0.0
 10
201.419749795228
 20
428.8572752730739
 30
0.0
 10
201.3448632521599
 20
428.1148071393347
 30
0.0
 10
201.12635526909
 20
427.0221138894038
 30
0.0
 10
201.0356909052354
 20
426.6610472997468
 30
0.0
 10
200.8179549685621
 20
425.9453763143945
 30
0.0
 10
200.6901341154644
 20
425.5893711448638
 30
0.0
 10
200.2593489874488
 20
424.5533666803528
 30
0.0
 10
199.9082022251011
 20
423.898727017655
 30
0.0
 10
199.0795758606753
 20
422.6606172705077
 30
0.0
 10
198.5971356390074
 20
422.0740736319434
 30
0.0
 10
197.5433113323213
 20
421.0229081264405
 30
0.0
 10
196.968705300905
 20
420.551661436879
 30
0.0
 10
196.0338001057691
 20
419.9279535078554
 30
0.0
 10
195.7093788718399
 20
419.7340030812028
 30
0.0
 10
195.0501794309502
 20
419.3827133742606
 30
0.0
 10
194.3772225608153
 20
419.0655687332986
 30
0.0
 10
193.6772120817888
 20
418.8155694320783
 30
0.0
 10
192.9635141253871
 20
418.5995415807404
 30
0.0
 10
192.5981116064541
 20
418.5081940908427
 30
0.0
 10
191.4928554351112
 20
418.2895414401614
 30
0.0
 10
190.7526275149114
 20
418.2180144062728
 30
0.0
 10
189.6373527765013
 20
418.2187389703585
 30
0.0
 10
189.2647664269242
 20
418.2371135266217
 30
0.0
 10
188.5178901497677
 20
418.3111659974841
 30
0.0
 10
188.1448842085427
 20
418.3669471940589
 30
0.0
 10
187.0475851192129
 20
418.5864968092772
 30
0.0
 10
186.3369996955284
 20
418.8026163013697
 30
0.0
 10
185.3026089165652
 20
419.2316462790661
 30
0.0
 10
184.96125793329
 20
419.3933090954121
 30
0.0
 10
184.3003687240528
 20
419.747395846124
 30
0.0
 10
183.9808771027593
 20
419.9394897246102
 30
0.0
 10
183.0544162901474
 20
420.5597618934706
 30
0.0
 10
182.4791511018549
 20
421.0315046797086
 30
0.0
 10
181.6820660030551
 20
421.8295521201775
 30
0.0
 10
181.4300480535421
 20
422.1083019005833
 30
0.0
 10
180.957855864048
 20
422.6848223118337
 30
0.0
 10
180.5157483094602
 20
423.2821162871988
 30
0.0
 10
180.1332225476428
 20
423.9205517354771
 30
0.0
 10
179.781061887631
 20
424.5799544114147
 30
0.0
 10
179.6195499282562
 20
424.9219366223742
 30
0.0
 10
179.1907996155493
 20
425.9596560126561
 30
0.0
 10
178.9759244515264
 20
426.6708754428815
 30
0.0
 10
178.6858539149362
 20
428.1315155197079
 30
0.0
 10
178.6118418975333
 20
428.8874227155658
 30
0.0
 10
178.6130650474885
 20
430.3764437532008
 30
0.0
 10
178.6858810091728
 20
431.1158627782812
 30
0.0
 10
178.9052336797731
 20
432.217225586495
 30
0.0
 10
178.9973401373847
 20
432.5840109994911
 30
0.0
 10
179.2148690556593
 20
433.2990884583176
 30
0.0
 10
179.3405633008529
 20
433.64931394423
 30
0.0
 10
179.767494798252
 20
434.678456985528
 30
0.0
 10
180.1194656905976
 20
435.3380954695482
 30
0.0
 10
180.9561989058095
 20
436.5888807628813
 30
0.0
 10
181.432069885119
 20
437.1676076149512
 30
0.0
 10
181.965670597431
 20
437.6994859427981
 30
0.0
  0
ARC
  5
A0
330
1F
100
AcDbEntity
  8
0
  6
Continuous
 62
     7
370
    25
100
AcDbCircle
 10
190.0165199425
 20
391.7214876036
 30
0.0
 40
74.50000000000004
100
AcDbArc
 50
273.8482469714
 51
266.1517530326
  0
CIRCLE
  5
A1
330
1F
100
AcDbEntity
  8
0
  6
Continuous
 62
     8
370
    18
100
AcDbCircle
 10
190.0165199441
 20
361.6214876031
 30
0.0
 40
24.37131302969664
  0
CIRCLE
  5
A2
330
1F
100
AcDbEntity
  8
0
  6
Continuous
 62
     8
370
    18
100
AcDbCircle
 10
190.0165199441
 20
361.6214876031
 30
0.0
 40
23.37146533454029
  0
SPLINE
  5
A3
330
1F
100
AcDbEntity
  8
0
  6
Continuous
 62
     8
370
    18
100
AcDbSpline
210
0.0
220
0.0
230
1.0
 70
     8
 71
     3
 72
    11
 73
     7
 74
     0
 42
0.00000001
 43
0.00000001
 40
0.0
 40
0.0
 40
0.0
 40
0.0
 40
0.2306905767211632
 40
0.4952962946684332
 40
0.7464666659623502
 40
1.0
 40
1.0
 40
1.0
 40
1.0
 10
188.6002986145085
 20
335.7773252344426
 30
0.0
 10
188.1387352603292
 20
335.8292842102268
 30
0.0
 10
187.1477514831459
 20
335.9408409480289
 30
0.0
 10
185.9886728715655
 20
336.1973430951858
 30
0.0
 10
185.171772590816
 20
336.4121612867864
 30
0.0
 10
185.0697438749451
 20
336.4222678096852
 30
0.0
 10
185.0184906738509
 20
336.4273447299039
 30
0.0
  0
SPLINE
  5
A4
330
1F
100
AcDbEntity
  8
0
  6
Continuous
 62
     8
370
    18
100
AcDbSpline
210
0.0
220
0.0
230
1.0
 70
     8
 71
     3
 72
    14
 73
    10
 74
     0
 42
0.00000001
 43
0.00000001
 40
0.0
 40
0.0
 40
0.0
 40
0.0
 40
0.0753418368367088
 40
0.2579366159651543
 40
0.4406924404830437
 40
0.6191936292920386
 40
0.7958551891785766
 40
0.9759674329018269
 40
1.0
 40
1.0
 40
1.0
 40
1.0
 10
194.9496464429787
 20
336.4059057426771
 30
0.0
 10
194.965263391372
 20
336.4165608050184
 30
0.0
 10
195.0187288096496
 20
336.453038953662
 30
0.0
 10
194.5114699622922
 20
336.3151722827106
 30
0.0
 10
193.510262945844
 20
336.0714506377594
 30
0.0
 10
192.1071579957055
 20
335.8253044793805
 30
0.0
 10
190.483310520621
 20
335.6946038002507
 30
0.0
 10
189.2781463118458
 20
335.7218352359085
 30
0.0
 10
188.671692283842
 20
335.7714808026887
 30
0.0
 10
188.6002986145085
 20
335.7773252344426
 30
0.0
  0
CIRCLE
  5
A5
330
1F
100
AcDbEntity
  8
0
  6
Continuous
 62
     8
370
    18
100
AcDbCircle
 10
190.0165199397
 20
429.6214876037
 30
0.0
 40
10.77434613606385
  0
CIRCLE
  5
A6
330
1F
100
AcDbEntity
  8
0
  6
Continuous
 62
     8
370
    18
100
AcDbCircle
 10
190.0165199397
 20
429.6214876037
 30
0.0
 40
11.25844862367734
  0
ARC
  5
A7
330
1F
100
AcDbEntity
  8
0
  6
Continuous
 62
     8
370
    18
100
AcDbCircle
 10
190.0165199425
 20
391.7214876036
 30
0.0
 40
73.3527529442751
100
AcDbArc
 50
273.9085268892
 51
266.0914731147
  0
ARC
  5
A8
330
1F
100
AcDbEntity
  8
0
  6
Continuous
 62
     8
370
    18
100
AcDbCircle
 10
190.0165199425
 20
391.7214876036
 30
0.0
 40
74.34193130454277
100
AcDbArc
 50
273.8564416286
 51
266.1435583754
  0
LINE
  5
A9
330
1F
100
AcDbEntity
  8
0
  6
Continuous
 62
     7
370
    25
100
AcDbLine
 10
350.7527371259
 20
317.2214876036
 30
0.0
 11
356.7891370685
 21
317.3795562991
 31
0.0
  0
LINE
  5
AA
330
1F
100
AcDbEntity
  8
0
  6
Continuous
 62
     7
370
    25
100
AcDbLine
 10
356.7891370685
 20
466.0634189082
 30
0.0
 11
350.7527371259
 21
466.2214876036
 31
0.0
  0
ARC
  5
AB
330
1F
100
AcDbEntity
  8
0
  6
Continuous
 62
     7
370
    25
100
AcDbCircle
 10
356.7629601202
 20
465.0637615832
 30
0.0
 40
0.999999999999589
100
AcDbArc
 50
0.6004114401
 51
88.5
  0
ARC
  5
AC
330
1F
100
AcDbEntity
  8
0
  6
Continuous
 62
     7
370
    25
100
AcDbCircle
 10
356.7629601202
 20
318.3792136241
 30
0.0
 40
0.999999999999589
100
AcDbArc
 50
271.5
 51
359.3995885599
  0
ARC
  5
AD
330
1F
100
AcDbEntity
  8
0
  6
Continuous
 62
     7
370
    25
100
AcDbCircle
 10
-6641.8527537798
 20
391.7214876036
 30
0.0
 40
7000.000000000001
100
AcDbArc
 50
0.4032811225
 51
0.6004114401
  0
ARC
  5
AE
330
1F
100
AcDbEntity
  8
0
  6
Continuous
 62
     7
370
    25
100
AcDbCircle
 10
-6641.8527537798
 20
391.7214876036
 30
0.0
 40
7000.0
100
AcDbArc
 50
359.9534978648
 51
0.2171578667
  0
ARC
  5
AF
330
1F
100
AcDbEntity
  8
0
  6
Continuous
 62
     7
370
    25
100
AcDbCircle
 10
-6641.8527537798
 20
391.7214876036
 30
0.0
 40
7000.000000000001
100
AcDbArc
 50
359.3995885599
 51
359.5531793282
  0
LINE
  5
B0
330
1F
100
AcDbEntity
  8
0
  6
Continuous
 62
     7
370
    25
100
AcDbLine
 10
427.3733066958
 20
337.2149697525
 30
0.0
 11
429.3901895323
 21
337.2501745734
 31
0.0
  0
LINE
  5
B1
330
1F
100
AcDbEntity
  8
0
  6
Continuous
 62
     7
370
    25
100
AcDbLine
 10
407.5747377052
 20
336.8693844453
 30
0.0
 11
414.5198042287
 21
336.9906110324
 31
0.0
  0
LINE
  5
B2
330
1F
100
AcDbEntity
  8
0
  6
Continuous
 62
     7
370
    25
100
AcDbLine
 10
393.3727371259
 20
336.6214876031
 30
0.0
 11
399.6725445259
 21
336.7314511503
 31
0.0
  0
LINE
  5
B3
330
1F
100
AcDbEntity
  8
0
  6
Continuous
 62
     7
370
    25
100
AcDbLine
 10
429.3901895323
 20
385.9928006328
 30
0.0
 11
400.0402823572
 21
386.5051051681
 31
0.0
  0
LINE
  5
B4
330
1F
100
AcDbEntity
  8
0
  6
Continuous
 62
     7
370
    25
100
AcDbLine
 10
385.6727371259
 20
386.1214876022
 30
0.0
 11
358.1446571532
 21
386.1214876022
 31
0.0
  0
LINE
  5
B5
330
1F
100
AcDbEntity
  8
0
  6
Continuous
 62
     7
370
    25
100
AcDbLine
 10
357.9343500835
 20
337.1214876022
 30
0.0
 11
385.6727371259
 21
337.1214876022
 31
0.0
  0
ARC
  5
B6
330
1F
100
AcDbEntity
  8
0
  6
Continuous
 62
     7
370
    25
100
AcDbCircle
 10
385.6727371259
 20
361.6214876022
 30
0.0
 40
24.50000000000005
100
AcDbArc
 50
57.3274454578
 51
90.0
  0
ARC
  5
B7
330
1F
100
AcDbEntity
  8
0
  6
Continuous
 62
     7
370
    25
100
AcDbCircle
 10
385.6727371259
 20
361.6214876022
 30
0.0
 40
24.50000000000003
100
AcDbArc
 50
270.0
 51
288.3176984112
  0
ARC
  5
B8
330
1F
100
AcDbEntity
  8
0
  6
Continuous
 62
     7
370
    25
100
AcDbCircle
 10
429.3727371259
 20
338.2500222685
 30
0.0
 40
1.0
100
AcDbArc
 50
271.0
 51
0.0
  0
ARC
  5
B9
330
1F
100
AcDbEntity
  8
0
  6
Continuous
 62
     7
370
    25
100
AcDbCircle
 10
429.3727371259
 20
384.9929529376
 30
0.0
 40
1.00000000000001
100
AcDbArc
 50
0.0
 51
89.0
  0
LINE
  5
BA
330
1F
100
AcDbEntity
  8
0
  6
Continuous
 62
     7
370
    25
100
AcDbLine
 10
358.0975018918
 20
418.2185021157
 30
0.0
 11
366.3780132997
 21
418.36303898
 31
0.0
  0
LINE
  5
BB
330
1F
100
AcDbEntity
  8
0
  6
Continuous
 62
     7
370
    25
100
AcDbLine
 10
366.3780132997
 20
440.8799362274
 30
0.0
 11
357.9744140006
 21
441.0266215988
 31
0.0
  0
ARC
  5
BC
330
1F
100
AcDbEntity
  8
0
  6
Continuous
 62
     7
370
    25
100
AcDbCircle
 10
366.3692870965
 20
418.8629628276
 30
0.0
 40
0.5000000000000058
100
AcDbArc
 50
271.0
 51
358.1867030123
  0
ARC
  5
BD
330
1F
100
AcDbEntity
  8
0
  6
Continuous
 62
     7
370
    25
100
AcDbCircle
 10
366.3692870965
 20
440.3800123798
 30
0.0
 40
0.5000000000000626
100
AcDbArc
 50
1.8132969877
 51
89.0
  0
ARC
  5
BE
330
1F
100
AcDbEntity
  8
0
  6
Continuous
 62
     7
370
    25
100
AcDbCircle
 10
26.5395442183
 20
429.6214876037
 30
0.0
 40
340.5
100
AcDbArc
 50
0.0002190152
 51
1.8132969877
  0
ARC
  5
BF
330
1F
100
AcDbEntity
  8
0
  6
Continuous
 62
     7
370
    25
100
AcDbCircle
 10
26.5395442183
 20
429.6214876037
 30
0.0
 40
340.5
100
AcDbArc
 50
358.1867030123
 51
0.0002190152
  0
SPLINE
  5
C0
330
1F
100
AcDbEntity
  8
0
  6
Continuous
 62
     7
370
    25
100
AcDbSpline
210
0.0
220
0.0
230
1.0
 70
     8
 71
     3
 72
    13
 73
     9
 74
     0
 42
0.00000001
 43
0.00000001
 40
0.0
 40
0.0
 40
0.0
 40
0.0
 40
0.0820129287245326
 40
0.2549771780514698
 40
0.4786181893294489
 40
0.7089348923378773
 40
0.9470209325615189
 40
1.0
 40
1.0
 40
1.0
 40
1.0
 10
414.5173356225772
 20
336.9830942412818
 30
0.0
 10
414.5797299671821
 20
336.9812397439768
 30
0.0
 10
414.77371321057
 20
336.9754741348603
 30
0.0
 10
415.1256401995473
 20
336.8631290630381
 30
0.0
 10
415.5326892560229
 20
336.5970935310422
 30
0.0
 10
415.8396614266204
 20
336.1648948063695
 30
0.0
 10
415.9837841549606
 20
335.7744964655249
 30
0.0
 10
415.9615436416848
 20
335.5538699448011
 30
0.0
 10
415.957495469569
 20
335.5137119629186
 30
0.0
  0
SPLINE
  5
C1
330
1F
100
AcDbEntity
  8
0
  6
Continuous
 62
     7
370
    25
100
AcDbSpline
210
0.0
220
0.0
230
1.0
 70
     8
 71
     3
 72
    13
 73
     9
 74
     0
 42
0.00000001
 43
0.00000001
 40
0.0
 40
0.0
 40
0.0
 40
0.0
 40
0.2298027047081798
 40
0.460403505705164
 40
0.6450935527571569
 40
0.8006653889790388
 40
0.931119164019635
 40
1.0
 40
1.0
 40
1.0
 40
1.0
 10
425.976876245654
 20
335.7230248282626
 30
0.0
 10
425.9931320488849
 20
335.8960436449199
 30
0.0
 10
426.0257001111498
 20
336.2426821661815
 30
0.0
 10
426.2836074371526
 20
336.6686941426542
 30
0.0
 10
426.6020780774761
 20
336.9593593494579
 30
0.0
 10
426.9179481314069
 20
337.1213596334546
 30
0.0
 10
427.1753408358662
 20
337.1966229507238
 30
0.0
 10
427.3243846304512
 20
337.2061005424147
 30
0.0
 10
427.3758872827809
 20
337.2093755604129
 30
0.0
  0
LINE
  5
C2
330
1F
100
AcDbEntity
  8
0
  6
Continuous
 62
     7
370
    25
100
AcDbLine
 10
415.9727371259
 20
335.5087260426
 30
0.0
 11
415.9727371259
 21
257.6214876031
 31
0.0
  0
LINE
  5
C3
330
1F
100
AcDbEntity
  8
0
  6
Continuous
 62
     7
370
    25
100
AcDbLine
 10
425.9727371259
 20
257.6214876031
 30
0.0
 11
425.9727371259
 21
335.7333645078
 31
0.0
  0
ARC
  5
C4
330
1F
100
AcDbEntity
  8
0
  6
Continuous
 62
     7
370
    25
100
AcDbCircle
 10
416.9727371259
 20
257.6214876031
 30
0.0
 40
1.0
100
AcDbArc
 50
180.0
 51
270.0
  0
ARC
  5
C5
330
1F
100
AcDbEntity
  8
0
  6
Continuous
 62
     7
370
    25
100
AcDbCircle
 10
424.9727371259
 20
257.6214876031
 30
0.0
 40
1.0
100
AcDbArc
 50
270.0
 51
0.0
  0
LINE
  5
C6
330
1F
100
AcDbEntity
  8
0
  6
Continuous
 62
     7
370
    25
100
AcDbLine
 10
399.6227371259
 20
336.7393325343
 30
0.0
 11
399.6227371259
 21
336.4714876031
 31
0.0
  0
LINE
  5
C7
330
1F
100
AcDbEntity
  8
0
  6
Continuous
 62
     7
370
    25
100
AcDbLine
 10
407.6227371259
 20
336.4714876031
 30
0.0
 11
407.6227371259
 21
336.8770543592
 31
0.0
  0
LINE
  5
C8
330
1F
100
AcDbEntity
  8
0
  6
Continuous
 62
     7
370
    25
100
AcDbLine
 10
399.6227371259
 20
336.4714876031
 30
0.0
 11
399.8413184928
 21
335.8709402331
 31
0.0
  0
LINE
  5
C9
330
1F
100
AcDbEntity
  8
0
  6
Continuous
 62
     7
370
    25
100
AcDbLine
 10
407.404155759
 20
335.8709402331
 30
0.0
 11
407.6227371259
 21
336.4714876031
 31
0.0
  0
ARC
  5
CA
330
1F
100
AcDbEntity
  8
0
  6
Continuous
 62
     7
370
    25
100
AcDbCircle
 10
407.2162172348
 20
335.9393442618
 30
0.0
 40
0.1999999999999824
100
AcDbArc
 50
270.0
 51
340.0
  0
ARC
  5
CB
330
1F
100
AcDbEntity
  8
0
  6
Continuous
 62
     7
370
    25
100
AcDbCircle
 10
400.029257017
 20
335.9393442618
 30
0.0
 40
0.1999999999999824
100
AcDbArc
 50
200.0
 51
270.0
  0
LINE
  5
CC
330
1F
100
AcDbEntity
  8
0
  6
Continuous
 62
     7
370
    25
100
AcDbLine
 10
400.029257017
 20
335.7393442618
 30
0.0
 11
407.2162172348
 21
335.7393442618
 31
0.0
  0
LINE
  5
CD
330
1F
100
AcDbEntity
  8
0
  6
Continuous
 62
     7
370
    25
100
AcDbLine
 10
400.029257017
 20
335.7393442618
 30
0.0
 11
407.2162172348
 21
335.7393442618
 31
0.0
  0
LINE
  5
CE
330
1F
100
AcDbEntity
  8
0
  6
Continuous
 62
     7
370
    25
100
AcDbLine
 10
350.7527371259
 20
466.2214876036
 30
0.0
 11
350.7527371259
 21
317.2214876036
 31
0.0
  0
SPLINE
  5
CF
330
1F
100
AcDbEntity
  8
0
  6
Continuous
 62
     7
370
    25
100
AcDbSpline
210
0.0
220
0.0
230
1.0
 70
     8
 71
     3
 72
    21
 73
    17
 74
     0
 42
0.00000001
 43
0.00000001
 40
0.0
 40
0.0
 40
0.0
 40
0.0
 40
0.0705704479169771
 40
0.1431874553945107
 40
0.2137578992418284
 40
0.2863748704387095
 40
0.3569456700755575
 40
0.4295630183331249
 40
0.5001339615371184
 40
0.5727514813293747
 40
0.6433221495236696
 40
0.7159394038008629
 40
0.7865094989280338
 40
0.8591261669973641
 40
0.9296956421603363
 40
1.0
 40
1.0
 40
1.0
 40
1.0
 10
358.1141483725139
 20
378.9452621401643
 30
0.0
 10
358.1098207613045
 20
377.9388461801802
 30
0.0
 10
358.1010400371444
 20
375.8968279610515
 30
0.0
 10
358.0856344998017
 20
372.3141724154061
 30
0.0
 10
358.0689298575443
 20
368.4294104791409
 30
0.0
 10
358.0515086810126
 20
364.3780243367628
 30
0.0
 10
358.0336017437213
 20
360.2136825814828
 30
0.0
 10
358.0160245022535
 20
356.1260235882869
 30
0.0
 10
357.9989617220708
 20
352.1580145656303
 30
0.0
 10
357.983202921936
 20
348.4932593327555
 30
0.0
 10
357.9689092835938
 20
345.1692389679288
 30
0.0
 10
357.9567483189949
 20
342.341182474758
 30
0.0
 10
357.9468240910419
 20
340.0332872062998
 30
0.0
 10
357.9396754236773
 20
338.3708550860082
 30
0.0
 10
357.9351287038504
 20
337.3135102357174
 30
0.0
 10
357.9346095126891
 20
337.1927717926104
 30
0.0
 10
357.934350405654
 20
337.1325161828335
 30
0.0
  0
SPLINE
  5
D0
330
1F
100
AcDbEntity
  8
0
  6
Continuous
 62
     7
370
    25
100
AcDbSpline
210
0.0
220
0.0
230
1.0
 70
     8
 71
     3
 72
    13
 73
     9
 74
     0
 42
0.00000001
 43
0.00000001
 40
0.0
 40
0.0
 40
0.0
 40
0.0
 40
0.0845922709867386
 40
0.3023787255300054
 40
0.5140269401009988
 40
0.7318129217557021
 40
0.8651621319597803
 40
1.0
 40
1.0
 40
1.0
 40
1.0
 10
358.1446570548798
 20
386.0402864660302
 30
0.0
 10
358.1447439473578
 20
386.0604940117171
 30
0.0
 10
358.1450545482731
 20
386.1327267563833
 30
0.0
 10
358.1424594428383
 20
385.529214073999
 30
0.0
 10
358.1369657191325
 20
384.2516051039072
 30
0.0
 10
358.1295790054832
 20
382.5337681080472
 30
0.0
 10
358.1217653921577
 20
380.7166542781231
 30
0.0
 10
358.1166967574193
 20
379.5379071899249
 30
0.0
 10
358.1141483725139
 20
378.9452621401643
 30
0.0
  0
SPLINE
  5
D1
330
1F
100
AcDbEntity
  8
0
  6
Continuous
 62
     7
370
    25
100
AcDbSpline
210
0.0
220
0.0
230
1.0
 70
     8
 71
     3
 72
    12
 73
     8
 74
     0
 42
0.00000001
 43
0.00000001
 40
0.0
 40
0.0
 40
0.0
 40
0.0
 40
0.212154987656837
 40
0.4304624301730653
 40
0.6426174372048316
 40
0.8609250523376755
 40
1.0
 40
1.0
 40
1.0
 40
1.0
 10
357.9916164540265
 20
437.699485942798
 30
0.0
 10
357.9893183070478
 20
438.1239241654409
 30
0.0
 10
357.9846553672589
 20
438.9851092395938
 30
0.0
 10
357.9794337547046
 20
439.9494728093692
 30
0.0
 10
357.9757378771448
 20
440.6320527387771
 30
0.0
 10
357.9737774078562
 20
440.994125428901
 30
0.0
 10
357.9737893234073
 20
440.9919247841128
 30
0.0
 10
357.9737939603281
 20
440.9910684061284
 30
0.0
  0
SPLINE
  5
D2
330
1F
100
AcDbEntity
  8
0
  6
Continuous
 62
     7
370
    25
100
AcDbSpline
210
0.0
220
0.0
230
1.0
 70
     8
 71
     3
 72
    21
 73
    17
 74
     0
 42
0.00000001
 43
0.00000001
 40
0.0
 40
0.0
 40
0.0
 40
0.0
 40
0.0521581088462704
 40
0.122683321444665
 40
0.1952537583457831
 40
0.2657792103371155
 40
0.3383498611712543
 40
0.4088761118986691
 40
0.4814475715308145
 40
0.5519748303092229
 40
0.6245473391667792
 40
0.695075373543032
 40
0.7676487122431618
 40
0.8381769498386872
 40
0.9107505353011672
 40
1.0
 40
1.0
 40
1.0
 40
1.0
 10
358.0969141104925
 20
418.2522091230338
 30
0.0
 10
358.0968968486233
 20
418.255397218316
 30
0.0
 10
358.0968562462415
 20
418.262896073757
 30
0.0
 10
358.0947441342873
 20
418.652981984435
 30
0.0
 10
358.090984068616
 20
419.3474281270446
 30
0.0
 10
358.0855403698123
 20
420.3528236353018
 30
0.0
 10
358.0787440124902
 20
421.6080402333852
 30
0.0
 10
358.0706438540664
 20
423.104053741156
 30
0.0
 10
358.0616205172203
 20
424.7705664752403
 30
0.0
 10
358.0517656626029
 20
426.5906490675429
 30
0.0
 10
358.0415353202984
 20
428.4800773455827
 30
0.0
 10
358.0310372157418
 20
430.4189553763273
 30
0.0
 10
358.0207486804343
 20
432.3191255526892
 30
0.0
 10
358.0108086123092
 20
434.1549352910559
 30
0.0
 10
358.0007440798674
 20
436.0137295843981
 30
0.0
 10
357.994861077281
 20
437.1002453103312
 30
0.0
 10
357.9916164540265
 20
437.699485942798
 30
0.0
  0
SPLINE
  5
D3
330
1F
100
AcDbEntity
  8
0
  6
Continuous
 62
     7
370
    25
100
AcDbSpline
210
0.0
220
0.0
230
1.0
 70
     8
 71
     3
 72
     8
 73
     4
 74
     0
 42
0.00000001
 43
0.00000001
 40
0.0
 40
0.0
 40
0.0
 40
0.0
 40
1.0
 40
1.0
 40
1.0
 40
1.0
 10
394.0542206001239
 20
364.1648185528433
 30
0.0
 10
393.5999219274983
 20
362.4693528247896
 30
0.0
 10
393.3727371259053
 20
360.7438987883012
 30
0.0
 10
393.3727371259053
 20
358.9884376507929
 30
0.0
  0
LINE
  5
D4
330
1F
100
AcDbEntity
  8
0
  6
Continuous
 62
     7
370
    25
100
AcDbLine
 10
400.0402823572
 20
386.5051051681
 30
0.0
 11
394.0542206001
 21
364.1648185528
 31
0.0
  0
LINE
  5
D5
330
1F
100
AcDbEntity
  8
0
  6
Continuous
 62
     7
370
    25
100
AcDbLine
 10
393.3727371259
 20
336.6214876031
 30
0.0
 11
393.3727371259
 21
358.9884376508
 31
0.0
  0
SPLINE
  5
D6
330
1F
100
AcDbEntity
  8
0
  6
Continuous
 62
     7
370
    25
100
AcDbSpline
210
0.0
220
0.0
230
1.0
 70
     8
 71
     3
 72
    10
 73
     6
 74
     0
 42
0.00000001
 43
0.00000001
 40
0.0
 40
0.0
 40
0.0
 40
0.0
 40
0.4288070479118751
 40
0.857783330466491
 40
1.0
 40
1.0
 40
1.0
 40
1.0
 10
400.7949362006256
 20
336.9124711469631
 30
0.0
 10
400.5146798374994
 20
336.8723030887919
 30
0.0
 10
399.9540565041902
 20
336.7919511195686
 30
0.0
 10
399.6046166219073
 20
336.7272315343691
 30
0.0
 10
399.6588927310746
 20
336.7369413021605
 30
0.0
 10
399.6724064963491
 20
336.7393588579657
 30
0.0
  0
SPLINE
  5
D7
330
1F
100
AcDbEntity
  8
0
  6
Continuous
 62
     7
370
    25
100
AcDbSpline
210
0.0
220
0.0
230
1.0
 70
     8
 71
     3
 72
    15
 73
    11
 74
     0
 42
0.00000001
 43
0.00000001
 40
0.0
 40
0.0
 40
0.0
 40
0.0
 40
0.0438570255622139
 40
0.1854103670811882
 40
0.3274576767309667
 40
0.4707891978365799
 40
0.6140097310337965
 40
0.7557079174694956
 40
0.8969222830238033
 40
1.0
 40
1.0
 40
1.0
 40
1.0
 10
407.5746033316883
 20
336.8770826959327
 30
0.0
 10
407.5883912321843
 20
336.8751198988878
 30
0.0
 10
407.6466810879024
 20
336.8668219599384
 30
0.0
 10
407.2938176943801
 20
336.9177152749266
 30
0.0
 10
406.5470876928835
 20
337.0079960047305
 30
0.0
 10
405.437592399301
 20
337.1001058366123
 30
0.0
 10
404.1290644272835
 20
337.1410873308782
 30
0.0
 10
402.7737041093717
 20
337.107012579781
 30
0.0
 10
401.6175394730992
 20
337.0149255112458
 30
0.0
 10
401.0390336075509
 20
336.9428732198534
 30
0.0
 10
400.7949362006256
 20
336.9124711469631
 30
0.0
  0
LINE
  5
D8
330
1F
100
AcDbEntity
  8
0
  6
Continuous
 62
     7
370
    25
100
AcDbLine
 10
430.3727371259
 20
384.9929529087
 30
0.0
 11
430.3727371259
 21
338.2500222685
 31
0.0
  0
LINE
  5
D9
330
1F
100
AcDbEntity
  8
0
  6
Continuous
 62
     7
370
    25
100
AcDbLine
 10
420.9727371259
 20
256.621487603
 30
0.0
 11
416.9727371259
 21
256.6214876031
 31
0.0
  0
LINE
  5
DA
330
1F
100
AcDbEntity
  8
0
  6
Continuous
 62
     7
370
    25
100
AcDbLine
 10
424.9727371259
 20
256.6214876031
 30
0.0
 11
420.9727371259
 21
256.621487603
 31
0.0
  0
LINE
  5
DB
330
1F
100
AcDbEntity
  8
0
  6
Continuous
 62
     7
370
    25
100
AcDbLine
 10
399.6227371259
 20
336.4714876031
 30
0.0
 11
407.6227371259
 21
336.4714876031
 31
0.0
  0
LINE
  5
DC
330
1F
100
AcDbEntity
  8
0
  6
Continuous
 62
     8
370
    18
100
AcDbLine
 10
357.7629052144
 20
465.0742405479
 30
0.0
 11
357.7629052144
 21
318.3687346594
 31
0.0
  0
SPLINE
  5
DD
330
1F
100
AcDbEntity
  8
0
  6
Continuous
 62
     8
370
    18
100
AcDbSpline
210
0.0
220
0.0
230
1.0
 70
     8
 71
     3
 72
     9
 73
     5
 74
     0
 42
0.00000001
 43
0.00000001
 40
0.0
 40
0.0
 40
0.0
 40
0.0
 40
0.1565814706096654
 40
0.9999999999999999
 40
0.9999999999999999
 40
0.9999999999999999
 40
0.9999999999999999
 10
427.1803692266662
 20
337.2733056355935
 30
0.0
 10
427.2070237327542
 20
337.2676822239193
 30
0.0
 10
427.3772514486155
 20
337.2317685768427
 30
0.0
 10
427.3749486970402
 20
337.2319848047777
 30
0.0
 10
427.3730065136931
 20
337.2321671754246
 30
0.0
  0
SPLINE
  5
DE
330
1F
100
AcDbEntity
  8
0
  6
Continuous
 62
     8
370
    18
100
AcDbSpline
210
0.0
220
0.0
230
1.0
 70
     8
 71
     3
 72
    16
 73
    12
 74
     0
 42
0.00000001
 43
0.00000001
 40
0.0
 40
0.0
 40
0.0
 40
0.0
 40
0.0782274535780772
 40
0.1895037177778287
 40
0.3052630638051698
 40
0.4263123437636092
 40
0.5479453882788262
 40
0.6659499219624758
 40
0.7818906340577829
 40
0.89857129813592
 40
1.0
 40
1.0
 40
1.0
 40
1.0
 10
414.5195085901701
 20
337.007548154805
 30
0.0
 10
414.5247765246697
 20
337.0090244249644
 30
0.0
 10
414.5375379418836
 20
337.0126006462377
 30
0.0
 10
415.3659472357365
 20
337.2143511373811
 30
0.0
 10
416.7943861419359
 20
337.5032515359293
 30
0.0
 10
418.7293616320073
 20
337.7763625222869
 30
0.0
 10
420.9055233861526
 20
337.9100913815122
 30
0.0
 10
423.0610162457479
 20
337.860406748967
 30
0.0
 10
424.96207180768
 20
337.6703961833527
 30
0.0
 10
426.4351943369633
 20
337.4269871215039
 30
0.0
 10
426.943833648157
 20
337.322087659355
 30
0.0
 10
427.1803692266662
 20
337.2733056355935
 30
0.0
  0
LINE
  5
DF
330
1F
100
AcDbEntity
  8
0
  6
Continuous
 62
     8
370
    18
100
AcDbLine
 10
385.6727371259
 20
367.0008584019
 30
0.0
 11
385.6727371259
 21
337.1214876022
 31
0.0
  0
LINE
  5
E0
330
1F
100
AcDbEntity
  8
0
  6
Continuous
 62
     8
370
    18
100
AcDbLine
 10
385.6727371259
 20
386.1214876022
 30
0.0
 11
385.6727371259
 21
367.0008584019
 31
0.0
  0
LINE
  5
E1
330
1F
100
AcDbEntity
  8
0
  6
Continuous
 62
     8
370
    18
100
AcDbLine
 10
366.8690367184
 20
440.3958337398
 30
0.0
 11
366.8690367184
 21
418.8471414676
 31
0.0
  0
SPLINE
  5
E2
330
1F
100
AcDbEntity
  8
0
  6
Continuous
 62
     8
370
    18
100
AcDbSpline
210
0.0
220
0.0
230
1.0
 70
     8
 71
     3
 72
    16
 73
    12
 74
     0
 42
0.00000001
 43
0.00000001
 40
0.0
 40
0.0
 40
0.0
 40
0.0
 40
0.1036002160664734
 40
0.2224312924866254
 40
0.3352287248975653
 40
0.449931959825601
 40
0.5683326629836147
 40
0.6880995571675909
 40
0.8049073095253678
 40
0.9187748648064594
 40
1.0
 40
1.0
 40
1.0
 40
1.0
 10
425.7679761339183
 20
335.7773252344426
 30
0.0
 10
425.5869464375256
 20
335.8291188534174
 30
0.0
 10
425.1982728335898
 20
335.9403205675501
 30
0.0
 10
424.0695468806437
 20
336.1997340024916
 30
0.0
 10
422.6038425716825
 20
336.4042046740336
 30
0.0
 10
420.9398953690641
 20
336.4601145504658
 30
0.0
 10
419.2529618725229
 20
336.3182502130745
 30
0.0
 10
417.7657209212304
 20
336.0291230407312
 30
0.0
 10
416.6736662323198
 20
335.7252750751795
 30
0.0
 10
416.0413634178208
 20
335.5136804465961
 30
0.0
 10
416.0320495317812
 20
335.5100764144198
 30
0.0
 10
416.0281717767978
 20
335.5085759071478
 30
0.0
  0
SPLINE
  5
E3
330
1F
100
AcDbEntity
  8
0
  6
Continuous
 62
     8
370
    18
100
AcDbSpline
210
0.0
220
0.0
230
1.0
 70
     8
 71
     3
 72
     9
 73
     5
 74
     0
 42
0.00000001
 43
0.00000001
 40
0.0
 40
0.0
 40
0.0
 40
0.0
 40
0.8449409522594368
 40
0.9999999999999999
 40
0.9999999999999999
 40
0.9999999999999999
 40
0.9999999999999999
 10
425.9169447791231
 20
335.7332181766606
 30
0.0
 10
425.9186372472272
 20
335.7329668182492
 30
0.0
 10
425.9206403080322
 20
335.7326693318856
 30
0.0
 10
425.7884702909128
 20
335.7713304744864
 30
0.0
 10
425.7679761339183
 20
335.7773252344426
 30
0.0
  0
LINE
  5
E4
330
1F
100
AcDbEntity
  8
0
  6
Continuous
 62
     8
370
    18
100
AcDbLine
 10
404.6346623383
 20
335.8709402331
 30
0.0
 11
407.404155759
 21
335.8709402331
 31
0.0
  0
LINE
  5
E5
330
1F
100
AcDbEntity
  8
0
  6
Continuous
 62
     8
370
    18
100
AcDbLine
 10
399.8413184928
 20
335.8709402331
 30
0.0
 11
404.6346623383
 21
335.8709402331
 31
0.0
  0
LINE
  5
E6
330
1F
100
AcDbEntity
  8
0
  6
Continuous
 62
     7
370
    25
100
AcDbLine
 10
115.5165199425
 20
192.093553719
 30
0.0
 11
115.674588638
 21
186.0571537764
 31
0.0
  0
LINE
  5
E7
330
1F
100
AcDbEntity
  8
0
  6
Continuous
 62
     7
370
    25
100
AcDbLine
 10
264.3584512471
 20
186.0571537764
 30
0.0
 11
264.5165199425
 21
192.093553719
 31
0.0
  0
ARC
  5
E8
330
1F
100
AcDbEntity
  8
0
  6
Continuous
 62
     7
370
    25
100
AcDbCircle
 10
263.3587939221
 20
186.0833307247
 30
0.0
 40
0.9999999999996451
100
AcDbArc
 50
270.6004114401
 51
358.5
  0
ARC
  5
E9
330
1F
100
AcDbEntity
  8
0
  6
Continuous
 62
     7
370
    25
100
AcDbCircle
 10
116.6742459629
 20
186.0833307247
 30
0.0
 40
0.9999999999996076
100
AcDbArc
 50
181.5
 51
269.3995885599
  0
ARC
  5
EA
330
1F
100
AcDbEntity
  8
0
  6
Continuous
 62
     7
370
    25
100
AcDbCircle
 10
190.0165199425
 20
7184.6990446247
 30
0.0
 40
7000.000000000002
100
AcDbArc
 50
269.3995885599
 51
269.9066710329
  0
ARC
  5
EB
330
1F
100
AcDbEntity
  8
0
  6
Continuous
 62
     7
370
    25
100
AcDbCircle
 10
190.0165199425
 20
7184.6990446247
 30
0.0
 40
7000.000000000001
100
AcDbArc
 50
270.093328967
 51
270.6004114401
  0
LINE
  5
EC
330
1F
100
AcDbEntity
  8
0
  6
Continuous
 62
     7
370
    25
100
AcDbLine
 10
178.6124618421
 20
184.8102387176
 30
0.0
 11
178.758071316
 21
176.4682775452
 31
0.0
  0
LINE
  5
ED
330
1F
100
AcDbEntity
  8
0
  6
Continuous
 62
     7
370
    25
100
AcDbLine
 10
201.2749685633
 20
176.4682775452
 30
0.0
 11
201.4205882136
 21
184.810821722
 31
0.0
  0
ARC
  5
EE
330
1F
100
AcDbEntity
  8
0
  6
Continuous
 62
     7
370
    25
100
AcDbCircle
 10
179.2579951636
 20
176.4770037484
 30
0.0
 40
0.5000000000000058
100
AcDbArc
 50
181.0
 51
268.1867030123
  0
ARC
  5
EF
330
1F
100
AcDbEntity
  8
0
  6
Continuous
 62
     7
370
    25
100
AcDbCircle
 10
200.7750447158
 20
176.4770037484
 30
0.0
 40
0.4999999999999774
100
AcDbArc
 50
271.8132969877
 51
359.0
  0
ARC
  5
F0
330
1F
100
AcDbEntity
  8
0
  6
Continuous
 62
     7
370
    25
100
AcDbCircle
 10
190.0165199397
 20
516.3067466266
 30
0.0
 40
340.5000000000001
100
AcDbArc
 50
268.1867030123
 51
270.0
  0
ARC
  5
F1
330
1F
100
AcDbEntity
  8
0
  6
Continuous
 62
     7
370
    25
100
AcDbCircle
 10
190.0165199397
 20
516.3067466266
 30
0.0
 40
340.5000000000001
100
AcDbArc
 50
270.0
 51
271.8132969877
  0
LINE
  5
F2
330
1F
100
AcDbEntity
  8
0
  6
Continuous
 62
     7
370
    25
100
AcDbLine
 10
165.019575102
 20
149.2985238412
 30
0.0
 11
165.6452069144
 21
113.4561013126
 31
0.0
  0
LINE
  5
F3
330
1F
100
AcDbEntity
  8
0
  6
Continuous
 62
     7
370
    25
100
AcDbLine
 10
214.3878329738
 20
113.4561013126
 30
0.0
 11
215.0134118133
 21
149.2954890218
 31
0.0
  0
LINE
  5
F4
330
1F
100
AcDbEntity
  8
0
  6
Continuous
 62
     7
370
    25
100
AcDbLine
 10
214.5165199447
 20
157.173553719
 30
0.0
 11
214.5165199447
 21
184.741919756
 31
0.0
  0
LINE
  5
F5
330
1F
100
AcDbEntity
  8
0
  6
Continuous
 62
     7
370
    25
100
AcDbLine
 10
165.5165199447
 20
184.741919756
 30
0.0
 11
165.5165199447
 21
157.173553719
 31
0.0
  0
ARC
  5
F6
330
1F
100
AcDbEntity
  8
0
  6
Continuous
 62
     7
370
    25
100
AcDbCircle
 10
190.0165199447
 20
157.173553719
 30
0.0
 40
24.5
100
AcDbArc
 50
180.0
 51
198.81329559
  0
ARC
  5
F7
330
1F
100
AcDbEntity
  8
0
  6
Continuous
 62
     7
370
    25
100
AcDbCircle
 10
190.0165199447
 20
157.173553719
 30
0.0
 40
24.50000000000002
100
AcDbArc
 50
341.1849636738
 51
0.0
  0
ARC
  5
F8
330
1F
100
AcDbEntity
  8
0
  6
Continuous
 62
     7
370
    25
100
AcDbCircle
 10
166.6450546096
 20
113.473553719
 30
0.0
 40
1.000000000000009
100
AcDbArc
 50
181.0
 51
270.0
  0
ARC
  5
F9
330
1F
100
AcDbEntity
  8
0
  6
Continuous
 62
     7
370
    25
100
AcDbCircle
 10
213.3879852787
 20
113.473553719
 30
0.0
 40
1.000000000000009
100
AcDbArc
 50
270.0
 51
359.0
  0
LINE
  5
FA
330
1F
100
AcDbEntity
  8
0
  6
Continuous
 62
     7
370
    25
100
AcDbLine
 10
264.5165199425
 20
192.093553719
 30
0.0
 11
115.5165199425
 21
192.093553719
 31
0.0
  0
SPLINE
  5
FB
330
1F
100
AcDbEntity
  8
0
  6
Continuous
 62
     7
370
    25
100
AcDbSpline
210
0.0
220
0.0
230
1.0
 70
     8
 71
     3
 72
    21
 73
    17
 74
     0
 42
0.00000001
 43
0.00000001
 40
0.0
 40
0.0
 40
0.0
 40
0.0
 40
0.0716371410778241
 40
0.1432742775033324
 40
0.2149114492831378
 40
0.2865486184599772
 40
0.3581851975245759
 40
0.4298217771764924
 40
0.501458108099112
 40
0.5730944425417418
 40
0.6447312048220883
 40
0.716367972012411
 40
0.7880056561006372
 40
0.8596433443370778
 40
0.9312820367039162
 40
0.9999999999999999
 40
0.9999999999999999
 40
0.9999999999999999
 40
0.9999999999999999
 10
181.965670597431
 20
184.8546743908911
 30
0.0
 10
182.4422770756506
 20
184.8570024500529
 30
0.0
 10
183.3954900011375
 20
184.8616585682254
 30
0.0
 10
185.0719002085723
 20
184.8668931861989
 30
0.0
 10
186.874820332466
 20
184.8705977785118
 30
0.0
 10
188.7695715278147
 20
184.8726194198685
 30
0.0
 10
190.6992424107544
 20
184.8728606932822
 30
0.0
 10
192.6102440448106
 20
184.8713787556904
 30
0.0
 10
194.4460221042909
 20
184.8681463641497
 30
0.0
 10
196.1586391807881
 20
184.863323471897
 30
0.0
 10
197.6934423871928
 20
184.8569830721663
 30
0.0
 10
199.0143201310313
 20
184.849362602841
 30
0.0
 10
200.076399789561
 20
184.8406290821992
 30
0.0
 10
200.851800968063
 20
184.8310699409919
 30
0.0
 10
201.3327854228519
 20
184.8210661910711
 30
0.0
 10
201.3874489284863
 20
184.8142635579721
 30
0.0
 10
201.4142119256244
 20
184.810933020568
 30
0.0
  0
SPLINE
  5
FC
330
1F
100
AcDbEntity
  8
0
  6
Continuous
 62
     7
370
    25
100
AcDbSpline
210
0.0
220
0.0
230
1.0
 70
     8
 71
     3
 72
    12
 73
     8
 74
     0
 42
0.00000001
 43
0.00000001
 40
0.0
 40
0.0
 40
0.0
 40
0.0
 40
0.0895554452789242
 40
0.3039074144359636
 40
0.5182600635612468
 40
0.7326127019331041
 40
1.0
 40
1.0
 40
1.0
 40
1.0
 10
178.652558047283
 20
184.8109385995058
 30
0.0
 10
178.6432775582998
 20
184.8123882205828
 30
0.0
 10
178.6117841141791
 20
184.8173075260707
 30
0.0
 10
178.8944402408667
 20
184.8256402279827
 30
0.0
 10
179.499579664227
 20
184.8355244216201
 30
0.0
 10
180.4728235596043
 20
184.8455859096996
 30
0.0
 10
181.4328260851966
 20
184.8514304233548
 30
0.0
 10
181.965670597431
 20
184.8546743908911
 30
0.0
  0
SPLINE
  5
FD
330
1F
100
AcDbEntity
  8
0
  6
Continuous
 62
     7
370
    25
100
AcDbSpline
210
0.0
220
0.0
230
1.0
 70
     8
 71
     3
 72
     9
 73
     5
 74
     0
 42
0.00000001
 43
0.00000001
 40
0.0
 40
0.0
 40
0.0
 40
0.0
 40
0.9946096335439917
 40
0.9999999999999999
 40
0.9999999999999999
 40
0.9999999999999999
 40
0.9999999999999999
 10
165.1581844756481
 20
148.7920702447937
 30
0.0
 10
165.0670963410102
 20
149.0160242120652
 30
0.0
 10
164.9755145469416
 20
149.2411919157737
 30
0.0
 10
165.0200713765511
 20
149.2982292439504
 30
0.0
 10
165.0203115541908
 20
149.2985366960509
 30
0.0
  0
ELLIPSE
  5
FE
330
1F
100
AcDbEntity
  8
0
  6
Continuous
 62
     7
370
    25
100
AcDbEllipse
 10
190.0165199441
 20
149.5048848363
 30
0.0
 11
25.00027344184798
 21
1.487876488681650E-10
 31
0.0
210
0.0
220
0.0
230
1.0
 40
0.2679521232
 41
3.248202570920507
 42
6.176575389804555
  0
SPLINE
  5
FF
330
1F
100
AcDbEntity
  8
0
  6
Continuous
 62
     7
370
    25
100
AcDbSpline
210
0.0
220
0.0
230
1.0
 70
     8
 71
     3
 72
     8
 73
     4
 74
     0
 42
0.00000001
 43
0.00000001
 40
0.0
 40
0.0
 40
0.0
 40
0.0
 40
1.0
 40
1.0
 40
1.0
 40
1.0
 10
214.8774742290147
 20
149.4735537190123
 30
0.0
 10
215.0633969739572
 20
149.4735537190123
 30
0.0
 10
215.0562948118437
 20
149.2463689174193
 30
0.0
 10
214.8748554125403
 20
148.7920702447937
 30
0.0
  0
LWPOLYLINE
  5
100
330
1F
100
AcDbEntity
  8
0
  6
Continuous
 62
     7
370
    25
100
AcDbPolyline
 90
       26
 70
   128
 43
0.0
 10
167.1356938572
 20
148.7920702448
 10
167.7797146941
 20
148.1508993759
 10
168.6910900637
 20
147.5318323876
 10
169.8588624416
 20
146.942312362
 10
171.2689916257
 20
146.3894271361
 10
172.9045235426
 20
145.8798240842
 10
174.7457940875
 20
145.4196301965
 10
176.7706655467
 20
145.0143784136
 10
178.954792761
 20
144.6689411036
 10
181.2719158292
 20
144.3874714814
 10
183.6941758323
 20
144.1733536743
 10
186.1924497834
 20
144.0291620343
 10
188.7367007747
 20
143.9566301867
 10
191.2963391138
 20
143.9566301867
 10
193.8405901052
 20
144.0291620343
 10
196.3388640562
 20
144.1733536743
 10
198.7611240594
 20
144.3874714814
 10
201.0782471276
 20
144.6689411036
 10
203.262374342
 20
145.0143784136
 10
205.2872458012
 20
145.4196301965
 10
207.1285163462
 20
145.8798240842
 10
208.7640482632
 20
146.3894271361
 10
210.1741774474
 20
146.942312362
 10
211.3419498254
 20
147.5318323876
 10
212.2533251951
 20
148.1508993759
 10
212.8973460321
 20
148.7920702448
  0
SPLINE
  5
101
330
1F
100
AcDbEntity
  8
0
  6
Continuous
 62
     7
370
    25
100
AcDbSpline
210
0.0
220
0.0
230
1.0
 70
     8
 71
     3
 72
     9
 73
     5
 74
     0
 42
0.00000001
 43
0.00000001
 40
0.0
 40
0.0
 40
0.0
 40
0.0
 40
0.8218644851389749
 40
1.0
 40
1.0
 40
1.0
 40
1.0
 10
167.1356938571734
 20
148.7920702447937
 30
0.0
 10
167.000321296519
 20
148.9697942169573
 30
0.0
 10
166.835607328338
 20
149.1860390789476
 30
0.0
 10
166.8399934028845
 20
149.264953703224
 30
0.0
 10
166.8407747185321
 20
149.2790112004496
 30
0.0
  0
SPLINE
  5
102
330
1F
100
AcDbEntity
  8
0
  6
Continuous
 62
     7
370
    25
100
AcDbSpline
210
0.0
220
0.0
230
1.0
 70
     8
 71
     3
 72
     9
 73
     5
 74
     0
 42
0.00000001
 43
0.00000001
 40
0.0
 40
0.0
 40
0.0
 40
0.0
 40
0.6543577712657008
 40
1.0
 40
1.0
 40
1.0
 40
1.0
 10
213.1909530886556
 20
149.2779949129051
 30
0.0
 10
213.161906086555
 20
149.1998502338307
 30
0.0
 10
213.1175159938929
 20
149.0804282868382
 30
0.0
 10
212.9538989810547
 20
148.8661380127319
 30
0.0
 10
212.8973460320785
 20
148.7920702447937
 30
0.0
  0
LINE
  5
103
330
1F
100
AcDbEntity
  8
0
  6
Continuous
 62
     7
370
    25
100
AcDbLine
 10
213.3879852787
 20
112.473553719
 30
0.0
 11
166.6450546096
 21
112.473553719
 31
0.0
  0
LINE
  5
104
330
1F
100
AcDbEntity
  8
0
  6
Continuous
 62
     7
370
    25
100
AcDbLine
 10
213.2750667608
 20
149.473553719
 30
0.0
 11
214.877474229
 21
149.473553719
 31
0.0
  0
LINE
  5
105
330
1F
100
AcDbEntity
  8
0
  6
Continuous
 62
     7
370
    25
100
AcDbLine
 10
165.1555656594
 20
149.473553719
 30
0.0
 11
166.7579731285
 21
149.473553719
 31
0.0
  0
LINE
  5
106
330
1F
100
AcDbEntity
  8
0
  6
Continuous
 62
     8
370
    18
100
AcDbLine
 10
263.3692728868
 20
185.0833856306
 30
0.0
 11
116.6637669982
 21
185.0833856306
 31
0.0
  0
LINE
  5
107
330
1F
100
AcDbEntity
  8
0
  6
Continuous
 62
     8
370
    18
100
AcDbLine
 10
200.7908660757
 20
175.9772541266
 30
0.0
 11
179.2421738036
 21
175.9772541266
 31
0.0
  0
LINE
  5
108
330
1F
100
AcDbEntity
  8
0
  6
Continuous
 62
     8
370
    18
100
AcDbLine
 10
214.8748554125
 20
148.7920702448
 30
0.0
 11
212.8973460321
 21
148.7920702448
 31
0.0
  0
LINE
  5
109
330
1F
100
AcDbEntity
  8
0
  6
Continuous
 62
     8
370
    18
100
AcDbLine
 10
167.1356938572
 20
148.7920702448
 30
0.0
 11
165.1581844756
 21
148.7920702448
 31
0.0
  0
LINE
  5
10A
330
1F
100
AcDbEntity
  8
0
  6
Continuous
 62
     8
370
    18
100
AcDbLine
 10
166.114378413
 20
157.173553719
 30
0.0
 11
165.5165199447
 21
157.173553719
 31
0.0
  0
LINE
  5
10B
330
1F
100
AcDbEntity
  8
0
  6
Continuous
 62
     8
370
    18
100
AcDbLine
 10
214.5165199447
 20
157.173553719
 30
0.0
 11
166.114378413
 21
157.173553719
 31
0.0
  0
ENDSEC
  0
SECTION
  2
OBJECTS
  0
DICTIONARY
  5
C
330
0
100
AcDbDictionary
281
     1
  3
ACAD_GROUP
350
D
  3
ACAD_LAYOUT
350
1A
  3
ACAD_MLINESTYLE
350
17
  3
ACAD_PLOTSETTINGS
350
19
  3
ACAD_PLOTSTYLENAME
350
E
  3
ACAD_SCALELIST
350
47
  3
DWGPROPS
350
10C
  0
DICTIONARY
  5
D
102
{ACAD_REACTORS
330
C
102
}
330
C
100
AcDbDictionary
281
     1
  0
DICTIONARY
  5
1A
102
{ACAD_REACTORS
330
C
102
}
330
C
100
AcDbDictionary
281
     1
  3
Layout1
350
1E
  3
Layout2
350
26
  3
Model
350
22
  0
DICTIONARY
  5
17
102
{ACAD_REACTORS
330
C
102
}
330
C
100
AcDbDictionary
281
     1
  3
Standard
350
18
  0
DICTIONARY
  5
19
102
{ACAD_REACTORS
330
C
102
}
330
C
100
AcDbDictionary
281
     1
  0
ACDBDICTIONARYWDFLT
  5
E
102
{ACAD_REACTORS
330
C
102
}
330
C
100
AcDbDictionary
281
     1
  3
Normal
350
F
100
AcDbDictionaryWithDefault
340
F
  0
DICTIONARY
  5
47
102
{ACAD_REACTORS
330
C
102
}
330
C
100
AcDbDictionary
281
     1
  3
A0
350
48
  3
A1
350
49
  3
A2
350
4A
  3
A3
350
4B
  3
A4
350
4C
  3
A5
350
4D
  3
A6
350
4E
  3
A7
350
4F
  3
A8
350
50
  3
A9
350
51
  3
B0
350
52
  3
B1
350
53
  3
B2
350
54
  3
B3
350
55
  3
B4
350
56
  3
B5
350
57
  3
B6
350
58
  3
B7
350
59
  3
B8
350
5A
  3
B9
350
5B
  3
C0
350
5C
  3
C1
350
5D
  3
C2
350
5E
  3
C3
350
5F
  3
C4
350
60
  3
C5
350
61
  3
C6
350
62
  3
C7
350
63
  3
C8
350
64
  3
C9
350
65
  3
D0
350
66
  3
D1
350
67
  3
D2
350
68
  0
XRECORD
  5
10C
102
{ACAD_REACTORS
330
C
102
}
330
C
100
AcDbXrecord
280
     1
  1
DWGPROPS COOKIE
  2

  3

  4

  6

  7

  8
estudent
  9

300
=
301
=
302
=
303
=
304
=
305
=
306
=
307
=
308
=
309
=
 40
0.0
 41
2459989.28004103
 42
2459989.28004169
  1

 90
        0
  0
LAYOUT
  5
1E
102
{ACAD_REACTORS
330
1A
102
}
330
1A
100
AcDbPlotSettings
  1

  2
none_device
  4

  6

 40
0.0
 41
0.0
 42
0.0
 43
0.0
 44
0.0
 45
0.0
 46
0.0
 47
0.0
 48
0.0
 49
0.0
140
0.0
141
0.0
142
1.0
143
1.0
 70
   688
 72
     1
 73
     0
 74
     5
  7

 75
    16
147
1.0
148
0.0
149
0.0
100
AcDbLayout
  1
Layout1
 70
     1
 71
     1
 10
0.0
 20
0.0
 11
420.0
 21
297.0
 12
0.0
 22
0.0
 32
0.0
 14
1.0000000000E+20
 24
1.0000000000E+20
 34
1.0000000000E+20
 15
-1.0000000000E+20
 25
-1.0000000000E+20
 35
-1.0000000000E+20
146
0.0
 13
0.0
 23
0.0
 33
0.0
 16
1.0
 26
0.0
 36
0.0
 17
0.0
 27
1.0
 37
0.0
 76
     0
330
1B
  0
LAYOUT
  5
26
102
{ACAD_REACTORS
330
1A
102
}
330
1A
100
AcDbPlotSettings
  1

  2
none_device
  4

  6

 40
0.0
 41
0.0
 42
0.0
 43
0.0
 44
0.0
 45
0.0
 46
0.0
 47
0.0
 48
0.0
 49
0.0
140
0.0
141
0.0
142
1.0
143
1.0
 70
   688
 72
     1
 73
     0
 74
     5
  7

 75
    16
147
1.0
148
0.0
149
0.0
100
AcDbLayout
  1
Layout2
 70
     1
 71
     2
 10
0.0
 20
0.0
 11
0.0
 21
0.0
 12
0.0
 22
0.0
 32
0.0
 14
0.0
 24
0.0
 34
0.0
 15
0.0
 25
0.0
 35
0.0
146
0.0
 13
0.0
 23
0.0
 33
0.0
 16
1.0
 26
0.0
 36
0.0
 17
0.0
 27
1.0
 37
0.0
 76
     0
330
23
  0
LAYOUT
  5
22
102
{ACAD_REACTORS
330
1A
102
}
330
1A
100
AcDbPlotSettings
  1

  2
none_device
  4
Letter_(8.50_x_11.00_Inches)
  6

 40
6.35
 41
6.35
 42
6.35000508
 43
6.35000508
 44
215.9
 45
279.4
 46
0.0
 47
0.0
 48
0.0
 49
0.0
140
0.0
141
0.0
142
1.0
143
1.0
 70
  1712
 72
     1
 73
     0
 74
     0
  7

 75
     0
147
1.0
148
0.0
149
0.0
100
AcDbLayout
  1
Model
 70
     1
 71
     0
 10
0.0
 20
0.0
 11
594.0
 21
841.0
 12
0.0
 22
0.0
 32
0.0
 14
0.0
 24
0.0
 34
0.0
 15
594.0
 25
841.0
 35
0.0
146
0.0
 13
0.0
 23
0.0
 33
0.0
 16
1.0
 26
0.0
 36
0.0
 17
0.0
 27
1.0
 37
0.0
 76
     0
330
1F
331
29
  0
MLINESTYLE
  5
18
102
{ACAD_REACTORS
330
17
102
}
330
17
100
AcDbMlineStyle
  2
Standard
 70
     0
  3

 62
   256
 51
90.0
 52
90.0
 71
     2
 49
0.5
 62
   256
  6
BYLAYER
 49
-0.5
 62
   256
  6
BYLAYER
  0
ACDBPLACEHOLDER
  5
F
102
{ACAD_REACTORS
330
E
102
}
330
E
  0
SCALE
  5
48
102
{ACAD_REACTORS
330
47
102
}
330
47
100
AcDbScale
 70
     0
300
1:1
140
1.0
141
1.0
290
     1
  0
SCALE
  5
49
102
{ACAD_REACTORS
330
47
102
}
330
47
100
AcDbScale
 70
     0
300
1:2
140
1.0
141
2.0
290
     0
  0
SCALE
  5
4A
102
{ACAD_REACTORS
330
47
102
}
330
47
100
AcDbScale
 70
     0
300
1:4
140
1.0
141
4.0
290
     0
  0
SCALE
  5
4B
102
{ACAD_REACTORS
330
47
102
}
330
47
100
AcDbScale
 70
     0
300
1:5
140
1.0
141
5.0
290
     0
  0
SCALE
  5
4C
102
{ACAD_REACTORS
330
47
102
}
330
47
100
AcDbScale
 70
     0
300
1:8
140
1.0
141
8.0
290
     0
  0
SCALE
  5
4D
102
{ACAD_REACTORS
330
47
102
}
330
47
100
AcDbScale
 70
     0
300
1:10
140
1.0
141
10.0
290
     0
  0
SCALE
  5
4E
102
{ACAD_REACTORS
330
47
102
}
330
47
100
AcDbScale
 70
     0
300
1:16
140
1.0
141
16.0
290
     0
  0
SCALE
  5
4F
102
{ACAD_REACTORS
330
47
102
}
330
47
100
AcDbScale
 70
     0
300
1:20
140
1.0
141
20.0
290
     0
  0
SCALE
  5
50
102
{ACAD_REACTORS
330
47
102
}
330
47
100
AcDbScale
 70
     0
300
1:30
140
1.0
141
30.0
290
     0
  0
SCALE
  5
51
102
{ACAD_REACTORS
330
47
102
}
330
47
100
AcDbScale
 70
     0
300
1:40
140
1.0
141
40.0
290
     0
  0
SCALE
  5
52
102
{ACAD_REACTORS
330
47
102
}
330
47
100
AcDbScale
 70
     0
300
1:50
140
1.0
141
50.0
290
     0
  0
SCALE
  5
53
102
{ACAD_REACTORS
330
47
102
}
330
47
100
AcDbScale
 70
     0
300
1:100
140
1.0
141
100.0
290
     0
  0
SCALE
  5
54
102
{ACAD_REACTORS
330
47
102
}
330
47
100
AcDbScale
 70
     0
300
2:1
140
2.0
141
1.0
290
     0
  0
SCALE
  5
55
102
{ACAD_REACTORS
330
47
102
}
330
47
100
AcDbScale
 70
     0
300
4:1
140
4.0
141
1.0
290
     0
  0
SCALE
  5
56
102
{ACAD_REACTORS
330
47
102
}
330
47
100
AcDbScale
 70
     0
300
8:1
140
8.0
141
1.0
290
     0
  0
SCALE
  5
57
102
{ACAD_REACTORS
330
47
102
}
330
47
100
AcDbScale
 70
     0
300
10:1
140
10.0
141
1.0
290
     0
  0
SCALE
  5
58
102
{ACAD_REACTORS
330
47
102
}
330
47
100
AcDbScale
 70
     0
300
100:1
140
100.0
141
1.0
290
     0
  0
SCALE
  5
59
102
{ACAD_REACTORS
330
47
102
}
330
47
100
AcDbScale
 70
     0
300
1/128" = 1'-0"
140
0.0078125
141
12.0
290
     0
  0
SCALE
  5
5A
102
{ACAD_REACTORS
330
47
102
}
330
47
100
AcDbScale
 70
     0
300
1/64" = 1'-0"
140
0.015625
141
12.0
290
     0
  0
SCALE
  5
5B
102
{ACAD_REACTORS
330
47
102
}
330
47
100
AcDbScale
 70
     0
300
1/32" = 1'-0"
140
0.03125
141
12.0
290
     0
  0
SCALE
  5
5C
102
{ACAD_REACTORS
330
47
102
}
330
47
100
AcDbScale
 70
     0
300
1/16" = 1'-0"
140
0.0625
141
12.0
290
     0
  0
SCALE
  5
5D
102
{ACAD_REACTORS
330
47
102
}
330
47
100
AcDbScale
 70
     0
300
3/32" = 1'-0"
140
0.09375
141
12.0
290
     0
  0
SCALE
  5
5E
102
{ACAD_REACTORS
330
47
102
}
330
47
100
AcDbScale
 70
     0
300
1/8" = 1'-0"
140
0.125
141
12.0
290
     0
  0
SCALE
  5
5F
102
{ACAD_REACTORS
330
47
102
}
330
47
100
AcDbScale
 70
     0
300
3/16" = 1'-0"
140
0.1875
141
12.0
290
     0
  0
SCALE
  5
60
102
{ACAD_REACTORS
330
47
102
}
330
47
100
AcDbScale
 70
     0
300
1/4" = 1'-0"
140
0.25
141
12.0
290
     0
  0
SCALE
  5
61
102
{ACAD_REACTORS
330
47
102
}
330
47
100
AcDbScale
 70
     0
300
3/8" = 1'-0"
140
0.375
141
12.0
290
     0
  0
SCALE
  5
62
102
{ACAD_REACTORS
330
47
102
}
330
47
100
AcDbScale
 70
     0
300
1/2" = 1'-0"
140
0.5
141
12.0
290
     0
  0
SCALE
  5
63
102
{ACAD_REACTORS
330
47
102
}
330
47
100
AcDbScale
 70
     0
300
3/4" = 1'-0"
140
0.75
141
12.0
290
     0
  0
SCALE
  5
64
102
{ACAD_REACTORS
330
47
102
}
330
47
100
AcDbScale
 70
     0
300
1" = 1'-0"
140
1.0
141
12.0
290
     0
  0
SCALE
  5
65
102
{ACAD_REACTORS
330
47
102
}
330
47
100
AcDbScale
 70
     0
300
1-1/2" = 1'-0"
140
1.5
141
12.0
290
     0
  0
SCALE
  5
66
102
{ACAD_REACTORS
330
47
102
}
330
47
100
AcDbScale
 70
     0
300
3" = 1'-0"
140
3.0
141
12.0
290
     0
  0
SCALE
  5
67
102
{ACAD_REACTORS
330
47
102
}
330
47
100
AcDbScale
 70
     0
300
6" = 1'-0"
140
6.0
141
12.0
290
     0
  0
SCALE
  5
68
102
{ACAD_REACTORS
330
47
102
}
330
47
100
AcDbScale
 70
     0
300
1'-0" = 1'-0"
140
12.0
141
12.0
290
     0
  0
ENDSEC
  0
EOF
