  0
SECTION
  2
HEADER
  9
$ACADVER
  1
AC1015
  9
$ACADMAINTVER
 70
     6
  9
$DWGCODEPAGE
  3
ANSI_1252
  9
$INSBASE
 10
0.0
 20
0.0
 30
0.0
  9
$EXTMIN
 10
0.0
 20
0.0
 30
0.0
  9
$EXTMAX
 10
1189.0
 20
841.0
 30
0.0
  9
$LIMMIN
 10
0.0
 20
0.0
  9
$LIMMAX
 10
1189.0
 20
841.0
  9
$ORTHOMODE
 70
     0
  9
$REGENMODE
 70
     1
  9
$FILLMODE
 70
     1
  9
$QTEXTMODE
 70
     0
  9
$MIRRTEXT
 70
     1
  9
$LTSCALE
 40
1.0
  9
$ATTMODE
 70
     1
  9
$TEXTSIZE
 40
10.0
  9
$TRACEWID
 40
1.0
  9
$TEXTSTYLE
  7
Standard
  9
$CLAYER
  8
0
  9
$CELTYPE
  6
ByLayer
  9
$CECOLOR
 62
   256
  9
$CELTSCALE
 40
1.0
  9
$DISPSILH
 70
     0
  9
$DIMSCALE
 40
1.0
  9
$DIMASZ
 40
2.5
  9
$DIMEXO
 40
0.0
  9
$DIMDLI
 40
3.75
  9
$DIMRND
 40
0.0
  9
$DIMDLE
 40
0.0
  9
$DIMEXE
 40
1.0
  9
$DIMTP
 40
0.0
  9
$DIMTM
 40
0.0
  9
$DIMTXT
 40
3.5
  9
$DIMCEN
 40
2.5
  9
$DIMTSZ
 40
0.0
  9
$DIMTOL
 70
     0
  9
$DIMLIM
 70
     0
  9
$DIMTIH
 70
     1
  9
$DIMTOH
 70
     1
  9
$DIMSE1
 70
     0
  9
$DIMSE2
 70
     0
  9
$DIMTAD
 70
     1
  9
$DIMZIN
 70
     0
  9
$DIMBLK
  1

  9
$DIMASO
 70
     1
  9
$DIMSHO
 70
     1
  9
$DIMPOST
  1

  9
$DIMAPOST
  1

  9
$DIMALT
 70
     0
  9
$DIMALTD
 70
     3
  9
$DIMALTF
 40
0.0393700787
  9
$DIMLFAC
 40
1.0
  9
$DIMTOFL
 70
     1
  9
$DIMTVP
 40
0.0
  9
$DIMTIX
 70
     0
  9
$DIMSOXD
 70
     0
  9
$DIMSAH
 70
     0
  9
$DIMBLK1
  1

  9
$DIMBLK2
  1

  9
$DIMSTYLE
  2
ISO-25
  9
$DIMCLRD
 70
     0
  9
$DIMCLRE
 70
     0
  9
$DIMCLRT
 70
     0
  9
$DIMTFAC
 40
1.0
  9
$DIMGAP
 40
1.5
  9
$DIMJUST
 70
     0
  9
$DIMSD1
 70
     0
  9
$DIMSD2
 70
     0
  9
$DIMTOLJ
 70
     0
  9
$DIMTZIN
 70
     0
  9
$DIMALTZ
 70
     0
  9
$DIMALTTZ
 70
     0
  9
$DIMUPT
 70
     0
  9
$DIMDEC
 70
     2
  9
$DIMTDEC
 70
     2
  9
$DIMALTU
 70
     2
  9
$DIMALTTD
 70
     3
  9
$DIMTXSTY
  7
Standard
  9
$DIMAUNIT
 70
     0
  9
$DIMADEC
 70
     2
  9
$DIMALTRND
 40
0.0
  9
$DIMAZIN
 70
     0
  9
$DIMDSEP
 70
    44
  9
$DIMATFIT
 70
     3
  9
$DIMFRAC
 70
     0
  9
$DIMLDRBLK
  1

  9
$DIMLUNIT
 70
     2
  9
$DIMLWD
 70
    -2
  9
$DIMLWE
 70
    -2
  9
$DIMTMOVE
 70
     0
  9
$LUNITS
 70
     2
  9
$LUPREC
 70
     2
  9
$SKETCHINC
 40
1.0
  9
$FILLETRAD
 40
10.0
  9
$AUNITS
 70
     0
  9
$AUPREC
 70
     2
  9
$MENU
  1
.
  9
$ELEVATION
 40
0.0
  9
$PELEVATION
 40
0.0
  9
$THICKNESS
 40
0.0
  9
$LIMCHECK
 70
     0
  9
$CHAMFERA
 40
0.0
  9
$CHAMFERB
 40
0.0
  9
$CHAMFERC
 40
0.0
  9
$CHAMFERD
 40
0.0
  9
$SKPOLY
 70
     0
  9
$TDCREATE
 40
2458410.593362801
  9
$TDUCREATE
 40
2458410.510029468
  9
$TDUPDATE
 40
2458410.593364977
  9
$TDUUPDATE
 40
2458410.510031643
  9
$TDINDWG
 40
0.0000000116
  9
$TDUSRTIMER
 40
0.0000000116
  9
$USRTIMER
 70
     1
  9
$ANGBASE
 50
0.0
  9
$ANGDIR
 70
     0
  9
$PDMODE
 70
     0
  9
$PDSIZE
 40
-1.0
  9
$PLINEWID
 40
0.0
  9
$SPLFRAME
 70
     0
  9
$SPLINETYPE
 70
     6
  9
$SPLINESEGS
 70
     8
  9
$HANDSEED
  5
250
  9
$SURFTAB1
 70
     6
  9
$SURFTAB2
 70
     6
  9
$SURFTYPE
 70
     6
  9
$SURFU
 70
     6
  9
$SURFV
 70
     6
  9
$UCSBASE
  2

  9
$UCSNAME
  2

  9
$UCSORG
 10
0.0
 20
0.0
 30
0.0
  9
$UCSXDIR
 10
1.0
 20
0.0
 30
0.0
  9
$UCSYDIR
 10
0.0
 20
1.0
 30
0.0
  9
$UCSORTHOREF
  2

  9
$UCSORTHOVIEW
 70
     0
  9
$UCSORGTOP
 10
0.0
 20
0.0
 30
0.0
  9
$UCSORGBOTTOM
 10
0.0
 20
0.0
 30
0.0
  9
$UCSORGLEFT
 10
0.0
 20
0.0
 30
0.0
  9
$UCSORGRIGHT
 10
0.0
 20
0.0
 30
0.0
  9
$UCSORGFRONT
 10
0.0
 20
0.0
 30
0.0
  9
$UCSORGBACK
 10
0.0
 20
0.0
 30
0.0
  9
$PUCSBASE
  2

  9
$PUCSNAME
  2

  9
$PUCSORG
 10
0.0
 20
0.0
 30
0.0
  9
$PUCSXDIR
 10
1.0
 20
0.0
 30
0.0
  9
$PUCSYDIR
 10
0.0
 20
1.0
 30
0.0
  9
$PUCSORTHOREF
  2

  9
$PUCSORTHOVIEW
 70
     0
  9
$PUCSORGTOP
 10
0.0
 20
0.0
 30
0.0
  9
$PUCSORGBOTTOM
 10
0.0
 20
0.0
 30
0.0
  9
$PUCSORGLEFT
 10
0.0
 20
0.0
 30
0.0
  9
$PUCSORGRIGHT
 10
0.0
 20
0.0
 30
0.0
  9
$PUCSORGFRONT
 10
0.0
 20
0.0
 30
0.0
  9
$PUCSORGBACK
 10
0.0
 20
0.0
 30
0.0
  9
$USERI1
 70
     0
  9
$USERI2
 70
     0
  9
$USERI3
 70
     0
  9
$USERI4
 70
     0
  9
$USERI5
 70
     0
  9
$USERR1
 40
0.0
  9
$USERR2
 40
0.0
  9
$USERR3
 40
0.0
  9
$USERR4
 40
0.0
  9
$USERR5
 40
0.0
  9
$WORLDVIEW
 70
     1
  9
$SHADEDGE
 70
     3
  9
$SHADEDIF
 70
    70
  9
$TILEMODE
 70
     1
  9
$MAXACTVP
 70
    64
  9
$PINSBASE
 10
0.0
 20
0.0
 30
0.0
  9
$PLIMCHECK
 70
     0
  9
$PEXTMIN
 10
1.0000000000E+20
 20
1.0000000000E+20
 30
1.0000000000E+20
  9
$PEXTMAX
 10
-1.0000000000E+20
 20
-1.0000000000E+20
 30
-1.0000000000E+20
  9
$PLIMMIN
 10
0.0
 20
0.0
  9
$PLIMMAX
 10
420.0
 20
297.0
  9
$UNITMODE
 70
     0
  9
$VISRETAIN
 70
     1
  9
$PLINEGEN
 70
     0
  9
$PSLTSCALE
 70
     1
  9
$TREEDEPTH
 70
  3020
  9
$CMLSTYLE
  2
Standard
  9
$CMLJUST
 70
     0
  9
$CMLSCALE
 40
20.0
  9
$PROXYGRAPHICS
 70
     1
  9
$MEASUREMENT
 70
     1
  9
$CELWEIGHT
370
    -1
  9
$ENDCAPS
280
     0
  9
$JOINSTYLE
280
     0
  9
$LWDISPLAY
290
     1
  9
$INSUNITS
 70
     4
  9
$HYPERLINKBASE
  1

  9
$STYLESHEET
  1

  9
$XEDIT
290
     1
  9
$CEPSNTYPE
380
     0
  9
$PSTYLEMODE
290
     1
  9
$FINGERPRINTGUID
  2
{21F1CFC5-5368-4051-8707-889445F68E69}
  9
$VERSIONGUID
  2
{FAEB1C32-E019-11D5-929B-00C0DF256EC4}
  9
$EXTNAMES
290
     1
  9
$PSVPSCALE
 40
0.0
  9
$OLESTARTUP
290
     0
  0
ENDSEC
  0
SECTION
  2
CLASSES
  0
CLASS
  1
ACDBDICTIONARYWDFLT
  2
AcDbDictionaryWithDefault
  3
ObjectDBX Classes
 90
        0
280
     0
281
     0
  0
CLASS
  1
VISUALSTYLE
  2
AcDbVisualStyle
  3
ObjectDBX Classes
 90
     4095
280
     0
281
     0
  0
CLASS
  1
MATERIAL
  2
AcDbMaterial
  3
ObjectDBX Classes
 90
     1153
280
     0
281
     0
  0
CLASS
  1
SCALE
  2
AcDbScale
  3
ObjectDBX Classes
 90
     1153
280
     0
281
     0
  0
CLASS
  1
TABLESTYLE
  2
AcDbTableStyle
  3
ObjectDBX Classes
 90
     4095
280
     0
281
     0
  0
CLASS
  1
MLEADERSTYLE
  2
AcDbMLeaderStyle
  3
ACDB_MLEADERSTYLE_CLASS
 90
     4095
280
     0
281
     0
  0
CLASS
  1
SUN
  2
AcDbSun
  3
SCENEOE
 90
     1153
280
     0
281
     0
  0
CLASS
  1
ACDBPLACEHOLDER
  2
AcDbPlaceHolder
  3
ObjectDBX Classes
 90
        0
280
     0
281
     0
  0
CLASS
  1
LAYOUT
  2
AcDbLayout
  3
ObjectDBX Classes
 90
        0
280
     0
281
     0
  0
ENDSEC
  0
SECTION
  2
TABLES
  0
TABLE
  2
VPORT
  5
8
330
0
100
AcDbSymbolTable
 70
     1
  0
VPORT
  5
29
330
8
100
AcDbSymbolTableRecord
100
AcDbViewportTableRecord
  2
*Active
 70
     0
 10
0.0
 20
0.0
 11
1.0
 21
1.0
 12
594.5
 22
420.5
 13
0.0
 23
0.0
 14
10.0
 24
10.0
 15
10.0
 25
10.0
 16
0.0
 26
0.0
 36
1.0
 17
0.0
 27
0.0
 37
0.0
 40
841.0
 41
1.4137931034
 42
50.0
 43
0.0
 44
0.0
 50
0.0
 51
0.0
 71
     0
 72
  2000
 73
     1
 74
     3
 75
     0
 76
     0
 77
     0
 78
     0
281
     0
 65
     1
110
0.0
120
0.0
130
0.0
111
1.0
121
0.0
131
0.0
112
0.0
122
1.0
132
0.0
 79
     0
146
0.0
  0
ENDTAB
  0
TABLE
  2
LTYPE
  5
5
330
0
100
AcDbSymbolTable
 70
     6
  0
LTYPE
  5
14
330
5
100
AcDbSymbolTableRecord
100
AcDbLinetypeTableRecord
  2
ByBlock
 70
     0
  3

 72
    65
 73
     0
 40
0.0
  0
LTYPE
  5
15
330
5
100
AcDbSymbolTableRecord
100
AcDbLinetypeTableRecord
  2
ByLayer
 70
     0
  3

 72
    65
 73
     0
 40
0.0
  0
LTYPE
  5
16
330
5
100
AcDbSymbolTableRecord
100
AcDbLinetypeTableRecord
  2
Continuous
 70
     0
  3
Solid line
 72
    65
 73
     0
 40
0.0
  0
LTYPE
  5
6E
330
5
100
AcDbSymbolTableRecord
100
AcDbLinetypeTableRecord
  2
HIDDEN
 70
     0
  3
Hidden __ __ __ __ __ __ __ __ __ __ __ __ __ __
 72
    65
 73
     2
 40
1.905
 49
1.27
 74
     0
 49
-0.635
 74
     0
  0
LTYPE
  5
6F
330
5
100
AcDbSymbolTableRecord
100
AcDbLinetypeTableRecord
  2
PHANTOM
 70
     0
  3
Phantom ______  __  __  ______  __  __  ______
 72
    65
 73
     6
 40
12.7
 49
6.35
 74
     0
 49
-1.27
 74
     0
 49
1.27
 74
     0
 49
-1.27
 74
     0
 49
1.27
 74
     0
 49
-1.27
 74
     0
  0
LTYPE
  5
70
330
5
100
AcDbSymbolTableRecord
100
AcDbLinetypeTableRecord
  2
CENTER
 70
     0
  3
Center ____ _ ____ _ ____ _ ____ _ ____ _ ____
 72
    65
 73
     4
 40
10.16
 49
6.35
 74
     0
 49
-1.27
 74
     0
 49
1.27
 74
     0
 49
-1.27
 74
     0
  0
LTYPE
  5
71
330
5
100
AcDbSymbolTableRecord
100
AcDbLinetypeTableRecord
  2
CENTERX2
 70
     0
  3
Center (2x) ________  __  ________  __  _____
 72
    65
 73
     4
 40
20.32
 49
12.7
 74
     0
 49
-2.54
 74
     0
 49
2.54
 74
     0
 49
-2.54
 74
     0
  0
LTYPE
  5
72
330
5
100
AcDbSymbolTableRecord
100
AcDbLinetypeTableRecord
  2
DOT2
 70
     0
  3
Dot (.5x) ........................................
 72
    65
 73
     2
 40
0.635
 49
0.0
 74
     0
 49
-0.635
 74
     0
  0
ENDTAB
  0
TABLE
  2
LAYER
  5
2
330
0
100
AcDbSymbolTable
 70
     1
  0
LAYER
  5
10
330
2
100
AcDbSymbolTableRecord
100
AcDbLayerTableRecord
  2
0
 70
     0
 62
     7
  6
Continuous
370
    -3
390
F
  0
ENDTAB
  0
TABLE
  2
STYLE
  5
3
330
0
100
AcDbSymbolTable
 70
     3
  0
STYLE
  5
11
330
3
100
AcDbSymbolTableRecord
100
AcDbTextStyleTableRecord
  2
Standard
 70
     0
 40
0.0
 41
1.0
 50
0.0
 71
     0
 42
10.0
  3
txt
  4

  0
STYLE
  5
76
330
3
100
AcDbSymbolTableRecord
100
AcDbTextStyleTableRecord
  2
SLDTEXTSTYLE0
 70
     0
 40
0.0
 41
0.96
 50
0.0
 71
     0
 42
10.0
  3
ISOCP3
  4

  0
STYLE
  5
8D
330
3
100
AcDbSymbolTableRecord
100
AcDbTextStyleTableRecord
  2
SLDTEXTSTYLE1
 70
     0
 40
0.0
 41
0.605
 50
0.0
 71
     0
 42
10.0
  3
TXT
  4

  0
ENDTAB
  0
TABLE
  2
VIEW
  5
6
330
0
100
AcDbSymbolTable
 70
     0
  0
ENDTAB
  0
TABLE
  2
UCS
  5
7
330
0
100
AcDbSymbolTable
 70
     0
  0
ENDTAB
  0
TABLE
  2
APPID
  5
9
330
0
100
AcDbSymbolTable
 70
     1
  0
APPID
  5
12
330
9
100
AcDbSymbolTableRecord
100
AcDbRegAppTableRecord
  2
ACAD
 70
     0
  0
ENDTAB
  0
TABLE
  2
DIMSTYLE
  5
A
330
0
100
AcDbSymbolTable
 70
     2
100
AcDbDimStyleTable
  0
DIMSTYLE
105
27
330
A
100
AcDbSymbolTableRecord
100
AcDbDimStyleTableRecord
  2
ISO-25
 70
     0
 41
2.5
 42
0.625
 43
3.75
 44
1.25
 73
     0
 74
     0
 77
     1
 78
     8
140
2.5
141
2.5
143
0.0393700787
147
0.625
171
     3
172
     1
178
     0
271
     2
272
     2
274
     3
278
    44
283
     0
284
     8
340
11
  0
DIMSTYLE
105
77
102
{ACAD_REACTORS
330
75
330
82
102
}
330
A
100
AcDbSymbolTableRecord
100
AcDbDimStyleTableRecord
  2
SLDDIMSTYLE0
 70
     0
 41
2.5
 44
0.0
 45
0.000000001
 73
     0
 74
     0
 77
     1
 78
    12
 79
     3
140
6.0
147
1.5
173
     1
178
     0
271
     2
272
     2
276
     2
284
    12
340
76
  0
ENDTAB
  0
TABLE
  2
BLOCK_RECORD
  5
1
330
0
100
AcDbSymbolTable
 70
     3
  0
BLOCK_RECORD
  5
1F
330
1
100
AcDbSymbolTableRecord
100
AcDbBlockTableRecord
  2
*Model_Space
340
22
  0
BLOCK_RECORD
  5
1B
330
1
100
AcDbSymbolTableRecord
100
AcDbBlockTableRecord
  2
*Paper_Space
340
1E
  0
BLOCK_RECORD
  5
23
330
1
100
AcDbSymbolTableRecord
100
AcDbBlockTableRecord
  2
*Paper_Space0
340
26
  0
BLOCK_RECORD
  5
78
330
1
100
AcDbSymbolTableRecord
100
AcDbBlockTableRecord
  2
_D
340
0
  0
BLOCK_RECORD
  5
83
330
1
100
AcDbSymbolTableRecord
100
AcDbBlockTableRecord
  2
_D_1
340
0
  0
ENDTAB
  0
ENDSEC
  0
SECTION
  2
BLOCKS
  0
BLOCK
  5
20
330
1F
100
AcDbEntity
  8
0
100
AcDbBlockBegin
  2
*Model_Space
 70
     0
 10
0.0
 20
0.0
 30
0.0
  3
*Model_Space
  1

  0
ENDBLK
  5
21
330
1F
100
AcDbEntity
  8
0
100
AcDbBlockEnd
  0
BLOCK
  5
1C
330
1B
100
AcDbEntity
 67
     1
  8
0
100
AcDbBlockBegin
  2
*Paper_Space
 70
     0
 10
0.0
 20
0.0
 30
0.0
  3
*Paper_Space
  1

  0
ENDBLK
  5
1D
330
1B
100
AcDbEntity
 67
     1
  8
0
100
AcDbBlockEnd
  0
BLOCK
  5
24
330
23
100
AcDbEntity
  8
0
100
AcDbBlockBegin
  2
*Paper_Space0
 70
     0
 10
0.0
 20
0.0
 30
0.0
  3
*Paper_Space0
  1

  0
ENDBLK
  5
25
330
23
100
AcDbEntity
  8
0
100
AcDbBlockEnd
  0
BLOCK
  5
79
330
78
100
AcDbEntity
  8
0
100
AcDbBlockBegin
  2
_D
 70
     0
 10
0.0
 20
0.0
 30
0.0
  3
_D
  1

  0
SOLID
  5
7B
330
78
100
AcDbEntity
  8
0
  6
Continuous
 62
     7
370
    18
100
AcDbTrace
 10
42.7614395004
 20
152.0299240879
 30
0.0
 11
42.4614395004
 21
149.5299240879
 31
0.0
 12
43.0614395004
 22
149.5299240879
 32
0.0
 13
43.0614395004
 23
149.5299240879
 33
0.0
  0
SOLID
  5
7C
330
78
100
AcDbEntity
  8
0
  6
Continuous
 62
     7
370
    18
100
AcDbTrace
 10
42.7614395004
 20
52.0299240879
 30
0.0
 11
43.0614395004
 21
54.5299240879
 31
0.0
 12
42.4614395004
 22
54.5299240879
 32
0.0
 13
42.4614395004
 23
54.5299240879
 33
0.0
  0
LINE
  5
7D
330
78
100
AcDbEntity
  8
0
  6
Continuous
 62
     7
370
    18
100
AcDbLine
 10
56.6850079902
 20
152.0299240879
 30
0.0
 11
41.7614395004
 21
152.0299240879
 31
0.0
  0
LINE
  5
7E
330
78
100
AcDbEntity
  8
0
  6
Continuous
 62
     7
370
    18
100
AcDbLine
 10
56.6850079902
 20
52.0299240879
 30
0.0
 11
41.7614395004
 21
52.0299240879
 31
0.0
  0
LINE
  5
7F
330
78
100
AcDbEntity
  8
0
  6
Continuous
 62
     7
370
    18
100
AcDbLine
 10
42.7614395004
 20
152.0299240879
 30
0.0
 11
42.7614395004
 21
52.0299240879
 31
0.0
  0
MTEXT
  5
80
330
78
100
AcDbEntity
  8
0
  6
Continuous
 62
     7
370
    18
100
AcDbMText
 10
35.0270332946
 20
94.3680541463
 30
0.0
 40
6.0
 41
0.0
 71
     1
 72
     1
  1
100
  7
SLDTEXTSTYLE0
 11
-7.044195017643634E-15
 21
1.0
 31
0.0
 73
     1
 44
1.0
  0
MTEXT
  5
81
330
78
100
AcDbEntity
  8
0
  6
Continuous
 62
     7
370
    18
100
AcDbMText
 10
35.0270332946
 20
105.7430548466
 30
0.0
 40
6.0
 41
0.0
 71
     1
 72
     1
  1
mm
  7
SLDTEXTSTYLE0
 11
-7.044195017643634E-15
 21
1.0
 31
0.0
 73
     1
 44
1.0
  0
ENDBLK
  5
7A
330
78
100
AcDbEntity
  8
0
100
AcDbBlockEnd
  0
BLOCK
  5
84
330
83
100
AcDbEntity
  8
0
100
AcDbBlockBegin
  2
_D_1
 70
     0
 10
0.0
 20
0.0
 30
0.0
  3
_D_1
  1

  0
SOLID
  5
86
330
83
100
AcDbEntity
  8
0
  6
Continuous
 62
     7
370
    18
100
AcDbTrace
 10
56.6850079902
 20
38.4602342313
 30
0.0
 11
59.1850079902
 21
38.1602342313
 31
0.0
 12
59.1850079902
 22
38.7602342313
 32
0.0
 13
59.1850079902
 23
38.7602342313
 33
0.0
  0
SOLID
  5
87
330
83
100
AcDbEntity
  8
0
  6
Continuous
 62
     7
370
    18
100
AcDbTrace
 10
156.6850079902
 20
38.4602342313
 30
0.0
 11
154.1850079902
 21
38.7602342313
 31
0.0
 12
154.1850079902
 22
38.1602342313
 32
0.0
 13
154.1850079902
 23
38.1602342313
 33
0.0
  0
LINE
  5
88
330
83
100
AcDbEntity
  8
0
  6
Continuous
 62
     7
370
    18
100
AcDbLine
 10
56.6850079902
 20
52.0299240879
 30
0.0
 11
56.6850079902
 21
37.4602342313
 31
0.0
  0
LINE
  5
89
330
83
100
AcDbEntity
  8
0
  6
Continuous
 62
     7
370
    18
100
AcDbLine
 10
156.6850079902
 20
52.0299240879
 30
0.0
 11
156.6850079902
 21
37.4602342313
 31
0.0
  0
LINE
  5
8A
330
83
100
AcDbEntity
  8
0
  6
Continuous
 62
     7
370
    18
100
AcDbLine
 10
56.6850079902
 20
38.4602342313
 30
0.0
 11
156.6850079902
 21
38.4602342313
 31
0.0
  0
MTEXT
  5
8B
330
83
100
AcDbEntity
  8
0
  6
Continuous
 62
     7
370
    18
100
AcDbMText
 10
93.9626484861
 20
46.1946404371
 30
0.0
 40
6.0
 41
0.0
 71
     1
 72
     1
  1
100
  7
SLDTEXTSTYLE0
 73
     1
 44
1.0
  0
MTEXT
  5
8C
330
83
100
AcDbEntity
  8
0
  6
Continuous
 62
     7
370
    18
100
AcDbMText
 10
105.3376491864
 20
46.1946404371
 30
0.0
 40
6.0
 41
0.0
 71
     1
 72
     1
  1
mm
  7
SLDTEXTSTYLE0
 73
     1
 44
1.0
  0
ENDBLK
  5
85
330
83
100
AcDbEntity
  8
0
100
AcDbBlockEnd
  0
ENDSEC
  0
SECTION
  2
ENTITIES
  0
LINE
  5
73
330
1F
100
AcDbEntity
  8
0
  6
Continuous
 62
     7
370
    18
100
AcDbLine
 10
56.6850079902
 20
152.0299240879
 30
0.0
 11
56.6850079902
 21
52.0299240879
 31
0.0
  0
LINE
  5
74
330
1F
100
AcDbEntity
  8
0
  6
Continuous
 62
     7
370
    18
100
AcDbLine
 10
56.6850079902
 20
52.0299240879
 30
0.0
 11
156.6850079902
 21
52.0299240879
 31
0.0
  0
DIMENSION
  5
75
330
1F
100
AcDbEntity
  8
0
  6
Continuous
 62
     7
370
    18
100
AcDbDimension
  2
_D
 10
42.7614395004
 20
52.0299240879
 30
0.0
 11
42.7614395004
 21
105.4472211621
 31
0.0
 70
   160
  1
<>mm
 71
     2
 42
-1.0
  3
SLDDIMSTYLE0
100
AcDbAlignedDimension
 13
56.6850079902
 23
152.0299240879
 33
0.0
 14
56.6850079902
 24
52.0299240879
 34
0.0
 50
90.0
100
AcDbRotatedDimension
  0
DIMENSION
  5
82
330
1F
100
AcDbEntity
  8
0
  6
Continuous
 62
     7
370
    18
100
AcDbDimension
  2
_D_1
 10
156.6850079902
 20
38.4602342313
 30
0.0
 11
105.0418155019
 21
38.4602342313
 31
0.0
 70
   160
  1
<>mm
 71
     2
 42
-1.0
  3
SLDDIMSTYLE0
100
AcDbAlignedDimension
 13
56.6850079902
 23
52.0299240879
 33
0.0
 14
156.6850079902
 24
52.0299240879
 34
0.0
100
AcDbRotatedDimension
  0
MTEXT
  5
8E
330
1F
100
AcDbEntity
  8
0
  6
Continuous
 62
     7
370
     0
100
AcDbMText
 10
1007.6538988942
 20
47.9367134955
 30
0.0
 40
10.0
 41
0.0
 71
     1
 72
     1
  1
KLUDI GmbH & Co KG
  7
SLDTEXTSTYLE1
 73
     1
 44
1.0
  0
MTEXT
  5
8F
330
1F
100
AcDbEntity
  8
0
  6
Continuous
 62
     7
370
     0
100
AcDbMText
 10
558.6103101482
 20
47.2130573254
 30
0.0
 40
10.0
 41
0.0
 71
     1
 72
     1
  1
48 393 05 65
  7
SLDTEXTSTYLE1
 73
     1
 44
1.0
  0
LINE
  5
90
330
1F
100
AcDbEntity
  8
0
  6
Continuous
 62
     7
370
    25
100
AcDbLine
 10
217.7522956093
 20
423.7791947409
 30
0.0
 11
217.7522956093
 21
415.7791943609
 31
0.0
  0
LINE
  5
91
330
1F
100
AcDbEntity
  8
0
  6
Continuous
 62
     7
370
    25
100
AcDbLine
 10
271.7523007353
 20
415.7791943609
 30
0.0
 11
271.7523007353
 21
423.7791947409
 31
0.0
  0
ARC
  5
92
330
1F
100
AcDbEntity
  8
0
  6
Continuous
 62
     7
370
    25
100
AcDbCircle
 10
270.2522996624
 20
423.7791943609
 30
0.0
 40
1.499999999999943
100
AcDbArc
 50
0.0
 51
90.0
  0
ARC
  5
93
330
1F
100
AcDbEntity
  8
0
  6
Continuous
 62
     7
370
    25
100
AcDbCircle
 10
219.2522996624
 20
423.7791943609
 30
0.0
 40
1.5
100
AcDbArc
 50
90.0
 51
180.0
  0
LINE
  5
94
330
1F
100
AcDbEntity
  8
0
  6
Continuous
 62
     7
370
    25
100
AcDbLine
 10
229.2614756782
 20
426.1791943892
 30
0.0
 11
229.2614756782
 21
425.2791940554
 31
0.0
  0
LINE
  5
95
330
1F
100
AcDbEntity
  8
0
  6
Continuous
 62
     7
370
    25
100
AcDbLine
 10
260.2431281169
 20
425.2791940554
 30
0.0
 11
260.2431281169
 21
426.1791943892
 31
0.0
  0
LINE
  5
96
330
1F
100
AcDbEntity
  8
0
  6
Continuous
 62
     7
370
    25
100
AcDbLine
 10
181.5623669584
 20
458.3775648235
 30
0.0
 11
180.8543382843
 21
458.3764844894
 31
0.0
  0
SPLINE
  5
97
330
1F
100
AcDbEntity
  8
0
  6
Continuous
 62
     7
370
    25
100
AcDbSpline
210
0.0
220
0.0
230
1.0
 70
     8
 71
     3
 72
     9
 73
     5
 74
     0
 42
0.000000001
 43
0.00000001
 40
0.0
 40
0.0
 40
0.0
 40
0.0
 40
0.5012991493349789
 40
0.9999999999999999
 40
0.9999999999999999
 40
0.9999999999999999
 40
0.9999999999999999
 10
215.950730319768
 20
452.9011049627426
 30
0.0
 10
216.220277353168
 20
452.8566347026566
 30
0.0
 10
216.7579743226474
 20
452.7679246776245
 30
0.0
 10
217.2707677801988
 20
452.6531715600197
 30
0.0
 10
217.526498313695
 20
452.5959440826538
 30
0.0
  0
SPLINE
  5
98
330
1F
100
AcDbEntity
  8
0
  6
Continuous
 62
     7
370
    25
100
AcDbSpline
210
0.0
220
0.0
230
1.0
 70
     8
 71
     3
 72
    16
 73
    12
 74
     0
 42
0.000000001
 43
0.00000001
 40
0.0
 40
0.0
 40
0.0
 40
0.0
 40
0.0943539274796769
 40
0.1744569792658922
 40
0.3042139470062764
 40
0.4034725654617279
 40
0.4772057512274768
 40
0.5579587919611877
 40
0.6668133651015317
 40
0.8129531567367156
 40
1.0
 40
1.0
 40
1.0
 40
1.0
 10
217.5267367322741
 20
452.5958919285896
 30
0.0
 10
218.2004513815764
 20
452.4180396686352
 30
0.0
 10
219.4461252580535
 20
452.0891973103355
 30
0.0
 10
221.4853498343544
 20
451.1367376252428
 30
0.0
 10
223.3744371216219
 20
449.8260571582924
 30
0.0
 10
224.8950845233971
 20
448.1751359948737
 30
0.0
 10
225.9366685335498
 20
446.6158510172019
 30
0.0
 10
226.7833442219516
 20
444.8625863974258
 30
0.0
 10
227.4967268439576
 20
442.4781777579262
 30
0.0
 10
227.803799719901
 20
439.2190855163599
 30
0.0
 10
227.7707406923341
 20
436.7638342239591
 30
0.0
 10
227.7521817643939
 20
435.3854866086605
 30
0.0
  0
ARC
  5
99
330
1F
100
AcDbEntity
  8
0
  6
Continuous
 62
     7
370
    25
100
AcDbCircle
 10
470.2522996624
 20
423.7791943609
 30
0.0
 40
1.500000000000057
100
AcDbArc
 50
0.0
 51
90.0
  0
ARC
  5
9A
330
1F
100
AcDbEntity
  8
0
  6
Continuous
 62
     7
370
    25
100
AcDbCircle
 10
419.2522996624
 20
423.7791943609
 30
0.0
 40
1.500000000000057
100
AcDbArc
 50
90.0
 51
180.0
  0
LINE
  5
9B
330
1F
100
AcDbEntity
  8
0
  6
Continuous
 62
     7
370
    25
100
AcDbLine
 10
417.7522985895
 20
423.7791947409
 30
0.0
 11
417.7522985895
 21
415.7791943609
 31
0.0
  0
LINE
  5
9C
330
1F
100
AcDbEntity
  8
0
  6
Continuous
 62
     7
370
    25
100
AcDbLine
 10
471.7523037155
 20
415.7791943609
 30
0.0
 11
471.7523037155
 21
423.7791947409
 31
0.0
  0
LINE
  5
9D
330
1F
100
AcDbEntity
  8
0
  6
Continuous
 62
     7
370
    25
100
AcDbLine
 10
428.6120562513
 20
426.1791943892
 30
0.0
 11
428.6120562513
 21
425.2791940554
 31
0.0
  0
LINE
  5
9E
330
1F
100
AcDbEntity
  8
0
  6
Continuous
 62
     7
370
    25
100
AcDbLine
 10
460.8925386031
 20
425.2791940554
 30
0.0
 11
460.8925386031
 21
426.1791943892
 31
0.0
  0
LINE
  5
9F
330
1F
100
AcDbEntity
  8
0
  6
Continuous
 62
     7
370
    25
100
AcDbLine
 10
508.6502610405
 20
458.3764844894
 30
0.0
 11
507.9422323664
 21
458.3775648235
 31
0.0
  0
SPLINE
  5
A0
330
1F
100
AcDbEntity
  8
0
  6
Continuous
 62
     7
370
    25
100
AcDbSpline
210
0.0
220
0.0
230
1.0
 70
     8
 71
     3
 72
    16
 73
    12
 74
     0
 42
0.000000001
 43
0.00000001
 40
0.0
 40
0.0
 40
0.0
 40
0.0
 40
0.1870468432632843
 40
0.3331866348984683
 40
0.4420412080388123
 40
0.5227942487725232
 40
0.5965274345382721
 40
0.6957860529937235
 40
0.8255430207341077
 40
0.905646072520323
 40
1.0
 40
1.0
 40
1.0
 40
1.0
 10
461.7524175603687
 20
435.3854866086605
 30
0.0
 10
461.7338586324284
 20
436.7638342239591
 30
0.0
 10
461.7007996048616
 20
439.2190855163599
 30
0.0
 10
462.0078724808049
 20
442.4781777579262
 30
0.0
 10
462.7212551028109
 20
444.8625863974258
 30
0.0
 10
463.5679307912127
 20
446.6158510172019
 30
0.0
 10
464.6095148013654
 20
448.1751359948738
 30
0.0
 10
466.1301622031406
 20
449.8260571582924
 30
0.0
 10
468.0192494904081
 20
451.1367376252428
 30
0.0
 10
470.058474066709
 20
452.0891973103355
 30
0.0
 10
471.3041479431861
 20
452.4180396686352
 30
0.0
 10
471.9778625924884
 20
452.5958919285896
 30
0.0
  0
SPLINE
  5
A1
330
1F
100
AcDbEntity
  8
0
  6
Continuous
 62
     7
370
    25
100
AcDbSpline
210
0.0
220
0.0
230
1.0
 70
     8
 71
     3
 72
     9
 73
     5
 74
     0
 42
0.000000001
 43
0.00000001
 40
0.0
 40
0.0
 40
0.0
 40
0.0
 40
0.4986962532777299
 40
1.0
 40
1.0
 40
1.0
 40
1.0
 10
471.9769387204944
 20
452.5956870376232
 30
0.0
 10
472.2328980869653
 20
452.6529762040975
 30
0.0
 10
472.7461551342935
 20
452.7678540803553
 30
0.0
 10
473.2843718654848
 20
452.8566183018189
 30
0.0
 10
473.5541819293796
 20
452.9011161386135
 30
0.0
  0
LINE
  5
A2
330
1F
100
AcDbEntity
  8
0
  6
Continuous
 62
     7
370
    25
100
AcDbLine
 10
356.7522997667
 20
574.7791887581
 30
0.0
 11
356.7522997667
 21
576.521909362
 31
0.0
  0
LINE
  5
A3
330
1F
100
AcDbEntity
  8
0
  6
Continuous
 62
     7
370
    25
100
AcDbLine
 10
332.7522995581
 20
576.521909362
 30
0.0
 11
332.7522995581
 21
574.7791887581
 31
0.0
  0
ARC
  5
A4
330
1F
100
AcDbEntity
  8
0
  6
Continuous
 62
     7
370
    25
100
AcDbCircle
 10
335.6022996624
 20
570.7791943609
 30
0.0
 40
0.1999999999999886
100
AcDbArc
 50
180.0
 51
270.0
  0
ARC
  5
A5
330
1F
100
AcDbEntity
  8
0
  6
Continuous
 62
     7
370
    25
100
AcDbCircle
 10
353.9022996624
 20
570.7791943609
 30
0.0
 40
0.1999999999999886
100
AcDbArc
 50
270.0
 51
0.0
  0
SPLINE
  5
A6
330
1F
100
AcDbEntity
  8
0
  6
Continuous
 62
     7
370
    25
100
AcDbSpline
210
0.0
220
0.0
230
1.0
 70
     8
 71
     3
 72
    12
 73
     8
 74
     0
 42
0.000000001
 43
0.00000001
 40
0.0
 40
0.0
 40
0.0
 40
0.0
 40
0.1838868791022931
 40
0.4571263761446486
 40
0.6847311354531938
 40
0.8928436453418789
 40
1.0
 40
1.0
 40
1.0
 40
1.0
 10
362.5078621019422
 20
581.2377692519786
 30
0.0
 10
362.5589946266577
 20
581.2779344006475
 30
0.0
 10
362.6861055213579
 20
581.3777813769401
 30
0.0
 10
362.8151811865747
 20
581.5725421265498
 30
0.0
 10
362.9007739011603
 20
581.7517772956177
 30
0.0
 10
362.9356606439075
 20
581.8585285033919
 30
0.0
 10
362.943846406837
 20
581.8927656707351
 30
0.0
 10
362.9466286559402
 20
581.9044025003078
 30
0.0
  0
SPLINE
  5
A7
330
1F
100
AcDbEntity
  8
0
  6
Continuous
 62
     7
370
    25
100
AcDbSpline
210
0.0
220
0.0
230
1.0
 70
     8
 71
     3
 72
    12
 73
     8
 74
     0
 42
0.000000001
 43
0.00000001
 40
0.0
 40
0.0
 40
0.0
 40
0.0
 40
0.0250178055951533
 40
0.3018139176692236
 40
0.5595523412839398
 40
0.9047856968742758
 40
1.0
 40
1.0
 40
1.0
 40
1.0
 10
326.5573857982455
 20
581.9042832910183
 30
0.0
 10
326.5578598153804
 20
581.9021042346118
 30
0.0
 10
326.5635783412512
 20
581.8758161755588
 30
0.0
 10
326.596063933557
 20
581.7655703750955
 30
0.0
 10
326.7037192459884
 20
581.5474950644962
 30
0.0
 10
326.8390972447461
 20
581.3413958123264
 30
0.0
 10
326.9694594080493
 20
581.2575979823438
 30
0.0
 10
326.9976406057178
 20
581.2394828855159
 30
0.0
  0
ARC
  5
A8
330
1F
100
AcDbEntity
  8
0
  6
Continuous
 62
     7
370
    25
100
AcDbCircle
 10
370.2522996624
 20
423.7791943609
 30
0.0
 40
1.5
100
AcDbArc
 50
0.0
 51
90.0
  0
ARC
  5
A9
330
1F
100
AcDbEntity
  8
0
  6
Continuous
 62
     7
370
    25
100
AcDbCircle
 10
319.2522996624
 20
423.7791943609
 30
0.0
 40
1.5
100
AcDbArc
 50
90.0
 51
180.0
  0
LINE
  5
AA
330
1F
100
AcDbEntity
  8
0
  6
Continuous
 62
     7
370
    25
100
AcDbLine
 10
371.7523003627
 20
415.7791943609
 30
0.0
 11
371.7523003627
 21
423.7791947409
 31
0.0
  0
LINE
  5
AB
330
1F
100
AcDbEntity
  8
0
  6
Continuous
 62
     7
370
    25
100
AcDbLine
 10
317.752298962
 20
423.7791947409
 30
0.0
 11
317.752298962
 21
415.7791943609
 31
0.0
  0
ARC
  5
AC
330
1F
100
AcDbEntity
  8
0
  6
Continuous
 62
     7
370
    25
100
AcDbCircle
 10
323.8526493389
 20
425.3791943609
 30
0.0
 40
0.1000000000000104
100
AcDbArc
 50
179.7999999998
 51
270.0
  0
ARC
  5
AD
330
1F
100
AcDbEntity
  8
0
  6
Continuous
 62
     7
370
    25
100
AcDbCircle
 10
365.6519499859
 20
425.3791943609
 30
0.0
 40
0.0999999999999659
100
AcDbArc
 50
270.0
 51
0.2000000002
  0
LINE
  5
AE
330
1F
100
AcDbEntity
  8
0
  6
Continuous
 62
     7
370
    25
100
AcDbLine
 10
365.751949202
 20
425.3795431315
 30
0.0
 11
365.1629808058
 21
594.1059650241
 31
0.0
  0
LINE
  5
AF
330
1F
100
AcDbEntity
  8
0
  6
Continuous
 62
     7
370
    25
100
AcDbLine
 10
324.341618519
 20
594.1059352218
 30
0.0
 11
323.7526501228
 21
425.3795431315
 31
0.0
  0
LINE
  5
B0
330
1F
100
AcDbEntity
  8
0
  6
Continuous
 62
     7
370
    25
100
AcDbLine
 10
217.7522956093
 20
415.7791943609
 30
0.0
 11
271.7523007353
 21
415.7791943609
 31
0.0
  0
LINE
  5
B1
330
1F
100
AcDbEntity
  8
0
  6
Continuous
 62
     7
370
    25
100
AcDbLine
 10
219.2523060997
 20
425.2791940554
 30
0.0
 11
270.2522976954
 21
425.2791940554
 31
0.0
  0
SPLINE
  5
B2
330
1F
100
AcDbEntity
  8
0
  6
Continuous
 62
     7
370
    25
100
AcDbSpline
210
0.0
220
0.0
230
1.0
 70
     8
 71
     3
 72
    18
 73
    14
 74
     0
 42
0.000000001
 43
0.00000001
 40
0.0
 40
0.0
 40
0.0
 40
0.0
 40
0.25
 40
0.25
 40
0.5
 40
0.5
 40
0.75
 40
0.75
 40
0.875
 40
0.875
 40
0.9375
 40
0.9375
 40
1.0
 40
1.0
 40
1.0
 40
1.0
 10
219.3423436736009
 20
458.2316977833944
 30
0.0
 10
221.1414729284504
 20
458.232670500871
 30
0.0
 10
222.9405330307567
 20
458.2337391787772
 30
0.0
 10
226.5311687673153
 20
458.2354198691361
 30
0.0
 10
228.3231488090942
 20
458.2360111186478
 30
0.0
 10
231.8962421661169
 20
458.2366496221712
 30
0.0
 10
233.6673921909892
 20
458.2366333107
 30
0.0
 10
236.3068631208852
 20
458.2363227477421
 30
0.0
 10
237.1826060737852
 20
458.2358305927366
 30
0.0
 10
238.4896330215434
 20
458.2354764164796
 30
0.0
 10
238.924178940629
 20
458.2355337638328
 30
0.0
 10
239.7912587145805
 20
458.2352136283685
 30
0.0
 10
240.222864343114
 20
458.2346641295439
 30
0.0
 10
240.6574595389649
 20
458.2339749299459
 30
0.0
  0
LINE
  5
B3
330
1F
100
AcDbEntity
  8
0
  6
Continuous
 62
     7
370
    25
100
AcDbLine
 10
261.7523028214
 20
426.579194641
 30
0.0
 11
261.7523028214
 21
456.7323015391
 31
0.0
  0
LINE
  5
B4
330
1F
100
AcDbEntity
  8
0
  6
Continuous
 62
     7
370
    25
100
AcDbLine
 10
244.7522981723
 20
458.2314142346
 30
0.0
 11
260.3039397557
 21
458.2314142346
 31
0.0
  0
ARC
  5
B5
330
1F
100
AcDbEntity
  8
0
  6
Continuous
 62
     7
370
    25
100
AcDbCircle
 10
260.2522996624
 20
456.7323027338
 30
0.0
 40
1.500000000000016
100
AcDbArc
 50
0.0
 51
88.0270641529
  0
LINE
  5
B6
330
1F
100
AcDbEntity
  8
0
  6
Continuous
 62
     7
370
    25
100
AcDbLine
 10
261.3522960503
 20
426.1791943892
 30
0.0
 11
232.0581852157
 21
426.1791943892
 31
0.0
  0
ARC
  5
B7
330
1F
100
AcDbEntity
  8
0
  6
Continuous
 62
     7
370
    25
100
AcDbCircle
 10
261.3522996624
 20
426.5791943609
 30
0.0
 40
0.4000000000000341
100
AcDbArc
 50
270.0
 51
0.0
  0
LINE
  5
B8
330
1F
100
AcDbEntity
  8
0
  6
Continuous
 62
     7
370
    25
100
AcDbLine
 10
181.5829901655
 20
458.3809287607
 30
0.0
 11
181.5646915396
 21
458.3779448032
 31
0.0
  0
SPLINE
  5
B9
330
1F
100
AcDbEntity
  8
0
  6
Continuous
 62
     7
370
    25
100
AcDbSpline
210
0.0
220
0.0
230
1.0
 70
     8
 71
     3
 72
   133
 73
   129
 74
     0
 42
0.000000001
 43
0.00000001
 40
0.0
 40
0.0
 40
0.0
 40
0.0
 40
0.0108490006629812
 40
0.0108490006629812
 40
0.010851623403401
 40
0.0218296083355429
 40
0.0218296083355429
 40
0.0218348856323106
 40
0.0393886094587287
 40
0.0393886094587287
 40
0.0393981316351317
 40
0.0625
 40
0.0625
 40
0.0625151093433704
 40
0.0635537065371848
 40
0.0635537065371848
 40
0.0635690706135774
 40
0.0831376728407982
 40
0.0831376728407982
 40
0.0831577713311338
 40
0.09375
 40
0.09375
 40
0.0937726640150556
 40
0.1095788773287826
 40
0.1095788773287826
 40
0.109605367966922
 40
0.125
 40
0.125
 40
0.125030218686741
 40
0.13667918798065
 40
0.13667918798065
 40
0.1367122301051746
 40
0.15625
 40
0.15625
 40
0.156287773358426
 40
0.158467558808628
 40
0.158467558808628
 40
0.158505868260774
 40
0.18071487440613
 40
0.18071487440613
 40
0.180758562135563
 40
0.2001121007126065
 40
0.2001121007126065
 40
0.2001604777116825
 40
0.2198715277206565
 40
0.2198715277206565
 40
0.219924681551212
 40
0.25
 40
0.25
 40
0.2500604373734815
 40
0.2516924868512315
 40
0.2516924868512315
 40
0.251753333382553
 40
0.285755266647219
 40
0.285755266647219
 40
0.285824347838318
 40
0.3125
 40
0.3125
 40
0.3133303218545255
 40
0.329531138173721
 40
0.329531138173721
 40
0.3296108021596075
 40
0.3424403321822815
 40
0.3424403321822815
 40
0.3425231169592865
 40
0.358539527840511
 40
0.358539527840511
 40
0.3586262045899195
 40
0.3713636046269615
 40
0.3713636046269615
 40
0.371453381590443
 40
0.375
 40
0.375
 40
0.3750906560602225
 40
0.402520846328285
 40
0.402520846328285
 40
0.40261815553918
 40
0.434593635386771
 40
0.43469869817819
 40
0.460455697745271
 40
0.460567012677177
 40
0.486916359106216
 40
0.487034070889615
 40
0.5
 40
0.5001208747469631
 40
0.518179418380322
 40
0.518304687992479
 40
0.550279871187772
 40
0.55041290106815
 40
0.57610377208877
 40
0.576243044884121
 40
0.6024694437922701
 40
0.6026150904754141
 40
0.625
 40
0.625151093433704
 40
0.6338295902262241
 40
0.633982818208897
 40
0.66595450325661
 40
0.6661154974207509
 40
0.6875
 40
0.6876662027770749
 40
0.691743201298622
 40
0.691910429867464
 40
0.718022959028466
 40
0.718196540715439
 40
0.7494692506562419
 40
0.750181312120445
 40
0.7816153619941869
 40
0.781804317112395
 40
0.807372711306932
 40
0.807567893251301
 40
0.8125
 40
0.8126964214638159
 40
0.8335768923436969
 40
0.83377840913557
 40
0.8571895238504219
 40
0.857396748984012
 40
0.875
 40
0.875211530807186
 40
0.8811630819160979
 40
0.881376102645219
 40
0.900255607005795
 40
0.900473243343193
 40
0.90625
 40
0.9064690854788711
 40
0.919575942230032
 40
0.9197982492486939
 40
0.920149370868112
 40
0.920149370868112
 40
0.920149370868112
 40
0.920149370868112
 10
244.7522996623813
 20
458.4991943608883
 30
0.0
 10
244.5038993186911
 20
458.4991943608883
 30
0.0
 10
244.2557024937213
 20
458.4991607899814
 30
0.0
 10
244.0076331732543
 20
458.499095104838
 30
0.0
 10
243.7566153038867
 20
458.4990286310958
 30
0.0
 10
243.5057894668631
 20
458.4989292758763
 30
0.0
 10
243.2550783800503
 20
458.4987985414947
 30
0.0
 10
242.8542653353683
 20
458.4985895116297
 30
0.0
 10
242.4539007507611
 20
458.498300305789
 30
0.0
 10
242.0538197556933
 20
458.4979370996145
 30
0.0
 10
241.5273553791833
 20
458.4974591055918
 30
0.0
 10
241.0015499500693
 20
458.4968530315497
 30
0.0
 10
240.4761210936564
 20
458.4961329801671
 30
0.0
 10
240.4521712728497
 20
458.4961001557509
 30
0.0
 10
240.4282224990109
 20
458.4960670946962
 30
0.0
 10
240.4042689534763
 20
458.4960337936583
 30
0.0
 10
239.9591813141407
 20
458.4954149534478
 30
0.0
 10
239.5144502472537
 20
458.494714836962
 30
0.0
 10
239.0698737157447
 20
458.493941969251
 30
0.0
 10
238.8290211542883
 20
458.4935232219213
 30
0.0
 10
238.5882455550457
 20
458.4930831524203
 30
0.0
 10
238.3474736067997
 20
458.4926230629758
 30
0.0
 10
237.9884358236197
 20
458.4919369162531
 30
0.0
 10
237.6295358155429
 20
458.4912064002872
 30
0.0
 10
237.2706369113011
 20
458.4904359528217
 30
0.0
 10
236.9210679573979
 20
458.4896854687359
 30
0.0
 10
236.5715824227313
 20
458.488897213851
 30
0.0
 10
236.2220497251807
 20
458.4880752689728
 30
0.0
 10
235.9573951558411
 20
458.4874528696439
 30
0.0
 10
235.6927619752009
 20
458.4868112320819
 30
0.0
 10
235.4280662231035
 20
458.4861520743767
 30
0.0
 10
234.9846228345332
 20
458.4850477084373
 30
0.0
 10
234.5411832370099
 20
458.4838944819489
 30
0.0
 10
234.0975462539749
 20
458.4827008039649
 30
0.0
 10
234.0472901015155
 20
458.482565572808
 30
0.0
 10
233.9970327871635
 20
458.4824298253388
 30
0.0
 10
233.9467620482183
 20
458.4822935495664
 30
0.0
 10
233.4425503069029
 20
458.4809266270562
 30
0.0
 10
232.9382078177297
 20
458.4795090047832
 30
0.0
 10
232.4334748223753
 20
458.4780530723868
 30
0.0
 10
231.9935087473243
 20
458.4767839002565
 30
0.0
 10
231.5533379888429
 20
458.4754858417098
 30
0.0
 10
231.1127651593811
 20
458.4741670214375
 30
0.0
 10
230.6640733158137
 20
458.4728238477308
 30
0.0
 10
230.2150738118597
 20
458.4714594343571
 30
0.0
 10
229.7655622153923
 20
458.4700823535496
 30
0.0
 10
229.0803268995683
 20
458.4679830864278
 30
0.0
 10
228.3941506922691
 20
458.4658551277573
 30
0.0
 10
227.7065263545929
 20
458.4637294409789
 30
0.0
 10
227.6679077940353
 20
458.4636100582938
 30
0.0
 10
227.6292851787339
 20
458.4634906846147
 30
0.0
 10
227.5906493578543
 20
458.4633712917299
 30
0.0
 10
226.8132546657647
 20
458.4609689933822
 30
0.0
 10
226.0342360297221
 20
458.4585707638924
 30
0.0
 10
225.2537772996221
 20
458.456184460365
 30
0.0
 10
224.6411384046593
 20
458.4543113029895
 30
0.0
 10
224.0277270948533
 20
458.4524458776226
 30
0.0
 10
223.4135755331953
 20
458.4505917954356
 30
0.0
 10
223.0225751632419
 20
458.4494114161492
 30
0.0
 10
222.6313343846577
 20
458.4482358355322
 30
0.0
 10
222.2398055852525
 20
458.4470657990111
 30
0.0
 10
221.9431071893308
 20
458.4461791745048
 30
0.0
 10
221.6462973140102
 20
458.4452959154652
 30
0.0
 10
221.3493248123475
 20
458.4444162439577
 30
0.0
 10
220.9790559702635
 20
458.4433194918207
 30
0.0
 10
220.6086451533231
 20
458.4422286912857
 30
0.0
 10
220.2380422775673
 20
458.4411444349057
 30
0.0
 10
219.9429034222499
 20
458.4402809908928
 30
0.0
 10
219.6476993344887
 20
458.4394218909194
 30
0.0
 10
219.3523786045459
 20
458.4385673450531
 30
0.0
 10
219.2686576037095
 20
458.4383250980967
 30
0.0
 10
219.1849329495923
 20
458.4380832367851
 30
0.0
 10
219.1011849204971
 20
458.4378417030252
 30
0.0
 10
218.4675184586295
 20
458.4360142517311
 30
0.0
 10
217.8336686007603
 20
458.4342094795662
 30
0.0
 10
217.1996770506853
 20
458.4324313205176
 30
0.0
 10
216.4610020412507
 20
458.4303596669528
 30
0.0
 10
215.7199240250525
 20
458.4283182192408
 30
0.0
 10
214.3884725656257
 20
458.4247280769598
 30
0.0
 10
213.7907645058629
 20
458.4231445310904
 30
0.0
 10
212.5898692654599
 20
458.4200260859259
 30
0.0
 10
211.9790170194529
 20
458.4184727660165
 30
0.0
 10
211.0735690212411
 20
458.4162244512843
 30
0.0
 10
210.7705107015671
 20
458.4154808999373
 30
0.0
 10
210.0560694380885
 20
458.4137502109862
 30
0.0
 10
209.6364891789741
 20
458.4127519358835
 30
0.0
 10
208.4872973014993
 20
458.4100693294222
 30
0.0
 10
207.7494217856849
 20
458.4084054305052
 30
0.0
 10
206.4263635097127
 20
458.4055335746177
 30
0.0
 10
205.8320677789263
 20
458.4042839227584
 30
0.0
 10
204.6399111800839
 20
458.4018617184453
 30
0.0
 10
204.0324646890783
 20
458.4006714834981
 30
0.0
 10
202.9141411049929
 20
458.3985645879569
 30
0.0
 10
202.3934330099997
 20
458.3976170845485
 30
0.0
 10
201.6759097003911
 20
458.3963591225396
 30
0.0
 10
201.4693184675297
 20
458.3960022964322
 30
0.0
 10
200.5305860176227
 20
458.3944066400539
 30
0.0
 10
199.7869084907345
 20
458.3932166367159
 30
0.0
 10
198.5554865910843
 20
458.3913928793141
 30
0.0
 10
198.0562611097603
 20
458.3906935034052
 30
0.0
 10
197.4680151840103
 20
458.389921936523
 30
0.0
 10
197.3668150887453
 20
458.3897909825393
 30
0.0
 10
196.6704669168791
 20
458.3889012936049
 30
0.0
 10
196.0647668377345
 20
458.3881887140579
 30
0.0
 10
194.7346468663738
 20
458.3866905910898
 30
0.0
 10
193.9982500710973
 20
458.3859057977043
 30
0.0
 10
192.5419165458763
 20
458.3843310160401
 30
0.0
 10
191.8095263041053
 20
458.3835275064894
 30
0.0
 10
190.4934041121763
 20
458.3822977710248
 30
0.0
 10
189.8965053343723
 20
458.3818197949976
 30
0.0
 10
189.1925349173968
 20
458.3814345055211
 30
0.0
 10
189.0705118263128
 20
458.3813739195973
 30
0.0
 10
188.4747631175258
 20
458.3811111805297
 30
0.0
 10
187.9887073677058
 20
458.3810084077228
 30
0.0
 10
186.9718902633728
 20
458.3808044139879
 30
0.0
 10
186.4272222177752
 20
458.3807004474009
 30
0.0
 10
185.4803107015813
 20
458.3802692572261
 30
0.0
 10
185.0648829774868
 20
458.3799971408392
 30
0.0
 10
184.5138982774363
 20
458.3794428841149
 30
0.0
 10
184.3657852903348
 20
458.3792759552232
 30
0.0
 10
183.7840777088658
 20
458.3786422293058
 30
0.0
 10
183.3357785787973
 20
458.378213982649
 30
0.0
 10
182.7703433958598
 20
458.3786533664031
 30
0.0
 10
182.6300520453903
 20
458.3788416546669
 30
0.0
 10
182.2025402473143
 20
458.3797293951554
 30
0.0
 10
181.9053759979743
 20
458.3808499021125
 30
0.0
 10
181.6034039643194
 20
458.3809277529377
 30
0.0
 10
181.5907423937369
 20
458.3809290699991
 30
0.0
 10
181.5829878263195
 20
458.3809291187191
 30
0.0
  0
ARC
  5
BA
330
1F
100
AcDbEntity
  8
0
  6
Continuous
 62
     7
370
    25
100
AcDbCircle
 10
244.7522996624
 20
6.7766943609
 30
0.0
 40
451.7225000000185
100
AcDbArc
 50
88.0270641529
 51
90.0
  0
LINE
  5
BB
330
1F
100
AcDbEntity
  8
0
  6
Continuous
 62
     7
370
    25
100
AcDbLine
 10
176.7523019274
 20
456.7195349692
 30
0.0
 11
176.7523019274
 21
454.8635692655
 31
0.0
  0
SPLINE
  5
BC
330
1F
100
AcDbEntity
  8
0
  6
Continuous
 62
     7
370
    25
100
AcDbSpline
210
0.0
220
0.0
230
1.0
 70
    24
 71
     3
 72
    24
 73
    20
 74
     0
 42
0.000000001
 43
0.00000001
 40
0.0
 40
0.0
 40
0.0
 40
0.0
 40
0.2499999999999884
 40
0.2499999999999884
 40
0.3749999999999826
 40
0.3749999999999826
 40
0.4374999999999754
 40
0.4374999999999754
 40
0.4687499999999795
 40
0.4687499999999795
 40
0.4999999999999836
 40
0.4999999999999836
 40
0.5624999999999903
 40
0.5624999999999903
 40
0.6249999999999971
 40
0.6249999999999971
 40
0.7500000000000101
 40
0.7500000000000101
 40
1.0
 40
1.0
 40
1.0
 40
1.0
 10
178.2365919862067
 20
453.3636503198182
 30
0.0
 10
178.2365919862067
 20
453.3636503198182
 30
0.0
 10
178.2357285984653
 20
453.363659361524
 30
0.0
 10
178.2636697542909
 20
453.3633667517282
 30
0.0
 10
178.2777535479295
 20
453.3632192611947
 30
0.0
 10
178.3131560414496
 20
453.362848513597
 30
0.0
 10
178.327331424715
 20
453.3627000639042
 30
0.0
 10
178.3546300945767
 20
453.3624141824516
 30
0.0
 10
178.3647676011082
 20
453.3623080188507
 30
0.0
 10
178.3883876774399
 20
453.3620606609478
 30
0.0
 10
178.401947430526
 20
453.3619186583547
 30
0.0
 10
178.4567383578059
 20
453.3613448681315
 30
0.0
 10
178.5023042453989
 20
453.3608676858293
 30
0.0
 10
178.5915181104178
 20
453.3599334062675
 30
0.0
 10
178.6376369352888
 20
453.359450433408
 30
0.0
 10
178.7772223910624
 20
453.3579886444986
 30
0.0
 10
178.8711042782249
 20
453.3570054797363
 30
0.0
 10
179.1539639750948
 20
453.3540432716358
 30
0.0
 10
179.3442359694626
 20
453.352050675132
 30
0.0
 10
179.5343230593313
 20
453.3500600150144
 30
0.0
  0
ARC
  5
BD
330
1F
100
AcDbEntity
  8
0
  6
Continuous
 62
     7
370
    25
100
AcDbCircle
 10
178.2522996624
 20
454.8635680739
 30
0.0
 40
1.5
100
AcDbArc
 50
180.0
 51
269.4
  0
LINE
  5
BE
330
1F
100
AcDbEntity
  8
0
  6
Continuous
 62
     7
370
    25
100
AcDbLine
 10
179.5343189199
 20
453.3500583231
 30
0.0
 11
218.3415620287
 21
452.9436552285
 31
0.0
  0
LINE
  5
BF
330
1F
100
AcDbEntity
  8
0
  6
Continuous
 62
     7
370
    25
100
AcDbLine
 10
180.9106646736
 20
458.3620601653
 30
0.0
 11
178.1625180204
 21
458.2886346935
 31
0.0
  0
LINE
  5
C0
330
1F
100
AcDbEntity
  8
0
  6
Continuous
 62
     7
370
    25
100
AcDbLine
 10
227.7523009737
 20
435.5625515192
 30
0.0
 11
227.7523009737
 21
426.579194641
 31
0.0
  0
ARC
  5
C1
330
1F
100
AcDbEntity
  8
0
  6
Continuous
 62
     7
370
    25
100
AcDbCircle
 10
228.1522996624
 20
426.5791943609
 30
0.0
 40
0.4000000000000341
100
AcDbArc
 50
180.0
 51
270.0
  0
LINE
  5
C2
330
1F
100
AcDbEntity
  8
0
  6
Continuous
 62
     7
370
    25
100
AcDbLine
 10
232.0581852157
 20
426.1791943892
 30
0.0
 11
228.1523002942
 21
426.1791943892
 31
0.0
  0
SPLINE
  5
C3
330
1F
100
AcDbEntity
  8
0
  6
Continuous
 62
     7
370
    25
100
AcDbSpline
210
0.0
220
0.0
230
1.0
 70
    24
 71
     3
 72
    10
 73
     6
 74
     0
 42
0.000000001
 43
0.00000001
 40
0.0
 40
0.0
 40
0.0
 40
0.0
 40
0.5
 40
0.5
 40
1.0
 40
1.0
 40
1.0
 40
1.0
 10
176.7522996623813
 20
456.7195346052782
 30
0.0
 10
176.7522996623813
 20
456.7397729998526
 30
0.0
 10
176.7522996623812
 20
456.7513017454293
 30
0.0
 10
176.7522996623813
 20
456.7742259098755
 30
0.0
 10
176.7522996623813
 20
456.784218896457
 30
0.0
 10
176.7522996623813
 20
456.7913112063749
 30
0.0
  0
SPLINE
  5
C4
330
1F
100
AcDbEntity
  8
0
  6
Continuous
 62
     7
370
    25
100
AcDbSpline
210
0.0
220
0.0
230
1.0
 70
     8
 71
     3
 72
    20
 73
    16
 74
     0
 42
0.000000001
 43
0.00000001
 40
0.0
 40
0.0
 40
0.0
 40
0.0
 40
0.2499999999999752
 40
0.2499999999999752
 40
0.3749999999999793
 40
0.3749999999999793
 40
0.4999999999999835
 40
0.4999999999999835
 40
0.6249999999999876
 40
0.6249999999999876
 40
0.7499999999999917
 40
0.7499999999999917
 40
0.8749999999999959
 40
0.8749999999999959
 40
1.0
 40
1.0
 40
1.0
 40
1.0
 10
178.1625106208133
 20
458.2886332589588
 30
0.0
 10
177.9722557904342
 20
458.2772241779975
 30
0.0
 10
177.7880673333779
 20
458.2302034724113
 30
0.0
 10
177.5306895708946
 20
458.1097492234109
 30
0.0
 10
177.4497049238409
 20
458.0620294437415
 30
0.0
 10
177.2971675086165
 20
457.9517428023292
 30
0.0
 10
177.2250223203308
 20
457.8884049343228
 30
0.0
 10
177.0957005138551
 20
457.7510962529043
 30
0.0
 10
177.0379903497234
 20
457.6769636109309
 30
0.0
 10
176.9365196419401
 20
457.5177037805996
 30
0.0
 10
176.8928930217056
 20
457.4322995050721
 30
0.0
 10
176.8234733547325
 20
457.2574707702881
 30
0.0
 10
176.7970665174286
 20
457.1672113650673
 30
0.0
 10
176.7613008594449
 20
456.9808510184941
 30
0.0
 10
176.7522996623814
 20
456.8852963330018
 30
0.0
 10
176.7522996623813
 20
456.7913112063765
 30
0.0
  0
LINE
  5
C5
330
1F
100
AcDbEntity
  8
0
  6
Continuous
 62
     7
370
    25
100
AcDbLine
 10
419.2523016293
 20
425.2791940554
 30
0.0
 11
470.2522932251
 21
425.2791940554
 31
0.0
  0
LINE
  5
C6
330
1F
100
AcDbEntity
  8
0
  6
Continuous
 62
     7
370
    25
100
AcDbLine
 10
417.7522985895
 20
415.7791943609
 30
0.0
 11
471.7523037155
 21
415.7791943609
 31
0.0
  0
SPLINE
  5
C7
330
1F
100
AcDbEntity
  8
0
  6
Continuous
 62
     7
370
    25
100
AcDbSpline
210
0.0
220
0.0
230
1.0
 70
     8
 71
     3
 72
    18
 73
    14
 74
     0
 42
0.000000001
 43
0.00000001
 40
0.0
 40
0.0
 40
0.0
 40
0.0
 40
0.0624999999999996
 40
0.0624999999999996
 40
0.1249999999999993
 40
0.1249999999999993
 40
0.2499999999999985
 40
0.2499999999999985
 40
0.499999999999999
 40
0.499999999999999
 40
0.7499999999999994
 40
0.7499999999999994
 40
1.0
 40
1.0
 40
1.0
 40
1.0
 10
448.8471397857977
 20
458.2339749299425
 30
0.0
 10
449.281734981649
 20
458.2346641295405
 30
0.0
 10
449.7133406101829
 20
458.235213628365
 30
0.0
 10
450.5804203841352
 20
458.2355337638294
 30
0.0
 10
451.0149663032212
 20
458.2354764164761
 30
0.0
 10
452.3219932509808
 20
458.2358305927331
 30
0.0
 10
453.1977362038815
 20
458.2363227477385
 30
0.0
 10
455.8372071337802
 20
458.2366333106965
 30
0.0
 10
457.6083571586543
 20
458.2366496221676
 30
0.0
 10
461.1814505156806
 20
458.2360111186443
 30
0.0
 10
462.9734305574611
 20
458.2354198691327
 30
0.0
 10
466.5640662940231
 20
458.2337391787739
 30
0.0
 10
468.363126396331
 20
458.2326705008676
 30
0.0
 10
470.1622556511823
 20
458.231697783391
 30
0.0
  0
LINE
  5
C8
330
1F
100
AcDbEntity
  8
0
  6
Continuous
 62
     7
370
    25
100
AcDbLine
 10
427.7522965033
 20
426.579194641
 30
0.0
 11
427.7522965033
 21
456.7323015391
 31
0.0
  0
LINE
  5
C9
330
1F
100
AcDbEntity
  8
0
  6
Continuous
 62
     7
370
    25
100
AcDbLine
 10
429.2006595691
 20
458.2314142346
 30
0.0
 11
444.7523011525
 21
458.2314142346
 31
0.0
  0
ARC
  5
CA
330
1F
100
AcDbEntity
  8
0
  6
Continuous
 62
     7
370
    25
100
AcDbCircle
 10
429.2522996624
 20
456.7323027338
 30
0.0
 40
1.500000000000075
100
AcDbArc
 50
91.9729358471
 51
180.0
  0
LINE
  5
CB
330
1F
100
AcDbEntity
  8
0
  6
Continuous
 62
     7
370
    25
100
AcDbLine
 10
457.446414109
 20
426.1791943892
 30
0.0
 11
428.1523032744
 21
426.1791943892
 31
0.0
  0
ARC
  5
CC
330
1F
100
AcDbEntity
  8
0
  6
Continuous
 62
     7
370
    25
100
AcDbCircle
 10
428.1522996624
 20
426.5791943609
 30
0.0
 40
0.3999999999999773
100
AcDbArc
 50
180.0
 51
270.0
  0
SPLINE
  5
CD
330
1F
100
AcDbEntity
  8
0
  6
Continuous
 62
     7
370
    25
100
AcDbSpline
210
0.0
220
0.0
230
1.0
 70
     8
 71
     3
 72
   133
 73
   129
 74
     0
 42
0.000000001
 43
0.00000001
 40
0.0
 40
0.0
 40
0.0
 40
0.0
 40
0.0108490006629812
 40
0.0108490006629812
 40
0.010851623403401
 40
0.0218296083355429
 40
0.0218296083355429
 40
0.0218348856323106
 40
0.0393886094587287
 40
0.0393886094587287
 40
0.0393981316351317
 40
0.0625
 40
0.0625
 40
0.0625151093433704
 40
0.0635537065371848
 40
0.0635537065371848
 40
0.0635690706135774
 40
0.0831376728407982
 40
0.0831376728407982
 40
0.0831577713311338
 40
0.09375
 40
0.09375
 40
0.0937726640150556
 40
0.1095788773287826
 40
0.1095788773287826
 40
0.109605367966922
 40
0.125
 40
0.125
 40
0.125030218686741
 40
0.13667918798065
 40
0.13667918798065
 40
0.1367122301051746
 40
0.15625
 40
0.15625
 40
0.156287773358426
 40
0.158467558808628
 40
0.158467558808628
 40
0.158505868260774
 40
0.18071487440613
 40
0.18071487440613
 40
0.180758562135563
 40
0.2001121007126065
 40
0.2001121007126065
 40
0.2001604777116825
 40
0.2198715277206565
 40
0.2198715277206565
 40
0.219924681551212
 40
0.25
 40
0.25
 40
0.2500604373734815
 40
0.2516924868512315
 40
0.2516924868512315
 40
0.251753333382553
 40
0.285755266647219
 40
0.285755266647219
 40
0.285824347838318
 40
0.3125
 40
0.3125
 40
0.3133303218545255
 40
0.329531138173721
 40
0.329531138173721
 40
0.3296108021596075
 40
0.3424403321822815
 40
0.3424403321822815
 40
0.3425231169592865
 40
0.358539527840511
 40
0.358539527840511
 40
0.3586262045899195
 40
0.3713636046269615
 40
0.3713636046269615
 40
0.371453381590443
 40
0.375
 40
0.375
 40
0.3750906560602225
 40
0.402520846328285
 40
0.402520846328285
 40
0.40261815553918
 40
0.434593635386771
 40
0.43469869817819
 40
0.460455697745271
 40
0.460567012677177
 40
0.486916359106216
 40
0.487034070889615
 40
0.5
 40
0.5001208747469631
 40
0.518179418380322
 40
0.518304687992479
 40
0.550279871187772
 40
0.55041290106815
 40
0.57610377208877
 40
0.576243044884121
 40
0.6024694437922701
 40
0.6026150904754141
 40
0.625
 40
0.625151093433704
 40
0.6338295902262241
 40
0.633982818208897
 40
0.66595450325661
 40
0.6661154974207509
 40
0.6875
 40
0.6876662027770749
 40
0.691743201298622
 40
0.691910429867464
 40
0.718022959028466
 40
0.718196540715439
 40
0.7494692506562419
 40
0.750181312120445
 40
0.7816153619941869
 40
0.781804317112395
 40
0.807372711306932
 40
0.807567893251301
 40
0.8125
 40
0.8126964214638159
 40
0.8335768923436969
 40
0.83377840913557
 40
0.8571895238504219
 40
0.857396748984012
 40
0.875
 40
0.875211530807186
 40
0.8811630819160979
 40
0.881376102645219
 40
0.900255607005795
 40
0.900473243343193
 40
0.90625
 40
0.9064690854788711
 40
0.919575942230032
 40
0.9197982492486939
 40
0.920149370868112
 40
0.920149370868112
 40
0.920149370868112
 40
0.920149370868112
 10
444.7522996623813
 20
458.4991943608847
 30
0.0
 10
445.0007000060715
 20
458.4991943608848
 30
0.0
 10
445.2488968310415
 20
458.499160789978
 30
0.0
 10
445.4969661515082
 20
458.4990951048346
 30
0.0
 10
445.7479840208759
 20
458.4990286310923
 30
0.0
 10
445.9988098578995
 20
458.4989292758729
 30
0.0
 10
446.2495209447123
 20
458.4987985414912
 30
0.0
 10
446.6503339893943
 20
458.4985895116263
 30
0.0
 10
447.0506985740015
 20
458.4983003057855
 30
0.0
 10
447.4507795690693
 20
458.4979370996111
 30
0.0
 10
447.9772439455792
 20
458.4974591055882
 30
0.0
 10
448.5030493746935
 20
458.4968530315463
 30
0.0
 10
449.0284782311062
 20
458.4961329801637
 30
0.0
 10
449.0524280519131
 20
458.4961001557475
 30
0.0
 10
449.0763768257517
 20
458.4960670946928
 30
0.0
 10
449.1003303712862
 20
458.4960337936548
 30
0.0
 10
449.5454180106219
 20
458.4954149534443
 30
0.0
 10
449.9901490775089
 20
458.4947148369585
 30
0.0
 10
450.4347256090178
 20
458.4939419692476
 30
0.0
 10
450.6755781704742
 20
458.4935232219178
 30
0.0
 10
450.916353769717
 20
458.4930831524169
 30
0.0
 10
451.1571257179629
 20
458.4926230629722
 30
0.0
 10
451.5161635011429
 20
458.4919369162496
 30
0.0
 10
451.8750635092197
 20
458.4912064002837
 30
0.0
 10
452.2339624134615
 20
458.4904359528182
 30
0.0
 10
452.5835313673647
 20
458.4896854687324
 30
0.0
 10
452.9330169020312
 20
458.4888972138476
 30
0.0
 10
453.2825495995818
 20
458.4880752689693
 30
0.0
 10
453.5472041689215
 20
458.4874528696404
 30
0.0
 10
453.8118373495616
 20
458.4868112320785
 30
0.0
 10
454.0765331016593
 20
458.4861520743732
 30
0.0
 10
454.5199764902295
 20
458.4850477084339
 30
0.0
 10
454.9634160877527
 20
458.4838944819454
 30
0.0
 10
455.4070530707876
 20
458.4827008039614
 30
0.0
 10
455.4573092232471
 20
458.4825655728046
 30
0.0
 10
455.5075665375992
 20
458.4824298253354
 30
0.0
 10
455.5578372765443
 20
458.4822935495629
 30
0.0
 10
456.0620490178597
 20
458.4809266270528
 30
0.0
 10
456.5663915070329
 20
458.4795090047797
 30
0.0
 10
457.0711245023873
 20
458.4780530723833
 30
0.0
 10
457.5110905774385
 20
458.476783900253
 30
0.0
 10
457.9512613359197
 20
458.4754858417063
 30
0.0
 10
458.3918341653815
 20
458.474167021434
 30
0.0
 10
458.8405260089489
 20
458.4728238477273
 30
0.0
 10
459.2895255129029
 20
458.4714594343536
 30
0.0
 10
459.7390371093703
 20
458.4700823535462
 30
0.0
 10
460.4242724251943
 20
458.4679830864242
 30
0.0
 10
461.1104486324934
 20
458.4658551277538
 30
0.0
 10
461.7980729701697
 20
458.4637294409754
 30
0.0
 10
461.8366915307273
 20
458.4636100582903
 30
0.0
 10
461.8753141460286
 20
458.4634906846112
 30
0.0
 10
461.9139499669083
 20
458.4633712917264
 30
0.0
 10
462.6913446589981
 20
458.4609689933788
 30
0.0
 10
463.4703632950407
 20
458.458570763889
 30
0.0
 10
464.2508220251405
 20
458.4561844603614
 30
0.0
 10
464.8634609201033
 20
458.454311302986
 30
0.0
 10
465.4768722299093
 20
458.4524458776191
 30
0.0
 10
466.0910237915673
 20
458.4505917954321
 30
0.0
 10
466.4820241615207
 20
458.4494114161457
 30
0.0
 10
466.8732649401049
 20
458.4482358355287
 30
0.0
 10
467.2647937395101
 20
458.4470657990077
 30
0.0
 10
467.5614921354317
 20
458.4461791745013
 30
0.0
 10
467.8583020107523
 20
458.4452959154618
 30
0.0
 10
468.1552745124151
 20
458.4444162439542
 30
0.0
 10
468.5255433544991
 20
458.4433194918172
 30
0.0
 10
468.8959541714397
 20
458.4422286912822
 30
0.0
 10
469.2665570471952
 20
458.4411444349022
 30
0.0
 10
469.5616959025127
 20
458.4402809908893
 30
0.0
 10
469.8568999902739
 20
458.4394218909159
 30
0.0
 10
470.1522207202169
 20
458.4385673450496
 30
0.0
 10
470.2359417210531
 20
458.4383250980932
 30
0.0
 10
470.3196663751702
 20
458.4380832367817
 30
0.0
 10
470.4034144042654
 20
458.4378417030217
 30
0.0
 10
471.0370808661331
 20
458.4360142517277
 30
0.0
 10
471.6709307240023
 20
458.4342094795628
 30
0.0
 10
472.3049222740773
 20
458.4324313205141
 30
0.0
 10
473.0435972835119
 20
458.4303596669493
 30
0.0
 10
473.7846752997101
 20
458.4283182192373
 30
0.0
 10
475.1161267591368
 20
458.4247280769563
 30
0.0
 10
475.7138348188997
 20
458.4231445310869
 30
0.0
 10
476.9147300593027
 20
458.4200260859225
 30
0.0
 10
477.5255823053097
 20
458.4184727660131
 30
0.0
 10
478.4310303035215
 20
458.4162244512808
 30
0.0
 10
478.7340886231954
 20
458.4154808999339
 30
0.0
 10
479.4485298866741
 20
458.4137502109827
 30
0.0
 10
479.8681101457886
 20
458.4127519358801
 30
0.0
 10
481.0173020232633
 20
458.4100693294187
 30
0.0
 10
481.7551775390777
 20
458.4084054305018
 30
0.0
 10
483.0782358150498
 20
458.4055335746142
 30
0.0
 10
483.6725315458363
 20
458.4042839227549
 30
0.0
 10
484.8646881446787
 20
458.4018617184418
 30
0.0
 10
485.4721346356843
 20
458.4006714834945
 30
0.0
 10
486.5904582197696
 20
458.3985645879534
 30
0.0
 10
487.1111663147628
 20
458.3976170845449
 30
0.0
 10
487.8286896243714
 20
458.3963591225362
 30
0.0
 10
488.0352808572331
 20
458.3960022964286
 30
0.0
 10
488.9740133071398
 20
458.3944066400505
 30
0.0
 10
489.7176908340281
 20
458.3932166367124
 30
0.0
 10
490.9491127336782
 20
458.3913928793107
 30
0.0
 10
491.4483382150022
 20
458.3906935034018
 30
0.0
 10
492.0365841407523
 20
458.3899219365195
 30
0.0
 10
492.1377842360173
 20
458.3897909825358
 30
0.0
 10
492.8341324078835
 20
458.3889012936015
 30
0.0
 10
493.4398324870281
 20
458.3881887140544
 30
0.0
 10
494.7699524583888
 20
458.3866905910863
 30
0.0
 10
495.5063492536653
 20
458.3859057977008
 30
0.0
 10
496.9626827788863
 20
458.3843310160366
 30
0.0
 10
497.6950730206573
 20
458.3835275064859
 30
0.0
 10
499.0111952125863
 20
458.3822977710213
 30
0.0
 10
499.6080939903903
 20
458.3818197949942
 30
0.0
 10
500.3120644073658
 20
458.3814345055176
 30
0.0
 10
500.4340874984497
 20
458.3813739195938
 30
0.0
 10
501.0298362072367
 20
458.3811111805261
 30
0.0
 10
501.5158919570568
 20
458.3810084077193
 30
0.0
 10
502.5327090613898
 20
458.3808044139843
 30
0.0
 10
503.0773771069873
 20
458.3807004473974
 30
0.0
 10
504.0242886231813
 20
458.3802692572227
 30
0.0
 10
504.4397163472758
 20
458.3799971408357
 30
0.0
 10
504.9907010473262
 20
458.3794428841115
 30
0.0
 10
505.1388140344278
 20
458.3792759552197
 30
0.0
 10
505.7205216158968
 20
458.3786422293023
 30
0.0
 10
506.1688207459653
 20
458.3782139826455
 30
0.0
 10
506.7342559289028
 20
458.3786533663996
 30
0.0
 10
506.8745472793723
 20
458.3788416546633
 30
0.0
 10
507.3020590774487
 20
458.3797293951519
 30
0.0
 10
507.5992233267883
 20
458.380849902109
 30
0.0
 10
507.9011953604431
 20
458.3809277529343
 30
0.0
 10
507.9138569310256
 20
458.3809290699956
 30
0.0
 10
507.921611498443
 20
458.3809291187156
 30
0.0
  0
LINE
  5
CE
330
1F
100
AcDbEntity
  8
0
  6
Continuous
 62
     7
370
    25
100
AcDbLine
 10
507.9216091593
 20
458.3809287607
 30
0.0
 11
507.9399077852
 21
458.3779448032
 31
0.0
  0
ARC
  5
CF
330
1F
100
AcDbEntity
  8
0
  6
Continuous
 62
     7
370
    25
100
AcDbCircle
 10
444.7522996624
 20
6.7766943609
 30
0.0
 40
451.7225000000186
100
AcDbArc
 50
90.0
 51
91.9729358471
  0
LINE
  5
D0
330
1F
100
AcDbEntity
  8
0
  6
Continuous
 62
     7
370
    25
100
AcDbLine
 10
512.7522973974
 20
456.7195349692
 30
0.0
 11
512.7522973974
 21
454.8635692655
 31
0.0
  0
ARC
  5
D1
330
1F
100
AcDbEntity
  8
0
  6
Continuous
 62
     7
370
    25
100
AcDbCircle
 10
511.2522996624
 20
454.8635680739
 30
0.0
 40
1.500000000000017
100
AcDbArc
 50
270.6
 51
0.0
  0
SPLINE
  5
D2
330
1F
100
AcDbEntity
  8
0
  6
Continuous
 62
     7
370
    25
100
AcDbSpline
210
0.0
220
0.0
230
1.0
 70
    24
 71
     3
 72
    24
 73
    20
 74
     0
 42
0.000000001
 43
0.00000001
 40
0.0
 40
0.0
 40
0.0
 40
0.0
 40
0.2499999999999734
 40
0.2499999999999734
 40
0.3749999999999589
 40
0.3749999999999589
 40
0.4374999999999463
 40
0.4374999999999463
 40
0.4687499999999389
 40
0.4687499999999389
 40
0.4999999999999316
 40
0.4999999999999316
 40
0.5624999999999447
 40
0.5624999999999447
 40
0.6249999999999578
 40
0.6249999999999578
 40
0.749999999999984
 40
0.749999999999984
 40
1.0
 40
1.0
 40
1.0
 40
1.0
 10
511.2680073385558
 20
453.3636503198147
 30
0.0
 10
511.2680073385558
 20
453.3636503198147
 30
0.0
 10
511.2688707262971
 20
453.3636593615204
 30
0.0
 10
511.2409295704716
 20
453.3633667517248
 30
0.0
 10
511.2268457768332
 20
453.3632192611912
 30
0.0
 10
511.1914432833129
 20
453.3628485135935
 30
0.0
 10
511.1772679000472
 20
453.3627000639007
 30
0.0
 10
511.1499692301857
 20
453.3624141824482
 30
0.0
 10
511.1398317236548
 20
453.3623080188473
 30
0.0
 10
511.1162116473232
 20
453.3620606609443
 30
0.0
 10
511.1026518942357
 20
453.3619186583512
 30
0.0
 10
511.0478609669554
 20
453.3613448681279
 30
0.0
 10
511.0022950793639
 20
453.3608676858258
 30
0.0
 10
510.9130812143451
 20
453.359933406264
 30
0.0
 10
510.8669623894737
 20
453.3594504334045
 30
0.0
 10
510.7273769337002
 20
453.3579886444951
 30
0.0
 10
510.6334950465375
 20
453.3570054797328
 30
0.0
 10
510.3506353496676
 20
453.3540432716322
 30
0.0
 10
510.1603633553
 20
453.3520506751286
 30
0.0
 10
509.9702762654312
 20
453.350060015011
 30
0.0
  0
LINE
  5
D3
330
1F
100
AcDbEntity
  8
0
  6
Continuous
 62
     7
370
    25
100
AcDbLine
 10
509.9702804048
 20
453.3500583231
 30
0.0
 11
471.1630372961
 21
452.9436552285
 31
0.0
  0
LINE
  5
D4
330
1F
100
AcDbEntity
  8
0
  6
Continuous
 62
     7
370
    25
100
AcDbLine
 10
508.5939346512
 20
458.3620601653
 30
0.0
 11
511.3420813043
 21
458.2886346935
 31
0.0
  0
LINE
  5
D5
330
1F
100
AcDbEntity
  8
0
  6
Continuous
 62
     7
370
    25
100
AcDbLine
 10
461.7522983511
 20
435.5625515192
 30
0.0
 11
461.7522983511
 21
426.579194641
 31
0.0
  0
ARC
  5
D6
330
1F
100
AcDbEntity
  8
0
  6
Continuous
 62
     7
370
    25
100
AcDbCircle
 10
461.3522996624
 20
426.5791943609
 30
0.0
 40
0.4000000000000341
100
AcDbArc
 50
270.0
 51
0.0
  0
LINE
  5
D7
330
1F
100
AcDbEntity
  8
0
  6
Continuous
 62
     7
370
    25
100
AcDbLine
 10
461.3522990306
 20
426.1791943892
 30
0.0
 11
457.446414109
 21
426.1791943892
 31
0.0
  0
SPLINE
  5
D8
330
1F
100
AcDbEntity
  8
0
  6
Continuous
 62
     7
370
    25
100
AcDbSpline
210
0.0
220
0.0
230
1.0
 70
    24
 71
     3
 72
    10
 73
     6
 74
     0
 42
0.000000001
 43
0.00000001
 40
0.0
 40
0.0
 40
0.0
 40
0.0
 40
0.5
 40
0.5
 40
1.0
 40
1.0
 40
1.0
 40
1.0
 10
512.7522996623812
 20
456.7913112063715
 30
0.0
 10
512.7522996623812
 20
456.7842188965731
 30
0.0
 10
512.7522996623813
 20
456.7742259092923
 30
0.0
 10
512.7522996623813
 20
456.7513017450678
 30
0.0
 10
512.7522996623812
 20
456.739772999573
 30
0.0
 10
512.7522996623812
 20
456.7195346052745
 30
0.0
  0
SPLINE
  5
D9
330
1F
100
AcDbEntity
  8
0
  6
Continuous
 62
     7
370
    25
100
AcDbSpline
210
0.0
220
0.0
230
1.0
 70
     8
 71
     3
 72
    20
 73
    16
 74
     0
 42
0.000000001
 43
0.00000001
 40
0.0
 40
0.0
 40
0.0
 40
0.0
 40
0.2500000000000278
 40
0.2500000000000278
 40
0.3750000000000231
 40
0.3750000000000231
 40
0.5000000000000185
 40
0.5000000000000185
 40
0.6250000000000139
 40
0.6250000000000139
 40
0.7500000000000092
 40
0.7500000000000092
 40
0.8750000000000047
 40
0.8750000000000047
 40
1.0
 40
1.0
 40
1.0
 40
1.0
 10
511.3420887039493
 20
458.2886332589554
 30
0.0
 10
511.5323435343283
 20
458.277224177994
 30
0.0
 10
511.7165319913847
 20
458.2302034724078
 30
0.0
 10
511.9739097538679
 20
458.1097492234074
 30
0.0
 10
512.0548944009215
 20
458.0620294437379
 30
0.0
 10
512.207431816146
 20
457.9517428023256
 30
0.0
 10
512.2795770044318
 20
457.8884049343193
 30
0.0
 10
512.4088988109074
 20
457.7510962529008
 30
0.0
 10
512.4666089750392
 20
457.6769636109274
 30
0.0
 10
512.5680796828225
 20
457.5177037805962
 30
0.0
 10
512.6117063030571
 20
457.4322995050687
 30
0.0
 10
512.6811259700302
 20
457.2574707702847
 30
0.0
 10
512.7075328073339
 20
457.1672113650638
 30
0.0
 10
512.7432984653176
 20
456.9808510184907
 30
0.0
 10
512.7522996623812
 20
456.8852963329983
 30
0.0
 10
512.7522996623812
 20
456.7913112063729
 30
0.0
  0
LINE
  5
DA
330
1F
100
AcDbEntity
  8
0
  6
Continuous
 62
     7
370
    25
100
AcDbLine
 10
327.0835662891
 20
581.322080022
 30
0.0
 11
327.0202531178
 21
581.2940509378
 31
0.0
  0
SPLINE
  5
DB
330
1F
100
AcDbEntity
  8
0
  6
Continuous
 62
     7
370
    25
100
AcDbSpline
210
0.0
220
0.0
230
1.0
 70
     8
 71
     3
 72
    26
 73
    22
 74
     0
 42
0.000000001
 43
0.00000001
 40
0.0
 40
0.0
 40
0.0
 40
0.0
 40
0.1249999999999984
 40
0.1249999999999984
 40
0.1874999999999977
 40
0.1874999999999977
 40
0.2499999999999969
 40
0.2499999999999969
 40
0.3749999999999953
 40
0.3749999999999953
 40
0.4374999999999946
 40
0.4374999999999946
 40
0.4999999999999938
 40
0.4999999999999938
 40
0.6249999999999953
 40
0.6249999999999953
 40
0.7499999999999969
 40
0.7499999999999969
 40
0.8749999999999984
 40
0.8749999999999984
 40
1.0
 40
1.0
 40
1.0
 40
1.0
 10
332.7522996623813
 20
576.5219127202042
 30
0.0
 10
332.7522996623813
 20
576.5221365741863
 30
0.0
 10
332.8301714564755
 20
576.5284747060209
 30
0.0
 10
333.0602760540085
 20
576.5447351996944
 30
0.0
 10
333.1563438592787
 20
576.551142348437
 30
0.0
 10
333.3843990110451
 20
576.5645029029674
 30
0.0
 10
333.5159848529611
 20
576.5714245504332
 30
0.0
 10
333.9619878246299
 20
576.5915611611571
 30
0.0
 10
334.3271651206644
 20
576.6040004749818
 30
0.0
 10
334.979878499756
 20
576.6196285885011
 30
0.0
 10
335.2142900087497
 20
576.6243498704766
 30
0.0
 10
335.7113072618577
 20
576.6328141169672
 30
0.0
 10
335.9749703895367
 20
576.6366203675985
 30
0.0
 10
336.808912218133
 20
576.646596386009
 30
0.0
 10
337.4207074849364
 20
576.6478354057725
 30
0.0
 10
338.7264594841068
 20
576.651190067469
 30
0.0
 10
339.4223819551774
 20
576.6533494476921
 30
0.0
 10
340.8771142233634
 20
576.6591957829628
 30
0.0
 10
341.6343198293183
 20
576.6629412200364
 30
0.0
 10
343.1782781455686
 20
576.6712628114439
 30
0.0
 10
343.9644076220761
 20
576.6758256870498
 30
0.0
 10
344.7522996623813
 20
576.6791943608882
 30
0.0
  0
SPLINE
  5
DC
330
1F
100
AcDbEntity
  8
0
  6
Continuous
 62
     7
370
    25
100
AcDbSpline
210
0.0
220
0.0
230
1.0
 70
     8
 71
     3
 72
     8
 73
     4
 74
     0
 42
0.000000001
 43
0.00000001
 40
0.0765040534035321
 40
0.0765040534035321
 40
0.0765040534035321
 40
0.0765040534035321
 40
1.0
 40
1.0
 40
1.0
 40
1.0
 10
326.9715435875036
 20
581.2518756174773
 30
0.0
 10
328.8069183706799
 20
579.6853400825453
 30
0.0
 10
330.6514377439755
 20
578.1740477670925
 30
0.0
 10
332.5522996623812
 20
576.6791943608882
 30
0.0
  0
LINE
  5
DD
330
1F
100
AcDbEntity
  8
0
  6
Continuous
 62
     7
370
    25
100
AcDbLine
 10
362.4209939201
 20
581.3221098243
 30
0.0
 11
362.4843368937
 21
581.2940509378
 31
0.0
  0
SPLINE
  5
DE
330
1F
100
AcDbEntity
  8
0
  6
Continuous
 62
     7
370
    25
100
AcDbSpline
210
0.0
220
0.0
230
1.0
 70
     8
 71
     3
 72
     9
 73
     5
 74
     0
 42
0.000000001
 43
0.00000001
 40
0.0
 40
0.0
 40
0.0
 40
0.0
 40
0.5055152910487565
 40
1.0
 40
1.0
 40
1.0
 40
1.0
 10
362.5330562402307
 20
581.2518806516292
 30
0.0
 10
361.6915156152352
 20
580.5395240557689
 30
0.0
 10
360.0267971786285
 20
579.1303548209819
 30
0.0
 10
358.320233564797
 20
577.7721685148998
 30
0.0
 10
357.4763639529048
 20
577.1005661546352
 30
0.0
  0
SPLINE
  5
DF
330
1F
100
AcDbEntity
  8
0
  6
Continuous
 62
     7
370
    25
100
AcDbSpline
210
0.0
220
0.0
230
1.0
 70
     8
 71
     3
 72
    24
 73
    20
 74
     0
 42
0.000000001
 43
0.00000001
 40
0.0
 40
0.0
 40
0.0
 40
0.0
 40
0.1249999999999986
 40
0.1249999999999986
 40
0.2499999999999972
 40
0.2499999999999972
 40
0.3749999999999959
 40
0.3749999999999959
 40
0.4999999999999945
 40
0.4999999999999945
 40
0.6249999999999932
 40
0.6249999999999932
 40
0.6874999999999944
 40
0.6874999999999944
 40
0.7499999999999956
 40
0.7499999999999956
 40
0.8749999999999978
 40
0.8749999999999978
 40
1.0
 40
1.0
 40
1.0
 40
1.0
 10
344.7522996623813
 20
576.6791943608882
 30
0.0
 10
345.5387637791152
 20
576.6758317922121
 30
0.0
 10
346.3235258141498
 20
576.6712787652732
 30
0.0
 10
347.8643272206162
 20
576.6629724190677
 30
0.0
 10
348.6207536286217
 20
576.6592271335774
 30
0.0
 10
350.0737426340852
 20
576.6533792531317
 30
0.0
 10
350.7697487786757
 20
576.6512146852036
 30
0.0
 10
352.0758117422424
 20
576.647853143111
 30
0.0
 10
352.686497669256
 20
576.646667175797
 30
0.0
 10
353.7964239893616
 20
576.6334672642622
 30
0.0
 10
354.2960923549436
 20
576.6250461372738
 30
0.0
 10
354.9498257790233
 20
576.6094774585036
 30
0.0
 10
355.1521080761657
 20
576.6037685815799
 30
0.0
 10
355.5213913825565
 20
576.5915143489971
 30
0.0
 10
355.6890158415123
 20
576.5849488804945
 30
0.0
 10
356.140253444445
 20
576.5645827104031
 30
0.0
 10
356.3683756150771
 20
576.5501060581587
 30
0.0
 10
356.6748885949247
 20
576.5284381656039
 30
0.0
 10
356.7522996623812
 20
576.5221361688291
 30
0.0
 10
356.7522996623812
 20
576.5219127202042
 30
0.0
  0
SPLINE
  5
E0
330
1F
100
AcDbEntity
  8
0
  6
Continuous
 62
     7
370
    25
100
AcDbSpline
210
0.0
220
0.0
230
1.0
 70
     8
 71
     3
 72
     9
 73
     5
 74
     0
 42
0.000000001
 43
0.00000001
 40
0.0
 40
0.0
 40
0.0
 40
0.0
 40
0.2093124891762313
 40
1.0
 40
1.0
 40
1.0
 40
1.0
 10
362.9831215997039
 20
582.3590965329769
 30
0.0
 10
362.9829309768632
 20
582.3581215009286
 30
0.0
 10
362.9820202675145
 20
582.3534632406781
 30
0.0
 10
362.9811103903921
 20
582.4672680964236
 30
0.0
 10
362.9803909619151
 20
582.5572521745327
 30
0.0
  0
SPLINE
  5
E1
330
1F
100
AcDbEntity
  8
0
  6
Continuous
 62
     7
370
    25
100
AcDbSpline
210
0.0
220
0.0
230
1.0
 70
     8
 71
     3
 72
     9
 73
     5
 74
     0
 42
0.000000001
 43
0.00000001
 40
0.0
 40
0.0
 40
0.0
 40
0.0
 40
0.2093275441180895
 40
1.0
 40
1.0
 40
1.0
 40
1.0
 10
326.5214777250587
 20
582.3590965329769
 30
0.0
 10
326.5216683460865
 20
582.3581212119194
 30
0.0
 10
326.5225789812763
 20
582.3534619060383
 30
0.0
 10
326.5234889084747
 20
582.4672684639182
 30
0.0
 10
326.5242083628474
 20
582.5572521745327
 30
0.0
  0
SPLINE
  5
E2
330
1F
100
AcDbEntity
  8
0
  6
Continuous
 62
     7
370
    25
100
AcDbSpline
210
0.0
220
0.0
230
1.0
 70
     8
 71
     3
 72
     8
 73
     4
 74
     0
 42
0.000000001
 43
0.00000001
 40
0.0
 40
0.0
 40
0.0
 40
0.0
 40
0.943216105677887
 40
0.943216105677887
 40
0.943216105677887
 40
0.943216105677887
 10
344.7522996623813
 20
595.4791943608883
 30
0.0
 10
338.2361549875217
 20
595.4791943608883
 30
0.0
 10
332.0023734562213
 20
595.4217249775926
 30
0.0
 10
325.5194097173549
 20
595.3015766638442
 30
0.0
  0
LINE
  5
E3
330
1F
100
AcDbEntity
  8
0
  6
Continuous
 62
     7
370
    25
100
AcDbLine
 10
327.708481874
 20
595.2910543739
 30
0.0
 11
327.7131254484
 21
595.2899814903
 31
0.0
  0
SPLINE
  5
E4
330
1F
100
AcDbEntity
  8
0
  6
Continuous
 62
     7
370
    25
100
AcDbSpline
210
0.0
220
0.0
230
1.0
 70
     8
 71
     3
 72
    20
 73
    16
 74
     0
 42
0.000000001
 43
0.00000001
 40
0.0
 40
0.0
 40
0.0
 40
0.0
 40
0.0312499999999999
 40
0.0312499999999999
 40
0.0624999999999998
 40
0.0624999999999998
 40
0.1249999999999998
 40
0.1249999999999998
 40
0.2499999999999998
 40
0.2499999999999998
 40
0.4999999999999999
 40
0.4999999999999999
 40
0.7499999999999999
 40
0.7499999999999999
 40
1.0
 40
1.0
 40
1.0
 40
1.0
 10
325.7449648877722
 20
595.3021574942112
 30
0.0
 10
325.7842195498702
 20
595.302290469345
 30
0.0
 10
325.8280228533332
 20
595.3024472104315
 30
0.0
 10
325.914252088541
 20
595.3026583629892
 30
0.0
 10
325.9570696835466
 20
595.3027200214718
 30
0.0
 10
326.082252303253
 20
595.3028053677111
 30
0.0
 10
326.1616546015438
 20
595.3027575473981
 30
0.0
 10
326.3889987012053
 20
595.3027516378262
 30
0.0
 10
326.5268830953845
 20
595.3028125415252
 30
0.0
 10
326.9089145741805
 20
595.303070392898
 30
0.0
 10
327.1222377545984
 20
595.3031859447084
 30
0.0
 10
327.4389581952092
 20
595.3029793737694
 30
0.0
 10
327.5403619133351
 20
595.30268664519
 30
0.0
 10
327.6402966664205
 20
595.3023510072102
 30
0.0
 10
327.6407289694387
 20
595.3021858519267
 30
0.0
 10
327.6417794626132
 20
595.3020192625668
 30
0.0
  0
ARC
  5
E5
330
1F
100
AcDbEntity
  8
0
  6
Continuous
 62
     7
370
    25
100
AcDbCircle
 10
362.536441551
 20
590.5223086761
 30
0.0
 40
4.826948688084128
100
AcDbArc
 50
98.0272301204
 51
98.6528059308
  0
SPLINE
  5
E6
330
1F
100
AcDbEntity
  8
0
  6
Continuous
 62
     7
370
    25
100
AcDbSpline
210
0.0
220
0.0
230
1.0
 70
     8
 71
     3
 72
     8
 73
     4
 74
     0
 42
0.000000001
 43
0.00000001
 40
0.0
 40
0.0
 40
0.0
 40
0.0
 40
1.0
 40
1.0
 40
1.0
 40
1.0
 10
344.7522996623829
 20
595.4791943608872
 30
0.0
 10
351.1636274123707
 20
595.4791943608872
 30
0.0
 10
357.5749551499139
 20
595.419973167921
 30
0.0
 10
363.985188945377
 20
595.3015408865757
 30
0.0
  0
SPLINE
  5
E7
330
1F
100
AcDbEntity
  8
0
  6
Continuous
 62
     7
370
    25
100
AcDbSpline
210
0.0
220
0.0
230
1.0
 70
     8
 71
     3
 72
    20
 73
    16
 74
     0
 42
0.000000001
 43
0.00000001
 40
0.0
 40
0.0
 40
0.0
 40
0.0
 40
0.2500000000000002
 40
0.2500000000000002
 40
0.5000000000000004
 40
0.5000000000000004
 40
0.7500000000000002
 40
0.7500000000000002
 40
0.8750000000000001
 40
0.8750000000000001
 40
0.9375
 40
0.9375
 40
0.9687500000000001
 40
0.9687500000000001
 40
1.0
 40
1.0
 40
1.0
 40
1.0
 10
361.8628198621493
 20
595.3020192625668
 30
0.0
 10
361.8638703560159
 20
595.3021858520365
 30
0.0
 10
361.8643026612675
 20
595.3023510073043
 30
0.0
 10
361.9642376060202
 20
595.3026866457592
 30
0.0
 10
362.0656415060597
 20
595.3029793745518
 30
0.0
 10
362.3823624456405
 20
595.3031859447427
 30
0.0
 10
362.5956859195056
 20
595.3030703917534
 30
0.0
 10
362.9777179100896
 20
595.3028125405688
 30
0.0
 10
363.1156024898286
 20
595.3027516373826
 30
0.0
 10
363.3429469349716
 20
595.3027575477017
 30
0.0
 10
363.4223493637957
 20
595.3028053684872
 30
0.0
 10
363.5475321804133
 20
595.302720018554
 30
0.0
 10
363.5903498439015
 20
595.3026583582387
 30
0.0
 10
363.6765791453828
 20
595.3024472022488
 30
0.0
 10
363.7203822308769
 20
595.3022904637066
 30
0.0
 10
363.7596369188067
 20
595.3021574858043
 30
0.0
  0
SPLINE
  5
E8
330
1F
100
AcDbEntity
  8
0
  6
Continuous
 62
     7
370
    25
100
AcDbSpline
210
0.0
220
0.0
230
1.0
 70
     8
 71
     3
 72
    14
 73
    10
 74
     0
 42
0.000000001
 43
0.00000001
 40
0.0
 40
0.0
 40
0.0
 40
0.0
 40
0.25
 40
0.25
 40
0.5
 40
0.5
 40
0.75
 40
0.75
 40
1.0
 40
1.0
 40
1.0
 40
1.0
 10
326.5237007530963
 20
594.0900297029413
 30
0.0
 10
326.5237008447617
 20
594.2462278963548
 30
0.0
 10
326.5545799885344
 20
594.4023659951723
 30
0.0
 10
326.6734929930847
 20
594.6912453178256
 30
0.0
 10
326.761481104108
 20
594.8238754002599
 30
0.0
 10
326.9814034913169
 20
595.0457442391248
 30
0.0
 10
327.1132531561077
 20
595.1348976352967
 30
0.0
 10
327.4010736025972
 20
595.2563516109261
 30
0.0
 10
327.5569336502786
 20
595.2886054630342
 30
0.0
 10
327.7131259050932
 20
595.2899820167528
 30
0.0
  0
LINE
  5
E9
330
1F
100
AcDbEntity
  8
0
  6
Continuous
 62
     7
370
    25
100
AcDbLine
 10
362.9967114587
 20
582.3015631496
 30
0.0
 11
362.9903915037
 21
582.2516591608
 31
0.0
  0
LINE
  5
EA
330
1F
100
AcDbEntity
  8
0
  6
Continuous
 62
     7
370
    25
100
AcDbLine
 10
362.9932022353
 20
594.093746072
 30
0.0
 11
362.9877279212
 21
594.0920920431
 31
0.0
  0
LINE
  5
EB
330
1F
100
AcDbEntity
  8
0
  6
Continuous
 62
     7
370
    25
100
AcDbLine
 10
326.5078953166
 20
582.301503545
 30
0.0
 11
326.5142115463
 21
582.2516144573
 31
0.0
  0
LINE
  5
EC
330
1F
100
AcDbEntity
  8
0
  6
Continuous
 62
     7
370
    25
100
AcDbLine
 10
326.5169161071
 20
594.0920771419
 30
0.0
 11
326.5113859136
 21
594.093746072
 31
0.0
  0
LINE
  5
ED
330
1F
100
AcDbEntity
  8
0
  6
Continuous
 62
     7
370
    25
100
AcDbLine
 10
355.7522996028
 20
571.3565410434
 30
0.0
 11
355.7522996028
 21
574.7791887581
 31
0.0
  0
LINE
  5
EE
330
1F
100
AcDbEntity
  8
0
  6
Continuous
 62
     7
370
    25
100
AcDbLine
 10
355.7522996028
 20
571.3565410434
 30
0.0
 11
333.752299722
 21
571.3565410434
 31
0.0
  0
LINE
  5
EF
330
1F
100
AcDbEntity
  8
0
  6
Continuous
 62
     7
370
    25
100
AcDbLine
 10
333.752299722
 20
571.3565410434
 30
0.0
 11
333.752299722
 21
574.7791887581
 31
0.0
  0
LINE
  5
F0
330
1F
100
AcDbEntity
  8
0
  6
Continuous
 62
     7
370
    25
100
AcDbLine
 10
332.7522995581
 20
574.7791887581
 30
0.0
 11
333.752299722
 21
574.7791887581
 31
0.0
  0
LINE
  5
F1
330
1F
100
AcDbEntity
  8
0
  6
Continuous
 62
     7
370
    25
100
AcDbLine
 10
355.7522996028
 20
574.7791887581
 30
0.0
 11
356.7522997667
 21
574.7791887581
 31
0.0
  0
SPLINE
  5
F2
330
1F
100
AcDbEntity
  8
0
  6
Continuous
 62
     7
370
    25
100
AcDbSpline
210
0.0
220
0.0
230
1.0
 70
    24
 71
     3
 72
    10
 73
     6
 74
     0
 42
0.000000001
 43
0.00000001
 40
0.0
 40
0.0
 40
0.0
 40
0.0
 40
0.5
 40
0.5
 40
1.0
 40
1.0
 40
1.0
 40
1.0
 10
355.7522996623812
 20
570.779194360889
 30
0.0
 10
355.7522996623812
 20
570.779194360889
 30
0.0
 10
355.7522996623812
 20
570.8321579934595
 30
0.0
 10
355.7522996623812
 20
571.0312083216869
 30
0.0
 10
355.7522996623812
 20
571.1763968997809
 30
0.0
 10
355.7522996623812
 20
571.3565446300786
 30
0.0
  0
LINE
  5
F3
330
1F
100
AcDbEntity
  8
0
  6
Continuous
 62
     7
370
    25
100
AcDbLine
 10
355.7522996028
 20
570.779195553
 30
0.0
 11
333.752299722
 21
570.779195553
 31
0.0
  0
SPLINE
  5
F4
330
1F
100
AcDbEntity
  8
0
  6
Continuous
 62
     7
370
    25
100
AcDbSpline
210
0.0
220
0.0
230
1.0
 70
    24
 71
     3
 72
    10
 73
     6
 74
     0
 42
0.000000001
 43
0.00000001
 40
0.0
 40
0.0
 40
0.0
 40
0.0
 40
0.5
 40
0.5
 40
1.0
 40
1.0
 40
1.0
 40
1.0
 10
333.7522996623813
 20
570.779194360889
 30
0.0
 10
333.7522996623813
 20
570.779194360889
 30
0.0
 10
333.7522996623813
 20
570.8321579934595
 30
0.0
 10
333.7522996623813
 20
571.0312083216869
 30
0.0
 10
333.7522996623813
 20
571.1763968997809
 30
0.0
 10
333.7522996623813
 20
571.3565446300786
 30
0.0
  0
LINE
  5
F5
330
1F
100
AcDbEntity
  8
0
  6
Continuous
 62
     7
370
    25
100
AcDbLine
 10
335.6022993733
 20
570.5791921674
 30
0.0
 11
353.9022999515
 21
570.5791921674
 31
0.0
  0
LINE
  5
F6
330
1F
100
AcDbEntity
  8
0
  6
Continuous
 62
     7
370
    25
100
AcDbLine
 10
344.7522996624
 20
425.2791940554
 30
0.0
 11
319.2523001392
 21
425.2791940554
 31
0.0
  0
LINE
  5
F7
330
1F
100
AcDbEntity
  8
0
  6
Continuous
 62
     7
370
    25
100
AcDbLine
 10
370.2522991855
 20
425.2791940554
 30
0.0
 11
344.7522996624
 21
425.2791940554
 31
0.0
  0
LINE
  5
F8
330
1F
100
AcDbEntity
  8
0
  6
Continuous
 62
     7
370
    25
100
AcDbLine
 10
344.7522996624
 20
415.7791943609
 30
0.0
 11
317.752298962
 21
415.7791943609
 31
0.0
  0
LINE
  5
F9
330
1F
100
AcDbEntity
  8
0
  6
Continuous
 62
     7
370
    25
100
AcDbLine
 10
371.7523003627
 20
415.7791943609
 30
0.0
 11
344.7522996624
 21
415.7791943609
 31
0.0
  0
SPLINE
  5
FA
330
1F
100
AcDbEntity
  8
0
  6
Continuous
 62
     7
370
    25
100
AcDbSpline
210
0.0
220
0.0
230
1.0
 70
     8
 71
     3
 72
    14
 73
    10
 74
     0
 42
0.000000001
 43
0.00000001
 40
0.0
 40
0.0
 40
0.0
 40
0.0
 40
0.25
 40
0.25
 40
0.5
 40
0.5
 40
0.75
 40
0.75
 40
1.0
 40
1.0
 40
1.0
 40
1.0
 10
363.9851548606061
 20
595.3015415163138
 30
0.0
 10
364.1400116633939
 20
595.2986804643605
 30
0.0
 10
364.2942501333453
 20
595.2654705789403
 30
0.0
 10
364.5788739909232
 20
595.1432227992088
 30
0.0
 10
364.709153503011
 20
595.0542303791233
 30
0.0
 10
364.9265444458886
 20
594.8335576850568
 30
0.0
 10
365.0135750107124
 20
594.7019594978009
 30
0.0
 10
365.1315447928892
 20
594.4155360517549
 30
0.0
 10
365.1624401273635
 20
594.2608173379216
 30
0.0
 10
365.1629807707301
 20
594.105935051353
 30
0.0
  0
SPLINE
  5
FB
330
1F
100
AcDbEntity
  8
0
  6
Continuous
 62
     7
370
    25
100
AcDbSpline
210
0.0
220
0.0
230
1.0
 70
     8
 71
     3
 72
    14
 73
    10
 74
     0
 42
0.000000001
 43
0.00000001
 40
0.0
 40
0.0
 40
0.0
 40
0.0
 40
0.25
 40
0.25
 40
0.5
 40
0.5
 40
0.75
 40
0.75
 40
1.0
 40
1.0
 40
1.0
 40
1.0
 10
325.5193756327158
 20
595.3015760321554
 30
0.0
 10
325.3645247409802
 20
595.2987061865435
 30
0.0
 10
325.2102938734337
 20
595.265489822206
 30
0.0
 10
324.9256858471441
 20
595.1432343106239
 30
0.0
 10
324.7954145423934
 20
595.054240633756
 30
0.0
 10
324.5780380076459
 20
594.8335698815441
 30
0.0
 10
324.4910136262968
 20
594.7019748800631
 30
0.0
 10
324.3730523369961
 20
594.4155603675694
 30
0.0
 10
324.3421593022746
 20
594.2608473824334
 30
0.0
 10
324.34161867897
 20
594.1059708431785
 30
0.0
  0
LINE
  5
FC
330
1F
100
AcDbEntity
  8
0
  6
Continuous
 62
     8
370
    18
100
AcDbLine
 10
271.7523007353
 20
423.7791947409
 30
0.0
 11
217.7522956093
 21
423.7791947409
 31
0.0
  0
SPLINE
  5
FD
330
1F
100
AcDbEntity
  8
0
  6
Continuous
 62
     8
370
    18
100
AcDbSpline
210
0.0
220
0.0
230
1.0
 70
     8
 71
     3
 72
    18
 73
    14
 74
     0
 42
0.000000001
 43
0.00000001
 40
0.0
 40
0.0
 40
0.0
 40
0.0
 40
0.0625000000000003
 40
0.0625000000000003
 40
0.1250000000000007
 40
0.1250000000000007
 40
0.2500000000000014
 40
0.2500000000000014
 40
0.5000000000000009
 40
0.5000000000000009
 40
0.7500000000000004
 40
0.7500000000000004
 40
1.0
 40
1.0
 40
1.0
 40
1.0
 10
240.2742419505447
 20
456.7349421279678
 30
0.0
 10
239.8475580339271
 20
456.7355747203024
 30
0.0
 10
239.4237041600133
 20
456.7361856184555
 30
0.0
 10
238.5723823821493
 20
456.7365576314084
 30
0.0
 10
238.1456901453208
 20
456.7365017218717
 30
0.0
 10
236.862211490801
 20
456.7368539737176
 30
0.0
 10
236.0022344978707
 20
456.7373645591113
 30
0.0
 10
233.4101926119061
 20
456.7377073053543
 30
0.0
 10
231.6706942075588
 20
456.7377180446571
 30
0.0
 10
228.1612126098248
 20
456.7370467257796
 30
0.0
 10
226.4011430526652
 20
456.7364219669956
 30
0.0
 10
222.8745288437635
 20
456.7346651360529
 30
0.0
 10
221.1076142297282
 20
456.7335657833374
 30
0.0
 10
219.3406554582289
 20
456.732575413529
 30
0.0
  0
SPLINE
  5
FE
330
1F
100
AcDbEntity
  8
0
  6
Continuous
 62
     8
370
    18
100
AcDbSpline
210
0.0
220
0.0
230
1.0
 70
     8
 71
     3
 72
     8
 73
     4
 74
     0
 42
0.000000001
 43
0.00000001
 40
0.0
 40
0.0
 40
0.0
 40
0.0
 40
1.0
 40
1.0
 40
1.0
 40
1.0
 10
244.7522996623813
 20
456.7323518845717
 30
0.0
 10
243.2327805093635
 20
456.7323518845717
 30
0.0
 10
241.740094374012
 20
456.7327689841735
 30
0.0
 10
240.2742419505447
 20
456.7349421279677
 30
0.0
  0
LINE
  5
FF
330
1F
100
AcDbEntity
  8
0
  6
Continuous
 62
     8
370
    18
100
AcDbLine
 10
261.7523028214
 20
456.7323015391
 30
0.0
 11
244.7522981723
 21
456.7323015391
 31
0.0
  0
LINE
  5
100
330
1F
100
AcDbEntity
  8
0
  6
Continuous
 62
     8
370
    18
100
AcDbLine
 10
231.7523016293
 20
426.579194641
 30
0.0
 11
261.7523028214
 21
426.579194641
 31
0.0
  0
SPLINE
  5
101
330
1F
100
AcDbEntity
  8
0
  6
Continuous
 62
     8
370
    18
100
AcDbSpline
210
0.0
220
0.0
230
1.0
 70
     8
 71
     3
 72
    14
 73
    10
 74
     0
 42
0.000000001
 43
0.00000001
 40
0.0
 40
0.0
 40
0.0
 40
0.0
 40
0.4999999999999951
 40
0.4999999999999951
 40
0.7499999999999927
 40
0.7499999999999927
 40
0.8749999999999963
 40
0.8749999999999963
 40
1.0
 40
1.0
 40
1.0
 40
1.0
 10
240.6574595389649
 20
458.2339749299459
 30
0.0
 10
241.3277632993414
 20
458.232911933652
 30
0.0
 10
242.0042353993247
 20
458.232287889403
 30
0.0
 10
243.0279482639393
 20
458.2317421422084
 30
0.0
 10
243.3706917802957
 20
458.2316259585104
 30
0.0
 10
243.8870795932401
 20
458.2315199303561
 30
0.0
 10
244.0595879345415
 20
458.2314959848401
 30
0.0
 10
244.4053687804553
 20
458.2314657426172
 30
0.0
 10
244.5801677633156
 20
458.2314595036231
 30
0.0
 10
244.7522996623813
 20
458.2314594922354
 30
0.0
  0
ARC
  5
102
330
1F
100
AcDbEntity
  8
0
  6
Continuous
 62
     8
370
    18
100
AcDbCircle
 10
232.1124776981
 20
426.537668324
 30
0.0
 40
0.3625620437119126
100
AcDbArc
 50
173.423151212
 51
261.3877502116
  0
LINE
  5
103
330
1F
100
AcDbEntity
  8
0
  6
Continuous
 62
     8
370
    18
100
AcDbLine
 10
219.3406550844
 20
454.4332498073
 30
0.0
 11
219.3401782472
 21
454.3878720461
 31
0.0
  0
SPLINE
  5
104
330
1F
100
AcDbEntity
  8
0
  6
Continuous
 62
     8
370
    18
100
AcDbSpline
210
0.0
220
0.0
230
1.0
 70
     8
 71
     3
 72
    16
 73
    12
 74
     0
 42
0.000000001
 43
0.00000001
 40
0.0
 40
0.0
 40
0.0
 40
0.0
 40
0.0625
 40
0.0625
 40
0.125
 40
0.125
 40
0.25
 40
0.25
 40
0.5
 40
0.5
 40
1.0
 40
1.0
 40
1.0
 40
1.0
 10
180.0916218185838
 20
458.2173950357978
 30
0.0
 10
180.9093375193526
 20
458.221121781619
 30
0.0
 10
181.7270631600479
 20
458.2204319184613
 30
0.0
 10
183.3625123339794
 20
458.2199502803831
 30
0.0
 10
184.18023586501
 20
458.2201874280014
 30
0.0
 10
186.6334074947924
 20
458.2204501794292
 30
0.0
 10
188.2688556458011
 20
458.2204645503616
 30
0.0
 10
193.17519860648
 20
458.2211304677996
 30
0.0
 10
196.4460932602066
 20
458.2218642422805
 30
0.0
 10
206.2587753081308
 20
458.2248484161161
 30
0.0
 10
212.8005602817782
 20
458.2281609018603
 30
0.0
 10
219.3423436736009
 20
458.2316977833945
 30
0.0
  0
SPLINE
  5
105
330
1F
100
AcDbEntity
  8
0
  6
Continuous
 62
     8
370
    18
100
AcDbSpline
210
0.0
220
0.0
230
1.0
 70
     8
 71
     3
 72
    13
 73
     9
 74
     0
 42
0.000000001
 43
0.00000001
 40
0.0
 40
0.0
 40
0.0
 40
0.0
 40
0.0253526474947749
 40
0.1825894224778158
 40
0.3477019584055902
 40
0.5040103318841169
 40
0.767357189957779
 40
1.0
 40
1.0
 40
1.0
 40
1.0
 10
181.5646915395556
 20
458.3779448031547
 30
0.0
 10
181.5637241401347
 20
458.3777831060268
 30
0.0
 10
181.556756942661
 20
458.3766185655101
 30
0.0
 10
181.5004580095554
 20
458.3682250716777
 30
0.0
 10
181.387064319349
 20
458.3523712488848
 30
0.0
 10
181.1640163783827
 20
458.3240682230233
 30
0.0
 10
180.8086868819127
 20
458.2810478021917
 30
0.0
 10
180.3205209482226
 20
458.237714092964
 30
0.0
 10
180.0915478427707
 20
458.2173885165813
 30
0.0
  0
SPLINE
  5
106
330
1F
100
AcDbEntity
  8
0
  6
Continuous
 62
     8
370
    18
100
AcDbSpline
210
0.0
220
0.0
230
1.0
 70
    24
 71
     3
 72
     8
 73
     4
 74
     0
 42
0.000000001
 43
0.00000001
 40
0.0
 40
0.0
 40
0.0
 40
0.0
 40
1.0
 40
1.0
 40
1.0
 40
1.0
 10
244.7522996623813
 20
458.4991943608888
 30
0.0
 10
244.7522996623813
 20
458.4991943608887
 30
0.0
 10
244.7522996623813
 20
458.4099159233744
 30
0.0
 10
244.7522996623813
 20
458.2314119686765
 30
0.0
  0
SPLINE
  5
107
330
1F
100
AcDbEntity
  8
0
  6
Continuous
 62
     8
370
    18
100
AcDbSpline
210
0.0
220
0.0
230
1.0
 70
     8
 71
     3
 72
    20
 73
    16
 74
     0
 42
0.000000001
 43
0.00000001
 40
0.0
 40
0.0
 40
0.0
 40
0.0
 40
0.2499999999999998
 40
0.2499999999999998
 40
0.3749999999999998
 40
0.3749999999999998
 40
0.4999999999999999
 40
0.4999999999999999
 40
0.6249999999999999
 40
0.6249999999999999
 40
0.7499999999999999
 40
0.7499999999999999
 40
0.875
 40
0.875
 40
1.0
 40
1.0
 40
1.0
 40
1.0
 10
179.5474127429568
 20
456.7155435278317
 30
0.0
 10
179.1594582489985
 20
456.7131816206444
 30
0.0
 10
178.772020787841
 20
456.7108970515684
 30
0.0
 10
178.2024851745892
 20
456.7087765513452
 30
0.0
 10
178.0170129492677
 20
456.7082821717144
 30
0.0
 10
177.6681590711323
 20
456.707786832192
 30
0.0
 10
177.5059378463823
 20
456.7077781028089
 30
0.0
 10
177.2328848084613
 20
456.7078085151072
 30
0.0
 10
177.1200811331863
 20
456.7078595149206
 30
0.0
 10
176.9490362700922
 20
456.7085763922523
 30
0.0
 10
176.8877367160329
 20
456.7092499060332
 30
0.0
 10
176.8026670405237
 20
456.7111739377263
 30
0.0
 10
176.7782785769898
 20
456.7124175461308
 30
0.0
 10
176.7529574619631
 20
456.7154789690682
 30
0.0
 10
176.7522996623813
 20
456.7173256652853
 30
0.0
 10
176.7522996623813
 20
456.719534605278
 30
0.0
  0
SPLINE
  5
108
330
1F
100
AcDbEntity
  8
0
  6
Continuous
 62
     8
370
    18
100
AcDbSpline
210
0.0
220
0.0
230
1.0
 70
     8
 71
     3
 72
    24
 73
    20
 74
     0
 42
0.000000001
 43
0.00000001
 40
0.0
 40
0.0
 40
0.0
 40
0.0
 40
0.250000000000044
 40
0.250000000000044
 40
0.3750000000000648
 40
0.3750000000000648
 40
0.4375000000000708
 40
0.4375000000000708
 40
0.4687500000000728
 40
0.4687500000000728
 40
0.5000000000000747
 40
0.5000000000000747
 40
0.5625000000000786
 40
0.5625000000000786
 40
0.6250000000000825
 40
0.6250000000000825
 40
0.750000000000055
 40
0.750000000000055
 40
1.0
 40
1.0
 40
1.0
 40
1.0
 10
178.2193384659243
 20
458.2190759348921
 30
0.0
 10
178.221159810511
 20
458.2169050579315
 30
0.0
 10
178.222175168532
 20
458.2146176268055
 30
0.0
 10
178.2531895668201
 20
458.2114530156272
 30
0.0
 10
178.2684260328627
 20
458.2104377484212
 30
0.0
 10
178.305286766305
 20
458.2090694240231
 30
0.0
 10
178.3199454005009
 20
458.2086351360833
 30
0.0
 10
178.3479701512937
 20
458.208065303614
 30
0.0
 10
178.3582503748776
 20
458.207889604145
 30
0.0
 10
178.3821719347747
 20
458.2075964913785
 30
0.0
 10
178.3958452298181
 20
458.2074650587366
 30
0.0
 10
178.450817592032
 20
458.2074888508971
 30
0.0
 10
178.496902743311
 20
458.2077819911146
 30
0.0
 10
178.5869654353575
 20
458.2083383455109
 30
0.0
 10
178.6334571724989
 20
458.2086588875814
 30
0.0
 10
178.7746435397922
 20
458.2096655364692
 30
0.0
 10
178.8696245874712
 20
458.2103880732934
 30
0.0
 10
179.1558359060081
 20
458.2125508165968
 30
0.0
 10
179.3484057833978
 20
458.2140051016451
 30
0.0
 10
179.5408427366723
 20
458.215143692174
 30
0.0
  0
ARC
  5
109
330
1F
100
AcDbEntity
  8
0
  6
Continuous
 62
     8
370
    18
100
AcDbCircle
 10
403.481364668
 20
458.4466632283
 30
0.0
 40
223.9406387185032
100
AcDbArc
 50
180.0592352605
 51
180.4429153469
  0
ARC
  5
10A
330
1F
100
AcDbEntity
  8
0
  6
Continuous
 62
     8
370
    18
100
AcDbCircle
 10
178.2522447303
 20
456.7194943184
 30
0.0
 40
1.499942803492375
100
AcDbArc
 50
91.257164053
 51
179.9984471932
  0
SPLINE
  5
10B
330
1F
100
AcDbEntity
  8
0
  6
Continuous
 62
     8
370
    18
100
AcDbSpline
210
0.0
220
0.0
230
1.0
 70
     8
 71
     3
 72
    16
 73
    12
 74
     0
 42
0.000000001
 43
0.00000001
 40
0.0
 40
0.0
 40
0.0
 40
0.0
 40
0.5000000000000011
 40
0.5000000000000011
 40
0.7500000000000006
 40
0.7500000000000006
 40
0.8750000000000002
 40
0.8750000000000002
 40
0.9375000000000002
 40
0.9375000000000002
 40
1.0
 40
1.0
 40
1.0
 40
1.0
 10
219.3406554582289
 20
456.7325754135289
 30
0.0
 10
212.7998912369865
 20
456.7289093543807
 30
0.0
 10
206.2591268973683
 20
456.7255054172934
 30
0.0
 10
196.4479794677481
 20
456.7224371125857
 30
0.0
 10
193.1775968828979
 20
456.7216835363391
 30
0.0
 10
188.2720228994408
 20
456.7209990125741
 30
0.0
 10
186.6368315110616
 20
456.7209840975098
 30
0.0
 10
184.1840444985049
 20
456.7207151813609
 30
0.0
 10
183.3664488716251
 20
456.7204706949993
 30
0.0
 10
181.7312573401393
 20
456.7209597236335
 30
0.0
 10
180.9136614383771
 20
456.7216832247228
 30
0.0
 10
180.0960668256588
 20
456.7178674161154
 30
0.0
  0
SPLINE
  5
10C
330
1F
100
AcDbEntity
  8
0
  6
Continuous
 62
     8
370
    18
100
AcDbSpline
210
0.0
220
0.0
230
1.0
 70
     8
 71
     3
 72
     8
 73
     4
 74
     0
 42
0.000000001
 43
0.00000001
 40
0.0
 40
0.0
 40
0.0
 40
0.0
 40
0.0005486600506291
 40
0.0005486600506291
 40
0.0005486600506291
 40
0.0005486600506291
 10
180.0960664119118
 20
456.7180104560393
 30
0.0
 10
179.9131807719968
 20
456.7174814530322
 30
0.0
 10
179.7302957587092
 20
456.7166569385952
 30
0.0
 10
179.5474127429568
 20
456.7155435278317
 30
0.0
  0
SPLINE
  5
10D
330
1F
100
AcDbEntity
  8
0
  6
Continuous
 62
     8
370
    18
100
AcDbSpline
210
0.0
220
0.0
230
1.0
 70
     8
 71
     3
 72
     8
 73
     4
 74
     0
 42
0.000000001
 43
0.00000001
 40
0.0
 40
0.0
 40
0.0
 40
0.0
 40
0.000550661969779
 40
0.000550661969779
 40
0.000550661969779
 40
0.000550661969779
 10
179.5408427366723
 20
458.215143692174
 30
0.0
 10
179.7243853301375
 20
458.2162296574995
 30
0.0
 10
179.9079305512821
 20
458.2170267107724
 30
0.0
 10
180.0914769025008
 20
458.2175287567446
 30
0.0
  0
SPLINE
  5
10E
330
1F
100
AcDbEntity
  8
0
  6
Continuous
 62
     8
370
    18
100
AcDbSpline
210
0.0
220
0.0
230
1.0
 70
     8
 71
     3
 72
    10
 73
     6
 74
     0
 42
0.000000001
 43
0.00000001
 40
0.0
 40
0.0
 40
0.0
 40
0.0
 40
0.5
 40
0.5
 40
1.0
 40
1.0
 40
1.0
 40
1.0
 10
178.1625106199368
 20
458.2886332735804
 30
0.0
 10
178.1641251451022
 20
458.2816313948097
 30
0.0
 10
178.170790568422
 20
458.2720314719547
 30
0.0
 10
178.1891506520729
 20
458.2499583177659
 30
0.0
 10
178.2026400390617
 20
458.2389789397491
 30
0.0
 10
178.2193384659243
 20
458.2190759348921
 30
0.0
  0
LINE
  5
10F
330
1F
100
AcDbEntity
  8
0
  6
Continuous
 62
     8
370
    18
100
AcDbLine
 10
227.7523009737
 20
426.579194641
 30
0.0
 11
231.7523016293
 21
426.579194641
 31
0.0
  0
LINE
  5
110
330
1F
100
AcDbEntity
  8
0
  6
Continuous
 62
     8
370
    18
100
AcDbLine
 10
228.1015916426
 20
439.0342985599
 30
0.0
 11
228.1015916426
 21
438.9909492194
 31
0.0
  0
LINE
  5
111
330
1F
100
AcDbEntity
  8
0
  6
Continuous
 62
     8
370
    18
100
AcDbLine
 10
471.7523037155
 20
423.7791947409
 30
0.0
 11
417.7522985895
 21
423.7791947409
 31
0.0
  0
SPLINE
  5
112
330
1F
100
AcDbEntity
  8
0
  6
Continuous
 62
     8
370
    18
100
AcDbSpline
210
0.0
220
0.0
230
1.0
 70
     8
 71
     3
 72
    18
 73
    14
 74
     0
 42
0.000000001
 43
0.00000001
 40
0.0
 40
0.0
 40
0.0
 40
0.0
 40
0.2499999999999995
 40
0.2499999999999995
 40
0.499999999999999
 40
0.499999999999999
 40
0.7499999999999984
 40
0.7499999999999984
 40
0.8749999999999982
 40
0.8749999999999982
 40
0.9374999999999991
 40
0.9374999999999991
 40
1.0
 40
1.0
 40
1.0
 40
1.0
 10
470.1639438665337
 20
456.7325754135255
 30
0.0
 10
468.3969850827154
 20
456.733565783341
 30
0.0
 10
466.6300704563643
 20
456.7346651360661
 30
0.0
 10
463.1034562229719
 20
456.7364219670125
 30
0.0
 10
461.3433866533456
 20
456.7370467257998
 30
0.0
 10
457.8339050319915
 20
456.7377180446581
 30
0.0
 10
456.0944066157883
 20
456.737707305369
 30
0.0
 10
453.502364712785
 20
456.7373645590773
 30
0.0
 10
452.6423877142248
 20
456.7368539736457
 30
0.0
 10
451.3589090513989
 20
456.7365017218509
 30
0.0
 10
450.9322168118371
 20
456.736557631401
 30
0.0
 10
450.0808950284393
 20
456.7361856183394
 30
0.0
 10
449.6559912830715
 20
456.7355731635793
 30
0.0
 10
449.2303573742179
 20
456.7349421279644
 30
0.0
  0
ARC
  5
113
330
1F
100
AcDbEntity
  8
0
  6
Continuous
 62
     8
370
    18
100
AcDbCircle
 10
236.406234447
 20
457.2195785341
 30
0.0
 40
233.7582170921558
100
AcDbArc
 50
359.8806324715
 51
0.2480782015
  0
SPLINE
  5
114
330
1F
100
AcDbEntity
  8
0
  6
Continuous
 62
     8
370
    18
100
AcDbSpline
210
0.0
220
0.0
230
1.0
 70
     8
 71
     3
 72
    14
 73
    10
 74
     0
 42
0.000000001
 43
0.00000001
 40
0.0
 40
0.0
 40
0.0
 40
0.0
 40
0.1249999999999999
 40
0.1249999999999999
 40
0.2499999999999999
 40
0.2499999999999999
 40
0.4999999999999999
 40
0.4999999999999999
 40
1.0
 40
1.0
 40
1.0
 40
1.0
 10
444.7522996623813
 20
458.2314594922319
 30
0.0
 10
444.924431561447
 20
458.2314595036294
 30
0.0
 10
445.0992305443074
 20
458.2314657426138
 30
0.0
 10
445.4450113902212
 20
458.2314959848367
 30
0.0
 10
445.6175197315226
 20
458.2315199303525
 30
0.0
 10
446.1339075444669
 20
458.231625958507
 30
0.0
 10
446.4766510608234
 20
458.231742142205
 30
0.0
 10
447.500363925438
 20
458.2322878893996
 30
0.0
 10
448.1768360254211
 20
458.2329119336486
 30
0.0
 10
448.8471397857977
 20
458.2339749299425
 30
0.0
  0
SPLINE
  5
115
330
1F
100
AcDbEntity
  8
0
  6
Continuous
 62
     8
370
    18
100
AcDbSpline
210
0.0
220
0.0
230
1.0
 70
     8
 71
     3
 72
     8
 73
     4
 74
     0
 42
0.000000001
 43
0.00000001
 40
0.0
 40
0.0
 40
0.0
 40
0.0
 40
1.0
 40
1.0
 40
1.0
 40
1.0
 10
449.2303573742179
 20
456.7349421279643
 30
0.0
 10
447.7645049507506
 20
456.7327689841701
 30
0.0
 10
446.2718188153991
 20
456.7323518845682
 30
0.0
 10
444.7522996623813
 20
456.7323518845682
 30
0.0
  0
LINE
  5
116
330
1F
100
AcDbEntity
  8
0
  6
Continuous
 62
     8
370
    18
100
AcDbLine
 10
444.7523011525
 20
456.7323015391
 30
0.0
 11
427.7522965033
 21
456.7323015391
 31
0.0
  0
SPLINE
  5
117
330
1F
100
AcDbEntity
  8
0
  6
Continuous
 62
     8
370
    18
100
AcDbSpline
210
0.0
220
0.0
230
1.0
 70
     8
 71
     3
 72
     8
 73
     4
 74
     0
 42
0.000000001
 43
0.00000001
 40
0.0
 40
0.0
 40
0.0
 40
0.0
 40
1.0
 40
1.0
 40
1.0
 40
1.0
 10
470.1639438665338
 20
454.433248672539
 30
0.0
 10
470.1641022856847
 20
454.4181212648579
 30
0.0
 10
470.164260305361
 20
454.402993857388
 30
0.0
 10
470.1644178532425
 20
454.3878733734034
 30
0.0
  0
SPLINE
  5
118
330
1F
100
AcDbEntity
  8
0
  6
Continuous
 62
     8
370
    18
100
AcDbSpline
210
0.0
220
0.0
230
1.0
 70
     8
 71
     3
 72
    13
 73
     9
 74
     0
 42
0.000000001
 43
0.00000001
 40
0.0
 40
0.0
 40
0.0
 40
0.0
 40
0.0253526474947749
 40
0.1825894224778158
 40
0.3477019584055902
 40
0.5040103318841169
 40
0.767357189957779
 40
1.0
 40
1.0
 40
1.0
 40
1.0
 10
507.9399077852069
 20
458.3779448031547
 30
0.0
 10
507.9408751846279
 20
458.3777831060268
 30
0.0
 10
507.9478423821016
 20
458.3766185655101
 30
0.0
 10
508.0041413152072
 20
458.3682250716777
 30
0.0
 10
508.1175350054136
 20
458.3523712488848
 30
0.0
 10
508.3405829463799
 20
458.3240682230233
 30
0.0
 10
508.6959124428498
 20
458.2810478021917
 30
0.0
 10
509.18407837654
 20
458.237714092964
 30
0.0
 10
509.4130514819919
 20
458.2173885165813
 30
0.0
  0
SPLINE
  5
119
330
1F
100
AcDbEntity
  8
0
  6
Continuous
 62
     8
370
    18
100
AcDbSpline
210
0.0
220
0.0
230
1.0
 70
     8
 71
     3
 72
    16
 73
    12
 74
     0
 42
0.000000001
 43
0.00000001
 40
0.0
 40
0.0
 40
0.0
 40
0.0
 40
0.5000000000000011
 40
0.5000000000000011
 40
0.7500000000000017
 40
0.7500000000000017
 40
0.875000000000002
 40
0.875000000000002
 40
0.937500000000001
 40
0.937500000000001
 40
1.0
 40
1.0
 40
1.0
 40
1.0
 10
470.1622556511823
 20
458.231697783391
 30
0.0
 10
476.7040390430015
 20
458.2281609018563
 30
0.0
 10
483.2458240166457
 20
458.224848416113
 30
0.0
 10
493.0585060645647
 20
458.2218642422768
 30
0.0
 10
496.3294007182895
 20
458.2211304677959
 30
0.0
 10
501.2357436789658
 20
458.2204645503579
 30
0.0
 10
502.8711918299737
 20
458.2204501794257
 30
0.0
 10
505.3243634597549
 20
458.220187427998
 30
0.0
 10
506.1420869907851
 20
458.2199502803794
 30
0.0
 10
507.7775361647158
 20
458.220431918458
 30
0.0
 10
508.5952618054104
 20
458.2211217816156
 30
0.0
 10
509.4129775061788
 20
458.2173950357943
 30
0.0
  0
SPLINE
  5
11A
330
1F
100
AcDbEntity
  8
0
  6
Continuous
 62
     8
370
    18
100
AcDbSpline
210
0.0
220
0.0
230
1.0
 70
    24
 71
     3
 72
     9
 73
     5
 74
     0
 42
0.000000001
 43
0.00000001
 40
0.0
 40
0.0
 40
0.0
 40
0.0
 40
0.5
 40
0.9151818179902179
 40
0.9151818179902179
 40
0.9151818179902179
 40
0.9151818179902179
 10
444.7522996623813
 20
458.4991943608847
 30
0.0
 10
444.7522996623813
 20
458.4991943608847
 30
0.0
 10
444.7522996623813
 20
458.4509969813466
 30
0.0
 10
444.7522996623813
 20
458.3128997256398
 30
0.0
 10
444.7522996623813
 20
458.2314610610694
 30
0.0
  0
SPLINE
  5
11B
330
1F
100
AcDbEntity
  8
0
  6
Continuous
 62
     8
370
    18
100
AcDbSpline
210
0.0
220
0.0
230
1.0
 70
     8
 71
     3
 72
    20
 73
    16
 74
     0
 42
0.000000001
 43
0.00000001
 40
0.0
 40
0.0
 40
0.0
 40
0.0
 40
0.125
 40
0.125
 40
0.2500000000000001
 40
0.2500000000000001
 40
0.3750000000000001
 40
0.3750000000000001
 40
0.5000000000000001
 40
0.5000000000000001
 40
0.6250000000000001
 40
0.6250000000000001
 40
0.7500000000000002
 40
0.7500000000000002
 40
1.0
 40
1.0
 40
1.0
 40
1.0
 10
512.7522996623812
 20
456.7195346052746
 30
0.0
 10
512.7522996623812
 20
456.7173248875936
 30
0.0
 10
512.7516409948523
 20
456.7154776794835
 30
0.0
 10
512.7262948632589
 20
456.7124156024817
 30
0.0
 10
512.7018829507151
 20
456.7111718420304
 30
0.0
 10
512.6167321884308
 20
456.7092479382785
 30
0.0
 10
512.555373176613
 20
456.7085747650131
 30
0.0
 10
512.3841659391704
 20
456.7078588726324
 30
0.0
 10
512.2712494785992
 20
456.7078083191427
 30
0.0
 10
511.9979726607143
 20
456.7077781708621
 30
0.0
 10
511.8356161150637
 20
456.7077872552377
 30
0.0
 10
511.4865680421328
 20
456.7082843687517
 30
0.0
 10
511.3009510361209
 20
456.708780109029
 30
0.0
 10
510.7313220085468
 20
456.7109032828575
 30
0.0
 10
510.3445676006886
 20
456.7131851120167
 30
0.0
 10
509.9571865818058
 20
456.7155435278283
 30
0.0
  0
ARC
  5
11C
330
1F
100
AcDbEntity
  8
0
  6
Continuous
 62
     8
370
    18
100
AcDbCircle
 10
286.0232346568
 20
458.4466632283
 30
0.0
 40
223.9406387185031
100
AcDbArc
 50
359.5570846531
 51
359.9407647395
  0
SPLINE
  5
11D
330
1F
100
AcDbEntity
  8
0
  6
Continuous
 62
     8
370
    18
100
AcDbSpline
210
0.0
220
0.0
230
1.0
 70
     8
 71
     3
 72
    24
 73
    20
 74
     0
 42
0.000000001
 43
0.00000001
 40
0.0
 40
0.0
 40
0.0
 40
0.0
 40
0.2499999999999981
 40
0.2499999999999981
 40
0.375000000000015
 40
0.375000000000015
 40
0.4375000000000236
 40
0.4375000000000236
 40
0.5000000000000321
 40
0.5000000000000321
 40
0.5312500000000228
 40
0.5312500000000228
 40
0.5625000000000134
 40
0.5625000000000134
 40
0.6250000000000102
 40
0.6250000000000102
 40
0.750000000000006
 40
0.750000000000006
 40
1.0
 40
1.0
 40
1.0
 40
1.0
 10
509.9637565880908
 20
458.2151436921707
 30
0.0
 10
510.156193541365
 20
458.2140051016416
 30
0.0
 10
510.3487634187546
 20
458.2125508165933
 30
0.0
 10
510.6349747372913
 20
458.2103880732899
 30
0.0
 10
510.7299557849698
 20
458.2096655364657
 30
0.0
 10
510.8711421522629
 20
458.2086588875779
 30
0.0
 10
510.9176338894046
 20
458.2083383455075
 30
0.0
 10
511.0076965814509
 20
458.2077819911112
 30
0.0
 10
511.0537817327299
 20
458.2074888508937
 30
0.0
 10
511.1087540949439
 20
458.2074650587331
 30
0.0
 10
511.1224273899871
 20
458.2075964913751
 30
0.0
 10
511.1463489498844
 20
458.2078896041414
 30
0.0
 10
511.1566291734685
 20
458.2080653036105
 30
0.0
 10
511.1846539242614
 20
458.2086351360799
 30
0.0
 10
511.1993125584571
 20
458.2090694240196
 30
0.0
 10
511.2361732918994
 20
458.2104377484176
 30
0.0
 10
511.2514097579427
 20
458.2114530156238
 30
0.0
 10
511.2824241562309
 20
458.2146176268021
 30
0.0
 10
511.2834395142515
 20
458.2169050579279
 30
0.0
 10
511.2852608588383
 20
458.2190759348886
 30
0.0
  0
ARC
  5
11E
330
1F
100
AcDbEntity
  8
0
  6
Continuous
 62
     8
370
    18
100
AcDbCircle
 10
511.2523545945
 20
456.7194943184
 30
0.0
 40
1.499942803492426
100
AcDbArc
 50
0.0015528068
 51
88.742835947
  0
SPLINE
  5
11F
330
1F
100
AcDbEntity
  8
0
  6
Continuous
 62
     8
370
    18
100
AcDbSpline
210
0.0
220
0.0
230
1.0
 70
     8
 71
     3
 72
    16
 73
    12
 74
     0
 42
0.000000001
 43
0.00000001
 40
0.0
 40
0.0
 40
0.0
 40
0.0
 40
0.0625000000000001
 40
0.0625000000000001
 40
0.1250000000000003
 40
0.1250000000000003
 40
0.2500000000000006
 40
0.2500000000000006
 40
0.5000000000000011
 40
0.5000000000000011
 40
1.0
 40
1.0
 40
1.0
 40
1.0
 10
509.4085324991042
 20
456.7178674161119
 30
0.0
 10
508.590937886386
 20
456.7216832247196
 30
0.0
 10
507.7733419846233
 20
456.72095972363
 30
0.0
 10
506.1381504531375
 20
456.7204706949958
 30
0.0
 10
505.320554826258
 20
456.7207151813574
 30
0.0
 10
502.8677678137012
 20
456.7209840975063
 30
0.0
 10
501.2325764253222
 20
456.7209990125705
 30
0.0
 10
496.327002441865
 20
456.7216835363355
 30
0.0
 10
493.0566198570149
 20
456.7224371125819
 30
0.0
 10
483.2454724273947
 20
456.7255054172906
 30
0.0
 10
476.704708087776
 20
456.7289093543766
 30
0.0
 10
470.1639438665337
 20
456.7325754135255
 30
0.0
  0
SPLINE
  5
120
330
1F
100
AcDbEntity
  8
0
  6
Continuous
 62
     8
370
    18
100
AcDbSpline
210
0.0
220
0.0
230
1.0
 70
     8
 71
     3
 72
     8
 73
     4
 74
     0
 42
0.000000001
 43
0.00000001
 40
0.0
 40
0.0
 40
0.0
 40
0.0
 40
0.0005486600506291
 40
0.0005486600506291
 40
0.0005486600506291
 40
0.0005486600506291
 10
509.9571865818058
 20
456.7155435278283
 30
0.0
 10
509.7743035660533
 20
456.7166569385919
 30
0.0
 10
509.5914185527658
 20
456.7174814530287
 30
0.0
 10
509.4085329128508
 20
456.7180104560357
 30
0.0
  0
SPLINE
  5
121
330
1F
100
AcDbEntity
  8
0
  6
Continuous
 62
     8
370
    18
100
AcDbSpline
210
0.0
220
0.0
230
1.0
 70
     8
 71
     3
 72
     8
 73
     4
 74
     0
 42
0.000000001
 43
0.00000001
 40
0.0
 40
0.0
 40
0.0
 40
0.0
 40
0.0005506619697791
 40
0.0005506619697791
 40
0.0005506619697791
 40
0.0005506619697791
 10
509.4131224222618
 20
458.2175287567411
 30
0.0
 10
509.5966687734806
 20
458.2170267107688
 30
0.0
 10
509.7802139946253
 20
458.2162296574961
 30
0.0
 10
509.9637565880908
 20
458.2151436921707
 30
0.0
  0
SPLINE
  5
122
330
1F
100
AcDbEntity
  8
0
  6
Continuous
 62
     8
370
    18
100
AcDbSpline
210
0.0
220
0.0
230
1.0
 70
     8
 71
     3
 72
    10
 73
     6
 74
     0
 42
0.000000001
 43
0.00000001
 40
0.0
 40
0.0
 40
0.0
 40
0.0
 40
0.5
 40
0.5
 40
1.0
 40
1.0
 40
1.0
 40
1.0
 10
511.2852608588383
 20
458.2190759348886
 30
0.0
 10
511.3019592907179
 20
458.2389789457255
 30
0.0
 10
511.315448680483
 20
458.2499583253995
 30
0.0
 10
511.3338087650925
 20
458.2720314842055
 30
0.0
 10
511.3404741779964
 20
458.28163138759
 30
0.0
 10
511.3420887048258
 20
458.2886332735767
 30
0.0
  0
LINE
  5
123
330
1F
100
AcDbEntity
  8
0
  6
Continuous
 62
     8
370
    18
100
AcDbLine
 10
461.4030076821
 20
438.9909492194
 30
0.0
 11
461.4030076821
 21
439.0342985599
 31
0.0
  0
SPLINE
  5
124
330
1F
100
AcDbEntity
  8
0
  6
Continuous
 62
     8
370
    18
100
AcDbSpline
210
0.0
220
0.0
230
1.0
 70
     8
 71
     3
 72
    22
 73
    18
 74
     0
 42
0.000000001
 43
0.00000001
 40
0.0
 40
0.0
 40
0.0
 40
0.0
 40
0.125
 40
0.125
 40
0.25
 40
0.25
 40
0.375
 40
0.375
 40
0.5
 40
0.5
 40
0.625
 40
0.625
 40
0.75
 40
0.75
 40
0.875
 40
0.875
 40
1.0
 40
1.0
 40
1.0
 40
1.0
 10
362.9803915976324
 20
582.5572460823593
 30
0.0
 10
362.9803135162161
 20
582.5737948757802
 30
0.0
 10
362.9796285730573
 20
582.5934164676534
 30
0.0
 10
362.9564649686721
 20
582.6287546896297
 30
0.0
 10
362.934412725843
 20
582.6450975160633
 30
0.0
 10
362.8558935303515
 20
582.6727213909774
 30
0.0
 10
362.8005768063599
 20
582.6837062304926
 30
0.0
 10
362.6422318179966
 20
582.6977092669503
 30
0.0
 10
362.5398335247123
 20
582.7001530733385
 30
0.0
 10
362.2851173101523
 20
582.702255335928
 30
0.0
 10
362.1338156415615
 20
582.702459067127
 30
0.0
 10
361.8066827691692
 20
582.6977825679627
 30
0.0
 10
361.6351895757196
 20
582.6928279978446
 30
0.0
 10
361.2833113222681
 20
582.679250493418
 30
0.0
 10
361.1024460859408
 20
582.6706281294599
 30
0.0
 10
360.742091806703
 20
582.653002518715
 30
0.0
 10
360.5603438312847
 20
582.6436129522621
 30
0.0
 10
360.3803918451341
 20
582.6369155952412
 30
0.0
  0
LINE
  5
125
330
1F
100
AcDbEntity
  8
0
  6
Continuous
 62
     8
370
    18
100
AcDbLine
 10
360.3803916533
 20
594.0872342645
 30
0.0
 11
360.3803916533
 21
582.6369137823
 31
0.0
  0
SPLINE
  5
126
330
1F
100
AcDbEntity
  8
0
  6
Continuous
 62
     8
370
    18
100
AcDbSpline
210
0.0
220
0.0
230
1.0
 70
     8
 71
     3
 72
    22
 73
    18
 74
     0
 42
0.000000001
 43
0.00000001
 40
0.0
 40
0.0
 40
0.0
 40
0.0
 40
0.124999999999994
 40
0.124999999999994
 40
0.249999999999988
 40
0.249999999999988
 40
0.374999999999982
 40
0.374999999999982
 40
0.499999999999976
 40
0.499999999999976
 40
0.5624999999999798
 40
0.5624999999999798
 40
0.6249999999999836
 40
0.6249999999999836
 40
0.7499999999999912
 40
0.7499999999999912
 40
1.0
 40
1.0
 40
1.0
 40
1.0
 10
362.9803915976324
 20
594.0871575427627
 30
0.0
 10
362.9803128641753
 20
594.0866687107617
 30
0.0
 10
362.9796206746136
 20
594.0862514628317
 30
0.0
 10
362.9561608660157
 20
594.0855587756341
 30
0.0
 10
362.9336384221315
 20
594.0852757032558
 30
0.0
 10
362.8547760539324
 20
594.0848330382895
 30
0.0
 10
362.7992987651526
 20
594.0846764920238
 30
0.0
 10
362.6402135091288
 20
594.0844920190201
 30
0.0
 10
362.5380295075508
 20
594.0844668564979
 30
0.0
 10
362.3469224745069
 20
594.0844682452024
 30
0.0
 10
362.27644347605
 20
594.0844756846768
 30
0.0
 10
362.1285754840052
 20
594.0845134394515
 30
0.0
 10
362.0505880475967
 20
594.0845443575186
 30
0.0
 10
361.8061521667001
 20
594.0846884742334
 30
0.0
 10
361.6319919097811
 20
594.0848534623968
 30
0.0
 10
361.1013640039017
 20
594.0855401589145
 30
0.0
 10
360.7411662258147
 20
594.0862301474384
 30
0.0
 10
360.3803918451341
 20
594.0872314826443
 30
0.0
  0
LINE
  5
127
330
1F
100
AcDbEntity
  8
0
  6
Continuous
 62
     8
370
    18
100
AcDbLine
 10
362.9803909619
 20
582.5572521745
 30
0.0
 11
362.9803909619
 21
594.0871597587
 31
0.0
  0
LWPOLYLINE
  5
128
330
1F
100
AcDbEntity
  8
0
  6
Continuous
 62
     8
370
    18
100
AcDbPolyline
 90
        9
 70
   128
 43
0.0
 10
360.3803916533
 20
594.0872342645
 10
360.3810398538
 20
594.3204225361
 10
360.3816619773
 20
594.5447297155
 10
360.382235672
 20
594.7515876352
 10
360.3827404489
 20
594.9331135809
 10
360.3831539561
 20
595.0823934137
 10
360.3834631552
 20
595.1937348901
 10
360.3836550076
 20
595.2628762781
 10
360.3837220629
 20
595.2872098743
  0
SPLINE
  5
129
330
1F
100
AcDbEntity
  8
0
  6
Continuous
 62
     8
370
    18
100
AcDbSpline
210
0.0
220
0.0
230
1.0
 70
     8
 71
     3
 72
    22
 73
    18
 74
     0
 42
0.000000001
 43
0.00000001
 40
0.0
 40
0.0
 40
0.0
 40
0.0
 40
0.2499999999999937
 40
0.2499999999999937
 40
0.3749999999999864
 40
0.3749999999999864
 40
0.4374999999999847
 40
0.4374999999999847
 40
0.499999999999983
 40
0.499999999999983
 40
0.5624999999999813
 40
0.5624999999999813
 40
0.6249999999999797
 40
0.6249999999999797
 40
0.7499999999999752
 40
0.7499999999999752
 40
1.0
 40
1.0
 40
1.0
 40
1.0
 10
360.383722387871
 20
595.2872037658957
 30
0.0
 10
360.5878477595931
 20
595.2866401132945
 30
0.0
 10
360.792024352349
 20
595.2860552810109
 30
0.0
 10
361.0953947958892
 20
595.2852950528159
 30
0.0
 10
361.196838613292
 20
595.2850567422086
 30
0.0
 10
361.3447600145644
 20
595.2847517132655
 30
0.0
 10
361.3932815681989
 20
595.2846587103569
 30
0.0
 10
361.4862689927604
 20
595.2845090645683
 30
0.0
 10
361.5312038952296
 20
595.2844500070362
 30
0.0
 10
361.6030790049101
 20
595.2844514696627
 30
0.0
 10
361.6291990954506
 20
595.2845092308206
 30
0.0
 10
361.672967455767
 20
595.2846538711498
 30
0.0
 10
361.6900993149962
 20
595.2847428941795
 30
0.0
 10
361.7334570514095
 20
595.2850357322382
 30
0.0
 10
361.7514721419498
 20
595.2852677974939
 30
0.0
 10
361.7873535318149
 20
595.2860107728037
 30
0.0
 10
361.7871922577443
 20
595.2865824343754
 30
0.0
 10
361.7876909585124
 20
595.2871309310618
 30
0.0
  0
ARC
  5
12A
330
1F
100
AcDbEntity
  8
0
  6
Continuous
 62
     8
370
    18
100
AcDbCircle
 10
361.780385476
 20
594.0871521195
 30
0.0
 40
1.200005485913825
100
AcDbArc
 50
0.0003647431
 51
89.6511938085
  0
SPLINE
  5
12B
330
1F
100
AcDbEntity
  8
0
  6
Continuous
 62
     8
370
    18
100
AcDbSpline
210
0.0
220
0.0
230
1.0
 70
     8
 71
     3
 72
    22
 73
    18
 74
     0
 42
0.000000001
 43
0.00000001
 40
0.0
 40
0.0
 40
0.0
 40
0.0
 40
0.125
 40
0.125
 40
0.25
 40
0.25
 40
0.375
 40
0.375
 40
0.5
 40
0.5
 40
0.625
 40
0.625
 40
0.75
 40
0.75
 40
0.875
 40
0.875
 40
1.0
 40
1.0
 40
1.0
 40
1.0
 10
326.5242077271302
 20
582.5572460823593
 30
0.0
 10
326.5242859678474
 20
582.5737952349738
 30
0.0
 10
326.5249707517052
 20
582.5934164676534
 30
0.0
 10
326.5481343560904
 20
582.6287546896295
 30
0.0
 10
326.5701865989196
 20
582.6450975160634
 30
0.0
 10
326.648705794411
 20
582.6727213909775
 30
0.0
 10
326.7040225184027
 20
582.6837062304928
 30
0.0
 10
326.862367506766
 20
582.6977092669504
 30
0.0
 10
326.9647658000503
 20
582.7001530733384
 30
0.0
 10
327.2194820146103
 20
582.7022553359278
 30
0.0
 10
327.3707836832011
 20
582.702459067127
 30
0.0
 10
327.6979165555934
 20
582.6977825679627
 30
0.0
 10
327.869409749043
 20
582.6928279978443
 30
0.0
 10
328.2212880024945
 20
582.6792504934177
 30
0.0
 10
328.4021532388218
 20
582.6706281294598
 30
0.0
 10
328.7625075180595
 20
582.6530025187149
 30
0.0
 10
328.9442555042501
 20
582.6436132416915
 30
0.0
 10
329.1242074796285
 20
582.6369155952412
 30
0.0
  0
LINE
  5
12C
330
1F
100
AcDbEntity
  8
0
  6
Continuous
 62
     8
370
    18
100
AcDbLine
 10
326.5242083628
 20
582.5572521745
 30
0.0
 11
326.5242083628
 21
594.0871597587
 31
0.0
  0
SPLINE
  5
12D
330
1F
100
AcDbEntity
  8
0
  6
Continuous
 62
     8
370
    18
100
AcDbSpline
210
0.0
220
0.0
230
1.0
 70
     8
 71
     3
 72
    22
 73
    18
 74
     0
 42
0.000000001
 43
0.00000001
 40
0.0
 40
0.0
 40
0.0
 40
0.0
 40
0.250000000000014
 40
0.250000000000014
 40
0.375000000000019
 40
0.375000000000019
 40
0.4375000000000226
 40
0.4375000000000226
 40
0.5000000000000261
 40
0.5000000000000261
 40
0.6250000000000197
 40
0.6250000000000197
 40
0.7500000000000131
 40
0.7500000000000131
 40
0.8750000000000067
 40
0.8750000000000067
 40
1.0
 40
1.0
 40
1.0
 40
1.0
 10
329.1242074796285
 20
594.0872314826443
 30
0.0
 10
328.7634330989479
 20
594.0862301474385
 30
0.0
 10
328.4032353208607
 20
594.0855401589142
 30
0.0
 10
327.8726074149814
 20
594.0848534623966
 30
0.0
 10
327.6984471580623
 20
594.0846884742334
 30
0.0
 10
327.4540112771656
 20
594.0845443575186
 30
0.0
 10
327.3760238407572
 20
594.0845134394517
 30
0.0
 10
327.2281558487124
 20
594.0844756846769
 30
0.0
 10
327.1576768502555
 20
594.0844682452025
 30
0.0
 10
326.9665698172117
 20
594.0844668564979
 30
0.0
 10
326.8643858156337
 20
594.08449201902
 30
0.0
 10
326.7053005596098
 20
594.0846764920236
 30
0.0
 10
326.6498232708302
 20
594.0848330382896
 30
0.0
 10
326.570960902631
 20
594.085275703256
 30
0.0
 10
326.5484384587469
 20
594.0855587756341
 30
0.0
 10
326.524978650149
 20
594.0862514628315
 30
0.0
 10
326.5242864605873
 20
594.0866687107613
 30
0.0
 10
326.5242077271302
 20
594.0871575427622
 30
0.0
  0
LINE
  5
12E
330
1F
100
AcDbEntity
  8
0
  6
Continuous
 62
     8
370
    18
100
AcDbLine
 10
329.1242076714
 20
594.0872342645
 30
0.0
 11
329.1242076714
 21
582.6369137823
 31
0.0
  0
ARC
  5
12F
330
1F
100
AcDbEntity
  8
0
  6
Continuous
 62
     8
370
    18
100
AcDbCircle
 10
327.7242138487
 20
594.0871521195
 30
0.0
 40
1.200005485913825
100
AcDbArc
 50
90.3488061915
 51
179.9996352569
  0
SPLINE
  5
130
330
1F
100
AcDbEntity
  8
0
  6
Continuous
 62
     8
370
    18
100
AcDbSpline
210
0.0
220
0.0
230
1.0
 70
     8
 71
     3
 72
    22
 73
    18
 74
     0
 42
0.000000001
 43
0.00000001
 40
0.0
 40
0.0
 40
0.0
 40
0.0
 40
0.249999999999997
 40
0.249999999999997
 40
0.3749999999999958
 40
0.3749999999999958
 40
0.4374999999999957
 40
0.4374999999999957
 40
0.4999999999999958
 40
0.4999999999999958
 40
0.5624999999999958
 40
0.5624999999999958
 40
0.6249999999999958
 40
0.6249999999999958
 40
0.7499999999999959
 40
0.7499999999999959
 40
1.0
 40
1.0
 40
1.0
 40
1.0
 10
327.7169083662501
 20
595.2871309310613
 30
0.0
 10
327.7174070670184
 20
595.2865824343747
 30
0.0
 10
327.7172457929477
 20
595.2860107728036
 30
0.0
 10
327.7531271828129
 20
595.2852677974938
 30
0.0
 10
327.7711422733531
 20
595.2850357322383
 30
0.0
 10
327.8145000097664
 20
595.2847428941797
 30
0.0
 10
327.8316318689957
 20
595.28465387115
 30
0.0
 10
327.875400229312
 20
595.2845092308206
 30
0.0
 10
327.9015203198526
 20
595.2844514696627
 30
0.0
 10
327.9733954295331
 20
595.2844500070362
 30
0.0
 10
328.0183303320021
 20
595.2845090645682
 30
0.0
 10
328.1113177565636
 20
595.2846587103568
 30
0.0
 10
328.1598393101982
 20
595.2847517132655
 30
0.0
 10
328.3077607114707
 20
595.2850567422086
 30
0.0
 10
328.4092045288734
 20
595.2852950528159
 30
0.0
 10
328.7125749724136
 20
595.2860552810108
 30
0.0
 10
328.9167515651695
 20
595.2866401132945
 30
0.0
 10
329.1208769368916
 20
595.2872037658957
 30
0.0
  0
LWPOLYLINE
  5
131
330
1F
100
AcDbEntity
  8
0
  6
Continuous
 62
     8
370
    18
100
AcDbPolyline
 90
        9
 70
   128
 43
0.0
 10
329.1242076714
 20
594.0872342645
 10
329.1235594709
 20
594.3204225361
 10
329.1229373474
 20
594.5447297155
 10
329.1223636527
 20
594.7515876352
 10
329.1218588759
 20
594.9331135809
 10
329.1214453687
 20
595.0823934137
 10
329.1211361696
 20
595.1937348901
 10
329.1209443171
 20
595.2628762781
 10
329.1208772619
 20
595.2872098743
  0
SPLINE
  5
132
330
1F
100
AcDbEntity
  8
0
  6
Continuous
 62
     8
370
    18
100
AcDbSpline
210
0.0
220
0.0
230
1.0
 70
     8
 71
     3
 72
    22
 73
    18
 74
     0
 42
0.000000001
 43
0.00000001
 40
0.0
 40
0.0
 40
0.0
 40
0.0
 40
0.2499999999999665
 40
0.2499999999999665
 40
0.3749999999999515
 40
0.3749999999999515
 40
0.4374999999999458
 40
0.4374999999999458
 40
0.49999999999994
 40
0.49999999999994
 40
0.5624999999999344
 40
0.5624999999999344
 40
0.6249999999999286
 40
0.6249999999999286
 40
0.7499999999999428
 40
0.7499999999999428
 40
1.0
 40
1.0
 40
1.0
 40
1.0
 10
329.0794380942351
 20
581.4339936403703
 30
0.0
 10
328.8443812193462
 20
581.4361200313987
 30
0.0
 10
328.6104880216525
 20
581.4422983551874
 30
0.0
 10
328.2651326070591
 20
581.4559595610565
 30
0.0
 10
328.1509617652855
 20
581.4611612546232
 30
0.0
 10
327.9865026546714
 20
581.4679506640874
 30
0.0
 10
327.9326638729469
 20
581.4700827081577
 30
0.0
 10
327.8283865292851
 20
581.4730460753925
 30
0.0
 10
327.7776447720069
 20
581.4741057791022
 30
0.0
 10
327.6965753327196
 20
581.468744172091
 30
0.0
 10
327.6636456242251
 20
581.4637104913133
 30
0.0
 10
327.6038723724784
 20
581.4539691608381
 30
0.0
 10
327.5777984959572
 20
581.4487690417714
 30
0.0
 10
327.507215742885
 20
581.4329716085961
 30
0.0
 10
327.4706331785225
 20
581.4221189396325
 30
0.0
 10
327.379045501808
 20
581.3923797817794
 30
0.0
 10
327.337435822304
 20
581.3774772807816
 30
0.0
 10
327.2990325161551
 20
581.3731015989048
 30
0.0
  0
ARC
  5
133
330
1F
100
AcDbEntity
  8
0
  6
Continuous
 62
     8
370
    18
100
AcDbCircle
 10
327.8186181392
 20
582.5586522214
 30
0.0
 40
1.294410533478689
100
AcDbArc
 50
180.0619716796
 51
246.3338657634
  0
LWPOLYLINE
  5
134
330
1F
100
AcDbEntity
  8
0
  6
Continuous
 62
     8
370
    18
100
AcDbPolyline
 90
        9
 70
   128
 43
0.0
 10
329.0794389953
 20
581.4339877426
 10
329.0826185305
 20
581.519445902
 10
329.0867070366
 20
581.6293121635
 10
329.0916151066
 20
581.7612023412
 10
329.0972365697
 20
581.9122107088
 10
329.1034466286
 20
582.0790590107
 10
329.1101093103
 20
582.2580964624
 10
329.1170811911
 20
582.4454189598
 10
329.1242076714
 20
582.6369137823
  0
ARC
  5
135
330
1F
100
AcDbEntity
  8
0
  6
Continuous
 62
     8
370
    18
100
AcDbCircle
 10
361.6859811856
 20
582.5586522214
 30
0.0
 40
1.294410533478689
100
AcDbArc
 50
293.6661342366
 51
359.9380283204
  0
SPLINE
  5
136
330
1F
100
AcDbEntity
  8
0
  6
Continuous
 62
     8
370
    18
100
AcDbSpline
210
0.0
220
0.0
230
1.0
 70
     8
 71
     3
 72
    22
 73
    18
 74
     0
 42
0.000000001
 43
0.00000001
 40
0.0
 40
0.0
 40
0.0
 40
0.0
 40
0.2499999999999663
 40
0.2499999999999663
 40
0.3749999999999482
 40
0.3749999999999482
 40
0.4374999999999467
 40
0.4374999999999467
 40
0.4999999999999452
 40
0.4999999999999452
 40
0.5624999999999436
 40
0.5624999999999436
 40
0.624999999999942
 40
0.624999999999942
 40
0.7499999999999618
 40
0.7499999999999618
 40
1.0
 40
1.0
 40
1.0
 40
1.0
 10
360.4251612305274
 20
581.4339936403703
 30
0.0
 10
360.6602181054164
 20
581.4361200313986
 30
0.0
 10
360.89411130311
 20
581.4422983551874
 30
0.0
 10
361.2394667177034
 20
581.4559595610565
 30
0.0
 10
361.353637559477
 20
581.4611612546232
 30
0.0
 10
361.5180966700912
 20
581.4679506640874
 30
0.0
 10
361.5719354518156
 20
581.4700827081576
 30
0.0
 10
361.6762127954774
 20
581.4730460753925
 30
0.0
 10
361.7269545527557
 20
581.4741057791022
 30
0.0
 10
361.808023992043
 20
581.468744172091
 30
0.0
 10
361.8409537005375
 20
581.4637104913135
 30
0.0
 10
361.9007269522842
 20
581.4539691608381
 30
0.0
 10
361.9268008288054
 20
581.4487690417714
 30
0.0
 10
361.9973835818775
 20
581.432971608596
 30
0.0
 10
362.0339661462398
 20
581.4221189396324
 30
0.0
 10
362.1255538229544
 20
581.3923797817795
 30
0.0
 10
362.1671635024587
 20
581.3774772807816
 30
0.0
 10
362.2055668086074
 20
581.3731015989048
 30
0.0
  0
LWPOLYLINE
  5
137
330
1F
100
AcDbEntity
  8
0
  6
Continuous
 62
     8
370
    18
100
AcDbPolyline
 90
        9
 70
   128
 43
0.0
 10
360.4251603295
 20
581.4339877426
 10
360.4219807942
 20
581.519445902
 10
360.4178922881
 20
581.6293121635
 10
360.4129842182
 20
581.7612023412
 10
360.4073627551
 20
581.9122107088
 10
360.4011526962
 20
582.0790590107
 10
360.3944900145
 20
582.2580964624
 10
360.3875181337
 20
582.4454189598
 10
360.3803916533
 20
582.6369137823
  0
SPLINE
  5
138
330
1F
100
AcDbEntity
  8
0
  6
Continuous
 62
     8
370
    18
100
AcDbSpline
210
0.0
220
0.0
230
1.0
 70
     8
 71
     3
 72
    10
 73
     6
 74
     0
 42
0.000000001
 43
0.00000001
 40
0.0
 40
0.0
 40
0.0
 40
0.0
 40
0.4645486590730404
 40
0.9312272687061431
 40
1.0
 40
1.0
 40
1.0
 40
1.0
 10
327.2990333546697
 20
581.3731015979412
 30
0.0
 10
327.1922364511086
 20
581.3592960221221
 30
0.0
 10
326.9781529813428
 20
581.3316215720686
 30
0.0
 10
327.1087224783068
 20
581.3317020000728
 30
0.0
 10
327.0864295643626
 20
581.3231751947185
 30
0.0
 10
327.083566289097
 20
581.3220800220134
 30
0.0
  0
SPLINE
  5
139
330
1F
100
AcDbEntity
  8
0
  6
Continuous
 62
     8
370
    18
100
AcDbSpline
210
0.0
220
0.0
230
1.0
 70
     8
 71
     3
 72
    15
 73
    11
 74
     0
 42
0.000000001
 43
0.00000001
 40
0.0
 40
0.0
 40
0.0
 40
0.0
 40
0.4999999999999997
 40
0.4999999999999997
 40
0.7499999999999996
 40
0.7499999999999996
 40
0.8749999999999997
 40
0.9374999999999998
 40
0.9374999999999998
 40
1.0
 40
1.0
 40
1.0
 40
1.0
 10
344.7522996623813
 20
581.4072224534752
 30
0.0
 10
342.1399962462386
 20
581.4070863446003
 30
0.0
 10
339.5277600582127
 20
581.409116387209
 30
0.0
 10
335.6094723454401
 20
581.4159358642854
 30
0.0
 10
334.3033832296463
 20
581.4188565414853
 30
0.0
 10
332.3442810845754
 20
581.4242284235173
 30
0.0
 10
331.3647367773671
 20
581.4271598610868
 30
0.0
 10
330.3851994721812
 20
581.4304409201019
 30
0.0
 10
329.7321758324243
 20
581.4327023427569
 30
0.0
 10
329.4056767964181
 20
581.4310423927205
 30
0.0
 10
329.0794380942352
 20
581.4339936403697
 30
0.0
  0
SPLINE
  5
13A
330
1F
100
AcDbEntity
  8
0
  6
Continuous
 62
     8
370
    18
100
AcDbSpline
210
0.0
220
0.0
230
1.0
 70
     8
 71
     3
 72
    15
 73
    11
 74
     0
 42
0.000000001
 43
0.00000001
 40
0.0
 40
0.0
 40
0.0
 40
0.0
 40
0.4999999999999997
 40
0.4999999999999997
 40
0.7499999999999996
 40
0.7499999999999996
 40
0.8749999999999997
 40
0.9374999999999998
 40
0.9374999999999998
 40
1.0
 40
1.0
 40
1.0
 40
1.0
 10
344.7522996623812
 20
581.4072224534752
 30
0.0
 10
347.3646030785239
 20
581.4070863446003
 30
0.0
 10
349.9768392665499
 20
581.409116387209
 30
0.0
 10
353.8951269793225
 20
581.4159358642854
 30
0.0
 10
355.2012160951163
 20
581.4188565414853
 30
0.0
 10
357.1603182401872
 20
581.4242284235173
 30
0.0
 10
358.1398625473954
 20
581.4271598610868
 30
0.0
 10
359.1193998525815
 20
581.4304409201019
 30
0.0
 10
359.7724234923383
 20
581.4327023427569
 30
0.0
 10
360.0989225283445
 20
581.4310423927205
 30
0.0
 10
360.4251612305274
 20
581.4339936403697
 30
0.0
  0
SPLINE
  5
13B
330
1F
100
AcDbEntity
  8
0
  6
Continuous
 62
     8
370
    18
100
AcDbSpline
210
0.0
220
0.0
230
1.0
 70
     8
 71
     3
 72
    10
 73
     6
 74
     0
 42
0.000000001
 43
0.00000001
 40
0.0
 40
0.0
 40
0.0
 40
0.0
 40
0.4647247563850036
 40
0.9315802707343338
 40
0.9999999999999999
 40
0.9999999999999999
 40
0.9999999999999999
 40
0.9999999999999999
 10
362.2055659700929
 20
581.3731015979412
 30
0.0
 10
362.3123674361312
 20
581.3592990438658
 30
0.0
 10
362.5264600517707
 20
581.3316306511547
 30
0.0
 10
362.395890808277
 20
581.3316784481315
 30
0.0
 10
362.4181488606205
 20
581.3231942836719
 30
0.0
 10
362.4209939201175
 20
581.3221098243358
 30
0.0
  0
LINE
  5
13C
330
1F
100
AcDbEntity
  8
0
  6
Continuous
 62
     8
370
    18
100
AcDbLine
 10
357.4763639529
 20
577.1005661546
 30
0.0
 11
356.9522994269
 21
576.6791911184
 31
0.0
  0
SPLINE
  5
13D
330
1F
100
AcDbEntity
  8
0
  6
Continuous
 62
     8
370
    18
100
AcDbSpline
210
0.0
220
0.0
230
1.0
 70
     8
 71
     3
 72
    14
 73
    10
 74
     0
 42
0.000000001
 43
0.00000001
 40
0.0
 40
0.0
 40
0.0
 40
0.0
 40
0.0624999999999998
 40
0.0624999999999998
 40
0.1249999999999996
 40
0.2499999999999995
 40
0.4999999999999997
 40
0.4999999999999997
 40
1.0
 40
1.0
 40
1.0
 40
1.0
 10
360.3803918451341
 20
582.6369155952412
 30
0.0
 10
360.0548964825214
 20
582.6248015696609
 30
0.0
 10
359.7292937351963
 20
582.6245114369972
 30
0.0
 10
359.0781322486386
 20
582.6190855380607
 30
0.0
 10
358.1013891163307
 20
582.6110460587781
 30
0.0
 10
355.8223146178308
 20
582.5931427793317
 30
0.0
 10
353.8688012453541
 20
582.5798570434015
 30
0.0
 10
349.9617631628051
 20
582.5576788192604
 30
0.0
 10
347.3570485167997
 20
582.5489705742053
 30
0.0
 10
344.7522996623812
 20
582.5494647951488
 30
0.0
  0
SPLINE
  5
13E
330
1F
100
AcDbEntity
  8
0
  6
Continuous
 62
     8
370
    18
100
AcDbSpline
210
0.0
220
0.0
230
1.0
 70
     8
 71
     3
 72
    14
 73
    10
 74
     0
 42
0.000000001
 43
0.00000001
 40
0.0
 40
0.0
 40
0.0
 40
0.0
 40
0.0624999999999998
 40
0.0624999999999998
 40
0.1249999999999996
 40
0.2499999999999996
 40
0.4999999999999997
 40
0.4999999999999997
 40
1.0
 40
1.0
 40
1.0
 40
1.0
 10
329.1242074796285
 20
582.6369155952412
 30
0.0
 10
329.4497028422412
 20
582.6248015696609
 30
0.0
 10
329.7753055895662
 20
582.6245114369972
 30
0.0
 10
330.426467076124
 20
582.6190855380607
 30
0.0
 10
331.4032102084319
 20
582.6110460587782
 30
0.0
 10
333.6822847069318
 20
582.5931427793317
 30
0.0
 10
335.6357980794085
 20
582.5798570434015
 30
0.0
 10
339.5428361619574
 20
582.5576788192603
 30
0.0
 10
342.1475508079628
 20
582.5489705742053
 30
0.0
 10
344.7522996623813
 20
582.5494647951488
 30
0.0
  0
SPLINE
  5
13F
330
1F
100
AcDbEntity
  8
0
  6
Continuous
 62
     8
370
    18
100
AcDbSpline
210
0.0
220
0.0
230
1.0
 70
     8
 71
     3
 72
    11
 73
     7
 74
     0
 42
0.000000001
 43
0.00000001
 40
0.0
 40
0.0
 40
0.0
 40
0.0
 40
0.0078150860126305
 40
0.0078150860126305
 40
0.0078150860126305
 40
0.0156260780084579
 40
0.0156260780084579
 40
0.0156260780084579
 40
0.0156260780084579
 10
360.3803918451341
 20
594.0872314826443
 30
0.0
 10
357.7753732081071
 20
594.0944617545614
 30
0.0
 10
355.1703453595443
 20
594.0978754258493
 30
0.0
 10
352.56532141761
 20
594.1028390977918
 30
0.0
 10
349.9616621756488
 20
594.1078001694038
 30
0.0
 10
347.3580066265899
 20
594.1146609401395
 30
0.0
 10
344.7543464605084
 20
594.1191106639398
 30
0.0
  0
SPLINE
  5
140
330
1F
100
AcDbEntity
  8
0
  6
Continuous
 62
     8
370
    18
100
AcDbSpline
210
0.0
220
0.0
230
1.0
 70
     8
 71
     3
 72
    11
 73
     7
 74
     0
 42
0.000000001
 43
0.00000001
 40
0.0
 40
0.0
 40
0.0
 40
0.0
 40
0.0078150855191707
 40
0.0078150855191707
 40
0.0078150855191707
 40
0.0156301714414777
 40
0.0156301714414777
 40
0.0156301714414777
 40
0.0156301714414777
 10
344.75434647246
 20
594.1191176571648
 30
0.0
 10
342.1493217641899
 20
594.1146692408023
 30
0.0
 10
339.5443016846007
 20
594.1078027694203
 30
0.0
 10
336.9392779071525
 20
594.1028390977913
 30
0.0
 10
334.3342539652182
 20
594.0978754258488
 30
0.0
 10
331.7292261166556
 20
594.0944617545615
 30
0.0
 10
329.1242074796285
 20
594.0872314826443
 30
0.0
  0
SPLINE
  5
141
330
1F
100
AcDbEntity
  8
0
  6
Continuous
 62
     8
370
    18
100
AcDbSpline
210
0.0
220
0.0
230
1.0
 70
     8
 71
     3
 72
     8
 73
     4
 74
     0
 42
0.000000001
 43
0.00000001
 40
0.0
 40
0.0
 40
0.0
 40
0.0
 40
0.0011648353155349
 40
0.0011648353155349
 40
0.0011648353155349
 40
0.0011648353155349
 10
327.7142751593643
 20
595.2899774638047
 30
0.0
 10
327.7150789667802
 20
595.2891237401213
 30
0.0
 10
327.715956328608
 20
595.2881780308962
 30
0.0
 10
327.7169083662501
 20
595.2871309310613
 30
0.0
  0
SPLINE
  5
142
330
1F
100
AcDbEntity
  8
0
  6
Continuous
 62
     8
370
    18
100
AcDbSpline
210
0.0
220
0.0
230
1.0
 70
     8
 71
     3
 72
     8
 73
     4
 74
     0
 42
0.000000001
 43
0.00000001
 40
0.0
 40
0.0
 40
0.0
 40
0.0
 40
1.0
 40
1.0
 40
1.0
 40
1.0
 10
344.7523024250015
 20
595.3819842428071
 30
0.0
 10
344.7522996313272
 20
595.3803258100911
 30
0.0
 10
344.7523051990512
 20
595.3819197493538
 30
0.0
 10
344.7522994463095
 20
595.3791103144262
 30
0.0
  0
SPLINE
  5
143
330
1F
100
AcDbEntity
  8
0
  6
Continuous
 62
     8
370
    18
100
AcDbSpline
210
0.0
220
0.0
230
1.0
 70
     8
 71
     3
 72
     8
 73
     4
 74
     0
 42
0.000000001
 43
0.00000001
 40
0.0
 40
0.0
 40
0.0
 40
0.0
 40
0.0011648353155354
 40
0.0011648353155354
 40
0.0011648353155354
 40
0.0011648353155354
 10
361.7876909585125
 20
595.2871309310618
 30
0.0
 10
361.7886429961546
 20
595.2881780308967
 30
0.0
 10
361.7895203579823
 20
595.2891237401213
 30
0.0
 10
361.7903241653983
 20
595.2899774638047
 30
0.0
  0
SPLINE
  5
144
330
1F
100
AcDbEntity
  8
0
  6
Continuous
 62
     8
370
    18
100
AcDbSpline
210
0.0
220
0.0
230
1.0
 70
     8
 71
     3
 72
     9
 73
     5
 74
     0
 42
0.000000001
 43
0.00000001
 40
0.0
 40
0.0
 40
0.0
 40
0.0
 40
0.7309176199141169
 40
1.0
 40
1.0
 40
1.0
 40
1.0
 10
362.9890336354076
 20
582.2406024991634
 30
0.0
 10
362.9875931329269
 20
582.2895573211877
 30
0.0
 10
362.9856223191973
 20
582.3565345299602
 30
0.0
 10
362.9836518249783
 20
582.3585533138129
 30
0.0
 10
362.9831215997039
 20
582.3590965329769
 30
0.0
  0
SPLINE
  5
145
330
1F
100
AcDbEntity
  8
0
  6
Continuous
 62
     8
370
    18
100
AcDbSpline
210
0.0
220
0.0
230
1.0
 70
     8
 71
     3
 72
    10
 73
     6
 74
     0
 42
0.000000001
 43
0.00000001
 40
0.0
 40
0.0
 40
0.0
 40
0.0
 40
0.5
 40
0.5
 40
1.0
 40
1.0
 40
1.0
 40
1.0
 10
362.5329613558343
 20
581.2521195619003
 30
0.0
 10
362.6753603979548
 20
581.3736499160971
 30
0.0
 10
362.79102450191
 20
581.526339127024
 30
0.0
 10
362.9478827275956
 20
581.866312839324
 30
0.0
 10
362.9889865842885
 20
582.053401700761
 30
0.0
 10
362.9890337531593
 20
582.2406085361132
 30
0.0
  0
SPLINE
  5
146
330
1F
100
AcDbEntity
  8
0
  6
Continuous
 62
     8
370
    18
100
AcDbSpline
210
0.0
220
0.0
230
1.0
 70
     8
 71
     3
 72
     9
 73
     5
 74
     0
 42
0.000000001
 43
0.00000001
 40
0.0
 40
0.0
 40
0.0
 40
0.0
 40
0.7309240502729774
 40
1.0
 40
1.0
 40
1.0
 40
1.0
 10
326.515565689355
 20
582.2406024991634
 30
0.0
 10
326.517006174626
 20
582.2895573544394
 30
0.0
 10
326.5189769474723
 20
582.356534019467
 30
0.0
 10
326.5209474974515
 20
582.3585532158047
 30
0.0
 10
326.5214777250587
 20
582.3590965329769
 30
0.0
  0
SPLINE
  5
147
330
1F
100
AcDbEntity
  8
0
  6
Continuous
 62
     8
370
    18
100
AcDbSpline
210
0.0
220
0.0
230
1.0
 70
     8
 71
     3
 72
    10
 73
     6
 74
     0
 42
0.000000001
 43
0.00000001
 40
0.0
 40
0.0
 40
0.0
 40
0.0
 40
0.5
 40
0.5
 40
1.0
 40
1.0
 40
1.0
 40
1.0
 10
326.5155656404405
 20
582.2406098069438
 30
0.0
 10
326.5155660549476
 20
582.0533545701708
 30
0.0
 10
326.5566445032326
 20
581.8662072003815
 30
0.0
 10
326.7134955056159
 20
581.5261237951851
 30
0.0
 10
326.8291777068632
 20
581.3733836622894
 30
0.0
 10
326.9716096854849
 20
581.25181783621
 30
0.0
  0
SPLINE
  5
148
330
1F
100
AcDbEntity
  8
0
  6
Continuous
 62
     8
370
    18
100
AcDbSpline
210
0.0
220
0.0
230
1.0
 70
     8
 71
     3
 72
    10
 73
     6
 74
     0
 42
0.000000001
 43
0.00000001
 40
0.0
 40
0.0
 40
0.0
 40
0.0
 40
0.5
 40
0.5
 40
1.0
 40
1.0
 40
1.0
 40
1.0
 10
325.5193756327158
 20
595.3015760321557
 30
0.0
 10
325.5193756769079
 20
595.3015759980083
 30
0.0
 10
325.538255229493
 20
595.3015891086728
 30
0.0
 10
325.6134430631824
 20
595.3017561997369
 30
0.0
 10
325.6697437253192
 20
595.3019026868409
 30
0.0
 10
325.7449653180017
 20
595.3021575024658
 30
0.0
  0
SPLINE
  5
149
330
1F
100
AcDbEntity
  8
0
  6
Continuous
 62
     8
370
    18
100
AcDbSpline
210
0.0
220
0.0
230
1.0
 70
     8
 71
     3
 72
    12
 73
     8
 74
     0
 42
0.000000001
 43
0.00000001
 40
0.0
 40
0.0
 40
0.0
 40
0.0
 40
0.2499999999999993
 40
0.2499999999999993
 40
0.4999999999999987
 40
0.4999999999999987
 40
1.0
 40
1.0
 40
1.0
 40
1.0
 10
361.7914734196692
 20
595.2899820167528
 30
0.0
 10
361.7963110321887
 20
595.2936775989517
 30
0.0
 10
361.7967432602264
 20
595.293028420159
 30
0.0
 10
361.799090516218
 20
595.2928944246465
 30
0.0
 10
361.8001904775496
 20
595.2927467988397
 30
0.0
 10
361.8043102630215
 20
595.2931927931519
 30
0.0
 10
361.8074312659426
 20
595.2939213708428
 30
0.0
 10
361.8102494721837
 20
595.2943226925178
 30
0.0
  0
LINE
  5
14A
330
1F
100
AcDbEntity
  8
0
  6
Continuous
 62
     8
370
    18
100
AcDbLine
 10
361.8623885025
 20
595.3019620239
 30
0.0
 11
361.8628206362
 21
595.3020216285
 31
0.0
  0
SPLINE
  5
14B
330
1F
100
AcDbEntity
  8
0
  6
Continuous
 62
     8
370
    18
100
AcDbSpline
210
0.0
220
0.0
230
1.0
 70
     8
 71
     3
 72
    10
 73
     6
 74
     0
 42
0.000000001
 43
0.00000001
 40
0.0
 40
0.0
 40
0.0
 40
0.0
 40
0.5
 40
0.5
 40
1.0
 40
1.0
 40
1.0
 40
1.0
 10
363.7596364885754
 20
595.3021574940583
 30
0.0
 10
363.8348572528379
 20
595.3019026826171
 30
0.0
 10
363.8911572970349
 20
595.3017561971506
 30
0.0
 10
363.9663443038127
 20
595.3015891084945
 30
0.0
 10
363.985223647855
 20
595.3015759980069
 30
0.0
 10
363.9852236920468
 20
595.3015760321557
 30
0.0
  0
SPLINE
  5
14C
330
1F
100
AcDbEntity
  8
0
  6
Continuous
 62
     8
370
    18
100
AcDbSpline
210
0.0
220
0.0
230
1.0
 70
     8
 71
     3
 72
     8
 73
     4
 74
     0
 42
0.000000001
 43
0.00000001
 40
0.0
 40
0.0
 40
0.0
 40
0.0
 40
0.0011619024810407
 40
0.0011619024810407
 40
0.0011619024810407
 40
0.0011619024810407
 10
362.9808985716832
 20
594.0900122537273
 30
0.0
 10
362.9807295802365
 20
594.0891553339947
 30
0.0
 10
362.9805605888725
 20
594.0882067577866
 30
0.0
 10
362.9803915976324
 20
594.0871575427627
 30
0.0
  0
SPLINE
  5
14D
330
1F
100
AcDbEntity
  8
0
  6
Continuous
 62
     8
370
    18
100
AcDbSpline
210
0.0
220
0.0
230
1.0
 70
     8
 71
     3
 72
    14
 73
    10
 74
     0
 42
0.000000001
 43
0.00000001
 40
0.0
 40
0.0
 40
0.0
 40
0.0
 40
0.25
 40
0.25
 40
0.5
 40
0.5
 40
0.75
 40
0.75
 40
1.0
 40
1.0
 40
1.0
 40
1.0
 10
362.9808990808716
 20
594.0900148354322
 30
0.0
 10
362.9808989300174
 20
594.2463087683052
 30
0.0
 10
362.9499813038276
 20
594.4025424223526
 30
0.0
 10
362.8309257641841
 20
594.6915702503828
 30
0.0
 10
362.7428337676
 20
594.8242529532565
 30
0.0
 10
362.5226696431816
 20
595.046152151981
 30
0.0
 10
362.3906824273758
 20
595.1352830666268
 30
0.0
 10
362.1025976671937
 20
595.2566041387109
 30
0.0
 10
361.946611230208
 20
595.2887475055182
 30
0.0
 10
361.7903217481305
 20
595.2899748963763
 30
0.0
  0
SPLINE
  5
14E
330
1F
100
AcDbEntity
  8
0
  6
Continuous
 62
     8
370
    18
100
AcDbSpline
210
0.0
220
0.0
230
1.0
 70
     8
 71
     3
 72
     8
 73
     4
 74
     0
 42
0.000000001
 43
0.00000001
 40
0.0
 40
0.0
 40
0.0
 40
0.0
 40
0.0011619024810406
 40
0.0011619024810406
 40
0.0011619024810406
 40
0.0011619024810406
 10
326.5242077271302
 20
594.0871575427627
 30
0.0
 10
326.52403873589
 20
594.0882067577866
 30
0.0
 10
326.5238697445261
 20
594.0891553339942
 30
0.0
 10
326.5237007530794
 20
594.0900122537267
 30
0.0
  0
LINE
  5
14F
330
1F
100
AcDbEntity
  8
0
  6
Continuous
 62
     8
370
    18
100
AcDbLine
 10
362.9903915037
 20
582.2516591608
 30
0.0
 11
362.9890336354
 21
582.2409303247
 31
0.0
  0
ARC
  5
150
330
1F
100
AcDbEntity
  8
0
  6
Continuous
 62
     8
370
    18
100
AcDbCircle
 10
363.1713193509
 20
593.2395756299
 30
0.0
 40
0.8725438963531944
100
AcDbArc
 50
98.636870886
 51
101.778892105
  0
LINE
  5
151
330
1F
100
AcDbEntity
  8
0
  6
Continuous
 62
     8
370
    18
100
AcDbLine
 10
362.9877279212
 20
594.0920920431
 30
0.0
 11
362.980899464
 21
594.0900356828
 31
0.0
  0
LINE
  5
152
330
1F
100
AcDbEntity
  8
0
  6
Continuous
 62
     8
370
    18
100
AcDbLine
 10
326.5057607253
 20
582.3183716594
 30
0.0
 11
326.5078953166
 21
582.301503545
 31
0.0
  0
LINE
  5
153
330
1F
100
AcDbEntity
  8
0
  6
Continuous
 62
     8
370
    18
100
AcDbLine
 10
326.5142115463
 20
582.2516144573
 30
0.0
 11
326.5155656894
 21
582.2409303247
 31
0.0
  0
LINE
  5
154
330
1F
100
AcDbEntity
  8
0
  6
Continuous
 62
     8
370
    18
100
AcDbLine
 10
326.5236998607
 20
594.0900356828
 30
0.0
 11
326.5169161071
 21
594.0920771419
 31
0.0
  0
ARC
  5
155
330
1F
100
AcDbEntity
  8
0
  6
Continuous
 62
     8
370
    18
100
AcDbCircle
 10
326.3340747395
 20
593.2442229897
 30
0.0
 40
0.8678298910756354
100
AcDbArc
 50
78.2105628637
 51
81.36892924
  0
ARC
  5
156
330
1F
100
AcDbEntity
  8
0
  6
Continuous
 62
     8
370
    18
100
AcDbCircle
 10
327.6643091834
 20
594.1022352565
 30
0.0
 40
1.1999979006808
100
AcDbArc
 50
91.0758169828
 51
180.0004977027
  0
ARC
  5
157
330
1F
100
AcDbEntity
  8
0
  6
Continuous
 62
     8
370
    18
100
AcDbCircle
 10
361.8402901413
 20
594.1022352565
 30
0.0
 40
1.1999979006808
100
AcDbArc
 50
359.9995022973
 51
88.9241830172
  0
SPLINE
  5
158
330
1F
100
AcDbEntity
  8
0
  6
Continuous
 62
     8
370
    18
100
AcDbSpline
210
0.0
220
0.0
230
1.0
 70
    24
 71
     3
 72
     8
 73
     4
 74
     0
 42
0.000000001
 43
0.00000001
 40
0.0
 40
0.0
 40
0.0
 40
0.0
 40
1.0
 40
1.0
 40
1.0
 40
1.0
 10
344.7522996623331
 20
576.6790243191643
 30
0.0
 10
344.7522996623694
 20
576.679457765146
 30
0.0
 10
344.7522996623767
 20
576.6798819606873
 30
0.0
 10
344.7522996623781
 20
576.6802116049302
 30
0.0
  0
SPLINE
  5
159
330
1F
100
AcDbEntity
  8
0
  6
Continuous
 62
     8
370
    18
100
AcDbSpline
210
0.0
220
0.0
230
1.0
 70
     8
 71
     3
 72
    24
 73
    20
 74
     0
 42
0.000000001
 43
0.00000001
 40
0.0
 40
0.0
 40
0.0
 40
0.0
 40
0.0584807857505468
 40
0.1169340211874099
 40
0.1753738422722574
 40
0.2338143949798481
 40
0.292269825032356
 40
0.3507542676350053
 40
0.4092818372501161
 40
0.4678666174464678
 40
0.5265226508602021
 40
0.5852639293026022
 40
0.6441043840487629
 40
0.7030578763397966
 40
0.762138188129453
 40
0.8213590131039854
 40
0.8807339480021352
 40
0.9402764842595861
 40
1.0
 40
1.0
 40
1.0
 40
1.0
 10
344.7522996623813
 20
556.6936746349746
 30
0.0
 10
344.6117256379239
 20
556.6943059724937
 30
0.0
 10
344.3306438134693
 20
556.6955683501085
 30
0.0
 10
343.9093672179313
 20
556.7057870468933
 30
0.0
 10
343.4887483003477
 20
556.7221014868913
 30
0.0
 10
343.0689643931465
 20
556.745108520446
 30
0.0
 10
342.6501918487893
 20
556.7746482521005
 30
0.0
 10
342.2326059569636
 20
556.8107635185678
 30
0.0
 10
341.8163808788618
 20
556.8534428218475
 30
0.0
 10
341.4016895583956
 20
556.9026892085668
 30
0.0
 10
340.9887037145444
 20
556.9585018828875
 30
0.0
 10
340.5775935377612
 20
557.0208808357437
 30
0.0
 10
340.1685284975257
 20
557.089826735462
 30
0.0
 10
339.7616739977582
 20
557.1653367197712
 30
0.0
 10
339.3572035782868
 20
557.2474213879151
 30
0.0
 10
338.9552529149583
 20
557.336040843122
 30
0.0
 10
338.5560918137722
 20
557.4313443482644
 30
0.0
 10
338.1594794578509
 20
557.5327723280622
 30
0.0
 10
337.8982960086317
 20
557.6057561021819
 30
0.0
 10
337.767506118472
 20
557.6423033636148
 30
0.0
  0
SPLINE
  5
15A
330
1F
100
AcDbEntity
  8
0
  6
Continuous
 62
     8
370
    18
100
AcDbSpline
210
0.0
220
0.0
230
1.0
 70
     8
 71
     3
 72
    24
 73
    20
 74
     0
 42
0.000000001
 43
0.00000001
 40
0.0
 40
0.0
 40
0.0
 40
0.0
 40
0.0598261411310428
 40
0.1194588489127938
 40
0.1789113977878823
 40
0.2381971830261423
 40
0.2973297130388809
 40
0.356322601326563
 40
0.4151895580796763
 40
0.4739443814550365
 40
0.532600948552232
 40
0.5911732061172501
 40
0.6496751610024879
 40
0.7081208704142539
 40
0.7665244319806196
 40
0.824899973674033
 40
0.8832616436241111
 40
0.9416235998572495
 40
1.0
 40
1.0
 40
1.0
 40
1.0
 10
351.7371534132051
 20
557.6424867967352
 30
0.0
 10
351.6061245895949
 20
557.605929385344
 30
0.0
 10
351.3444905923664
 20
557.5329327621047
 30
0.0
 10
350.9472412732337
 20
557.4314706384176
 30
0.0
 10
350.5475260973195
 20
557.3361367515513
 30
0.0
 10
350.1451065368055
 20
557.2474884974844
 30
0.0
 10
349.7402545234013
 20
557.165377243695
 30
0.0
 10
349.3331076668429
 20
557.0898427087989
 30
0.0
 10
348.923841198737
 20
557.0208743474606
 30
0.0
 10
348.5126219971197
 20
556.9584750097382
 30
0.0
 10
348.0996207741383
 20
556.9026440343735
 30
0.0
 10
347.6850087332003
 20
556.8533814314244
 30
0.0
 10
347.2689583730523
 20
556.8106880022569
 30
0.0
 10
346.8516431827793
 20
556.7745606959827
 30
0.0
 10
346.4332376323534
 20
556.7450110369097
 30
0.0
 10
346.0139170826516
 20
556.7219961197808
 30
0.0
 10
345.5938577180593
 20
556.7056760569556
 30
0.0
 10
345.1732364647414
 20
556.6954534052418
 30
0.0
 10
344.8926235052428
 20
556.6941903486658
 30
0.0
 10
344.7522996655258
 20
556.6935587422395
 30
0.0
  0
SPLINE
  5
15B
330
1F
100
AcDbEntity
  8
0
  6
Continuous
 62
     8
370
    18
100
AcDbSpline
210
0.0
220
0.0
230
1.0
 70
     8
 71
     3
 72
    40
 73
    36
 74
     0
 42
0.000000001
 43
0.00000001
 40
0.0
 40
0.0
 40
0.0
 40
0.0
 40
0.0136366391523402
 40
0.0272876149257043
 40
0.0409559202420614
 40
0.0546445368966625
 40
0.0683564336722639
 40
0.0820945644954654
 40
0.095861866640578
 40
0.1096612589861053
 40
0.1234956403285201
 40
0.1373678877576491
 40
0.1512808550975221
 40
0.1652373714161303
 40
0.1792402396070714
 40
0.193292235045613
 40
0.2073961043212415
 40
0.2215545640483258
 40
0.2357702997560581
 40
0.2500459648584303
 40
0.312487207370248
 40
0.3753322170328211
 40
0.4378024110697475
 40
0.5000770941139514
 40
0.5631615784051301
 40
0.6252507148758943
 40
0.6883678561920885
 40
0.7496814955613261
 40
0.8134956517965218
 40
0.8749192748575562
 40
0.9006944227898108
 40
0.9260440703777194
 40
0.9510132097626854
 40
0.9756488771601695
 40
1.0
 40
1.0
 40
1.0
 40
1.0
 10
337.767506118472
 20
557.6423033636148
 30
0.0
 10
337.6362761267586
 20
557.6804183094071
 30
0.0
 10
337.3736781771776
 20
557.7566882724141
 30
0.0
 10
336.985489304635
 20
557.8790625817129
 30
0.0
 10
336.6014279296623
 20
558.0073312732435
 30
0.0
 10
336.2220340987279
 20
558.1420651110564
 30
0.0
 10
335.8473209962293
 20
558.2831108055257
 30
0.0
 10
335.4774378280028
 20
558.4305094765662
 30
0.0
 10
335.1124918276552
 20
558.5842500239527
 30
0.0
 10
334.7525960782305
 20
558.744335374982
 30
0.0
 10
334.3978566767469
 20
558.9107646846085
 30
0.0
 10
334.0483762021252
 20
559.0835381186505
 30
0.0
 10
333.7042528025468
 20
559.2626555732187
 30
0.0
 10
333.3655804700548
 20
559.4481170001312
 30
0.0
 10
333.0324489761952
 20
559.639922392078
 30
0.0
 10
332.7049439875629
 20
559.8380715153786
 30
0.0
 10
332.3831468147183
 20
560.0425650010618
 30
0.0
 10
332.0671354680956
 20
560.2534002276982
 30
0.0
 10
331.7569808399443
 20
560.4705867846295
 30
0.0
 10
331.1110843878006
 20
560.9451087489001
 30
0.0
 10
330.1832626869333
 20
561.7209946640425
 30
0.0
 10
329.0783288561302
 20
562.8633483461913
 30
0.0
 10
328.1150104418948
 20
564.0970963951528
 30
0.0
 10
327.287356796267
 20
565.4215848116431
 30
0.0
 10
326.5920280832414
 20
566.82872480627
 30
0.0
 10
326.017381761563
 20
568.3270392228358
 30
0.0
 10
325.5609850525881
 20
569.8931321063678
 30
0.0
 10
325.2033719215864
 20
571.5561972672675
 30
0.0
 10
324.9394998221919
 20
573.2845045353268
 30
0.0
 10
324.7890720462107
 20
574.7473765039217
 30
0.0
 10
324.7042844783103
 20
575.8670879483519
 30
0.0
 10
324.6569036047924
 20
576.6353535146374
 30
0.0
 10
324.6192759784419
 20
577.402253248241
 30
0.0
 10
324.5896415699151
 20
578.1672491629625
 30
0.0
 10
324.5760260224884
 20
578.6799439868142
 30
0.0
 10
324.569257792394
 20
578.9348023797498
 30
0.0
  0
SPLINE
  5
15C
330
1F
100
AcDbEntity
  8
0
  6
Continuous
 62
     8
370
    18
100
AcDbSpline
210
0.0
220
0.0
230
1.0
 70
     8
 71
     3
 72
    18
 73
    14
 74
     0
 42
0.000000001
 43
0.00000001
 40
0.0
 40
0.0
 40
0.0
 40
0.0
 40
0.065544765428691
 40
0.065544765428691
 40
0.190544765428691
 40
0.190544765428691
 40
0.315544765428691
 40
0.315544765428691
 40
0.440544765428691
 40
0.565544765428691
 40
0.565544765428691
 40
0.690544765428691
 40
0.815544765428691
 40
0.815544765428691
 40
0.815544765428691
 40
0.815544765428691
 10
351.7370931967158
 20
557.642587766602
 30
0.0
 10
352.5139050872973
 20
557.8639449398664
 30
0.0
 10
353.2640409214342
 20
558.121846623693
 30
0.0
 10
355.3447572012113
 20
558.9694667250195
 30
0.0
 10
356.6031172682017
 20
559.6570297888961
 30
0.0
 10
358.8079958796549
 20
561.2276576374335
 30
0.0
 10
359.7803378123916
 20
562.1282877346863
 30
0.0
 10
361.4223045707507
 20
564.095039383057
 30
0.0
 10
362.7792070688518
 20
566.2468102199638
 30
0.0
 10
363.6390469402325
 20
568.7341696751427
 30
0.0
 10
364.286888445151
 20
571.3720985600593
 30
0.0
 10
364.7361665892037
 20
574.2111053926168
 30
0.0
 10
364.8964158359958
 20
577.3122733810123
 30
0.0
 10
364.9353415323687
 20
578.9348023797498
 30
0.0
  0
SPLINE
  5
15D
330
1F
100
AcDbEntity
  8
0
  6
Continuous
 62
     8
370
    18
100
AcDbSpline
210
0.0
220
0.0
230
1.0
 70
     8
 71
     3
 72
    14
 73
    10
 74
     0
 42
0.000000001
 43
0.00000001
 40
0.0
 40
0.0
 40
0.0
 40
0.0
 40
0.1424435218200508
 40
0.2850890957324379
 40
0.427886017322549
 40
0.5708035400279832
 40
0.7138071565511009
 40
0.8568348589692983
 40
1.0
 40
1.0
 40
1.0
 40
1.0
 10
364.9352239445657
 20
578.9348624429215
 30
0.0
 10
364.9381778830723
 20
579.0586204284524
 30
0.0
 10
364.9440899501637
 20
579.3063119467037
 30
0.0
 10
364.9505083521269
 20
579.679671543892
 30
0.0
 10
364.9554831014268
 20
580.0543833488654
 30
0.0
 10
364.9589631025264
 20
580.430283360387
 30
0.0
 10
364.960977983338
 20
580.8070243205739
 30
0.0
 10
364.962380606797
 20
581.1844217257926
 30
0.0
 10
364.961765967306
 20
581.4362202429218
 30
0.0
 10
364.9614584999762
 20
581.5621799621855
 30
0.0
  0
SPLINE
  5
15E
330
1F
100
AcDbEntity
  8
0
  6
Continuous
 62
     8
370
    18
100
AcDbSpline
210
0.0
220
0.0
230
1.0
 70
     8
 71
     3
 72
    14
 73
    10
 74
     0
 42
0.000000001
 43
0.00000001
 40
0.0
 40
0.0
 40
0.0
 40
0.0
 40
0.1447327068421559
 40
0.2887087794265558
 40
0.4320060748221748
 40
0.5747035294970512
 40
0.7168810473596026
 40
0.858619380013851
 40
0.9999999999999999
 40
0.9999999999999999
 40
0.9999999999999999
 40
0.9999999999999999
 10
324.569257792394
 20
578.9348023797498
 30
0.0
 10
324.5663992424236
 20
579.0605613938754
 30
0.0
 10
324.5606970864227
 20
579.31142197862
 30
0.0
 10
324.5541499894617
 20
579.6884187613438
 30
0.0
 10
324.5490241770419
 20
580.0645836138765
 30
0.0
 10
324.545402960028
 20
580.4400451916044
 30
0.0
 10
324.5432408729048
 20
580.8147687688943
 30
0.0
 10
324.5423913771619
 20
581.188763553974
 30
0.0
 10
324.543003073727
 20
581.4378712972087
 30
0.0
 10
324.5433085355791
 20
581.5622677985853
 30
0.0
  0
LINE
  5
15F
330
1F
100
AcDbEntity
  8
0
  6
Continuous
 62
     8
370
    18
100
AcDbLine
 10
326.4642479528
 20
581.6832692682
 30
0.0
 11
326.46443608
 21
581.68611539
 31
0.0
  0
LINE
  5
160
330
1F
100
AcDbEntity
  8
0
  6
Continuous
 62
     8
370
    18
100
AcDbLine
 10
324.5433075984
 20
581.5622718393
 30
0.0
 11
324.5816613246
 21
594.1065610706
 31
0.0
  0
SPLINE
  5
161
330
1F
100
AcDbEntity
  8
0
  6
Continuous
 62
     8
370
    18
100
AcDbSpline
210
0.0
220
0.0
230
1.0
 70
     8
 71
     3
 72
    20
 73
    16
 74
     0
 42
0.000000001
 43
0.00000001
 40
0.0
 40
0.0
 40
0.0
 40
0.0
 40
0.25
 40
0.25
 40
0.5
 40
0.5
 40
0.75
 40
0.75
 40
0.875
 40
0.875
 40
0.9374999999999999
 40
0.9374999999999999
 40
0.9687499999999999
 40
0.9687499999999999
 40
1.0
 40
1.0
 40
1.0
 40
1.0
 10
326.46431199671
 20
594.1022308319413
 30
0.0
 10
326.4634204410021
 20
594.1023990502744
 30
0.0
 10
326.4632609787342
 20
594.1027893064421
 30
0.0
 10
326.3648583429494
 20
594.1038874582969
 30
0.0
 10
326.2645336744616
 20
594.1046436059372
 30
0.0
 10
325.950356680299
 20
594.1057133923275
 30
0.0
 10
325.7385237507257
 20
594.1059846249483
 30
0.0
 10
325.3590583512722
 20
594.1063006220966
 30
0.0
 10
325.2220821090112
 20
594.1064332194915
 30
0.0
 10
324.9960795071786
 20
594.1067456094639
 30
0.0
 10
324.9171129894601
 20
594.1069002596963
 30
0.0
 10
324.7925067276915
 20
594.1069615055528
 30
0.0
 10
324.749871453002
 20
594.106946580333
 30
0.0
 10
324.6641136957539
 20
594.1068129494456
 30
0.0
 10
324.6207152874304
 20
594.1066878938585
 30
0.0
 10
324.581662549004
 20
594.1065621315462
 30
0.0
  0
LINE
  5
162
330
1F
100
AcDbEntity
  8
0
  6
Continuous
 62
     8
370
    18
100
AcDbLine
 10
363.0403513719
 20
581.6832692682
 30
0.0
 11
363.0401632448
 21
581.68611539
 31
0.0
  0
SPLINE
  5
163
330
1F
100
AcDbEntity
  8
0
  6
Continuous
 62
     8
370
    18
100
AcDbSpline
210
0.0
220
0.0
230
1.0
 70
     8
 71
     3
 72
    20
 73
    16
 74
     0
 42
0.000000001
 43
0.00000001
 40
0.0
 40
0.0
 40
0.0
 40
0.0
 40
0.03125
 40
0.03125
 40
0.0624999999999999
 40
0.0624999999999999
 40
0.1249999999999999
 40
0.1249999999999999
 40
0.2499999999999999
 40
0.2499999999999999
 40
0.5
 40
0.5
 40
0.75
 40
0.75
 40
1.0
 40
1.0
 40
1.0
 40
1.0
 10
364.9229367757586
 20
594.1065621315462
 30
0.0
 10
364.8838893040786
 20
594.1066878768981
 30
0.0
 10
364.8404856303404
 20
594.1068129494427
 30
0.0
 10
364.7547278730616
 20
594.1069465803322
 30
0.0
 10
364.7120925983379
 20
594.1069615055534
 30
0.0
 10
364.5874863364705
 20
594.106900259699
 30
0.0
 10
364.508519818686
 20
594.1067456094655
 30
0.0
 10
364.2825172166805
 20
594.1064332194924
 30
0.0
 10
364.1455409743269
 20
594.1063006220975
 30
0.0
 10
363.7660755746183
 20
594.1059846249487
 30
0.0
 10
363.554242644899
 20
594.1057133923289
 30
0.0
 10
363.2400656504877
 20
594.1046436059385
 30
0.0
 10
363.1397409819094
 20
594.1038874582974
 30
0.0
 10
363.0413383460295
 20
594.1027893064421
 30
0.0
 10
363.0411788837607
 20
594.1023990502748
 30
0.0
 10
363.0402873280526
 20
594.1022308319417
 30
0.0
  0
LINE
  5
164
330
1F
100
AcDbEntity
  8
0
  6
Continuous
 62
     8
370
    18
100
AcDbLine
 10
364.9612917264
 20
581.5622718393
 30
0.0
 11
364.9229380001
 21
594.1065610706
 31
0.0
  0
ARC
  5
165
330
1F
100
AcDbEntity
  8
0
  6
Continuous
 62
     8
370
    18
100
AcDbCircle
 10
325.7747957924
 20
594.1093927424
 30
0.0
 40
1.19313596531637
100
AcDbArc
 50
91.4326502115
 51
180.1359803061
  0
ARC
  5
166
330
1F
100
AcDbEntity
  8
0
  6
Continuous
 62
     8
370
    18
100
AcDbCircle
 10
363.729805395
 20
594.1093927424
 30
0.0
 40
1.193135965316376
100
AcDbArc
 50
359.8640196939
 51
88.5673497885
  0
LINE
  5
167
330
1F
100
AcDbEntity
  8
0
  6
Continuous
 62
     8
370
    18
100
AcDbLine
 10
344.7522996624
 20
423.7791947409
 30
0.0
 11
317.752298962
 21
423.7791947409
 31
0.0
  0
LINE
  5
168
330
1F
100
AcDbEntity
  8
0
  6
Continuous
 62
     8
370
    18
100
AcDbLine
 10
371.7523003627
 20
423.7791947409
 30
0.0
 11
344.7522996624
 21
423.7791947409
 31
0.0
  0
LINE
  5
169
330
1F
100
AcDbEntity
  8
0
  6
Continuous
 62
     8
370
    18
100
AcDbLine
 10
323.7526501228
 20
425.3795431315
 30
0.0
 11
365.751949202
 21
425.3795431315
 31
0.0
  0
SPLINE
  5
16A
330
1F
100
AcDbEntity
  8
0
  6
Continuous
 62
     8
370
    18
100
AcDbSpline
210
0.0
220
0.0
230
1.0
 70
     8
 71
     3
 72
     8
 73
     4
 74
     0
 42
0.000000001
 43
0.00000001
 40
0.0
 40
0.0
 40
0.0
 40
0.0
 40
1.0
 40
1.0
 40
1.0
 40
1.0
 10
365.1629806457926
 20
594.1059708431783
 30
0.0
 10
365.1629806460601
 20
594.1059707665013
 30
0.0
 10
365.0829671532509
 20
594.1060468021109
 30
0.0
 10
364.9229389273905
 20
594.1065620973467
 30
0.0
  0
SPLINE
  5
16B
330
1F
100
AcDbEntity
  8
0
  6
Continuous
 62
     8
370
    18
100
AcDbSpline
210
0.0
220
0.0
230
1.0
 70
     8
 71
     3
 72
     8
 73
     4
 74
     0
 42
0.000000001
 43
0.00000001
 40
0.0
 40
0.0
 40
0.0
 40
0.0
 40
1.0
 40
1.0
 40
1.0
 40
1.0
 10
324.581660397372
 20
594.1065620973467
 30
0.0
 10
324.4216321664291
 20
594.1060468020945
 30
0.0
 10
324.34161867362
 20
594.1059707664932
 30
0.0
 10
324.34161867897
 20
594.1059708431783
 30
0.0
  0
SPLINE
  5
16C
330
1F
100
AcDbEntity
  8
0
  6
Continuous
 62
     7
370
    25
100
AcDbSpline
210
0.0
220
0.0
230
1.0
 70
     8
 71
     3
 72
    10
 73
     6
 74
     0
 42
0.000000001
 43
0.00000001
 40
0.0
 40
0.0
 40
0.0
 40
0.0
 40
0.228059630706382
 40
0.6674937071061632
 40
1.0
 40
1.0
 40
1.0
 40
1.0
 10
364.1776228953897
 20
249.2465865289653
 30
0.0
 10
364.2232093740712
 20
249.5887533509211
 30
0.0
 10
364.3566336348879
 20
250.5902203783326
 30
0.0
 10
364.5654345472855
 20
251.8776600188938
 30
0.0
 10
364.7611078582901
 20
253.0608724988781
 30
0.0
 10
364.8453923572599
 20
253.5705305127287
 30
0.0
  0
ARC
  5
16D
330
1F
100
AcDbEntity
  8
0
  6
Continuous
 62
     7
370
    25
100
AcDbCircle
 10
344.7522996624
 20
257.4914092621
 30
0.0
 40
20.99965032349392
100
AcDbArc
 50
339.7206286724
 51
199.8968153955
  0
SPLINE
  5
16E
330
1F
100
AcDbEntity
  8
0
  6
Continuous
 62
     7
370
    25
100
AcDbSpline
210
0.0
220
0.0
230
1.0
 70
     8
 71
     3
 72
     8
 73
     4
 74
     0
 42
0.000000001
 43
0.00000001
 40
0.0
 40
0.0
 40
0.0
 40
0.0
 40
1.0
 40
1.0
 40
1.0
 40
1.0
 10
240.2742419505447
 20
273.8910128892752
 30
0.0
 10
241.740094374012
 20
274.2912769382448
 30
0.0
 10
243.2327805093635
 20
274.4914092620695
 30
0.0
 10
244.7522996623813
 20
274.4914092620695
 30
0.0
  0
SPLINE
  5
16F
330
1F
100
AcDbEntity
  8
0
  6
Continuous
 62
     7
370
    25
100
AcDbSpline
210
0.0
220
0.0
230
1.0
 70
     8
 71
     3
 72
     8
 73
     4
 74
     0
 42
0.000000001
 43
0.00000001
 40
0.0
 40
0.0
 40
0.0
 40
0.0
 40
1.0
 40
1.0
 40
1.0
 40
1.0
 10
244.7522996623813
 20
240.4914092620695
 30
0.0
 10
243.2327805093635
 20
240.4914092620695
 30
0.0
 10
241.740094374012
 20
240.6915415858941
 30
0.0
 10
240.2742419505447
 20
241.0918056348637
 30
0.0
  0
SPLINE
  5
170
330
1F
100
AcDbEntity
  8
0
  6
Continuous
 62
     7
370
    25
100
AcDbSpline
210
0.0
220
0.0
230
1.0
 70
     8
 71
     3
 72
    18
 73
    14
 74
     0
 42
0.000000001
 43
0.00000001
 40
0.0
 40
0.0
 40
0.0
 40
0.0
 40
0.2499999999999996
 40
0.2499999999999996
 40
0.4999999999999991
 40
0.4999999999999991
 40
0.7499999999999987
 40
0.7499999999999987
 40
0.8749999999999984
 40
0.8749999999999984
 40
0.9374999999999992
 40
0.9374999999999992
 40
1.0
 40
1.0
 40
1.0
 40
1.0
 10
219.3406554582289
 20
271.065740040709
 30
0.0
 10
221.1076142420472
 20
271.0688239687175
 30
0.0
 10
222.8745288683984
 20
271.0727819278566
 30
0.0
 10
226.4011431017908
 20
271.2236736955011
 30
0.0
 10
228.1612126714169
 20
271.3716792728041
 30
0.0
 10
231.6706942927711
 20
271.8447522430365
 30
0.0
 10
233.4101927089743
 20
272.1674479779452
 30
0.0
 10
236.0022346119775
 20
272.744459129969
 30
0.0
 10
236.8622116105377
 20
272.9523236544161
 30
0.0
 10
238.1456902733638
 20
273.289072850664
 30
0.0
 10
238.5723825129254
 20
273.4056847710319
 30
0.0
 10
239.4237042963233
 20
273.6468418718296
 30
0.0
 10
239.8486080416949
 20
273.7747889559735
 30
0.0
 10
240.2742419505447
 20
273.8910128892753
 30
0.0
  0
SPLINE
  5
171
330
1F
100
AcDbEntity
  8
0
  6
Continuous
 62
     7
370
    25
100
AcDbSpline
210
0.0
220
0.0
230
1.0
 70
     8
 71
     3
 72
    18
 73
    14
 74
     0
 42
0.000000001
 43
0.00000001
 40
0.0
 40
0.0
 40
0.0
 40
0.0
 40
0.0625000000000003
 40
0.0625000000000003
 40
0.1250000000000007
 40
0.1250000000000007
 40
0.2500000000000014
 40
0.2500000000000014
 40
0.5000000000000009
 40
0.5000000000000009
 40
0.7500000000000004
 40
0.7500000000000004
 40
1.0
 40
1.0
 40
1.0
 40
1.0
 10
240.2742419505447
 20
241.0918056348636
 30
0.0
 10
239.8475580339271
 20
241.208316284134
 30
0.0
 10
239.4237041600133
 20
241.3359766917511
 30
0.0
 10
238.5723823821493
 20
241.5771337893237
 30
0.0
 10
238.1456901453208
 20
241.6937457079491
 30
0.0
 10
236.862211490801
 20
242.03049489938
 30
0.0
 10
236.0022344978707
 20
242.2383594209716
 30
0.0
 10
233.4101926119061
 20
242.8153705650007
 30
0.0
 10
231.6706942075588
 20
243.1380662950119
 30
0.0
 10
228.1612126098248
 20
243.6111392572144
 30
0.0
 10
226.4011430526652
 20
243.759144831695
 30
0.0
 10
222.8745288437635
 20
243.9100365963811
 30
0.0
 10
221.1076142297282
 20
243.913994555443
 30
0.0
 10
219.3406554582289
 20
243.9170784834299
 30
0.0
  0
SPLINE
  5
172
330
1F
100
AcDbEntity
  8
0
  6
Continuous
 62
     7
370
    25
100
AcDbSpline
210
0.0
220
0.0
230
1.0
 70
    24
 71
     3
 72
    10
 73
     6
 74
     0
 42
0.000000001
 43
0.00000001
 40
0.0
 40
0.0
 40
0.0
 40
0.0
 40
0.5
 40
0.5
 40
1.0
 40
1.0
 40
1.0
 40
1.0
 10
176.7522996623813
 20
257.4914092620695
 30
0.0
 10
176.7522996623813
 20
259.2755863806148
 30
0.0
 10
176.7522996623814
 20
261.0597481559472
 30
0.0
 10
176.7522996623814
 20
264.6280557055399
 30
0.0
 10
176.7522996623813
 20
266.4122090916825
 30
0.0
 10
176.7522996623813
 20
268.1962919242879
 30
0.0
  0
SPLINE
  5
173
330
1F
100
AcDbEntity
  8
0
  6
Continuous
 62
     7
370
    25
100
AcDbSpline
210
0.0
220
0.0
230
1.0
 70
    24
 71
     3
 72
    10
 73
     6
 74
     0
 42
0.000000001
 43
0.00000001
 40
0.0
 40
0.0
 40
0.0
 40
0.0
 40
0.5
 40
0.5
 40
1.0
 40
1.0
 40
1.0
 40
1.0
 10
176.7522996623813
 20
246.7865265998511
 30
0.0
 10
176.7522996623813
 20
248.5706094567842
 30
0.0
 10
176.7522996623812
 20
250.3547628679491
 30
0.0
 10
176.7522996623813
 20
253.9230704647948
 30
0.0
 10
176.7522996623813
 20
255.7072321134404
 30
0.0
 10
176.7522996623813
 20
257.4914092620695
 30
0.0
  0
SPLINE
  5
174
330
1F
100
AcDbEntity
  8
0
  6
Continuous
 62
     7
370
    25
100
AcDbSpline
210
0.0
220
0.0
230
1.0
 70
     8
 71
     3
 72
    20
 73
    16
 74
     0
 42
0.000000001
 43
0.00000001
 40
0.0
 40
0.0
 40
0.0
 40
0.0
 40
0.125
 40
0.125
 40
0.2500000000000001
 40
0.2500000000000001
 40
0.3750000000000001
 40
0.3750000000000001
 40
0.5000000000000001
 40
0.5000000000000001
 40
0.6250000000000001
 40
0.6250000000000001
 40
0.7500000000000002
 40
0.7500000000000002
 40
1.0
 40
1.0
 40
1.0
 40
1.0
 10
176.7522996623813
 20
268.1962919242879
 30
0.0
 10
176.7522996623813
 20
268.3910860033739
 30
0.0
 10
176.7529583299102
 20
268.585852955352
 30
0.0
 10
176.7783044615037
 20
268.9742861942757
 30
0.0
 10
176.8027163740475
 20
269.168736525703
 30
0.0
 10
176.8878671363319
 20
269.547666210573
 30
0.0
 10
176.9492261481495
 20
269.7349850875743
 30
0.0
 10
177.1204333855921
 20
270.0830097958844
 30
0.0
 10
177.2333498461633
 20
270.2466533889984
 30
0.0
 10
177.5066266640484
 20
270.5185480293273
 30
0.0
 10
177.6689832096989
 20
270.6295898136383
 30
0.0
 10
178.0180312826297
 20
270.8001076684228
 30
0.0
 10
178.2036482886416
 20
270.8605498070464
 30
0.0
 10
178.7732773162157
 20
270.9880110341302
 30
0.0
 10
179.160031724074
 20
270.9956115515347
 30
0.0
 10
179.5474127429568
 20
270.9962876596451
 30
0.0
  0
SPLINE
  5
175
330
1F
100
AcDbEntity
  8
0
  6
Continuous
 62
     7
370
    25
100
AcDbSpline
210
0.0
220
0.0
230
1.0
 70
     8
 71
     3
 72
    20
 73
    16
 74
     0
 42
0.000000001
 43
0.00000001
 40
0.0
 40
0.0
 40
0.0
 40
0.0
 40
0.2499999999999998
 40
0.2499999999999998
 40
0.3749999999999998
 40
0.3749999999999998
 40
0.4999999999999999
 40
0.4999999999999999
 40
0.6249999999999999
 40
0.6249999999999999
 40
0.7499999999999999
 40
0.7499999999999999
 40
0.875
 40
0.875
 40
1.0
 40
1.0
 40
1.0
 40
1.0
 10
179.5474127429568
 20
243.9865308644939
 30
0.0
 10
179.1594582489985
 20
243.9872079735081
 30
0.0
 10
178.772020787841
 20
243.9949286056662
 30
0.0
 10
178.2024851745892
 20
244.1226093793929
 30
0.0
 10
178.0170129492677
 20
244.1831011129785
 30
0.0
 10
177.6681590711323
 20
244.3537391099823
 30
0.0
 10
177.5059378463823
 20
244.4648195702674
 30
0.0
 10
177.2328848084613
 20
244.7367646559593
 30
0.0
 10
177.1200811331863
 20
244.9003934001252
 30
0.0
 10
176.9490362700922
 20
245.2483512074737
 30
0.0
 10
176.8877367160329
 20
245.4356129695314
 30
0.0
 10
176.8026670405237
 20
245.8144215187332
 30
0.0
 10
176.7782785769898
 20
246.0088053718857
 30
0.0
 10
176.7529574619631
 20
246.3971026428749
 30
0.0
 10
176.7522996623813
 20
246.5918010766164
 30
0.0
 10
176.7522996623813
 20
246.7865265998511
 30
0.0
  0
SPLINE
  5
176
330
1F
100
AcDbEntity
  8
0
  6
Continuous
 62
     7
370
    25
100
AcDbSpline
210
0.0
220
0.0
230
1.0
 70
    24
 71
     3
 72
    16
 73
    12
 74
     0
 42
0.000000001
 43
0.00000001
 40
0.0
 40
0.0
 40
0.0
 40
0.0
 40
0.0625000000000001
 40
0.0625000000000001
 40
0.1250000000000003
 40
0.1250000000000003
 40
0.2500000000000006
 40
0.2500000000000006
 40
0.5000000000000011
 40
0.5000000000000011
 40
1.0
 40
1.0
 40
1.0
 40
1.0
 10
180.0960668256583
 20
270.9972452426372
 30
0.0
 10
180.9136614383765
 20
270.99867221588
 30
0.0
 10
181.7312573401391
 20
271.0000991913726
 30
0.0
 10
183.3664488716249
 20
271.002953141883
 30
0.0
 10
184.1840444985046
 20
271.0043801168957
 30
0.0
 10
186.6368315110614
 20
271.0086610421645
 30
0.0
 10
188.2720228994405
 20
271.0115149924251
 30
0.0
 10
193.1775968828975
 20
271.0200768428899
 30
0.0
 10
196.4479794677477
 20
271.0257847430762
 30
0.0
 10
206.2591268973678
 20
271.042908443068
 30
0.0
 10
212.7998912369865
 20
271.0543242419918
 30
0.0
 10
219.3406554582289
 20
271.065740040709
 30
0.0
  0
SPLINE
  5
177
330
1F
100
AcDbEntity
  8
0
  6
Continuous
 62
     7
370
    25
100
AcDbSpline
210
0.0
220
0.0
230
1.0
 70
    24
 71
     3
 72
    16
 73
    12
 74
     0
 42
0.000000001
 43
0.00000001
 40
0.0
 40
0.0
 40
0.0
 40
0.0
 40
0.5000000000000011
 40
0.5000000000000011
 40
0.7500000000000006
 40
0.7500000000000006
 40
0.8750000000000002
 40
0.8750000000000002
 40
0.9375000000000002
 40
0.9375000000000002
 40
1.0
 40
1.0
 40
1.0
 40
1.0
 10
219.3406554582289
 20
243.9170784834299
 30
0.0
 10
212.7998912369865
 20
243.9284942821471
 30
0.0
 10
206.2591268973683
 20
243.9399100810709
 30
0.0
 10
196.4479794677481
 20
243.9570337810627
 30
0.0
 10
193.1775968828979
 20
243.962741681249
 30
0.0
 10
188.2720228994408
 20
243.9713035317138
 30
0.0
 10
186.6368315110616
 20
243.9741574819744
 30
0.0
 10
184.1840444985049
 20
243.9784384072431
 30
0.0
 10
183.3664488716251
 20
243.979865382256
 30
0.0
 10
181.7312573401393
 20
243.9827193327664
 30
0.0
 10
180.9136614383771
 20
243.984146308259
 30
0.0
 10
180.0960668256588
 20
243.9855732815018
 30
0.0
  0
SPLINE
  5
178
330
1F
100
AcDbEntity
  8
0
  6
Continuous
 62
     7
370
    25
100
AcDbSpline
210
0.0
220
0.0
230
1.0
 70
    24
 71
     3
 72
     8
 73
     4
 74
     0
 42
0.000000001
 43
0.00000001
 40
0.0
 40
0.0
 40
0.0
 40
0.0
 40
0.0005486600506291
 40
0.0005486600506291
 40
0.0005486600506291
 40
0.0005486600506291
 10
179.5474127429568
 20
270.9962876596451
 30
0.0
 10
179.7302957587092
 20
270.9966068510463
 30
0.0
 10
179.9131807719968
 20
270.9969260459338
 30
0.0
 10
180.0960664119118
 20
270.997245241915
 30
0.0
  0
SPLINE
  5
179
330
1F
100
AcDbEntity
  8
0
  6
Continuous
 62
     7
370
    25
100
AcDbSpline
210
0.0
220
0.0
230
1.0
 70
    24
 71
     3
 72
     8
 73
     4
 74
     0
 42
0.000000001
 43
0.00000001
 40
0.0
 40
0.0
 40
0.0
 40
0.0
 40
0.0005486600506291
 40
0.0005486600506291
 40
0.0005486600506291
 40
0.0005486600506291
 10
180.0960664119118
 20
243.9855732822239
 30
0.0
 10
179.9131807719968
 20
243.9858924782051
 30
0.0
 10
179.7302957587092
 20
243.9862116730926
 30
0.0
 10
179.5474127429568
 20
243.9865308644939
 30
0.0
  0
ARC
  5
17A
330
1F
100
AcDbEntity
  8
0
  6
Continuous
 62
     7
370
    25
100
AcDbCircle
 10
244.7522996624
 20
257.4914092621
 30
0.0
 40
17.00000000000006
100
AcDbArc
 50
270.0
 51
0.0
  0
ARC
  5
17B
330
1F
100
AcDbEntity
  8
0
  6
Continuous
 62
     7
370
    25
100
AcDbCircle
 10
244.7522996624
 20
257.4914092621
 30
0.0
 40
17.00000000000003
100
AcDbArc
 50
0.0
 51
90.0
  0
ARC
  5
17C
330
1F
100
AcDbEntity
  8
0
  6
Continuous
 62
     7
370
    25
100
AcDbCircle
 10
244.7522996624
 20
257.4914092621
 30
0.0
 40
27.00000000000003
100
AcDbArc
 50
210.4158443836
 51
0.0
  0
ARC
  5
17D
330
1F
100
AcDbEntity
  8
0
  6
Continuous
 62
     7
370
    25
100
AcDbCircle
 10
244.7522996624
 20
257.4914092621
 30
0.0
 40
26.99999999999997
100
AcDbArc
 50
0.0
 51
149.7078840796
  0
SPLINE
  5
17E
330
1F
100
AcDbEntity
  8
0
  6
Continuous
 62
     7
370
    25
100
AcDbSpline
210
0.0
220
0.0
230
1.0
 70
     8
 71
     3
 72
     8
 73
     4
 74
     0
 42
0.000000001
 43
0.00000001
 40
0.0
 40
0.0
 40
0.0
 40
0.0
 40
1.0
 40
1.0
 40
1.0
 40
1.0
 10
449.2303573742179
 20
241.0918056348637
 30
0.0
 10
447.7645049507506
 20
240.6915415858941
 30
0.0
 10
446.2718188153991
 20
240.4914092620695
 30
0.0
 10
444.7522996623813
 20
240.4914092620695
 30
0.0
  0
SPLINE
  5
17F
330
1F
100
AcDbEntity
  8
0
  6
Continuous
 62
     7
370
    25
100
AcDbSpline
210
0.0
220
0.0
230
1.0
 70
     8
 71
     3
 72
     8
 73
     4
 74
     0
 42
0.000000001
 43
0.00000001
 40
0.0
 40
0.0
 40
0.0
 40
0.0
 40
1.0
 40
1.0
 40
1.0
 40
1.0
 10
444.7522996623813
 20
274.4914092620695
 30
0.0
 10
446.2718188153991
 20
274.4914092620695
 30
0.0
 10
447.7645049507506
 20
274.2912769382448
 30
0.0
 10
449.2303573742179
 20
273.8910128892752
 30
0.0
  0
SPLINE
  5
180
330
1F
100
AcDbEntity
  8
0
  6
Continuous
 62
     7
370
    25
100
AcDbSpline
210
0.0
220
0.0
230
1.0
 70
     8
 71
     3
 72
    18
 73
    14
 74
     0
 42
0.000000001
 43
0.00000001
 40
0.0
 40
0.0
 40
0.0
 40
0.0
 40
0.0625
 40
0.0625
 40
0.1249999999999999
 40
0.1249999999999999
 40
0.2499999999999999
 40
0.2499999999999999
 40
0.4999999999999999
 40
0.4999999999999999
 40
0.7499999999999999
 40
0.7499999999999999
 40
1.0
 40
1.0
 40
1.0
 40
1.0
 10
449.2303573742179
 20
273.8910128892753
 30
0.0
 10
449.6570412908359
 20
273.7745022400067
 30
0.0
 10
450.0808951647493
 20
273.6468418323878
 30
0.0
 10
450.9322169426133
 20
273.4056847348152
 30
0.0
 10
451.3589091794418
 20
273.2890728161898
 30
0.0
 10
452.6423878339615
 20
272.9523236247589
 30
0.0
 10
453.5023648268918
 20
272.7444591031672
 30
0.0
 10
456.0944067128564
 20
272.1674479591381
 30
0.0
 10
457.8339051172038
 20
271.844752229127
 30
0.0
 10
461.3433867149378
 20
271.3716792669246
 30
0.0
 10
463.1034562720974
 20
271.2236736924439
 30
0.0
 10
466.6300704809991
 20
271.0727819277578
 30
0.0
 10
468.3969850950343
 20
271.0688239686959
 30
0.0
 10
470.1639438665337
 20
271.065740040709
 30
0.0
  0
SPLINE
  5
181
330
1F
100
AcDbEntity
  8
0
  6
Continuous
 62
     7
370
    25
100
AcDbSpline
210
0.0
220
0.0
230
1.0
 70
     8
 71
     3
 72
    18
 73
    14
 74
     0
 42
0.000000001
 43
0.00000001
 40
0.0
 40
0.0
 40
0.0
 40
0.0
 40
0.2499999999999995
 40
0.2499999999999995
 40
0.499999999999999
 40
0.499999999999999
 40
0.7499999999999984
 40
0.7499999999999984
 40
0.8749999999999982
 40
0.8749999999999982
 40
0.9374999999999991
 40
0.9374999999999991
 40
1.0
 40
1.0
 40
1.0
 40
1.0
 10
470.1639438665337
 20
243.9170784834299
 30
0.0
 10
468.3969850827154
 20
243.9139945554215
 30
0.0
 10
466.6300704563643
 20
243.9100365962824
 30
0.0
 10
463.1034562229719
 20
243.7591448286378
 30
0.0
 10
461.3433866533456
 20
243.6111392513348
 30
0.0
 10
457.8339050319915
 20
243.1380662811024
 30
0.0
 10
456.0944066157883
 20
242.8153705461937
 30
0.0
 10
453.502364712785
 20
242.2383593941699
 30
0.0
 10
452.6423877142248
 20
242.0304948697228
 30
0.0
 10
451.3589090513989
 20
241.693745673475
 30
0.0
 10
450.9322168118371
 20
241.577133753107
 30
0.0
 10
450.0808950284393
 20
241.3359766523093
 30
0.0
 10
449.6559912830715
 20
241.2080295681513
 30
0.0
 10
449.2303573742179
 20
241.0918056348636
 30
0.0
  0
SPLINE
  5
182
330
1F
100
AcDbEntity
  8
0
  6
Continuous
 62
     7
370
    25
100
AcDbSpline
210
0.0
220
0.0
230
1.0
 70
    24
 71
     3
 72
    10
 73
     6
 74
     0
 42
0.000000001
 43
0.00000001
 40
0.0
 40
0.0
 40
0.0
 40
0.0
 40
0.5
 40
0.5
 40
1.0
 40
1.0
 40
1.0
 40
1.0
 10
512.7522996623812
 20
268.1962919242879
 30
0.0
 10
512.7522996623812
 20
266.4122090673547
 30
0.0
 10
512.7522996623813
 20
264.6280556561899
 30
0.0
 10
512.7522996623813
 20
261.0597480593442
 30
0.0
 10
512.7522996623812
 20
259.2755864106985
 30
0.0
 10
512.7522996623812
 20
257.4914092620695
 30
0.0
  0
SPLINE
  5
183
330
1F
100
AcDbEntity
  8
0
  6
Continuous
 62
     7
370
    25
100
AcDbSpline
210
0.0
220
0.0
230
1.0
 70
    24
 71
     3
 72
    10
 73
     6
 74
     0
 42
0.000000001
 43
0.00000001
 40
0.0
 40
0.0
 40
0.0
 40
0.0
 40
0.5
 40
0.5
 40
1.0
 40
1.0
 40
1.0
 40
1.0
 10
512.7522996623812
 20
257.4914092620695
 30
0.0
 10
512.7522996623812
 20
255.7072321435242
 30
0.0
 10
512.7522996623813
 20
253.9230703681917
 30
0.0
 10
512.7522996623813
 20
250.354762818599
 30
0.0
 10
512.7522996623812
 20
248.5706094324565
 30
0.0
 10
512.7522996623812
 20
246.7865265998511
 30
0.0
  0
SPLINE
  5
184
330
1F
100
AcDbEntity
  8
0
  6
Continuous
 62
     7
370
    25
100
AcDbSpline
210
0.0
220
0.0
230
1.0
 70
     8
 71
     3
 72
    20
 73
    16
 74
     0
 42
0.000000001
 43
0.00000001
 40
0.0
 40
0.0
 40
0.0
 40
0.0
 40
0.25
 40
0.25
 40
0.375
 40
0.375
 40
0.5
 40
0.5
 40
0.625
 40
0.625
 40
0.75
 40
0.75
 40
0.875
 40
0.875
 40
1.0
 40
1.0
 40
1.0
 40
1.0
 10
509.9571865818058
 20
270.9962876596451
 30
0.0
 10
510.345141075764
 20
270.9956105506308
 30
0.0
 10
510.7325785369216
 20
270.9878899184727
 30
0.0
 10
511.3021141501733
 20
270.8602091447461
 30
0.0
 10
511.4875863754949
 20
270.7997174111605
 30
0.0
 10
511.8364402536302
 20
270.6290794141566
 30
0.0
 10
511.9986614783803
 20
270.5179989538715
 30
0.0
 10
512.2717145163014
 20
270.2460538681796
 30
0.0
 10
512.3845181915763
 20
270.0824251240138
 30
0.0
 10
512.5555630546703
 20
269.7344673166652
 30
0.0
 10
512.6168626087297
 20
269.5472055546076
 30
0.0
 10
512.7019322842389
 20
269.1683970054058
 30
0.0
 10
512.7263207477727
 20
268.9740131522533
 30
0.0
 10
512.7516418627995
 20
268.585715881264
 30
0.0
 10
512.7522996623812
 20
268.3910174475225
 30
0.0
 10
512.7522996623812
 20
268.1962919242879
 30
0.0
  0
SPLINE
  5
185
330
1F
100
AcDbEntity
  8
0
  6
Continuous
 62
     7
370
    25
100
AcDbSpline
210
0.0
220
0.0
230
1.0
 70
     8
 71
     3
 72
    20
 73
    16
 74
     0
 42
0.000000001
 43
0.00000001
 40
0.0
 40
0.0
 40
0.0
 40
0.0
 40
0.125
 40
0.125
 40
0.2500000000000001
 40
0.2500000000000001
 40
0.3750000000000001
 40
0.3750000000000001
 40
0.5000000000000001
 40
0.5000000000000001
 40
0.6250000000000001
 40
0.6250000000000001
 40
0.7500000000000002
 40
0.7500000000000002
 40
1.0
 40
1.0
 40
1.0
 40
1.0
 10
512.7522996623812
 20
246.7865265998511
 30
0.0
 10
512.7522996623812
 20
246.591732520765
 30
0.0
 10
512.7516409948523
 20
246.396965568787
 30
0.0
 10
512.7262948632589
 20
246.0085323298633
 30
0.0
 10
512.7018829507151
 20
245.814081998436
 30
0.0
 10
512.6167321884308
 20
245.4351523135659
 30
0.0
 10
512.555373176613
 20
245.2478334365646
 30
0.0
 10
512.3841659391704
 20
244.8998087282545
 30
0.0
 10
512.2712494785992
 20
244.7361651351406
 30
0.0
 10
511.9979726607143
 20
244.4642704948116
 30
0.0
 10
511.8356161150637
 20
244.3532287105006
 30
0.0
 10
511.4865680421328
 20
244.1827108557161
 30
0.0
 10
511.3009510361209
 20
244.1222687170926
 30
0.0
 10
510.7313220085468
 20
243.9948074900088
 30
0.0
 10
510.3445676006886
 20
243.9872069726043
 30
0.0
 10
509.9571865818058
 20
243.9865308644939
 30
0.0
  0
SPLINE
  5
186
330
1F
100
AcDbEntity
  8
0
  6
Continuous
 62
     7
370
    25
100
AcDbSpline
210
0.0
220
0.0
230
1.0
 70
    24
 71
     3
 72
    16
 73
    12
 74
     0
 42
0.000000001
 43
0.00000001
 40
0.0
 40
0.0
 40
0.0
 40
0.0
 40
0.4999999999999989
 40
0.4999999999999989
 40
0.7499999999999994
 40
0.7499999999999994
 40
0.8749999999999997
 40
0.8749999999999997
 40
0.9374999999999999
 40
0.9374999999999999
 40
1.0
 40
1.0
 40
1.0
 40
1.0
 10
470.1639438665337
 20
271.065740040709
 30
0.0
 10
476.7047080877761
 20
271.0543242419918
 30
0.0
 10
483.2454724273944
 20
271.0429084430679
 30
0.0
 10
493.0566198570145
 20
271.0257847430761
 30
0.0
 10
496.3270024418646
 20
271.0200768428899
 30
0.0
 10
501.2325764253216
 20
271.0115149924251
 30
0.0
 10
502.8677678137009
 20
271.0086610421645
 30
0.0
 10
505.3205548262577
 20
271.0043801168957
 30
0.0
 10
506.1381504531371
 20
271.0029531418829
 30
0.0
 10
507.773341984623
 20
271.0000991913725
 30
0.0
 10
508.590937886386
 20
270.99867221588
 30
0.0
 10
509.4085324991042
 20
270.9972452426372
 30
0.0
  0
SPLINE
  5
187
330
1F
100
AcDbEntity
  8
0
  6
Continuous
 62
     7
370
    25
100
AcDbSpline
210
0.0
220
0.0
230
1.0
 70
    24
 71
     3
 72
    16
 73
    12
 74
     0
 42
0.000000001
 43
0.00000001
 40
0.0
 40
0.0
 40
0.0
 40
0.0
 40
0.0625000000000001
 40
0.0625000000000001
 40
0.1250000000000003
 40
0.1250000000000003
 40
0.2500000000000006
 40
0.2500000000000006
 40
0.5000000000000011
 40
0.5000000000000011
 40
1.0
 40
1.0
 40
1.0
 40
1.0
 10
509.4085324991042
 20
243.9855732815018
 30
0.0
 10
508.590937886386
 20
243.984146308259
 30
0.0
 10
507.7733419846233
 20
243.9827193327664
 30
0.0
 10
506.1381504531375
 20
243.979865382256
 30
0.0
 10
505.320554826258
 20
243.9784384072431
 30
0.0
 10
502.8677678137012
 20
243.9741574819744
 30
0.0
 10
501.2325764253222
 20
243.9713035317138
 30
0.0
 10
496.327002441865
 20
243.962741681249
 30
0.0
 10
493.0566198570149
 20
243.9570337810628
 30
0.0
 10
483.2454724273947
 20
243.939910081071
 30
0.0
 10
476.704708087776
 20
243.9284942821471
 30
0.0
 10
470.1639438665337
 20
243.9170784834299
 30
0.0
  0
SPLINE
  5
188
330
1F
100
AcDbEntity
  8
0
  6
Continuous
 62
     7
370
    25
100
AcDbSpline
210
0.0
220
0.0
230
1.0
 70
    24
 71
     3
 72
     8
 73
     4
 74
     0
 42
0.000000001
 43
0.00000001
 40
0.0
 40
0.0
 40
0.0
 40
0.0
 40
0.0005486600506291
 40
0.0005486600506291
 40
0.0005486600506291
 40
0.0005486600506291
 10
509.4085329128508
 20
270.997245241915
 30
0.0
 10
509.5914185527658
 20
270.9969260459338
 30
0.0
 10
509.7743035660533
 20
270.9966068510462
 30
0.0
 10
509.9571865818058
 20
270.9962876596451
 30
0.0
  0
SPLINE
  5
189
330
1F
100
AcDbEntity
  8
0
  6
Continuous
 62
     7
370
    25
100
AcDbSpline
210
0.0
220
0.0
230
1.0
 70
    24
 71
     3
 72
     8
 73
     4
 74
     0
 42
0.000000001
 43
0.00000001
 40
0.0
 40
0.0
 40
0.0
 40
0.0
 40
0.0005486600506291
 40
0.0005486600506291
 40
0.0005486600506291
 40
0.0005486600506291
 10
509.9571865818058
 20
243.9865308644939
 30
0.0
 10
509.7743035660533
 20
243.9862116730926
 30
0.0
 10
509.5914185527658
 20
243.9858924782051
 30
0.0
 10
509.4085329128508
 20
243.9855732822239
 30
0.0
  0
ARC
  5
18A
330
1F
100
AcDbEntity
  8
0
  6
Continuous
 62
     7
370
    25
100
AcDbCircle
 10
444.7522996624
 20
257.4914092621
 30
0.0
 40
17.0
100
AcDbArc
 50
90.0
 51
180.0
  0
ARC
  5
18B
330
1F
100
AcDbEntity
  8
0
  6
Continuous
 62
     7
370
    25
100
AcDbCircle
 10
444.7522996624
 20
257.4914092621
 30
0.0
 40
17.00000000000006
100
AcDbArc
 50
180.0
 51
270.0
  0
ARC
  5
18C
330
1F
100
AcDbEntity
  8
0
  6
Continuous
 62
     7
370
    25
100
AcDbCircle
 10
444.7522996624
 20
257.4914092621
 30
0.0
 40
27.00000000000003
100
AcDbArc
 50
30.3542478814
 51
329.5980353583
  0
SPLINE
  5
18D
330
1F
100
AcDbEntity
  8
0
  6
Continuous
 62
     7
370
    25
100
AcDbSpline
210
0.0
220
0.0
230
1.0
 70
     8
 71
     3
 72
    20
 73
    16
 74
     0
 42
0.000000001
 43
0.00000001
 40
0.0
 40
0.0
 40
0.0
 40
0.0
 40
0.25
 40
0.25
 40
0.5
 40
0.5
 40
0.75
 40
0.75
 40
0.875
 40
0.875
 40
0.9374999999999999
 40
0.9374999999999999
 40
0.9687499999999999
 40
0.9687499999999999
 40
1.0
 40
1.0
 40
1.0
 40
1.0
 10
326.46431199671
 20
229.9611686437665
 30
0.0
 10
326.4634204410021
 20
232.0044638331434
 30
0.0
 10
326.4632609787342
 20
234.0477700834651
 30
0.0
 10
326.3648583429494
 20
238.1328942350039
 30
0.0
 10
326.2645336744616
 20
240.1749815196226
 30
0.0
 10
325.950356680299
 20
244.2481904554907
 30
0.0
 10
325.7385237507257
 20
246.2814227692834
 30
0.0
 10
325.3590583512722
 20
249.322455347281
 30
0.0
 10
325.2220821090112
 20
250.334647606358
 30
0.0
 10
324.9960795071786
 20
251.8500273885879
 30
0.0
 10
324.9171129894601
 20
252.3546395750728
 30
0.0
 10
324.7925067276915
 20
253.1106859937928
 30
0.0
 10
324.749871453002
 20
253.3625457093594
 30
0.0
 10
324.6641136957539
 20
253.8661961502322
 30
0.0
 10
324.6207152874304
 20
254.1179343096284
 30
0.0
 10
324.581662549004
 20
254.3703148805287
 30
0.0
  0
SPLINE
  5
18E
330
1F
100
AcDbEntity
  8
0
  6
Continuous
 62
     7
370
    25
100
AcDbSpline
210
0.0
220
0.0
230
1.0
 70
     8
 71
     3
 72
    20
 73
    16
 74
     0
 42
0.000000001
 43
0.00000001
 40
0.0
 40
0.0
 40
0.0
 40
0.0
 40
0.03125
 40
0.03125
 40
0.0624999999999999
 40
0.0624999999999999
 40
0.1249999999999999
 40
0.1249999999999999
 40
0.2499999999999999
 40
0.2499999999999999
 40
0.5
 40
0.5
 40
0.75
 40
0.75
 40
1.0
 40
1.0
 40
1.0
 40
1.0
 10
364.9229367757586
 20
254.3703148805287
 30
0.0
 10
364.8838893040786
 20
254.1179683462802
 30
0.0
 10
364.8404856303404
 20
253.8661961580459
 30
0.0
 10
364.7547278730616
 20
253.3625457170071
 30
0.0
 10
364.7120925983379
 20
253.1106860013602
 30
0.0
 10
364.5874863364705
 20
252.3546395823988
 30
0.0
 10
364.508519818686
 20
251.850027395753
 30
0.0
 10
364.2825172166805
 20
250.3346476130368
 30
0.0
 10
364.1455409743269
 20
249.3224553536323
 30
0.0
 10
363.7660755746183
 20
246.2814227746494
 30
0.0
 10
363.554242644899
 20
244.2481904601909
 30
0.0
 10
363.2400656504877
 20
240.1749815229896
 30
0.0
 10
363.1397409819094
 20
238.1328942377003
 30
0.0
 10
363.0413383460295
 20
234.0477700848139
 30
0.0
 10
363.0411788837607
 20
232.0044638338178
 30
0.0
 10
363.0402873280526
 20
229.9611686437665
 30
0.0
  0
SPLINE
  5
18F
330
1F
100
AcDbEntity
  8
0
  6
Continuous
 62
     7
370
    25
100
AcDbSpline
210
0.0
220
0.0
230
1.0
 70
     8
 71
     3
 72
    22
 73
    18
 74
     0
 42
0.000000001
 43
0.00000001
 40
0.0
 40
0.0
 40
0.0
 40
0.0
 40
0.250000000000014
 40
0.250000000000014
 40
0.375000000000019
 40
0.375000000000019
 40
0.4375000000000226
 40
0.4375000000000226
 40
0.5000000000000261
 40
0.5000000000000261
 40
0.6250000000000197
 40
0.6250000000000197
 40
0.7500000000000131
 40
0.7500000000000131
 40
0.8750000000000067
 40
0.8750000000000067
 40
1.0
 40
1.0
 40
1.0
 40
1.0
 10
329.1242074796285
 20
90.09140926206948
 30
0.0
 10
328.7634330989479
 20
90.0914092620695
 30
0.0
 10
328.4032353208607
 20
90.09788825692803
 30
0.0
 10
327.8726074149814
 20
90.2161429450984
 30
0.0
 10
327.6984471580623
 20
90.27277144700788
 30
0.0
 10
327.4540112771656
 20
90.3925555175027
 30
0.0
 10
327.3760238407572
 20
90.43795519793956
 30
0.0
 10
327.2281558487124
 20
90.54146026440553
 30
0.0
 10
327.1576768502555
 20
90.60030246033111
 30
0.0
 10
326.9665698172117
 20
90.79203158027231
 30
0.0
 10
326.8643858156337
 20
90.94151380713812
 30
0.0
 10
326.7053005596098
 20
91.26704068723281
 30
0.0
 10
326.6498232708302
 20
91.43776586082885
 30
0.0
 10
326.570960902631
 20
91.78983349466795
 30
0.0
 10
326.5484384587469
 20
91.97006001494944
 30
0.0
 10
326.524978650149
 20
92.32942713409308
 30
0.0
 10
326.5242864605873
 20
92.50983101757494
 30
0.0
 10
326.5242077271302
 20
92.69027479809148
 30
0.0
  0
SPLINE
  5
190
330
1F
100
AcDbEntity
  8
0
  6
Continuous
 62
     7
370
    25
100
AcDbSpline
210
0.0
220
0.0
230
1.0
 70
     8
 71
     3
 72
    22
 73
    18
 74
     0
 42
0.000000001
 43
0.00000001
 40
0.0
 40
0.0
 40
0.0
 40
0.0
 40
0.124999999999994
 40
0.124999999999994
 40
0.249999999999988
 40
0.249999999999988
 40
0.374999999999982
 40
0.374999999999982
 40
0.499999999999976
 40
0.499999999999976
 40
0.5624999999999798
 40
0.5624999999999798
 40
0.6249999999999836
 40
0.6249999999999836
 40
0.7499999999999912
 40
0.7499999999999912
 40
1.0
 40
1.0
 40
1.0
 40
1.0
 10
362.9803915976324
 20
92.69027479809148
 30
0.0
 10
362.9803128641753
 20
92.509831017575
 30
0.0
 10
362.9796206746136
 20
92.32942713409302
 30
0.0
 10
362.9561608660157
 20
91.97006001494938
 30
0.0
 10
362.9336384221315
 20
91.78983349466809
 30
0.0
 10
362.8547760539324
 20
91.43776586082888
 30
0.0
 10
362.7992987651526
 20
91.26704068723264
 30
0.0
 10
362.6402135091288
 20
90.94151380713807
 30
0.0
 10
362.5380295075508
 20
90.79203158027217
 30
0.0
 10
362.3469224745069
 20
90.60030246033101
 30
0.0
 10
362.27644347605
 20
90.54146026440525
 30
0.0
 10
362.1285754840052
 20
90.43795519793944
 30
0.0
 10
362.0505880475967
 20
90.39255551750269
 30
0.0
 10
361.8061521667001
 20
90.27277144700781
 30
0.0
 10
361.6319919097811
 20
90.21614294509834
 30
0.0
 10
361.1013640039017
 20
90.09788825692796
 30
0.0
 10
360.7411662258147
 20
90.09140926206948
 30
0.0
 10
360.3803918451341
 20
90.09140926206948
 30
0.0
  0
SPLINE
  5
191
330
1F
100
AcDbEntity
  8
0
  6
Continuous
 62
     7
370
    25
100
AcDbSpline
210
0.0
220
0.0
230
1.0
 70
    24
 71
     3
 72
    16
 73
    12
 74
     0
 42
0.000000001
 43
0.00000001
 40
0.0
 40
0.0
 40
0.0
 40
0.0
 40
0.0624999999999996
 40
0.0624999999999996
 40
0.1249999999999992
 40
0.1249999999999992
 40
0.2499999999999991
 40
0.2499999999999991
 40
0.4999999999999993
 40
0.4999999999999993
 40
1.0
 40
1.0
 40
1.0
 40
1.0
 10
326.5237007530963
 20
93.85217362300548
 30
0.0
 10
326.5224634875429
 20
96.68777721684673
 30
0.0
 10
326.521226221728
 20
99.52338140994134
 30
0.0
 10
326.5187516901743
 20
105.1945896220705
 30
0.0
 10
326.5175144243942
 20
108.0301937355407
 30
0.0
 10
326.5138026271057
 20
116.5370059570842
 30
0.0
 10
326.5113280956026
 20
122.208214053276
 30
0.0
 10
326.5039045010385
 20
139.2218384672366
 30
0.0
 10
326.4989554379981
 20
150.5642547377577
 30
0.0
 10
326.4841082488762
 20
184.5915035510075
 30
0.0
 10
326.4742101227885
 20
207.2763361078199
 30
0.0
 10
326.46431199671
 20
229.9611686437665
 30
0.0
  0
LWPOLYLINE
  5
192
330
1F
100
AcDbEntity
  8
0
  6
Continuous
 62
     7
370
    25
100
AcDbPolyline
 90
        5
 70
   128
 43
0.0
 10
363.040288042
 20
229.9611693671
 10
363.0353054662
 20
218.5428547164
 10
363.0153770258
 20
172.8696072897
 10
362.9954485853
 20
127.1963561376
 10
362.980899464
 20
93.8521767458
  0
SPLINE
  5
193
330
1F
100
AcDbEntity
  8
0
  6
Continuous
 62
     7
370
    25
100
AcDbSpline
210
0.0
220
0.0
230
1.0
 70
    24
 71
     3
 72
    11
 73
     7
 74
     0
 42
0.000000001
 43
0.00000001
 40
0.0
 40
0.0
 40
0.0
 40
0.0
 40
0.0078150855191707
 40
0.0078150855191707
 40
0.0078150855191707
 40
0.0156301714414777
 40
0.0156301714414777
 40
0.0156301714414777
 40
0.0156301714414777
 10
344.75434647246
 20
90.09140926206948
 30
0.0
 10
342.1493217641899
 20
90.09140926206948
 30
0.0
 10
339.5443016846007
 20
90.09140926206948
 30
0.0
 10
336.9392779071525
 20
90.09140926206948
 30
0.0
 10
334.3342539652182
 20
90.09140926206948
 30
0.0
 10
331.7292261166556
 20
90.09140926206948
 30
0.0
 10
329.1242074796285
 20
90.09140926206948
 30
0.0
  0
SPLINE
  5
194
330
1F
100
AcDbEntity
  8
0
  6
Continuous
 62
     7
370
    25
100
AcDbSpline
210
0.0
220
0.0
230
1.0
 70
    24
 71
     3
 72
    11
 73
     7
 74
     0
 42
0.000000001
 43
0.00000001
 40
0.0
 40
0.0
 40
0.0
 40
0.0
 40
0.0078150860126305
 40
0.0078150860126305
 40
0.0078150860126305
 40
0.0156260780084579
 40
0.0156260780084579
 40
0.0156260780084579
 40
0.0156260780084579
 10
360.3803918451341
 20
90.09140926206948
 30
0.0
 10
357.7753732081071
 20
90.09140926206948
 30
0.0
 10
355.1703453595443
 20
90.09140926206948
 30
0.0
 10
352.56532141761
 20
90.09140926206948
 30
0.0
 10
349.9616621756488
 20
90.09140926206948
 30
0.0
 10
347.3580066265899
 20
90.09140926206948
 30
0.0
 10
344.7543464605084
 20
90.09140926206948
 30
0.0
  0
SPLINE
  5
195
330
1F
100
AcDbEntity
  8
0
  6
Continuous
 62
     7
370
    25
100
AcDbSpline
210
0.0
220
0.0
230
1.0
 70
    24
 71
     3
 72
     8
 73
     4
 74
     0
 42
0.000000001
 43
0.00000001
 40
0.0
 40
0.0
 40
0.0
 40
0.0
 40
0.0011619024810407
 40
0.0011619024810407
 40
0.0011619024810407
 40
0.0011619024810407
 10
362.9808985716832
 20
93.85217366161248
 30
0.0
 10
362.9807295802365
 20
93.46487381945413
 30
0.0
 10
362.9805605888725
 20
93.0775741670494
 30
0.0
 10
362.9803915976324
 20
92.69027479809148
 30
0.0
  0
SPLINE
  5
196
330
1F
100
AcDbEntity
  8
0
  6
Continuous
 62
     7
370
    25
100
AcDbSpline
210
0.0
220
0.0
230
1.0
 70
    24
 71
     3
 72
     8
 73
     4
 74
     0
 42
0.000000001
 43
0.00000001
 40
0.0
 40
0.0
 40
0.0
 40
0.0
 40
0.0011619024810406
 40
0.0011619024810406
 40
0.0011619024810406
 40
0.0011619024810406
 10
326.5242077271302
 20
92.69027479809148
 30
0.0
 10
326.52403873589
 20
93.0775741670494
 30
0.0
 10
326.5238697445261
 20
93.46487381945413
 30
0.0
 10
326.5237007530794
 20
93.85217366161248
 30
0.0
  0
SPLINE
  5
197
330
1F
100
AcDbEntity
  8
0
  6
Continuous
 62
     7
370
    25
100
AcDbSpline
210
0.0
220
0.0
230
1.0
 70
     8
 71
     3
 72
    11
 73
     7
 74
     0
 42
0.000000001
 43
0.00000001
 40
0.0
 40
0.0
 40
0.0
 40
0.0
 40
0.0521113763814185
 40
0.1044335348196355
 40
0.3681182637432517
 40
1.0
 40
1.0
 40
1.0
 40
1.0
 10
325.3029669333993
 20
249.3034111758554
 30
0.0
 10
325.3551958160019
 20
248.9726933090951
 30
0.0
 10
325.4598648385576
 20
248.3099198754979
 30
0.0
 10
325.7344518931747
 20
245.9608230076638
 30
0.0
 10
326.3879417211079
 20
239.9030803418523
 30
0.0
 10
326.4326812429895
 20
234.1442434362536
 30
0.0
 10
326.4642479528486
 20
230.081000780114
 30
0.0
  0
SPLINE
  5
198
330
1F
100
AcDbEntity
  8
0
  6
Continuous
 62
     7
370
    25
100
AcDbSpline
210
0.0
220
0.0
230
1.0
 70
     8
 71
     3
 72
     9
 73
     5
 74
     0
 42
0.000000001
 43
0.00000001
 40
0.0
 40
0.0
 40
0.0
 40
0.0
 40
0.3661381995243416
 40
0.9999999999999999
 40
0.9999999999999999
 40
0.9999999999999999
 40
0.9999999999999999
 10
364.3104518462716
 20
249.2309524169052
 30
0.0
 10
363.9727408190684
 20
246.9082304888149
 30
0.0
 10
363.0503813721656
 20
240.5643911103841
 30
0.0
 10
363.0442425419117
 20
234.1480648781298
 30
0.0
 10
363.040351371914
 20
230.081000780114
 30
0.0
  0
LINE
  5
199
330
1F
100
AcDbEntity
  8
0
  6
Continuous
 62
     7
370
    25
100
AcDbLine
 10
324.5692579706
 20
254.114232208
 30
0.0
 11
324.6622598429
 21
253.571053916
 31
0.0
  0
ARC
  5
19A
330
1F
100
AcDbEntity
  8
0
  6
Continuous
 62
     7
370
    25
100
AcDbCircle
 10
344.7522996624
 20
257.4914092621
 30
0.0
 40
27.00000000000005
100
AcDbArc
 50
313.6008316284
 51
226.3118733007
  0
LINE
  5
19B
330
1F
100
AcDbEntity
  8
0
  6
Continuous
 62
     7
370
    25
100
AcDbLine
 10
698.5246454099
 20
458.3791965007
 30
0.0
 11
696.7334354088
 21
458.3767154574
 31
0.0
  0
LINE
  5
19C
330
1F
100
AcDbEntity
  8
0
  6
Continuous
 62
     7
370
    25
100
AcDbLine
 10
700.1187259123
 20
458.3767154574
 30
0.0
 11
698.3275159112
 21
458.3791965007
 31
0.0
  0
ARC
  5
19D
330
1F
100
AcDbEntity
  8
0
  6
Continuous
 62
     7
370
    25
100
AcDbCircle
 10
723.9260806605
 20
423.7791943609
 30
0.0
 40
1.500000000000114
100
AcDbArc
 50
0.0
 51
90.0
  0
ARC
  5
19E
330
1F
100
AcDbEntity
  8
0
  6
Continuous
 62
     7
370
    25
100
AcDbCircle
 10
672.9260806605
 20
423.7791943609
 30
0.0
 40
1.500000000000114
100
AcDbArc
 50
90.0
 51
180.0
  0
LINE
  5
19F
330
1F
100
AcDbEntity
  8
0
  6
Continuous
 62
     7
370
    25
100
AcDbLine
 10
671.4260799602
 20
423.7791947409
 30
0.0
 11
671.4260799602
 21
415.7791943609
 31
0.0
  0
LINE
  5
1A0
330
1F
100
AcDbEntity
  8
0
  6
Continuous
 62
     7
370
    25
100
AcDbLine
 10
725.4260813609
 20
415.7791943609
 30
0.0
 11
725.4260813609
 21
423.7791947409
 31
0.0
  0
SPLINE
  5
1A1
330
1F
100
AcDbEntity
  8
0
  6
Continuous
 62
     7
370
    25
100
AcDbSpline
210
0.0
220
0.0
230
1.0
 70
     8
 71
     3
 72
    11
 73
     7
 74
     0
 42
0.000000001
 43
0.00000001
 40
0.0
 40
0.0
 40
0.0
 40
0.0
 40
0.0720292374956549
 40
0.4962499268923503
 40
0.9387191728106502
 40
1.0
 40
1.0
 40
1.0
 40
1.0
 10
711.9420336350755
 20
454.0351950883033
 30
0.0
 10
711.9406189266828
 20
453.9953468917572
 30
0.0
 10
711.9308722049227
 20
453.7208102548251
 30
0.0
 10
711.6047153683551
 20
453.3851249203605
 30
0.0
 10
711.3090085992206
 20
453.1169829486263
 30
0.0
 10
711.1048718043912
 20
453.0735564422666
 30
0.0
 10
711.0800387129144
 20
453.0682736395958
 30
0.0
  0
SPLINE
  5
1A2
330
1F
100
AcDbEntity
  8
0
  6
Continuous
 62
     7
370
    25
100
AcDbSpline
210
0.0
220
0.0
230
1.0
 70
     8
 71
     3
 72
    11
 73
     7
 74
     0
 42
0.000000001
 43
0.00000001
 40
0.0
 40
0.0
 40
0.0
 40
0.0
 40
0.0612808271893497
 40
0.5037500731076497
 40
0.927970762504345
 40
1.0
 40
1.0
 40
1.0
 40
1.0
 10
685.7721226081209
 20
453.0682736395958
 30
0.0
 10
685.747289516644
 20
453.0735564422666
 30
0.0
 10
685.5431527218145
 20
453.1169829486263
 30
0.0
 10
685.2474459526801
 20
453.3851249203605
 30
0.0
 10
684.9212891161125
 20
453.7208102548252
 30
0.0
 10
684.9115423943524
 20
453.9953468917572
 30
0.0
 10
684.9101276859598
 20
454.0351950883033
 30
0.0
  0
LINE
  5
1A3
330
1F
100
AcDbEntity
  8
0
  6
Continuous
 62
     7
370
    25
100
AcDbLine
 10
682.9352535099
 20
426.1791943892
 30
0.0
 11
682.9352535099
 21
425.2791940554
 31
0.0
  0
LINE
  5
1A4
330
1F
100
AcDbEntity
  8
0
  6
Continuous
 62
     7
370
    25
100
AcDbLine
 10
713.9169078112
 20
425.2791940554
 30
0.0
 11
713.9169078112
 21
426.1791943892
 31
0.0
  0
LINE
  5
1A5
330
1F
100
AcDbEntity
  8
0
  6
Continuous
 62
     7
370
    25
100
AcDbLine
 10
681.4260797366
 20
456.7323015391
 30
0.0
 11
681.4260797366
 21
426.579194641
 31
0.0
  0
LINE
  5
1A6
330
1F
100
AcDbEntity
  8
0
  6
Continuous
 62
     7
370
    25
100
AcDbLine
 10
715.4260815844
 20
426.579194641
 30
0.0
 11
715.4260815844
 21
456.7323536932
 31
0.0
  0
ARC
  5
1A7
330
1F
100
AcDbEntity
  8
0
  6
Continuous
 62
     7
370
    25
100
AcDbCircle
 10
681.8260806605
 20
426.5791943609
 30
0.0
 40
0.4000000000000909
100
AcDbArc
 50
180.0
 51
270.0
  0
ARC
  5
1A8
330
1F
100
AcDbEntity
  8
0
  6
Continuous
 62
     7
370
    25
100
AcDbCircle
 10
715.0260806605
 20
426.5791943609
 30
0.0
 40
0.4000000000000909
100
AcDbArc
 50
270.0
 51
0.0
  0
ARC
  5
1A9
330
1F
100
AcDbEntity
  8
0
  6
Continuous
 62
     7
370
    25
100
AcDbCircle
 10
677.526430337
 20
425.3791943609
 30
0.0
 40
0.1000000000000104
100
AcDbArc
 50
179.7999999998
 51
270.0
  0
ARC
  5
1AA
330
1F
100
AcDbEntity
  8
0
  6
Continuous
 62
     7
370
    25
100
AcDbCircle
 10
719.325730984
 20
425.3791943609
 30
0.0
 40
0.1000000000000104
100
AcDbArc
 50
270.0
 51
0.2000000002
  0
LINE
  5
1AB
330
1F
100
AcDbEntity
  8
0
  6
Continuous
 62
     7
370
    25
100
AcDbLine
 10
719.4257302001
 20
425.3795431315
 30
0.0
 11
718.9673555806
 21
556.6936792194
 31
0.0
  0
LINE
  5
1AC
330
1F
100
AcDbEntity
  8
0
  6
Continuous
 62
     7
370
    25
100
AcDbLine
 10
678.0153995171
 20
594.1059352218
 30
0.0
 11
677.4264311209
 21
425.3795431315
 31
0.0
  0
ARC
  5
1AD
330
1F
100
AcDbEntity
  8
0
  6
Continuous
 62
     7
370
    25
100
AcDbCircle
 10
679.2153922414
 20
594.1017462697
 30
0.0
 40
1.199999999999994
100
AcDbArc
 50
91.058445939
 51
179.8
  0
SPLINE
  5
1AE
330
1F
100
AcDbEntity
  8
0
  6
Continuous
 62
     7
370
    25
100
AcDbSpline
210
0.0
220
0.0
230
1.0
 70
     8
 71
     3
 72
     9
 73
     5
 74
     0
 42
0.000000001
 43
0.00000001
 40
0.0
 40
0.0
 40
0.0
 40
0.0
 40
0.292446777169193
 40
1.0
 40
1.0
 40
1.0
 40
1.0
 10
857.848016338046
 20
595.3689576446178
 30
0.0
 10
856.6676207858872
 20
595.3745987017411
 30
0.0
 10
852.6313460025411
 20
595.3938878769474
 30
0.0
 10
848.5992551647278
 20
595.3905801441814
 30
0.0
 10
845.7463362976865
 20
595.3882397472026
 30
0.0
  0
ARC
  5
1AF
330
1F
100
AcDbEntity
  8
0
  6
Continuous
 62
     7
370
    25
100
AcDbCircle
 10
698.4260806605
 20
-445.692649767
 30
0.0
 40
1041.171844127863
100
AcDbArc
 50
90.000021678
 51
91.058445939
  0
SPLINE
  5
1B0
330
1F
100
AcDbEntity
  8
0
  6
Continuous
 62
     7
370
    25
100
AcDbSpline
210
0.0
220
0.0
230
1.0
 70
     8
 71
     3
 72
     9
 73
     5
 74
     0
 42
0.000000001
 43
0.00000001
 40
0.0
 40
0.0
 40
0.0
 40
0.0
 40
0.5148084499669617
 40
1.0
 40
1.0
 40
1.0
 40
1.0
 10
820.814391390975
 20
576.6801596938732
 30
0.0
 10
822.7285890388763
 20
576.7105956133918
 30
0.0
 10
826.4468606562598
 20
576.7697164757642
 30
0.0
 10
830.1611746658704
 20
576.6840829331396
 30
0.0
 10
831.9633284375028
 20
576.6425342618587
 30
0.0
  0
LINE
  5
1B1
330
1F
100
AcDbEntity
  8
0
  6
Continuous
 62
     7
370
    25
100
AcDbLine
 10
859.8998019263
 20
595.380550748
 30
0.0
 11
857.7973672911
 21
595.3819067537
 31
0.0
  0
LINE
  5
1B2
330
1F
100
AcDbEntity
  8
0
  6
Continuous
 62
     7
370
    25
100
AcDbLine
 10
855.4260859057
 20
571.3565410434
 30
0.0
 11
855.4260859057
 21
576.6791911184
 31
0.0
  0
LINE
  5
1B3
330
1F
100
AcDbEntity
  8
0
  6
Continuous
 62
     7
370
    25
100
AcDbLine
 10
831.4260819718
 20
576.6802043974
 30
0.0
 11
831.4260819718
 21
571.3565410434
 31
0.0
  0
LINE
  5
1B4
330
1F
100
AcDbEntity
  8
0
  6
Continuous
 62
     7
370
    25
100
AcDbLine
 10
831.4260819718
 20
571.3565410434
 30
0.0
 11
832.4260839984
 21
570.779195553
 31
0.0
  0
LINE
  5
1B5
330
1F
100
AcDbEntity
  8
0
  6
Continuous
 62
     7
370
    25
100
AcDbLine
 10
854.4260838792
 20
570.779195553
 30
0.0
 11
855.4260859057
 21
571.3565410434
 31
0.0
  0
ARC
  5
1B6
330
1F
100
AcDbEntity
  8
0
  6
Continuous
 62
     7
370
    25
100
AcDbCircle
 10
834.2760806605
 20
570.7791943609
 30
0.0
 40
0.2000000000000455
100
AcDbArc
 50
180.0
 51
270.0
  0
ARC
  5
1B7
330
1F
100
AcDbEntity
  8
0
  6
Continuous
 62
     7
370
    25
100
AcDbCircle
 10
852.5760806605
 20
570.7791943609
 30
0.0
 40
0.1999999999999318
100
AcDbArc
 50
270.0
 51
0.0
  0
SPLINE
  5
1B8
330
1F
100
AcDbEntity
  8
0
  6
Continuous
 62
     7
370
    25
100
AcDbSpline
210
0.0
220
0.0
230
1.0
 70
     8
 71
     3
 72
    15
 73
    11
 74
     0
 42
0.000000001
 43
0.00000001
 40
0.0
 40
0.0
 40
0.0
 40
0.0
 40
0.1158255310402835
 40
0.2371215853990001
 40
0.3518537106066849
 40
0.4635020687629293
 40
0.5765747382270439
 40
0.6983264717319825
 40
0.8371004835694017
 40
0.9999999999999999
 40
0.9999999999999999
 40
0.9999999999999999
 40
0.9999999999999999
 10
718.995295257862
 20
556.6920251905086
 30
0.0
 10
719.0214174054303
 20
557.8601763794605
 30
0.0
 10
719.0748954684252
 20
560.2516513800256
 30
0.0
 10
719.8188675843546
 20
563.739096577727
 30
0.0
 10
721.0902772175585
 20
567.0182486847232
 30
0.0
 10
722.9361280258512
 20
569.9274693331399
 30
0.0
 10
725.478317247905
 20
572.3762468844016
 30
0.0
 10
728.8248512103141
 20
574.1806879638771
 30
0.0
 10
732.9743592084534
 20
575.3167142649087
 30
0.0
 10
736.0153122967467
 20
575.4748738471807
 30
0.0
 10
737.6573847398118
 20
575.5602778255108
 30
0.0
  0
LINE
  5
1B9
330
1F
100
AcDbEntity
  8
0
  6
Continuous
 62
     7
370
    25
100
AcDbLine
 10
698.4260806605
 20
458.3809287607
 30
0.0
 11
696.733433779
 21
458.3775275706
 31
0.0
  0
LINE
  5
1BA
330
1F
100
AcDbEntity
  8
0
  6
Continuous
 62
     7
370
    25
100
AcDbLine
 10
698.4260806605
 20
458.3809287607
 30
0.0
 11
700.1187275421
 21
458.3775275706
 31
0.0
  0
SPLINE
  5
1BB
330
1F
100
AcDbEntity
  8
0
  6
Continuous
 62
     7
370
    25
100
AcDbSpline
210
0.0
220
0.0
230
1.0
 70
     8
 71
     3
 72
     9
 73
     5
 74
     0
 42
0.000000001
 43
0.00000001
 40
0.0
 40
0.0
 40
0.0
 40
0.0
 40
0.832248704402261
 40
1.0
 40
1.0
 40
1.0
 40
1.0
 10
686.3534681290345
 20
452.9436552285316
 30
0.0
 10
686.2407110645318
 20
452.9472215883047
 30
0.0
 10
686.1052262462242
 20
452.9515067974668
 30
0.0
 10
685.9758969212215
 20
452.9913432276606
 30
0.0
 10
685.9542017593936
 20
452.9980258404377
 30
0.0
  0
SPLINE
  5
1BC
330
1F
100
AcDbEntity
  8
0
  6
Continuous
 62
     7
370
    25
100
AcDbSpline
210
0.0
220
0.0
230
1.0
 70
     8
 71
     3
 72
     9
 73
     5
 74
     0
 42
0.000000001
 43
0.00000001
 40
0.0
 40
0.0
 40
0.0
 40
0.0
 40
0.832248704402261
 40
1.0
 40
1.0
 40
1.0
 40
1.0
 10
710.4986931920008
 20
452.9436552285316
 30
0.0
 10
710.6114502565034
 20
452.9472215883047
 30
0.0
 10
710.7469350748111
 20
452.9515067974668
 30
0.0
 10
710.8762643998136
 20
452.9913432276606
 30
0.0
 10
710.8979595616416
 20
452.9980258404377
 30
0.0
  0
SPLINE
  5
1BD
330
1F
100
AcDbEntity
  8
0
  6
Continuous
 62
     7
370
    25
100
AcDbSpline
210
0.0
220
0.0
230
1.0
 70
     8
 71
     3
 72
     8
 73
     4
 74
     0
 42
0.000000001
 43
0.00000001
 40
0.0
 40
0.0
 40
0.0
 40
0.0
 40
1.0
 40
1.0
 40
1.0
 40
1.0
 10
698.4260806605183
 20
458.4991943608888
 30
0.0
 10
703.6110007775648
 20
458.4991943608887
 30
0.0
 10
708.7959207731235
 20
458.4099159233744
 30
0.0
 10
713.9777672546694
 20
458.2314119686765
 30
0.0
  0
SPLINE
  5
1BE
330
1F
100
AcDbEntity
  8
0
  6
Continuous
 62
     7
370
    25
100
AcDbSpline
210
0.0
220
0.0
230
1.0
 70
     8
 71
     3
 72
    11
 73
     7
 74
     0
 42
0.000000001
 43
0.00000001
 40
0.0
 40
0.0
 40
0.0
 40
0.0
 40
0.2337888951474242
 40
0.4857202651608115
 40
0.7419389250022245
 40
1.0
 40
1.0
 40
1.0
 40
1.0
 10
710.5575984135227
 20
458.2318947970035
 30
0.0
 10
710.56232290694
 20
458.2328471822041
 30
0.0
 10
710.5721385236911
 20
458.2348258595568
 30
0.0
 10
711.0189431000807
 20
458.2365228736024
 30
0.0
 10
711.9777643374136
 20
458.2370251943257
 30
0.0
 10
712.9455562929525
 20
458.2349931640287
 30
0.0
 10
713.4311858355956
 20
458.2339735089901
 30
0.0
  0
SPLINE
  5
1BF
330
1F
100
AcDbEntity
  8
0
  6
Continuous
 62
     7
370
    25
100
AcDbSpline
210
0.0
220
0.0
230
1.0
 70
     8
 71
     3
 72
    11
 73
     7
 74
     0
 42
0.000000001
 43
0.00000001
 40
0.0
 40
0.0
 40
0.0
 40
0.0
 40
0.2575201987477138
 40
0.5132018439001347
 40
0.7634610204466801
 40
1.0
 40
1.0
 40
1.0
 40
1.0
 10
683.4209754854397
 20
458.2339735089901
 30
0.0
 10
683.9066010058938
 20
458.2349931746215
 30
0.0
 10
684.8743849457708
 20
458.2370252260284
 30
0.0
 10
685.8318307580086
 20
458.2365235006363
 30
0.0
 10
686.280773358445
 20
458.2348249924449
 30
0.0
 10
686.2905086126021
 20
458.232835452688
 30
0.0
 10
686.2952390477018
 20
458.2318687199714
 30
0.0
  0
SPLINE
  5
1C0
330
1F
100
AcDbEntity
  8
0
  6
Continuous
 62
     7
370
    25
100
AcDbSpline
210
0.0
220
0.0
230
1.0
 70
     8
 71
     3
 72
     9
 73
     5
 74
     0
 42
0.000000001
 43
0.00000001
 40
0.0
 40
0.0
 40
0.0
 40
0.0
 40
0.5
 40
0.9151818179902178
 40
0.9151818179902178
 40
0.9151818179902178
 40
0.9151818179902178
 10
698.4260806605176
 20
458.4991943608883
 30
0.0
 10
695.5739650317756
 20
458.4991943608883
 30
0.0
 10
690.4032748775816
 20
458.4509969813501
 30
0.0
 10
685.2342769563506
 20
458.3128997256433
 30
0.0
 10
682.8743923737211
 20
458.2314610610729
 30
0.0
  0
LINE
  5
1C1
330
1F
100
AcDbEntity
  8
0
  6
Continuous
 62
     7
370
    25
100
AcDbLine
 10
696.7443664582
 20
452.9879005014
 30
0.0
 11
698.4260806605
 21
452.9901803791
 31
0.0
  0
LINE
  5
1C2
330
1F
100
AcDbEntity
  8
0
  6
Continuous
 62
     7
370
    25
100
AcDbLine
 10
698.4260806605
 20
452.9901803791
 30
0.0
 11
700.1085521445
 21
452.9878967761
 31
0.0
  0
LINE
  5
1C3
330
1F
100
AcDbEntity
  8
0
  6
Continuous
 62
     7
370
    25
100
AcDbLine
 10
672.9260811374
 20
425.2791940554
 30
0.0
 11
723.9260801837
 21
425.2791940554
 31
0.0
  0
LINE
  5
1C4
330
1F
100
AcDbEntity
  8
0
  6
Continuous
 62
     7
370
    25
100
AcDbLine
 10
698.4260806605
 20
415.7791943609
 30
0.0
 11
725.4260813609
 21
415.7791943609
 31
0.0
  0
LINE
  5
1C5
330
1F
100
AcDbEntity
  8
0
  6
Continuous
 62
     7
370
    25
100
AcDbLine
 10
671.4260799602
 20
415.7791943609
 30
0.0
 11
698.4260806605
 21
415.7791943609
 31
0.0
  0
LINE
  5
1C6
330
1F
100
AcDbEntity
  8
0
  6
Continuous
 62
     7
370
    25
100
AcDbLine
 10
698.4260806605
 20
426.1791943892
 30
0.0
 11
687.729381749
 21
426.1791943892
 31
0.0
  0
LINE
  5
1C7
330
1F
100
AcDbEntity
  8
0
  6
Continuous
 62
     7
370
    25
100
AcDbLine
 10
709.122779572
 20
426.1791943892
 30
0.0
 11
698.4260806605
 21
426.1791943892
 31
0.0
  0
LINE
  5
1C8
330
1F
100
AcDbEntity
  8
0
  6
Continuous
 62
     7
370
    25
100
AcDbLine
 10
687.729381749
 20
426.1791943892
 30
0.0
 11
681.8260809198
 21
426.1791943892
 31
0.0
  0
LINE
  5
1C9
330
1F
100
AcDbEntity
  8
0
  6
Continuous
 62
     7
370
    25
100
AcDbLine
 10
715.0260804012
 20
426.1791943892
 30
0.0
 11
709.122779572
 21
426.1791943892
 31
0.0
  0
SPLINE
  5
1CA
330
1F
100
AcDbEntity
  8
0
  6
Continuous
 62
     7
370
    25
100
AcDbSpline
210
0.0
220
0.0
230
1.0
 70
     8
 71
     3
 72
    14
 73
    10
 74
     0
 42
0.000000001
 43
0.00000001
 40
0.0
 40
0.0
 40
0.0
 40
0.0
 40
0.25
 40
0.25
 40
0.5
 40
0.5
 40
0.75
 40
0.75
 40
1.0
 40
1.0
 40
1.0
 40
1.0
 10
682.8743469128806
 20
458.2314594922354
 30
0.0
 10
682.6824236213647
 20
458.2248362778122
 30
0.0
 10
682.4918567589572
 20
458.1809125564488
 30
0.0
 10
682.1409386260735
 20
458.0248031999195
 30
0.0
 10
681.9807137323098
 20
457.9126737846678
 30
0.0
 10
681.7138560511745
 20
457.6364480704383
 30
0.0
 10
681.6073193676895
 20
457.472451249072
 30
0.0
 10
681.463405758441
 20
457.1163578059202
 30
0.0
 10
681.4260806605175
 20
456.9243894246403
 30
0.0
 10
681.4260806605175
 20
456.7323518845716
 30
0.0
  0
SPLINE
  5
1CB
330
1F
100
AcDbEntity
  8
0
  6
Continuous
 62
     7
370
    25
100
AcDbSpline
210
0.0
220
0.0
230
1.0
 70
     8
 71
     3
 72
    14
 73
    10
 74
     0
 42
0.000000001
 43
0.00000001
 40
0.0
 40
0.0
 40
0.0
 40
0.0
 40
0.25
 40
0.25
 40
0.5
 40
0.5
 40
0.75
 40
0.75
 40
1.0
 40
1.0
 40
1.0
 40
1.0
 10
713.977721793513
 20
458.231413534717
 30
0.0
 10
714.1696532117385
 20
458.2248019114209
 30
0.0
 10
714.3602303868464
 20
458.1808866623436
 30
0.0
 10
714.7111698645398
 20
458.02478728869
 30
0.0
 10
714.8714057624665
 20
457.9126593894442
 30
0.0
 10
715.1382827076415
 20
457.6364308109214
 30
0.0
 10
715.2448276286591
 20
457.4724296262336
 30
0.0
 10
715.3887525252038
 20
457.1163240862413
 30
0.0
 10
715.4260806605176
 20
456.9243479963559
 30
0.0
 10
715.4260806605176
 20
456.7323027338143
 30
0.0
  0
SPLINE
  5
1CC
330
1F
100
AcDbEntity
  8
0
  6
Continuous
 62
     7
370
    25
100
AcDbSpline
210
0.0
220
0.0
230
1.0
 70
     8
 71
     3
 72
    20
 73
    16
 74
     0
 42
0.000000001
 43
0.00000001
 40
0.0
 40
0.0
 40
0.0
 40
0.0
 40
0.0312499999999999
 40
0.0312499999999999
 40
0.0624999999999998
 40
0.0624999999999998
 40
0.1249999999999998
 40
0.1249999999999998
 40
0.2499999999999998
 40
0.2499999999999998
 40
0.4999999999999999
 40
0.4999999999999999
 40
0.7499999999999999
 40
0.7499999999999999
 40
1.0
 40
1.0
 40
1.0
 40
1.0
 10
701.36653725073
 20
595.3021574942112
 30
0.0
 10
701.6207794589116
 20
595.302290469345
 30
0.0
 10
701.8743781615517
 20
595.3024472104315
 30
0.0
 10
702.3817704370036
 20
595.3026583629892
 30
0.0
 10
702.6355085998384
 20
595.3027200214718
 30
0.0
 10
703.3971857344699
 20
595.3028053677111
 30
0.0
 10
703.9055438554345
 20
595.3027575473981
 30
0.0
 10
705.4321549784129
 20
595.3027516378262
 30
0.0
 10
706.4518308143017
 20
595.3028125415252
 30
0.0
 10
709.5153318819177
 20
595.303070392898
 30
0.0
 10
711.5635595599919
 20
595.3031859447084
 30
0.0
 10
715.6667944883342
 20
595.3029793737694
 30
0.0
 10
717.7239190903972
 20
595.30268664519
 30
0.0
 10
721.8391604088266
 20
595.3023510072102
 30
0.0
 10
723.8975380689465
 20
595.3021858519267
 30
0.0
 10
725.95590628169
 20
595.3020192625668
 30
0.0
  0
SPLINE
  5
1CD
330
1F
100
AcDbEntity
  8
0
  6
Continuous
 62
     7
370
    25
100
AcDbSpline
210
0.0
220
0.0
230
1.0
 70
     8
 71
     3
 72
    46
 73
    42
 74
     0
 42
0.000000001
 43
0.00000001
 40
0.0
 40
0.0
 40
0.0
 40
0.0
 40
0.0012254401741016
 40
0.0022700239964422
 40
0.0029686613735617
 40
0.0054383637319005
 40
0.0074578681484158
 40
0.0132819091008137
 40
0.015625
 40
0.017328639538932
 40
0.0290386949217868
 40
0.03125
 40
0.0421460986482666
 40
0.0605144583160705
 40
0.0625
 40
0.1085355568500462
 40
0.1131667903595588
 40
0.122408253403748
 40
0.1232649106851448
 40
0.125
 40
0.156918530530969
 40
0.160707736079809
 40
0.1875
 40
0.2485678561537055
 40
0.25
 40
0.3289129699510495
 40
0.375
 40
0.4109855711794175
 40
0.493058172407782
 40
0.499169771171536
 40
0.578186573018027
 40
0.625
 40
0.65720337486452
 40
0.6875
 40
0.739275976092886
 40
0.8125
 40
0.821348577338481
 40
0.875
 40
0.895726035191809
 40
0.9375
 40
0.9528742187416961
 40
0.9528742187416961
 40
0.9528742187416961
 40
0.9528742187416961
 10
698.4260806605176
 20
595.4791943608883
 30
0.0
 10
698.5536875307364
 20
595.4791943608883
 30
0.0
 10
698.7881861060871
 20
595.4791930578973
 30
0.0
 10
699.0903528508796
 20
595.4791882367188
 30
0.0
 10
699.5143137931174
 20
595.4791780343163
 30
0.0
 10
700.0256009979203
 20
595.4791580044732
 30
0.0
 10
701.0124418707919
 20
595.4790976997397
 30
0.0
 10
701.9372411230354
 20
595.4790035504702
 30
0.0
 10
702.7862508718099
 20
595.4788796633702
 30
0.0
 10
704.1053044281107
 20
595.4786567832423
 30
0.0
 10
705.2967282344089
 20
595.4783549061002
 30
0.0
 10
707.0249825591784
 20
595.4777614188232
 30
0.0
 10
709.027284721331
 20
595.4768769083682
 30
0.0
 10
710.6640923196228
 20
595.4757540915177
 30
0.0
 10
713.7949791224083
 20
595.4731255184063
 30
0.0
 10
715.6646466211733
 20
595.4706097306838
 30
0.0
 10
718.0260729966967
 20
595.4678957205978
 30
0.0
 10
718.6289973553692
 20
595.4672429455483
 30
0.0
 10
719.1341011205922
 20
595.4667322678233
 30
0.0
 10
720.5943822414349
 20
595.4652822306443
 30
0.0
 10
722.4465300626613
 20
595.4638352293168
 30
0.0
 10
725.8196021340017
 20
595.4616071780272
 30
0.0
 10
731.1388411433218
 20
595.4585403891878
 30
0.0
 10
736.7603372617368
 20
595.4558915434068
 30
0.0
 10
745.0711654227747
 20
595.4513034671593
 30
0.0
 10
751.790751071168
 20
595.4467294265193
 30
0.0
 10
760.2901832278291
 20
595.4408680640337
 30
0.0
 10
769.4469739445294
 20
595.4352177431667
 30
0.0
 10
776.7110794976094
 20
595.4311079750978
 30
0.0
 10
786.1545038612069
 20
595.4254279141827
 30
0.0
 10
793.3642398160789
 20
595.4207836055098
 30
0.0
 10
802.0109324784672
 20
595.4152908745579
 30
0.0
 10
808.1748373485174
 20
595.4115747031358
 30
0.0
 10
814.6322297485366
 20
595.4076953974038
 30
0.0
 10
823.2448354911438
 20
595.4022995000244
 30
0.0
 10
830.6387264434646
 20
595.3976507597317
 30
0.0
 10
838.2903894285851
 20
595.3930933351472
 30
0.0
 10
843.0186119832614
 20
595.3902939006208
 30
0.0
 10
849.3172991750776
 20
595.3855947309322
 30
0.0
 10
853.5658944030199
 20
595.3833632687034
 30
0.0
 10
856.9642160551017
 20
595.3841891506637
 30
0.0
 10
857.8755195964155
 20
595.3830645923965
 30
0.0
  0
LINE
  5
1CE
330
1F
100
AcDbEntity
  8
0
  6
Continuous
 62
     7
370
    25
100
AcDbLine
 10
857.8397610947
 20
595.381653434
 30
0.0
 11
857.8480759427
 21
595.3825326025
 31
0.0
  0
SPLINE
  5
1CF
330
1F
100
AcDbEntity
  8
0
  6
Continuous
 62
     7
370
    25
100
AcDbSpline
210
0.0
220
0.0
230
1.0
 70
     8
 71
     3
 72
     8
 73
     4
 74
     0
 42
0.000000001
 43
0.00000001
 40
0.0667745351689822
 40
0.0667745351689822
 40
0.0667745351689822
 40
0.0667745351689822
 40
1.0
 40
1.0
 40
1.0
 40
1.0
 10
865.1467919298359
 20
581.407222453475
 30
0.0
 10
861.977349303419
 20
579.6849007055204
 30
0.0
 10
858.7390725482608
 20
578.1098526592602
 30
0.0
 10
855.4260806605176
 20
576.6791943608882
 30
0.0
  0
SPLINE
  5
1D0
330
1F
100
AcDbEntity
  8
0
  6
Continuous
 62
     7
370
    25
100
AcDbSpline
210
0.0
220
0.0
230
1.0
 70
     8
 71
     3
 72
    26
 73
    22
 74
     0
 42
0.000000001
 43
0.00000001
 40
0.0
 40
0.0
 40
0.0
 40
0.0
 40
0.1249999999999984
 40
0.1249999999999984
 40
0.1874999999999977
 40
0.1874999999999977
 40
0.2499999999999969
 40
0.2499999999999969
 40
0.3749999999999953
 40
0.3749999999999953
 40
0.4374999999999946
 40
0.4374999999999946
 40
0.4999999999999938
 40
0.4999999999999938
 40
0.6249999999999953
 40
0.6249999999999953
 40
0.7499999999999969
 40
0.7499999999999969
 40
0.8749999999999984
 40
0.8749999999999984
 40
1.0
 40
1.0
 40
1.0
 40
1.0
 10
843.4260806605176
 20
576.5219127202042
 30
0.0
 10
844.2139797385385
 20
576.5221365741863
 30
0.0
 10
845.0006621174546
 20
576.5284747060209
 30
0.0
 10
846.1556769442014
 20
576.5447351996944
 30
0.0
 10
846.5385902732042
 20
576.551142348437
 30
0.0
 10
847.2893360051623
 20
576.5645029029674
 30
0.0
 10
847.6564855474816
 20
576.5714245504332
 30
0.0
 10
848.7339573037957
 20
576.5915611611571
 30
0.0
 10
849.4205324232768
 20
576.6040004749818
 30
0.0
 10
850.4013229615068
 20
576.6196285885011
 30
0.0
 10
850.7185755562771
 20
576.6243498704766
 30
0.0
 10
851.3263696660616
 20
576.6328141169672
 30
0.0
 10
851.6183667782802
 20
576.6366203675985
 30
0.0
 10
852.4550806000144
 20
576.646596386009
 30
0.0
 10
852.9584093133291
 20
576.6478354057725
 30
0.0
 10
853.833135169238
 20
576.651190067469
 30
0.0
 10
854.2062611614148
 20
576.6533494476921
 30
0.0
 10
854.8104230750233
 20
576.6591957829628
 30
0.0
 10
855.0406334361145
 20
576.6629412200364
 30
0.0
 10
855.3484164501657
 20
576.6712628114439
 30
0.0
 10
855.4260806605176
 20
576.6758256870498
 30
0.0
 10
855.4260806605176
 20
576.6791943608882
 30
0.0
  0
SPLINE
  5
1D1
330
1F
100
AcDbEntity
  8
0
  6
Continuous
 62
     7
370
    25
100
AcDbSpline
210
0.0
220
0.0
230
1.0
 70
     8
 71
     3
 72
    12
 73
     8
 74
     0
 42
0.000000001
 43
0.00000001
 40
0.0
 40
0.0
 40
0.0
 40
0.0
 40
0.1705891074118789
 40
0.4171350962239281
 40
0.6736568538528581
 40
0.9301644158580579
 40
1.0
 40
1.0
 40
1.0
 40
1.0
 10
843.4801975056486
 20
576.5219391643169
 30
0.0
 10
842.5860001674985
 20
576.5303366018194
 30
0.0
 10
840.3994532164565
 20
576.5508705383278
 30
0.0
 10
837.0452083536728
 20
576.5954530172168
 30
0.0
 10
834.0580325060582
 20
576.6317522298377
 30
0.0
 10
832.2793874788385
 20
576.657069017028
 30
0.0
 10
832.0193602263529
 20
576.6644532162651
 30
0.0
 10
831.9637158676938
 20
576.6660333930614
 30
0.0
  0
LINE
  5
1D2
330
1F
100
AcDbEntity
  8
0
  6
Continuous
 62
     7
370
    25
100
AcDbLine
 10
865.8260831401
 20
594.0872342645
 30
0.0
 11
865.8260831401
 21
582.6369137823
 31
0.0
  0
SPLINE
  5
1D3
330
1F
100
AcDbEntity
  8
0
  6
Continuous
 62
     7
370
    25
100
AcDbSpline
210
0.0
220
0.0
230
1.0
 70
     8
 71
     3
 72
    11
 73
     7
 74
     0
 42
0.000000001
 43
0.00000001
 40
0.318394753726017
 40
0.318394753726017
 40
0.318394753726017
 40
0.318394753726017
 40
0.405461934734739
 40
0.603641289823159
 40
0.80182064491158
 40
1.0
 40
1.0
 40
1.0
 40
1.0
 10
737.4319831084334
 20
575.5563093206088
 30
0.0
 10
740.9891847902783
 20
575.619754554709
 30
0.0
 10
752.6435637342663
 20
575.8198421423065
 30
0.0
 10
772.3969573952813
 20
576.1157944374722
 30
0.0
 10
796.6929485079842
 20
576.4060015014277
 30
0.0
 10
812.891262096786
 20
576.5502803190933
 30
0.0
 10
820.9905095644727
 20
576.6101196847793
 30
0.0
  0
LINE
  5
1D4
330
1F
100
AcDbEntity
  8
0
  6
Continuous
 62
     7
370
    25
100
AcDbLine
 10
859.8240146205
 20
595.3799696027
 30
0.0
 11
860.6526681945
 21
595.3791053354
 31
0.0
  0
SPLINE
  5
1D5
330
1F
100
AcDbEntity
  8
0
  6
Continuous
 62
     7
370
    25
100
AcDbSpline
210
0.0
220
0.0
230
1.0
 70
     8
 71
     3
 72
     9
 73
     5
 74
     0
 42
0.000000001
 43
0.00000001
 40
0.0
 40
0.0
 40
0.0
 40
0.0
 40
0.4998318896223367
 40
1.0
 40
1.0
 40
1.0
 40
1.0
 10
860.652664122373
 20
595.3791103144262
 30
0.0
 10
861.320796235629
 20
595.3760974521274
 30
0.0
 10
862.6575098930164
 20
595.3700697008748
 30
0.0
 10
863.9937963426343
 20
595.3357425982861
 30
0.0
 10
864.6621642110629
 20
595.3185732762495
 30
0.0
  0
SPLINE
  5
1D6
330
1F
100
AcDbEntity
  8
0
  6
Continuous
 62
     7
370
    25
100
AcDbSpline
210
0.0
220
0.0
230
1.0
 70
     8
 71
     3
 72
    14
 73
    10
 74
     0
 42
0.000000001
 43
0.00000001
 40
0.0
 40
0.0
 40
0.0
 40
0.0
 40
0.25
 40
0.25
 40
0.5
 40
0.5
 40
0.75
 40
0.75
 40
1.0
 40
1.0
 40
1.0
 40
1.0
 10
865.8260806605176
 20
582.5494647951488
 30
0.0
 10
865.8260806605176
 20
582.432166649807
 30
0.0
 10
865.8104897141599
 20
582.3175236876012
 30
0.0
 10
865.7489907073524
 20
582.0934008551682
 30
0.0
 10
865.7027946973976
 20
581.9849054867631
 30
0.0
 10
865.5846148191667
 20
581.785993393092
 30
0.0
 10
865.5109495261415
 20
581.6930626402878
 30
0.0
 10
865.3441959448664
 20
581.5325681801163
 30
0.0
 10
865.2498557031423
 20
581.4632288240315
 30
0.0
 10
865.1467919298361
 20
581.4072224534752
 30
0.0
  0
SPLINE
  5
1D7
330
1F
100
AcDbEntity
  8
0
  6
Continuous
 62
     7
370
    25
100
AcDbSpline
210
0.0
220
0.0
230
1.0
 70
    24
 71
     3
 72
    11
 73
     7
 74
     0
 42
0.000000001
 43
0.00000001
 40
0.0
 40
0.0
 40
0.0
 40
0.0
 40
0.0078150855191707
 40
0.0078150855191707
 40
0.0078150855191707
 40
0.0156301714414777
 40
0.0156301714414777
 40
0.0156301714414777
 40
0.0156301714414777
 10
865.8260806605176
 20
594.1191176571648
 30
0.0
 10
865.8260806605176
 20
594.1146692408023
 30
0.0
 10
865.8260806605176
 20
594.1078027694203
 30
0.0
 10
865.8260806605176
 20
594.1028390977913
 30
0.0
 10
865.8260806605176
 20
594.0978754258488
 30
0.0
 10
865.8260806605176
 20
594.0944617545615
 30
0.0
 10
865.8260806605176
 20
594.0872314826443
 30
0.0
  0
SPLINE
  5
1D8
330
1F
100
AcDbEntity
  8
0
  6
Continuous
 62
     7
370
    25
100
AcDbSpline
210
0.0
220
0.0
230
1.0
 70
     8
 71
     3
 72
    14
 73
    10
 74
     0
 42
0.000000001
 43
0.00000001
 40
0.0
 40
0.0
 40
0.0
 40
0.0
 40
0.25
 40
0.25
 40
0.5
 40
0.5
 40
0.75
 40
0.75
 40
1.0
 40
1.0
 40
1.0
 40
1.0
 10
865.8260806605176
 20
594.1191176571651
 30
0.0
 10
865.8260806605176
 20
594.2731896493505
 30
0.0
 10
865.7960464046437
 20
594.4272055160412
 30
0.0
 10
865.680268388433
 20
594.7127719796772
 30
0.0
 10
865.594566803824
 20
594.8442185501946
 30
0.0
 10
865.379976739873
 20
595.0653609338195
 30
0.0
 10
865.2511664316074
 20
595.1549761889655
 30
0.0
 10
864.9692100846496
 20
595.2792885589587
 30
0.0
 10
864.8161667572888
 20
595.3139403891754
 30
0.0
 10
864.66216421091
 20
595.3185732762538
 30
0.0
  0
LINE
  5
1D9
330
1F
100
AcDbEntity
  8
0
  6
Continuous
 62
     7
370
    25
100
AcDbLine
 10
855.4260859057
 20
571.3565410434
 30
0.0
 11
848.2219109103
 21
571.3565410434
 31
0.0
  0
LINE
  5
1DA
330
1F
100
AcDbEntity
  8
0
  6
Continuous
 62
     7
370
    25
100
AcDbLine
 10
848.2219109103
 20
571.3565410434
 30
0.0
 11
848.2219109103
 21
574.7791887581
 31
0.0
  0
LINE
  5
1DB
330
1F
100
AcDbEntity
  8
0
  6
Continuous
 62
     7
370
    25
100
AcDbLine
 10
838.6302420661
 20
574.7791887581
 30
0.0
 11
848.2219109103
 21
574.7791887581
 31
0.0
  0
LINE
  5
1DC
330
1F
100
AcDbEntity
  8
0
  6
Continuous
 62
     7
370
    25
100
AcDbLine
 10
838.6302420661
 20
574.7791887581
 30
0.0
 11
838.6302420661
 21
571.3565410434
 31
0.0
  0
LINE
  5
1DD
330
1F
100
AcDbEntity
  8
0
  6
Continuous
 62
     7
370
    25
100
AcDbLine
 10
838.6302420661
 20
571.3565410434
 30
0.0
 11
831.4260819718
 21
571.3565410434
 31
0.0
  0
LINE
  5
1DE
330
1F
100
AcDbEntity
  8
0
  6
Continuous
 62
     7
370
    25
100
AcDbLine
 10
843.4260764882
 20
570.779195553
 30
0.0
 11
832.4260839984
 21
570.779195553
 31
0.0
  0
SPLINE
  5
1DF
330
1F
100
AcDbEntity
  8
0
  6
Continuous
 62
     7
370
    25
100
AcDbSpline
210
0.0
220
0.0
230
1.0
 70
     8
 71
     3
 72
     8
 73
     4
 74
     0
 42
0.000000001
 43
0.00000001
 40
0.0
 40
0.0
 40
0.0
 40
0.0
 40
1.0
 40
1.0
 40
1.0
 40
1.0
 10
838.6302491372044
 20
571.3565446300788
 30
0.0
 10
840.2110355716227
 20
570.9917946767923
 30
0.0
 10
841.8075615791396
 20
570.779194360889
 30
0.0
 10
843.4260806605176
 20
570.779194360889
 30
0.0
  0
SPLINE
  5
1E0
330
1F
100
AcDbEntity
  8
0
  6
Continuous
 62
     7
370
    25
100
AcDbSpline
210
0.0
220
0.0
230
1.0
 70
     8
 71
     3
 72
    10
 73
     6
 74
     0
 42
0.000000001
 43
0.00000001
 40
0.0
 40
0.0
 40
0.0
 40
0.0
 40
0.5
 40
0.5
 40
1.0
 40
1.0
 40
1.0
 40
1.0
 10
843.4260806605176
 20
570.779194360889
 30
0.0
 10
844.2334555117934
 20
570.779194360889
 30
0.0
 10
845.0502916486372
 20
570.8321579934595
 30
0.0
 10
846.6517612402836
 20
571.0312083216869
 30
0.0
 10
847.4411716088692
 20
571.1763968997809
 30
0.0
 10
848.2219121838298
 20
571.3565446300786
 30
0.0
  0
LINE
  5
1E1
330
1F
100
AcDbEntity
  8
0
  6
Continuous
 62
     7
370
    25
100
AcDbLine
 10
854.4260838792
 20
570.779195553
 30
0.0
 11
843.4260764882
 21
570.779195553
 31
0.0
  0
LINE
  5
1E2
330
1F
100
AcDbEntity
  8
0
  6
Continuous
 62
     7
370
    25
100
AcDbLine
 10
843.4260764882
 20
570.5791921674
 30
0.0
 11
834.2760780618
 21
570.5791921674
 31
0.0
  0
LINE
  5
1E3
330
1F
100
AcDbEntity
  8
0
  6
Continuous
 62
     7
370
    25
100
AcDbLine
 10
852.5760749146
 20
570.5791921674
 30
0.0
 11
843.4260764882
 21
570.5791921674
 31
0.0
  0
SPLINE
  5
1E4
330
1F
100
AcDbEntity
  8
0
  6
Continuous
 62
     8
370
    18
100
AcDbSpline
210
0.0
220
0.0
230
1.0
 70
     8
 71
     3
 72
    20
 73
    16
 74
     0
 42
0.000000001
 43
0.00000001
 40
0.0
 40
0.0
 40
0.0
 40
0.0
 40
0.2500000000000002
 40
0.2500000000000002
 40
0.3750000000000001
 40
0.3750000000000001
 40
0.5000000000000001
 40
0.5000000000000001
 40
0.6250000000000001
 40
0.6250000000000001
 40
0.75
 40
0.75
 40
0.875
 40
0.875
 40
1.0
 40
1.0
 40
1.0
 40
1.0
 10
684.921202262942
 20
454.8499777690627
 30
0.0
 10
684.9218783801728
 20
454.8540346166238
 30
0.0
 10
684.9296263764653
 20
454.856641029761
 30
0.0
 10
685.0566252046922
 20
454.8596622051006
 30
0.0
 10
685.1169360813777
 20
454.8604504910724
 30
0.0
 10
685.2867264474322
 20
454.8614478579977
 30
0.0
 10
685.397431039123
 20
454.8616205909817
 30
0.0
 10
685.6685627378506
 20
454.8618335195356
 30
0.0
 10
685.8314658639596
 20
454.8619782383967
 30
0.0
 10
686.1813088669901
 20
454.8624610712574
 30
0.0
 10
686.3684617784382
 20
454.8627495789403
 30
0.0
 10
686.7483969589351
 20
454.8632012268897
 30
0.0
 10
686.9424917076302
 20
454.8633687351291
 30
0.0
 10
687.331373003112
 20
454.863554389378
 30
0.0
 10
687.5262729839062
 20
454.8635680738664
 30
0.0
 10
687.7211979982991
 20
454.8635680738664
 30
0.0
  0
LINE
  5
1E5
330
1F
100
AcDbEntity
  8
0
  6
Continuous
 62
     8
370
    18
100
AcDbLine
 10
684.9212020427
 20
454.8499794065
 30
0.0
 11
684.9212020427
 21
456.7155451833
 31
0.0
  0
SPLINE
  5
1E6
330
1F
100
AcDbEntity
  8
0
  6
Continuous
 62
     8
370
    18
100
AcDbSpline
210
0.0
220
0.0
230
1.0
 70
     8
 71
     3
 72
    20
 73
    16
 74
     0
 42
0.000000001
 43
0.00000001
 40
0.0
 40
0.0
 40
0.0
 40
0.0
 40
0.125
 40
0.125
 40
0.2500000000000001
 40
0.2500000000000001
 40
0.3750000000000001
 40
0.3750000000000001
 40
0.5000000000000001
 40
0.5000000000000001
 40
0.6250000000000001
 40
0.6250000000000001
 40
0.7500000000000002
 40
0.7500000000000002
 40
1.0
 40
1.0
 40
1.0
 40
1.0
 10
687.7211979982991
 20
456.7195346052782
 30
0.0
 10
687.5264039192132
 20
456.7173248875972
 30
0.0
 10
687.3316369672351
 20
456.7154776794869
 30
0.0
 10
686.9432037283115
 20
456.7124156024852
 30
0.0
 10
686.7487533968841
 20
456.7111718420339
 30
0.0
 10
686.3698237120141
 20
456.7092479382819
 30
0.0
 10
686.1825048350128
 20
456.7085747650165
 30
0.0
 10
685.8344801267027
 20
456.7078588726359
 30
0.0
 10
685.6708365335886
 20
456.7078083191461
 30
0.0
 10
685.3989418932597
 20
456.7077781708655
 30
0.0
 10
685.2879001089486
 20
456.7077872552412
 30
0.0
 10
685.1173822541642
 20
456.7082843687551
 30
0.0
 10
685.0569401155407
 20
456.7087801090325
 30
0.0
 10
684.9294788884569
 20
456.7109032828611
 30
0.0
 10
684.9218783710523
 20
456.7131851120201
 30
0.0
 10
684.921202262942
 20
456.7155435278317
 30
0.0
  0
LINE
  5
1E7
330
1F
100
AcDbEntity
  8
0
  6
Continuous
 62
     8
370
    18
100
AcDbLine
 10
687.7211982176
 20
456.7195349692
 30
0.0
 11
687.7211982176
 21
454.8635692655
 31
0.0
  0
ARC
  5
1E8
330
1F
100
AcDbEntity
  8
0
  6
Continuous
 62
     8
370
    18
100
AcDbCircle
 10
686.4212012641
 20
456.7155146562
 30
0.0
 40
1.499999221731014
100
AcDbArc
 50
91.2755691513
 51
179.9988339477
  0
SPLINE
  5
1E9
330
1F
100
AcDbEntity
  8
0
  6
Continuous
 62
     8
370
    18
100
AcDbSpline
210
0.0
220
0.0
230
1.0
 70
     8
 71
     3
 72
    24
 73
    20
 74
     0
 42
0.000000001
 43
0.00000001
 40
0.0
 40
0.0
 40
0.0
 40
0.0
 40
0.2500000000000479
 40
0.2500000000000479
 40
0.3750000000000717
 40
0.3750000000000717
 40
0.4375000000000834
 40
0.4375000000000834
 40
0.500000000000095
 40
0.500000000000095
 40
0.5312500000000874
 40
0.5312500000000874
 40
0.5625000000000796
 40
0.5625000000000796
 40
0.6250000000000641
 40
0.6250000000000641
 40
0.7500000000000421
 40
0.7500000000000421
 40
1.0
 40
1.0
 40
1.0
 40
1.0
 10
686.3878094439979
 20
458.2151436921741
 30
0.0
 10
686.3896267242267
 20
458.2140051016452
 30
0.0
 10
686.3907963571878
 20
458.2125508165967
 30
0.0
 10
686.420127095814
 20
458.2103880732934
 30
0.0
 10
686.4343867469105
 20
458.2096655364691
 30
0.0
 10
686.4694113522467
 20
458.2086588875814
 30
0.0
 10
686.4832833867121
 20
458.2083383455109
 30
0.0
 10
686.5180571406503
 20
458.2077819911146
 30
0.0
 10
686.537430328904
 20
458.2074888508971
 30
0.0
 10
686.5847665901783
 20
458.2074650587366
 30
0.0
 10
686.6061130618425
 20
458.2075964913785
 30
0.0
 10
686.6486534974638
 20
458.2078896041449
 30
0.0
 10
686.6707950899283
 20
458.208065303614
 30
0.0
 10
686.7386799767056
 20
458.2086351360833
 30
0.0
 10
686.7854293749622
 20
458.2090694240231
 30
0.0
 10
686.9266792183741
 20
458.2104377484211
 30
0.0
 10
687.0234242058813
 20
458.2114530156272
 30
0.0
 10
687.3143494390852
 20
458.2146176268055
 30
0.0
 10
687.5092880713281
 20
458.2169050579313
 30
0.0
 10
687.7041874043173
 20
458.2190759348921
 30
0.0
  0
LWPOLYLINE
  5
1EA
330
1F
100
AcDbEntity
  8
0
  6
Continuous
 62
     8
370
    18
100
AcDbPolyline
 90
        9
 70
   128
 43
0.0
 10
687.7211982176
 20
456.7195349692
 10
687.7179246187
 20
457.0081108569
 10
687.7147730231
 20
457.2859020292
 10
687.7118617088
 20
457.5425298273
 10
687.7092996404
 20
457.7684090792
 10
687.7071818128
 20
457.955094552
 10
687.7055883199
 20
458.0956162273
 10
687.7045769036
 20
458.1847177207
 10
687.7041876107
 20
458.2190760731
  0
SPLINE
  5
1EB
330
1F
100
AcDbEntity
  8
0
  6
Continuous
 62
     8
370
    18
100
AcDbSpline
210
0.0
220
0.0
230
1.0
 70
     8
 71
     3
 72
    20
 73
    16
 74
     0
 42
0.000000001
 43
0.00000001
 40
0.0
 40
0.0
 40
0.0
 40
0.0
 40
0.2500000000000002
 40
0.2500000000000002
 40
0.3750000000000001
 40
0.3750000000000001
 40
0.5000000000000001
 40
0.5000000000000001
 40
0.6250000000000001
 40
0.6250000000000001
 40
0.75
 40
0.75
 40
0.875
 40
0.875
 40
1.0
 40
1.0
 40
1.0
 40
1.0
 10
711.9309590580932
 20
454.8499777690627
 30
0.0
 10
711.9302829408625
 20
454.8540346166238
 30
0.0
 10
711.9225349445699
 20
454.856641029761
 30
0.0
 10
711.7955361163431
 20
454.8596622051006
 30
0.0
 10
711.7352252396574
 20
454.8604504910724
 30
0.0
 10
711.565434873603
 20
454.8614478579977
 30
0.0
 10
711.4547302819122
 20
454.8616205909817
 30
0.0
 10
711.1835985831846
 20
454.8618335195356
 30
0.0
 10
711.0206954570756
 20
454.8619782383967
 30
0.0
 10
710.6708524540451
 20
454.8624610712574
 30
0.0
 10
710.4836995425969
 20
454.8627495789403
 30
0.0
 10
710.1037643621002
 20
454.8632012268897
 30
0.0
 10
709.909669613405
 20
454.8633687351291
 30
0.0
 10
709.5207883179231
 20
454.863554389378
 30
0.0
 10
709.325888337129
 20
454.8635680738664
 30
0.0
 10
709.1309633227361
 20
454.8635680738664
 30
0.0
  0
LINE
  5
1EC
330
1F
100
AcDbEntity
  8
0
  6
Continuous
 62
     8
370
    18
100
AcDbLine
 10
709.1309631035
 20
456.7195349692
 30
0.0
 11
709.1309631035
 21
454.8635692655
 31
0.0
  0
SPLINE
  5
1ED
330
1F
100
AcDbEntity
  8
0
  6
Continuous
 62
     8
370
    18
100
AcDbSpline
210
0.0
220
0.0
230
1.0
 70
     8
 71
     3
 72
    20
 73
    16
 74
     0
 42
0.000000001
 43
0.00000001
 40
0.0
 40
0.0
 40
0.0
 40
0.0
 40
0.2499999999999998
 40
0.2499999999999998
 40
0.3749999999999998
 40
0.3749999999999998
 40
0.4999999999999999
 40
0.4999999999999999
 40
0.6249999999999999
 40
0.6249999999999999
 40
0.7499999999999999
 40
0.7499999999999999
 40
0.875
 40
0.875
 40
1.0
 40
1.0
 40
1.0
 40
1.0
 10
711.9309590580932
 20
456.7155435278317
 30
0.0
 10
711.9302819490789
 20
456.7131816206444
 30
0.0
 10
711.9225613169208
 20
456.7108970515684
 30
0.0
 10
711.7948805431942
 20
456.7087765513452
 30
0.0
 10
711.7343888096086
 20
456.7082821717144
 30
0.0
 10
711.5637508126047
 20
456.707786832192
 30
0.0
 10
711.4526703523196
 20
456.7077781028089
 30
0.0
 10
711.1807252666276
 20
456.7078085151072
 30
0.0
 10
711.0170965224619
 20
456.7078595149206
 30
0.0
 10
710.6691387151134
 20
456.7085763922523
 30
0.0
 10
710.4818769530557
 20
456.7092499060332
 30
0.0
 10
710.103068403854
 20
456.7111739377263
 30
0.0
 10
709.9086845507013
 20
456.7124175461308
 30
0.0
 10
709.5203872797122
 20
456.7154789690682
 30
0.0
 10
709.3256888459707
 20
456.7173256652853
 30
0.0
 10
709.1309633227361
 20
456.719534605278
 30
0.0
  0
LINE
  5
1EE
330
1F
100
AcDbEntity
  8
0
  6
Continuous
 62
     8
370
    18
100
AcDbLine
 10
711.9309592783
 20
454.8499794065
 30
0.0
 11
711.9309592783
 21
456.7155451833
 31
0.0
  0
SPLINE
  5
1EF
330
1F
100
AcDbEntity
  8
0
  6
Continuous
 62
     8
370
    18
100
AcDbSpline
210
0.0
220
0.0
230
1.0
 70
     8
 71
     3
 72
    24
 73
    20
 74
     0
 42
0.000000001
 43
0.00000001
 40
0.0
 40
0.0
 40
0.0
 40
0.0
 40
0.250000000000044
 40
0.250000000000044
 40
0.3750000000000648
 40
0.3750000000000648
 40
0.4375000000000708
 40
0.4375000000000708
 40
0.4687500000000728
 40
0.4687500000000728
 40
0.5000000000000747
 40
0.5000000000000747
 40
0.5625000000000786
 40
0.5625000000000786
 40
0.6250000000000825
 40
0.6250000000000825
 40
0.750000000000055
 40
0.750000000000055
 40
1.0
 40
1.0
 40
1.0
 40
1.0
 10
709.1479739167179
 20
458.2190759348921
 30
0.0
 10
709.342873249707
 20
458.2169050579315
 30
0.0
 10
709.53781188195
 20
458.2146176268055
 30
0.0
 10
709.8287371151539
 20
458.2114530156272
 30
0.0
 10
709.925482102661
 20
458.2104377484212
 30
0.0
 10
710.066731946073
 20
458.2090694240231
 30
0.0
 10
710.1134813443297
 20
458.2086351360833
 30
0.0
 10
710.181366231107
 20
458.208065303614
 30
0.0
 10
710.2035078235715
 20
458.207889604145
 30
0.0
 10
710.2460482591928
 20
458.2075964913785
 30
0.0
 10
710.267394730857
 20
458.2074650587366
 30
0.0
 10
710.3147309921312
 20
458.2074888508971
 30
0.0
 10
710.3341041803849
 20
458.2077819911146
 30
0.0
 10
710.368877934323
 20
458.2083383455109
 30
0.0
 10
710.3827499687886
 20
458.2086588875814
 30
0.0
 10
710.4177745741248
 20
458.2096655364692
 30
0.0
 10
710.4320342252213
 20
458.2103880732934
 30
0.0
 10
710.4613649638474
 20
458.2125508165968
 30
0.0
 10
710.4625345968084
 20
458.2140051016451
 30
0.0
 10
710.4643518770373
 20
458.215143692174
 30
0.0
  0
ARC
  5
1F0
330
1F
100
AcDbEntity
  8
0
  6
Continuous
 62
     8
370
    18
100
AcDbCircle
 10
710.4309600569
 20
456.7155146562
 30
0.0
 40
1.499999221731103
100
AcDbArc
 50
0.0011660523
 51
88.7244308487
  0
LWPOLYLINE
  5
1F1
330
1F
100
AcDbEntity
  8
0
  6
Continuous
 62
     8
370
    18
100
AcDbPolyline
 90
        9
 70
   128
 43
0.0
 10
709.1309631035
 20
456.7195349692
 10
709.1342367023
 20
457.0081108569
 10
709.1373882979
 20
457.2859020292
 10
709.1402996123
 20
457.5425298273
 10
709.1428616807
 20
457.7684090792
 10
709.1449795082
 20
457.955094552
 10
709.1465730011
 20
458.0956162273
 10
709.1475844175
 20
458.1847177207
 10
709.1479737103
 20
458.2190760731
  0
LINE
  5
1F2
330
1F
100
AcDbEntity
  8
0
  6
Continuous
 62
     8
370
    18
100
AcDbLine
 10
687.7211982176
 20
454.8635692655
 30
0.0
 11
687.7211982176
 21
453.3636519074
 31
0.0
  0
SPLINE
  5
1F3
330
1F
100
AcDbEntity
  8
0
  6
Continuous
 62
     8
370
    18
100
AcDbSpline
210
0.0
220
0.0
230
1.0
 70
     8
 71
     3
 72
    24
 73
    20
 74
     0
 42
0.000000001
 43
0.00000001
 40
0.0
 40
0.0
 40
0.0
 40
0.0
 40
0.2499999999999138
 40
0.2499999999999138
 40
0.3749999999998708
 40
0.3749999999998708
 40
0.4374999999998492
 40
0.4374999999998492
 40
0.4687499999998374
 40
0.4687499999998374
 40
0.4999999999998256
 40
0.4999999999998256
 40
0.5624999999998298
 40
0.5624999999998298
 40
0.624999999999834
 40
0.624999999999834
 40
0.7499999999998772
 40
0.7499999999998772
 40
1.0
 40
1.0
 40
1.0
 40
1.0
 10
687.7211979982991
 20
453.3636503198182
 30
0.0
 10
687.527314722692
 20
453.3636503198182
 30
0.0
 10
687.3334020641728
 20
453.363659361524
 30
0.0
 10
687.0435280474229
 20
453.3633667517282
 30
0.0
 10
686.9474849227281
 20
453.3632192611947
 30
0.0
 10
686.8062730962432
 20
453.362848513597
 30
0.0
 10
686.7596080353294
 20
453.3627000639042
 30
0.0
 10
686.6920384216276
 20
453.3624141824516
 30
0.0
 10
686.6698090862659
 20
453.3623080188507
 30
0.0
 10
686.6274182753195
 20
453.3620606609478
 30
0.0
 10
686.6063647905497
 20
453.3619186583547
 30
0.0
 10
686.5601573494852
 20
453.3613448681315
 30
0.0
 10
686.5412742114225
 20
453.3608676858293
 30
0.0
 10
686.5076215586397
 20
453.3599334062675
 30
0.0
 10
686.4942792674775
 20
453.359450433408
 30
0.0
 10
686.4609134049304
 20
453.3579886444986
 30
0.0
 10
686.4476607319981
 20
453.3570054797363
 30
0.0
 10
686.4211351749295
 20
453.3540432716357
 30
0.0
 10
686.4215317432072
 20
453.352050675132
 30
0.0
 10
686.4211999783118
 20
453.3500600150144
 30
0.0
  0
ARC
  5
1F4
330
1F
100
AcDbEntity
  8
0
  6
Continuous
 62
     8
370
    18
100
AcDbCircle
 10
686.4211950916
 20
454.8500513737
 30
0.0
 40
1.499993050598838
100
AcDbArc
 50
180.002748955
 51
270.0002037582
  0
SPLINE
  5
1F5
330
1F
100
AcDbEntity
  8
0
  6
Continuous
 62
     8
370
    18
100
AcDbSpline
210
0.0
220
0.0
230
1.0
 70
     8
 71
     3
 72
    24
 73
    20
 74
     0
 42
0.000000001
 43
0.00000001
 40
0.0
 40
0.0
 40
0.0
 40
0.0
 40
0.2499999999999884
 40
0.2499999999999884
 40
0.3749999999999826
 40
0.3749999999999826
 40
0.4374999999999754
 40
0.4374999999999754
 40
0.4687499999999795
 40
0.4687499999999795
 40
0.4999999999999836
 40
0.4999999999999836
 40
0.5624999999999903
 40
0.5624999999999903
 40
0.6249999999999971
 40
0.6249999999999971
 40
0.7500000000000101
 40
0.7500000000000101
 40
1.0
 40
1.0
 40
1.0
 40
1.0
 10
709.1309633227361
 20
453.3636503198182
 30
0.0
 10
709.3248465983432
 20
453.3636503198182
 30
0.0
 10
709.5187592568623
 20
453.363659361524
 30
0.0
 10
709.8086332736124
 20
453.3633667517282
 30
0.0
 10
709.9046763983074
 20
453.3632192611947
 30
0.0
 10
710.0458882247924
 20
453.362848513597
 30
0.0
 10
710.0925532857061
 20
453.3627000639042
 30
0.0
 10
710.160122899408
 20
453.3624141824516
 30
0.0
 10
710.1823522347696
 20
453.3623080188507
 30
0.0
 10
710.2247430457159
 20
453.3620606609478
 30
0.0
 10
710.2457965304857
 20
453.3619186583547
 30
0.0
 10
710.2920039715501
 20
453.3613448681315
 30
0.0
 10
710.3108871096126
 20
453.3608676858293
 30
0.0
 10
710.3445397623957
 20
453.3599334062675
 30
0.0
 10
710.3578820535577
 20
453.359450433408
 30
0.0
 10
710.3912479161048
 20
453.3579886444986
 30
0.0
 10
710.4045005890371
 20
453.3570054797363
 30
0.0
 10
710.4310261461056
 20
453.3540432716358
 30
0.0
 10
710.4306295778281
 20
453.352050675132
 30
0.0
 10
710.4309613427233
 20
453.3500600150144
 30
0.0
  0
LINE
  5
1F6
330
1F
100
AcDbEntity
  8
0
  6
Continuous
 62
     8
370
    18
100
AcDbLine
 10
709.1309631035
 20
454.8635692655
 30
0.0
 11
709.1309631035
 21
453.3636519074
 31
0.0
  0
ARC
  5
1F7
330
1F
100
AcDbEntity
  8
0
  6
Continuous
 62
     8
370
    18
100
AcDbCircle
 10
710.4309662295
 20
454.8500513737
 30
0.0
 40
1.499993050598838
100
AcDbArc
 50
269.9997962418
 51
359.997251045
  0
SPLINE
  5
1F8
330
1F
100
AcDbEntity
  8
0
  6
Continuous
 62
     8
370
    18
100
AcDbSpline
210
0.0
220
0.0
230
1.0
 70
     8
 71
     3
 72
    10
 73
     6
 74
     0
 42
0.000000001
 43
0.00000001
 40
0.0
 40
0.0
 40
0.0
 40
0.0
 40
0.5
 40
0.5
 40
1.0
 40
1.0
 40
1.0
 40
1.0
 10
698.4260806605176
 20
456.791311206375
 30
0.0
 10
696.6419035419723
 20
456.7842188965766
 30
0.0
 10
694.8577417666398
 20
456.7742259092958
 30
0.0
 10
691.2894342170472
 20
456.7513017450713
 30
0.0
 10
689.5052808309046
 20
456.7397729995765
 30
0.0
 10
687.7211979982991
 20
456.7195346052781
 30
0.0
  0
SPLINE
  5
1F9
330
1F
100
AcDbEntity
  8
0
  6
Continuous
 62
     8
370
    18
100
AcDbSpline
210
0.0
220
0.0
230
1.0
 70
     8
 71
     3
 72
    10
 73
     6
 74
     0
 42
0.000000001
 43
0.00000001
 40
0.0
 40
0.0
 40
0.0
 40
0.0
 40
0.5
 40
0.5
 40
1.0
 40
1.0
 40
1.0
 40
1.0
 10
687.7041874043173
 20
458.2190759348921
 30
0.0
 10
689.4910613758972
 20
458.2389789457289
 30
0.0
 10
691.2780292426645
 20
458.2499583254029
 30
0.0
 10
694.8520261643482
 20
458.272031484209
 30
0.0
 10
696.639040280157
 20
458.2816313875935
 30
0.0
 10
698.4260843546064
 20
458.2886332735802
 30
0.0
  0
SPLINE
  5
1FA
330
1F
100
AcDbEntity
  8
0
  6
Continuous
 62
     8
370
    18
100
AcDbSpline
210
0.0
220
0.0
230
1.0
 70
     8
 71
     3
 72
    20
 73
    16
 74
     0
 42
0.000000001
 43
0.00000001
 40
0.0
 40
0.0
 40
0.0
 40
0.0
 40
0.2499999999999752
 40
0.2499999999999752
 40
0.3749999999999793
 40
0.3749999999999793
 40
0.4999999999999835
 40
0.4999999999999835
 40
0.6249999999999876
 40
0.6249999999999876
 40
0.7499999999999917
 40
0.7499999999999917
 40
0.8749999999999959
 40
0.8749999999999959
 40
1.0
 40
1.0
 40
1.0
 40
1.0
 10
698.4260806605004
 20
458.2886332589588
 30
0.0
 10
698.4260806605021
 20
458.2772241779975
 30
0.0
 10
698.426080660527
 20
458.2302034724113
 30
0.0
 10
698.4260806605265
 20
458.1097492234109
 30
0.0
 10
698.4260806605259
 20
458.0620294437415
 30
0.0
 10
698.4260806605247
 20
457.9517428023292
 30
0.0
 10
698.426080660491
 20
457.8884049343228
 30
0.0
 10
698.42608066049
 20
457.7510962529043
 30
0.0
 10
698.4260806604998
 20
457.6769636109309
 30
0.0
 10
698.4260806604981
 20
457.5177037805996
 30
0.0
 10
698.4260806605057
 20
457.4322995050721
 30
0.0
 10
698.4260806604987
 20
457.2574707702881
 30
0.0
 10
698.4260806605797
 20
457.1672113650673
 30
0.0
 10
698.42608066064
 20
456.9808510184941
 30
0.0
 10
698.4260806606809
 20
456.8852963330018
 30
0.0
 10
698.426080660535
 20
456.7913112063765
 30
0.0
  0
SPLINE
  5
1FB
330
1F
100
AcDbEntity
  8
0
  6
Continuous
 62
     8
370
    18
100
AcDbSpline
210
0.0
220
0.0
230
1.0
 70
     8
 71
     3
 72
    10
 73
     6
 74
     0
 42
0.000000001
 43
0.00000001
 40
0.0
 40
0.0
 40
0.0
 40
0.0
 40
0.5
 40
0.5
 40
1.0
 40
1.0
 40
1.0
 40
1.0
 10
709.1309633227361
 20
456.7195346052782
 30
0.0
 10
707.3468804658029
 20
456.7397729998526
 30
0.0
 10
705.5627270546381
 20
456.7513017454293
 30
0.0
 10
701.9944194577923
 20
456.7742259098755
 30
0.0
 10
700.2102578091466
 20
456.784218896457
 30
0.0
 10
698.4260806605176
 20
456.7913112063749
 30
0.0
  0
SPLINE
  5
1FC
330
1F
100
AcDbEntity
  8
0
  6
Continuous
 62
     8
370
    18
100
AcDbSpline
210
0.0
220
0.0
230
1.0
 70
     8
 71
     3
 72
    10
 73
     6
 74
     0
 42
0.000000001
 43
0.00000001
 40
0.0
 40
0.0
 40
0.0
 40
0.0
 40
0.5
 40
0.5
 40
1.0
 40
1.0
 40
1.0
 40
1.0
 10
698.4260769664288
 20
458.2886332735804
 30
0.0
 10
700.2131191991974
 20
458.2816313948097
 30
0.0
 10
702.0001372786003
 20
458.2720314719547
 30
0.0
 10
705.5741331771964
 20
458.2499583177659
 30
0.0
 10
707.3611004820107
 20
458.2389789397491
 30
0.0
 10
709.1479739167179
 20
458.2190759348921
 30
0.0
  0
LINE
  5
1FD
330
1F
100
AcDbEntity
  8
0
  6
Continuous
 62
     8
370
    18
100
AcDbLine
 10
698.4260806605
 20
453.3636519074
 30
0.0
 11
687.7211982176
 21
453.3636519074
 31
0.0
  0
LINE
  5
1FE
330
1F
100
AcDbEntity
  8
0
  6
Continuous
 62
     8
370
    18
100
AcDbLine
 10
687.7211982176
 20
454.8635692655
 30
0.0
 11
698.4260806605
 21
454.8635692655
 31
0.0
  0
LINE
  5
1FF
330
1F
100
AcDbEntity
  8
0
  6
Continuous
 62
     8
370
    18
100
AcDbLine
 10
698.4260806605
 20
454.8635692655
 30
0.0
 11
698.4260806605
 21
453.3636519074
 31
0.0
  0
LINE
  5
200
330
1F
100
AcDbEntity
  8
0
  6
Continuous
 62
     8
370
    18
100
AcDbLine
 10
698.4260806605
 20
456.7913101374
 30
0.0
 11
698.4260806605
 21
454.8635692655
 31
0.0
  0
LINE
  5
201
330
1F
100
AcDbEntity
  8
0
  6
Continuous
 62
     8
370
    18
100
AcDbLine
 10
709.1309631035
 20
454.8635692655
 30
0.0
 11
698.4260806605
 21
454.8635692655
 31
0.0
  0
LINE
  5
202
330
1F
100
AcDbEntity
  8
0
  6
Continuous
 62
     8
370
    18
100
AcDbLine
 10
698.4260806605
 20
453.3636519074
 30
0.0
 11
709.1309631035
 21
453.3636519074
 31
0.0
  0
LINE
  5
203
330
1F
100
AcDbEntity
  8
0
  6
Continuous
 62
     8
370
    18
100
AcDbLine
 10
698.426085559
 20
458.3713286876
 30
0.0
 11
698.4260769664
 21
458.2886346935
 31
0.0
  0
SPLINE
  5
204
330
1F
100
AcDbEntity
  8
0
  6
Continuous
 62
     8
370
    18
100
AcDbSpline
210
0.0
220
0.0
230
1.0
 70
     8
 71
     3
 72
     8
 73
     4
 74
     0
 42
0.000000001
 43
0.00000001
 40
0.0
 40
0.0
 40
0.0
 40
0.0
 40
0.000550661969779
 40
0.000550661969779
 40
0.000550661969779
 40
0.000550661969779
 10
686.382816263632
 20
458.2175287567445
 30
0.0
 10
686.3844137998599
 20
458.2170267107722
 30
0.0
 10
686.3860761577421
 20
458.2162296574995
 30
0.0
 10
686.3878094439979
 20
458.2151436921741
 30
0.0
  0
SPLINE
  5
205
330
1F
100
AcDbEntity
  8
0
  6
Continuous
 62
     8
370
    18
100
AcDbSpline
210
0.0
220
0.0
230
1.0
 70
     8
 71
     3
 72
    13
 73
     9
 74
     0
 42
0.000000001
 43
0.00000001
 40
0.0
 40
0.0
 40
0.0
 40
0.0
 40
0.0061272750664753
 40
0.1664656185816663
 40
0.3348350760899828
 40
0.4942267049490963
 40
0.7627682023056489
 40
0.9999999999999999
 40
0.9999999999999999
 40
0.9999999999999999
 40
0.9999999999999999
 10
696.7334337789522
 20
458.3775275706413
 30
0.0
 10
696.7120123873307
 20
458.3774854342461
 30
0.0
 10
696.1300366854965
 20
458.3763406739694
 30
0.0
 10
694.9603036424879
 20
458.3681351755774
 30
0.0
 10
693.2572135136677
 20
458.3523939676376
 30
0.0
 10
691.1846846108417
 20
458.3240576079421
 30
0.0
 10
688.8812869601072
 20
458.2810505732916
 30
0.0
 10
687.1807009961028
 20
458.2377149777399
 30
0.0
 10
686.3830450713591
 20
458.2173885165813
 30
0.0
  0
SPLINE
  5
206
330
1F
100
AcDbEntity
  8
0
  6
Continuous
 62
     8
370
    18
100
AcDbSpline
210
0.0
220
0.0
230
1.0
 70
     8
 71
     3
 72
    13
 73
     9
 74
     0
 42
0.000000001
 43
0.00000001
 40
0.0
 40
0.0
 40
0.0
 40
0.0
 40
0.0061272750664753
 40
0.1664656185816663
 40
0.3348350760899828
 40
0.4942267049490963
 40
0.7627682023056489
 40
0.9999999999999999
 40
0.9999999999999999
 40
0.9999999999999999
 40
0.9999999999999999
 10
700.1187275420831
 20
458.3775275706413
 30
0.0
 10
700.1401489337045
 20
458.3774854342461
 30
0.0
 10
700.7221246355386
 20
458.3763406739694
 30
0.0
 10
701.8918576785472
 20
458.3681351755774
 30
0.0
 10
703.5949478073676
 20
458.3523939676376
 30
0.0
 10
705.6674767101935
 20
458.3240576079421
 30
0.0
 10
707.970874360928
 20
458.2810505732916
 30
0.0
 10
709.6714603249324
 20
458.2377149777399
 30
0.0
 10
710.4691162496762
 20
458.2173885165813
 30
0.0
  0
SPLINE
  5
207
330
1F
100
AcDbEntity
  8
0
  6
Continuous
 62
     8
370
    18
100
AcDbSpline
210
0.0
220
0.0
230
1.0
 70
     8
 71
     3
 72
     8
 73
     4
 74
     0
 42
0.000000001
 43
0.00000001
 40
0.0
 40
0.0
 40
0.0
 40
0.0
 40
0.000550661969779
 40
0.000550661969779
 40
0.000550661969779
 40
0.000550661969779
 10
710.4643518770372
 20
458.215143692174
 30
0.0
 10
710.4660851632931
 20
458.2162296574995
 30
0.0
 10
710.4677475211753
 20
458.2170267107724
 30
0.0
 10
710.4693450574031
 20
458.2175287567446
 30
0.0
  0
SPLINE
  5
208
330
1F
100
AcDbEntity
  8
0
  6
Continuous
 62
     8
370
    18
100
AcDbSpline
210
0.0
220
0.0
230
1.0
 70
     8
 71
     3
 72
    12
 73
     8
 74
     0
 42
0.000000001
 43
0.00000001
 40
0.265518574799578
 40
0.265518574799578
 40
0.265518574799578
 40
0.265518574799578
 40
0.5
 40
0.5
 40
0.75
 40
0.90625
 40
1.0
 40
1.0
 40
1.0
 40
1.0
 10
694.9970261979836
 20
452.9855850667854
 30
0.0
 10
694.0112024324478
 20
452.9830348333962
 30
0.0
 10
693.0454644463258
 20
452.9795652367845
 30
0.0
 10
691.087515555211
 20
452.9712511661172
 30
0.0
 10
689.4972412012403
 20
452.9632831663596
 30
0.0
 10
687.6174956882601
 20
452.9519770598442
 30
0.0
 10
686.696566854459
 20
452.9459575839477
 30
0.0
 10
686.3534685097541
 20
452.9436567605032
 30
0.0
  0
LINE
  5
209
330
1F
100
AcDbEntity
  8
0
  6
Continuous
 62
     8
370
    18
100
AcDbLine
 10
686.4212004259
 20
453.3500583231
 30
0.0
 11
686.353468129
 21
452.9436552285
 31
0.0
  0
LINE
  5
20A
330
1F
100
AcDbEntity
  8
0
  6
Continuous
 62
     8
370
    18
100
AcDbLine
 10
698.4260806605
 20
453.3636519074
 30
0.0
 11
698.4260806605
 21
453.0101814627
 31
0.0
  0
LINE
  5
20B
330
1F
100
AcDbEntity
  8
0
  6
Continuous
 62
     8
370
    18
100
AcDbLine
 10
694.997682029
 20
453.0101814627
 30
0.0
 11
698.4260806605
 21
453.0101814627
 31
0.0
  0
LINE
  5
20C
330
1F
100
AcDbEntity
  8
0
  6
Continuous
 62
     8
370
    18
100
AcDbLine
 10
694.997682029
 20
452.9855274915
 30
0.0
 11
694.997682029
 21
453.0101814627
 31
0.0
  0
LINE
  5
20D
330
1F
100
AcDbEntity
  8
0
  6
Continuous
 62
     8
370
    18
100
AcDbLine
 10
710.4309608951
 20
453.3500583231
 30
0.0
 11
710.498693192
 21
452.9436552285
 31
0.0
  0
SPLINE
  5
20E
330
1F
100
AcDbEntity
  8
0
  6
Continuous
 62
     8
370
    18
100
AcDbSpline
210
0.0
220
0.0
230
1.0
 70
     8
 71
     3
 72
    26
 73
    22
 74
     0
 42
0.000000001
 43
0.00000001
 40
0.0
 40
0.0
 40
0.0
 40
0.0
 40
0.0445902985324685
 40
0.0899666281725464
 40
0.1361521141619333
 40
0.1831686877996102
 40
0.2310371380905751
 40
0.2797771640032747
 40
0.3294074266941245
 40
0.3799456011727833
 40
0.4314084269850954
 40
0.4838117575817447
 40
0.5371706081197335
 40
0.5914992015115133
 40
0.6468110125938117
 40
0.7031188103358519
 40
0.7604346980459245
 40
0.8187701515669973
 40
0.8781360554774482
 40
0.9385427373328614
 40
1.0
 40
1.0
 40
1.0
 40
1.0
 10
701.8538270681735
 20
452.9855295320602
 30
0.0
 10
701.991657862298
 20
452.9851634561947
 30
0.0
 10
702.2697491111533
 20
452.9844248513333
 30
0.0
 10
702.6873197931993
 20
452.9831779240342
 30
0.0
 10
703.1097343565003
 20
452.9818181837016
 30
0.0
 10
703.5367620570139
 20
452.9803358200576
 30
0.0
 10
703.9684669633722
 20
452.9787335378176
 30
0.0
 10
704.4048320191896
 20
452.9770105971171
 30
0.0
 10
704.8458624860093
 20
452.9751672053458
 30
0.0
 10
705.2915574671456
 20
452.9732033084557
 30
0.0
 10
705.7419177392749
 20
452.9711189237148
 30
0.0
 10
706.196943603796
 20
452.9689140483462
 30
0.0
 10
706.6566354356487
 20
452.9665886840868
 30
0.0
 10
707.1209936865114
 20
452.9641428330329
 30
0.0
 10
707.590018286665
 20
452.9615764890893
 30
0.0
 10
708.063711096964
 20
452.9588896777641
 30
0.0
 10
708.54206646607
 20
452.956082301942
 30
0.0
 10
709.0251074357184
 20
452.9531547336715
 30
0.0
 10
709.5127470006803
 20
452.9501055464258
 30
0.0
 10
710.0053196704429
 20
452.9469402036985
 30
0.0
 10
710.33329262014
 20
452.9447575138421
 30
0.0
 10
710.4986928112811
 20
452.9436567605032
 30
0.0
  0
LINE
  5
20F
330
1F
100
AcDbEntity
  8
0
  6
Continuous
 62
     8
370
    18
100
AcDbLine
 10
701.854479292
 20
453.0101814627
 30
0.0
 11
701.854479292
 21
452.9855274915
 31
0.0
  0
LINE
  5
210
330
1F
100
AcDbEntity
  8
0
  6
Continuous
 62
     8
370
    18
100
AcDbLine
 10
698.4260806605
 20
453.0101814627
 30
0.0
 11
701.854479292
 21
453.0101814627
 31
0.0
  0
SPLINE
  5
211
330
1F
100
AcDbEntity
  8
0
  6
Continuous
 62
     8
370
    18
100
AcDbSpline
210
0.0
220
0.0
230
1.0
 70
     8
 71
     3
 72
     8
 73
     4
 74
     0
 42
0.000000001
 43
0.00000001
 40
0.0
 40
0.0
 40
0.0
 40
0.0
 40
1.0
 40
1.0
 40
1.0
 40
1.0
 10
684.851749881878
 20
454.4332486725426
 30
0.0
 10
684.8517501583719
 20
454.4181212648614
 30
0.0
 10
684.851979315535
 20
454.4029938573916
 30
0.0
 10
684.8524372484901
 20
454.3878733734069
 30
0.0
  0
LINE
  5
212
330
1F
100
AcDbEntity
  8
0
  6
Continuous
 62
     8
370
    18
100
AcDbLine
 10
684.851749593
 20
454.4332498073
 30
0.0
 11
684.9212020427
 21
454.8499794065
 31
0.0
  0
SPLINE
  5
213
330
1F
100
AcDbEntity
  8
0
  6
Continuous
 62
     8
370
    18
100
AcDbSpline
210
0.0
220
0.0
230
1.0
 70
     8
 71
     3
 72
    13
 73
     9
 74
     0
 42
0.000000001
 43
0.00000001
 40
0.0
 40
0.0
 40
0.0
 40
0.0
 40
0.0749112882780259
 40
0.3816316019548686
 40
0.5434307428676106
 40
0.6906763444873864
 40
0.8484522171204434
 40
1.0
 40
1.0
 40
1.0
 40
1.0
 10
685.9542017593936
 20
452.9980258404377
 30
0.0
 10
685.9122270795331
 20
453.0094022805322
 30
0.0
 10
685.6983892897293
 20
453.0673589537869
 30
0.0
 10
685.4137133575465
 20
453.2409564392505
 30
0.0
 10
685.1493535969306
 20
453.5222176352806
 30
0.0
 10
684.9908546949351
 20
453.7814708943453
 30
0.0
 10
684.8814621146494
 20
454.0713638328244
 30
0.0
 10
684.8619812313871
 20
454.2837950433305
 30
0.0
 10
684.8524369090752
 20
454.387872046149
 30
0.0
  0
LINE
  5
214
330
1F
100
AcDbEntity
  8
0
  6
Continuous
 62
     8
370
    18
100
AcDbLine
 10
712.000411728
 20
454.4332498073
 30
0.0
 11
711.9309592783
 21
454.8499794065
 31
0.0
  0
LINE
  5
215
330
1F
100
AcDbEntity
  8
0
  6
Continuous
 62
     8
370
    18
100
AcDbLine
 10
712.000411728
 20
454.4332498073
 30
0.0
 11
711.999724412
 21
454.3878720461
 31
0.0
  0
SPLINE
  5
216
330
1F
100
AcDbEntity
  8
0
  6
Continuous
 62
     8
370
    18
100
AcDbSpline
210
0.0
220
0.0
230
1.0
 70
     8
 71
     3
 72
    13
 73
     9
 74
     0
 42
0.000000001
 43
0.00000001
 40
0.0
 40
0.0
 40
0.0
 40
0.0
 40
0.0749112882780259
 40
0.3816316019548686
 40
0.5434307428676106
 40
0.6906763444873864
 40
0.8484522171204434
 40
1.0
 40
1.0
 40
1.0
 40
1.0
 10
710.8979595616416
 20
452.9980258404377
 30
0.0
 10
710.9399342415021
 20
453.0094022805322
 30
0.0
 10
711.1537720313058
 20
453.0673589537869
 30
0.0
 10
711.4384479634887
 20
453.2409564392505
 30
0.0
 10
711.7028077241044
 20
453.5222176352806
 30
0.0
 10
711.8613066261
 20
453.7814708943453
 30
0.0
 10
711.9706992063858
 20
454.0713638328244
 30
0.0
 10
711.9901800896481
 20
454.2837950433305
 30
0.0
 10
711.9997244119601
 20
454.387872046149
 30
0.0
  0
SPLINE
  5
217
330
1F
100
AcDbEntity
  8
0
  6
Continuous
 62
     8
370
    18
100
AcDbSpline
210
0.0
220
0.0
230
1.0
 70
     8
 71
     3
 72
     8
 73
     4
 74
     0
 42
0.000000001
 43
0.00000001
 40
0.0
 40
0.0
 40
0.0
 40
0.0
 40
0.0005486600506291
 40
0.0005486600506291
 40
0.0005486600506291
 40
0.0005486600506291
 10
684.921202262942
 20
456.7155435278317
 30
0.0
 10
684.9208830715407
 20
456.7166569385953
 30
0.0
 10
684.9205638766532
 20
456.7174814530321
 30
0.0
 10
684.920244680672
 20
456.7180104560392
 30
0.0
  0
SPLINE
  5
218
330
1F
100
AcDbEntity
  8
0
  6
Continuous
 62
     8
370
    18
100
AcDbSpline
210
0.0
220
0.0
230
1.0
 70
     8
 71
     3
 72
    14
 73
    10
 74
     0
 42
0.000000001
 43
0.00000001
 40
0.0
 40
0.0
 40
0.0
 40
0.0
 40
0.25
 40
0.25
 40
0.5
 40
0.5
 40
0.75
 40
0.75
 40
1.0
 40
1.0
 40
1.0
 40
1.0
 10
684.9202446799499
 20
456.7178674161154
 30
0.0
 10
684.9202462542162
 20
456.9111324010169
 30
0.0
 10
684.9580580821732
 20
457.1043259918243
 30
0.0
 10
685.1037766515111
 20
457.4623382315669
 30
0.0
 10
685.2116295629379
 20
457.6270246270596
 30
0.0
 10
685.4815616611198
 20
457.9036916863033
 30
0.0
 10
685.6435411321523
 20
458.0155701463669
 30
0.0
 10
685.9978562088355
 20
458.1700676796351
 30
0.0
 10
686.1900609268142
 20
458.212629679845
 30
0.0
 10
686.3832690015629
 20
458.2173950357978
 30
0.0
  0
SPLINE
  5
219
330
1F
100
AcDbEntity
  8
0
  6
Continuous
 62
     8
370
    18
100
AcDbSpline
210
0.0
220
0.0
230
1.0
 70
     8
 71
     3
 72
    14
 73
    10
 74
     0
 42
0.000000001
 43
0.00000001
 40
0.0
 40
0.0
 40
0.0
 40
0.0
 40
0.25
 40
0.25
 40
0.5
 40
0.5
 40
0.75
 40
0.75
 40
1.0
 40
1.0
 40
1.0
 40
1.0
 10
710.4688923194723
 20
458.2173950357978
 30
0.0
 10
710.6621003942209
 20
458.212629679845
 30
0.0
 10
710.8543051121998
 20
458.1700676796351
 30
0.0
 10
711.2086201888828
 20
458.0155701463669
 30
0.0
 10
711.3705996599153
 20
457.9036916863033
 30
0.0
 10
711.6405317580973
 20
457.6270246270596
 30
0.0
 10
711.7483846695241
 20
457.4623382315669
 30
0.0
 10
711.8941032388619
 20
457.1043259918243
 30
0.0
 10
711.9319150668189
 20
456.9111324010169
 30
0.0
 10
711.9319166410853
 20
456.7178674161154
 30
0.0
  0
SPLINE
  5
21A
330
1F
100
AcDbEntity
  8
0
  6
Continuous
 62
     8
370
    18
100
AcDbSpline
210
0.0
220
0.0
230
1.0
 70
     8
 71
     3
 72
     8
 73
     4
 74
     0
 42
0.000000001
 43
0.00000001
 40
0.0
 40
0.0
 40
0.0
 40
0.0
 40
0.0005486600506291
 40
0.0005486600506291
 40
0.0005486600506291
 40
0.0005486600506291
 10
711.9319166403632
 20
456.7180104560393
 30
0.0
 10
711.931597444382
 20
456.7174814530322
 30
0.0
 10
711.9312782494944
 20
456.7166569385952
 30
0.0
 10
711.9309590580932
 20
456.7155435278317
 30
0.0
  0
LINE
  5
21B
330
1F
100
AcDbEntity
  8
0
  6
Continuous
 62
     8
370
    18
100
AcDbLine
 10
684.851749593
 20
456.7325772106
 30
0.0
 11
684.851749593
 21
454.4332498073
 31
0.0
  0
SPLINE
  5
21C
330
1F
100
AcDbEntity
  8
0
  6
Continuous
 62
     8
370
    18
100
AcDbSpline
210
0.0
220
0.0
230
1.0
 70
     8
 71
     3
 72
    16
 73
    12
 74
     0
 42
0.000000001
 43
0.00000001
 40
0.0
 40
0.0
 40
0.0
 40
0.0
 40
0.0625000000000001
 40
0.0625000000000001
 40
0.1250000000000003
 40
0.1250000000000003
 40
0.2500000000000006
 40
0.2500000000000006
 40
0.5000000000000011
 40
0.5000000000000011
 40
1.0
 40
1.0
 40
1.0
 40
1.0
 10
684.9202446799499
 20
456.7178674161154
 30
0.0
 10
684.918817706707
 20
456.7216832247229
 30
0.0
 10
684.9173907312145
 20
456.7209597236334
 30
0.0
 10
684.9145367807041
 20
456.7204706949994
 30
0.0
 10
684.9131098056913
 20
456.7207151813608
 30
0.0
 10
684.9088288804226
 20
456.7209840975097
 30
0.0
 10
684.905974930162
 20
456.7209990125741
 30
0.0
 10
684.8974130796972
 20
456.7216835363391
 30
0.0
 10
684.891705179511
 20
456.7224371125858
 30
0.0
 10
684.8745814795191
 20
456.7255054172932
 30
0.0
 10
684.8631656805952
 20
456.7289093543807
 30
0.0
 10
684.851749881878
 20
456.7325754135289
 30
0.0
  0
SPLINE
  5
21D
330
1F
100
AcDbEntity
  8
0
  6
Continuous
 62
     8
370
    18
100
AcDbSpline
210
0.0
220
0.0
230
1.0
 70
     8
 71
     3
 72
    16
 73
    12
 74
     0
 42
0.000000001
 43
0.00000001
 40
0.0
 40
0.0
 40
0.0
 40
0.0
 40
0.5000000000000011
 40
0.5000000000000011
 40
0.7500000000000006
 40
0.7500000000000006
 40
0.8750000000000002
 40
0.8750000000000002
 40
0.9375000000000002
 40
0.9375000000000002
 40
1.0
 40
1.0
 40
1.0
 40
1.0
 10
712.0004114391571
 20
456.7325754135289
 30
0.0
 10
711.98899564044
 20
456.7289093543807
 30
0.0
 10
711.9775798415161
 20
456.7255054172934
 30
0.0
 10
711.9604561415243
 20
456.7224371125857
 30
0.0
 10
711.954748241338
 20
456.7216835363391
 30
0.0
 10
711.9461863908732
 20
456.7209990125741
 30
0.0
 10
711.9433324406127
 20
456.7209840975098
 30
0.0
 10
711.9390515153439
 20
456.7207151813609
 30
0.0
 10
711.9376245403311
 20
456.7204706949993
 30
0.0
 10
711.9347705898207
 20
456.7209597236335
 30
0.0
 10
711.933343614328
 20
456.7216832247228
 30
0.0
 10
711.9319166410853
 20
456.7178674161154
 30
0.0
  0
LINE
  5
21E
330
1F
100
AcDbEntity
  8
0
  6
Continuous
 62
     8
370
    18
100
AcDbLine
 10
712.000411728
 20
456.7325772106
 30
0.0
 11
712.000411728
 21
454.4332498073
 31
0.0
  0
SPLINE
  5
21F
330
1F
100
AcDbEntity
  8
0
  6
Continuous
 62
     8
370
    18
100
AcDbSpline
210
0.0
220
0.0
230
1.0
 70
     8
 71
     3
 72
    16
 73
    12
 74
     0
 42
0.000000001
 43
0.00000001
 40
0.0
 40
0.0
 40
0.0
 40
0.0
 40
0.0625
 40
0.0625
 40
0.125
 40
0.125
 40
0.25
 40
0.25
 40
0.5
 40
0.5
 40
1.0
 40
1.0
 40
1.0
 40
1.0
 10
710.4688923194723
 20
458.2173950357978
 30
0.0
 10
710.4739545379316
 20
458.221121781619
 30
0.0
 10
710.4747048990124
 20
458.2204319184613
 30
0.0
 10
710.4771250814065
 20
458.2199502803831
 30
0.0
 10
710.4787920223719
 20
458.2201874280014
 30
0.0
 10
710.483341497919
 20
458.2204501794292
 30
0.0
 10
710.486199717871
 20
458.2204645503616
 30
0.0
 10
710.4954272780616
 20
458.2211304677996
 30
0.0
 10
710.5018750574303
 20
458.2218642422805
 30
0.0
 10
710.5219693912634
 20
458.2248484161161
 30
0.0
 10
710.536499993693
 20
458.2281609018603
 30
0.0
 10
710.5517094905052
 20
458.2316977833945
 30
0.0
  0
SPLINE
  5
220
330
1F
100
AcDbEntity
  8
0
  6
Continuous
 62
     8
370
    18
100
AcDbSpline
210
0.0
220
0.0
230
1.0
 70
    24
 71
     3
 72
   133
 73
   129
 74
     0
 42
0.000000001
 43
0.00000001
 40
0.0
 40
0.0
 40
0.0
 40
0.0
 40
0.0108490006629812
 40
0.0108490006629812
 40
0.010851623403401
 40
0.0218296083355429
 40
0.0218296083355429
 40
0.0218348856323106
 40
0.0393886094587287
 40
0.0393886094587287
 40
0.0393981316351317
 40
0.0625
 40
0.0625
 40
0.0625151093433704
 40
0.0635537065371848
 40
0.0635537065371848
 40
0.0635690706135774
 40
0.0831376728407982
 40
0.0831376728407982
 40
0.0831577713311338
 40
0.09375
 40
0.09375
 40
0.0937726640150556
 40
0.1095788773287826
 40
0.1095788773287826
 40
0.109605367966922
 40
0.125
 40
0.125
 40
0.125030218686741
 40
0.13667918798065
 40
0.13667918798065
 40
0.1367122301051746
 40
0.15625
 40
0.15625
 40
0.156287773358426
 40
0.158467558808628
 40
0.158467558808628
 40
0.158505868260774
 40
0.18071487440613
 40
0.18071487440613
 40
0.180758562135563
 40
0.2001121007126065
 40
0.2001121007126065
 40
0.2001604777116825
 40
0.2198715277206565
 40
0.2198715277206565
 40
0.219924681551212
 40
0.25
 40
0.25
 40
0.2500604373734815
 40
0.2516924868512315
 40
0.2516924868512315
 40
0.251753333382553
 40
0.285755266647219
 40
0.285755266647219
 40
0.285824347838318
 40
0.3125
 40
0.3125
 40
0.3133303218545255
 40
0.329531138173721
 40
0.329531138173721
 40
0.3296108021596075
 40
0.3424403321822815
 40
0.3424403321822815
 40
0.3425231169592865
 40
0.358539527840511
 40
0.358539527840511
 40
0.3586262045899195
 40
0.3713636046269615
 40
0.3713636046269615
 40
0.371453381590443
 40
0.375
 40
0.375
 40
0.3750906560602225
 40
0.402520846328285
 40
0.402520846328285
 40
0.40261815553918
 40
0.434593635386771
 40
0.43469869817819
 40
0.460455697745271
 40
0.460567012677177
 40
0.486916359106216
 40
0.487034070889615
 40
0.5
 40
0.5001208747469631
 40
0.518179418380322
 40
0.518304687992479
 40
0.550279871187772
 40
0.55041290106815
 40
0.57610377208877
 40
0.576243044884121
 40
0.6024694437922701
 40
0.6026150904754141
 40
0.625
 40
0.625151093433704
 40
0.6338295902262241
 40
0.633982818208897
 40
0.66595450325661
 40
0.6661154974207509
 40
0.6875
 40
0.6876662027770749
 40
0.691743201298622
 40
0.691910429867464
 40
0.718022959028466
 40
0.718196540715439
 40
0.7494692506562419
 40
0.750181312120445
 40
0.7816153619941869
 40
0.781804317112395
 40
0.807372711306932
 40
0.807567893251301
 40
0.8125
 40
0.8126964214638159
 40
0.8335768923436969
 40
0.83377840913557
 40
0.8571895238504219
 40
0.857396748984012
 40
0.875
 40
0.875211530807186
 40
0.8811630819160979
 40
0.881376102645219
 40
0.900255607005795
 40
0.900473243343193
 40
0.90625
 40
0.9064690854788711
 40
0.919575942230032
 40
0.9197982492486939
 40
0.920149370868112
 40
0.920149370868112
 40
0.920149370868112
 40
0.920149370868112
 10
698.4260806605176
 20
458.4991943608883
 30
0.0
 10
698.4260806605176
 20
458.4991943608883
 30
0.0
 10
698.4260806605176
 20
458.4991607899814
 30
0.0
 10
698.4260806605176
 20
458.499095104838
 30
0.0
 10
698.4260806605176
 20
458.4990286310958
 30
0.0
 10
698.4260806605176
 20
458.4989292758763
 30
0.0
 10
698.4260806605176
 20
458.4987985414947
 30
0.0
 10
698.4260806605176
 20
458.4985895116297
 30
0.0
 10
698.4260806605176
 20
458.498300305789
 30
0.0
 10
698.4260806605176
 20
458.4979370996145
 30
0.0
 10
698.4260806605176
 20
458.4974591055918
 30
0.0
 10
698.4260806605176
 20
458.4968530315497
 30
0.0
 10
698.4260806605176
 20
458.4961329801671
 30
0.0
 10
698.4260806605176
 20
458.4961001557509
 30
0.0
 10
698.4260806605176
 20
458.4960670946962
 30
0.0
 10
698.4260806605176
 20
458.4960337936583
 30
0.0
 10
698.4260806605176
 20
458.4954149534478
 30
0.0
 10
698.4260806605176
 20
458.494714836962
 30
0.0
 10
698.4260806605176
 20
458.493941969251
 30
0.0
 10
698.4260806605176
 20
458.4935232219213
 30
0.0
 10
698.4260806605176
 20
458.4930831524203
 30
0.0
 10
698.4260806605176
 20
458.4926230629758
 30
0.0
 10
698.4260806605176
 20
458.4919369162531
 30
0.0
 10
698.4260806605176
 20
458.4912064002872
 30
0.0
 10
698.4260806605176
 20
458.4904359528217
 30
0.0
 10
698.4260806605176
 20
458.4896854687359
 30
0.0
 10
698.4260806605176
 20
458.488897213851
 30
0.0
 10
698.4260806605176
 20
458.4880752689728
 30
0.0
 10
698.4260806605176
 20
458.4874528696439
 30
0.0
 10
698.4260806605176
 20
458.4868112320819
 30
0.0
 10
698.4260806605176
 20
458.4861520743767
 30
0.0
 10
698.4260806605176
 20
458.4850477084373
 30
0.0
 10
698.4260806605176
 20
458.4838944819489
 30
0.0
 10
698.4260806605176
 20
458.4827008039649
 30
0.0
 10
698.4260806605176
 20
458.482565572808
 30
0.0
 10
698.4260806605176
 20
458.4824298253388
 30
0.0
 10
698.4260806605176
 20
458.4822935495664
 30
0.0
 10
698.4260806605176
 20
458.4809266270562
 30
0.0
 10
698.4260806605176
 20
458.4795090047832
 30
0.0
 10
698.4260806605176
 20
458.4780530723868
 30
0.0
 10
698.4260806605176
 20
458.4767839002565
 30
0.0
 10
698.4260806605176
 20
458.4754858417098
 30
0.0
 10
698.4260806605176
 20
458.4741670214375
 30
0.0
 10
698.4260806605176
 20
458.4728238477308
 30
0.0
 10
698.4260806605176
 20
458.4714594343571
 30
0.0
 10
698.4260806605176
 20
458.4700823535496
 30
0.0
 10
698.4260806605176
 20
458.4679830864278
 30
0.0
 10
698.4260806605176
 20
458.4658551277573
 30
0.0
 10
698.4260806605176
 20
458.4637294409789
 30
0.0
 10
698.4260806605176
 20
458.4636100582938
 30
0.0
 10
698.4260806605176
 20
458.4634906846147
 30
0.0
 10
698.4260806605176
 20
458.4633712917299
 30
0.0
 10
698.4260806605176
 20
458.4609689933822
 30
0.0
 10
698.4260806605176
 20
458.4585707638924
 30
0.0
 10
698.4260806605176
 20
458.456184460365
 30
0.0
 10
698.4260806605176
 20
458.4543113029895
 30
0.0
 10
698.4260806605176
 20
458.4524458776226
 30
0.0
 10
698.4260806605176
 20
458.4505917954356
 30
0.0
 10
698.4260806605176
 20
458.4494114161492
 30
0.0
 10
698.4260806605176
 20
458.4482358355322
 30
0.0
 10
698.4260806605176
 20
458.4470657990111
 30
0.0
 10
698.4260806605176
 20
458.4461791745048
 30
0.0
 10
698.4260806605176
 20
458.4452959154652
 30
0.0
 10
698.4260806605176
 20
458.4444162439577
 30
0.0
 10
698.4260806605176
 20
458.4433194918207
 30
0.0
 10
698.4260806605176
 20
458.4422286912857
 30
0.0
 10
698.4260806605176
 20
458.4411444349057
 30
0.0
 10
698.4260806605176
 20
458.4402809908928
 30
0.0
 10
698.4260806605176
 20
458.4394218909194
 30
0.0
 10
698.4260806605176
 20
458.4385673450531
 30
0.0
 10
698.4260806605176
 20
458.4383250980967
 30
0.0
 10
698.4260806605176
 20
458.4380832367851
 30
0.0
 10
698.4260806605176
 20
458.4378417030252
 30
0.0
 10
698.4260806605176
 20
458.4360142517311
 30
0.0
 10
698.4260806605176
 20
458.4342094795662
 30
0.0
 10
698.4260806605176
 20
458.4324313205176
 30
0.0
 10
698.4260806605176
 20
458.4303596669528
 30
0.0
 10
698.4260806605176
 20
458.4283182192408
 30
0.0
 10
698.4260806605176
 20
458.4247280769598
 30
0.0
 10
698.4260806605176
 20
458.4231445310904
 30
0.0
 10
698.4260806605176
 20
458.4200260859259
 30
0.0
 10
698.4260806605176
 20
458.4184727660165
 30
0.0
 10
698.4260806605176
 20
458.4162244512843
 30
0.0
 10
698.4260806605176
 20
458.4154808999373
 30
0.0
 10
698.4260806605176
 20
458.4137502109862
 30
0.0
 10
698.4260806605176
 20
458.4127519358835
 30
0.0
 10
698.4260806605176
 20
458.4100693294222
 30
0.0
 10
698.4260806605176
 20
458.4084054305052
 30
0.0
 10
698.4260806605176
 20
458.4055335746177
 30
0.0
 10
698.4260806605176
 20
458.4042839227584
 30
0.0
 10
698.4260806605176
 20
458.4018617184453
 30
0.0
 10
698.4260806605176
 20
458.4006714834981
 30
0.0
 10
698.4260806605176
 20
458.3985645879569
 30
0.0
 10
698.4260806605176
 20
458.3976170845485
 30
0.0
 10
698.4260806605176
 20
458.3963591225396
 30
0.0
 10
698.4260806605176
 20
458.3960022964322
 30
0.0
 10
698.4260806605176
 20
458.3944066400539
 30
0.0
 10
698.4260806605176
 20
458.3932166367159
 30
0.0
 10
698.4260806605176
 20
458.3913928793141
 30
0.0
 10
698.4260806605176
 20
458.3906935034052
 30
0.0
 10
698.4260806605176
 20
458.389921936523
 30
0.0
 10
698.4260806605176
 20
458.3897909825393
 30
0.0
 10
698.4260806605176
 20
458.3889012936049
 30
0.0
 10
698.4260806605176
 20
458.3881887140579
 30
0.0
 10
698.4260806605176
 20
458.3866905910898
 30
0.0
 10
698.4260806605176
 20
458.3859057977043
 30
0.0
 10
698.4260806605176
 20
458.3843310160401
 30
0.0
 10
698.4260806605176
 20
458.3835275064894
 30
0.0
 10
698.4260806605176
 20
458.3822977710248
 30
0.0
 10
698.4260806605176
 20
458.3818197949976
 30
0.0
 10
698.4260806605176
 20
458.3814345055211
 30
0.0
 10
698.4260806605176
 20
458.3813739195973
 30
0.0
 10
698.4260806605176
 20
458.3811111805297
 30
0.0
 10
698.4260806605176
 20
458.3810084077228
 30
0.0
 10
698.4260806605176
 20
458.3808044139879
 30
0.0
 10
698.4260806605176
 20
458.3807004474009
 30
0.0
 10
698.4260806605176
 20
458.3802692572261
 30
0.0
 10
698.4260806605176
 20
458.3799971408392
 30
0.0
 10
698.4260806605176
 20
458.3794428841149
 30
0.0
 10
698.4260806605176
 20
458.3792759552232
 30
0.0
 10
698.4260806605176
 20
458.3786422293058
 30
0.0
 10
698.4260806605176
 20
458.378213982649
 30
0.0
 10
698.4260806605176
 20
458.3786533664031
 30
0.0
 10
698.4260806605176
 20
458.3788416546669
 30
0.0
 10
698.4260806605176
 20
458.3797293951554
 30
0.0
 10
698.4260806605176
 20
458.3808499021125
 30
0.0
 10
698.4260806605176
 20
458.3809277529377
 30
0.0
 10
698.4260806605176
 20
458.3809290699991
 30
0.0
 10
698.4260806605176
 20
458.3809291187191
 30
0.0
  0
SPLINE
  5
221
330
1F
100
AcDbEntity
  8
0
  6
Continuous
 62
     8
370
    18
100
AcDbSpline
210
0.0
220
0.0
230
1.0
 70
     8
 71
     3
 72
    14
 73
    10
 74
     0
 42
0.000000001
 43
0.00000001
 40
0.0
 40
0.0
 40
0.0
 40
0.0
 40
0.4999999999999951
 40
0.4999999999999951
 40
0.7499999999999927
 40
0.7499999999999927
 40
0.8749999999999963
 40
0.8749999999999963
 40
1.0
 40
1.0
 40
1.0
 40
1.0
 10
713.4311859175712
 20
458.2339749299459
 30
0.0
 10
713.6134504838013
 20
458.232911933652
 30
0.0
 10
713.7495101948158
 20
458.232287889403
 30
0.0
 10
713.8861474690701
 20
458.2317421422084
 30
0.0
 10
713.9204129098413
 20
458.2316259585104
 30
0.0
 10
713.9547878576101
 20
458.2315199303561
 30
0.0
 10
713.9634066198515
 20
458.2314959848401
 30
0.0
 10
713.9749198976162
 20
458.2314657426172
 30
0.0
 10
713.9778140781698
 20
458.2314595036231
 30
0.0
 10
713.9778144081545
 20
458.2314594922354
 30
0.0
  0
LINE
  5
222
330
1F
100
AcDbEntity
  8
0
  6
Continuous
 62
     8
370
    18
100
AcDbLine
 10
710.5517096609
 20
458.2316973566
 30
0.0
 11
710.5575984135
 21
458.231894797
 31
0.0
  0
SPLINE
  5
223
330
1F
100
AcDbEntity
  8
0
  6
Continuous
 62
     8
370
    18
100
AcDbSpline
210
0.0
220
0.0
230
1.0
 70
     8
 71
     3
 72
    16
 73
    12
 74
     0
 42
0.000000001
 43
0.00000001
 40
0.0
 40
0.0
 40
0.0
 40
0.0
 40
0.4999999999999989
 40
0.4999999999999989
 40
0.7499999999999983
 40
0.7499999999999983
 40
0.874999999999998
 40
0.874999999999998
 40
0.937499999999999
 40
0.937499999999999
 40
1.0
 40
1.0
 40
1.0
 40
1.0
 10
686.30045183053
 20
458.2316977833945
 30
0.0
 10
686.3156613273424
 20
458.2281609018604
 30
0.0
 10
686.330191929772
 20
458.2248484161161
 30
0.0
 10
686.3502862636049
 20
458.2218642422805
 30
0.0
 10
686.3567340429736
 20
458.2211304677995
 30
0.0
 10
686.3659616031641
 20
458.2204645503616
 30
0.0
 10
686.368819823116
 20
458.2204501794291
 30
0.0
 10
686.3733692986633
 20
458.2201874280015
 30
0.0
 10
686.3750362396286
 20
458.219950280383
 30
0.0
 10
686.3774564220229
 20
458.2204319184614
 30
0.0
 10
686.3782067831036
 20
458.221121781619
 30
0.0
 10
686.3832690015629
 20
458.2173950357978
 30
0.0
  0
LINE
  5
224
330
1F
100
AcDbEntity
  8
0
  6
Continuous
 62
     8
370
    18
100
AcDbLine
 10
686.2952390477
 20
458.23186872
 30
0.0
 11
686.3004516602
 21
458.2316973566
 31
0.0
  0
SPLINE
  5
225
330
1F
100
AcDbEntity
  8
0
  6
Continuous
 62
     8
370
    18
100
AcDbSpline
210
0.0
220
0.0
230
1.0
 70
     8
 71
     3
 72
    14
 73
    10
 74
     0
 42
0.000000001
 43
0.00000001
 40
0.0
 40
0.0
 40
0.0
 40
0.0
 40
0.1249999999999962
 40
0.1249999999999962
 40
0.2499999999999925
 40
0.2499999999999925
 40
0.4999999999999949
 40
0.4999999999999949
 40
1.0
 40
1.0
 40
1.0
 40
1.0
 10
682.8743469128807
 20
458.2314594922354
 30
0.0
 10
682.8743472431483
 20
458.2314595036328
 30
0.0
 10
682.8772414234189
 20
458.2314657426172
 30
0.0
 10
682.8887547011838
 20
458.2314959848401
 30
0.0
 10
682.8973734634251
 20
458.2315199303561
 30
0.0
 10
682.9317484111939
 20
458.2316259585104
 30
0.0
 10
682.966013851965
 20
458.2317421422084
 30
0.0
 10
683.1026511262195
 20
458.232287889403
 30
0.0
 10
683.2387108372338
 20
458.2329119336521
 30
0.0
 10
683.420975403464
 20
458.2339749299459
 30
0.0
  0
ARC
  5
226
330
1F
100
AcDbEntity
  8
0
  6
Continuous
 62
     8
370
    18
100
AcDbCircle
 10
686.3517481217
 20
456.7325761944
 30
0.0
 40
1.499998528679849
100
AcDbArc
 50
91.9597645333
 51
179.9999611838
  0
ARC
  5
227
330
1F
100
AcDbEntity
  8
0
  6
Continuous
 62
     8
370
    18
100
AcDbCircle
 10
710.5004131993
 20
456.7325761944
 30
0.0
 40
1.49999852868007
100
AcDbArc
 50
0.0000388162
 51
88.0402354666
  0
LINE
  5
228
330
1F
100
AcDbEntity
  8
0
  6
Continuous
 62
     8
370
    18
100
AcDbLine
 10
698.4260806605
 20
453.0101814627
 30
0.0
 11
698.4260806605
 21
452.9901803791
 31
0.0
  0
LINE
  5
229
330
1F
100
AcDbEntity
  8
0
  6
Continuous
 62
     8
370
    18
100
AcDbLine
 10
694.998332325
 20
452.9855312168
 30
0.0
 11
696.7443664582
 21
452.9879005014
 31
0.0
  0
LINE
  5
22A
330
1F
100
AcDbEntity
  8
0
  6
Continuous
 62
     8
370
    18
100
AcDbLine
 10
700.1085521445
 20
452.9878967761
 30
0.0
 11
701.8538271334
 21
452.9855312168
 31
0.0
  0
LINE
  5
22B
330
1F
100
AcDbEntity
  8
0
  6
Continuous
 62
     8
370
    18
100
AcDbLine
 10
694.997682029
 20
438.9909492194
 30
0.0
 11
694.997682029
 21
439.0342985599
 31
0.0
  0
LINE
  5
22C
330
1F
100
AcDbEntity
  8
0
  6
Continuous
 62
     8
370
    18
100
AcDbLine
 10
701.854479292
 20
439.0342985599
 30
0.0
 11
701.854479292
 21
438.9909492194
 31
0.0
  0
SPLINE
  5
22D
330
1F
100
AcDbEntity
  8
0
  6
Continuous
 62
     8
370
    18
100
AcDbSpline
210
0.0
220
0.0
230
1.0
 70
     8
 71
     3
 72
    12
 73
     8
 74
     0
 42
0.000000001
 43
0.00000001
 40
0.2864982123848103
 40
0.2864982123848103
 40
0.2864982123848103
 40
0.2864982123848103
 40
0.3802482123848103
 40
0.5364982123848103
 40
0.7864982123848103
 40
0.7864982123848103
 40
1.0
 40
1.0
 40
1.0
 40
1.0
 10
687.4716295103867
 20
440.2634636626274
 30
0.0
 10
687.7462530417407
 20
440.1463405334923
 30
0.0
 10
688.5041191307661
 20
439.8632622088599
 30
0.0
 10
690.1427636746769
 20
439.4383051013091
 30
0.0
 10
691.6072151004532
 20
439.2468860230179
 30
0.0
 10
693.3386292789529
 20
439.099929124046
 30
0.0
 10
694.1606425438748
 20
439.0578335237198
 30
0.0
 10
694.9977121962927
 20
439.0318173760587
 30
0.0
  0
SPLINE
  5
22E
330
1F
100
AcDbEntity
  8
0
  6
Continuous
 62
     8
370
    18
100
AcDbSpline
210
0.0
220
0.0
230
1.0
 70
     8
 71
     3
 72
    21
 73
    17
 74
     0
 42
0.000000001
 43
0.00000001
 40
0.0
 40
0.0
 40
0.0
 40
0.0
 40
0.0420548029786143
 40
0.0845778280942075
 40
0.1275832636488
 40
0.171084825849363
 40
0.2150957669704752
 40
0.2596288844674655
 40
0.304696530889464
 40
0.3503106244520551
 40
0.5193684587179418
 40
0.7011455393331505
 40
0.7698797407743606
 40
0.8425924689516252
 40
0.9192957991511518
 40
1.0
 40
1.0
 40
1.0
 40
1.0
 10
709.3805318106484
 20
440.2634636626273
 30
0.0
 10
709.2926154833625
 20
440.2268443620013
 30
0.0
 10
709.1158040019334
 20
440.1531980554225
 30
0.0
 10
708.8414461853818
 20
440.0503048239765
 30
0.0
 10
708.5584795721414
 20
439.9521657803545
 30
0.0
 10
708.2662430680294
 20
439.859386394989
 30
0.0
 10
707.9648053024566
 20
439.7718015609601
 30
0.0
 10
707.654052918289
 20
439.6894555456383
 30
0.0
 10
707.3339289179155
 20
439.6123380589513
 30
0.0
 10
706.7085255508895
 20
439.4758880845903
 30
0.0
 10
705.7170964879244
 20
439.3086682012337
 30
0.0
 10
704.6163789133695
 20
439.1892433161326
 30
0.0
 10
703.7469823173087
 20
439.1231052893131
 30
0.0
 10
703.1526039774446
 20
439.0870686358634
 30
0.0
 10
702.5187372287534
 20
439.0565955374256
 30
0.0
 10
702.0796397971505
 20
439.0418559441489
 30
0.0
 10
701.8545107510607
 20
439.0342988273559
 30
0.0
  0
LINE
  5
22F
330
1F
100
AcDbEntity
  8
0
  6
Continuous
 62
     8
370
    18
100
AcDbLine
 10
725.4260813609
 20
423.7791947409
 30
0.0
 11
671.4260799602
 21
423.7791947409
 31
0.0
  0
SPLINE
  5
230
330
1F
100
AcDbEntity
  8
0
  6
Continuous
 62
     8
370
    18
100
AcDbSpline
210
0.0
220
0.0
230
1.0
 70
     8
 71
     3
 72
    29
 73
    25
 74
     0
 42
0.000000001
 43
0.00000001
 40
0.0
 40
0.0
 40
0.0
 40
0.0
 40
0.0235886765512802
 40
0.0469588666622246
 40
0.0701257574939795
 40
0.0931049392861342
 40
0.1159123871934586
 40
0.1385644396897546
 40
0.1610777735423794
 40
0.1834693754263107
 40
0.2057565103163038
 40
0.2279566868675589
 40
0.2500876200667738
 40
0.375447114340893
 40
0.4994528617305253
 40
0.6234088379963972
 40
0.7493751284823922
 40
0.7840036928270413
 40
0.8189228517375716
 40
0.8541952341795624
 40
0.8898816083428852
 40
0.9260406540950311
 40
0.9627287822034519
 40
1.0
 40
1.0
 40
1.0
 40
1.0
 10
714.8256842877234
 20
454.2099142034739
 30
0.0
 10
714.8254102710493
 20
454.0636182706988
 30
0.0
 10
714.824864775738
 20
453.7723814484261
 30
0.0
 10
714.8203914729135
 20
453.3377365093306
 30
0.0
 10
714.8132001774625
 20
452.9074272139679
 30
0.0
 10
714.8029852983406
 20
452.4814537706388
 30
0.0
 10
714.7897430478154
 20
452.0598167727369
 30
0.0
 10
714.7733642164785
 20
451.6425166490021
 30
0.0
 10
714.7537420171533
 20
451.2295544950213
 30
0.0
 10
714.7307437466012
 20
450.8209292909337
 30
0.0
 10
714.7042180972688
 20
450.4166480907493
 30
0.0
 10
714.6739947515226
 20
450.0166882337212
 30
0.0
 10
714.5868250660405
 20
449.0059888239664
 30
0.0
 10
714.39037586782
 20
447.4322492109654
 30
0.0
 10
713.9356463088818
 20
445.4507709943753
 30
0.0
 10
713.2458758494237
 20
443.702981230284
 30
0.0
 10
712.50542412025
 20
442.5917182945355
 30
0.0
 10
711.8980226147288
 20
441.9311930140661
 30
0.0
 10
711.5492222193153
 20
441.6005924236098
 30
0.0
 10
711.1734892709266
 20
441.290750802872
 30
0.0
 10
710.7698933935562
 20
441.0014835150734
 30
0.0
 10
710.3369304944664
 20
440.733351946458
 30
0.0
 10
709.875666567326
 20
440.4842387432364
 30
0.0
 10
709.5464419233068
 20
440.3374411364403
 30
0.0
 10
709.3805318106484
 20
440.2634636626273
 30
0.0
  0
SPLINE
  5
231
330
1F
100
AcDbEntity
  8
0
  6
Continuous
 62
     8
370
    18
100
AcDbSpline
210
0.0
220
0.0
230
1.0
 70
     8
 71
     3
 72
    34
 73
    30
 74
     0
 42
0.000000001
 43
0.00000001
 40
0.0
 40
0.0
 40
0.0
 40
0.0
 40
0.0193514020455247
 40
0.038636152813278
 40
0.0578679159828395
 40
0.0825104390781004
 40
0.1071191147940618
 40
0.1318571914434064
 40
0.2063324638288846
 40
0.2429359686582615
 40
0.2552134964801905
 40
0.3047859659054093
 40
0.3655799078907129
 40
0.3779401125682955
 40
0.4268464254537291
 40
0.4511218885219136
 40
0.4757182543724061
 40
0.5006485014777077
 40
0.5515897253393361
 40
0.564548991474345
 40
0.6039481928029965
 40
0.7389402837557828
 40
0.7558675818166887
 40
0.8070124211695772
 40
0.857366075214649
 40
0.8826154271877759
 40
0.9078766953316462
 40
0.9540482885706603
 40
1.0
 40
1.0
 40
1.0
 40
1.0
 10
687.4716732432559
 20
440.2635020566955
 30
0.0
 10
687.3849896817235
 20
440.3013690788566
 30
0.0
 10
687.211921119462
 20
440.3769726992745
 30
0.0
 10
686.9604240364839
 20
440.4983909797132
 30
0.0
 10
686.6923605649491
 20
440.6376835178274
 30
0.0
 10
686.410534730636
 20
440.7979995013406
 30
0.0
 10
686.1168000865805
 20
440.9824423703642
 30
0.0
 10
685.643719324061
 20
441.3102209251958
 30
0.0
 10
685.1656854357569
 20
441.7128684899301
 30
0.0
 10
684.7756310029034
 20
442.1229666318972
 30
0.0
 10
684.4796457039207
 20
442.4659129034933
 30
0.0
 10
684.1348377658114
 20
442.9176261392137
 30
0.0
 10
683.8319805887186
 20
443.4130172338595
 30
0.0
 10
683.5578704626331
 20
443.9327649936121
 30
0.0
 10
683.3812733237604
 20
444.3130714854743
 30
0.0
 10
683.1997074763178
 20
444.7681415865913
 30
0.0
 10
683.0724929898765
 20
445.1216786103665
 30
0.0
 10
682.9124383761043
 20
445.6162292675445
 30
0.0
 10
682.7879251502033
 20
446.0709946999342
 30
0.0
 10
682.6584291326318
 20
446.6148953522803
 30
0.0
 10
682.4456129128866
 20
447.6231403326546
 30
0.0
 10
682.2965241075243
 20
448.7245519999404
 30
0.0
 10
682.1842857272189
 20
449.9279649136315
 30
0.0
 10
682.1302049763301
 20
450.6393577579817
 30
0.0
 10
682.0883575059427
 20
451.4117466041275
 30
0.0
 10
682.0634003762435
 20
452.0308935938614
 30
0.0
 10
682.044617203075
 20
452.6267156921768
 30
0.0
 10
682.0295854990454
 20
453.3532648628966
 30
0.0
 10
682.0275491731811
 20
453.924851854697
 30
0.0
 10
682.0265334404213
 20
454.2099632127678
 30
0.0
  0
LINE
  5
232
330
1F
100
AcDbEntity
  8
0
  6
Continuous
 62
     8
370
    18
100
AcDbLine
 10
682.0264773235
 20
454.2099149286
 30
0.0
 11
682.0264773235
 21
456.7349427699
 31
0.0
  0
SPLINE
  5
233
330
1F
100
AcDbEntity
  8
0
  6
Continuous
 62
     8
370
    18
100
AcDbSpline
210
0.0
220
0.0
230
1.0
 70
     8
 71
     3
 72
    18
 73
    14
 74
     0
 42
0.000000001
 43
0.00000001
 40
0.0
 40
0.0
 40
0.0
 40
0.0
 40
0.2499999999999996
 40
0.2499999999999996
 40
0.4999999999999991
 40
0.4999999999999991
 40
0.7499999999999987
 40
0.7499999999999987
 40
0.8749999999999984
 40
0.8749999999999984
 40
0.9374999999999992
 40
0.9374999999999992
 40
1.0
 40
1.0
 40
1.0
 40
1.0
 10
684.851749881878
 20
456.732575413529
 30
0.0
 10
684.8486659538696
 20
456.7335657833444
 30
0.0
 10
684.8447079947305
 20
456.7346651360694
 30
0.0
 10
684.6938162270859
 20
456.7364219670159
 30
0.0
 10
684.5458106497829
 20
456.7370467258033
 30
0.0
 10
684.0727376795505
 20
456.7377180446615
 30
0.0
 10
683.7500419446418
 20
456.7377073053724
 30
0.0
 10
683.1730307926181
 20
456.7373645590808
 30
0.0
 10
682.965166268171
 20
456.7368539736492
 30
0.0
 10
682.6284170719231
 20
456.7365017218544
 30
0.0
 10
682.5118051515551
 20
456.7365576314044
 30
0.0
 10
682.2706480507575
 20
456.7361856183429
 30
0.0
 10
682.1427009666136
 20
456.7355731635832
 30
0.0
 10
682.0264770333117
 20
456.7349421279678
 30
0.0
  0
SPLINE
  5
234
330
1F
100
AcDbEntity
  8
0
  6
Continuous
 62
     8
370
    18
100
AcDbSpline
210
0.0
220
0.0
230
1.0
 70
     8
 71
     3
 72
    18
 73
    14
 74
     0
 42
0.000000001
 43
0.00000001
 40
0.0
 40
0.0
 40
0.0
 40
0.0
 40
0.0625000000000003
 40
0.0625000000000003
 40
0.1250000000000007
 40
0.1250000000000007
 40
0.2500000000000014
 40
0.2500000000000014
 40
0.5000000000000009
 40
0.5000000000000009
 40
0.7500000000000004
 40
0.7500000000000004
 40
1.0
 40
1.0
 40
1.0
 40
1.0
 10
714.8256842877234
 20
456.7349421279678
 30
0.0
 10
714.709173638453
 20
456.7355747203024
 30
0.0
 10
714.581513230836
 20
456.7361856184555
 30
0.0
 10
714.3403561332634
 20
456.7365576314084
 30
0.0
 10
714.2237442146379
 20
456.7365017218717
 30
0.0
 10
713.8869950232071
 20
456.7368539737176
 30
0.0
 10
713.6791305016153
 20
456.7373645591113
 30
0.0
 10
713.1021193575863
 20
456.7377073053543
 30
0.0
 10
712.7794236275752
 20
456.7377180446571
 30
0.0
 10
712.3063506653727
 20
456.7370467257796
 30
0.0
 10
712.158345090892
 20
456.7364219669956
 30
0.0
 10
712.007453326206
 20
456.7346651360529
 30
0.0
 10
712.0034953671441
 20
456.7335657833374
 30
0.0
 10
712.0004114391571
 20
456.732575413529
 30
0.0
  0
LINE
  5
235
330
1F
100
AcDbEntity
  8
0
  6
Continuous
 62
     8
370
    18
100
AcDbLine
 10
714.8256839976
 20
454.2099149286
 30
0.0
 11
714.8256839976
 21
456.7349427699
 31
0.0
  0
ARC
  5
236
330
1F
100
AcDbEntity
  8
0
  6
Continuous
 62
     8
370
    18
100
AcDbCircle
 10
713.3501321611
 20
456.7604291161
 30
0.0
 40
1.475771925412583
100
AcDbArc
 50
359.0104618168
 51
86.8515653654
  0
ARC
  5
237
330
1F
100
AcDbEntity
  8
0
  6
Continuous
 62
     8
370
    18
100
AcDbCircle
 10
683.5020291599
 20
456.7604291161
 30
0.0
 40
1.475771925412413
100
AcDbArc
 50
93.1484346346
 51
180.9895381832
  0
SPLINE
  5
238
330
1F
100
AcDbEntity
  8
0
  6
Continuous
 62
     8
370
    18
100
AcDbSpline
210
0.0
220
0.0
230
1.0
 70
     8
 71
     3
 72
     8
 73
     4
 74
     0
 42
0.000000001
 43
0.00000001
 40
0.0
 40
0.0
 40
0.0
 40
0.0
 40
1.0
 40
1.0
 40
1.0
 40
1.0
 10
682.0264770333118
 20
456.7349421279677
 30
0.0
 10
681.6262129843423
 20
456.7327689841735
 30
0.0
 10
681.4260806605175
 20
456.7323518845717
 30
0.0
 10
681.4260806605175
 20
456.7323518845717
 30
0.0
  0
SPLINE
  5
239
330
1F
100
AcDbEntity
  8
0
  6
Continuous
 62
     8
370
    18
100
AcDbSpline
210
0.0
220
0.0
230
1.0
 70
     8
 71
     3
 72
     8
 73
     4
 74
     0
 42
0.000000001
 43
0.00000001
 40
0.0
 40
0.0
 40
0.0
 40
0.0
 40
1.0
 40
1.0
 40
1.0
 40
1.0
 10
715.4260806605176
 20
456.7323518845717
 30
0.0
 10
715.4260806605176
 20
456.7323518845717
 30
0.0
 10
715.2259483366929
 20
456.7327689841735
 30
0.0
 10
714.8256842877233
 20
456.7349421279677
 30
0.0
  0
LINE
  5
23A
330
1F
100
AcDbEntity
  8
0
  6
Continuous
 62
     8
370
    18
100
AcDbLine
 10
713.9169078112
 20
425.3795431315
 30
0.0
 11
719.4257302001
 21
425.3795431315
 31
0.0
  0
LINE
  5
23B
330
1F
100
AcDbEntity
  8
0
  6
Continuous
 62
     8
370
    18
100
AcDbLine
 10
677.4264311209
 20
425.3795431315
 30
0.0
 11
682.9352535099
 21
425.3795431315
 31
0.0
  0
LINE
  5
23C
330
1F
100
AcDbEntity
  8
0
  6
Continuous
 62
     8
370
    18
100
AcDbLine
 10
698.4260805614
 20
594.1059352218
 30
0.0
 11
678.0153995171
 21
594.1059352218
 31
0.0
  0
SPLINE
  5
23D
330
1F
100
AcDbEntity
  8
0
  6
Continuous
 62
     8
370
    18
100
AcDbSpline
210
0.0
220
0.0
230
1.0
 70
     8
 71
     3
 72
     8
 73
     4
 74
     0
 42
0.000000001
 43
0.00000001
 40
0.0
 40
0.0
 40
0.0
 40
0.0
 40
1.0
 40
1.0
 40
1.0
 40
1.0
 10
701.54715829449
 20
594.1065620973467
 30
0.0
 10
700.5129530026405
 20
594.1060468020945
 30
0.0
 10
699.4725937035549
 20
594.1059707664932
 30
0.0
 10
698.4260805613942
 20
594.1059708431783
 30
0.0
  0
SPLINE
  5
23E
330
1F
100
AcDbEntity
  8
0
  6
Continuous
 62
     8
370
    18
100
AcDbSpline
210
0.0
220
0.0
230
1.0
 70
     8
 71
     3
 72
    10
 73
     6
 74
     0
 42
0.000000001
 43
0.00000001
 40
0.0
 40
0.0
 40
0.0
 40
0.0
 40
0.5
 40
0.5
 40
1.0
 40
1.0
 40
1.0
 40
1.0
 10
698.4260806605176
 20
595.3015760321557
 30
0.0
 10
698.9175969270441
 20
595.3015759980083
 30
0.0
 10
699.4105534380536
 20
595.3015891086728
 30
0.0
 10
700.3907063463311
 20
595.3017561997369
 30
0.0
 10
700.879347590849
 20
595.3019026868409
 30
0.0
 10
701.3665371842985
 20
595.3021575024658
 30
0.0
  0
LWPOLYLINE
  5
23F
330
1F
100
AcDbEntity
  8
0
  6
Continuous
 62
     8
370
    18
100
AcDbPolyline
 90
        9
 70
   128
 43
0.0
 10
725.9559070483
 20
595.3020216285
 10
725.9560039058
 20
595.2751697361
 10
725.9560951754
 20
595.2043147146
 10
725.9561752692
 20
595.0920940696
 10
725.9562404618
 20
594.9427546322
 10
725.9562888905
 20
594.7618694364
 10
725.9563205555
 20
594.5562483131
 10
725.9563298687
 20
594.3335802614
 10
725.9563205555
 20
594.1022248327
  0
SPLINE
  5
240
330
1F
100
AcDbEntity
  8
0
  6
Continuous
 62
     8
370
    18
100
AcDbSpline
210
0.0
220
0.0
230
1.0
 70
     8
 71
     3
 72
    20
 73
    16
 74
     0
 42
0.000000001
 43
0.00000001
 40
0.0
 40
0.0
 40
0.0
 40
0.0
 40
0.25
 40
0.25
 40
0.5
 40
0.5
 40
0.75
 40
0.75
 40
0.875
 40
0.875
 40
0.9374999999999999
 40
0.9374999999999999
 40
0.9687499999999999
 40
0.9687499999999999
 40
1.0
 40
1.0
 40
1.0
 40
1.0
 10
725.9563212788205
 20
594.1022308319413
 30
0.0
 10
723.9130260894436
 20
594.1023990502744
 30
0.0
 10
721.869719839122
 20
594.1027893064421
 30
0.0
 10
717.7845956875832
 20
594.1038874582969
 30
0.0
 10
715.7425084029644
 20
594.1046436059372
 30
0.0
 10
711.6692994670964
 20
594.1057133923275
 30
0.0
 10
709.6360671533037
 20
594.1059846249483
 30
0.0
 10
706.595034575306
 20
594.1063006220966
 30
0.0
 10
705.5828423162291
 20
594.1064332194915
 30
0.0
 10
704.0674625339991
 20
594.1067456094639
 30
0.0
 10
703.5628503475142
 20
594.1069002596963
 30
0.0
 10
702.8068039287942
 20
594.1069615055528
 30
0.0
 10
702.5549442132277
 20
594.106946580333
 30
0.0
 10
702.0512937723548
 20
594.1068129494456
 30
0.0
 10
701.7995556129587
 20
594.1066878938585
 30
0.0
 10
701.5471750420584
 20
594.1065621315462
 30
0.0
  0
LINE
  5
241
330
1F
100
AcDbEntity
  8
0
  6
Continuous
 62
     8
370
    18
100
AcDbLine
 10
679.1932245508
 20
595.3015447914
 30
0.0
 11
698.4260806605
 21
595.3015447914
 31
0.0
  0
SPLINE
  5
242
330
1F
100
AcDbEntity
  8
0
  6
Continuous
 62
     8
370
    18
100
AcDbSpline
210
0.0
220
0.0
230
1.0
 70
     8
 71
     3
 72
    16
 73
    12
 74
     0
 42
0.000000001
 43
0.00000001
 40
0.0
 40
0.0
 40
0.0
 40
0.0
 40
0.0624999999999996
 40
0.0624999999999996
 40
0.1249999999999992
 40
0.1249999999999992
 40
0.2499999999999991
 40
0.2499999999999991
 40
0.4999999999999993
 40
0.4999999999999993
 40
1.0
 40
1.0
 40
1.0
 40
1.0
 10
862.0653162995816
 20
594.0900297029413
 30
0.0
 10
859.2297127057403
 20
594.0938435022103
 30
0.0
 10
856.3941085126457
 20
594.0931069172866
 30
0.0
 10
850.7229003005166
 20
594.0929554596253
 30
0.0
 10
847.8872961870463
 20
594.092823496761
 30
0.0
 10
839.3804839655028
 20
594.0933302158684
 30
0.0
 10
833.709275869311
 20
594.0940613623834
 30
0.0
 10
816.6956514553505
 20
594.0952887964395
 30
0.0
 10
805.3532351848294
 20
594.096178422237
 30
0.0
 10
771.3259863715796
 20
594.0988252342912
 30
0.0
 10
748.6411538147671
 20
594.1003633518397
 30
0.0
 10
725.9563212788205
 20
594.1022308319423
 30
0.0
  0
SPLINE
  5
243
330
1F
100
AcDbEntity
  8
0
  6
Continuous
 62
     8
370
    18
100
AcDbSpline
210
0.0
220
0.0
230
1.0
 70
     8
 71
     3
 72
     8
 73
     4
 74
     0
 42
0.000000001
 43
0.00000001
 40
0.0
 40
0.0
 40
0.0
 40
0.0
 40
0.0011619024810406
 40
0.0011619024810406
 40
0.0011619024810406
 40
0.0011619024810406
 10
863.2272151244955
 20
594.0871575427627
 30
0.0
 10
862.8399157555376
 20
594.0882067577866
 30
0.0
 10
862.452616103133
 20
594.0891553339942
 30
0.0
 10
862.0653162609746
 20
594.0900122537267
 30
0.0
  0
SPLINE
  5
244
330
1F
100
AcDbEntity
  8
0
  6
Continuous
 62
     8
370
    18
100
AcDbSpline
210
0.0
220
0.0
230
1.0
 70
    24
 71
     3
 72
     8
 73
     4
 74
     0
 42
0.000000001
 43
0.00000001
 40
0.0
 40
0.0
 40
0.0
 40
0.0
 40
0.943216105677887
 40
0.943216105677887
 40
0.943216105677887
 40
0.943216105677887
 10
698.4260806605176
 20
595.4791943608883
 30
0.0
 10
698.4260806605176
 20
595.4791943608883
 30
0.0
 10
698.4260806605176
 20
595.4217249775926
 30
0.0
 10
698.4260806605176
 20
595.3015766638442
 30
0.0
  0
SPLINE
  5
245
330
1F
100
AcDbEntity
  8
0
  6
Continuous
 62
     8
370
    18
100
AcDbSpline
210
0.0
220
0.0
230
1.0
 70
     8
 71
     3
 72
    18
 73
    14
 74
     0
 42
0.000000001
 43
0.00000001
 40
0.0
 40
0.0
 40
0.0
 40
0.0
 40
0.1055415038083811
 40
0.2116983476138554
 40
0.3143220113725273
 40
0.4211785959047807
 40
0.533175494499958
 40
0.6198717741672504
 40
0.7105811231261544
 40
0.8057279907173984
 40
0.8987637332317988
 40
0.9916963268209175
 40
1.0
 40
1.0
 40
1.0
 40
1.0
 10
862.0658496186094
 20
595.2899814902904
 30
0.0
 10
861.7283119755327
 20
595.2942532095753
 30
0.0
 10
861.0512687392858
 20
595.3028215536052
 30
0.0
 10
860.2323560760611
 20
595.316788785709
 30
0.0
 10
859.5430240594029
 20
595.3303314310557
 30
0.0
 10
858.9809640162313
 20
595.3431098204038
 30
0.0
 10
858.5703261948479
 20
595.3538003578248
 30
0.0
 10
858.2771932641505
 20
595.3624765419316
 30
0.0
 10
858.0737548257135
 20
595.3693068082041
 30
0.0
 10
857.9336091724596
 20
595.374890789507
 30
0.0
 10
857.8587982774985
 20
595.3789516474639
 30
0.0
 10
857.8340468883099
 20
595.381149338551
 30
0.0
 10
857.8393279294285
 20
595.381615221012
 30
0.0
 10
857.8397610947446
 20
595.381653433955
 30
0.0
  0
LWPOLYLINE
  5
246
330
1F
100
AcDbEntity
  8
0
  6
Continuous
 62
     8
370
    18
100
AcDbPolyline
 90
        7
 70
   128
 43
0.0
 10
725.9559070483
 20
595.3020216285
 10
728.3559066966
 20
595.3018577158
 10
737.9559034273
 20
595.301231867
 10
776.3558978006
 20
595.2982814371
 10
819.2111531064
 20
595.2950031816
 10
828.7207016513
 20
595.2943326294
 10
862.0664158627
 20
595.2899814903
  0
SPLINE
  5
247
330
1F
100
AcDbEntity
  8
0
  6
Continuous
 62
     8
370
    18
100
AcDbSpline
210
0.0
220
0.0
230
1.0
 70
     8
 71
     3
 72
    15
 73
    11
 74
     0
 42
0.000000001
 43
0.00000001
 40
0.0
 40
0.0
 40
0.0
 40
0.0
 40
0.4999999999999997
 40
0.4999999999999997
 40
0.7499999999999996
 40
0.7499999999999996
 40
0.8749999999999997
 40
0.9374999999999998
 40
0.9374999999999998
 40
1.0
 40
1.0
 40
1.0
 40
1.0
 10
865.1467919298361
 20
581.4072224534752
 30
0.0
 10
865.1474535709815
 20
581.4070863446003
 30
0.0
 10
865.135361035449
 20
581.409116387209
 30
0.0
 10
865.1049454971438
 20
581.4159358642854
 30
0.0
 10
865.0928464255469
 20
581.4188565414853
 30
0.0
 10
865.0729841810253
 20
581.4242284235173
 30
0.0
 10
865.0626251119483
 20
581.4271598610868
 30
0.0
 10
865.0518421883293
 20
581.4304409201019
 30
0.0
 10
865.0445816121808
 20
581.4327023427569
 30
0.0
 10
865.0394932050681
 20
581.4310423927205
 30
0.0
 10
865.0169721685116
 20
581.4339936403697
 30
0.0
  0
SPLINE
  5
248
330
1F
100
AcDbEntity
  8
0
  6
Continuous
 62
     8
370
    18
100
AcDbSpline
210
0.0
220
0.0
230
1.0
 70
     8
 71
     3
 72
    22
 73
    18
 74
     0
 42
0.000000001
 43
0.00000001
 40
0.0
 40
0.0
 40
0.0
 40
0.0
 40
0.250000000000014
 40
0.250000000000014
 40
0.375000000000019
 40
0.375000000000019
 40
0.4375000000000226
 40
0.4375000000000226
 40
0.5000000000000261
 40
0.5000000000000261
 40
0.6250000000000197
 40
0.6250000000000197
 40
0.7500000000000131
 40
0.7500000000000131
 40
0.8750000000000067
 40
0.8750000000000067
 40
1.0
 40
1.0
 40
1.0
 40
1.0
 10
865.8260806605176
 20
594.0872314826443
 30
0.0
 10
865.8260806605176
 20
594.0862301474385
 30
0.0
 10
865.819601665659
 20
594.0855401589142
 30
0.0
 10
865.7013469774887
 20
594.0848534623966
 30
0.0
 10
865.6447184755791
 20
594.0846884742334
 30
0.0
 10
865.5249344050844
 20
594.0845443575186
 30
0.0
 10
865.4795347246476
 20
594.0845134394517
 30
0.0
 10
865.3760296581816
 20
594.0844756846769
 30
0.0
 10
865.3171874622559
 20
594.0844682452025
 30
0.0
 10
865.1254583423147
 20
594.0844668564979
 30
0.0
 10
864.9759761154489
 20
594.08449201902
 30
0.0
 10
864.6504492353542
 20
594.0846764920236
 30
0.0
 10
864.4797240617582
 20
594.0848330382896
 30
0.0
 10
864.1276564279191
 20
594.085275703256
 30
0.0
 10
863.9474299076376
 20
594.0855587756341
 30
0.0
 10
863.588062788494
 20
594.0862514628315
 30
0.0
 10
863.4076589050121
 20
594.0866687107613
 30
0.0
 10
863.2272151244955
 20
594.0871575427622
 30
0.0
  0
LWPOLYLINE
  5
249
330
1F
100
AcDbEntity
  8
0
  6
Continuous
 62
     8
370
    18
100
AcDbPolyline
 90
        9
 70
   128
 43
0.0
 10
863.2272163197
 20
594.0871597587
 10
863.2278421685
 20
594.3203629314
 10
863.2284084126
 20
594.544685012
 10
863.2289299533
 20
594.7515578329
 10
863.2293471858
 20
594.9330986797
 10
863.2296750113
 20
595.0823785125
 10
863.2298985288
 20
595.1937050878
 10
863.2299879357
 20
595.2628315746
 10
863.2299432322
 20
595.2871353685
  0
SPLINE
  5
24A
330
1F
100
AcDbEntity
  8
0
  6
Continuous
 62
     8
370
    18
100
AcDbSpline
210
0.0
220
0.0
230
1.0
 70
     8
 71
     3
 72
    22
 73
    18
 74
     0
 42
0.000000001
 43
0.00000001
 40
0.0
 40
0.0
 40
0.0
 40
0.0
 40
0.249999999999997
 40
0.249999999999997
 40
0.3749999999999958
 40
0.3749999999999958
 40
0.4374999999999957
 40
0.4374999999999957
 40
0.4999999999999958
 40
0.4999999999999958
 40
0.5624999999999958
 40
0.5624999999999958
 40
0.6249999999999958
 40
0.6249999999999958
 40
0.7499999999999959
 40
0.7499999999999959
 40
1.0
 40
1.0
 40
1.0
 40
1.0
 10
863.2299455037106
 20
595.2871309310613
 30
0.0
 10
863.4333339631629
 20
595.2865824343747
 30
0.0
 10
863.6367620451344
 20
595.2860107728036
 30
0.0
 10
863.9397324545171
 20
595.2852677974938
 30
0.0
 10
864.0409774057913
 20
595.2850357322383
 30
0.0
 10
864.186932356275
 20
595.2847428941797
 30
0.0
 10
864.234732514836
 20
595.28465387115
 30
0.0
 10
864.3273122047468
 20
595.2845092308206
 30
0.0
 10
864.3720371047322
 20
595.2844514696627
 30
0.0
 10
864.4454135812006
 20
595.2844500070362
 30
0.0
 10
864.4724534345412
 20
595.2845090645682
 30
0.0
 10
864.5172125679469
 20
595.2846587103568
 30
0.0
 10
864.5348230610076
 20
595.2847517132655
 30
0.0
 10
864.5791546425453
 20
595.2850567422086
 30
0.0
 10
864.5971696083799
 20
595.2852950528159
 30
0.0
 10
864.6332340164153
 20
595.2860552810108
 30
0.0
 10
864.6330580491933
 20
595.2866401132945
 30
0.0
 10
864.6335255858396
 20
595.2872037658957
 30
0.0
  0
ARC
  5
24B
330
1F
100
AcDbEntity
  8
0
  6
Continuous
 62
     8
370
    18
100
AcDbCircle
 10
864.6260713836
 20
594.0872212869
 30
0.0
 40
1.200011756503416
100
AcDbArc
 50
0.0006196322
 51
89.6439592579
  0
ARC
  5
24C
330
1F
100
AcDbEntity
  8
0
  6
Continuous
 62
     8
370
    18
100
AcDbCircle
 10
864.5269639391
 20
582.6371542846
 30
0.0
 40
1.299119223199172
100
AcDbArc
 50
292.1590791785
 51
359.9893929925
  0
SPLINE
  5
24D
330
1F
100
AcDbEntity
  8
0
  6
Continuous
 62
     8
370
    18
100
AcDbSpline
210
0.0
220
0.0
230
1.0
 70
     8
 71
     3
 72
     8
 73
     4
 74
     0
 42
0.000000001
 43
0.00000001
 40
0.0
 40
0.0
 40
0.0
 40
0.0
 40
0.0011648353155349
 40
0.0011648353155349
 40
0.0011648353155349
 40
0.0011648353155349
 10
862.0651166425506
 20
595.2899774638047
 30
0.0
 10
862.4533933104855
 20
595.2891237401213
 30
0.0
 10
862.841669644276
 20
595.2881780308962
 30
0.0
 10
863.2299455037102
 20
595.2871309310613
 30
0.0
  0
SPLINE
  5
24E
330
1F
100
AcDbEntity
  8
0
  6
Continuous
 62
     8
370
    18
100
AcDbSpline
210
0.0
220
0.0
230
1.0
 70
     8
 71
     3
 72
    11
 73
     7
 74
     0
 42
0.000000001
 43
0.00000001
 40
0.0
 40
0.0
 40
0.0
 40
0.0
 40
0.0078161432538403
 40
0.0078161432538403
 40
0.0078161432538403
 40
0.0156314790816575
 40
0.0156314790816575
 40
0.0156314790816575
 40
0.0156314790816575
 10
864.6335255858396
 20
595.2872037658957
 30
0.0
 10
864.6394930130404
 20
595.2943979738593
 30
0.0
 10
864.643707846613
 20
595.2977503429953
 30
0.0
 10
864.6478734179142
 20
595.3026390183418
 30
0.0
 10
864.6520385588741
 20
595.3075271886439
 30
0.0
 10
864.6571088816698
 20
595.3142768062311
 30
0.0
 10
864.6621642109101
 20
595.3185732762537
 30
0.0
  0
LINE
  5
24F
330
1F
100
AcDbEntity
  8
0
  6
Continuous
 62
     7
370
    18
100
AcDbLine
 10
694.9976611477
 20
438.9909956374
 30
0.0
 11
701.8544994409
 21
438.9912289629
 31
0.0
  0
ENDSEC
  0
SECTION
  2
OBJECTS
  0
DICTIONARY
  5
C
330
0
100
AcDbDictionary
281
     1
  3
ACAD_GROUP
350
D
  3
ACAD_LAYOUT
350
1A
  3
ACAD_MLINESTYLE
350
17
  3
ACAD_PLOTSETTINGS
350
19
  3
ACAD_PLOTSTYLENAME
350
E
  3
ACAD_SCALELIST
350
47
  0
DICTIONARY
  5
D
102
{ACAD_REACTORS
330
C
102
}
330
C
100
AcDbDictionary
281
     1
  0
DICTIONARY
  5
1A
102
{ACAD_REACTORS
330
C
102
}
330
C
100
AcDbDictionary
281
     1
  3
Layout1
350
1E
  3
Layout2
350
26
  3
Model
350
22
  0
DICTIONARY
  5
17
102
{ACAD_REACTORS
330
C
102
}
330
C
100
AcDbDictionary
281
     1
  3
Standard
350
18
  0
DICTIONARY
  5
19
102
{ACAD_REACTORS
330
C
102
}
330
C
100
AcDbDictionary
281
     1
  0
ACDBDICTIONARYWDFLT
  5
E
102
{ACAD_REACTORS
330
C
102
}
330
C
100
AcDbDictionary
281
     1
  3
Normal
350
F
100
AcDbDictionaryWithDefault
340
F
  0
DICTIONARY
  5
47
102
{ACAD_REACTORS
330
C
102
}
330
C
100
AcDbDictionary
281
     1
  3
A0
350
48
  3
A1
350
49
  3
A2
350
4A
  3
A3
350
4B
  3
A4
350
4C
  3
A5
350
4D
  3
A6
350
4E
  3
A7
350
4F
  3
A8
350
50
  3
A9
350
51
  3
B0
350
52
  3
B1
350
53
  3
B2
350
54
  3
B3
350
55
  3
B4
350
56
  3
B5
350
57
  3
B6
350
58
  3
B7
350
59
  3
B8
350
5A
  3
B9
350
5B
  3
C0
350
5C
  3
C1
350
5D
  3
C2
350
5E
  3
C3
350
5F
  3
C4
350
60
  3
C5
350
61
  3
C6
350
62
  3
C7
350
63
  3
C8
350
64
  3
C9
350
65
  3
D0
350
66
  3
D1
350
67
  3
D2
350
68
  0
LAYOUT
  5
1E
102
{ACAD_REACTORS
330
1A
102
}
330
1A
100
AcDbPlotSettings
  1

  2
none_device
  4

  6

 40
0.0
 41
0.0
 42
0.0
 43
0.0
 44
0.0
 45
0.0
 46
0.0
 47
0.0
 48
0.0
 49
0.0
140
0.0
141
0.0
142
1.0
143
1.0
 70
   688
 72
     1
 73
     0
 74
     5
  7

 75
    16
147
1.0
148
0.0
149
0.0
100
AcDbLayout
  1
Layout1
 70
     1
 71
     1
 10
0.0
 20
0.0
 11
420.0
 21
297.0
 12
0.0
 22
0.0
 32
0.0
 14
1.0000000000E+20
 24
1.0000000000E+20
 34
1.0000000000E+20
 15
-1.0000000000E+20
 25
-1.0000000000E+20
 35
-1.0000000000E+20
146
0.0
 13
0.0
 23
0.0
 33
0.0
 16
1.0
 26
0.0
 36
0.0
 17
0.0
 27
1.0
 37
0.0
 76
     0
330
1B
  0
LAYOUT
  5
26
102
{ACAD_REACTORS
330
1A
102
}
330
1A
100
AcDbPlotSettings
  1

  2
none_device
  4

  6

 40
0.0
 41
0.0
 42
0.0
 43
0.0
 44
0.0
 45
0.0
 46
0.0
 47
0.0
 48
0.0
 49
0.0
140
0.0
141
0.0
142
1.0
143
1.0
 70
   688
 72
     1
 73
     0
 74
     5
  7

 75
    16
147
1.0
148
0.0
149
0.0
100
AcDbLayout
  1
Layout2
 70
     1
 71
     2
 10
0.0
 20
0.0
 11
0.0
 21
0.0
 12
0.0
 22
0.0
 32
0.0
 14
0.0
 24
0.0
 34
0.0
 15
0.0
 25
0.0
 35
0.0
146
0.0
 13
0.0
 23
0.0
 33
0.0
 16
1.0
 26
0.0
 36
0.0
 17
0.0
 27
1.0
 37
0.0
 76
     0
330
23
  0
LAYOUT
  5
22
102
{ACAD_REACTORS
330
1A
102
}
330
1A
100
AcDbPlotSettings
  1

  2
none_device
  4
Letter_(8.50_x_11.00_Inches)
  6

 40
6.35
 41
6.35
 42
6.35000508
 43
6.35000508
 44
215.9
 45
279.4
 46
0.0
 47
0.0
 48
0.0
 49
0.0
140
0.0
141
0.0
142
1.0
143
1.0
 70
  1712
 72
     1
 73
     0
 74
     0
  7

 75
     0
147
1.0
148
0.0
149
0.0
100
AcDbLayout
  1
Model
 70
     1
 71
     0
 10
0.0
 20
0.0
 11
1189.0
 21
841.0
 12
0.0
 22
0.0
 32
0.0
 14
0.0
 24
0.0
 34
0.0
 15
1189.0
 25
841.0
 35
0.0
146
0.0
 13
0.0
 23
0.0
 33
0.0
 16
1.0
 26
0.0
 36
0.0
 17
0.0
 27
1.0
 37
0.0
 76
     0
330
1F
331
29
  0
MLINESTYLE
  5
18
102
{ACAD_REACTORS
330
17
102
}
330
17
100
AcDbMlineStyle
  2
Standard
 70
     0
  3

 62
   256
 51
90.0
 52
90.0
 71
     2
 49
0.5
 62
   256
  6
BYLAYER
 49
-0.5
 62
   256
  6
BYLAYER
  0
ACDBPLACEHOLDER
  5
F
102
{ACAD_REACTORS
330
E
102
}
330
E
  0
SCALE
  5
48
102
{ACAD_REACTORS
330
47
102
}
330
47
100
AcDbScale
 70
     0
300
1:1
140
1.0
141
1.0
290
     1
  0
SCALE
  5
49
102
{ACAD_REACTORS
330
47
102
}
330
47
100
AcDbScale
 70
     0
300
1:2
140
1.0
141
2.0
290
     0
  0
SCALE
  5
4A
102
{ACAD_REACTORS
330
47
102
}
330
47
100
AcDbScale
 70
     0
300
1:4
140
1.0
141
4.0
290
     0
  0
SCALE
  5
4B
102
{ACAD_REACTORS
330
47
102
}
330
47
100
AcDbScale
 70
     0
300
1:5
140
1.0
141
5.0
290
     0
  0
SCALE
  5
4C
102
{ACAD_REACTORS
330
47
102
}
330
47
100
AcDbScale
 70
     0
300
1:8
140
1.0
141
8.0
290
     0
  0
SCALE
  5
4D
102
{ACAD_REACTORS
330
47
102
}
330
47
100
AcDbScale
 70
     0
300
1:10
140
1.0
141
10.0
290
     0
  0
SCALE
  5
4E
102
{ACAD_REACTORS
330
47
102
}
330
47
100
AcDbScale
 70
     0
300
1:16
140
1.0
141
16.0
290
     0
  0
SCALE
  5
4F
102
{ACAD_REACTORS
330
47
102
}
330
47
100
AcDbScale
 70
     0
300
1:20
140
1.0
141
20.0
290
     0
  0
SCALE
  5
50
102
{ACAD_REACTORS
330
47
102
}
330
47
100
AcDbScale
 70
     0
300
1:30
140
1.0
141
30.0
290
     0
  0
SCALE
  5
51
102
{ACAD_REACTORS
330
47
102
}
330
47
100
AcDbScale
 70
     0
300
1:40
140
1.0
141
40.0
290
     0
  0
SCALE
  5
52
102
{ACAD_REACTORS
330
47
102
}
330
47
100
AcDbScale
 70
     0
300
1:50
140
1.0
141
50.0
290
     0
  0
SCALE
  5
53
102
{ACAD_REACTORS
330
47
102
}
330
47
100
AcDbScale
 70
     0
300
1:100
140
1.0
141
100.0
290
     0
  0
SCALE
  5
54
102
{ACAD_REACTORS
330
47
102
}
330
47
100
AcDbScale
 70
     0
300
2:1
140
2.0
141
1.0
290
     0
  0
SCALE
  5
55
102
{ACAD_REACTORS
330
47
102
}
330
47
100
AcDbScale
 70
     0
300
4:1
140
4.0
141
1.0
290
     0
  0
SCALE
  5
56
102
{ACAD_REACTORS
330
47
102
}
330
47
100
AcDbScale
 70
     0
300
8:1
140
8.0
141
1.0
290
     0
  0
SCALE
  5
57
102
{ACAD_REACTORS
330
47
102
}
330
47
100
AcDbScale
 70
     0
300
10:1
140
10.0
141
1.0
290
     0
  0
SCALE
  5
58
102
{ACAD_REACTORS
330
47
102
}
330
47
100
AcDbScale
 70
     0
300
100:1
140
100.0
141
1.0
290
     0
  0
SCALE
  5
59
102
{ACAD_REACTORS
330
47
102
}
330
47
100
AcDbScale
 70
     0
300
1/128" = 1'-0"
140
0.0078125
141
12.0
290
     0
  0
SCALE
  5
5A
102
{ACAD_REACTORS
330
47
102
}
330
47
100
AcDbScale
 70
     0
300
1/64" = 1'-0"
140
0.015625
141
12.0
290
     0
  0
SCALE
  5
5B
102
{ACAD_REACTORS
330
47
102
}
330
47
100
AcDbScale
 70
     0
300
1/32" = 1'-0"
140
0.03125
141
12.0
290
     0
  0
SCALE
  5
5C
102
{ACAD_REACTORS
330
47
102
}
330
47
100
AcDbScale
 70
     0
300
1/16" = 1'-0"
140
0.0625
141
12.0
290
     0
  0
SCALE
  5
5D
102
{ACAD_REACTORS
330
47
102
}
330
47
100
AcDbScale
 70
     0
300
3/32" = 1'-0"
140
0.09375
141
12.0
290
     0
  0
SCALE
  5
5E
102
{ACAD_REACTORS
330
47
102
}
330
47
100
AcDbScale
 70
     0
300
1/8" = 1'-0"
140
0.125
141
12.0
290
     0
  0
SCALE
  5
5F
102
{ACAD_REACTORS
330
47
102
}
330
47
100
AcDbScale
 70
     0
300
3/16" = 1'-0"
140
0.1875
141
12.0
290
     0
  0
SCALE
  5
60
102
{ACAD_REACTORS
330
47
102
}
330
47
100
AcDbScale
 70
     0
300
1/4" = 1'-0"
140
0.25
141
12.0
290
     0
  0
SCALE
  5
61
102
{ACAD_REACTORS
330
47
102
}
330
47
100
AcDbScale
 70
     0
300
3/8" = 1'-0"
140
0.375
141
12.0
290
     0
  0
SCALE
  5
62
102
{ACAD_REACTORS
330
47
102
}
330
47
100
AcDbScale
 70
     0
300
1/2" = 1'-0"
140
0.5
141
12.0
290
     0
  0
SCALE
  5
63
102
{ACAD_REACTORS
330
47
102
}
330
47
100
AcDbScale
 70
     0
300
3/4" = 1'-0"
140
0.75
141
12.0
290
     0
  0
SCALE
  5
64
102
{ACAD_REACTORS
330
47
102
}
330
47
100
AcDbScale
 70
     0
300
1" = 1'-0"
140
1.0
141
12.0
290
     0
  0
SCALE
  5
65
102
{ACAD_REACTORS
330
47
102
}
330
47
100
AcDbScale
 70
     0
300
1-1/2" = 1'-0"
140
1.5
141
12.0
290
     0
  0
SCALE
  5
66
102
{ACAD_REACTORS
330
47
102
}
330
47
100
AcDbScale
 70
     0
300
3" = 1'-0"
140
3.0
141
12.0
290
     0
  0
SCALE
  5
67
102
{ACAD_REACTORS
330
47
102
}
330
47
100
AcDbScale
 70
     0
300
6" = 1'-0"
140
6.0
141
12.0
290
     0
  0
SCALE
  5
68
102
{ACAD_REACTORS
330
47
102
}
330
47
100
AcDbScale
 70
     0
300
1'-0" = 1'-0"
140
12.0
141
12.0
290
     0
  0
ENDSEC
  0
EOF
