  0
SECTION
  2
HEADER
  9
$ACADVER
  1
AC1015
  9
$ACADMAINTVER
 70
     6
  9
$DWGCODEPAGE
  3
ANSI_1252
  9
$INSBASE
 10
0.0
 20
0.0
 30
0.0
  9
$EXTMIN
 10
0.0
 20
0.0
 30
0.0
  9
$EXTMAX
 10
594.0
 20
841.0
 30
0.0
  9
$LIMMIN
 10
0.0
 20
0.0
  9
$LIMMAX
 10
594.0
 20
841.0
  9
$ORTHOMODE
 70
     0
  9
$REGENMODE
 70
     1
  9
$FILLMODE
 70
     1
  9
$QTEXTMODE
 70
     0
  9
$MIRRTEXT
 70
     1
  9
$LTSCALE
 40
1.0
  9
$ATTMODE
 70
     1
  9
$TEXTSIZE
 40
10.0
  9
$TRACEWID
 40
1.0
  9
$TEXTSTYLE
  7
Standard
  9
$CLAYER
  8
0
  9
$CELTYPE
  6
ByLayer
  9
$CECOLOR
 62
   256
  9
$CELTSCALE
 40
1.0
  9
$DISPSILH
 70
     0
  9
$DIMSCALE
 40
1.0
  9
$DIMASZ
 40
2.5
  9
$DIMEXO
 40
0.0
  9
$DIMDLI
 40
3.75
  9
$DIMRND
 40
0.0
  9
$DIMDLE
 40
0.0
  9
$DIMEXE
 40
1.0
  9
$DIMTP
 40
0.0
  9
$DIMTM
 40
0.0
  9
$DIMTXT
 40
3.5
  9
$DIMCEN
 40
2.5
  9
$DIMTSZ
 40
0.0
  9
$DIMTOL
 70
     0
  9
$DIMLIM
 70
     0
  9
$DIMTIH
 70
     1
  9
$DIMTOH
 70
     1
  9
$DIMSE1
 70
     0
  9
$DIMSE2
 70
     0
  9
$DIMTAD
 70
     1
  9
$DIMZIN
 70
     0
  9
$DIMBLK
  1

  9
$DIMASO
 70
     1
  9
$DIMSHO
 70
     1
  9
$DIMPOST
  1

  9
$DIMAPOST
  1

  9
$DIMALT
 70
     0
  9
$DIMALTD
 70
     3
  9
$DIMALTF
 40
0.0393700787
  9
$DIMLFAC
 40
1.0
  9
$DIMTOFL
 70
     1
  9
$DIMTVP
 40
0.0
  9
$DIMTIX
 70
     0
  9
$DIMSOXD
 70
     0
  9
$DIMSAH
 70
     0
  9
$DIMBLK1
  1

  9
$DIMBLK2
  1

  9
$DIMSTYLE
  2
ISO-25
  9
$DIMCLRD
 70
     0
  9
$DIMCLRE
 70
     0
  9
$DIMCLRT
 70
     0
  9
$DIMTFAC
 40
1.0
  9
$DIMGAP
 40
1.5
  9
$DIMJUST
 70
     0
  9
$DIMSD1
 70
     0
  9
$DIMSD2
 70
     0
  9
$DIMTOLJ
 70
     0
  9
$DIMTZIN
 70
     0
  9
$DIMALTZ
 70
     0
  9
$DIMALTTZ
 70
     0
  9
$DIMUPT
 70
     0
  9
$DIMDEC
 70
     2
  9
$DIMTDEC
 70
     2
  9
$DIMALTU
 70
     2
  9
$DIMALTTD
 70
     3
  9
$DIMTXSTY
  7
Standard
  9
$DIMAUNIT
 70
     0
  9
$DIMADEC
 70
     2
  9
$DIMALTRND
 40
0.0
  9
$DIMAZIN
 70
     0
  9
$DIMDSEP
 70
    44
  9
$DIMATFIT
 70
     3
  9
$DIMFRAC
 70
     0
  9
$DIMLDRBLK
  1

  9
$DIMLUNIT
 70
     2
  9
$DIMLWD
 70
    -2
  9
$DIMLWE
 70
    -2
  9
$DIMTMOVE
 70
     0
  9
$LUNITS
 70
     2
  9
$LUPREC
 70
     2
  9
$SKETCHINC
 40
1.0
  9
$FILLETRAD
 40
10.0
  9
$AUNITS
 70
     0
  9
$AUPREC
 70
     2
  9
$MENU
  1
.
  9
$ELEVATION
 40
0.0
  9
$PELEVATION
 40
0.0
  9
$THICKNESS
 40
0.0
  9
$LIMCHECK
 70
     0
  9
$CHAMFERA
 40
0.0
  9
$CHAMFERB
 40
0.0
  9
$CHAMFERC
 40
0.0
  9
$CHAMFERD
 40
0.0
  9
$SKPOLY
 70
     0
  9
$TDCREATE
 40
2458786.645641238
  9
$TDUCREATE
 40
2458786.603974572
  9
$TDUPDATE
 40
2458786.645641968
  9
$TDUUPDATE
 40
2458786.603975301
  9
$TDINDWG
 40
0.0000000116
  9
$TDUSRTIMER
 40
0.0000000116
  9
$USRTIMER
 70
     1
  9
$ANGBASE
 50
0.0
  9
$ANGDIR
 70
     0
  9
$PDMODE
 70
     0
  9
$PDSIZE
 40
-1.0
  9
$PLINEWID
 40
0.0
  9
$SPLFRAME
 70
     0
  9
$SPLINETYPE
 70
     6
  9
$SPLINESEGS
 70
     8
  9
$HANDSEED
  5
21C
  9
$SURFTAB1
 70
     6
  9
$SURFTAB2
 70
     6
  9
$SURFTYPE
 70
     6
  9
$SURFU
 70
     6
  9
$SURFV
 70
     6
  9
$UCSBASE
  2

  9
$UCSNAME
  2

  9
$UCSORG
 10
0.0
 20
0.0
 30
0.0
  9
$UCSXDIR
 10
1.0
 20
0.0
 30
0.0
  9
$UCSYDIR
 10
0.0
 20
1.0
 30
0.0
  9
$UCSORTHOREF
  2

  9
$UCSORTHOVIEW
 70
     0
  9
$UCSORGTOP
 10
0.0
 20
0.0
 30
0.0
  9
$UCSORGBOTTOM
 10
0.0
 20
0.0
 30
0.0
  9
$UCSORGLEFT
 10
0.0
 20
0.0
 30
0.0
  9
$UCSORGRIGHT
 10
0.0
 20
0.0
 30
0.0
  9
$UCSORGFRONT
 10
0.0
 20
0.0
 30
0.0
  9
$UCSORGBACK
 10
0.0
 20
0.0
 30
0.0
  9
$PUCSBASE
  2

  9
$PUCSNAME
  2

  9
$PUCSORG
 10
0.0
 20
0.0
 30
0.0
  9
$PUCSXDIR
 10
1.0
 20
0.0
 30
0.0
  9
$PUCSYDIR
 10
0.0
 20
1.0
 30
0.0
  9
$PUCSORTHOREF
  2

  9
$PUCSORTHOVIEW
 70
     0
  9
$PUCSORGTOP
 10
0.0
 20
0.0
 30
0.0
  9
$PUCSORGBOTTOM
 10
0.0
 20
0.0
 30
0.0
  9
$PUCSORGLEFT
 10
0.0
 20
0.0
 30
0.0
  9
$PUCSORGRIGHT
 10
0.0
 20
0.0
 30
0.0
  9
$PUCSORGFRONT
 10
0.0
 20
0.0
 30
0.0
  9
$PUCSORGBACK
 10
0.0
 20
0.0
 30
0.0
  9
$USERI1
 70
     0
  9
$USERI2
 70
     0
  9
$USERI3
 70
     0
  9
$USERI4
 70
     0
  9
$USERI5
 70
     0
  9
$USERR1
 40
0.0
  9
$USERR2
 40
0.0
  9
$USERR3
 40
0.0
  9
$USERR4
 40
0.0
  9
$USERR5
 40
0.0
  9
$WORLDVIEW
 70
     1
  9
$SHADEDGE
 70
     3
  9
$SHADEDIF
 70
    70
  9
$TILEMODE
 70
     1
  9
$MAXACTVP
 70
    64
  9
$PINSBASE
 10
0.0
 20
0.0
 30
0.0
  9
$PLIMCHECK
 70
     0
  9
$PEXTMIN
 10
1.0000000000E+20
 20
1.0000000000E+20
 30
1.0000000000E+20
  9
$PEXTMAX
 10
-1.0000000000E+20
 20
-1.0000000000E+20
 30
-1.0000000000E+20
  9
$PLIMMIN
 10
0.0
 20
0.0
  9
$PLIMMAX
 10
420.0
 20
297.0
  9
$UNITMODE
 70
     0
  9
$VISRETAIN
 70
     1
  9
$PLINEGEN
 70
     0
  9
$PSLTSCALE
 70
     1
  9
$TREEDEPTH
 70
  3020
  9
$CMLSTYLE
  2
Standard
  9
$CMLJUST
 70
     0
  9
$CMLSCALE
 40
20.0
  9
$PROXYGRAPHICS
 70
     1
  9
$MEASUREMENT
 70
     1
  9
$CELWEIGHT
370
    -1
  9
$ENDCAPS
280
     0
  9
$JOINSTYLE
280
     0
  9
$LWDISPLAY
290
     1
  9
$INSUNITS
 70
     4
  9
$HYPERLINKBASE
  1

  9
$STYLESHEET
  1

  9
$XEDIT
290
     1
  9
$CEPSNTYPE
380
     0
  9
$PSTYLEMODE
290
     1
  9
$FINGERPRINTGUID
  2
{a0964dba-8b9b-4880-92ea-3d3a5f566888}
  9
$VERSIONGUID
  2
{FAEB1C32-E019-11D5-929B-00C0DF256EC4}
  9
$EXTNAMES
290
     1
  9
$PSVPSCALE
 40
0.0
  9
$OLESTARTUP
290
     0
  0
ENDSEC
  0
SECTION
  2
CLASSES
  0
CLASS
  1
ACDBDICTIONARYWDFLT
  2
AcDbDictionaryWithDefault
  3
ObjectDBX Classes
 90
        0
280
     0
281
     0
  0
CLASS
  1
VISUALSTYLE
  2
AcDbVisualStyle
  3
ObjectDBX Classes
 90
     4095
280
     0
281
     0
  0
CLASS
  1
MATERIAL
  2
AcDbMaterial
  3
ObjectDBX Classes
 90
     1153
280
     0
281
     0
  0
CLASS
  1
SCALE
  2
AcDbScale
  3
ObjectDBX Classes
 90
     1153
280
     0
281
     0
  0
CLASS
  1
TABLESTYLE
  2
AcDbTableStyle
  3
ObjectDBX Classes
 90
     4095
280
     0
281
     0
  0
CLASS
  1
MLEADERSTYLE
  2
AcDbMLeaderStyle
  3
ACDB_MLEADERSTYLE_CLASS
 90
     4095
280
     0
281
     0
  0
CLASS
  1
SUN
  2
AcDbSun
  3
SCENEOE
 90
     1153
280
     0
281
     0
  0
CLASS
  1
ACDBPLACEHOLDER
  2
AcDbPlaceHolder
  3
ObjectDBX Classes
 90
        0
280
     0
281
     0
  0
CLASS
  1
LAYOUT
  2
AcDbLayout
  3
ObjectDBX Classes
 90
        0
280
     0
281
     0
  0
ENDSEC
  0
SECTION
  2
TABLES
  0
TABLE
  2
VPORT
  5
8
330
0
100
AcDbSymbolTable
 70
     1
  0
VPORT
  5
29
330
8
100
AcDbSymbolTableRecord
100
AcDbViewportTableRecord
  2
*Active
 70
     0
 10
0.0
 20
0.0
 11
1.0
 21
1.0
 12
297.0
 22
420.5
 13
0.0
 23
0.0
 14
10.0
 24
10.0
 15
10.0
 25
10.0
 16
0.0
 26
0.0
 36
1.0
 17
0.0
 27
0.0
 37
0.0
 40
841.0
 41
0.7063020214
 42
50.0
 43
0.0
 44
0.0
 50
0.0
 51
0.0
 71
     0
 72
  2000
 73
     1
 74
     3
 75
     0
 76
     0
 77
     0
 78
     0
281
     0
 65
     1
110
0.0
120
0.0
130
0.0
111
1.0
121
0.0
131
0.0
112
0.0
122
1.0
132
0.0
 79
     0
146
0.0
  0
ENDTAB
  0
TABLE
  2
LTYPE
  5
5
330
0
100
AcDbSymbolTable
 70
     6
  0
LTYPE
  5
14
330
5
100
AcDbSymbolTableRecord
100
AcDbLinetypeTableRecord
  2
ByBlock
 70
     0
  3

 72
    65
 73
     0
 40
0.0
  0
LTYPE
  5
15
330
5
100
AcDbSymbolTableRecord
100
AcDbLinetypeTableRecord
  2
ByLayer
 70
     0
  3

 72
    65
 73
     0
 40
0.0
  0
LTYPE
  5
16
330
5
100
AcDbSymbolTableRecord
100
AcDbLinetypeTableRecord
  2
Continuous
 70
     0
  3
Solid line
 72
    65
 73
     0
 40
0.0
  0
LTYPE
  5
6E
330
5
100
AcDbSymbolTableRecord
100
AcDbLinetypeTableRecord
  2
HIDDEN
 70
     0
  3
Hidden __ __ __ __ __ __ __ __ __ __ __ __ __ __
 72
    65
 73
     2
 40
1.905
 49
1.27
 74
     0
 49
-0.635
 74
     0
  0
LTYPE
  5
6F
330
5
100
AcDbSymbolTableRecord
100
AcDbLinetypeTableRecord
  2
PHANTOM
 70
     0
  3
Phantom ______  __  __  ______  __  __  ______
 72
    65
 73
     6
 40
12.7
 49
6.35
 74
     0
 49
-1.27
 74
     0
 49
1.27
 74
     0
 49
-1.27
 74
     0
 49
1.27
 74
     0
 49
-1.27
 74
     0
  0
LTYPE
  5
70
330
5
100
AcDbSymbolTableRecord
100
AcDbLinetypeTableRecord
  2
CENTER
 70
     0
  3
Center ____ _ ____ _ ____ _ ____ _ ____ _ ____
 72
    65
 73
     4
 40
10.16
 49
6.35
 74
     0
 49
-1.27
 74
     0
 49
1.27
 74
     0
 49
-1.27
 74
     0
  0
LTYPE
  5
71
330
5
100
AcDbSymbolTableRecord
100
AcDbLinetypeTableRecord
  2
CENTERX2
 70
     0
  3
Center (2x) ________  __  ________  __  _____
 72
    65
 73
     4
 40
20.32
 49
12.7
 74
     0
 49
-2.54
 74
     0
 49
2.54
 74
     0
 49
-2.54
 74
     0
  0
LTYPE
  5
72
330
5
100
AcDbSymbolTableRecord
100
AcDbLinetypeTableRecord
  2
DOT2
 70
     0
  3
Dot (.5x) ........................................
 72
    65
 73
     2
 40
0.635
 49
0.0
 74
     0
 49
-0.635
 74
     0
  0
ENDTAB
  0
TABLE
  2
LAYER
  5
2
330
0
100
AcDbSymbolTable
 70
     1
  0
LAYER
  5
10
330
2
100
AcDbSymbolTableRecord
100
AcDbLayerTableRecord
  2
0
 70
     0
 62
     7
  6
Continuous
370
    -3
390
F
  0
ENDTAB
  0
TABLE
  2
STYLE
  5
3
330
0
100
AcDbSymbolTable
 70
     3
  0
STYLE
  5
11
330
3
100
AcDbSymbolTableRecord
100
AcDbTextStyleTableRecord
  2
Standard
 70
     0
 40
0.0
 41
1.0
 50
0.0
 71
     0
 42
10.0
  3
txt
  4

  0
STYLE
  5
76
330
3
100
AcDbSymbolTableRecord
100
AcDbTextStyleTableRecord
  2
SLDTEXTSTYLE0
 70
     0
 40
0.0
 41
0.96
 50
0.0
 71
     0
 42
10.0
  3
ISOCP3
  4

  0
STYLE
  5
8D
330
3
100
AcDbSymbolTableRecord
100
AcDbTextStyleTableRecord
  2
SLDTEXTSTYLE1
 70
     0
 40
0.0
 41
0.605
 50
0.0
 71
     0
 42
10.0
  3
TXT
  4

  0
ENDTAB
  0
TABLE
  2
VIEW
  5
6
330
0
100
AcDbSymbolTable
 70
     0
  0
ENDTAB
  0
TABLE
  2
UCS
  5
7
330
0
100
AcDbSymbolTable
 70
     0
  0
ENDTAB
  0
TABLE
  2
APPID
  5
9
330
0
100
AcDbSymbolTable
 70
     1
  0
APPID
  5
12
330
9
100
AcDbSymbolTableRecord
100
AcDbRegAppTableRecord
  2
ACAD
 70
     0
  0
ENDTAB
  0
TABLE
  2
DIMSTYLE
  5
A
330
0
100
AcDbSymbolTable
 70
     2
100
AcDbDimStyleTable
  0
DIMSTYLE
105
27
330
A
100
AcDbSymbolTableRecord
100
AcDbDimStyleTableRecord
  2
ISO-25
 70
     0
 41
2.5
 42
0.625
 43
3.75
 44
1.25
 73
     0
 74
     0
 77
     1
 78
     8
140
2.5
141
2.5
143
0.0393700787
147
0.625
171
     3
172
     1
178
     0
271
     2
272
     2
274
     3
278
    44
283
     0
284
     8
340
11
  0
DIMSTYLE
105
77
102
{ACAD_REACTORS
330
75
330
82
102
}
330
A
100
AcDbSymbolTableRecord
100
AcDbDimStyleTableRecord
  2
SLDDIMSTYLE0
 70
     0
 41
2.5
 44
0.0
 45
0.000000001
 73
     0
 74
     0
 77
     1
 78
    12
 79
     3
140
6.0
147
1.5
173
     1
178
     0
271
     2
272
     2
276
     2
284
    12
340
76
  0
ENDTAB
  0
TABLE
  2
BLOCK_RECORD
  5
1
330
0
100
AcDbSymbolTable
 70
     3
  0
BLOCK_RECORD
  5
1F
330
1
100
AcDbSymbolTableRecord
100
AcDbBlockTableRecord
  2
*Model_Space
340
22
  0
BLOCK_RECORD
  5
1B
330
1
100
AcDbSymbolTableRecord
100
AcDbBlockTableRecord
  2
*Paper_Space
340
1E
  0
BLOCK_RECORD
  5
23
330
1
100
AcDbSymbolTableRecord
100
AcDbBlockTableRecord
  2
*Paper_Space0
340
26
  0
BLOCK_RECORD
  5
78
330
1
100
AcDbSymbolTableRecord
100
AcDbBlockTableRecord
  2
_D
340
0
  0
BLOCK_RECORD
  5
83
330
1
100
AcDbSymbolTableRecord
100
AcDbBlockTableRecord
  2
_D_1
340
0
  0
ENDTAB
  0
ENDSEC
  0
SECTION
  2
BLOCKS
  0
BLOCK
  5
20
330
1F
100
AcDbEntity
  8
0
100
AcDbBlockBegin
  2
*Model_Space
 70
     0
 10
0.0
 20
0.0
 30
0.0
  3
*Model_Space
  1

  0
ENDBLK
  5
21
330
1F
100
AcDbEntity
  8
0
100
AcDbBlockEnd
  0
BLOCK
  5
1C
330
1B
100
AcDbEntity
 67
     1
  8
0
100
AcDbBlockBegin
  2
*Paper_Space
 70
     0
 10
0.0
 20
0.0
 30
0.0
  3
*Paper_Space
  1

  0
ENDBLK
  5
1D
330
1B
100
AcDbEntity
 67
     1
  8
0
100
AcDbBlockEnd
  0
BLOCK
  5
24
330
23
100
AcDbEntity
  8
0
100
AcDbBlockBegin
  2
*Paper_Space0
 70
     0
 10
0.0
 20
0.0
 30
0.0
  3
*Paper_Space0
  1

  0
ENDBLK
  5
25
330
23
100
AcDbEntity
  8
0
100
AcDbBlockEnd
  0
BLOCK
  5
79
330
78
100
AcDbEntity
  8
0
100
AcDbBlockBegin
  2
_D
 70
     0
 10
0.0
 20
0.0
 30
0.0
  3
_D
  1

  0
SOLID
  5
7B
330
78
100
AcDbEntity
  8
0
  6
Continuous
 62
     7
370
    18
100
AcDbTrace
 10
42.7614395004
 20
152.0299240879
 30
0.0
 11
42.4614395004
 21
149.5299240879
 31
0.0
 12
43.0614395004
 22
149.5299240879
 32
0.0
 13
43.0614395004
 23
149.5299240879
 33
0.0
  0
SOLID
  5
7C
330
78
100
AcDbEntity
  8
0
  6
Continuous
 62
     7
370
    18
100
AcDbTrace
 10
42.7614395004
 20
52.0299240879
 30
0.0
 11
43.0614395004
 21
54.5299240879
 31
0.0
 12
42.4614395004
 22
54.5299240879
 32
0.0
 13
42.4614395004
 23
54.5299240879
 33
0.0
  0
LINE
  5
7D
330
78
100
AcDbEntity
  8
0
  6
Continuous
 62
     7
370
     0
100
AcDbLine
 10
56.6850079902
 20
152.0299240879
 30
0.0
 11
41.7614395004
 21
152.0299240879
 31
0.0
  0
LINE
  5
7E
330
78
100
AcDbEntity
  8
0
  6
Continuous
 62
     7
370
     0
100
AcDbLine
 10
56.6850079902
 20
52.0299240879
 30
0.0
 11
41.7614395004
 21
52.0299240879
 31
0.0
  0
LINE
  5
7F
330
78
100
AcDbEntity
  8
0
  6
Continuous
 62
     7
370
     0
100
AcDbLine
 10
42.7614395004
 20
152.0299240879
 30
0.0
 11
42.7614395004
 21
52.0299240879
 31
0.0
  0
MTEXT
  5
80
330
78
100
AcDbEntity
  8
0
  6
Continuous
 62
     7
370
    18
100
AcDbMText
 10
35.0270332946
 20
94.3680541463
 30
0.0
 40
6.0
 41
0.0
 71
     1
 72
     1
  1
100
  7
SLDTEXTSTYLE0
 11
-7.044195017643634E-15
 21
1.0
 31
0.0
 73
     1
 44
1.0
  0
MTEXT
  5
81
330
78
100
AcDbEntity
  8
0
  6
Continuous
 62
     7
370
    18
100
AcDbMText
 10
35.0270332946
 20
105.7430548466
 30
0.0
 40
6.0
 41
0.0
 71
     1
 72
     1
  1
mm
  7
SLDTEXTSTYLE0
 11
-7.044195017643634E-15
 21
1.0
 31
0.0
 73
     1
 44
1.0
  0
ENDBLK
  5
7A
330
78
100
AcDbEntity
  8
0
100
AcDbBlockEnd
  0
BLOCK
  5
84
330
83
100
AcDbEntity
  8
0
100
AcDbBlockBegin
  2
_D_1
 70
     0
 10
0.0
 20
0.0
 30
0.0
  3
_D_1
  1

  0
SOLID
  5
86
330
83
100
AcDbEntity
  8
0
  6
Continuous
 62
     7
370
    18
100
AcDbTrace
 10
56.6850079902
 20
38.4602342313
 30
0.0
 11
59.1850079902
 21
38.1602342313
 31
0.0
 12
59.1850079902
 22
38.7602342313
 32
0.0
 13
59.1850079902
 23
38.7602342313
 33
0.0
  0
SOLID
  5
87
330
83
100
AcDbEntity
  8
0
  6
Continuous
 62
     7
370
    18
100
AcDbTrace
 10
156.6850079902
 20
38.4602342313
 30
0.0
 11
154.1850079902
 21
38.7602342313
 31
0.0
 12
154.1850079902
 22
38.1602342313
 32
0.0
 13
154.1850079902
 23
38.1602342313
 33
0.0
  0
LINE
  5
88
330
83
100
AcDbEntity
  8
0
  6
Continuous
 62
     7
370
     0
100
AcDbLine
 10
56.6850079902
 20
52.0299240879
 30
0.0
 11
56.6850079902
 21
37.4602342313
 31
0.0
  0
LINE
  5
89
330
83
100
AcDbEntity
  8
0
  6
Continuous
 62
     7
370
     0
100
AcDbLine
 10
156.6850079902
 20
52.0299240879
 30
0.0
 11
156.6850079902
 21
37.4602342313
 31
0.0
  0
LINE
  5
8A
330
83
100
AcDbEntity
  8
0
  6
Continuous
 62
     7
370
     0
100
AcDbLine
 10
56.6850079902
 20
38.4602342313
 30
0.0
 11
156.6850079902
 21
38.4602342313
 31
0.0
  0
MTEXT
  5
8B
330
83
100
AcDbEntity
  8
0
  6
Continuous
 62
     7
370
    18
100
AcDbMText
 10
93.9626484861
 20
46.1946404371
 30
0.0
 40
6.0
 41
0.0
 71
     1
 72
     1
  1
100
  7
SLDTEXTSTYLE0
 73
     1
 44
1.0
  0
MTEXT
  5
8C
330
83
100
AcDbEntity
  8
0
  6
Continuous
 62
     7
370
    18
100
AcDbMText
 10
105.3376491864
 20
46.1946404371
 30
0.0
 40
6.0
 41
0.0
 71
     1
 72
     1
  1
mm
  7
SLDTEXTSTYLE0
 73
     1
 44
1.0
  0
ENDBLK
  5
85
330
83
100
AcDbEntity
  8
0
100
AcDbBlockEnd
  0
ENDSEC
  0
SECTION
  2
ENTITIES
  0
LINE
  5
73
330
1F
100
AcDbEntity
  8
0
  6
Continuous
 62
     7
370
    18
100
AcDbLine
 10
56.6850079902
 20
152.0299240879
 30
0.0
 11
56.6850079902
 21
52.0299240879
 31
0.0
  0
LINE
  5
74
330
1F
100
AcDbEntity
  8
0
  6
Continuous
 62
     7
370
    18
100
AcDbLine
 10
56.6850079902
 20
52.0299240879
 30
0.0
 11
156.6850079902
 21
52.0299240879
 31
0.0
  0
DIMENSION
  5
75
330
1F
100
AcDbEntity
  8
0
  6
Continuous
 62
     7
370
    18
100
AcDbDimension
  2
_D
 10
42.7614395004
 20
52.0299240879
 30
0.0
 11
42.7614395004
 21
105.4472211621
 31
0.0
 70
   160
  1
<>mm
 71
     2
 42
-1.0
  3
SLDDIMSTYLE0
100
AcDbAlignedDimension
 13
56.6850079902
 23
152.0299240879
 33
0.0
 14
56.6850079902
 24
52.0299240879
 34
0.0
 50
90.0
100
AcDbRotatedDimension
  0
DIMENSION
  5
82
330
1F
100
AcDbEntity
  8
0
  6
Continuous
 62
     7
370
    18
100
AcDbDimension
  2
_D_1
 10
156.6850079902
 20
38.4602342313
 30
0.0
 11
105.0418155019
 21
38.4602342313
 31
0.0
 70
   160
  1
<>mm
 71
     2
 42
-1.0
  3
SLDDIMSTYLE0
100
AcDbAlignedDimension
 13
56.6850079902
 23
52.0299240879
 33
0.0
 14
156.6850079902
 24
52.0299240879
 34
0.0
100
AcDbRotatedDimension
  0
MTEXT
  5
8E
330
1F
100
AcDbEntity
  8
0
  6
Continuous
 62
     7
370
     0
100
AcDbMText
 10
412.8252631579
 20
48.4342449499
 30
0.0
 40
10.0
 41
0.0
 71
     1
 72
     1
  1
KLUDI GmbH & Co KG
  7
SLDTEXTSTYLE1
 73
     1
 44
1.0
  0
MTEXT
  5
8F
330
1F
100
AcDbEntity
  8
0
  6
Continuous
 62
     7
370
     0
100
AcDbMText
 10
210.0873490389
 20
48.4342449499
 30
0.0
 40
10.0
 41
0.0
 71
     1
 72
     1
  1
38 831 05 76
  7
SLDTEXTSTYLE1
 73
     1
 44
1.0
  0
LINE
  5
90
330
1F
100
AcDbEntity
  8
0
  6
Continuous
 62
     7
370
    25
100
AcDbLine
 10
401.062517951
 20
364.9681527172
 30
0.0
 11
413.2625158529
 21
364.9681527172
 31
0.0
  0
LINE
  5
91
330
1F
100
AcDbEntity
  8
0
  6
Continuous
 62
     7
370
    25
100
AcDbLine
 10
413.2625158529
 20
434.9681530153
 30
0.0
 11
401.062517951
 21
434.9681530153
 31
0.0
  0
ARC
  5
92
330
1F
100
AcDbEntity
  8
0
  6
Continuous
 62
     7
370
    25
100
AcDbCircle
 10
413.2625159446
 20
434.1681528644
 30
0.0
 40
0.8000000000000114
100
AcDbArc
 50
0.0
 51
90.0
  0
ARC
  5
93
330
1F
100
AcDbEntity
  8
0
  6
Continuous
 62
     7
370
    25
100
AcDbCircle
 10
413.2625159446
 20
365.7681528644
 30
0.0
 40
0.8000000000000114
100
AcDbArc
 50
270.0
 51
0.0
  0
ARC
  5
94
330
1F
100
AcDbEntity
  8
0
  6
Continuous
 62
     7
370
    25
100
AcDbCircle
 10
414.8625159446
 20
416.7681528644
 30
0.0
 40
0.7999999999999545
100
AcDbArc
 50
180.0
 51
270.0
  0
ARC
  5
95
330
1F
100
AcDbEntity
  8
0
  6
Continuous
 62
     7
370
    25
100
AcDbCircle
 10
414.8625159446
 20
383.1681528644
 30
0.0
 40
0.7999999999999545
100
AcDbArc
 50
90.0
 51
180.0
  0
ARC
  5
96
330
1F
100
AcDbEntity
  8
0
  6
Continuous
 62
     7
370
    25
100
AcDbCircle
 10
426.2625159446
 20
415.1681528644
 30
0.0
 40
0.8000000000000114
100
AcDbArc
 50
0.0
 51
90.0
  0
ARC
  5
97
330
1F
100
AcDbEntity
  8
0
  6
Continuous
 62
     7
370
    25
100
AcDbCircle
 10
426.2625159446
 20
384.7681528644
 30
0.0
 40
0.8000000000000682
100
AcDbArc
 50
270.0
 51
0.0
  0
LINE
  5
98
330
1F
100
AcDbEntity
  8
0
  6
Continuous
 62
     7
370
    25
100
AcDbLine
 10
414.8625168602
 20
383.9681521063
 30
0.0
 11
426.2625161211
 21
383.9681521063
 31
0.0
  0
LINE
  5
99
330
1F
100
AcDbEntity
  8
0
  6
Continuous
 62
     7
370
    25
100
AcDbLine
 10
426.2625161211
 20
415.9681536262
 30
0.0
 11
414.8625168602
 21
415.9681536262
 31
0.0
  0
LINE
  5
9A
330
1F
100
AcDbEntity
  8
0
  6
Continuous
 62
     7
370
    25
100
AcDbLine
 10
427.0625147621
 20
383.9681521063
 30
0.0
 11
444.062515686
 21
383.9681521063
 31
0.0
  0
LINE
  5
9B
330
1F
100
AcDbEntity
  8
0
  6
Continuous
 62
     7
370
    25
100
AcDbLine
 10
444.062515686
 20
415.9681536262
 30
0.0
 11
427.0625147621
 21
415.9681536262
 31
0.0
  0
LINE
  5
9C
330
1F
100
AcDbEntity
  8
0
  6
Continuous
 62
     7
370
    25
100
AcDbLine
 10
444.062515686
 20
389.4681530078
 30
0.0
 11
444.8627676468
 21
389.4681530078
 31
0.0
  0
LINE
  5
9D
330
1F
100
AcDbEntity
  8
0
  6
Continuous
 62
     7
370
    25
100
AcDbLine
 10
444.8627676468
 20
410.4681527247
 30
0.0
 11
444.062515686
 21
410.4681527247
 31
0.0
  0
SPLINE
  5
9E
330
1F
100
AcDbEntity
  8
0
  6
Continuous
 62
     7
370
    25
100
AcDbSpline
210
0.0
220
0.0
230
1.0
 70
     8
 71
     3
 72
    11
 73
     7
 74
     0
 42
0.000000001
 43
0.00000001
 40
0.0
 40
0.0
 40
0.0
 40
0.0
 40
0.0573142286501662
 40
0.2713322497044998
 40
0.4819181952281062
 40
1.0
 40
1.0
 40
1.0
 40
1.0
 10
469.8682488526371
 20
421.9575859611012
 30
0.0
 10
469.8607718358092
 20
421.9558647501704
 30
0.0
 10
469.8253747652255
 20
421.9477163366777
 30
0.0
 10
470.1618358794673
 20
421.8608195867828
 30
0.0
 10
470.9348512810643
 20
421.6326535669091
 30
0.0
 10
471.7106266382874
 20
421.3689500024932
 30
0.0
 10
472.262201889154
 20
421.1814571176745
 30
0.0
  0
SPLINE
  5
9F
330
1F
100
AcDbEntity
  8
0
  6
Continuous
 62
     7
370
    25
100
AcDbSpline
210
0.0
220
0.0
230
1.0
 70
     8
 71
     3
 72
    10
 73
     6
 74
     0
 42
0.000000001
 43
0.00000001
 40
0.0
 40
0.0
 40
0.0
 40
0.0
 40
0.571349874514201
 40
0.844938371487603
 40
1.0
 40
1.0
 40
1.0
 40
1.0
 10
471.083617827591
 20
378.3743195240475
 30
0.0
 10
470.7881088423857
 20
378.2797699769819
 30
0.0
 10
470.3510966159779
 20
378.1399457748844
 30
0.0
 10
469.8849757915959
 20
378.004476349975
 30
0.0
 10
469.8948157345534
 20
377.9890649776942
 30
0.0
 10
469.8983752752807
 20
377.9834900056101
 30
0.0
  0
LINE
  5
A0
330
1F
100
AcDbEntity
  8
0
  6
Continuous
 62
     7
370
    25
100
AcDbLine
 10
525.8937772016
 20
377.4681519722
 30
0.0
 11
528.4225191574
 21
377.4681519722
 31
0.0
  0
LINE
  5
A1
330
1F
100
AcDbEntity
  8
0
  6
Continuous
 62
     7
370
    25
100
AcDbLine
 10
512.2255455355
 20
377.4681519722
 30
0.0
 11
513.0388658147
 21
377.4681519722
 31
0.0
  0
LINE
  5
A2
330
1F
100
AcDbEntity
  8
0
  6
Continuous
 62
     7
370
    25
100
AcDbLine
 10
500.0625174145
 20
377.4681519722
 30
0.0
 11
504.2994875114
 21
377.4681519722
 31
0.0
  0
LINE
  5
A3
330
1F
100
AcDbEntity
  8
0
  6
Continuous
 62
     7
370
    25
100
AcDbLine
 10
528.4225191574
 20
422.4681537603
 30
0.0
 11
504.0102559726
 21
422.4681537603
 31
0.0
  0
ARC
  5
A4
330
1F
100
AcDbEntity
  8
0
  6
Continuous
 62
     7
370
    25
100
AcDbCircle
 10
528.4225159125
 20
421.9281528662
 30
0.0
 40
0.5399999999999636
100
AcDbArc
 50
0.0
 51
90.0
  0
ARC
  5
A5
330
1F
100
AcDbEntity
  8
0
  6
Continuous
 62
     7
370
    25
100
AcDbCircle
 10
528.4225159125
 20
378.0081528662
 30
0.0
 40
0.5400000000000205
100
AcDbArc
 50
270.0
 51
0.0
  0
LINE
  5
A6
330
1F
100
AcDbEntity
  8
0
  6
Continuous
 62
     7
370
    25
100
AcDbLine
 10
493.762515078
 20
421.968152747
 30
0.0
 11
491.7625166129
 21
421.968152747
 31
0.0
  0
LINE
  5
A7
330
1F
100
AcDbEntity
  8
0
  6
Continuous
 62
     7
370
    25
100
AcDbLine
 10
491.7625166129
 20
377.9681529855
 30
0.0
 11
493.762515078
 21
377.9681529855
 31
0.0
  0
ARC
  5
A8
330
1F
100
AcDbEntity
  8
0
  6
Continuous
 62
     7
370
    25
100
AcDbCircle
 10
493.8359818176
 20
399.9680915338
 30
0.0
 40
22.00000000000001
100
AcDbArc
 50
269.7959536337
 51
286.4103394933
  0
ARC
  5
A9
330
1F
100
AcDbEntity
  8
0
  6
Continuous
 62
     7
370
    25
100
AcDbCircle
 10
493.8359818176
 20
399.9680915338
 30
0.0
 40
22.00000000000001
100
AcDbArc
 50
63.8276287491
 51
90.1690002415
  0
ARC
  5
AA
330
1F
100
AcDbEntity
  8
0
  6
Continuous
 62
     7
370
    25
100
AcDbCircle
 10
500.0625159125
 20
377.5681528662
 30
0.0
 40
0.1000000000000227
100
AcDbArc
 50
180.0
 51
270.0
  0
LINE
  5
AB
330
1F
100
AcDbEntity
  8
0
  6
Continuous
 62
     7
370
    25
100
AcDbLine
 10
469.8709310617
 20
377.9681529855
 30
0.0
 11
490.7825156699
 21
377.9681529855
 31
0.0
  0
LINE
  5
AC
330
1F
100
AcDbEntity
  8
0
  6
Continuous
 62
     7
370
    25
100
AcDbLine
 10
490.7825156699
 20
421.968152747
 30
0.0
 11
469.8709310617
 21
421.968152747
 31
0.0
  0
ARC
  5
AD
330
1F
100
AcDbEntity
  8
0
  6
Continuous
 62
     7
370
    25
100
AcDbCircle
 10
490.7825159125
 20
378.9481528662
 30
0.0
 40
0.9800000000000182
100
AcDbArc
 50
270.0
 51
0.0
  0
ARC
  5
AE
330
1F
100
AcDbEntity
  8
0
  6
Continuous
 62
     7
370
    25
100
AcDbCircle
 10
490.7825159125
 20
420.9881528662
 30
0.0
 40
0.9800000000000182
100
AcDbArc
 50
0.0
 51
90.0
  0
LINE
  5
AF
330
1F
100
AcDbEntity
  8
0
  6
Continuous
 62
     7
370
    25
100
AcDbLine
 10
466.9925158962
 20
364.468151704
 30
0.0
 11
466.9925158962
 21
377.5789346551
 31
0.0
  0
LINE
  5
B0
330
1F
100
AcDbEntity
  8
0
  6
Continuous
 62
     7
370
    25
100
AcDbLine
 10
443.492516468
 20
378.4681521361
 30
0.0
 11
443.492516468
 21
364.468151704
 31
0.0
  0
ARC
  5
B1
330
1F
100
AcDbEntity
  8
0
  6
Continuous
 62
     7
370
    25
100
AcDbCircle
 10
444.2625159118
 20
378.9681528662
 30
0.0
 40
1.50000000023496
100
AcDbArc
 50
180.0
 51
199.4712206313
  0
LINE
  5
B2
330
1F
100
AcDbEntity
  8
0
  6
Continuous
 62
     7
370
    25
100
AcDbLine
 10
442.7625160317
 20
383.9681521063
 30
0.0
 11
442.7625160317
 21
378.9681531494
 31
0.0
  0
LINE
  5
B3
330
1F
100
AcDbEntity
  8
0
  6
Continuous
 62
     7
370
    25
100
AcDbLine
 10
465.7200159274
 20
355.6956518446
 30
0.0
 11
465.7200159274
 21
361.2406533216
 31
0.0
  0
LINE
  5
B4
330
1F
100
AcDbEntity
  8
0
  6
Continuous
 62
     7
370
    25
100
AcDbLine
 10
444.7650160293
 20
361.2406533216
 30
0.0
 11
444.7650160293
 21
355.6956518446
 31
0.0
  0
LINE
  5
B5
330
1F
100
AcDbEntity
  8
0
  6
Continuous
 62
     7
370
    25
100
AcDbLine
 10
465.7200159274
 20
361.2406533216
 30
0.0
 11
464.492515923
 21
362.4681513761
 31
0.0
  0
LINE
  5
B6
330
1F
100
AcDbEntity
  8
0
  6
Continuous
 62
     7
370
    25
100
AcDbLine
 10
445.9925159465
 20
362.4681513761
 30
0.0
 11
444.7650160293
 21
361.2406533216
 31
0.0
  0
ARC
  5
B7
330
1F
100
AcDbEntity
  8
0
  6
Continuous
 62
     7
370
    25
100
AcDbCircle
 10
445.4925159125
 20
363.9681528662
 30
0.0
 40
0.4999999999998295
100
AcDbArc
 50
0.0
 51
90.0
  0
ARC
  5
B8
330
1F
100
AcDbEntity
  8
0
  6
Continuous
 62
     7
370
    25
100
AcDbCircle
 10
464.9925159125
 20
363.9681528662
 30
0.0
 40
0.4999999999998295
100
AcDbArc
 50
90.0
 51
180.0
  0
LINE
  5
B9
330
1F
100
AcDbEntity
  8
0
  6
Continuous
 62
     7
370
    25
100
AcDbLine
 10
464.492515923
 20
362.4681513761
 30
0.0
 11
464.492515923
 21
363.968154416
 31
0.0
  0
LINE
  5
BA
330
1F
100
AcDbEntity
  8
0
  6
Continuous
 62
     7
370
    25
100
AcDbLine
 10
445.9925159465
 20
363.968154416
 30
0.0
 11
445.9925159465
 21
362.4681513761
 31
0.0
  0
LINE
  5
BB
330
1F
100
AcDbEntity
  8
0
  6
Continuous
 62
     7
370
    25
100
AcDbLine
 10
444.7650160293
 20
355.6956518446
 30
0.0
 11
445.9925159465
 21
354.4681537901
 31
0.0
  0
LINE
  5
BC
330
1F
100
AcDbEntity
  8
0
  6
Continuous
 62
     7
370
    25
100
AcDbLine
 10
464.492515923
 20
354.4681537901
 30
0.0
 11
465.7200159274
 21
355.6956518446
 31
0.0
  0
SPLINE
  5
BD
330
1F
100
AcDbEntity
  8
0
  6
Continuous
 62
     7
370
    25
100
AcDbSpline
210
0.0
220
0.0
230
1.0
 70
     8
 71
     3
 72
    13
 73
     9
 74
     0
 42
0.000000001
 43
0.00000001
 40
0.0
 40
0.0
 40
0.0
 40
0.0
 40
0.0831951446226496
 40
0.2612170937284064
 40
0.4920486655120258
 40
0.7274889942064128
 40
0.9688949898058131
 40
1.0
 40
1.0
 40
1.0
 40
1.0
 10
513.036235759702
 20
377.4587903176524
 30
0.0
 10
513.0986351080145
 20
377.4564055837326
 30
0.0
 10
513.2945573158628
 20
377.4489179681196
 30
0.0
 10
513.6486278579275
 20
377.32574908902
 30
0.0
 10
514.0545355491074
 20
377.045875406646
 30
0.0
 10
514.3486599507914
 20
376.6004899730546
 30
0.0
 10
514.4797419129351
 20
376.221429242067
 30
0.0
 10
514.4556535542158
 20
376.0184622276246
 30
0.0
 10
514.4529040555623
 20
375.9952951227404
 30
0.0
  0
SPLINE
  5
BE
330
1F
100
AcDbEntity
  8
0
  6
Continuous
 62
     7
370
    25
100
AcDbSpline
210
0.0
220
0.0
230
1.0
 70
     8
 71
     3
 72
    14
 73
    10
 74
     0
 42
0.000000001
 43
0.00000001
 40
0.0
 40
0.0
 40
0.0
 40
0.0
 40
0.0199385672515502
 40
0.2603379620728308
 40
0.486063748607679
 40
0.667635172045266
 40
0.8207747561754317
 40
0.9489864866935803
 40
1.0
 40
1.0
 40
1.0
 40
1.0
 10
524.4695093135502
 20
375.9938534353949
 30
0.0
 10
524.4674044150254
 20
376.0087215170926
 30
0.0
 10
524.4399207455416
 20
376.2028541265374
 30
0.0
 10
524.5653927024309
 20
376.5702173164934
 30
0.0
 10
524.8239137456692
 20
376.9839889210803
 30
0.0
 10
525.1581628380924
 20
377.2540665376198
 30
0.0
 10
525.4770286277269
 20
377.3977893811716
 30
0.0
 10
525.722496185848
 20
377.4584254481314
 30
0.0
 10
525.8574043678542
 20
377.4615049640283
 30
0.0
 10
525.8958037595418
 20
377.4623814975001
 30
0.0
  0
LINE
  5
BF
330
1F
100
AcDbEntity
  8
0
  6
Continuous
 62
     7
370
    25
100
AcDbLine
 10
514.4625153045
 20
375.9885728364
 30
0.0
 11
514.4625153045
 21
315.4681529855
 31
0.0
  0
LINE
  5
C0
330
1F
100
AcDbEntity
  8
0
  6
Continuous
 62
     7
370
    25
100
AcDbLine
 10
524.4625169437
 20
315.4681529855
 30
0.0
 11
524.4625169437
 21
375.9864382451
 31
0.0
  0
ARC
  5
C1
330
1F
100
AcDbEntity
  8
0
  6
Continuous
 62
     7
370
    25
100
AcDbCircle
 10
523.9625159125
 20
315.4681528662
 30
0.0
 40
0.5000000000001137
100
AcDbArc
 50
270.0
 51
0.0
  0
ARC
  5
C2
330
1F
100
AcDbEntity
  8
0
  6
Continuous
 62
     7
370
    25
100
AcDbCircle
 10
514.9625159125
 20
315.4681528662
 30
0.0
 40
0.5
100
AcDbArc
 50
180.0
 51
270.0
  0
LINE
  5
C3
330
1F
100
AcDbEntity
  8
0
  6
Continuous
 62
     7
370
    25
100
AcDbLine
 10
504.2625177304
 20
377.0681526517
 30
0.0
 11
504.4810991387
 21
376.4676060532
 31
0.0
  0
LINE
  5
C4
330
1F
100
AcDbEntity
  8
0
  6
Continuous
 62
     7
370
    25
100
AcDbLine
 10
512.0439339082
 20
376.4676060532
 30
0.0
 11
512.2625153165
 21
377.0681526517
 31
0.0
  0
LINE
  5
C5
330
1F
100
AcDbEntity
  8
0
  6
Continuous
 62
     7
370
    25
100
AcDbLine
 10
504.2625177304
 20
377.4745780979
 30
0.0
 11
504.2625177304
 21
377.0681526517
 31
0.0
  0
LINE
  5
C6
330
1F
100
AcDbEntity
  8
0
  6
Continuous
 62
     7
370
    25
100
AcDbLine
 10
512.2625153165
 20
377.0681526517
 30
0.0
 11
512.2625153165
 21
377.4745780979
 31
0.0
  0
ARC
  5
C7
330
1F
100
AcDbEntity
  8
0
  6
Continuous
 62
     7
370
    25
100
AcDbCircle
 10
511.8559960214
 20
376.536009525
 30
0.0
 40
0.2000000000000019
100
AcDbArc
 50
270.0
 51
340.0
  0
ARC
  5
C8
330
1F
100
AcDbEntity
  8
0
  6
Continuous
 62
     7
370
    25
100
AcDbCircle
 10
504.6690358036
 20
376.536009525
 30
0.0
 40
0.2000000000000019
100
AcDbArc
 50
200.0
 51
270.0
  0
LINE
  5
C9
330
1F
100
AcDbEntity
  8
0
  6
Continuous
 62
     7
370
    25
100
AcDbLine
 10
504.669036309
 20
376.3360101734
 30
0.0
 11
511.8559967379
 21
376.3360101734
 31
0.0
  0
LINE
  5
CA
330
1F
100
AcDbEntity
  8
0
  6
Continuous
 62
     7
370
    25
100
AcDbLine
 10
401.062517951
 20
364.9681527172
 30
0.0
 11
401.062517951
 21
434.9681530153
 31
0.0
  0
LINE
  5
CB
330
1F
100
AcDbEntity
  8
0
  6
Continuous
 62
     7
370
    25
100
AcDbLine
 10
414.0625144939
 20
399.9681528644
 30
0.0
 11
414.0625144939
 21
365.7681513582
 31
0.0
  0
LINE
  5
CC
330
1F
100
AcDbEntity
  8
0
  6
Continuous
 62
     7
370
    25
100
AcDbLine
 10
414.0625144939
 20
434.1681543742
 30
0.0
 11
414.0625144939
 21
399.9681528644
 31
0.0
  0
CIRCLE
  5
CD
330
1F
100
AcDbEntity
  8
0
  6
Continuous
 62
     7
370
    25
100
AcDbCircle
 10
464.7625159125
 20
399.9681528662
 30
0.0
 40
22.5
  0
LINE
  5
CE
330
1F
100
AcDbEntity
  8
0
  6
Continuous
 62
     7
370
    25
100
AcDbLine
 10
427.0625147621
 20
402.4257939314
 30
0.0
 11
427.0625147621
 21
397.5105118011
 31
0.0
  0
LINE
  5
CF
330
1F
100
AcDbEntity
  8
0
  6
Continuous
 62
     7
370
    25
100
AcDbLine
 10
427.0625147621
 20
394.4003884685
 30
0.0
 11
427.0625147621
 21
383.9681521063
 31
0.0
  0
LINE
  5
D0
330
1F
100
AcDbEntity
  8
0
  6
Continuous
 62
     7
370
    25
100
AcDbLine
 10
442.9622865866
 20
394.4003884685
 30
0.0
 11
427.0625147621
 21
394.4003884685
 31
0.0
  0
LINE
  5
D1
330
1F
100
AcDbEntity
  8
0
  6
Continuous
 62
     7
370
    25
100
AcDbLine
 10
444.062515686
 20
391.1499893298
 30
0.0
 11
444.062515686
 21
383.9681521063
 31
0.0
  0
LINE
  5
D2
330
1F
100
AcDbEntity
  8
0
  6
Continuous
 62
     7
370
    25
100
AcDbLine
 10
427.0625147621
 20
394.4003884685
 30
0.0
 11
427.0625147621
 21
397.5105118011
 31
0.0
  0
LINE
  5
D3
330
1F
100
AcDbEntity
  8
0
  6
Continuous
 62
     7
370
    25
100
AcDbLine
 10
427.0625147621
 20
405.535917264
 30
0.0
 11
442.9622865866
 21
405.535917264
 31
0.0
  0
LINE
  5
D4
330
1F
100
AcDbEntity
  8
0
  6
Continuous
 62
     7
370
    25
100
AcDbLine
 10
427.0625147621
 20
402.4257939314
 30
0.0
 11
427.0625147621
 21
405.535917264
 31
0.0
  0
LINE
  5
D5
330
1F
100
AcDbEntity
  8
0
  6
Continuous
 62
     7
370
    25
100
AcDbLine
 10
444.062515686
 20
415.9681536262
 30
0.0
 11
444.062515686
 21
408.7863164027
 31
0.0
  0
LINE
  5
D6
330
1F
100
AcDbEntity
  8
0
  6
Continuous
 62
     7
370
    25
100
AcDbLine
 10
427.0625147621
 20
415.9681536262
 30
0.0
 11
427.0625147621
 21
405.535917264
 31
0.0
  0
SPLINE
  5
D7
330
1F
100
AcDbEntity
  8
0
  6
Continuous
 62
     7
370
    25
100
AcDbSpline
210
0.0
220
0.0
230
1.0
 70
     8
 71
     3
 72
    18
 73
    14
 74
     0
 42
0.000000001
 43
0.00000001
 40
0.0
 40
0.0
 40
0.0
 40
0.0
 40
0.25
 40
0.25
 40
0.3749999999999999
 40
0.3749999999999999
 40
0.4999999999999999
 40
0.4999999999999999
 40
0.75
 40
0.75
 40
0.875
 40
0.875
 40
1.0
 40
1.0
 40
1.0
 40
1.0
 10
490.2625159320157
 20
393.8662084172607
 30
0.0
 10
490.2625159320156
 20
394.8590206485913
 30
0.0
 10
490.2625159124997
 20
395.8594274032073
 30
0.0
 10
490.2625159124997
 20
397.3845658456527
 30
0.0
 10
490.2625159124997
 20
397.8988213491387
 30
0.0
 10
490.2625159124997
 20
398.9242894706117
 30
0.0
 10
490.2625159124997
 20
399.4360910326893
 30
0.0
 10
490.2625159124997
 20
400.9685939745418
 30
0.0
 10
490.2625159124996
 20
401.9863428908179
 30
0.0
 10
490.2625159124996
 20
403.5080582309498
 30
0.0
 10
490.2625159124996
 20
404.0148227895501
 30
0.0
 10
490.2625159124996
 20
405.0189587551877
 30
0.0
 10
490.2625159124997
 20
405.5174762671268
 30
0.0
 10
490.2625159124997
 20
406.0138554898563
 30
0.0
  0
LINE
  5
D8
330
1F
100
AcDbEntity
  8
0
  6
Continuous
 62
     7
370
    25
100
AcDbLine
 10
469.9131972741
 20
377.9727388178
 30
0.0
 11
469.8974565256
 21
377.9700733726
 31
0.0
  0
SPLINE
  5
D9
330
1F
100
AcDbEntity
  8
0
  6
Continuous
 62
     7
370
    25
100
AcDbSpline
210
0.0
220
0.0
230
1.0
 70
     8
 71
     3
 72
    12
 73
     8
 74
     0
 42
0.000000001
 43
0.00000001
 40
0.0
 40
0.0
 40
0.0
 40
0.0
 40
0.5
 40
0.5
 40
0.75
 40
0.75
 40
1.0
 40
1.0
 40
1.0
 40
1.0
 10
499.9625159124997
 20
395.6137196899459
 30
0.0
 10
499.9625159124997
 20
397.0607954977423
 30
0.0
 10
500.0252268576144
 20
398.5093877454489
 30
0.0
 10
500.2149354266924
 20
400.6839927316894
 30
0.0
 10
500.2941324070488
 20
401.4091560566168
 30
0.0
 10
500.4849892599742
 20
402.8600814717853
 30
0.0
 10
500.5963911351157
 20
403.5830378921703
 30
0.0
 10
500.7221282618892
 20
404.2961285732924
 30
0.0
  0
LWPOLYLINE
  5
DA
330
1F
100
AcDbEntity
  8
0
  6
Continuous
 62
     7
370
    25
100
AcDbPolyline
 90
       13
 70
   128
 43
0.0
 10
504.0102559726
 20
422.4681537603
 10
503.984275798
 20
422.3201479768
 10
503.9066742758
 20
421.8780808156
 10
503.7784721355
 20
421.1477655922
 10
503.6013569336
 20
420.1388135557
 10
503.3776569764
 20
418.8644941901
 10
503.1103189687
 20
417.3415768896
 10
502.8028595845
 20
415.5900944029
 10
502.4593207638
 20
413.6330895131
 10
502.0842212836
 20
411.4963086327
 10
501.682500879
 20
409.2078637336
 10
501.2594420116
 20
406.7978616809
 10
500.820610265
 20
404.2980074887
  0
SPLINE
  5
DB
330
1F
100
AcDbEntity
  8
0
  6
Continuous
 62
     7
370
    25
100
AcDbSpline
210
0.0
220
0.0
230
1.0
 70
     8
 71
     3
 72
    12
 73
     8
 74
     0
 42
0.000000001
 43
0.00000001
 40
0.0
 40
0.0
 40
0.0
 40
0.0
 40
0.2366956406371485
 40
0.4732914341977018
 40
0.7120740644319701
 40
0.9503937389698885
 40
1.0
 40
1.0
 40
1.0
 40
1.0
 10
508.8728438715604
 20
377.8181523089386
 30
0.0
 10
509.3084648794304
 20
377.7982753709795
 30
0.0
 10
510.1795231339316
 20
377.7585298798975
 30
0.0
 10
511.2623762539764
 20
377.6291174341584
 30
0.0
 10
511.9797663014813
 20
377.5191657296008
 30
0.0
 10
512.3036375298174
 20
377.460937658339
 30
0.0
 10
512.2370225202219
 20
377.472622652517
 30
0.0
 10
512.2255455355313
 20
377.4746358399369
 30
0.0
  0
SPLINE
  5
DC
330
1F
100
AcDbEntity
  8
0
  6
Continuous
 62
     7
370
    25
100
AcDbSpline
210
0.0
220
0.0
230
1.0
 70
     8
 71
     3
 72
    12
 73
     8
 74
     0
 42
0.000000001
 43
0.00000001
 40
0.0
 40
0.0
 40
0.0
 40
0.0
 40
0.1854877590104666
 40
0.4195927177329725
 40
0.6564405179002348
 40
0.895669988194872
 40
1.0
 40
1.0
 40
1.0
 40
1.0
 10
504.2994875113633
 20
377.4746358399369
 30
0.0
 10
504.3117715952625
 20
377.4769204340634
 30
0.0
 10
504.3395594782777
 20
377.4820884250058
 30
0.0
 10
504.9018221839494
 20
377.5773823882861
 30
0.0
 10
505.8297790005118
 20
377.7014520408046
 30
0.0
 10
506.8238486786744
 20
377.7886871142264
 30
0.0
 10
507.4592380680383
 20
377.8112887764066
 30
0.0
 10
507.6521891753343
 20
377.8181523089386
 30
0.0
  0
LINE
  5
DD
330
1F
100
AcDbEntity
  8
0
  6
Continuous
 62
     7
370
    25
100
AcDbLine
 10
528.9625148873
 20
399.9681528662
 30
0.0
 11
528.9625148873
 21
378.00815329
 31
0.0
  0
LINE
  5
DE
330
1F
100
AcDbEntity
  8
0
  6
Continuous
 62
     7
370
    25
100
AcDbLine
 10
528.9625148873
 20
421.9281524425
 30
0.0
 11
528.9625148873
 21
399.9681528662
 31
0.0
  0
LINE
  5
DF
330
1F
100
AcDbEntity
  8
0
  6
Continuous
 62
     7
370
    25
100
AcDbLine
 10
491.7625166129
 20
421.968152747
 30
0.0
 11
491.7625166129
 21
377.9681529855
 31
0.0
  0
LWPOLYLINE
  5
E0
330
1F
100
AcDbEntity
  8
0
  6
Continuous
 62
     7
370
    25
100
AcDbPolyline
 90
       13
 70
   128
 43
0.0
 10
500.7221284907
 20
404.2961285454
 10
501.1609602372
 20
406.7848720593
 10
501.5840191047
 20
409.1841634368
 10
501.9857432346
 20
411.462437362
 10
502.3608389895
 20
413.5897215461
 10
502.7043778102
 20
415.5380278831
 10
503.0118409197
 20
417.2817263757
 10
503.2791789274
 20
418.7978766863
 10
503.5028751592
 20
420.0665298854
 10
503.6799903612
 20
421.070998535
 10
503.8081925015
 20
421.7980671679
 10
503.8857940237
 20
422.2381711011
 10
503.9117741983
 20
422.3855175083
  0
LINE
  5
E1
330
1F
100
AcDbEntity
  8
0
  6
Continuous
 62
     7
370
    25
100
AcDbLine
 10
499.9625157218
 20
377.5681536649
 30
0.0
 11
499.9625157218
 21
395.6137197097
 31
0.0
  0
SPLINE
  5
E2
330
1F
100
AcDbEntity
  8
0
  6
Continuous
 62
     7
370
    25
100
AcDbSpline
210
0.0
220
0.0
230
1.0
 70
     8
 71
     3
 72
    10
 73
     6
 74
     0
 42
0.000000001
 43
0.00000001
 40
0.0
 40
0.0
 40
0.0
 40
0.0
 40
0.5
 40
0.5
 40
1.0
 40
1.0
 40
1.0
 40
1.0
 10
455.6125064054914
 20
378.0450706921426
 30
0.0
 10
455.3026496936087
 20
378.0916562990085
 30
0.0
 10
454.9942475807513
 20
378.1458588859626
 30
0.0
 10
454.3827074789687
 20
378.2815622734195
 30
0.0
 10
454.0815437461677
 20
378.3627575919707
 30
0.0
 10
453.7879438722451
 20
378.468152866242
 30
0.0
  0
SPLINE
  5
E3
330
1F
100
AcDbEntity
  8
0
  6
Continuous
 62
     7
370
    25
100
AcDbSpline
210
0.0
220
0.0
230
1.0
 70
    24
 71
     3
 72
     8
 73
     4
 74
     0
 42
0.000000001
 43
0.00000001
 40
0.0
 40
0.0
 40
0.0
 40
0.0
 40
1.0
 40
1.0
 40
1.0
 40
1.0
 10
453.7879438722618
 20
378.468152866242
 30
0.0
 10
453.4474479981084
 20
378.468152866242
 30
0.0
 10
453.1101723803864
 20
378.4681528662418
 30
0.0
 10
452.7784649032694
 20
378.4681528662418
 30
0.0
  0
SPLINE
  5
E4
330
1F
100
AcDbEntity
  8
0
  6
Continuous
 62
     7
370
    25
100
AcDbSpline
210
0.0
220
0.0
230
1.0
 70
     8
 71
     3
 72
     8
 73
     4
 74
     0
 42
0.000000001
 43
0.00000001
 40
0.0
 40
0.0
 40
0.0
 40
0.0
 40
1.0
 40
1.0
 40
1.0
 40
1.0
 10
457.0802926358514
 20
377.7965689961748
 30
0.0
 10
456.5946341490085
 20
377.8847652876256
 30
0.0
 10
456.1057755240744
 20
377.9698691382943
 30
0.0
 10
455.6125064061454
 20
378.0450706938575
 30
0.0
  0
SPLINE
  5
E5
330
1F
100
AcDbEntity
  8
0
  6
Continuous
 62
     7
370
    25
100
AcDbSpline
210
0.0
220
0.0
230
1.0
 70
     8
 71
     3
 72
    10
 73
     6
 74
     0
 42
0.000000001
 43
0.00000001
 40
0.0
 40
0.0
 40
0.0
 40
0.0
 40
0.5
 40
0.5
 40
1.0
 40
1.0
 40
1.0
 40
1.0
 10
459.870044029206
 20
377.468152866242
 30
0.0
 10
459.4162495343405
 20
377.468152866242
 30
0.0
 10
458.9542379627458
 20
377.509208013169
 30
0.0
 10
458.0228984344938
 20
377.6301663486676
 30
0.0
 10
457.5531317922345
 20
377.7108451514566
 30
0.0
 10
457.080491542399
 20
377.7965933505781
 30
0.0
  0
SPLINE
  5
E6
330
1F
100
AcDbEntity
  8
0
  6
Continuous
 62
     7
370
    25
100
AcDbSpline
210
0.0
220
0.0
230
1.0
 70
    24
 71
     3
 72
    10
 73
     6
 74
     0
 42
0.000000001
 43
0.00000001
 40
0.0
 40
0.0
 40
0.0
 40
0.0
 40
0.4655239664417256
 40
0.9310396656825741
 40
1.0
 40
1.0
 40
1.0
 40
1.0
 10
464.7625159124997
 20
377.468152866242
 30
0.0
 10
464.0032172794877
 20
377.468152866242
 30
0.0
 10
462.4846334977843
 20
377.468152866242
 30
0.0
 10
460.853854685438
 20
377.468152866242
 30
0.0
 10
459.9824898108141
 20
377.468152866242
 30
0.0
 10
459.8700626685408
 20
377.468152866242
 30
0.0
  0
SPLINE
  5
E7
330
1F
100
AcDbEntity
  8
0
  6
Continuous
 62
     7
370
    25
100
AcDbSpline
210
0.0
220
0.0
230
1.0
 70
     8
 71
     3
 72
     8
 73
     4
 74
     0
 42
0.000000001
 43
0.00000001
 40
0.0
 40
0.0
 40
0.0
 40
0.0
 40
0.0003748344101003
 40
0.0003748344101003
 40
0.0003748344101003
 40
0.0003748344101003
 10
452.7794405311374
 20
378.4681528710842
 30
0.0
 10
452.6643443695407
 20
378.4681528710842
 30
0.0
 10
452.5503414313251
 20
378.468152866242
 30
0.0
 10
452.4376432346846
 20
378.468152866242
 30
0.0
  0
SPLINE
  5
E8
330
1F
100
AcDbEntity
  8
0
  6
Continuous
 62
     7
370
    25
100
AcDbSpline
210
0.0
220
0.0
230
1.0
 70
    24
 71
     3
 72
     8
 73
     4
 74
     0
 42
0.000000001
 43
0.00000001
 40
0.0
 40
0.0
 40
0.0
 40
0.0
 40
1.0
 40
1.0
 40
1.0
 40
1.0
 10
452.4376432339486
 20
378.468152866242
 30
0.0
 10
451.711811909047
 20
378.468152866242
 30
0.0
 10
450.9863796305839
 20
378.4681528662414
 30
0.0
 10
450.2492578109842
 20
378.4681528662414
 30
0.0
  0
LINE
  5
E9
330
1F
100
AcDbEntity
  8
0
  6
Continuous
 62
     7
370
    25
100
AcDbLine
 10
443.492516468
 20
364.468151704
 30
0.0
 11
466.9925158962
 21
364.468151704
 31
0.0
  0
LINE
  5
EA
330
1F
100
AcDbEntity
  8
0
  6
Continuous
 62
     7
370
    25
100
AcDbLine
 10
450.2492580216
 20
378.4681521361
 30
0.0
 11
442.8483020167
 21
378.4681521361
 31
0.0
  0
LINE
  5
EB
330
1F
100
AcDbEntity
  8
0
  6
Continuous
 62
     7
370
    25
100
AcDbLine
 10
444.7650160293
 20
361.2406533216
 30
0.0
 11
465.7200159274
 21
361.2406533216
 31
0.0
  0
LINE
  5
EC
330
1F
100
AcDbEntity
  8
0
  6
Continuous
 62
     7
370
    25
100
AcDbLine
 10
460.607029556
 20
355.6956518446
 30
0.0
 11
465.7200159274
 21
355.6956518446
 31
0.0
  0
LINE
  5
ED
330
1F
100
AcDbEntity
  8
0
  6
Continuous
 62
     7
370
    25
100
AcDbLine
 10
460.607029556
 20
359.7681541001
 30
0.0
 11
460.607029556
 21
355.6956518446
 31
0.0
  0
LINE
  5
EE
330
1F
100
AcDbEntity
  8
0
  6
Continuous
 62
     7
370
    25
100
AcDbLine
 10
449.8780021097
 20
359.7681541001
 30
0.0
 11
460.607029556
 21
359.7681541001
 31
0.0
  0
LINE
  5
EF
330
1F
100
AcDbEntity
  8
0
  6
Continuous
 62
     7
370
    25
100
AcDbLine
 10
449.8780021097
 20
355.6956518446
 30
0.0
 11
449.8780021097
 21
359.7681541001
 31
0.0
  0
LINE
  5
F0
330
1F
100
AcDbEntity
  8
0
  6
Continuous
 62
     7
370
    25
100
AcDbLine
 10
444.7650160293
 20
355.6956518446
 30
0.0
 11
449.8780021097
 21
355.6956518446
 31
0.0
  0
LINE
  5
F1
330
1F
100
AcDbEntity
  8
0
  6
Continuous
 62
     7
370
    25
100
AcDbLine
 10
445.9925159465
 20
362.4681513761
 30
0.0
 11
464.492515923
 21
362.4681513761
 31
0.0
  0
SPLINE
  5
F2
330
1F
100
AcDbEntity
  8
0
  6
Continuous
 62
     7
370
    25
100
AcDbSpline
210
0.0
220
0.0
230
1.0
 70
     8
 71
     3
 72
     8
 73
     4
 74
     0
 42
0.000000001
 43
0.00000001
 40
0.0
 40
0.0
 40
0.0
 40
0.0
 40
1.0
 40
1.0
 40
1.0
 40
1.0
 10
453.1065149761701
 20
354.468152866242
 30
0.0
 10
452.08362217772
 20
354.7043582689722
 30
0.0
 10
451.036635741918
 20
355.1024288298344
 30
0.0
 10
449.8780023045385
 20
355.695652866242
 30
0.0
  0
LINE
  5
F3
330
1F
100
AcDbEntity
  8
0
  6
Continuous
 62
     7
370
    25
100
AcDbLine
 10
445.9925159465
 20
354.4681537901
 30
0.0
 11
453.1065147023
 21
354.4681537901
 31
0.0
  0
LINE
  5
F4
330
1F
100
AcDbEntity
  8
0
  6
Continuous
 62
     7
370
    25
100
AcDbLine
 10
457.3785169634
 20
354.4681537901
 30
0.0
 11
453.1065147023
 21
354.4681537901
 31
0.0
  0
SPLINE
  5
F5
330
1F
100
AcDbEntity
  8
0
  6
Continuous
 62
     7
370
    25
100
AcDbSpline
210
0.0
220
0.0
230
1.0
 70
     8
 71
     3
 72
     8
 73
     4
 74
     0
 42
0.000000001
 43
0.00000001
 40
0.0
 40
0.0
 40
0.0
 40
0.0
 40
1.0
 40
1.0
 40
1.0
 40
1.0
 10
460.6070295204609
 20
355.695652866242
 30
0.0
 10
459.4483960830813
 20
355.1024288298344
 30
0.0
 10
458.4014096472793
 20
354.7043582689722
 30
0.0
 10
457.3785168488292
 20
354.468152866242
 30
0.0
  0
LINE
  5
F6
330
1F
100
AcDbEntity
  8
0
  6
Continuous
 62
     7
370
    25
100
AcDbLine
 10
457.3785169634
 20
354.4681537901
 30
0.0
 11
464.492515923
 21
354.4681537901
 31
0.0
  0
LINE
  5
F7
330
1F
100
AcDbEntity
  8
0
  6
Continuous
 62
     7
370
    25
100
AcDbLine
 10
523.9625159304
 20
314.9681519722
 30
0.0
 11
514.9625163178
 21
314.9681519722
 31
0.0
  0
LINE
  5
F8
330
1F
100
AcDbEntity
  8
0
  6
Continuous
 62
     7
370
    25
100
AcDbLine
 10
508.2625146608
 20
377.0681526517
 30
0.0
 11
512.2625153165
 21
377.0681526517
 31
0.0
  0
LINE
  5
F9
330
1F
100
AcDbEntity
  8
0
  6
Continuous
 62
     7
370
    25
100
AcDbLine
 10
504.2625177304
 20
377.0681526517
 30
0.0
 11
508.2625146608
 21
377.0681526517
 31
0.0
  0
LINE
  5
FA
330
1F
100
AcDbEntity
  8
0
  6
Continuous
 62
     7
370
    25
100
AcDbLine
 10
507.6521891753
 20
377.8181523089
 30
0.0
 11
508.8728438716
 21
377.8181523089
 31
0.0
  0
LINE
  5
FB
330
1F
100
AcDbEntity
  8
0
  6
Continuous
 62
     8
370
    18
100
AcDbLine
 10
413.2625158529
 20
399.9681528644
 30
0.0
 11
413.2625158529
 21
434.9681530153
 31
0.0
  0
LINE
  5
FC
330
1F
100
AcDbEntity
  8
0
  6
Continuous
 62
     8
370
    18
100
AcDbLine
 10
413.2625158529
 20
364.9681527172
 30
0.0
 11
413.2625158529
 21
399.9681528644
 31
0.0
  0
SPLINE
  5
FD
330
1F
100
AcDbEntity
  8
0
  6
Continuous
 62
     8
370
    18
100
AcDbSpline
210
0.0
220
0.0
230
1.0
 70
    11
 71
     3
 72
    70
 73
    66
 74
     0
 42
0.000000001
 43
0.00000001
 40
0.0
 40
0.0
 40
0.0
 40
0.0
 40
0.03125
 40
0.03125
 40
0.0625
 40
0.0625
 40
0.09375
 40
0.09375
 40
0.125
 40
0.125
 40
0.15625
 40
0.15625
 40
0.1875
 40
0.1875
 40
0.21875
 40
0.21875
 40
0.25
 40
0.25
 40
0.28125
 40
0.28125
 40
0.3125
 40
0.3125
 40
0.34375
 40
0.34375
 40
0.375
 40
0.375
 40
0.40625
 40
0.40625
 40
0.4375
 40
0.4375
 40
0.46875
 40
0.46875
 40
0.5
 40
0.5
 40
0.53125
 40
0.53125
 40
0.5625
 40
0.5625
 40
0.59375
 40
0.59375
 40
0.625
 40
0.625
 40
0.65625
 40
0.65625
 40
0.6875
 40
0.6875
 40
0.71875
 40
0.71875
 40
0.75
 40
0.75
 40
0.78125
 40
0.78125
 40
0.8125
 40
0.8125
 40
0.84375
 40
0.84375
 40
0.875
 40
0.875
 40
0.90625
 40
0.90625
 40
0.9375
 40
0.9375
 40
0.96875
 40
0.96875
 40
1.0
 40
1.0
 40
1.0
 40
1.0
 10
486.2625159125014
 20
399.968152866242
 30
0.0
 10
486.2625159125014
 20
399.0723195329086
 30
0.0
 10
486.2069516553161
 20
398.1199397459244
 30
0.0
 10
485.9375491962355
 20
396.1084013847892
 30
0.0
 10
485.7235825791681
 20
395.0489528662416
 30
0.0
 10
485.0814492458347
 20
392.8473528662415
 30
0.0
 10
484.6529337890321
 20
391.704907484766
 30
0.0
 10
483.5237834292289
 20
389.388701618503
 30
0.0
 10
482.8225159125012
 20
388.2148195329077
 30
0.0
 10
481.1025159125011
 20
385.9214861995742
 30
0.0
 10
480.0829637763904
 20
384.8023619110897
 30
0.0
 10
477.7160406513511
 20
382.736683547419
 30
0.0
 10
476.3680522446806
 20
381.7911055767365
 30
0.0
 10
473.3922736979675
 20
380.2040236851561
 30
0.0
 10
471.764646090015
 20
379.5639319589425
 30
0.0
 10
468.3450011196006
 20
378.695450696615
 30
0.0
 10
466.5541825791665
 20
378.4681528662402
 30
0.0
 10
462.9708492458329
 20
378.4681528662402
 30
0.0
 10
461.1800307053988
 20
378.695450696615
 30
0.0
 10
457.7603857349843
 20
379.5639319589424
 30
0.0
 10
456.1327581270318
 20
380.2040236851561
 30
0.0
 10
453.1569795803188
 20
381.7911055767365
 30
0.0
 10
451.8089911736483
 20
382.736683547419
 30
0.0
 10
449.442068048609
 20
384.8023619110897
 30
0.0
 10
448.4225159124983
 20
385.9214861995742
 30
0.0
 10
446.7025159124981
 20
388.2148195329077
 30
0.0
 10
446.0012483957704
 20
389.388701618503
 30
0.0
 10
444.8720980359673
 20
391.704907484766
 30
0.0
 10
444.4435825791646
 20
392.8473528662414
 30
0.0
 10
443.8014492458312
 20
395.0489528662416
 30
0.0
 10
443.5874826287638
 20
396.1084013847892
 30
0.0
 10
443.3180801696832
 20
398.1199397459244
 30
0.0
 10
443.2625159124979
 20
399.0723195329086
 30
0.0
 10
443.2625159124979
 20
400.8639861995754
 30
0.0
 10
443.3180801696832
 20
401.8163659865596
 30
0.0
 10
443.5874826287638
 20
403.8279043476948
 30
0.0
 10
443.8014492458312
 20
404.8873528662425
 30
0.0
 10
444.4435825791646
 20
407.0889528662427
 30
0.0
 10
444.8720980359673
 20
408.2313982477182
 30
0.0
 10
446.0012483957704
 20
410.547604113981
 30
0.0
 10
446.7025159124981
 20
411.7214861995764
 30
0.0
 10
448.4225159124983
 20
414.0148195329099
 30
0.0
 10
449.442068048609
 20
415.1339438213943
 30
0.0
 10
451.8089911736483
 20
417.199622185065
 30
0.0
 10
453.1569795803188
 20
418.1452001557476
 30
0.0
 10
456.1327581270318
 20
419.7322820473279
 30
0.0
 10
457.7603857349843
 20
420.3723737735416
 30
0.0
 10
461.1800307053987
 20
421.2408550358691
 30
0.0
 10
462.9708492458329
 20
421.4681528662438
 30
0.0
 10
466.5541825791665
 20
421.4681528662438
 30
0.0
 10
468.3450011196006
 20
421.2408550358691
 30
0.0
 10
471.764646090015
 20
420.3723737735416
 30
0.0
 10
473.3922736979675
 20
419.7322820473279
 30
0.0
 10
476.3680522446806
 20
418.1452001557477
 30
0.0
 10
477.7160406513511
 20
417.199622185065
 30
0.0
 10
480.0829637763904
 20
415.1339438213943
 30
0.0
 10
481.102515912501
 20
414.0148195329099
 30
0.0
 10
482.8225159125012
 20
411.7214861995764
 30
0.0
 10
483.5237834292289
 20
410.547604113981
 30
0.0
 10
484.6529337890321
 20
408.2313982477182
 30
0.0
 10
485.0814492458347
 20
407.0889528662427
 30
0.0
 10
485.7235825791681
 20
404.8873528662425
 30
0.0
 10
485.9375491962355
 20
403.8279043476948
 30
0.0
 10
486.2069516553161
 20
401.8163659865596
 30
0.0
 10
486.2625159125014
 20
400.8639861995754
 30
0.0
 10
486.2625159125014
 20
399.968152866242
 30
0.0
  0
LINE
  5
FE
330
1F
100
AcDbEntity
  8
0
  6
Continuous
 62
     8
370
    18
100
AcDbLine
 10
414.8625168602
 20
399.9681528644
 30
0.0
 11
414.8625168602
 21
383.9681521063
 31
0.0
  0
LINE
  5
FF
330
1F
100
AcDbEntity
  8
0
  6
Continuous
 62
     8
370
    18
100
AcDbLine
 10
414.8625168602
 20
415.9681536262
 30
0.0
 11
414.8625168602
 21
399.9681528644
 31
0.0
  0
LINE
  5
100
330
1F
100
AcDbEntity
  8
0
  6
Continuous
 62
     8
370
    18
100
AcDbLine
 10
426.2625161211
 20
399.9681528644
 30
0.0
 11
426.2625161211
 21
415.9681536262
 31
0.0
  0
LINE
  5
101
330
1F
100
AcDbEntity
  8
0
  6
Continuous
 62
     8
370
    18
100
AcDbLine
 10
426.2625161211
 20
383.9681521063
 30
0.0
 11
426.2625161211
 21
399.9681528644
 31
0.0
  0
SPLINE
  5
102
330
1F
100
AcDbEntity
  8
0
  6
Continuous
 62
     8
370
    18
100
AcDbSpline
210
0.0
220
0.0
230
1.0
 70
     8
 71
     3
 72
    20
 73
    16
 74
     0
 42
0.000000001
 43
0.00000001
 40
0.0
 40
0.0
 40
0.0
 40
0.0
 40
0.4999999999999825
 40
0.4999999999999825
 40
0.749999999999976
 40
0.749999999999976
 40
0.8749999999999787
 40
0.8749999999999787
 40
0.9374999999999741
 40
0.9374999999999741
 40
0.9687499999999805
 40
0.9687499999999805
 40
0.9843749999999902
 40
0.9843749999999902
 40
1.0
 40
1.0
 40
1.0
 40
1.0
 10
490.2625159124997
 20
406.0138554897318
 30
0.0
 10
490.2883828047111
 20
405.9374168205399
 30
0.0
 10
490.3141747995544
 20
405.8608393025341
 30
0.0
 10
490.3534887423499
 20
405.7460004019496
 30
0.0
 10
490.3666845173325
 20
405.7077211124275
 30
0.0
 10
490.3871064882824
 20
405.6504600019283
 30
0.0
 10
490.3940069367879
 20
405.631394823285
 30
0.0
 10
490.4047729544395
 20
405.6029417062067
 30
0.0
 10
490.4084241448918
 20
405.5934785019338
 30
0.0
 10
490.4141999625497
 20
405.5793905813418
 30
0.0
 10
490.4161699860097
 20
405.5747105606578
 30
0.0
 10
490.4193412062413
 20
405.5677690080891
 30
0.0
 10
490.4204322468767
 20
405.5654633719666
 30
0.0
 10
490.4228160536117
 20
405.5609470196068
 30
0.0
 10
490.423589086924
 20
405.5572556025835
 30
0.0
 10
490.4261624704889
 20
405.5571973047686
 30
0.0
  0
SPLINE
  5
103
330
1F
100
AcDbEntity
  8
0
  6
Continuous
 62
     8
370
    18
100
AcDbSpline
210
0.0
220
0.0
230
1.0
 70
     8
 71
     3
 72
    24
 73
    20
 74
     0
 42
0.000000001
 43
0.00000001
 40
0.0
 40
0.0
 40
0.0
 40
0.0
 40
0.0015801100996379
 40
0.0368580484868496
 40
0.072915137673986
 40
0.1093373661993682
 40
0.157896596934951
 40
0.207795840845416
 40
0.2581109293320075
 40
0.3324813307607934
 40
0.4068037252122136
 40
0.4813134901109661
 40
0.5559455799842267
 40
0.6565236303401
 40
0.7536981390750901
 40
0.8484346884726702
 40
0.921894123042902
 40
0.9911167091983353
 40
1.0
 40
1.0
 40
1.0
 40
1.0
 10
469.8974565255609
 20
377.9700733726002
 30
0.0
 10
469.895274135527
 20
377.9697041553341
 30
0.0
 10
469.8443671527129
 20
377.9610916998479
 30
0.0
 10
470.1355991926548
 20
378.0095479938984
 30
0.0
 10
470.6750748730827
 20
378.1079786185132
 30
0.0
 10
471.4931431979601
 20
378.2754484547372
 30
0.0
 10
472.4965522937725
 20
378.5133723441229
 30
0.0
 10
473.6696606003775
 20
378.8406295403477
 30
0.0
 10
475.0815219432324
 20
379.2990148658015
 30
0.0
 10
476.7112354068616
 20
379.9288777186126
 30
0.0
 10
478.5334841242615
 20
380.7827546704366
 30
0.0
 10
480.3324674754054
 20
381.7916700564538
 30
0.0
 10
482.2922830053203
 20
383.10129237958
 30
0.0
 10
484.3409577353306
 20
384.7772113365657
 30
0.0
 10
486.3798639076348
 20
386.9005332443767
 30
0.0
 10
488.0308928875961
 20
389.1329194408556
 30
0.0
 10
489.2881852245679
 20
391.3758193795795
 30
0.0
 10
489.94631836669
 20
392.9350051594839
 30
0.0
 10
490.2302188575846
 20
393.7711591072873
 30
0.0
 10
490.2625079850819
 20
393.8662582081832
 30
0.0
  0
SPLINE
  5
104
330
1F
100
AcDbEntity
  8
0
  6
Continuous
 62
     8
370
    18
100
AcDbSpline
210
0.0
220
0.0
230
1.0
 70
     8
 71
     3
 72
    22
 73
    18
 74
     0
 42
0.000000001
 43
0.00000001
 40
0.0
 40
0.0
 40
0.0
 40
0.0
 40
0.1194912603899617
 40
0.1886291822044787
 40
0.2625518852643779
 40
0.332749647593688
 40
0.4085774415281803
 40
0.5052188344309477
 40
0.602834169437507
 40
0.703988532651898
 40
0.7781190833147197
 40
0.8520260123542913
 40
0.8888616827304399
 40
0.9252013818340838
 40
0.960925503729366
 40
0.9957656521083152
 40
1.0
 40
1.0
 40
1.0
 40
1.0
 10
490.4261786143448
 20
405.5570876230575
 30
0.0
 10
489.9488208161044
 20
406.8443242256769
 30
0.0
 10
489.195262683006
 20
408.8763589273227
 30
0.0
 10
487.6732217150043
 20
411.2985070445209
 30
0.0
 10
486.3033243843666
 20
413.0875376343092
 30
0.0
 10
484.7558960116841
 20
414.7317559731923
 30
0.0
 10
482.9413501191067
 20
416.3390691323949
 30
0.0
 10
480.811155166441
 20
417.8691486671844
 30
0.0
 10
478.3945733725381
 20
419.2480773023502
 30
0.0
 10
476.1184170073701
 20
420.262422593134
 30
0.0
 10
474.0506913913781
 20
420.9904106011047
 30
0.0
 10
472.5550872094505
 20
421.409910010347
 30
0.0
 10
471.4519446185996
 20
421.6688631848858
 30
0.0
 10
470.6994789152859
 20
421.8236727057422
 30
0.0
 10
470.1438902093352
 20
421.9252948253814
 30
0.0
 10
469.8454678723472
 20
421.9749286182074
 30
0.0
 10
469.9022088608434
 20
421.9653734999624
 30
0.0
 10
469.9083576562967
 20
421.9643380497672
 30
0.0
  0
SPLINE
  5
105
330
1F
100
AcDbEntity
  8
0
  6
Continuous
 62
     8
370
    18
100
AcDbSpline
210
0.0
220
0.0
230
1.0
 70
     8
 71
     3
 72
    12
 73
     8
 74
     0
 42
0.000000001
 43
0.00000001
 40
0.0
 40
0.0
 40
0.0
 40
0.0
 40
0.2500000000000001
 40
0.2500000000000001
 40
0.5000000000000001
 40
0.5000000000000001
 40
1.0
 40
1.0
 40
1.0
 40
1.0
 10
500.8206090371905
 20
404.2980075541386
 30
0.0
 10
500.6951167009014
 20
403.5831279059596
 30
0.0
 10
500.5839317486945
 20
402.8583516776223
 30
0.0
 10
500.3934512414635
 20
401.4037963736217
 30
0.0
 10
500.3144135062105
 20
400.6768346025322
 30
0.0
 10
500.1250911825773
 20
398.4968828452625
 30
0.0
 10
500.0625159124996
 20
397.0447905580829
 30
0.0
 10
500.0625159124996
 20
395.5942802561232
 30
0.0
  0
ARC
  5
106
330
1F
100
AcDbEntity
  8
0
  6
Continuous
 62
     8
370
    18
100
AcDbCircle
 10
500.0384603893
 20
395.7374615501
 30
0.0
 40
0.145188276327053
100
AcDbArc
 50
238.4611131561
 51
279.5376323426
  0
ARC
  5
107
330
1F
100
AcDbEntity
  8
0
  6
Continuous
 62
     8
370
    18
100
AcDbCircle
 10
500.7739137101
 20
404.1637109562
 30
0.0
 40
0.1421834269006495
100
AcDbArc
 50
70.8268085612
 51
111.3592296506
  0
SPLINE
  5
108
330
1F
100
AcDbEntity
  8
0
  6
Continuous
 62
     8
370
    18
100
AcDbSpline
210
0.0
220
0.0
230
1.0
 70
     8
 71
     3
 72
    12
 73
     8
 74
     0
 42
0.000000001
 43
0.00000001
 40
0.0
 40
0.0
 40
0.0
 40
0.0
 40
0.2084975936898225
 40
0.4194264294150221
 40
0.6329292508210468
 40
0.8459625608391157
 40
1.0
 40
1.0
 40
1.0
 40
1.0
 10
519.462514261451
 20
378.3090617512442
 30
0.0
 10
520.1519963909433
 20
378.2918328749686
 30
0.0
 10
521.5390005409699
 20
378.2571742204913
 30
0.0
 10
523.4382972290999
 20
378.0075343970175
 30
0.0
 10
524.9329433206905
 20
377.7207672207415
 30
0.0
 10
525.8497400290005
 20
377.4972012425524
 30
0.0
 10
525.8807599943486
 20
377.4888936936948
 30
0.0
 10
525.8937772016194
 20
377.4854075168349
 30
0.0
  0
SPLINE
  5
109
330
1F
100
AcDbEntity
  8
0
  6
Continuous
 62
     8
370
    18
100
AcDbSpline
210
0.0
220
0.0
230
1.0
 70
     8
 71
     3
 72
    12
 73
     8
 74
     0
 42
0.000000001
 43
0.00000001
 40
0.0
 40
0.0
 40
0.0
 40
0.0
 40
0.1391562605008849
 40
0.3412741679600814
 40
0.5520373073881563
 40
0.7729201225236503
 40
0.9999999999999999
 40
0.9999999999999999
 40
0.9999999999999999
 40
0.9999999999999999
 10
513.0388658146527
 20
377.4873651568867
 30
0.0
 10
513.0413997807754
 20
377.488131913339
 30
0.0
 10
513.0476142132202
 20
377.4900123473873
 30
0.0
 10
513.8653236864207
 20
377.6912871935991
 30
0.0
 10
515.2843082456889
 20
377.9735964943073
 30
0.0
 10
517.2287628325454
 20
378.2480160989348
 30
0.0
 10
518.7110949832235
 20
378.2885263956072
 30
0.0
 10
519.462514261451
 20
378.3090617512442
 30
0.0
  0
LINE
  5
10A
330
1F
100
AcDbEntity
  8
0
  6
Continuous
 62
     8
370
    18
100
AcDbLine
 10
528.4225191574
 20
399.9681528662
 30
0.0
 11
528.4225191574
 21
422.4681537603
 31
0.0
  0
LINE
  5
10B
330
1F
100
AcDbEntity
  8
0
  6
Continuous
 62
     8
370
    18
100
AcDbLine
 10
528.4225191574
 20
377.4681519722
 30
0.0
 11
528.4225191574
 21
399.9681528662
 31
0.0
  0
LINE
  5
10C
330
1F
100
AcDbEntity
  8
0
  6
Continuous
 62
     8
370
    18
100
AcDbLine
 10
500.0625174145
 20
395.5942802136
 30
0.0
 11
500.0625174145
 21
377.4681519722
 31
0.0
  0
SPLINE
  5
10D
330
1F
100
AcDbEntity
  8
0
  6
Continuous
 62
     8
370
    18
100
AcDbSpline
210
0.0
220
0.0
230
1.0
 70
    24
 71
     3
 72
    24
 73
    20
 74
     0
 42
0.000000001
 43
0.00000001
 40
0.0
 40
0.0
 40
0.0
 40
0.0
 40
0.041681556531406
 40
0.1041815595122635
 40
0.1666815507742536
 40
0.229181562563814
 40
0.2916815539813548
 40
0.3541815614294961
 40
0.4166815587297933
 40
0.479181557310132
 40
0.5416815565314049
 40
0.6041815595122625
 40
0.6666815507742525
 40
0.729181562563813
 40
0.7916815539813538
 40
0.854181561429495
 40
0.9166815587297923
 40
0.9791815573101311
 40
1.0
 40
1.0
 40
1.0
 40
1.0
 10
493.7625150780347
 20
378.0622594063259
 30
0.0
 10
493.7625150780347
 20
378.06141067288
 30
0.0
 10
493.7625150780347
 20
378.059289293993
 30
0.0
 10
493.7625150780347
 20
379.0219554155692
 30
0.0
 10
493.7625150780347
 20
380.7872689346077
 30
0.0
 10
493.7625150780347
 20
383.3225302463203
 30
0.0
 10
493.7625150780347
 20
386.4886745195867
 30
0.0
 10
493.7625150780347
 20
390.1751837490559
 30
0.0
 10
493.7625150780347
 20
394.2373996118263
 30
0.0
 10
493.7625150780347
 20
398.5200201400382
 30
0.0
 10
493.7625150780347
 20
402.8582243599481
 30
0.0
 10
493.7625150780347
 20
407.0854573551971
 30
0.0
 10
493.7625150780347
 20
411.0388718376703
 30
0.0
 10
493.7625150780347
 20
414.5679743705758
 30
0.0
 10
493.7625150780347
 20
417.5317940919997
 30
0.0
 10
493.7625150780347
 20
419.8364052717937
 30
0.0
 10
493.7625150780347
 20
421.3187088969698
 30
0.0
 10
493.7625150780347
 20
422.0040023688419
 30
0.0
 10
493.7625150780347
 20
421.9000263855178
 30
0.0
 10
493.7625150780347
 20
421.8740463261582
 30
0.0
  0
LINE
  5
10E
330
1F
100
AcDbEntity
  8
0
  6
Continuous
 62
     8
370
    18
100
AcDbLine
 10
490.7825156699
 20
404.1729653259
 30
0.0
 11
490.7825156699
 21
404.2093339381
 31
0.0
  0
LINE
  5
10F
330
1F
100
AcDbEntity
  8
0
  6
Continuous
 62
     8
370
    18
100
AcDbLine
 10
490.7825156699
 20
404.2166490113
 30
0.0
 11
490.7825156699
 21
421.968152747
 31
0.0
  0
LINE
  5
110
330
1F
100
AcDbEntity
  8
0
  6
Continuous
 62
     8
370
    18
100
AcDbLine
 10
490.7825156699
 20
377.9681529855
 30
0.0
 11
490.7825156699
 21
404.1729653259
 31
0.0
  0
SPLINE
  5
111
330
1F
100
AcDbEntity
  8
0
  6
Continuous
 62
     8
370
    18
100
AcDbSpline
210
0.0
220
0.0
230
1.0
 70
     8
 71
     3
 72
     9
 73
     5
 74
     0
 42
0.000000001
 43
0.00000001
 40
0.0
 40
0.0
 40
0.0
 40
0.0
 40
0.4989209168642045
 40
1.0
 40
1.0
 40
1.0
 40
1.0
 10
452.4251472456592
 20
378.5590619574397
 30
0.0
 10
452.4834189231998
 20
378.5436492724188
 30
0.0
 10
452.600214342215
 20
378.5127572322179
 30
0.0
 10
452.7192501683797
 20
378.4829711123497
 30
0.0
 10
452.7788965310147
 20
378.4680459107161
 30
0.0
  0
LWPOLYLINE
  5
112
330
1F
100
AcDbEntity
  8
0
  6
Continuous
 62
     8
370
    18
100
AcDbPolyline
 90
        9
 70
   128
 43
0.0
 10
452.4251469995
 20
378.5590622579
 10
452.6192485939
 20
378.9958395069
 10
452.7781266372
 20
379.4036377226
 10
452.8987673695
 20
379.7747176145
 10
452.9788834627
 20
380.1020421092
 10
453.0169531356
 20
380.3793992852
 10
453.0122555445
 20
380.6015290325
 10
452.9648791651
 20
380.7642180477
 10
452.8757236551
 20
380.864379928
  0
LWPOLYLINE
  5
113
330
1F
100
AcDbEntity
  8
0
  6
Continuous
 62
     8
370
    18
100
AcDbPolyline
 90
        9
 70
   128
 43
0.0
 10
455.6125063102
 20
378.0450709169
 10
455.7772619303
 20
378.2812990253
 10
455.9367267068
 20
378.4861564641
 10
456.089261512
 20
378.6575421696
 10
456.2332979988
 20
378.7936922168
 10
456.3673562954
 20
378.8932058965
 10
456.4900580446
 20
378.9550624793
 10
456.6001431669
 20
378.9786249404
 10
456.6964782427
 20
378.9636529987
  0
SPLINE
  5
114
330
1F
100
AcDbEntity
  8
0
  6
Continuous
 62
     8
370
    18
100
AcDbSpline
210
0.0
220
0.0
230
1.0
 70
     8
 71
     3
 72
    16
 73
    12
 74
     0
 42
0.000000001
 43
0.00000001
 40
0.0
 40
0.0
 40
0.0
 40
0.0
 40
0.128184474098209
 40
0.2596553972031233
 40
0.3951878772000755
 40
0.4915383312925202
 40
0.5950811909189957
 40
0.6893407761522745
 40
0.7968264771168657
 40
0.898731831624499
 40
1.0
 40
1.0
 40
1.0
 40
1.0
 10
450.2145988519457
 20
378.9681252096869
 30
0.0
 10
449.8337983863613
 20
379.3726118165772
 30
0.0
 10
449.0624343281001
 20
380.191955432989
 30
0.0
 10
448.0307438357122
 20
381.5131589485786
 30
0.0
 10
447.173704576584
 20
382.7636522922504
 30
0.0
 10
446.4595381000296
 20
383.9438123507724
 30
0.0
 10
445.8866899221591
 20
384.993377816282
 30
0.0
 10
445.345429921193
 20
386.095070834101
 30
0.0
 10
444.8592590085703
 20
387.1992800784569
 30
0.0
 10
444.4112462238592
 20
388.3351670046565
 30
0.0
 10
444.1591576860831
 20
389.0782118769995
 30
0.0
 10
444.0335087130931
 20
389.4485691567041
 30
0.0
  0
SPLINE
  5
115
330
1F
100
AcDbEntity
  8
0
  6
Continuous
 62
     8
370
    18
100
AcDbSpline
210
0.0
220
0.0
230
1.0
 70
     8
 71
     3
 72
    10
 73
     6
 74
     0
 42
0.000000001
 43
0.00000001
 40
0.0
 40
0.0
 40
0.0
 40
0.0
 40
0.3123103636950325
 40
0.645539406858308
 40
1.0
 40
1.0
 40
1.0
 40
1.0
 10
450.2145587469257
 20
378.9681252989143
 30
0.0
 10
450.4441861596142
 20
378.9249248615217
 30
0.0
 10
450.9188215256376
 20
378.8356304032768
 30
0.0
 10
451.6539577413511
 20
378.6984305188135
 30
0.0
 10
452.162846970337
 20
378.6064645824793
 30
0.0
 10
452.4251472413125
 20
378.5590619481791
 30
0.0
  0
SPLINE
  5
116
330
1F
100
AcDbEntity
  8
0
  6
Continuous
 62
     8
370
    18
100
AcDbSpline
210
0.0
220
0.0
230
1.0
 70
     8
 71
     3
 72
    10
 73
     6
 74
     0
 42
0.000000001
 43
0.00000001
 40
0.0
 40
0.0
 40
0.0
 40
0.0
 40
0.5
 40
0.5
 40
1.0
 40
1.0
 40
1.0
 40
1.0
 10
464.7625159124997
 20
377.468152866242
 30
0.0
 10
463.4840741299408
 20
377.468152866242
 30
0.0
 10
462.2056600448291
 20
377.4943114669426
 30
0.0
 10
459.6462429683023
 20
377.6017501017463
 30
0.0
 10
458.3654857018958
 20
377.6827688575281
 30
0.0
 10
457.0803936518499
 20
377.7966020217308
 30
0.0
  0
ARC
  5
117
330
1F
100
AcDbEntity
  8
0
  6
Continuous
 62
     8
370
    18
100
AcDbCircle
 10
455.492826312
 20
378.9344308707
 30
0.0
 40
3.090559489762639
100
AcDbArc
 50
186.9761701696
 51
188.6774606656
  0
ARC
  5
118
330
1F
100
AcDbEntity
  8
0
  6
Continuous
 62
     8
370
    18
100
AcDbCircle
 10
453.7710886397
 20
378.9633682374
 30
0.0
 40
3.556477174068365
100
AcDbArc
 50
179.9229137912
 51
188.0040695184
  0
LINE
  5
119
330
1F
100
AcDbEntity
  8
0
  6
Continuous
 62
     8
370
    18
100
AcDbLine
 10
442.7625160317
 20
378.9681531494
 30
0.0
 11
450.2146146844
 21
378.9681531494
 31
0.0
  0
LINE
  5
11A
330
1F
100
AcDbEntity
  8
0
  6
Continuous
 62
     8
370
    18
100
AcDbLine
 10
464.492515923
 20
363.968154416
 30
0.0
 11
445.9925159465
 21
363.968154416
 31
0.0
  0
SPLINE
  5
11B
330
1F
100
AcDbEntity
  8
0
  6
Continuous
 62
     8
370
    18
100
AcDbSpline
210
0.0
220
0.0
230
1.0
 70
     8
 71
     3
 72
    14
 73
    10
 74
     0
 42
0.000000001
 43
0.00000001
 40
0.0
 40
0.0
 40
0.0
 40
0.0
 40
0.0054933181194239
 40
0.2126396513105978
 40
0.2197774534428843
 40
0.4371812886055789
 40
0.6491957447866821
 40
0.8557134197995725
 40
1.0
 40
1.0
 40
1.0
 40
1.0
 10
519.462514261451
 20
376.865122467754
 30
0.0
 10
519.4480752507608
 20
376.8651076864683
 30
0.0
 10
518.889158739521
 20
376.8645355209098
 30
0.0
 10
518.3047149143649
 20
376.8258871989557
 30
0.0
 10
517.2428553169514
 20
376.6962472950077
 30
0.0
 10
516.2325536415725
 20
376.5061552511161
 30
0.0
 10
515.1504388892638
 20
376.2032878023271
 30
0.0
 10
514.5266412128326
 20
375.9911173479647
 30
0.0
 10
514.5224160719305
 20
375.9892259680076
 30
0.0
 10
514.5206782619622
 20
375.9884480391718
 30
0.0
  0
SPLINE
  5
11C
330
1F
100
AcDbEntity
  8
0
  6
Continuous
 62
     8
370
    18
100
AcDbSpline
210
0.0
220
0.0
230
1.0
 70
     8
 71
     3
 72
    12
 73
     8
 74
     0
 42
0.000000001
 43
0.00000001
 40
0.0
 40
0.0
 40
0.0
 40
0.0
 40
0.1597827021682814
 40
0.3771823444169271
 40
0.5913801473255978
 40
0.798486500718131
 40
1.0
 40
1.0
 40
1.0
 40
1.0
 10
524.4105565945771
 20
375.98624080467
 30
0.0
 10
524.4007318390114
 20
375.9898882524272
 30
0.0
 10
524.3775395642077
 20
375.9984984015708
 30
0.0
 10
523.6789290366893
 20
376.234971444125
 30
0.0
 10
522.5353973020349
 20
376.5400313796086
 30
0.0
 10
521.0729349565795
 20
376.8086728532024
 30
0.0
 10
519.9944004606741
 20
376.8464784134256
 30
0.0
 10
519.462514261451
 20
376.865122467754
 30
0.0
  0
LINE
  5
11D
330
1F
100
AcDbEntity
  8
0
  6
Continuous
 62
     8
370
    18
100
AcDbLine
 10
514.4625153045
 20
315.4681529855
 30
0.0
 11
524.4625169437
 21
315.4681529855
 31
0.0
  0
LINE
  5
11E
330
1F
100
AcDbEntity
  8
0
  6
Continuous
 62
     8
370
    18
100
AcDbLine
 10
504.4810991387
 20
376.4676060532
 30
0.0
 11
512.0439339082
 21
376.4676060532
 31
0.0
  0
SPLINE
  5
11F
330
1F
100
AcDbEntity
  8
0
  6
Continuous
 62
     7
370
    25
100
AcDbSpline
210
0.0
220
0.0
230
1.0
 70
     8
 71
     3
 72
    12
 73
     8
 74
     0
 42
0.000000001
 43
0.00000001
 40
0.0
 40
0.0
 40
0.0
 40
0.0
 40
0.2044202787006567
 40
0.4472422720393167
 40
0.7178089007160395
 40
0.9954507154390814
 40
1.0
 40
1.0
 40
1.0
 40
1.0
 10
182.3493378182513
 20
378.2027773563839
 30
0.0
 10
182.4629527336122
 20
378.1361259385347
 30
0.0
 10
182.711525884997
 20
377.9903021888414
 30
0.0
 10
183.0078778724721
 20
377.6193096624818
 30
0.0
 10
183.1728413075489
 20
377.1417142219907
 30
0.0
 10
183.2174037017422
 20
376.7654543742213
 30
0.0
 10
183.1535166003657
 20
376.5960800348176
 30
0.0
 10
183.152486657874
 20
376.5933495019652
 30
0.0
  0
SPLINE
  5
120
330
1F
100
AcDbEntity
  8
0
  6
Continuous
 62
     7
370
    25
100
AcDbSpline
210
0.0
220
0.0
230
1.0
 70
     8
 71
     3
 72
    12
 73
     8
 74
     0
 42
0.000000001
 43
0.00000001
 40
0.0
 40
0.0
 40
0.0
 40
0.0
 40
0.262241765393555
 40
0.506907854615806
 40
0.7137211874512063
 40
0.8859645965433887
 40
1.0
 40
1.0
 40
1.0
 40
1.0
 10
193.1875782033068
 20
376.841656864164
 30
0.0
 10
193.1933895739109
 20
376.9844086612775
 30
0.0
 10
193.2046228318966
 20
377.2603449031984
 30
0.0
 10
193.3660739403614
 20
377.6195821538864
 30
0.0
 10
193.5696081902131
 20
377.8896732463471
 30
0.0
 10
193.7699275282209
 20
378.0692111436554
 30
0.0
 10
193.9040134465457
 20
378.1467597892773
 30
0.0
 10
193.9574248103065
 20
378.1776502733208
 30
0.0
  0
LINE
  5
121
330
1F
100
AcDbEntity
  8
0
  6
Continuous
 62
     7
370
    25
100
AcDbLine
 10
183.1788854619
 20
376.8651224678
 30
0.0
 11
183.1788854619
 21
315.4681529855
 31
0.0
  0
LINE
  5
122
330
1F
100
AcDbEntity
  8
0
  6
Continuous
 62
     7
370
    25
100
AcDbLine
 10
193.1788852384
 20
315.4681529855
 30
0.0
 11
193.1788852384
 21
376.8476918344
 31
0.0
  0
ARC
  5
123
330
1F
100
AcDbEntity
  8
0
  6
Continuous
 62
     7
370
    25
100
AcDbCircle
 10
192.6788853502
 20
315.4681528662
 30
0.0
 40
0.5
100
AcDbArc
 50
270.0
 51
0.0
  0
ARC
  5
124
330
1F
100
AcDbEntity
  8
0
  6
Continuous
 62
     7
370
    25
100
AcDbCircle
 10
183.6788853502
 20
315.4681528662
 30
0.0
 40
0.5
100
AcDbArc
 50
180.0
 51
270.0
  0
LINE
  5
125
330
1F
100
AcDbEntity
  8
0
  6
Continuous
 62
     7
370
    25
100
AcDbLine
 10
287.1788848137
 20
422.4681537603
 30
0.0
 11
89.1788858866
 21
422.4681537603
 31
0.0
  0
LINE
  5
126
330
1F
100
AcDbEntity
  8
0
  6
Continuous
 62
     7
370
    25
100
AcDbLine
 10
200.6791491007
 20
377.4681519722
 30
0.0
 11
287.1788848137
 21
377.4681519722
 31
0.0
  0
LINE
  5
127
330
1F
100
AcDbEntity
  8
0
  6
Continuous
 62
     7
370
    25
100
AcDbLine
 10
89.1788858866
 20
377.4681519722
 30
0.0
 11
175.6784325411
 21
377.4681519722
 31
0.0
  0
SPLINE
  5
128
330
1F
100
AcDbEntity
  8
0
  6
Continuous
 62
     7
370
    25
100
AcDbSpline
210
0.0
220
0.0
230
1.0
 70
     8
 71
     3
 72
    13
 73
     9
 74
     0
 42
0.000000001
 43
0.00000001
 40
0.0
 40
0.0
 40
0.0
 40
0.0
 40
0.2394577066219647
 40
0.3683599129141835
 40
0.4999988380280699
 40
0.631640014560398
 40
0.7605432395302221
 40
1.0
 40
1.0
 40
1.0
 40
1.0
 10
287.1788848137123
 20
377.4681519721724
 30
0.0
 10
287.3046817448296
 20
377.4815097440668
 30
0.0
 10
287.4981962791704
 20
377.5020581229902
 30
0.0
 10
287.7310104776236
 20
377.6267583638601
 30
0.0
 10
287.891216376478
 20
377.7558199342549
 30
0.0
 10
288.0202844060964
 20
377.9160227292987
 30
0.0
 10
288.1449747778313
 20
378.148843437302
 30
0.0
 10
288.1655267730013
 20
378.3423566111757
 30
0.0
 10
288.1788868402701
 20
378.4681521360852
 30
0.0
  0
SPLINE
  5
129
330
1F
100
AcDbEntity
  8
0
  6
Continuous
 62
     7
370
    25
100
AcDbSpline
210
0.0
220
0.0
230
1.0
 70
     8
 71
     3
 72
    13
 73
     9
 74
     0
 42
0.000000001
 43
0.00000001
 40
0.0
 40
0.0
 40
0.0
 40
0.0
 40
0.2394567604697781
 40
0.3683599854396021
 40
0.5000011619719302
 40
0.6316400870858166
 40
0.7605422933780354
 40
1.0
 40
1.0
 40
1.0
 40
1.0
 10
288.1788868402702
 20
421.468153596399
 30
0.0
 10
288.1655267730014
 20
421.5939491213084
 30
0.0
 10
288.1449747778314
 20
421.787462295182
 30
0.0
 10
288.0202844060964
 20
422.0202830031853
 30
0.0
 10
287.891216376478
 20
422.1804857982291
 30
0.0
 10
287.7310104776236
 20
422.309547368624
 30
0.0
 10
287.4981962791704
 20
422.4342476094939
 30
0.0
 10
287.3046817448296
 20
422.4547959884172
 30
0.0
 10
287.1788848137123
 20
422.4681537603117
 30
0.0
  0
SPLINE
  5
12A
330
1F
100
AcDbEntity
  8
0
  6
Continuous
 62
     7
370
    25
100
AcDbSpline
210
0.0
220
0.0
230
1.0
 70
     8
 71
     3
 72
    13
 73
     9
 74
     0
 42
0.000000001
 43
0.00000001
 40
0.0
 40
0.0
 40
0.0
 40
0.0
 40
0.2394577066219647
 40
0.3683599129141835
 40
0.4999988380280699
 40
0.631640014560398
 40
0.7605432395302221
 40
1.0
 40
1.0
 40
1.0
 40
1.0
 10
89.17888588659585
 20
422.4681537603117
 30
0.0
 10
89.05308895547849
 20
422.4547959884172
 30
0.0
 10
88.85957442113774
 20
422.4342476094939
 30
0.0
 10
88.62676022268448
 20
422.309547368624
 30
0.0
 10
88.46655432383015
 20
422.1804857982291
 30
0.0
 10
88.33748629421169
 20
422.0202830031853
 30
0.0
 10
88.21279592247683
 20
421.787462295182
 30
0.0
 10
88.19224392730678
 20
421.5939491213083
 30
0.0
 10
88.17888386003794
 20
421.468153596399
 30
0.0
  0
SPLINE
  5
12B
330
1F
100
AcDbEntity
  8
0
  6
Continuous
 62
     7
370
    25
100
AcDbSpline
210
0.0
220
0.0
230
1.0
 70
     8
 71
     3
 72
    13
 73
     9
 74
     0
 42
0.000000001
 43
0.00000001
 40
0.0
 40
0.0
 40
0.0
 40
0.0
 40
0.2394567604697781
 40
0.3683599854396021
 40
0.5000011619719302
 40
0.6316400870858166
 40
0.7605422933780354
 40
1.0
 40
1.0
 40
1.0
 40
1.0
 10
88.17888386003793
 20
378.4681521360852
 30
0.0
 10
88.19224392730673
 20
378.3423566111757
 30
0.0
 10
88.21279592247679
 20
378.148843437302
 30
0.0
 10
88.33748629421173
 20
377.9160227292987
 30
0.0
 10
88.46655432383015
 20
377.7558199342549
 30
0.0
 10
88.62676022268448
 20
377.6267583638601
 30
0.0
 10
88.85957442113775
 20
377.5020581229902
 30
0.0
 10
89.05308895547849
 20
377.4815097440668
 30
0.0
 10
89.17888588659585
 20
377.4681519721724
 30
0.0
  0
LINE
  5
12C
330
1F
100
AcDbEntity
  8
0
  6
Continuous
 62
     7
370
    25
100
AcDbLine
 10
199.9288849478
 20
364.468151704
 30
0.0
 11
199.9288849478
 21
377.4681519722
 31
0.0
  0
LINE
  5
12D
330
1F
100
AcDbEntity
  8
0
  6
Continuous
 62
     7
370
    25
100
AcDbLine
 10
176.4288857525
 20
377.4681519722
 30
0.0
 11
176.4288857525
 21
364.468151704
 31
0.0
  0
LINE
  5
12E
330
1F
100
AcDbEntity
  8
0
  6
Continuous
 62
     7
370
    25
100
AcDbLine
 10
198.6563853865
 20
359.7681541001
 30
0.0
 11
198.6563853865
 21
361.2406533216
 31
0.0
  0
LINE
  5
12F
330
1F
100
AcDbEntity
  8
0
  6
Continuous
 62
     7
370
    25
100
AcDbLine
 10
177.7013853138
 20
361.2406533216
 30
0.0
 11
177.7013853138
 21
359.7681541001
 31
0.0
  0
LINE
  5
130
330
1F
100
AcDbEntity
  8
0
  6
Continuous
 62
     7
370
    25
100
AcDbLine
 10
198.6563853865
 20
361.2406533216
 30
0.0
 11
197.4288854694
 21
362.4681513761
 31
0.0
  0
LINE
  5
131
330
1F
100
AcDbEntity
  8
0
  6
Continuous
 62
     7
370
    25
100
AcDbLine
 10
178.9288852309
 20
362.4681513761
 30
0.0
 11
177.7013853138
 21
361.2406533216
 31
0.0
  0
ARC
  5
132
330
1F
100
AcDbEntity
  8
0
  6
Continuous
 62
     7
370
    25
100
AcDbCircle
 10
178.4288853502
 20
363.9681528662
 30
0.0
 40
0.4999999999998295
100
AcDbArc
 50
0.0
 51
90.0
  0
ARC
  5
133
330
1F
100
AcDbEntity
  8
0
  6
Continuous
 62
     7
370
    25
100
AcDbCircle
 10
197.9288853502
 20
363.9681528662
 30
0.0
 40
0.4999999999998295
100
AcDbArc
 50
90.0
 51
180.0
  0
LINE
  5
134
330
1F
100
AcDbEntity
  8
0
  6
Continuous
 62
     7
370
    25
100
AcDbLine
 10
197.4288854694
 20
362.4681513761
 30
0.0
 11
197.4288854694
 21
363.968154416
 31
0.0
  0
LINE
  5
135
330
1F
100
AcDbEntity
  8
0
  6
Continuous
 62
     7
370
    25
100
AcDbLine
 10
178.9288852309
 20
363.968154416
 30
0.0
 11
178.9288852309
 21
362.4681513761
 31
0.0
  0
CIRCLE
  5
136
330
1F
100
AcDbEntity
  8
0
  6
Continuous
 62
     7
370
    25
100
AcDbCircle
 10
188.1788853502
 20
399.9681528662
 30
0.0
 40
22.5
  0
LINE
  5
137
330
1F
100
AcDbEntity
  8
0
  6
Continuous
 62
     7
370
    25
100
AcDbLine
 10
192.6788851564
 20
314.9681519722
 30
0.0
 11
183.6788860095
 21
314.9681519722
 31
0.0
  0
LINE
  5
138
330
1F
100
AcDbEntity
  8
0
  6
Continuous
 62
     7
370
    25
100
AcDbLine
 10
192.1320488622
 20
377.8181523089
 30
0.0
 11
192.1788855401
 21
377.8181523089
 31
0.0
  0
LINE
  5
139
330
1F
100
AcDbEntity
  8
0
  6
Continuous
 62
     7
370
    25
100
AcDbLine
 10
179.3047660907
 20
377.4681519722
 30
0.0
 11
175.6788851639
 21
377.4681519722
 31
0.0
  0
LINE
  5
13A
330
1F
100
AcDbEntity
  8
0
  6
Continuous
 62
     7
370
    25
100
AcDbLine
 10
200.6788855364
 20
377.4681519722
 30
0.0
 11
197.0530046096
 21
377.4681519722
 31
0.0
  0
SPLINE
  5
13B
330
1F
100
AcDbEntity
  8
0
  6
Continuous
 62
     7
370
    25
100
AcDbSpline
210
0.0
220
0.0
230
1.0
 70
     8
 71
     3
 72
    11
 73
     7
 74
     0
 42
0.000000001
 43
0.00000001
 40
0.0
 40
0.0
 40
0.0
 40
0.0
 40
0.0279573579401135
 40
0.4849568436672275
 40
0.9537017143934106
 40
0.9999999999999999
 40
0.9999999999999999
 40
0.9999999999999999
 40
0.9999999999999999
 10
197.0530046095711
 20
377.4681519721724
 30
0.0
 10
197.0228600717422
 20
377.4681869579202
 30
0.0
 10
196.4999637397404
 20
377.4687938313551
 30
0.0
 10
195.3803647925555
 20
377.5004643010577
 30
0.0
 10
194.1532026860535
 20
377.5640021828458
 30
0.0
 10
193.4386358553296
 20
377.5947829815653
 30
0.0
 10
193.374401977436
 20
377.5975499306895
 30
0.0
  0
SPLINE
  5
13C
330
1F
100
AcDbEntity
  8
0
  6
Continuous
 62
     7
370
    25
100
AcDbSpline
210
0.0
220
0.0
230
1.0
 70
     8
 71
     3
 72
     9
 73
     5
 74
     0
 42
0.000000001
 43
0.00000001
 40
0.0
 40
0.0
 40
0.0
 40
0.0
 40
0.4874276066740825
 40
1.0
 40
1.0
 40
1.0
 40
1.0
 10
182.9823787269754
 20
377.5983136152007
 30
0.0
 10
182.3342837563436
 20
377.5656478488806
 30
0.0
 10
181.0046607276975
 20
377.4986311968224
 30
0.0
 10
179.8808172379835
 20
377.4784806078096
 30
0.0
 10
179.304766090737
 20
377.4681519721724
 30
0.0
  0
SPLINE
  5
13D
330
1F
100
AcDbEntity
  8
0
  6
Continuous
 62
     7
370
    25
100
AcDbSpline
210
0.0
220
0.0
230
1.0
 70
    24
 71
     3
 72
    22
 73
    18
 74
     0
 42
0.000000001
 43
0.00000001
 40
0.0
 40
0.0
 40
0.0
 40
0.0
 40
0.1249999999999999
 40
0.1249999999999999
 40
0.2499999999999998
 40
0.2499999999999998
 40
0.3749999999999997
 40
0.3749999999999997
 40
0.4999999999999996
 40
0.4999999999999996
 40
0.6249999999999997
 40
0.6249999999999997
 40
0.7499999999999998
 40
0.7499999999999998
 40
0.8749999999999999
 40
0.8749999999999999
 40
1.0
 40
1.0
 40
1.0
 40
1.0
 10
288.1788853501541
 20
399.9681528662421
 30
0.0
 10
288.1788853501541
 20
400.8639861995803
 30
0.0
 10
288.1788853501541
 20
401.8163659865698
 30
0.0
 10
288.1788853501541
 20
403.8279043477169
 30
0.0
 10
288.1788853501541
 20
404.887352866271
 30
0.0
 10
288.1788853501541
 20
407.0889528662847
 30
0.0
 10
288.1788853501541
 20
408.2313982477672
 30
0.0
 10
288.1788853501541
 20
410.5476041140435
 30
0.0
 10
288.1788853501541
 20
411.721486199645
 30
0.0
 10
288.1788853501541
 20
414.0148195329884
 30
0.0
 10
288.1788853501541
 20
415.1339438214764
 30
0.0
 10
288.178885350154
 20
417.1996221851487
 30
0.0
 10
288.1788853501541
 20
418.1452001558295
 30
0.0
 10
288.178885350154
 20
419.7322820473987
 30
0.0
 10
288.1788853501541
 20
420.3723737736032
 30
0.0
 10
288.178885350154
 20
421.2408550359046
 30
0.0
 10
288.1788853501541
 20
421.4681528662627
 30
0.0
 10
288.1788853501541
 20
421.4681528662434
 30
0.0
  0
LINE
  5
13E
330
1F
100
AcDbEntity
  8
0
  6
Continuous
 62
     7
370
    25
100
AcDbLine
 10
288.1788868403
 20
378.4681521361
 30
0.0
 11
288.1788868403
 21
399.9681528662
 31
0.0
  0
SPLINE
  5
13F
330
1F
100
AcDbEntity
  8
0
  6
Continuous
 62
     7
370
    25
100
AcDbSpline
210
0.0
220
0.0
230
1.0
 70
    24
 71
     3
 72
    22
 73
    18
 74
     0
 42
0.000000001
 43
0.00000001
 40
0.0
 40
0.0
 40
0.0
 40
0.0
 40
0.125
 40
0.125
 40
0.25
 40
0.25
 40
0.375
 40
0.375
 40
0.5
 40
0.5
 40
0.625
 40
0.625
 40
0.75
 40
0.75
 40
0.875
 40
0.875
 40
1.0
 40
1.0
 40
1.0
 40
1.0
 10
88.17888535015408
 20
399.9681528662421
 30
0.0
 10
88.17888535015405
 20
399.0723195329038
 30
0.0
 10
88.17888535015405
 20
398.1199397459142
 30
0.0
 10
88.17888535015406
 20
396.108401384767
 30
0.0
 10
88.17888535015403
 20
395.048952866213
 30
0.0
 10
88.17888535015406
 20
392.8473528661992
 30
0.0
 10
88.17888535015403
 20
391.7049074847167
 30
0.0
 10
88.17888535015405
 20
389.3887016184404
 30
0.0
 10
88.17888535015405
 20
388.2148195328388
 30
0.0
 10
88.17888535015406
 20
385.9214861994954
 30
0.0
 10
88.17888535015408
 20
384.8023619110074
 30
0.0
 10
88.17888535015405
 20
382.736683547335
 30
0.0
 10
88.17888535015403
 20
381.7911055766543
 30
0.0
 10
88.17888535015405
 20
380.204023685085
 30
0.0
 10
88.17888535015408
 20
379.5639319588806
 30
0.0
 10
88.17888535015405
 20
378.695450696579
 30
0.0
 10
88.17888535015405
 20
378.468152866221
 30
0.0
 10
88.17888535015408
 20
378.4681528662402
 30
0.0
  0
LINE
  5
140
330
1F
100
AcDbEntity
  8
0
  6
Continuous
 62
     7
370
    25
100
AcDbLine
 10
88.17888386
 20
421.4681535964
 30
0.0
 11
88.17888386
 21
399.9681528662
 31
0.0
  0
LINE
  5
141
330
1F
100
AcDbEntity
  8
0
  6
Continuous
 62
     7
370
    25
100
AcDbLine
 10
193.1788852384
 20
364.468151704
 30
0.0
 11
199.9288849478
 21
364.468151704
 31
0.0
  0
LINE
  5
142
330
1F
100
AcDbEntity
  8
0
  6
Continuous
 62
     7
370
    25
100
AcDbLine
 10
176.4288857525
 20
364.468151704
 30
0.0
 11
183.1788854619
 21
364.468151704
 31
0.0
  0
LINE
  5
143
330
1F
100
AcDbEntity
  8
0
  6
Continuous
 62
     7
370
    25
100
AcDbLine
 10
193.1788852384
 20
361.2406533216
 30
0.0
 11
198.6563853865
 21
361.2406533216
 31
0.0
  0
LINE
  5
144
330
1F
100
AcDbEntity
  8
0
  6
Continuous
 62
     7
370
    25
100
AcDbLine
 10
177.7013853138
 20
361.2406533216
 30
0.0
 11
183.1788854619
 21
361.2406533216
 31
0.0
  0
LINE
  5
145
330
1F
100
AcDbEntity
  8
0
  6
Continuous
 62
     7
370
    25
100
AcDbLine
 10
197.1788849627
 20
355.6956518446
 30
0.0
 11
197.1788849627
 21
359.7681541001
 31
0.0
  0
LINE
  5
146
330
1F
100
AcDbEntity
  8
0
  6
Continuous
 62
     7
370
    25
100
AcDbLine
 10
193.1788852384
 20
355.6956518446
 30
0.0
 11
197.1788849627
 21
355.6956518446
 31
0.0
  0
LINE
  5
147
330
1F
100
AcDbEntity
  8
0
  6
Continuous
 62
     7
370
    25
100
AcDbLine
 10
179.1788857376
 20
355.6956518446
 30
0.0
 11
183.1788854619
 21
355.6956518446
 31
0.0
  0
LINE
  5
148
330
1F
100
AcDbEntity
  8
0
  6
Continuous
 62
     7
370
    25
100
AcDbLine
 10
179.1788857376
 20
359.7681541001
 30
0.0
 11
179.1788857376
 21
355.6956518446
 31
0.0
  0
LINE
  5
149
330
1F
100
AcDbEntity
  8
0
  6
Continuous
 62
     7
370
    25
100
AcDbLine
 10
177.7013853138
 20
359.7681541001
 30
0.0
 11
179.1788857376
 21
359.7681541001
 31
0.0
  0
LINE
  5
14A
330
1F
100
AcDbEntity
  8
0
  6
Continuous
 62
     7
370
    25
100
AcDbLine
 10
197.1788849627
 20
359.7681541001
 30
0.0
 11
198.6563853865
 21
359.7681541001
 31
0.0
  0
LINE
  5
14B
330
1F
100
AcDbEntity
  8
0
  6
Continuous
 62
     7
370
    25
100
AcDbLine
 10
193.1788852384
 20
354.4681537901
 30
0.0
 11
197.1788849627
 21
354.4681537901
 31
0.0
  0
LINE
  5
14C
330
1F
100
AcDbEntity
  8
0
  6
Continuous
 62
     7
370
    25
100
AcDbLine
 10
179.1788857376
 20
354.4681537901
 30
0.0
 11
183.1788854619
 21
354.4681537901
 31
0.0
  0
SPLINE
  5
14D
330
1F
100
AcDbEntity
  8
0
  6
Continuous
 62
     7
370
    25
100
AcDbSpline
210
0.0
220
0.0
230
1.0
 70
    24
 71
     3
 72
     8
 73
     4
 74
     0
 42
0.000000001
 43
0.00000001
 40
0.0
 40
0.0
 40
0.0
 40
0.0
 40
1.0
 40
1.0
 40
1.0
 40
1.0
 10
179.178885350154
 20
355.695652866242
 30
0.0
 10
179.178885350154
 20
355.1024288298344
 30
0.0
 10
179.178885350154
 20
354.7043582689722
 30
0.0
 10
179.178885350154
 20
354.468152866242
 30
0.0
  0
SPLINE
  5
14E
330
1F
100
AcDbEntity
  8
0
  6
Continuous
 62
     7
370
    25
100
AcDbSpline
210
0.0
220
0.0
230
1.0
 70
    24
 71
     3
 72
     8
 73
     4
 74
     0
 42
0.000000001
 43
0.00000001
 40
0.0
 40
0.0
 40
0.0
 40
0.0
 40
1.0
 40
1.0
 40
1.0
 40
1.0
 10
197.1788853501541
 20
354.468152866242
 30
0.0
 10
197.178885350154
 20
354.7043582689722
 30
0.0
 10
197.178885350154
 20
355.1024288298344
 30
0.0
 10
197.1788853501541
 20
355.695652866242
 30
0.0
  0
LINE
  5
14F
330
1F
100
AcDbEntity
  8
0
  6
Continuous
 62
     7
370
    25
100
AcDbLine
 10
193.1788852384
 20
362.4681513761
 30
0.0
 11
197.4288854694
 21
362.4681513761
 31
0.0
  0
LINE
  5
150
330
1F
100
AcDbEntity
  8
0
  6
Continuous
 62
     7
370
    25
100
AcDbLine
 10
178.9288852309
 20
362.4681513761
 30
0.0
 11
183.1788854619
 21
362.4681513761
 31
0.0
  0
ARC
  5
151
330
1F
100
AcDbEntity
  8
0
  6
Continuous
 62
     7
370
    25
100
AcDbCircle
 10
113.1788853502
 20
399.9681528644
 30
0.0
 40
35.0
100
AcDbArc
 50
40.0052008888
 51
180.0
  0
ARC
  5
152
330
1F
100
AcDbEntity
  8
0
  6
Continuous
 62
     7
370
    25
100
AcDbCircle
 10
113.1788853502
 20
399.9681528644
 30
0.0
 40
35.00000000000002
100
AcDbArc
 50
180.0
 51
319.9947991191
  0
ARC
  5
153
330
1F
100
AcDbEntity
  8
0
  6
Continuous
 62
     7
370
    25
100
AcDbCircle
 10
263.1788853505
 20
399.9681528662
 30
0.0
 40
35.00000000000001
100
AcDbArc
 50
220.0052008849
 51
139.9947991151
  0
CIRCLE
  5
154
330
1F
100
AcDbEntity
  8
0
  6
Continuous
 62
     8
370
    18
100
AcDbCircle
 10
188.1788853502
 20
399.9681528662
 30
0.0
 40
21.95999999999998
  0
ARC
  5
155
330
1F
100
AcDbEntity
  8
0
  6
Continuous
 62
     8
370
    18
100
AcDbCircle
 10
188.1787129166
 20
390.4368767021
 30
0.0
 40
14.46342931587208
100
AcDbArc
 50
249.7762279408
 51
290.0231348809
  0
LINE
  5
156
330
1F
100
AcDbEntity
  8
0
  6
Continuous
 62
     8
370
    18
100
AcDbLine
 10
183.1788854619
 20
315.4681529855
 30
0.0
 11
193.1788852384
 21
315.4681529855
 31
0.0
  0
SPLINE
  5
157
330
1F
100
AcDbEntity
  8
0
  6
Continuous
 62
     8
370
    18
100
AcDbSpline
210
0.0
220
0.0
230
1.0
 70
     8
 71
     3
 72
    23
 73
    19
 74
     0
 42
0.000000001
 43
0.00000001
 40
0.0
 40
0.0
 40
0.0
 40
0.0
 40
0.0704951155040636
 40
0.1424319669076326
 40
0.1891646459077073
 40
0.2373975871120026
 40
0.2873665627758897
 40
0.3552530078384681
 40
0.427264420725784
 40
0.4777447253623766
 40
0.5302958044256343
 40
0.5849940755341934
 40
0.6846813481170511
 40
0.7885308244043874
 40
0.8910136706974576
 40
0.9310112248374627
 40
0.9687896667695676
 40
1.0
 40
1.0
 40
1.0
 40
1.0
 10
162.1788866763574
 20
399.9681528662617
 30
0.0
 10
162.210436560777
 20
400.7909837704331
 30
0.0
 10
162.2741815743353
 20
402.4534737638957
 30
0.0
 10
162.7221005981874
 20
404.5976978206306
 30
0.0
 10
163.2842209816228
 20
406.4024614004746
 30
0.0
 10
163.8914323892293
 20
407.9000031740187
 30
0.0
 10
164.706557736712
 20
409.5237065159745
 30
0.0
 10
165.7827196122344
 20
411.2467552627405
 30
0.0
 10
166.9994151184277
 20
412.8131044819989
 30
0.0
 10
168.2063314370657
 20
414.1263335403153
 30
0.0
 10
169.3518616658943
 20
415.2168506280493
 30
0.0
 10
170.9227305100576
 20
416.5249227649331
 30
0.0
 10
172.9879655607802
 20
417.9476961240621
 30
0.0
 10
175.5633222793452
 20
419.3282164702395
 30
0.0
 10
177.7264523628333
 20
420.2089487730796
 30
0.0
 10
179.3573514549197
 20
420.7407044069903
 30
0.0
 10
180.358513598817
 20
421.0304088219449
 30
0.0
 10
181.0102060844397
 20
421.1841086747006
 30
0.0
 10
181.3050299828512
 20
421.2536420677878
 30
0.0
  0
SPLINE
  5
158
330
1F
100
AcDbEntity
  8
0
  6
Continuous
 62
     8
370
    18
100
AcDbSpline
210
0.0
220
0.0
230
1.0
 70
     8
 71
     3
 72
    37
 73
    33
 74
     0
 42
0.000000001
 43
0.00000001
 40
0.0
 40
0.0
 40
0.0
 40
0.0
 40
0.0149522339974228
 40
0.0414716776999434
 40
0.0803763425726363
 40
0.1190090614279835
 40
0.1577637498998439
 40
0.1949650956372251
 40
0.235764632073562
 40
0.2741980448783167
 40
0.3103954960678744
 40
0.3445127050384231
 40
0.3818404718144991
 40
0.4172833699666313
 40
0.453606442801869
 40
0.4890380139089176
 40
0.5244444706643443
 40
0.5603940370902234
 40
0.5838049205349739
 40
0.607916951567538
 40
0.6328554425220143
 40
0.6668143822173618
 40
0.702821119874885
 40
0.7280617490112358
 40
0.7543418264097757
 40
0.7817030267209555
 40
0.8319127340346962
 40
0.8834084559973344
 40
0.9347668158282909
 40
0.9608401144283917
 40
0.987384010500448
 40
1.0
 40
1.0
 40
1.0
 40
1.0
 10
195.3693144900364
 20
421.172626317022
 30
0.0
 10
195.6491746749828
 20
421.1055950445631
 30
0.0
 10
196.425397906451
 20
420.9196763833311
 30
0.0
 10
197.8764453017125
 20
420.4680463758882
 30
0.0
 10
199.7135016573768
 20
419.784254560371
 30
0.0
 10
201.7002502789354
 20
418.8563071569044
 30
0.0
 10
203.5946640588
 20
417.780658685558
 30
0.0
 10
205.4501985208787
 20
416.5117677924419
 30
0.0
 10
207.2112230562897
 20
415.0595956344153
 30
0.0
 10
208.8441896067859
 20
413.4197680955105
 30
0.0
 10
210.2573685928453
 20
411.6878930367539
 30
0.0
 10
211.509830468195
 20
409.7938507725814
 30
0.0
 10
212.5705696996791
 20
407.7304488878762
 30
0.0
 10
213.4179278105151
 20
405.448766990041
 30
0.0
 10
213.9764519677222
 20
403.0646750117801
 30
0.0
 10
214.2228100540459
 20
400.5929731186693
 30
0.0
 10
214.1411538781613
 20
398.1113925886842
 30
0.0
 10
213.7832964000114
 20
395.9567836934131
 30
0.0
 10
213.2781880239905
 20
394.1366476252506
 30
0.0
 10
212.7204034698039
 20
392.6212471248783
 30
0.0
 10
211.9566940663623
 20
390.9731708343855
 30
0.0
 10
210.9331680830894
 20
389.2180406070899
 30
0.0
 10
209.7617672506899
 20
387.6165726411001
 30
0.0
 10
208.5922595962424
 20
386.2706378220189
 30
0.0
 10
207.4774429317253
 20
385.1503345971486
 30
0.0
 10
205.9381077825444
 20
383.798802373535
 30
0.0
 10
203.9155199036896
 20
382.3296063514493
 30
0.0
 10
201.3824993428572
 20
380.8948449306491
 30
0.0
 10
199.1580696291653
 20
379.9242324304032
 30
0.0
 10
197.3023336287832
 20
379.2859654694232
 30
0.0
 10
196.1192105088233
 20
378.9317923287923
 30
0.0
 10
195.3814722737987
 20
378.7632343586002
 30
0.0
 10
195.1437979882223
 20
378.7089306865908
 30
0.0
  0
SPLINE
  5
159
330
1F
100
AcDbEntity
  8
0
  6
Continuous
 62
     8
370
    18
100
AcDbSpline
210
0.0
220
0.0
230
1.0
 70
     8
 71
     3
 72
    21
 73
    17
 74
     0
 42
0.000000001
 43
0.00000001
 40
0.0
 40
0.0
 40
0.0
 40
0.0
 40
0.0145758636812161
 40
0.0716662289951447
 40
0.1517235301626425
 40
0.2312721009825559
 40
0.3120617716833716
 40
0.3901515632367002
 40
0.4746897522930118
 40
0.5544390978102367
 40
0.6296353043069992
 40
0.700559497257186
 40
0.7782456308286656
 40
0.8516846330866022
 40
0.9270307184387155
 40
1.0
 40
1.0
 40
1.0
 40
1.0
 10
181.3554829863471
 20
378.6736708139159
 30
0.0
 10
181.2224359509191
 20
378.70233104893
 30
0.0
 10
180.5682737333899
 20
378.8432469500731
 30
0.0
 10
179.2387430583252
 20
379.2234148819624
 30
0.0
 10
177.3780032014048
 20
379.8565330524338
 30
0.0
 10
175.3819722050264
 20
380.7202297005587
 30
0.0
 10
173.463295644322
 20
381.7339799385832
 30
0.0
 10
171.57556343633
 20
382.9395181169708
 30
0.0
 10
169.7790682138595
 20
384.3226864930829
 30
0.0
 10
168.1077291491664
 20
385.884039951492
 30
0.0
 10
166.6459169576918
 20
387.5395933616585
 30
0.0
 10
165.3317910404965
 20
389.3578889319421
 30
0.0
 10
164.1927377833026
 20
391.3444927051472
 30
0.0
 10
163.2530230119918
 20
393.5532935668392
 30
0.0
 10
162.5633189098333
 20
395.8678145792346
 30
0.0
 10
162.3554743057665
 20
397.4987587640309
 30
0.0
 10
162.2532173936826
 20
398.3011626410387
 30
0.0
  0
SPLINE
  5
15A
330
1F
100
AcDbEntity
  8
0
  6
Continuous
 62
     8
370
    18
100
AcDbSpline
210
0.0
220
0.0
230
1.0
 70
     8
 71
     3
 72
    10
 73
     6
 74
     0
 42
0.000000001
 43
0.00000001
 40
0.0
 40
0.0
 40
0.0
 40
0.0
 40
0.5
 40
0.5
 40
1.0
 40
1.0
 40
1.0
 40
1.0
 10
162.17888500506
 20
399.9681631468949
 30
0.0
 10
162.1788804829597
 20
399.6914167124451
 30
0.0
 10
162.1850135720042
 20
399.4141550089837
 30
0.0
 10
162.209702037312
 20
398.8584841855574
 30
0.0
 10
162.2283695508473
 20
398.5786815397397
 30
0.0
 10
162.2531228976511
 20
398.3011554833335
 30
0.0
  0
LINE
  5
15B
330
1F
100
AcDbEntity
  8
0
  6
Continuous
 62
     8
370
    18
100
AcDbLine
 10
89.1788858866
 20
422.4681537603
 30
0.0
 11
89.1788858866
 21
377.4681519722
 31
0.0
  0
LINE
  5
15C
330
1F
100
AcDbEntity
  8
0
  6
Continuous
 62
     8
370
    18
100
AcDbLine
 10
287.1788848137
 20
399.9681528662
 30
0.0
 11
287.1788848137
 21
422.4681537603
 31
0.0
  0
LINE
  5
15D
330
1F
100
AcDbEntity
  8
0
  6
Continuous
 62
     8
370
    18
100
AcDbLine
 10
287.1788848137
 20
377.4681519722
 30
0.0
 11
287.1788848137
 21
399.9681528662
 31
0.0
  0
LINE
  5
15E
330
1F
100
AcDbEntity
  8
0
  6
Continuous
 62
     8
370
    18
100
AcDbLine
 10
183.1788854619
 20
363.968154416
 30
0.0
 11
178.9288852309
 21
363.968154416
 31
0.0
  0
LINE
  5
15F
330
1F
100
AcDbEntity
  8
0
  6
Continuous
 62
     8
370
    18
100
AcDbLine
 10
197.4288854694
 20
363.968154416
 30
0.0
 11
193.1788852384
 21
363.968154416
 31
0.0
  0
ARC
  5
160
330
1F
100
AcDbEntity
  8
0
  6
Continuous
 62
     8
370
    18
100
AcDbCircle
 10
113.1788853502
 20
399.9681528644
 30
0.0
 40
34.20000000000005
100
AcDbArc
 50
180.0
 51
318.8604895893
  0
ARC
  5
161
330
1F
100
AcDbEntity
  8
0
  6
Continuous
 62
     8
370
    18
100
AcDbCircle
 10
113.1788853502
 20
399.9681528644
 30
0.0
 40
34.19999999999999
100
AcDbArc
 50
41.1395104191
 51
180.0
  0
ARC
  5
162
330
1F
100
AcDbEntity
  8
0
  6
Continuous
 62
     8
370
    18
100
AcDbCircle
 10
263.1788853505
 20
399.9681528662
 30
0.0
 40
34.2
100
AcDbArc
 50
221.1395104149
 51
138.8604895851
  0
LINE
  5
163
330
1F
100
AcDbEntity
  8
0
  6
Continuous
 62
     7
370
    25
100
AcDbLine
 10
228.1788844561
 20
246.7737559344
 30
0.0
 11
228.1788844561
 21
234.5737580325
 31
0.0
  0
LINE
  5
164
330
1F
100
AcDbEntity
  8
0
  6
Continuous
 62
     7
370
    25
100
AcDbLine
 10
298.1788847541
 20
234.5737580325
 30
0.0
 11
298.1788847541
 21
246.7737559344
 31
0.0
  0
ARC
  5
165
330
1F
100
AcDbEntity
  8
0
  6
Continuous
 62
     7
370
    25
100
AcDbCircle
 10
297.3788853505
 20
234.5737579507
 30
0.0
 40
0.8000000000000114
100
AcDbArc
 50
270.0
 51
0.0
  0
ARC
  5
166
330
1F
100
AcDbEntity
  8
0
  6
Continuous
 62
     7
370
    25
100
AcDbCircle
 10
228.9788853505
 20
234.5737579507
 30
0.0
 40
0.8000000000000114
100
AcDbArc
 50
180.0
 51
270.0
  0
LINE
  5
167
330
1F
100
AcDbEntity
  8
0
  6
Continuous
 62
     7
370
    25
100
AcDbLine
 10
78.1788859462
 20
246.7737559344
 30
0.0
 11
78.1788859462
 21
234.5737580325
 31
0.0
  0
LINE
  5
168
330
1F
100
AcDbEntity
  8
0
  6
Continuous
 62
     7
370
    25
100
AcDbLine
 10
148.1788862442
 20
234.5737580325
 30
0.0
 11
148.1788862442
 21
246.7737559344
 31
0.0
  0
ARC
  5
169
330
1F
100
AcDbEntity
  8
0
  6
Continuous
 62
     7
370
    25
100
AcDbCircle
 10
147.3788853502
 20
234.5737579407
 30
0.0
 40
0.8000000000000114
100
AcDbArc
 50
270.0
 51
0.0
  0
ARC
  5
16A
330
1F
100
AcDbEntity
  8
0
  6
Continuous
 62
     7
370
    25
100
AcDbCircle
 10
78.9788853502
 20
234.5737579407
 30
0.0
 40
0.8000000000000114
100
AcDbArc
 50
180.0
 51
270.0
  0
LINE
  5
16B
330
1F
100
AcDbEntity
  8
0
  6
Continuous
 62
     7
370
    25
100
AcDbLine
 10
92.3631001209
 20
205.5737588669
 30
0.0
 11
89.1788858866
 21
205.5737588669
 31
0.0
  0
LINE
  5
16C
330
1F
100
AcDbEntity
  8
0
  6
Continuous
 62
     7
370
    25
100
AcDbLine
 10
242.3630986308
 20
205.5737588669
 30
0.0
 11
133.9946720695
 21
205.5737588669
 31
0.0
  0
LINE
  5
16D
330
1F
100
AcDbEntity
  8
0
  6
Continuous
 62
     7
370
    25
100
AcDbLine
 10
287.1788848137
 20
205.5737588669
 30
0.0
 11
283.9946705794
 21
205.5737588669
 31
0.0
  0
LINE
  5
16E
330
1F
100
AcDbEntity
  8
0
  6
Continuous
 62
     7
370
    25
100
AcDbLine
 10
214.1483887976
 20
160.5737570788
 30
0.0
 11
287.1788848137
 21
160.5737570788
 31
0.0
  0
LINE
  5
16F
330
1F
100
AcDbEntity
  8
0
  6
Continuous
 62
     7
370
    25
100
AcDbLine
 10
89.1788858866
 20
160.5737570788
 30
0.0
 11
162.1788866764
 21
160.5737570788
 31
0.0
  0
SPLINE
  5
170
330
1F
100
AcDbEntity
  8
0
  6
Continuous
 62
     7
370
    25
100
AcDbSpline
210
0.0
220
0.0
230
1.0
 70
     8
 71
     3
 72
    13
 73
     9
 74
     0
 42
0.000000001
 43
0.00000001
 40
0.0
 40
0.0
 40
0.0
 40
0.0
 40
0.2394577066219647
 40
0.3683599129141835
 40
0.4999988380280699
 40
0.631640014560398
 40
0.7605432395302221
 40
1.0
 40
1.0
 40
1.0
 40
1.0
 10
287.1788848137123
 20
160.5737570787808
 30
0.0
 10
287.3046817448296
 20
160.5871148506752
 30
0.0
 10
287.4981962791704
 20
160.6076632295986
 30
0.0
 10
287.7310104776236
 20
160.7323634704685
 30
0.0
 10
287.891216376478
 20
160.8614250408633
 30
0.0
 10
288.0202844060964
 20
161.0216278359071
 30
0.0
 10
288.1449747778313
 20
161.2544485439105
 30
0.0
 10
288.1655267730013
 20
161.4479617177841
 30
0.0
 10
288.1788868402701
 20
161.5737572426935
 30
0.0
  0
SPLINE
  5
171
330
1F
100
AcDbEntity
  8
0
  6
Continuous
 62
     7
370
    25
100
AcDbSpline
210
0.0
220
0.0
230
1.0
 70
     8
 71
     3
 72
    13
 73
     9
 74
     0
 42
0.000000001
 43
0.00000001
 40
0.0
 40
0.0
 40
0.0
 40
0.0
 40
0.2394567604697781
 40
0.3683599854396021
 40
0.5000011619719302
 40
0.6316400870858166
 40
0.7605422933780354
 40
1.0
 40
1.0
 40
1.0
 40
1.0
 10
288.1788868402702
 20
204.5737587030073
 30
0.0
 10
288.1655267730014
 20
204.6995542279168
 30
0.0
 10
288.1449747778314
 20
204.8930674017904
 30
0.0
 10
288.0202844060964
 20
205.1258881097937
 30
0.0
 10
287.891216376478
 20
205.2860909048376
 30
0.0
 10
287.7310104776236
 20
205.4151524752324
 30
0.0
 10
287.4981962791704
 20
205.5398527161023
 30
0.0
 10
287.3046817448296
 20
205.5604010950256
 30
0.0
 10
287.1788848137123
 20
205.5737588669201
 30
0.0
  0
SPLINE
  5
172
330
1F
100
AcDbEntity
  8
0
  6
Continuous
 62
     7
370
    25
100
AcDbSpline
210
0.0
220
0.0
230
1.0
 70
     8
 71
     3
 72
    13
 73
     9
 74
     0
 42
0.000000001
 43
0.00000001
 40
0.0
 40
0.0
 40
0.0
 40
0.0
 40
0.2394577066219647
 40
0.3683599129141835
 40
0.4999988380280699
 40
0.631640014560398
 40
0.7605432395302221
 40
1.0
 40
1.0
 40
1.0
 40
1.0
 10
89.17888588659585
 20
205.5737588669201
 30
0.0
 10
89.05308895547849
 20
205.5604010950256
 30
0.0
 10
88.85957442113774
 20
205.5398527161023
 30
0.0
 10
88.62676022268448
 20
205.4151524752324
 30
0.0
 10
88.46655432383015
 20
205.2860909048376
 30
0.0
 10
88.33748629421169
 20
205.1258881097937
 30
0.0
 10
88.21279592247683
 20
204.8930674017904
 30
0.0
 10
88.19224392730678
 20
204.6995542279167
 30
0.0
 10
88.17888386003794
 20
204.5737587030073
 30
0.0
  0
SPLINE
  5
173
330
1F
100
AcDbEntity
  8
0
  6
Continuous
 62
     7
370
    25
100
AcDbSpline
210
0.0
220
0.0
230
1.0
 70
     8
 71
     3
 72
    13
 73
     9
 74
     0
 42
0.000000001
 43
0.00000001
 40
0.0
 40
0.0
 40
0.0
 40
0.0
 40
0.2394567604697781
 40
0.3683599854396021
 40
0.5000011619719302
 40
0.6316400870858166
 40
0.7605422933780354
 40
1.0
 40
1.0
 40
1.0
 40
1.0
 10
88.17888386003793
 20
161.5737572426935
 30
0.0
 10
88.19224392730673
 20
161.4479617177841
 30
0.0
 10
88.21279592247679
 20
161.2544485439105
 30
0.0
 10
88.33748629421173
 20
161.0216278359071
 30
0.0
 10
88.46655432383015
 20
160.8614250408633
 30
0.0
 10
88.62676022268448
 20
160.7323634704685
 30
0.0
 10
88.85957442113775
 20
160.6076632295986
 30
0.0
 10
89.05308895547849
 20
160.5871148506752
 30
0.0
 10
89.17888588659585
 20
160.5737570787808
 30
0.0
  0
LINE
  5
174
330
1F
100
AcDbEntity
  8
0
  6
Continuous
 62
     7
370
    25
100
AcDbLine
 10
165.6788844561
 20
147.5615266825
 30
0.0
 11
165.6788844561
 21
119.413754728
 31
0.0
  0
LINE
  5
175
330
1F
100
AcDbEntity
  8
0
  6
Continuous
 62
     7
370
    25
100
AcDbLine
 10
210.6788862442
 20
119.413754728
 30
0.0
 11
210.6788862442
 21
147.5614670779
 31
0.0
  0
ARC
  5
176
330
1F
100
AcDbEntity
  8
0
  6
Continuous
 62
     7
370
    25
100
AcDbCircle
 10
210.1388853502
 20
119.4137579729
 30
0.0
 40
0.539999999999992
100
AcDbArc
 50
270.0
 51
0.0
  0
ARC
  5
177
330
1F
100
AcDbEntity
  8
0
  6
Continuous
 62
     7
370
    25
100
AcDbCircle
 10
166.2188853502
 20
119.4137579729
 30
0.0
 40
0.5400000000000205
100
AcDbArc
 50
180.0
 51
270.0
  0
LINE
  5
178
330
1F
100
AcDbEntity
  8
0
  6
Continuous
 62
     7
370
    25
100
AcDbLine
 10
210.1788852309
 20
154.0737588073
 30
0.0
 11
210.1788852309
 21
156.0737572725
 31
0.0
  0
LINE
  5
179
330
1F
100
AcDbEntity
  8
0
  6
Continuous
 62
     7
370
    25
100
AcDbLine
 10
166.1788854694
 20
156.0737572725
 30
0.0
 11
166.1788854694
 21
154.0737588073
 31
0.0
  0
ARC
  5
17A
330
1F
100
AcDbEntity
  8
0
  6
Continuous
 62
     7
370
    25
100
AcDbCircle
 10
188.178991581
 20
154.0002920678
 30
0.0
 40
22.00000000000002
100
AcDbArc
 50
340.2827596545
 51
0.1783953074
  0
ARC
  5
17B
330
1F
100
AcDbEntity
  8
0
  6
Continuous
 62
     7
370
    25
100
AcDbCircle
 10
188.178991581
 20
154.0002920678
 30
0.0
 40
21.99999999999999
100
AcDbArc
 50
179.7874403828
 51
199.8028138057
  0
SPLINE
  5
17C
330
1F
100
AcDbEntity
  8
0
  6
Continuous
 62
     7
370
    25
100
AcDbSpline
210
0.0
220
0.0
230
1.0
 70
     8
 71
     3
 72
    13
 73
     9
 74
     0
 42
0.000000001
 43
0.00000001
 40
0.0
 40
0.0
 40
0.0
 40
0.0
 40
0.095235340017511
 40
0.2485832895736465
 40
0.4051849660273424
 40
0.5617868884451909
 40
0.7151345927257319
 40
1.0
 40
1.0
 40
1.0
 40
1.0
 10
210.3658202981216
 20
157.5539156909128
 30
0.0
 10
210.3888936061217
 20
157.7205325371182
 30
0.0
 10
210.4491195558896
 20
158.155435837936
 30
0.0
 10
210.8212374619226
 20
158.7798354038916
 30
0.0
 10
211.3273738548733
 20
159.4237804144924
 30
0.0
 10
211.970898144722
 20
159.9391958526561
 30
0.0
 10
212.9013380882934
 20
160.4382386510009
 30
0.0
 10
213.675566018199
 20
160.5203792660504
 30
0.0
 10
214.1788616722089
 20
160.5737757052323
 30
0.0
  0
SPLINE
  5
17D
330
1F
100
AcDbEntity
  8
0
  6
Continuous
 62
     7
370
    25
100
AcDbSpline
210
0.0
220
0.0
230
1.0
 70
     8
 71
     3
 72
    13
 73
     9
 74
     0
 42
0.000000001
 43
0.00000001
 40
0.0
 40
0.0
 40
0.0
 40
0.0
 40
0.2848663170664099
 40
0.4382148533136051
 40
0.5948178003399183
 40
0.7514207446243358
 40
0.9047692727017311
 40
1.0
 40
1.0
 40
1.0
 40
1.0
 10
162.1788978522283
 20
160.5737663920065
 30
0.0
 10
162.6821917964004
 20
160.5203677849805
 30
0.0
 10
163.4564177006429
 20
160.4382237709531
 30
0.0
 10
164.3868538630825
 20
159.93917835724
 30
0.0
 10
165.0303785083631
 20
159.4237633343642
 30
0.0
 10
165.5365151286371
 20
158.7798192530259
 30
0.0
 10
165.9086318430886
 20
158.1554304237505
 30
0.0
 10
165.9688601648028
 20
157.7205379313806
 30
0.0
 10
165.9919336383802
 20
157.553930592074
 30
0.0
  0
LINE
  5
17E
330
1F
100
AcDbEntity
  8
0
  6
Continuous
 62
     7
370
    25
100
AcDbLine
 10
166.1788854694
 20
157.5737584497
 30
0.0
 11
166.1788854694
 21
157.0537582154
 31
0.0
  0
LINE
  5
17F
330
1F
100
AcDbEntity
  8
0
  6
Continuous
 62
     7
370
    25
100
AcDbLine
 10
210.1788852309
 20
157.0537582154
 30
0.0
 11
210.1788852309
 21
157.5737584497
 31
0.0
  0
ARC
  5
180
330
1F
100
AcDbEntity
  8
0
  6
Continuous
 62
     7
370
    25
100
AcDbCircle
 10
167.1588853502
 20
157.0537579729
 30
0.0
 40
0.9799999999999898
100
AcDbArc
 50
180.0
 51
270.0
  0
ARC
  5
181
330
1F
100
AcDbEntity
  8
0
  6
Continuous
 62
     7
370
    25
100
AcDbCircle
 10
209.1988853502
 20
157.0537579729
 30
0.0
 40
0.9799999999999898
100
AcDbArc
 50
270.0
 51
0.0
  0
ARC
  5
182
330
1F
100
AcDbEntity
  8
0
  6
Continuous
 62
     7
370
    25
100
AcDbCircle
 10
279.9788853505
 20
232.9737579507
 30
0.0
 40
0.8000000000000114
100
AcDbArc
 50
90.0
 51
180.0
  0
ARC
  5
183
330
1F
100
AcDbEntity
  8
0
  6
Continuous
 62
     7
370
    25
100
AcDbCircle
 10
246.3788853505
 20
232.9737579507
 30
0.0
 40
0.8000000000000398
100
AcDbArc
 50
0.0
 51
90.0
  0
ARC
  5
184
330
1F
100
AcDbEntity
  8
0
  6
Continuous
 62
     7
370
    25
100
AcDbCircle
 10
129.9788853502
 20
232.9737579407
 30
0.0
 40
0.8000000000000114
100
AcDbArc
 50
90.0
 51
180.0
  0
ARC
  5
185
330
1F
100
AcDbEntity
  8
0
  6
Continuous
 62
     7
370
    25
100
AcDbCircle
 10
96.3788853502
 20
232.9737579407
 30
0.0
 40
0.8000000000000114
100
AcDbArc
 50
0.0
 51
90.0
  0
LINE
  5
186
330
1F
100
AcDbEntity
  8
0
  6
Continuous
 62
     7
370
    25
100
AcDbLine
 10
247.1788857078
 20
232.9737570251
 30
0.0
 11
247.1788857078
 21
221.5737577642
 31
0.0
  0
LINE
  5
187
330
1F
100
AcDbEntity
  8
0
  6
Continuous
 62
     7
370
    25
100
AcDbLine
 10
279.1788835024
 20
221.5737577642
 30
0.0
 11
279.1788835024
 21
232.9737570251
 31
0.0
  0
ARC
  5
188
330
1F
100
AcDbEntity
  8
0
  6
Continuous
 62
     7
370
    25
100
AcDbCircle
 10
278.3788853505
 20
221.5737579507
 30
0.0
 40
0.799999999999983
100
AcDbArc
 50
270.0
 51
0.0
  0
ARC
  5
189
330
1F
100
AcDbEntity
  8
0
  6
Continuous
 62
     7
370
    25
100
AcDbCircle
 10
247.9788853505
 20
221.5737579507
 30
0.0
 40
0.799999999999983
100
AcDbArc
 50
180.0
 51
270.0
  0
LINE
  5
18A
330
1F
100
AcDbEntity
  8
0
  6
Continuous
 62
     7
370
    25
100
AcDbLine
 10
97.1788871979
 20
232.9737570251
 30
0.0
 11
97.1788871979
 21
221.5737577642
 31
0.0
  0
LINE
  5
18B
330
1F
100
AcDbEntity
  8
0
  6
Continuous
 62
     7
370
    25
100
AcDbLine
 10
129.1788849925
 20
221.5737577642
 30
0.0
 11
129.1788849925
 21
232.9737570251
 31
0.0
  0
ARC
  5
18C
330
1F
100
AcDbEntity
  8
0
  6
Continuous
 62
     7
370
    25
100
AcDbCircle
 10
128.3788853502
 20
221.5737579407
 30
0.0
 40
0.8000000000000398
100
AcDbArc
 50
270.0
 51
0.0
  0
ARC
  5
18D
330
1F
100
AcDbEntity
  8
0
  6
Continuous
 62
     7
370
    25
100
AcDbCircle
 10
97.9788853502
 20
221.5737579407
 30
0.0
 40
0.8000000000000114
100
AcDbArc
 50
180.0
 51
270.0
  0
LINE
  5
18E
330
1F
100
AcDbEntity
  8
0
  6
Continuous
 62
     7
370
    25
100
AcDbLine
 10
252.6788819527
 20
203.7737581993
 30
0.0
 11
252.6788819527
 21
202.7737580354
 31
0.0
  0
LINE
  5
18F
330
1F
100
AcDbEntity
  8
0
  6
Continuous
 62
     7
370
    25
100
AcDbLine
 10
273.6788872575
 20
202.7737580354
 30
0.0
 11
273.6788872575
 21
203.7737581993
 31
0.0
  0
LINE
  5
190
330
1F
100
AcDbEntity
  8
0
  6
Continuous
 62
     7
370
    25
100
AcDbLine
 10
102.6788834428
 20
203.7737581993
 30
0.0
 11
102.6788834428
 21
202.7737580354
 31
0.0
  0
LINE
  5
191
330
1F
100
AcDbEntity
  8
0
  6
Continuous
 62
     7
370
    25
100
AcDbLine
 10
123.6788887476
 20
202.7737580354
 30
0.0
 11
123.6788887476
 21
203.7737581993
 31
0.0
  0
SPLINE
  5
192
330
1F
100
AcDbEntity
  8
0
  6
Continuous
 62
     7
370
    25
100
AcDbSpline
210
0.0
220
0.0
230
1.0
 70
     8
 71
     3
 72
    10
 73
     6
 74
     0
 42
0.000000001
 43
0.00000001
 40
0.0
 40
0.0
 40
0.0
 40
0.0
 40
0.2434692808365795
 40
0.6158535861596398
 40
1.0
 40
1.0
 40
1.0
 40
1.0
 10
243.2599138414127
 20
205.0589181597372
 30
0.0
 10
243.2236053871618
 20
205.1054076225105
 30
0.0
 10
243.1317634443856
 20
205.2230023443955
 30
0.0
 10
242.8083303891373
 20
205.5119158597267
 30
0.0
 10
242.5130395548078
 20
205.5529319661722
 30
0.0
 10
242.3630986308319
 20
205.5737588669201
 30
0.0
  0
SPLINE
  5
193
330
1F
100
AcDbEntity
  8
0
  6
Continuous
 62
     7
370
    25
100
AcDbSpline
210
0.0
220
0.0
230
1.0
 70
     8
 71
     3
 72
    10
 73
     6
 74
     0
 42
0.000000001
 43
0.00000001
 40
0.0
 40
0.0
 40
0.0
 40
0.0
 40
0.4070296022356953
 40
0.992183748150873
 40
1.0
 40
1.0
 40
1.0
 40
1.0
 10
133.9946720694763
 20
205.5737588669201
 30
0.0
 10
133.8442158861437
 20
205.5529370807139
 30
0.0
 10
133.4774607924321
 20
205.5021814654765
 30
0.0
 10
133.1952120661534
 20
205.1767669025363
 30
0.0
 10
133.1067234485285
 20
205.0712649151844
 30
0.0
 10
133.1055570339424
 20
205.069874238505
 30
0.0
  0
SPLINE
  5
194
330
1F
100
AcDbEntity
  8
0
  6
Continuous
 62
     7
370
    25
100
AcDbSpline
210
0.0
220
0.0
230
1.0
 70
     8
 71
     3
 72
    10
 73
     6
 74
     0
 42
0.000000001
 43
0.00000001
 40
0.0
 40
0.0
 40
0.0
 40
0.0
 40
0.2434690059196487
 40
0.6158534465640364
 40
0.9999999999999999
 40
0.9999999999999999
 40
0.9999999999999999
 40
0.9999999999999999
 10
93.25991160623849
 20
205.0589181597372
 30
0.0
 10
93.22360463245549
 20
205.1054076457098
 30
0.0
 10
93.13176635162748
 20
205.2230025324061
 30
0.0
 10
92.80833141460405
 20
205.5119158345901
 30
0.0
 10
92.51304088844377
 20
205.552931957707
 30
0.0
 10
92.36310012094798
 20
205.5737588669201
 30
0.0
  0
SPLINE
  5
195
330
1F
100
AcDbEntity
  8
0
  6
Continuous
 62
     7
370
    25
100
AcDbSpline
210
0.0
220
0.0
230
1.0
 70
     8
 71
     3
 72
    10
 73
     6
 74
     0
 42
0.000000001
 43
0.00000001
 40
0.0
 40
0.0
 40
0.0
 40
0.0
 40
0.4070297043073797
 40
0.9921833908595576
 40
1.0
 40
1.0
 40
1.0
 40
1.0
 10
283.9946705793601
 20
205.5737588669201
 30
0.0
 10
283.844206789589
 20
205.5529375110622
 30
0.0
 10
283.4774333783197
 20
205.5021829758554
 30
0.0
 10
283.1953026420563
 20
205.1767619875404
 30
0.0
 10
283.1067232090712
 20
205.0712649142161
 30
0.0
 10
283.1055555438262
 20
205.069874238505
 30
0.0
  0
LINE
  5
196
330
1F
100
AcDbEntity
  8
0
  6
Continuous
 62
     7
370
    25
100
AcDbLine
 10
166.7302098071
 20
147.089741018
 30
0.0
 11
166.7232993936
 21
147.0950197543
 31
0.0
  0
LINE
  5
197
330
1F
100
AcDbEntity
  8
0
  6
Continuous
 62
     7
370
    25
100
AcDbLine
 10
209.6331041252
 20
147.0948670174
 30
0.0
 11
209.6265401637
 21
147.0896292592
 31
0.0
  0
LINE
  5
198
330
1F
100
AcDbEntity
  8
0
  6
Continuous
 62
     7
370
    25
100
AcDbLine
 10
228.1788844561
 20
246.7737559344
 30
0.0
 11
298.1788847541
 21
246.7737559344
 31
0.0
  0
LINE
  5
199
330
1F
100
AcDbEntity
  8
0
  6
Continuous
 62
     7
370
    25
100
AcDbLine
 10
297.3788861131
 20
233.7737593914
 30
0.0
 11
228.9788868224
 21
233.7737593914
 31
0.0
  0
LINE
  5
19A
330
1F
100
AcDbEntity
  8
0
  6
Continuous
 62
     7
370
    25
100
AcDbLine
 10
78.1788859462
 20
246.7737559344
 30
0.0
 11
148.1788862442
 21
246.7737559344
 31
0.0
  0
LINE
  5
19B
330
1F
100
AcDbEntity
  8
0
  6
Continuous
 62
     7
370
    25
100
AcDbLine
 10
147.3788838779
 20
233.7737593914
 30
0.0
 11
78.9788845872
 21
233.7737593914
 31
0.0
  0
SPLINE
  5
19C
330
1F
100
AcDbEntity
  8
0
  6
Continuous
 62
     7
370
    25
100
AcDbSpline
210
0.0
220
0.0
230
1.0
 70
     8
 71
     3
 72
    50
 73
    46
 74
     0
 42
0.000000001
 43
0.00000001
 40
0.0
 40
0.0
 40
0.0
 40
0.0
 40
0.0625000000000002
 40
0.0625000000000002
 40
0.1250000000000004
 40
0.1250000000000004
 40
0.1562500000000005
 40
0.1562500000000005
 40
0.1875000000000005
 40
0.1875000000000005
 40
0.2500000000000007
 40
0.2500000000000007
 40
0.2812500000000008
 40
0.2812500000000008
 40
0.3125000000000009
 40
0.3125000000000009
 40
0.3750000000000011
 40
0.3750000000000011
 40
0.4375000000000012
 40
0.4375000000000012
 40
0.5000000000000012
 40
0.5000000000000012
 40
0.5625000000000013
 40
0.5625000000000013
 40
0.5937500000000013
 40
0.5937500000000013
 40
0.6250000000000013
 40
0.6250000000000013
 40
0.6875000000000013
 40
0.6875000000000013
 40
0.7187500000000013
 40
0.7187500000000013
 40
0.7500000000000012
 40
0.7500000000000012
 40
0.8125000000000012
 40
0.8125000000000012
 40
0.8437500000000011
 40
0.8437500000000011
 40
0.875000000000001
 40
0.875000000000001
 40
0.9375000000000006
 40
0.9375000000000006
 40
0.9687500000000003
 40
0.9687500000000003
 40
1.0
 40
1.0
 40
1.0
 40
1.0
 10
209.6884543687962
 20
147.1087593758862
 30
0.0
 10
209.4081335095472
 20
146.8966509432726
 30
0.0
 10
209.0304199330738
 20
146.6910258646425
 30
0.0
 10
208.0904946654409
 20
146.2939854011711
 30
0.0
 10
207.5278242154111
 20
146.102279893822
 30
0.0
 10
206.5389214017086
 20
145.8253726663864
 30
0.0
 10
206.1871065147712
 20
145.7355012254603
 30
0.0
 10
205.4470513903943
 20
145.5623617741775
 30
0.0
 10
205.0577433694756
 20
145.4788054265902
 30
0.0
 10
203.8327623567031
 20
145.2370539185937
 30
0.0
 10
202.9402612611377
 20
145.0877405261434
 30
0.0
 10
201.4826813801314
 20
144.8823423194229
 30
0.0
 10
200.9807237109912
 20
144.8175431078187
 30
0.0
 10
199.9541118690044
 20
144.6963361707538
 30
0.0
 10
199.428032375225
 20
144.6397492195804
 30
0.0
 10
197.8122050230567
 20
144.4818077962794
 30
0.0
 10
196.6851411704295
 20
144.3921869511599
 30
0.0
 10
194.3258973399106
 20
144.2459979352909
 30
0.0
 10
193.1235349298575
 20
144.1911438466016
 30
0.0
 10
190.6879620405404
 20
144.1177089513372
 30
0.0
 10
189.4527243213637
 20
144.0987864514757
 30
0.0
 10
186.9455358458539
 20
144.0983774899068
 30
0.0
 10
185.7032945448793
 20
144.1169180990972
 30
0.0
 10
183.8580500062448
 20
144.1722286418138
 30
0.0
 10
183.243661393309
 20
144.1954563303066
 30
0.0
 10
182.0377974434801
 20
144.2505572768142
 30
0.0
 10
181.4451373557153
 20
144.2824117003331
 30
0.0
 10
179.697176744945
 20
144.3905532916552
 30
0.0
 10
178.572011654141
 20
144.4794672922419
 30
0.0
 10
176.9447126322583
 20
144.6381664364171
 30
0.0
 10
176.4099926061579
 20
144.6956162996585
 30
0.0
 10
175.3784440066948
 20
144.8173504513748
 30
0.0
 10
174.8805383371136
 20
144.8816611754892
 30
0.0
 10
173.438677267068
 20
145.0845870413262
 30
0.0
 10
172.5464422926383
 20
145.2331697604974
 30
0.0
 10
171.3125257321718
 20
145.476170760342
 30
0.0
 10
170.9169679851208
 20
145.5609585651194
 30
0.0
 10
170.1729865648296
 20
145.7348998676538
 30
0.0
 10
169.8240408688384
 20
145.8240631898983
 30
0.0
 10
168.844407853089
 20
146.0979474429508
 30
0.0
 10
168.2804736982592
 20
146.2890197574638
 30
0.0
 10
167.5694532146923
 20
146.5884617688895
 30
0.0
 10
167.3544679525805
 20
146.690746393381
 30
0.0
 10
166.9745224687031
 20
146.8978858861461
 30
0.0
 10
166.8094819258831
 20
147.0027012516064
 30
0.0
 10
166.6693163315119
 20
147.1087593758861
 30
0.0
  0
ARC
  5
19D
330
1F
100
AcDbEntity
  8
0
  6
Continuous
 62
     7
370
    25
100
AcDbCircle
 10
209.6844539713
 20
147.0158206928
 30
0.0
 40
0.0931707981898507
100
AcDbArc
 50
128.1767164149
 51
157.1852443945
  0
ARC
  5
19E
330
1F
100
AcDbEntity
  8
0
  6
Continuous
 62
     7
370
    25
100
AcDbCircle
 10
166.6735884208
 20
147.0160412133
 30
0.0
 40
0.0928262429639643
100
AcDbArc
 50
26.552293565
 51
52.4357494787
  0
SPLINE
  5
19F
330
1F
100
AcDbEntity
  8
0
  6
Continuous
 62
     7
370
    25
100
AcDbSpline
210
0.0
220
0.0
230
1.0
 70
     8
 71
     3
 72
    14
 73
    10
 74
     0
 42
0.000000001
 43
0.00000001
 40
0.0
 40
0.0
 40
0.0
 40
0.0
 40
0.25
 40
0.25
 40
0.5
 40
0.5
 40
0.75
 40
0.75
 40
1.0
 40
1.0
 40
1.0
 40
1.0
 10
265.6278462014467
 20
202.643525412806
 30
0.0
 10
265.2265507179769
 20
202.6117616215102
 30
0.0
 10
264.8221435622492
 20
202.5874644309509
 30
0.0
 10
264.0069404465057
 20
202.5547538971097
 30
0.0
 10
263.5946797611072
 20
202.546361598262
 30
0.0
 10
262.7724861242448
 20
202.546235973919
 30
0.0
 10
262.362471590634
 20
202.5544248530246
 30
0.0
 10
261.5445872151478
 20
202.5869702649866
 30
0.0
 10
261.1354465603118
 20
202.6114270746705
 30
0.0
 10
260.7299244998413
 20
202.6435254127285
 30
0.0
  0
SPLINE
  5
1A0
330
1F
100
AcDbEntity
  8
0
  6
Continuous
 62
     7
370
    25
100
AcDbSpline
210
0.0
220
0.0
230
1.0
 70
     8
 71
     3
 72
    14
 73
    10
 74
     0
 42
0.000000001
 43
0.00000001
 40
0.0
 40
0.0
 40
0.0
 40
0.0
 40
0.25
 40
0.25
 40
0.5
 40
0.5
 40
0.75
 40
0.75
 40
1.0
 40
1.0
 40
1.0
 40
1.0
 10
115.6278462014466
 20
202.643525412806
 30
0.0
 10
115.2265507179768
 20
202.6117616215102
 30
0.0
 10
114.8221435622491
 20
202.5874644309509
 30
0.0
 10
114.0069404465056
 20
202.5547538971097
 30
0.0
 10
113.5946797611071
 20
202.546361598262
 30
0.0
 10
112.7724861242447
 20
202.546235973919
 30
0.0
 10
112.3624715906339
 20
202.5544248530246
 30
0.0
 10
111.5445872151477
 20
202.5869702649866
 30
0.0
 10
111.1354465603118
 20
202.6114270746705
 30
0.0
 10
110.7299244998413
 20
202.6435254127285
 30
0.0
  0
SPLINE
  5
1A1
330
1F
100
AcDbEntity
  8
0
  6
Continuous
 62
     7
370
    25
100
AcDbSpline
210
0.0
220
0.0
230
1.0
 70
    24
 71
     3
 72
    38
 73
    34
 74
     0
 42
0.000000001
 43
0.00000001
 40
0.0
 40
0.0
 40
0.0
 40
0.0
 40
0.0625
 40
0.0625
 40
0.125
 40
0.125
 40
0.1875000000000001
 40
0.1875000000000001
 40
0.2500000000000001
 40
0.2500000000000001
 40
0.3125000000000001
 40
0.3125000000000001
 40
0.3750000000000001
 40
0.3750000000000001
 40
0.4375000000000001
 40
0.4375000000000001
 40
0.5000000000000001
 40
0.5000000000000001
 40
0.5625000000000001
 40
0.5625000000000001
 40
0.6250000000000001
 40
0.6250000000000001
 40
0.6875000000000001
 40
0.6875000000000001
 40
0.7500000000000002
 40
0.7500000000000002
 40
0.8125000000000002
 40
0.8125000000000002
 40
0.8750000000000002
 40
0.8750000000000002
 40
0.9375000000000002
 40
0.9375000000000002
 40
1.0
 40
1.0
 40
1.0
 40
1.0
 10
288.1788853501541
 20
161.573757972849
 30
0.0
 10
288.1788853501541
 20
161.573757972849
 30
0.0
 10
288.1788853501541
 20
161.6293222300334
 30
0.0
 10
288.1788853501541
 20
161.8987246891086
 30
0.0
 10
288.1788853501541
 20
162.1126913061716
 30
0.0
 10
288.1788853501541
 20
162.7548246394912
 30
0.0
 10
288.1788853501541
 20
163.1833400962844
 30
0.0
 10
288.1788853501541
 20
164.3124904560623
 30
0.0
 10
288.1788853501541
 20
165.0137579727741
 30
0.0
 10
288.1788853501541
 20
166.7337579727353
 30
0.0
 10
288.1788853501541
 20
167.753310108823
 30
0.0
 10
288.1788853501541
 20
170.1202332338109
 30
0.0
 10
288.1788853501541
 20
171.468221640453
 30
0.0
 10
288.1788853501541
 20
174.4440001871085
 30
0.0
 10
288.1788853501541
 20
176.0716277950319
 30
0.0
 10
288.1788853501541
 20
179.4912727653946
 30
0.0
 10
288.1788853501541
 20
181.2820913058059
 30
0.0
 10
288.1788853501541
 20
184.8654246391066
 30
0.0
 10
288.1788853501541
 20
186.6562431795306
 30
0.0
 10
288.1788853501541
 20
190.07588814994
 30
0.0
 10
288.1788853501541
 20
191.7035157578975
 30
0.0
 10
288.1788853501541
 20
194.6792943046335
 30
0.0
 10
288.1788853501541
 20
196.0272827113218
 30
0.0
 10
288.1788853501541
 20
198.3942058364047
 30
0.0
 10
288.178885350154
 20
199.4137579725409
 30
0.0
 10
288.1788853501541
 20
201.1337579725947
 30
0.0
 10
288.1788853501541
 20
201.8350254893503
 30
0.0
 10
288.1788853501541
 20
202.9641758492079
 30
0.0
 10
288.1788853501541
 20
203.3926913060369
 30
0.0
 10
288.1788853501541
 20
204.0348246394195
 30
0.0
 10
288.1788853501541
 20
204.2487912565097
 30
0.0
 10
288.1788853501541
 20
204.5181937156316
 30
0.0
 10
288.1788853501541
 20
204.5737579728354
 30
0.0
 10
288.1788853501541
 20
204.5737579728519
 30
0.0
  0
LINE
  5
1A2
330
1F
100
AcDbEntity
  8
0
  6
Continuous
 62
     7
370
    25
100
AcDbLine
 10
88.17888386
 20
204.573758703
 30
0.0
 11
88.17888386
 21
161.5737572427
 31
0.0
  0
SPLINE
  5
1A3
330
1F
100
AcDbEntity
  8
0
  6
Continuous
 62
     7
370
    25
100
AcDbSpline
210
0.0
220
0.0
230
1.0
 70
     8
 71
     3
 72
     9
 73
     5
 74
     0
 42
0.000000001
 43
0.00000001
 40
0.0
 40
0.0
 40
0.0
 40
0.0
 40
0.4078880366332943
 40
1.0
 40
1.0
 40
1.0
 40
1.0
 10
166.0994306152326
 20
147.0156636203667
 30
0.0
 10
165.9949648057914
 20
147.113482881233
 30
0.0
 10
165.7388508724105
 20
147.3533017826984
 30
0.0
 10
165.7317831171287
 20
147.4840871197869
 30
0.0
 10
165.7275982146722
 20
147.56152668251
 30
0.0
  0
SPLINE
  5
1A4
330
1F
100
AcDbEntity
  8
0
  6
Continuous
 62
     7
370
    25
100
AcDbSpline
210
0.0
220
0.0
230
1.0
 70
     8
 71
     3
 72
    10
 73
     6
 74
     0
 42
0.000000001
 43
0.00000001
 40
0.0
 40
0.0
 40
0.0
 40
0.0
 40
0.0438012291101787
 40
0.5150472657526506
 40
1.0
 40
1.0
 40
1.0
 40
1.0
 10
210.4778006618482
 20
147.7482419575592
 30
0.0
 10
210.4947942674434
 20
147.7465656569543
 30
0.0
 10
210.6946176576739
 20
147.7268544739419
 30
0.0
 10
210.760504163817
 20
147.5435078345938
 30
0.0
 10
210.4273201278804
 20
147.1932851223626
 30
0.0
 10
210.2583400850755
 20
147.0156636203667
 30
0.0
  0
LINE
  5
1A5
330
1F
100
AcDbEntity
  8
0
  6
Continuous
 62
     7
370
    25
100
AcDbLine
 10
210.1388849264
 20
118.8737589981
 30
0.0
 11
166.2188857739
 21
118.8737589981
 31
0.0
  0
LINE
  5
1A6
330
1F
100
AcDbEntity
  8
0
  6
Continuous
 62
     7
370
    25
100
AcDbLine
 10
210.1788852309
 20
156.0737572725
 30
0.0
 11
166.1788854694
 21
156.0737572725
 31
0.0
  0
SPLINE
  5
1A7
330
1F
100
AcDbEntity
  8
0
  6
Continuous
 62
     7
370
    25
100
AcDbSpline
210
0.0
220
0.0
230
1.0
 70
    24
 71
     3
 72
    10
 73
     6
 74
     0
 42
0.000000001
 43
0.00000001
 40
0.0
 40
0.0
 40
0.0
 40
0.0
 40
0.1109746370026989
 40
0.5969123230472047
 40
1.0
 40
1.0
 40
1.0
 40
1.0
 10
166.0958599244815
 20
157.5737584496876
 30
0.0
 10
166.0829091839589
 20
157.5737584496876
 30
0.0
 10
166.0132495137918
 20
157.5737584496876
 30
0.0
 10
166.3582095705763
 20
157.5737584496876
 30
0.0
 10
166.8175963989198
 20
157.5737584496876
 30
0.0
 10
167.025884235428
 20
157.5737584496876
 30
0.0
  0
SPLINE
  5
1A8
330
1F
100
AcDbEntity
  8
0
  6
Continuous
 62
     7
370
    25
100
AcDbSpline
210
0.0
220
0.0
230
1.0
 70
    24
 71
     3
 72
     9
 73
     5
 74
     0
 42
0.000000001
 43
0.00000001
 40
0.0
 40
0.0
 40
0.0
 40
0.0
 40
0.645203285101315
 40
0.9999999999999999
 40
0.9999999999999999
 40
0.9999999999999999
 40
0.9999999999999999
 10
209.3158025240165
 20
157.5737584496876
 30
0.0
 10
209.6721062318989
 20
157.5737584496876
 30
0.0
 10
210.2243410331003
 20
157.5737584496876
 30
0.0
 10
210.2519798257616
 20
157.5737584496876
 30
0.0
 10
210.2617859786016
 20
157.5737584496876
 30
0.0
  0
LINE
  5
1A9
330
1F
100
AcDbEntity
  8
0
  6
Continuous
 62
     7
370
    25
100
AcDbLine
 10
278.3788848614
 20
220.7737591232
 30
0.0
 11
278.1788889264
 21
220.7737591232
 31
0.0
  0
LINE
  5
1AA
330
1F
100
AcDbEntity
  8
0
  6
Continuous
 62
     7
370
    25
100
AcDbLine
 10
248.178884009
 20
220.7737591232
 30
0.0
 11
247.9788843488
 21
220.7737591232
 31
0.0
  0
LINE
  5
1AB
330
1F
100
AcDbEntity
  8
0
  6
Continuous
 62
     7
370
    25
100
AcDbLine
 10
248.178884009
 20
220.7737591232
 30
0.0
 11
248.178884009
 21
203.7737581993
 31
0.0
  0
LINE
  5
1AC
330
1F
100
AcDbEntity
  8
0
  6
Continuous
 62
     7
370
    25
100
AcDbLine
 10
278.1788889264
 20
220.7737591232
 30
0.0
 11
248.178884009
 21
220.7737591232
 31
0.0
  0
LINE
  5
1AD
330
1F
100
AcDbEntity
  8
0
  6
Continuous
 62
     7
370
    25
100
AcDbLine
 10
278.1788889264
 20
203.7737581993
 30
0.0
 11
278.1788889264
 21
220.7737591232
 31
0.0
  0
LINE
  5
1AE
330
1F
100
AcDbEntity
  8
0
  6
Continuous
 62
     7
370
    25
100
AcDbLine
 10
278.1788889264
 20
203.7737581993
 30
0.0
 11
248.178884009
 21
203.7737581993
 31
0.0
  0
LINE
  5
1AF
330
1F
100
AcDbEntity
  8
0
  6
Continuous
 62
     7
370
    25
100
AcDbLine
 10
128.3788863515
 20
220.7737591232
 30
0.0
 11
128.1788866913
 21
220.7737591232
 31
0.0
  0
LINE
  5
1B0
330
1F
100
AcDbEntity
  8
0
  6
Continuous
 62
     7
370
    25
100
AcDbLine
 10
98.1788817739
 20
220.7737591232
 30
0.0
 11
97.9788858389
 21
220.7737591232
 31
0.0
  0
LINE
  5
1B1
330
1F
100
AcDbEntity
  8
0
  6
Continuous
 62
     7
370
    25
100
AcDbLine
 10
128.1788866913
 20
203.7737581993
 30
0.0
 11
128.1788866913
 21
220.7737591232
 31
0.0
  0
LINE
  5
1B2
330
1F
100
AcDbEntity
  8
0
  6
Continuous
 62
     7
370
    25
100
AcDbLine
 10
128.1788866913
 20
203.7737581993
 30
0.0
 11
98.1788817739
 21
203.7737581993
 31
0.0
  0
LINE
  5
1B3
330
1F
100
AcDbEntity
  8
0
  6
Continuous
 62
     7
370
    25
100
AcDbLine
 10
98.1788817739
 20
220.7737591232
 30
0.0
 11
98.1788817739
 21
203.7737581993
 31
0.0
  0
LINE
  5
1B4
330
1F
100
AcDbEntity
  8
0
  6
Continuous
 62
     7
370
    25
100
AcDbLine
 10
128.1788866913
 20
220.7737591232
 30
0.0
 11
98.1788817739
 21
220.7737591232
 31
0.0
  0
SPLINE
  5
1B5
330
1F
100
AcDbEntity
  8
0
  6
Continuous
 62
     7
370
    25
100
AcDbSpline
210
0.0
220
0.0
230
1.0
 70
     8
 71
     3
 72
    12
 73
     8
 74
     0
 42
0.000000001
 43
0.00000001
 40
0.0
 40
0.0
 40
0.0
 40
0.0
 40
0.4999999999999902
 40
0.4999999999999902
 40
0.7499999999999951
 40
0.7499999999999951
 40
1.0
 40
1.0
 40
1.0
 40
1.0
 10
267.6162268855632
 20
202.7737579718468
 30
0.0
 10
267.296693822569
 20
202.7737579719042
 30
0.0
 10
266.9680542031682
 20
202.7506233692103
 30
0.0
 10
266.4699432500495
 20
202.7125297552625
 30
0.0
 10
266.3028041371635
 20
202.6987429729066
 30
0.0
 10
265.9666683506008
 20
202.6709688324029
 30
0.0
 10
265.7994689482961
 20
202.6571098898338
 30
0.0
 10
265.6278462014797
 20
202.6435254132176
 30
0.0
  0
SPLINE
  5
1B6
330
1F
100
AcDbEntity
  8
0
  6
Continuous
 62
     7
370
    25
100
AcDbSpline
210
0.0
220
0.0
230
1.0
 70
     8
 71
     3
 72
    14
 73
    10
 74
     0
 42
0.000000001
 43
0.00000001
 40
0.0
 40
0.0
 40
0.0
 40
0.0
 40
0.5000000000000094
 40
0.5000000000000094
 40
0.7500000000000139
 40
0.7500000000000139
 40
0.875000000000007
 40
0.875000000000007
 40
1.0
 40
1.0
 40
1.0
 40
1.0
 10
260.729924499825
 20
202.6435254131387
 30
0.0
 10
260.3929176779592
 20
202.6702005560045
 30
0.0
 10
260.0568957088087
 20
202.699590997314
 30
0.0
 10
259.5558507826118
 20
202.7379225680249
 30
0.0
 10
259.3902481734785
 20
202.7496157871789
 30
0.0
 10
259.1446022258087
 20
202.7629935468638
 30
0.0
 10
259.0631832734883
 20
202.7667468297199
 30
0.0
 10
258.901457578151
 20
202.7721236929492
 30
0.0
 10
258.8224335179346
 20
202.7737579723479
 30
0.0
 10
258.7415438144743
 20
202.7737579723479
 30
0.0
  0
SPLINE
  5
1B7
330
1F
100
AcDbEntity
  8
0
  6
Continuous
 62
     7
370
    25
100
AcDbSpline
210
0.0
220
0.0
230
1.0
 70
     8
 71
     3
 72
    12
 73
     8
 74
     0
 42
0.000000001
 43
0.00000001
 40
0.0
 40
0.0
 40
0.0
 40
0.0
 40
0.5000000000000097
 40
0.5000000000000097
 40
0.7500000000000048
 40
0.7500000000000048
 40
1.0
 40
1.0
 40
1.0
 40
1.0
 10
117.6162268855631
 20
202.7737579718468
 30
0.0
 10
117.2966938225687
 20
202.7737579719042
 30
0.0
 10
116.968054203168
 20
202.7506233692103
 30
0.0
 10
116.4699432500494
 20
202.7125297552625
 30
0.0
 10
116.3028041371635
 20
202.6987429729066
 30
0.0
 10
115.9666683506007
 20
202.6709688324029
 30
0.0
 10
115.7994689482961
 20
202.6571098898339
 30
0.0
 10
115.6278462014796
 20
202.6435254132176
 30
0.0
  0
SPLINE
  5
1B8
330
1F
100
AcDbEntity
  8
0
  6
Continuous
 62
     7
370
    25
100
AcDbSpline
210
0.0
220
0.0
230
1.0
 70
     8
 71
     3
 72
    14
 73
    10
 74
     0
 42
0.000000001
 43
0.00000001
 40
0.0
 40
0.0
 40
0.0
 40
0.0
 40
0.5000000000000193
 40
0.5000000000000193
 40
0.750000000000019
 40
0.750000000000019
 40
0.8750000000000094
 40
0.8750000000000094
 40
1.0
 40
1.0
 40
1.0
 40
1.0
 10
110.729924499825
 20
202.6435254131387
 30
0.0
 10
110.3929176779593
 20
202.6702005560045
 30
0.0
 10
110.0568957088088
 20
202.699590997314
 30
0.0
 10
109.5558507826118
 20
202.7379225680248
 30
0.0
 10
109.3902481734786
 20
202.7496157871789
 30
0.0
 10
109.1446022258088
 20
202.7629935468638
 30
0.0
 10
109.0631832734883
 20
202.7667468297199
 30
0.0
 10
108.901457578151
 20
202.7721236929492
 30
0.0
 10
108.8224335179347
 20
202.7737579723479
 30
0.0
 10
108.7415438144745
 20
202.7737579723479
 30
0.0
  0
LINE
  5
1B9
330
1F
100
AcDbEntity
  8
0
  6
Continuous
 62
     7
370
    25
100
AcDbLine
 10
129.3136548197
 20
202.7737580354
 30
0.0
 11
117.616224656
 21
202.7737580354
 31
0.0
  0
LINE
  5
1BA
330
1F
100
AcDbEntity
  8
0
  6
Continuous
 62
     7
370
    25
100
AcDbLine
 10
279.3136570548
 20
202.7737580354
 30
0.0
 11
267.6162231659
 21
202.7737580354
 31
0.0
  0
LINE
  5
1BB
330
1F
100
AcDbEntity
  8
0
  6
Continuous
 62
     7
370
    25
100
AcDbLine
 10
108.7415475344
 20
202.7737580354
 30
0.0
 11
97.0441136455
 21
202.7737580354
 31
0.0
  0
LINE
  5
1BC
330
1F
100
AcDbEntity
  8
0
  6
Continuous
 62
     7
370
    25
100
AcDbLine
 10
258.7415460443
 20
202.7737580354
 30
0.0
 11
247.0441158807
 21
202.7737580354
 31
0.0
  0
SPLINE
  5
1BD
330
1F
100
AcDbEntity
  8
0
  6
Continuous
 62
     7
370
    25
100
AcDbSpline
210
0.0
220
0.0
230
1.0
 70
     8
 71
     3
 72
    18
 73
    14
 74
     0
 42
0.000000001
 43
0.00000001
 40
0.0
 40
0.0
 40
0.0
 40
0.0
 40
0.1250000000000007
 40
0.1250000000000007
 40
0.2500000000000013
 40
0.2500000000000013
 40
0.375000000000002
 40
0.375000000000002
 40
0.5000000000000027
 40
0.5000000000000027
 40
0.7500000000000016
 40
0.7500000000000016
 40
1.0
 40
1.0
 40
1.0
 40
1.0
 10
247.0441159801541
 20
202.7737579728504
 30
0.0
 10
246.830709139902
 20
202.7737579728504
 30
0.0
 10
246.6233518352724
 20
202.7907987809229
 30
0.0
 10
246.2192120287616
 20
202.854463125491
 30
0.0
 10
246.0288687695431
 20
202.9002405540923
 30
0.0
 10
245.6748986624237
 20
203.0109515697676
 30
0.0
 10
245.5127747457989
 20
203.0748547329104
 30
0.0
 10
245.2190784329175
 20
203.2105984917421
 30
0.0
 10
245.0854724726675
 20
203.2833089134419
 30
0.0
 10
244.7198879053986
 20
203.5054943014519
 30
0.0
 10
244.5301259042459
 20
203.655156631641
 30
0.0
 10
244.2106817467739
 20
203.9419833378841
 30
0.0
 10
244.0840812702771
 20
204.0784946727039
 30
0.0
 10
243.979938210154
 20
204.2026075328504
 30
0.0
  0
SPLINE
  5
1BE
330
1F
100
AcDbEntity
  8
0
  6
Continuous
 62
     7
370
    25
100
AcDbSpline
210
0.0
220
0.0
230
1.0
 70
     8
 71
     3
 72
    18
 73
    14
 74
     0
 42
0.000000001
 43
0.00000001
 40
0.0
 40
0.0
 40
0.0
 40
0.0
 40
0.1249999999999994
 40
0.1249999999999994
 40
0.2499999999999988
 40
0.2499999999999988
 40
0.3749999999999982
 40
0.3749999999999982
 40
0.4999999999999977
 40
0.4999999999999977
 40
0.7499999999999988
 40
0.7499999999999988
 40
1.0
 40
1.0
 40
1.0
 40
1.0
 10
97.04411598015407
 20
202.7737579728504
 30
0.0
 10
96.83070913990203
 20
202.7737579728504
 30
0.0
 10
96.62335183527244
 20
202.7907987809229
 30
0.0
 10
96.21921202876163
 20
202.854463125491
 30
0.0
 10
96.02886876954308
 20
202.9002405540923
 30
0.0
 10
95.67489866242376
 20
203.0109515697676
 30
0.0
 10
95.51277474579886
 20
203.0748547329104
 30
0.0
 10
95.21907843291748
 20
203.2105984917421
 30
0.0
 10
95.08547247266742
 20
203.2833089134419
 30
0.0
 10
94.7198879053988
 20
203.5054943014519
 30
0.0
 10
94.5301259042459
 20
203.655156631641
 30
0.0
 10
94.210681746774
 20
203.9419833378841
 30
0.0
 10
94.0840812702771
 20
204.0784946727039
 30
0.0
 10
93.97993821015406
 20
204.2026075328504
 30
0.0
  0
SPLINE
  5
1BF
330
1F
100
AcDbEntity
  8
0
  6
Continuous
 62
     7
370
    25
100
AcDbSpline
210
0.0
220
0.0
230
1.0
 70
     8
 71
     3
 72
    18
 73
    14
 74
     0
 42
0.000000001
 43
0.00000001
 40
0.0
 40
0.0
 40
0.0
 40
0.0
 40
0.2500000000000002
 40
0.2500000000000002
 40
0.5000000000000004
 40
0.5000000000000004
 40
0.6250000000000003
 40
0.6250000000000003
 40
0.7500000000000002
 40
0.7500000000000002
 40
0.8750000000000001
 40
0.8750000000000001
 40
1.0
 40
1.0
 40
1.0
 40
1.0
 10
132.377832490154
 20
204.2026075328504
 30
0.0
 10
132.2737288500311
 20
204.0785416327039
 30
0.0
 10
132.1485064816339
 20
203.9436605880572
 30
0.0
 10
131.8303047025718
 20
203.6572844170086
 30
0.0
 10
131.6367186725219
 20
203.5051663810089
 30
0.0
 10
131.2729517315825
 20
203.2835427793542
 30
0.0
 10
131.1386519668571
 20
203.2107018933767
 30
0.0
 10
130.8429461018768
 20
203.0739033283438
 30
0.0
 10
130.68330891415
 20
203.0108557734622
 30
0.0
 10
130.3321662994082
 20
202.9012955444915
 30
0.0
 10
130.1403536894069
 20
202.8547581013658
 30
0.0
 10
129.7390462956562
 20
202.7913294278931
 30
0.0
 10
129.5268297604058
 20
202.7737579728504
 30
0.0
 10
129.3136547201541
 20
202.7737579728504
 30
0.0
  0
SPLINE
  5
1C0
330
1F
100
AcDbEntity
  8
0
  6
Continuous
 62
     7
370
    25
100
AcDbSpline
210
0.0
220
0.0
230
1.0
 70
     8
 71
     3
 72
    18
 73
    14
 74
     0
 42
0.000000001
 43
0.00000001
 40
0.0
 40
0.0
 40
0.0
 40
0.0
 40
0.25
 40
0.25
 40
0.5
 40
0.5
 40
0.625
 40
0.625
 40
0.75
 40
0.75
 40
0.875
 40
0.875
 40
1.0
 40
1.0
 40
1.0
 40
1.0
 10
282.3778324901541
 20
204.2026075328504
 30
0.0
 10
282.2737288500311
 20
204.0785416327039
 30
0.0
 10
282.1485064816339
 20
203.9436605880572
 30
0.0
 10
281.8303047025718
 20
203.6572844170085
 30
0.0
 10
281.6367186725219
 20
203.5051663810089
 30
0.0
 10
281.2729517315825
 20
203.2835427793542
 30
0.0
 10
281.1386519668571
 20
203.2107018933767
 30
0.0
 10
280.8429461018767
 20
203.0739033283438
 30
0.0
 10
280.68330891415
 20
203.0108557734622
 30
0.0
 10
280.3321662994082
 20
202.9012955444915
 30
0.0
 10
280.1403536894068
 20
202.8547581013658
 30
0.0
 10
279.7390462956563
 20
202.7913294278931
 30
0.0
 10
279.5268297604058
 20
202.7737579728504
 30
0.0
 10
279.3136547201541
 20
202.7737579728504
 30
0.0
  0
LINE
  5
1C1
330
1F
100
AcDbEntity
  8
0
  6
Continuous
 62
     7
370
    25
100
AcDbLine
 10
258.7415460443
 20
202.7737580354
 30
0.0
 11
267.6162306165
 21
202.7737580354
 31
0.0
  0
LINE
  5
1C2
330
1F
100
AcDbEntity
  8
0
  6
Continuous
 62
     7
370
    25
100
AcDbLine
 10
108.7415400838
 20
202.7737580354
 30
0.0
 11
117.616224656
 21
202.7737580354
 31
0.0
  0
SPLINE
  5
1C3
330
1F
100
AcDbEntity
  8
0
  6
Continuous
 62
     7
370
    25
100
AcDbSpline
210
0.0
220
0.0
230
1.0
 70
     8
 71
     3
 72
     9
 73
     5
 74
     0
 42
0.000000001
 43
0.00000001
 40
0.0
 40
0.0
 40
0.0
 40
0.0
 40
0.7253662802661459
 40
1.0
 40
1.0
 40
1.0
 40
1.0
 10
243.9799379502994
 20
204.2026080305716
 30
0.0
 10
243.7169604678989
 20
204.5160112776596
 30
0.0
 10
243.3544160685315
 20
204.9480733346015
 30
0.0
 10
243.2809592724815
 20
205.0356155779397
 30
0.0
 10
243.2607855593425
 20
205.0596576298615
 30
0.0
  0
SPLINE
  5
1C4
330
1F
100
AcDbEntity
  8
0
  6
Continuous
 62
     7
370
    25
100
AcDbSpline
210
0.0
220
0.0
230
1.0
 70
     8
 71
     3
 72
     9
 73
     5
 74
     0
 42
0.000000001
 43
0.00000001
 40
0.0
 40
0.0
 40
0.0
 40
0.0
 40
0.2948001742956874
 40
1.0
 40
1.0
 40
1.0
 40
1.0
 10
133.1055570339424
 20
205.069874238505
 30
0.0
 10
133.0838721041327
 20
205.0440307892885
 30
0.0
 10
133.010314041077
 20
204.9563664950653
 30
0.0
 10
132.6394007430962
 20
204.5143312255728
 30
0.0
 10
132.3778327500087
 20
204.2026080305716
 30
0.0
  0
SPLINE
  5
1C5
330
1F
100
AcDbEntity
  8
0
  6
Continuous
 62
     7
370
    25
100
AcDbSpline
210
0.0
220
0.0
230
1.0
 70
     8
 71
     3
 72
     9
 73
     5
 74
     0
 42
0.000000001
 43
0.00000001
 40
0.0
 40
0.0
 40
0.0
 40
0.0
 40
0.7253662761845057
 40
1.0
 40
1.0
 40
1.0
 40
1.0
 10
93.97993571512522
 20
204.2026080305716
 30
0.0
 10
93.71695873508706
 20
204.5160112779615
 30
0.0
 10
93.35441502624326
 20
204.9480733377507
 30
0.0
 10
93.28096313983461
 20
205.0356155783379
 30
0.0
 10
93.26079077474894
 20
205.0596576298615
 30
0.0
  0
SPLINE
  5
1C6
330
1F
100
AcDbEntity
  8
0
  6
Continuous
 62
     7
370
    25
100
AcDbSpline
210
0.0
220
0.0
230
1.0
 70
     8
 71
     3
 72
     9
 73
     5
 74
     0
 42
0.000000001
 43
0.00000001
 40
0.0
 40
0.0
 40
0.0
 40
0.0
 40
0.2948002176713365
 40
1.0
 40
1.0
 40
1.0
 40
1.0
 10
283.1055555438262
 20
205.069874238505
 30
0.0
 10
283.0838705414971
 20
205.0440307940513
 30
0.0
 10
283.0103122432692
 20
204.9563665288829
 30
0.0
 10
282.6394013009615
 20
204.5143312283142
 30
0.0
 10
282.3778349851829
 20
204.2026080305716
 30
0.0
  0
SPLINE
  5
1C7
330
1F
100
AcDbEntity
  8
0
  6
Continuous
 62
     7
370
    25
100
AcDbSpline
210
0.0
220
0.0
230
1.0
 70
     8
 71
     3
 72
    12
 73
     8
 74
     0
 42
0.000000001
 43
0.00000001
 40
0.0
 40
0.0
 40
0.0
 40
0.0
 40
0.5
 40
0.5
 40
0.75
 40
0.75
 40
1.0
 40
1.0
 40
1.0
 40
1.0
 10
166.2061997675228
 20
147.8737579728504
 30
0.0
 10
165.9199993168486
 20
147.8737579728504
 30
0.0
 10
165.7800368634136
 20
147.8110470277357
 30
0.0
 10
165.7783201060022
 20
147.6213384586577
 30
0.0
 10
165.8127085816938
 20
147.5421414783013
 30
0.0
 10
165.952562092428
 20
147.3512846253759
 30
0.0
 10
166.058000915381
 20
147.2398827502344
 30
0.0
 10
166.1975606912262
 20
147.1141456234608
 30
0.0
  0
SPLINE
  5
1C8
330
1F
100
AcDbEntity
  8
0
  6
Continuous
 62
     7
370
    25
100
AcDbSpline
210
0.0
220
0.0
230
1.0
 70
     8
 71
     3
 72
    12
 73
     8
 74
     0
 42
0.000000001
 43
0.00000001
 40
0.0
 40
0.0
 40
0.0
 40
0.0
 40
0.5
 40
0.5
 40
0.75
 40
0.75
 40
1.0
 40
1.0
 40
1.0
 40
1.0
 10
210.1602100090819
 20
147.1141456234608
 30
0.0
 10
210.4392561611482
 20
147.3655537472239
 30
0.0
 10
210.5784950163677
 20
147.5553269378653
 30
0.0
 10
210.5790792992811
 20
147.7460758127539
 30
0.0
 10
210.5443220242596
 20
147.7939868221445
 30
0.0
 10
210.4021057797692
 20
147.8579484562277
 30
0.0
 10
210.2946631015576
 20
147.8737579728504
 30
0.0
 10
210.1515709327853
 20
147.8737579728504
 30
0.0
  0
LINE
  5
1C9
330
1F
100
AcDbEntity
  8
0
  6
Continuous
 62
     7
370
    25
100
AcDbLine
 10
166.2061992978
 20
147.8737581636
 30
0.0
 11
166.5365878438
 21
147.8737581636
 31
0.0
  0
SPLINE
  5
1CA
330
1F
100
AcDbEntity
  8
0
  6
Continuous
 62
     7
370
    25
100
AcDbSpline
210
0.0
220
0.0
230
1.0
 70
     8
 71
     3
 72
     8
 73
     4
 74
     0
 42
0.000000001
 43
0.00000001
 40
0.0
 40
0.0
 40
0.0
 40
0.0
 40
1.0
 40
1.0
 40
1.0
 40
1.0
 10
166.1147649455123
 20
147.7405730556245
 30
0.0
 10
166.1539738122691
 20
147.8299870431814
 30
0.0
 10
166.29503250605
 20
147.8737579728504
 30
0.0
 10
166.536586959341
 20
147.8737579728504
 30
0.0
  0
SPLINE
  5
1CB
330
1F
100
AcDbEntity
  8
0
  6
Continuous
 62
     7
370
    25
100
AcDbSpline
210
0.0
220
0.0
230
1.0
 70
     8
 71
     3
 72
     8
 73
     4
 74
     0
 42
0.000000001
 43
0.00000001
 40
0.0
 40
0.0
 40
0.0
 40
0.0
 40
1.0
 40
1.0
 40
1.0
 40
1.0
 10
166.6622178189316
 20
147.1141456234608
 30
0.0
 10
166.3895821371643
 20
147.322014873816
 30
0.0
 10
166.2125853258024
 20
147.4908949429183
 30
0.0
 10
166.1364463323792
 20
147.6153212116851
 30
0.0
  0
SPLINE
  5
1CC
330
1F
100
AcDbEntity
  8
0
  6
Continuous
 62
     7
370
    25
100
AcDbSpline
210
0.0
220
0.0
230
1.0
 70
     8
 71
     3
 72
    12
 73
     8
 74
     0
 42
0.000000001
 43
0.00000001
 40
0.0
 40
0.0
 40
0.0
 40
0.0
 40
0.0000186083050333
 40
0.287181366901812
 40
0.5743585830810295
 40
0.8615370932975027
 40
1.0
 40
1.0
 40
1.0
 40
1.0
 10
166.2326004301769
 20
147.5431125725647
 30
0.0
 10
166.2326016719313
 20
147.5431100890251
 30
0.0
 10
166.2517656284611
 20
147.5047817025318
 30
0.0
 10
166.3028871164393
 20
147.4463732061484
 30
0.0
 10
166.4195775661622
 20
147.3222571862992
 30
0.0
 10
166.5418654756587
 20
147.2129499300696
 30
0.0
 10
166.6378555514214
 20
147.1375402581449
 30
0.0
 10
166.6690815185768
 20
147.1130091811558
 30
0.0
  0
SPLINE
  5
1CD
330
1F
100
AcDbEntity
  8
0
  6
Continuous
 62
     7
370
    25
100
AcDbSpline
210
0.0
220
0.0
230
1.0
 70
     8
 71
     3
 72
     8
 73
     4
 74
     0
 42
0.000000001
 43
0.00000001
 40
0.0
 40
0.0
 40
0.0
 40
0.0
 40
1.0
 40
1.0
 40
1.0
 40
1.0
 10
210.2213243676982
 20
147.6153212113081
 30
0.0
 10
210.145185374122
 20
147.4908949425318
 30
0.0
 10
209.9681885629847
 20
147.3220148736947
 30
0.0
 10
209.6955528813765
 20
147.1141456234608
 30
0.0
  0
SPLINE
  5
1CE
330
1F
100
AcDbEntity
  8
0
  6
Continuous
 62
     7
370
    25
100
AcDbSpline
210
0.0
220
0.0
230
1.0
 70
     8
 71
     3
 72
     8
 73
     4
 74
     0
 42
0.000000001
 43
0.00000001
 40
0.0
 40
0.0
 40
0.0
 40
0.0
 40
1.0
 40
1.0
 40
1.0
 40
1.0
 10
209.8211837409671
 20
147.8737579728504
 30
0.0
 10
210.0627381931029
 20
147.8737579728504
 30
0.0
 10
210.2037968875055
 20
147.8299870436455
 30
0.0
 10
210.2430057542041
 20
147.7405730569739
 30
0.0
  0
LINE
  5
1CF
330
1F
100
AcDbEntity
  8
0
  6
Continuous
 62
     7
370
    25
100
AcDbLine
 10
209.8211828565
 20
147.8737581636
 30
0.0
 11
210.1515714025
 21
147.8737581636
 31
0.0
  0
LWPOLYLINE
  5
1D0
330
1F
100
AcDbEntity
  8
0
  6
Continuous
 62
     7
370
    25
100
AcDbPolyline
 90
        7
 70
   128
 43
0.0
 10
209.6886891817
 20
147.1130091812
 10
209.779932717
 20
147.1855256821
 10
209.9330048954
 20
147.3209250833
 10
210.0482169484
 20
147.4402871097
 10
210.1251665448
 20
147.543105122
 10
210.1251702701
 20
147.5431125726
 10
210.1251702701
 20
147.5431125726
  0
LWPOLYLINE
  5
1D1
330
1F
100
AcDbEntity
  8
0
  6
Continuous
 62
     7
370
    25
100
AcDbPolyline
 90
        5
 70
   128
 43
0.0
 10
210.1487457698
 20
147.5969579185
 10
210.1528529023
 20
147.6108644272
 10
210.1468943005
 20
147.6679731275
 10
210.1468924379
 20
147.6679805781
 10
210.1468924379
 20
147.6679805781
  0
SPLINE
  5
1D2
330
1F
100
AcDbEntity
  8
0
  6
Continuous
 62
     7
370
    25
100
AcDbSpline
210
0.0
220
0.0
230
1.0
 70
     8
 71
     3
 72
     8
 73
     4
 74
     0
 42
0.000000001
 43
0.00000001
 40
0.0
 40
0.0
 40
0.0
 40
0.0
 40
1.0
 40
1.0
 40
1.0
 40
1.0
 10
166.2108778880331
 20
147.6679791152784
 30
0.0
 10
166.1956907529465
 20
147.6332418550957
 30
0.0
 10
166.2029998067629
 20
147.5915486930681
 30
0.0
 10
166.2326005320892
 20
147.5431128486904
 30
0.0
  0
SPLINE
  5
1D3
330
1F
100
AcDbEntity
  8
0
  6
Continuous
 62
     7
370
    25
100
AcDbSpline
210
0.0
220
0.0
230
1.0
 70
     8
 71
     3
 72
     8
 73
     4
 74
     0
 42
0.000000001
 43
0.00000001
 40
0.0
 40
0.0
 40
0.0
 40
0.0
 40
1.0
 40
1.0
 40
1.0
 40
1.0
 10
166.6310440962409
 20
147.8005227814779
 30
0.0
 10
166.3904246943953
 20
147.8005263977979
 30
0.0
 10
166.2499055570306
 20
147.7566087209591
 30
0.0
 10
166.2108778876598
 20
147.6679791166035
 30
0.0
  0
SPLINE
  5
1D4
330
1F
100
AcDbEntity
  8
0
  6
Continuous
 62
     7
370
    25
100
AcDbSpline
210
0.0
220
0.0
230
1.0
 70
     8
 71
     3
 72
     8
 73
     4
 74
     0
 42
0.000000001
 43
0.00000001
 40
0.0
 40
0.0
 40
0.0
 40
0.0
 40
1.0
 40
1.0
 40
1.0
 40
1.0
 10
210.1468928126482
 20
147.6679791166035
 30
0.0
 10
210.1078659065961
 20
147.7569375312915
 30
0.0
 10
209.9673460060512
 20
147.8005263977979
 30
0.0
 10
209.7267266040672
 20
147.8005227814779
 30
0.0
  0
SPLINE
  5
1D5
330
1F
100
AcDbEntity
  8
0
  6
Continuous
 62
     7
370
    25
100
AcDbSpline
210
0.0
220
0.0
230
1.0
 70
    24
 71
     3
 72
     9
 73
     5
 74
     0
 42
0.000000001
 43
0.00000001
 40
0.0
 40
0.0
 40
0.0
 40
0.0
 40
0.0000269885272124
 40
1.0
 40
1.0
 40
1.0
 40
1.0
 10
209.7237683778268
 20
147.8005226816078
 30
0.0
 10
209.7237646525568
 20
147.8005226816078
 30
0.0
 10
209.5857330379535
 20
147.8005226815839
 30
0.0
 10
209.3640437565935
 20
147.8005226815959
 30
0.0
 10
209.1423604583007
 20
147.8005226816078
 30
0.0
  0
LINE
  5
1D6
330
1F
100
AcDbEntity
  8
0
  6
Continuous
 62
     7
370
    25
100
AcDbLine
 10
167.1678867137
 20
147.8005226816
 30
0.0
 11
166.6340023225
 21
147.8005226816
 31
0.0
  0
SPLINE
  5
1D7
330
1F
100
AcDbEntity
  8
0
  6
Continuous
 62
     7
370
    25
100
AcDbSpline
210
0.0
220
0.0
230
1.0
 70
    24
 71
     3
 72
     9
 73
     5
 74
     0
 42
0.000000001
 43
0.00000001
 40
0.0
 40
0.0
 40
0.0
 40
0.0
 40
0.2263738837390192
 40
1.0
 40
1.0
 40
1.0
 40
1.0
 10
166.5395569001896
 20
147.8737581635853
 30
0.0
 10
166.5718111595267
 20
147.8737581635853
 30
0.0
 10
166.7142934052896
 20
147.8737581635853
 30
0.0
 10
166.9548374755556
 20
147.8737581635853
 30
0.0
 10
167.1409286504251
 20
147.8737581635853
 30
0.0
  0
LINE
  5
1D8
330
1F
100
AcDbEntity
  8
0
  6
Continuous
 62
     7
370
    25
100
AcDbLine
 10
209.1649860089
 20
147.8737581636
 30
0.0
 11
209.8182138001
 21
147.8737581636
 31
0.0
  0
SPLINE
  5
1D9
330
1F
100
AcDbEntity
  8
0
  6
Continuous
 62
     7
370
    25
100
AcDbSpline
210
0.0
220
0.0
230
1.0
 70
    24
 71
     3
 72
     8
 73
     4
 74
     0
 42
0.000000001
 43
0.00000001
 40
0.0
 40
0.0
 40
0.0
 40
0.0
 40
0.0000150272153671
 40
0.0000150272153671
 40
0.0000150272153671
 40
0.0000150272153671
 10
166.536586959341
 20
147.8737579728504
 30
0.0
 10
166.5375753957281
 20
147.8737579728504
 30
0.0
 10
166.5385652984922
 20
147.8737579728504
 30
0.0
 10
166.5395566671814
 20
147.8737579728504
 30
0.0
  0
SPLINE
  5
1DA
330
1F
100
AcDbEntity
  8
0
  6
Continuous
 62
     7
370
    25
100
AcDbSpline
210
0.0
220
0.0
230
1.0
 70
    24
 71
     3
 72
     8
 73
     4
 74
     0
 42
0.000000001
 43
0.00000001
 40
0.0
 40
0.0
 40
0.0
 40
0.0
 40
0.0000150272153671
 40
0.0000150272153671
 40
0.0000150272153671
 40
0.0000150272153671
 10
209.8182140331267
 20
147.8737579728504
 30
0.0
 10
209.8192054018159
 20
147.8737579728504
 30
0.0
 10
209.82019530458
 20
147.8737579728504
 30
0.0
 10
209.8211837409671
 20
147.8737579728504
 30
0.0
  0
LINE
  5
1DB
330
1F
100
AcDbEntity
  8
0
  6
Continuous
 62
     8
370
    18
100
AcDbLine
 10
228.1788844561
 20
234.5737580325
 30
0.0
 11
298.1788847541
 21
234.5737580325
 31
0.0
  0
LINE
  5
1DC
330
1F
100
AcDbEntity
  8
0
  6
Continuous
 62
     8
370
    18
100
AcDbLine
 10
78.1788859462
 20
234.5737580325
 30
0.0
 11
148.1788862442
 21
234.5737580325
 31
0.0
  0
ELLIPSE
  5
1DD
330
1F
100
AcDbEntity
  8
0
  6
Continuous
 62
     8
370
    18
100
AcDbEllipse
 10
188.1788853502
 20
147.8742226266
 30
0.0
 11
22.39999999999997
 21
0.0
 31
0.0
210
0.0
220
0.0
230
1.0
 40
0.1763269807
 41
3.335238619882459
 42
6.089539340887071
  0
LINE
  5
1DE
330
1F
100
AcDbEntity
  8
0
  6
Continuous
 62
     8
370
    18
100
AcDbLine
 10
166.6622176712
 20
147.1141453947
 30
0.0
 11
166.1975603496
 21
147.1141453947
 31
0.0
  0
SPLINE
  5
1DF
330
1F
100
AcDbEntity
  8
0
  6
Continuous
 62
     8
370
    18
100
AcDbSpline
210
0.0
220
0.0
230
1.0
 70
     8
 71
     3
 72
     8
 73
     4
 74
     0
 42
0.000000001
 43
0.00000001
 40
0.0
 40
0.0
 40
0.0
 40
0.0
 40
0.0000318200463661
 40
0.0000318200463661
 40
0.0000318200463661
 40
0.0000318200463661
 10
166.6693163315119
 20
147.1087593758861
 30
0.0
 10
166.666943858122
 20
147.1105545409344
 30
0.0
 10
166.6645776856228
 20
147.1123499574298
 30
0.0
 10
166.6622178189316
 20
147.1141456234608
 30
0.0
  0
SPLINE
  5
1E0
330
1F
100
AcDbEntity
  8
0
  6
Continuous
 62
     8
370
    18
100
AcDbSpline
210
0.0
220
0.0
230
1.0
 70
     8
 71
     3
 72
     8
 73
     4
 74
     0
 42
0.000000001
 43
0.00000001
 40
0.0
 40
0.0
 40
0.0
 40
0.0
 40
0.0000318200463661
 40
0.0000318200463661
 40
0.0000318200463661
 40
0.0000318200463661
 10
209.6955528813765
 20
147.1141456234608
 30
0.0
 10
209.6931930146853
 20
147.1123499574298
 30
0.0
 10
209.6908268421861
 20
147.1105545409345
 30
0.0
 10
209.6884543687962
 20
147.1087593758862
 30
0.0
  0
LINE
  5
1E1
330
1F
100
AcDbEntity
  8
0
  6
Continuous
 62
     8
370
    18
100
AcDbLine
 10
210.1602103507
 20
147.1141453947
 30
0.0
 11
209.6955530291
 21
147.1141453947
 31
0.0
  0
ARC
  5
1E2
330
1F
100
AcDbEntity
  8
0
  6
Continuous
 62
     8
370
    18
100
AcDbCircle
 10
209.6843761767
 20
147.0153700393
 30
0.0
 40
0.0934775938597007
100
AcDbArc
 50
87.4994623468
 51
127.9685022802
  0
ARC
  5
1E3
330
1F
100
AcDbEntity
  8
0
  6
Continuous
 62
     8
370
    18
100
AcDbCircle
 10
166.6734342013
 20
147.0155000059
 30
0.0
 40
0.0933494931241435
100
AcDbArc
 50
52.5632324527
 51
92.5283479974
  0
SPLINE
  5
1E4
330
1F
100
AcDbEntity
  8
0
  6
Continuous
 62
     8
370
    18
100
AcDbSpline
210
0.0
220
0.0
230
1.0
 70
     8
 71
     3
 72
    50
 73
    46
 74
     0
 42
0.000000001
 43
0.00000001
 40
0.0
 40
0.0
 40
0.0
 40
0.0
 40
0.028935374699717
 40
0.0584625232857797
 40
0.0776443852902587
 40
0.0974420438462654
 40
0.117952273865142
 40
0.1458168955608711
 40
0.1753746486002346
 40
0.1960947583436036
 40
0.2176648366773594
 40
0.2401162499226024
 40
0.2810338165419739
 40
0.3236597983175515
 40
0.3657248341229409
 40
0.3821422015935503
 40
0.3976487138541614
 40
0.4146160119397547
 40
0.4299401282509827
 40
0.4420027248282424
 40
0.4529920895591142
 40
0.4629367366159343
 40
0.4798077439152919
 40
0.496917751526711
 40
0.5053601137675431
 40
0.5140478054624866
 40
0.5309904367295344
 40
0.5462954447421251
 40
0.564013088745673
 40
0.5847140164138069
 40
0.6063796513861974
 40
0.6279903400478886
 40
0.6596937426336407
 40
0.6911755364715031
 40
0.7227567233222139
 40
0.753072091530713
 40
0.7863196245241444
 40
0.8176390039065583
 40
0.8471362986756014
 40
0.8749384045319285
 40
0.9053567932162025
 40
0.9342392028860916
 40
0.9638388667057232
 40
0.9927120459691412
 40
1.0
 40
1.0
 40
1.0
 40
1.0
 10
162.1788866763574
 20
160.5737570787808
 30
0.0
 10
162.2104365607893
 20
160.5999678481521
 30
0.0
 10
162.2741815743724
 20
160.6529254383203
 30
0.0
 10
162.7221005980572
 20
161.026292298568
 30
0.0
 10
163.2842209819284
 20
161.493802085853
 30
0.0
 10
163.8914323880121
 20
161.9984987236265
 30
0.0
 10
164.7065577421556
 20
162.6754930658047
 30
0.0
 10
165.7827195829475
 20
163.5670729389739
 30
0.0
 10
166.999415219209
 20
164.5726600824027
 30
0.0
 10
168.2063311799104
 20
165.567181497385
 30
0.0
 10
169.3518626991655
 20
166.5079783479564
 30
0.0
 10
170.9227250735867
 20
167.7919888561754
 30
0.0
 10
172.9880057503266
 20
169.4676372522462
 30
0.0
 10
175.5631692483703
 20
171.5232217643217
 30
0.0
 10
177.7268690649094
 20
173.2006574933512
 30
0.0
 10
179.3568126611503
 20
174.4159985714707
 30
0.0
 10
180.4535596176319
 20
175.2088557709677
 30
0.0
 10
181.5480008103195
 20
175.9672500899994
 30
0.0
 10
182.5894687067962
 20
176.6445992466827
 30
0.0
 10
183.5152496174262
 20
177.1990476439015
 30
0.0
 10
184.3331819208273
 20
177.6431093248758
 30
0.0
 10
185.2980128314396
 20
178.1026148766334
 30
0.0
 10
186.4695474149832
 20
178.5348147609638
 30
0.0
 10
187.6684912382136
 20
178.7372456403406
 30
0.0
 10
188.6432301386509
 20
178.7200358486024
 30
0.0
 10
189.6040432235098
 20
178.5892617812731
 30
0.0
 10
190.7214183282654
 20
178.249561364891
 30
0.0
 10
192.0091601366672
 20
177.6639569281993
 30
0.0
 10
193.3312388773876
 20
176.9235266556291
 30
0.0
 10
194.7492624069138
 20
176.0131788060216
 30
0.0
 10
196.210521172001
 20
174.9941926931171
 30
0.0
 10
197.8784266803541
 20
173.7692949686715
 30
0.0
 10
199.7128928965606
 20
172.3653315064505
 30
0.0
 10
201.7004137919144
 20
170.8011698253508
 30
0.0
 10
203.5946218217089
 20
169.2842474186766
 30
0.0
 10
205.4502125053344
 20
167.7798657248284
 30
0.0
 10
207.2112127062188
 20
166.3400419893684
 30
0.0
 10
208.8442147158467
 20
164.9967344066362
 30
0.0
 10
210.2572853745389
 20
163.8299400733788
 30
0.0
 10
211.5101327142282
 20
162.7926755978428
 30
0.0
 10
212.5693471772557
 20
161.9128786434209
 30
0.0
 10
213.422267696018
 20
161.2039232202421
 30
0.0
 10
213.9599543611187
 20
160.7559911255094
 30
0.0
 10
214.2029542920946
 20
160.5537535329971
 30
0.0
 10
214.1575413676275
 20
160.5914986290193
 30
0.0
 10
214.1483887975675
 20
160.5991058166167
 30
0.0
  0
LINE
  5
1E5
330
1F
100
AcDbEntity
  8
0
  6
Continuous
 62
     8
370
    18
100
AcDbLine
 10
89.1788858866
 20
205.5737588669
 30
0.0
 11
89.1788858866
 21
160.5737570788
 31
0.0
  0
LINE
  5
1E6
330
1F
100
AcDbEntity
  8
0
  6
Continuous
 62
     8
370
    18
100
AcDbLine
 10
287.1788848137
 20
160.5737570788
 30
0.0
 11
287.1788848137
 21
205.5737588669
 31
0.0
  0
SPLINE
  5
1E7
330
1F
100
AcDbEntity
  8
0
  6
Continuous
 62
     8
370
    18
100
AcDbSpline
210
0.0
220
0.0
230
1.0
 70
     8
 71
     3
 72
    20
 73
    16
 74
     0
 42
0.000000001
 43
0.00000001
 40
0.0
 40
0.0
 40
0.0
 40
0.0
 40
0.0639249242317893
 40
0.1275473777409593
 40
0.1908802192362011
 40
0.2539364846033651
 40
0.3167293819812977
 40
0.3792722863674464
 40
0.4415787337535901
 40
0.5036624147946477
 40
0.6034470297408616
 40
0.7029136396308794
 40
0.8021214787285185
 40
0.9011302457454027
 40
1.0
 40
1.0
 40
1.0
 40
1.0
 10
243.2138937701541
 20
204.5126600153986
 30
0.0
 10
243.1791834030423
 20
204.5559524339264
 30
0.0
 10
243.1099269063201
 20
204.6423324261693
 30
0.0
 10
243.0140536561133
 20
204.7619202853014
 30
0.0
 10
242.9243833120838
 20
204.8737677706955
 30
0.0
 10
242.8414645287865
 20
204.977187278205
 30
0.0
 10
242.7651514124479
 20
205.0723588515705
 30
0.0
 10
242.6954826690576
 20
205.1592361415598
 30
0.0
 10
242.6324488230124
 20
205.2378359207032
 30
0.0
 10
242.5645709027447
 20
205.322481349018
 30
0.0
 10
242.4973084633997
 20
205.4063874807412
 30
0.0
 10
242.4372841548205
 20
205.4812683651952
 30
0.0
 10
242.3947188435912
 20
205.5343551989741
 30
0.0
 10
242.368047574869
 20
205.5675959793462
 30
0.0
 10
242.364746632071
 20
205.5717049372181
 30
0.0
 10
242.3630973201541
 20
205.5737579728504
 30
0.0
  0
SPLINE
  5
1E8
330
1F
100
AcDbEntity
  8
0
  6
Continuous
 62
     8
370
    18
100
AcDbSpline
210
0.0
220
0.0
230
1.0
 70
     8
 71
     3
 72
    20
 73
    16
 74
     0
 42
0.000000001
 43
0.00000001
 40
0.0
 40
0.0
 40
0.0
 40
0.0
 40
0.0241866407246909
 40
0.0484031172329054
 40
0.0727557502762242
 40
0.0973490947487175
 40
0.1222846777529127
 40
0.1828827035443114
 40
0.2457089336089173
 40
0.3642980607874253
 40
0.4949987137674056
 40
0.6314323120638428
 40
0.7822647714955523
 40
0.88759880965443
 40
0.9999999999999999
 40
0.9999999999999999
 40
0.9999999999999999
 40
0.9999999999999999
 10
247.0441159801541
 20
202.6435254132147
 30
0.0
 10
246.9918404852396
 20
202.6440255565559
 30
0.0
 10
246.8872250102113
 20
202.6450264601971
 30
0.0
 10
246.7306733843466
 20
202.6530620970159
 30
0.0
 10
246.5746377948759
 20
202.6658602621093
 30
0.0
 10
246.4191189739394
 20
202.6838630365546
 30
0.0
 10
246.191277405852
 20
202.7176954547647
 30
0.0
 10
245.8948260107717
 20
202.7786936311834
 30
0.0
 10
245.4455412685555
 20
202.9083436048521
 30
0.0
 10
244.9344495231467
 20
203.117600624782
 30
0.0
 10
244.4188165119525
 20
203.4099513581601
 30
0.0
 10
243.9712221982868
 20
203.7360381099756
 30
0.0
 10
243.6432699739034
 20
204.0333069394689
 30
0.0
 10
243.3920400088888
 20
204.296952310317
 30
0.0
 10
243.2745470278562
 20
204.439218245774
 30
0.0
 10
243.2138937701541
 20
204.5126600153986
 30
0.0
  0
LINE
  5
1E9
330
1F
100
AcDbEntity
  8
0
  6
Continuous
 62
     8
370
    18
100
AcDbLine
 10
260.7299271917
 20
202.6435256119
 30
0.0
 11
247.0441158807
 21
202.6435256119
 31
0.0
  0
LINE
  5
1EA
330
1F
100
AcDbEntity
  8
0
  6
Continuous
 62
     8
370
    18
100
AcDbLine
 10
279.3136570548
 20
202.6435256119
 30
0.0
 11
265.6278494691
 21
202.6435256119
 31
0.0
  0
SPLINE
  5
1EB
330
1F
100
AcDbEntity
  8
0
  6
Continuous
 62
     8
370
    18
100
AcDbSpline
210
0.0
220
0.0
230
1.0
 70
     8
 71
     3
 72
    27
 73
    23
 74
     0
 42
0.000000001
 43
0.00000001
 40
0.0
 40
0.0
 40
0.0
 40
0.0
 40
0.0529345986622063
 40
0.1043472435354516
 40
0.1542698677471274
 40
0.202737350128224
 40
0.2497878062211648
 40
0.2954628996766491
 40
0.3398081713623808
 40
0.3828733816212355
 40
0.4247128586931536
 40
0.4653858433192511
 40
0.5049568160089658
 40
0.5690642660291526
 40
0.630469032048494
 40
0.693772275714241
 40
0.7540199179735766
 40
0.8169882243026886
 40
0.8771666364170935
 40
0.9186783823854098
 40
0.9594596619333631
 40
1.0
 40
1.0
 40
1.0
 40
1.0
 10
283.1438769301541
 20
204.5126600153986
 30
0.0
 10
283.1160980079244
 20
204.4785142146351
 30
0.0
 10
283.0613388516012
 20
204.4112043591148
 30
0.0
 10
282.9706388544132
 20
204.306831652293
 30
0.0
 10
282.8751008118702
 20
204.2024280261249
 30
0.0
 10
282.7740796065806
 20
204.098107978744
 30
0.0
 10
282.6677387667722
 20
203.9944140841963
 30
0.0
 10
282.5560340715022
 20
203.891753396435
 30
0.0
 10
282.4389744885932
 20
203.7905421781111
 30
0.0
 10
282.3165536512799
 20
203.6911691446556
 30
0.0
 10
282.188773212782
 20
203.5940051763145
 30
0.0
 10
282.0556161314614
 20
203.4994014465367
 30
0.0
 10
281.8873177094386
 20
203.3879481652638
 30
0.0
 10
281.6775882166406
 20
203.262043088619
 30
0.0
 10
281.4118047494937
 20
203.1229477108046
 30
0.0
 10
281.1245874087857
 20
202.994543771538
 30
0.0
 10
280.8060174390294
 20
202.8776389550923
 30
0.0
 10
280.4653555675397
 20
202.7793601871793
 30
0.0
 10
280.1366079025062
 20
202.7111936384449
 30
0.0
 10
279.83964454558
 20
202.670342901682
 30
0.0
 10
279.5772485705427
 20
202.6477249313655
 30
0.0
 10
279.4013456138977
 20
202.6449224848816
 30
0.0
 10
279.3136547201541
 20
202.6435254132147
 30
0.0
  0
SPLINE
  5
1EC
330
1F
100
AcDbEntity
  8
0
  6
Continuous
 62
     8
370
    18
100
AcDbSpline
210
0.0
220
0.0
230
1.0
 70
     8
 71
     3
 72
    20
 73
    16
 74
     0
 42
0.000000001
 43
0.00000001
 40
0.0
 40
0.0
 40
0.0
 40
0.0
 40
0.0617814227354603
 40
0.1236087575841497
 40
0.1854967064709264
 40
0.2474599281752436
 40
0.3095130281315693
 40
0.3716705484170988
 40
0.4339469579599343
 40
0.4963566429991345
 40
0.5957904307272133
 40
0.695816687588205
 40
0.7964909243984828
 40
0.8978675875355935
 40
1.0
 40
1.0
 40
1.0
 40
1.0
 10
283.994673380154
 20
205.5737579728504
 30
0.0
 10
283.994029499328
 20
205.5729565649542
 30
0.0
 10
283.9927412591835
 20
205.5713531536054
 30
0.0
 10
283.9823280464756
 20
205.5583812534448
 30
0.0
 10
283.9657077408924
 20
205.5376646303525
 30
0.0
 10
283.9422702349111
 20
205.5084390311064
 30
0.0
 10
283.9121792044982
 20
205.4709064214641
 30
0.0
 10
283.8753910721712
 20
205.4250138881988
 30
0.0
 10
283.8319163375888
 20
205.3707791380524
 30
0.0
 10
283.7718782420106
 20
205.2958893003563
 30
0.0
 10
283.689830366467
 20
205.1935782890253
 30
0.0
 10
283.5794337151746
 20
205.0559156872813
 30
0.0
 10
283.451748979529
 20
204.896671100751
 30
0.0
 10
283.3081706923762
 20
204.7175790734528
 30
0.0
 10
283.1987769320968
 20
204.5811352668818
 30
0.0
 10
283.1438769301541
 20
204.5126600153986
 30
0.0
  0
SPLINE
  5
1ED
330
1F
100
AcDbEntity
  8
0
  6
Continuous
 62
     8
370
    18
100
AcDbSpline
210
0.0
220
0.0
230
1.0
 70
     8
 71
     3
 72
    20
 73
    16
 74
     0
 42
0.000000001
 43
0.00000001
 40
0.0
 40
0.0
 40
0.0
 40
0.0
 40
0.0639249239677767
 40
0.1275473772884015
 40
0.1908802186705574
 40
0.2539364840000451
 40
0.3167293814156074
 40
0.3792722859145424
 40
0.4415787334884292
 40
0.503662414791932
 40
0.6034470293710761
 40
0.7029136390771119
 40
0.8021214781747383
 40
0.901130245376137
 40
1.0
 40
1.0
 40
1.0
 40
1.0
 10
93.21389377015404
 20
204.5126600153986
 30
0.0
 10
93.1791834031888
 20
204.5559524337509
 30
0.0
 10
93.10992690671861
 20
204.642332425694
 30
0.0
 10
93.01405365682875
 20
204.7619202845207
 30
0.0
 10
92.92438331299019
 20
204.873767769781
 30
0.0
 10
92.84146452975908
 20
204.977187277304
 30
0.0
 10
92.76515141336259
 20
205.0723588508007
 30
0.0
 10
92.69548266978659
 20
205.1592361410098
 30
0.0
 10
92.6324488234417
 20
205.2378359204329
 30
0.0
 10
92.56457090287617
 20
205.3224813487938
 30
0.0
 10
92.49730846332605
 20
205.4063874804549
 30
0.0
 10
92.4372841547763
 20
205.4812683648697
 30
0.0
 10
92.39471884355707
 20
205.5343551987675
 30
0.0
 10
92.36804757485609
 20
205.5675959793049
 30
0.0
 10
92.36474663206776
 20
205.5717049372031
 30
0.0
 10
92.36309732015407
 20
205.5737579728504
 30
0.0
  0
SPLINE
  5
1EE
330
1F
100
AcDbEntity
  8
0
  6
Continuous
 62
     8
370
    18
100
AcDbSpline
210
0.0
220
0.0
230
1.0
 70
     8
 71
     3
 72
    20
 73
    16
 74
     0
 42
0.000000001
 43
0.00000001
 40
0.0
 40
0.0
 40
0.0
 40
0.0
 40
0.0241866407276077
 40
0.0484031172372843
 40
0.0727557502806317
 40
0.0973490947517596
 40
0.1222846777532286
 40
0.1828827035683793
 40
0.2457089336096129
 40
0.3642980607689582
 40
0.4949987137659603
 40
0.6314323120003074
 40
0.782264771495302
 40
0.887598809654252
 40
1.0
 40
1.0
 40
1.0
 40
1.0
 10
97.04411598015406
 20
202.6435254132147
 30
0.0
 10
96.99184048523338
 20
202.6440255565558
 30
0.0
 10
96.88722501019575
 20
202.645026460197
 30
0.0
 10
96.73067338432152
 20
202.6530620970156
 30
0.0
 10
96.57463779485082
 20
202.6658602621089
 30
0.0
 10
96.41911897392302
 20
202.6838630365537
 30
0.0
 10
96.19127740579931
 20
202.717695454776
 30
0.0
 10
95.89482601071732
 20
202.7786936311856
 30
0.0
 10
95.44554126854733
 20
202.9083436048569
 30
0.0
 10
94.93444952327563
 20
203.1176006248131
 30
0.0
 10
94.41881651203802
 20
203.409951358091
 30
0.0
 10
93.97122219828492
 20
203.7360381099157
 30
0.0
 10
93.64326997395749
 20
204.0333069394256
 30
0.0
 10
93.39204000888631
 20
204.2969523103165
 30
0.0
 10
93.27454702785536
 20
204.4392182457738
 30
0.0
 10
93.21389377015404
 20
204.5126600153986
 30
0.0
  0
LINE
  5
1EF
330
1F
100
AcDbEntity
  8
0
  6
Continuous
 62
     8
370
    18
100
AcDbLine
 10
110.7299212312
 20
202.6435256119
 30
0.0
 11
97.0441136455
 21
202.6435256119
 31
0.0
  0
LINE
  5
1F0
330
1F
100
AcDbEntity
  8
0
  6
Continuous
 62
     8
370
    18
100
AcDbLine
 10
129.3136548197
 20
202.6435256119
 30
0.0
 11
115.6278435086
 21
202.6435256119
 31
0.0
  0
SPLINE
  5
1F1
330
1F
100
AcDbEntity
  8
0
  6
Continuous
 62
     8
370
    18
100
AcDbSpline
210
0.0
220
0.0
230
1.0
 70
     8
 71
     3
 72
    27
 73
    23
 74
     0
 42
0.000000001
 43
0.00000001
 40
0.0
 40
0.0
 40
0.0
 40
0.0
 40
0.0529345986503007
 40
0.1043472435140413
 40
0.1542698677186136
 40
0.2027373500950056
 40
0.2497878061856324
 40
0.2954628996411821
 40
0.3398081713293306
 40
0.3828733815929253
 40
0.4247128586718641
 40
0.4653858433071982
 40
0.5049568160082932
 40
0.5690642660339127
 40
0.6304690320483796
 40
0.6937722757599045
 40
0.7540199179735544
 40
0.8169882243191363
 40
0.8771666364168216
 40
0.9186783823832665
 40
0.9594596619312836
 40
1.0
 40
1.0
 40
1.0
 40
1.0
 10
133.1438769301541
 20
204.5126600153986
 30
0.0
 10
133.1160980079305
 20
204.478514214643
 30
0.0
 10
133.0613388516182
 20
204.4112043591368
 30
0.0
 10
132.9706388544446
 20
204.3068316523361
 30
0.0
 10
132.8751008119126
 20
204.2024280261853
 30
0.0
 10
132.7740796066301
 20
204.0981079788175
 30
0.0
 10
132.6677387668251
 20
203.994414084278
 30
0.0
 10
132.5560340715549
 20
203.8917533965193
 30
0.0
 10
132.438974488642
 20
203.7905421781919
 30
0.0
 10
132.3165536513212
 20
203.6911691447266
 30
0.0
 10
132.1887732128122
 20
203.5940051763688
 30
0.0
 10
132.0556161314761
 20
203.4994014465673
 30
0.0
 10
131.8873177094514
 20
203.3879481652675
 30
0.0
 10
131.677588216668
 20
203.2620430886028
 30
0.0
 10
131.4118047494133
 20
203.1229477107704
 30
0.0
 10
131.1245874087093
 20
202.9945437715086
 30
0.0
 10
130.8060174389212
 20
202.8776389550536
 30
0.0
 10
130.4653555674917
 20
202.7793601871861
 30
0.0
 10
130.1366079024773
 20
202.711193638439
 30
0.0
 10
129.8396445455888
 20
202.6703429016816
 30
0.0
 10
129.5772485705515
 20
202.6477249313652
 30
0.0
 10
129.4013456139021
 20
202.6449224848815
 30
0.0
 10
129.313654720154
 20
202.6435254132147
 30
0.0
  0
SPLINE
  5
1F2
330
1F
100
AcDbEntity
  8
0
  6
Continuous
 62
     8
370
    18
100
AcDbSpline
210
0.0
220
0.0
230
1.0
 70
     8
 71
     3
 72
    20
 73
    16
 74
     0
 42
0.000000001
 43
0.00000001
 40
0.0
 40
0.0
 40
0.0
 40
0.0
 40
0.0617814228935003
 40
0.1236087578550456
 40
0.1854967068094998
 40
0.2474599285363532
 40
0.3095130284701434
 40
0.3716705486881672
 40
0.4339469581186575
 40
0.4963566430008355
 40
0.595790430969336
 40
0.6958166879507941
 40
0.7964909247610555
 40
0.8978675877773441
 40
1.0
 40
1.0
 40
1.0
 40
1.0
 10
133.9946733801541
 20
205.5737579728504
 30
0.0
 10
133.9940294993285
 20
205.5729565649502
 30
0.0
 10
133.9927412591855
 20
205.5713531535938
 30
0.0
 10
133.9823280464807
 20
205.5583812533796
 30
0.0
 10
133.9657077408996
 20
205.5376646302237
 30
0.0
 10
133.9422702349208
 20
205.5084390309197
 30
0.0
 10
133.9121792045106
 20
205.4709064212439
 30
0.0
 10
133.8753910721845
 20
205.4250138879878
 30
0.0
 10
133.8319163376097
 20
205.3707791379112
 30
0.0
 10
133.771878241867
 20
205.2958893002149
 30
0.0
 10
133.6898303660873
 20
205.1935782887864
 30
0.0
 10
133.5794337146141
 20
205.0559156868166
 30
0.0
 10
133.451748978975
 20
204.8966711002127
 30
0.0
 10
133.3081706920353
 20
204.7175790730622
 30
0.0
 10
133.1987769319615
 20
204.5811352667246
 30
0.0
 10
133.1438769301541
 20
204.5126600153986
 30
0.0
  0
LINE
  5
1F3
330
1F
100
AcDbEntity
  8
0
  6
Continuous
 62
     8
370
    18
100
AcDbLine
 10
165.6788844561
 20
119.413754728
 30
0.0
 11
210.6788862442
 21
119.413754728
 31
0.0
  0
ELLIPSE
  5
1F4
330
1F
100
AcDbEntity
  8
0
  6
Continuous
 62
     8
370
    18
100
AcDbEllipse
 10
188.1788853502
 20
147.7757418513
 30
0.0
 11
22.5
 21
0.0
 31
0.0
210
0.0
220
0.0
230
1.0
 40
0.1755433052
 41
3.335238619882474
 42
6.089539340887072
  0
ARC
  5
1F5
330
1F
100
AcDbEntity
  8
0
  6
Continuous
 62
     8
370
    18
100
AcDbCircle
 10
210.1560819877
 20
147.0119014257
 30
0.0
 40
0.1023272816933241
100
AcDbArc
 50
2.1070282179
 51
87.6877917194
  0
ARC
  5
1F6
330
1F
100
AcDbEntity
  8
0
  6
Continuous
 62
     8
370
    18
100
AcDbCircle
 10
166.2016887126
 20
147.0119014257
 30
0.0
 40
0.1023272816933241
100
AcDbArc
 50
92.3122082806
 51
177.8929717821
  0
SPLINE
  5
1F7
330
1F
100
AcDbEntity
  8
0
  6
Continuous
 62
     8
370
    18
100
AcDbSpline
210
0.0
220
0.0
230
1.0
 70
    24
 71
     3
 72
    24
 73
    20
 74
     0
 42
0.000000001
 43
0.00000001
 40
0.0
 40
0.0
 40
0.0
 40
0.0
 40
0.041681556531406
 40
0.1041815595122635
 40
0.1666815507742536
 40
0.229181562563814
 40
0.2916815539813548
 40
0.3541815614294961
 40
0.4166815587297933
 40
0.479181557310132
 40
0.5416815565314049
 40
0.6041815595122625
 40
0.6666815507742525
 40
0.729181562563813
 40
0.7916815539813538
 40
0.854181561429495
 40
0.9166815587297923
 40
0.9791815573101311
 40
1.0
 40
1.0
 40
1.0
 40
1.0
 10
166.272991890238
 20
154.0737588073155
 30
0.0
 10
166.2721431567921
 20
154.0737588073155
 30
0.0
 10
166.270021777905
 20
154.0737588073155
 30
0.0
 10
167.2326878994812
 20
154.0737588073155
 30
0.0
 10
168.9980014185198
 20
154.0737588073155
 30
0.0
 10
171.5332627302323
 20
154.0737588073155
 30
0.0
 10
174.6994070034987
 20
154.0737588073155
 30
0.0
 10
178.3859162329679
 20
154.0737588073155
 30
0.0
 10
182.4481320957384
 20
154.0737588073155
 30
0.0
 10
186.7307526239503
 20
154.0737588073155
 30
0.0
 10
191.0689568438602
 20
154.0737588073155
 30
0.0
 10
195.2961898391092
 20
154.0737588073155
 30
0.0
 10
199.2496043215824
 20
154.0737588073154
 30
0.0
 10
202.7787068544879
 20
154.0737588073155
 30
0.0
 10
205.7425265759117
 20
154.0737588073155
 30
0.0
 10
208.0471377557057
 20
154.0737588073155
 30
0.0
 10
209.5294413808818
 20
154.0737588073155
 30
0.0
 10
210.2147348527539
 20
154.0737588073154
 30
0.0
 10
210.1107588694298
 20
154.0737588073155
 30
0.0
 10
210.0847788100702
 20
154.0737588073155
 30
0.0
  0
SPLINE
  5
1F8
330
1F
100
AcDbEntity
  8
0
  6
Continuous
 62
     8
370
    18
100
AcDbSpline
210
0.0
220
0.0
230
1.0
 70
     8
 71
     3
 72
    20
 73
    16
 74
     0
 42
0.000000001
 43
0.00000001
 40
0.0
 40
0.0
 40
0.0
 40
0.0
 40
0.4999999999999825
 40
0.4999999999999825
 40
0.749999999999976
 40
0.749999999999976
 40
0.8749999999999787
 40
0.8749999999999787
 40
0.9374999999999741
 40
0.9374999999999741
 40
0.9687499999999805
 40
0.9687499999999805
 40
0.9843749999999902
 40
0.9843749999999902
 40
1.0
 40
1.0
 40
1.0
 40
1.0
 10
167.0258836769085
 20
157.5737579728504
 30
0.0
 10
167.0040368737924
 20
157.547891080639
 30
0.0
 10
166.9825991584099
 20
157.5220990857957
 30
0.0
 10
166.951119257279
 20
157.4827851430002
 30
0.0
 10
166.9407376313776
 20
157.4695893680176
 30
0.0
 10
166.9253732601482
 20
157.4491673970678
 30
0.0
 10
166.9202853091915
 20
157.4422669485622
 30
0.0
 10
166.9127326416735
 20
157.4315009309107
 30
0.0
 10
166.9102275210933
 20
157.4278497404584
 30
0.0
 10
166.9065080759999
 20
157.4220739228004
 30
0.0
 10
166.9052741447276
 20
157.4201038993404
 30
0.0
 10
166.9034463467142
 20
157.4169326791088
 30
0.0
 10
166.902839651893
 20
157.4158416384734
 30
0.0
 10
166.9016520006305
 20
157.4134578317384
 30
0.0
 10
166.9006821692872
 20
157.4126847984261
 30
0.0
 10
166.9006668564884
 20
157.4101114148613
 30
0.0
  0
SPLINE
  5
1F9
330
1F
100
AcDbEntity
  8
0
  6
Continuous
 62
     8
370
    18
100
AcDbSpline
210
0.0
220
0.0
230
1.0
 70
     8
 71
     3
 72
    64
 73
    60
 74
     0
 42
0.000000001
 43
0.00000001
 40
0.0
 40
0.0
 40
0.0
 40
0.0
 40
0.0312499999999999
 40
0.0312499999999999
 40
0.0468749999999999
 40
0.0468749999999999
 40
0.0624999999999999
 40
0.0624999999999999
 40
0.1249999999999998
 40
0.1249999999999998
 40
0.1562499999999998
 40
0.1562499999999998
 40
0.1874999999999997
 40
0.1874999999999997
 40
0.2499999999999997
 40
0.2499999999999997
 40
0.3124999999999998
 40
0.3124999999999998
 40
0.3749999999999998
 40
0.3749999999999998
 40
0.4062499999999999
 40
0.4062499999999999
 40
0.4374999999999999
 40
0.4374999999999999
 40
0.453125
 40
0.453125
 40
0.4687500000000001
 40
0.4687500000000001
 40
0.4843750000000002
 40
0.4843750000000002
 40
0.5000000000000002
 40
0.5000000000000002
 40
0.5156250000000003
 40
0.5156250000000003
 40
0.5312500000000003
 40
0.5312500000000003
 40
0.5625000000000003
 40
0.5625000000000003
 40
0.5937500000000004
 40
0.5937500000000004
 40
0.6250000000000004
 40
0.6250000000000004
 40
0.6562500000000004
 40
0.6562500000000004
 40
0.6875000000000004
 40
0.6875000000000004
 40
0.7500000000000003
 40
0.7500000000000003
 40
0.8125000000000003
 40
0.8125000000000003
 40
0.8437500000000002
 40
0.8437500000000002
 40
0.8750000000000001
 40
0.8750000000000001
 40
0.9375000000000001
 40
0.9375000000000001
 40
0.96875
 40
0.96875
 40
1.0
 40
1.0
 40
1.0
 40
1.0
 10
166.9006365123801
 20
157.4101142109969
 30
0.0
 10
167.0747494620105
 20
157.611740550857
 30
0.0
 10
167.2776645217892
 20
157.8466295265231
 30
0.0
 10
167.6222757349063
 20
158.2452246382819
 30
0.0
 10
167.7438079418912
 20
158.3857491453667
 30
0.0
 10
168.0000495809292
 20
158.6819065261039
 30
0.0
 10
168.1348153222021
 20
158.8376034839926
 30
0.0
 10
168.832594508806
 20
159.6433611757328
 30
0.0
 10
169.4720320974911
 20
160.3805910218778
 30
0.0
 10
170.5320573264853
 20
161.5985294174741
 30
0.0
 10
170.9025266074093
 20
162.0235321099858
 30
0.0
 10
171.6756407877227
 20
162.9085264249291
 30
0.0
 10
172.0765612528657
 20
163.3665802907244
 30
0.0
 10
173.3053902448465
 20
164.7663767404257
 30
0.0
 10
174.1646071233112
 20
165.7402683758282
 30
0.0
 10
175.9561380062856
 20
167.7507589560232
 30
0.0
 10
176.888836387626
 20
168.7882573222823
 30
0.0
 10
178.8320212653588
 20
170.9050514514508
 30
0.0
 10
179.8281660889434
 20
171.9710350938162
 30
0.0
 10
181.3761269214141
 20
173.5457736508278
 30
0.0
 10
181.9016435865306
 20
174.066143014669
 30
0.0
 10
182.9816658087261
 20
175.0844981471987
 30
0.0
 10
183.5360370893587
 20
175.5831858168305
 30
0.0
 10
184.4066761504539
 20
176.2868836561865
 30
0.0
 10
184.7020207082996
 20
176.5123332301042
 30
0.0
 10
185.3077659925514
 20
176.9352689696726
 30
0.0
 10
185.6190157374883
 20
177.133718320268
 30
0.0
 10
186.2626869732346
 20
177.4822808330343
 30
0.0
 10
186.5958080931171
 20
177.6335777203541
 30
0.0
 10
187.2761082620564
 20
177.8544893054755
 30
0.0
 10
187.6302473165277
 20
177.9267067510099
 30
0.0
 10
188.3413423302389
 20
177.964398272932
 30
0.0
 10
188.6936726696937
 20
177.9294816626322
 30
0.0
 10
189.3875286388055
 20
177.7701576174393
 30
0.0
 10
189.7311417826564
 20
177.6434257965409
 30
0.0
 10
190.7134417165923
 20
177.1812599562446
 30
0.0
 10
191.3256978168691
 20
176.7644310527234
 30
0.0
 10
192.5015318375458
 20
175.8582640018471
 30
0.0
 10
193.0574431281957
 20
175.3710470073711
 30
0.0
 10
194.1421404083887
 20
174.3699313569029
 30
0.0
 10
194.6691164096731
 20
173.855306928614
 30
0.0
 10
195.7039052208106
 20
172.8153055768742
 30
0.0
 10
196.2115564317228
 20
172.2898457306794
 30
0.0
 10
197.2127728285565
 20
171.2346492434735
 30
0.0
 10
197.7071894969096
 20
170.7044129909274
 30
0.0
 10
199.1656559363064
 20
169.1226418008786
 30
0.0
 10
200.0996548836363
 20
168.0865965912313
 30
0.0
 10
201.8954938692155
 20
166.0763376386852
 30
0.0
 10
202.7574894715804
 20
165.1006589023808
 30
0.0
 10
203.9929131843228
 20
163.695323408514
 30
0.0
 10
204.3952023882026
 20
163.2363692624616
 30
0.0
 10
205.1781414115677
 20
162.3409788561349
 30
0.0
 10
205.5569869537627
 20
161.9068270423044
 30
0.0
 10
206.6391535039141
 20
160.664463588092
 30
0.0
 10
207.2943657949494
 20
159.9095024006792
 30
0.0
 10
208.1595146933485
 20
158.9109650949036
 30
0.0
 10
208.4289766666795
 20
158.5996179536686
 30
0.0
 10
208.9124247413243
 20
158.0406446648738
 30
0.0
 10
209.1280383576898
 20
157.7911360800221
 30
0.0
 10
209.3158113011786
 20
157.5737484515381
 30
0.0
  0
LINE
  5
1FA
330
1F
100
AcDbEntity
  8
0
  6
Continuous
 62
     8
370
    18
100
AcDbLine
 10
166.5844522362
 20
157.0537582154
 30
0.0
 11
166.591565678
 21
157.0537582154
 31
0.0
  0
LINE
  5
1FB
330
1F
100
AcDbEntity
  8
0
  6
Continuous
 62
     8
370
    18
100
AcDbLine
 10
166.5930036401
 20
157.0537582154
 30
0.0
 11
210.1788852309
 21
157.0537582154
 31
0.0
  0
LINE
  5
1FC
330
1F
100
AcDbEntity
  8
0
  6
Continuous
 62
     8
370
    18
100
AcDbLine
 10
166.1788854694
 20
157.0537582154
 30
0.0
 11
166.5844522362
 21
157.0537582154
 31
0.0
  0
LINE
  5
1FD
330
1F
100
AcDbEntity
  8
0
  6
Continuous
 62
     8
370
    18
100
AcDbLine
 10
279.1788835024
 20
232.9737570251
 30
0.0
 11
247.1788857078
 21
232.9737570251
 31
0.0
  0
LINE
  5
1FE
330
1F
100
AcDbEntity
  8
0
  6
Continuous
 62
     8
370
    18
100
AcDbLine
 10
129.1788849925
 20
232.9737570251
 30
0.0
 11
97.1788871979
 21
232.9737570251
 31
0.0
  0
LINE
  5
1FF
330
1F
100
AcDbEntity
  8
0
  6
Continuous
 62
     8
370
    18
100
AcDbLine
 10
247.1788857078
 20
221.5737577642
 30
0.0
 11
279.1788835024
 21
221.5737577642
 31
0.0
  0
LINE
  5
200
330
1F
100
AcDbEntity
  8
0
  6
Continuous
 62
     8
370
    18
100
AcDbLine
 10
97.1788871979
 20
221.5737577642
 30
0.0
 11
129.1788849925
 21
221.5737577642
 31
0.0
  0
LINE
  5
201
330
1F
100
AcDbEntity
  8
0
  6
Continuous
 62
     8
370
    18
100
AcDbLine
 10
129.3136548197
 20
202.6435256119
 30
0.0
 11
129.3136548197
 21
202.7737580354
 31
0.0
  0
LINE
  5
202
330
1F
100
AcDbEntity
  8
0
  6
Continuous
 62
     8
370
    18
100
AcDbLine
 10
279.3136570548
 20
202.6435256119
 30
0.0
 11
279.3136570548
 21
202.7737580354
 31
0.0
  0
LINE
  5
203
330
1F
100
AcDbEntity
  8
0
  6
Continuous
 62
     8
370
    18
100
AcDbLine
 10
97.0441136455
 20
202.6435256119
 30
0.0
 11
97.0441136455
 21
202.7737580354
 31
0.0
  0
LINE
  5
204
330
1F
100
AcDbEntity
  8
0
  6
Continuous
 62
     8
370
    18
100
AcDbLine
 10
247.0441158807
 20
202.6435256119
 30
0.0
 11
247.0441158807
 21
202.7737580354
 31
0.0
  0
ARC
  5
205
330
1F
100
AcDbEntity
  8
0
  6
Continuous
 62
     8
370
    18
100
AcDbCircle
 10
243.2966016706
 20
203.6156491403
 30
0.0
 40
0.9008158580048197
100
AcDbArc
 50
40.6612771351
 51
95.2678992514
  0
ARC
  5
206
330
1F
100
AcDbEntity
  8
0
  6
Continuous
 62
     8
370
    18
100
AcDbCircle
 10
93.2966004616
 20
203.615650682
 30
0.0
 40
0.9008140750565806
100
AcDbArc
 50
40.661245281
 51
95.2677373036
  0
ARC
  5
207
330
1F
100
AcDbEntity
  8
0
  6
Continuous
 62
     8
370
    18
100
AcDbCircle
 10
133.0611690298
 20
203.6156491403
 30
0.0
 40
0.9008158580048005
100
AcDbArc
 50
84.7321007486
 51
139.3387228649
  0
ARC
  5
208
330
1F
100
AcDbEntity
  8
0
  6
Continuous
 62
     8
370
    18
100
AcDbCircle
 10
283.0611702388
 20
203.615650682
 30
0.0
 40
0.9008140750565806
100
AcDbArc
 50
84.7322626964
 51
139.338754719
  0
ARC
  5
209
330
1F
100
AcDbEntity
  8
0
  6
Continuous
 62
     8
370
    18
100
AcDbCircle
 10
166.6662849606
 20
147.020716354
 30
0.0
 40
0.0935175303893102
100
AcDbArc
 50
52.4692082372
 51
92.492709591
  0
ARC
  5
20A
330
1F
100
AcDbEntity
  8
0
  6
Continuous
 62
     8
370
    18
100
AcDbCircle
 10
209.6914370147
 20
147.0208936983
 30
0.0
 40
0.0933424900644681
100
AcDbArc
 50
87.4726756677
 51
128.3281627283
  0
SPLINE
  5
20B
330
1F
100
AcDbEntity
  8
0
  6
Continuous
 62
     8
370
    18
100
AcDbSpline
210
0.0
220
0.0
230
1.0
 70
     8
 71
     3
 72
     8
 73
     4
 74
     0
 42
0.000000001
 43
0.00000001
 40
0.0
 40
0.0
 40
0.0
 40
0.0
 40
1.0
 40
1.0
 40
1.0
 40
1.0
 10
166.1364463323792
 20
147.6153212116851
 30
0.0
 10
166.106751624348
 20
147.6638482449683
 30
0.0
 10
166.0994576725213
 20
147.7056653269302
 30
0.0
 10
166.1147649455123
 20
147.7405730556245
 30
0.0
  0
ARC
  5
20C
330
1F
100
AcDbEntity
  8
0
  6
Continuous
 62
     8
370
    18
100
AcDbCircle
 10
166.1373065674
 20
147.5163404399
 30
0.0
 40
0.0989831671151768
100
AcDbArc
 50
15.6923299434
 51
90.4975832224
  0
SPLINE
  5
20D
330
1F
100
AcDbEntity
  8
0
  6
Continuous
 62
     8
370
    18
100
AcDbSpline
210
0.0
220
0.0
230
1.0
 70
     8
 71
     3
 72
     8
 73
     4
 74
     0
 42
0.000000001
 43
0.00000001
 40
0.0
 40
0.0
 40
0.0
 40
0.0
 40
1.0
 40
1.0
 40
1.0
 40
1.0
 10
210.2430057542041
 20
147.7405730569739
 30
0.0
 10
210.2583130456349
 20
147.7056652865197
 30
0.0
 10
210.2510190896413
 20
147.6638482671709
 30
0.0
 10
210.2213243676982
 20
147.6153212113081
 30
0.0
  0
ARC
  5
20E
330
1F
100
AcDbEntity
  8
0
  6
Continuous
 62
     8
370
    18
100
AcDbCircle
 10
210.2204641329
 20
147.5163404399
 30
0.0
 40
0.0989831671151221
100
AcDbArc
 50
89.5024167776
 51
164.3076700566
  0
ARC
  5
20F
330
1F
100
AcDbEntity
  8
0
  6
Continuous
 62
     8
370
    18
100
AcDbCircle
 10
210.2432133284
 20
147.640372363
 30
0.0
 40
0.1001994385718826
100
AcDbArc
 50
90.1191672914
 51
164.0062419062
  0
ARC
  5
210
330
1F
100
AcDbEntity
  8
0
  6
Continuous
 62
     8
370
    18
100
AcDbCircle
 10
166.1145573719
 20
147.640372363
 30
0.0
 40
0.1001994385719113
100
AcDbArc
 50
15.9937580938
 51
89.8808327086
  0
LINE
  5
211
330
1F
100
AcDbEntity
  8
0
  6
Continuous
 62
     8
370
    18
100
AcDbLine
 10
210.1036082899
 20
147.5143011774
 30
0.0
 11
210.1468924379
 21
147.6679805781
 31
0.0
  0
LINE
  5
212
330
1F
100
AcDbEntity
  8
0
  6
Continuous
 62
     8
370
    18
100
AcDbLine
 10
166.2541624104
 20
147.5143011774
 30
0.0
 11
166.2108782624
 21
147.6679805781
 31
0.0
  0
LINE
  5
213
330
1F
100
AcDbEntity
  8
0
  6
Continuous
 62
     8
370
    18
100
AcDbLine
 10
166.2528809106
 20
147.4715795483
 30
0.0
 11
166.2326004302
 21
147.5431125726
 31
0.0
  0
SPLINE
  5
214
330
1F
100
AcDbEntity
  8
0
  6
Continuous
 62
     8
370
    18
100
AcDbSpline
210
0.0
220
0.0
230
1.0
 70
     8
 71
     3
 72
    11
 73
     7
 74
     0
 42
0.000000001
 43
0.00000001
 40
-0.00000006
 40
-0.00000006
 40
-0.00000006
 40
-0.00000006
 40
0.0
 40
0.0
 40
0.0
 40
0.0000149096833437
 40
0.0000149096833437
 40
0.0000149096833437
 40
0.0000149096833437
 10
166.6340024448214
 20
147.8005227435428
 30
0.0
 10
166.6339984865186
 20
147.8005227435787
 30
0.0
 10
166.633994528236
 20
147.800522743627
 30
0.0
 10
166.6339905699784
 20
147.8005227436691
 30
0.0
 10
166.6330069638677
 20
147.8005227541344
 30
0.0
 10
166.6320248058063
 20
147.8005227667386
 30
0.0
 10
166.6310440962409
 20
147.8005227814779
 30
0.0
  0
LINE
  5
215
330
1F
100
AcDbEntity
  8
0
  6
Continuous
 62
     8
370
    18
100
AcDbLine
 10
166.8332755511
 20
147.0663536455
 30
0.0
 11
166.6340023225
 21
147.8005226816
 31
0.0
  0
LINE
  5
216
330
1F
100
AcDbEntity
  8
0
  6
Continuous
 62
     8
370
    18
100
AcDbLine
 10
209.5244951492
 20
147.0663536455
 30
0.0
 11
209.7237683778
 21
147.8005226816
 31
0.0
  0
SPLINE
  5
217
330
1F
100
AcDbEntity
  8
0
  6
Continuous
 62
     8
370
    18
100
AcDbSpline
210
0.0
220
0.0
230
1.0
 70
     8
 71
     3
 72
    11
 73
     7
 74
     0
 42
0.000000001
 43
0.00000001
 40
0.0
 40
0.0
 40
0.0
 40
0.0
 40
0.0000149096833437
 40
0.0000149096833437
 40
0.0000149096833437
 40
0.0000149696833437
 40
0.0000149696833437
 40
0.0000149696833437
 40
0.0000149696833437
 10
209.7267266040672
 20
147.8005227814779
 30
0.0
 10
209.7257458945017
 20
147.8005227667386
 30
0.0
 10
209.7247637364405
 20
147.8005227541344
 30
0.0
 10
209.7237801303297
 20
147.8005227436691
 30
0.0
 10
209.7237761720721
 20
147.800522743627
 30
0.0
 10
209.7237722137895
 20
147.8005227435787
 30
0.0
 10
209.7237682554867
 20
147.8005227435428
 30
0.0
  0
ARC
  5
218
330
1F
100
AcDbEntity
  8
0
  6
Continuous
 62
     8
370
    18
100
AcDbCircle
 10
166.5359383734
 20
147.7753893272
 30
0.0
 40
0.0983709804279692
100
AcDbArc
 50
14.8029548242
 51
89.6217158225
  0
ARC
  5
219
330
1F
100
AcDbEntity
  8
0
  6
Continuous
 62
     8
370
    18
100
AcDbCircle
 10
209.8218323269
 20
147.7753893272
 30
0.0
 40
0.0983709804279692
100
AcDbArc
 50
90.3782841775
 51
165.1970451758
  0
ARC
  5
21A
330
1F
100
AcDbEntity
  8
0
  6
Continuous
 62
     8
370
    18
100
AcDbCircle
 10
166.5389055531
 20
147.7754014196
 30
0.0
 40
0.0983589007021704
100
AcDbArc
 50
14.7975285944
 51
89.6205761766
  0
ARC
  5
21B
330
1F
100
AcDbEntity
  8
0
  6
Continuous
 62
     8
370
    18
100
AcDbCircle
 10
209.8188651472
 20
147.7754014196
 30
0.0
 40
0.0983589007021226
100
AcDbArc
 50
90.3794238233
 51
165.2024714056
  0
ENDSEC
  0
SECTION
  2
OBJECTS
  0
DICTIONARY
  5
C
330
0
100
AcDbDictionary
281
     1
  3
ACAD_GROUP
350
D
  3
ACAD_LAYOUT
350
1A
  3
ACAD_MLINESTYLE
350
17
  3
ACAD_PLOTSETTINGS
350
19
  3
ACAD_PLOTSTYLENAME
350
E
  3
ACAD_SCALELIST
350
47
  0
DICTIONARY
  5
D
102
{ACAD_REACTORS
330
C
102
}
330
C
100
AcDbDictionary
281
     1
  0
DICTIONARY
  5
1A
102
{ACAD_REACTORS
330
C
102
}
330
C
100
AcDbDictionary
281
     1
  3
Layout1
350
1E
  3
Layout2
350
26
  3
Model
350
22
  0
DICTIONARY
  5
17
102
{ACAD_REACTORS
330
C
102
}
330
C
100
AcDbDictionary
281
     1
  3
Standard
350
18
  0
DICTIONARY
  5
19
102
{ACAD_REACTORS
330
C
102
}
330
C
100
AcDbDictionary
281
     1
  0
ACDBDICTIONARYWDFLT
  5
E
102
{ACAD_REACTORS
330
C
102
}
330
C
100
AcDbDictionary
281
     1
  3
Normal
350
F
100
AcDbDictionaryWithDefault
340
F
  0
DICTIONARY
  5
47
102
{ACAD_REACTORS
330
C
102
}
330
C
100
AcDbDictionary
281
     1
  3
A0
350
48
  3
A1
350
49
  3
A2
350
4A
  3
A3
350
4B
  3
A4
350
4C
  3
A5
350
4D
  3
A6
350
4E
  3
A7
350
4F
  3
A8
350
50
  3
A9
350
51
  3
B0
350
52
  3
B1
350
53
  3
B2
350
54
  3
B3
350
55
  3
B4
350
56
  3
B5
350
57
  3
B6
350
58
  3
B7
350
59
  3
B8
350
5A
  3
B9
350
5B
  3
C0
350
5C
  3
C1
350
5D
  3
C2
350
5E
  3
C3
350
5F
  3
C4
350
60
  3
C5
350
61
  3
C6
350
62
  3
C7
350
63
  3
C8
350
64
  3
C9
350
65
  3
D0
350
66
  3
D1
350
67
  3
D2
350
68
  0
LAYOUT
  5
1E
102
{ACAD_REACTORS
330
1A
102
}
330
1A
100
AcDbPlotSettings
  1

  2
none_device
  4

  6

 40
0.0
 41
0.0
 42
0.0
 43
0.0
 44
0.0
 45
0.0
 46
0.0
 47
0.0
 48
0.0
 49
0.0
140
0.0
141
0.0
142
1.0
143
1.0
 70
   688
 72
     1
 73
     0
 74
     5
  7

 75
    16
147
1.0
148
0.0
149
0.0
100
AcDbLayout
  1
Layout1
 70
     1
 71
     1
 10
0.0
 20
0.0
 11
420.0
 21
297.0
 12
0.0
 22
0.0
 32
0.0
 14
1.0000000000E+20
 24
1.0000000000E+20
 34
1.0000000000E+20
 15
-1.0000000000E+20
 25
-1.0000000000E+20
 35
-1.0000000000E+20
146
0.0
 13
0.0
 23
0.0
 33
0.0
 16
1.0
 26
0.0
 36
0.0
 17
0.0
 27
1.0
 37
0.0
 76
     0
330
1B
  0
LAYOUT
  5
26
102
{ACAD_REACTORS
330
1A
102
}
330
1A
100
AcDbPlotSettings
  1

  2
none_device
  4

  6

 40
0.0
 41
0.0
 42
0.0
 43
0.0
 44
0.0
 45
0.0
 46
0.0
 47
0.0
 48
0.0
 49
0.0
140
0.0
141
0.0
142
1.0
143
1.0
 70
   688
 72
     1
 73
     0
 74
     5
  7

 75
    16
147
1.0
148
0.0
149
0.0
100
AcDbLayout
  1
Layout2
 70
     1
 71
     2
 10
0.0
 20
0.0
 11
0.0
 21
0.0
 12
0.0
 22
0.0
 32
0.0
 14
0.0
 24
0.0
 34
0.0
 15
0.0
 25
0.0
 35
0.0
146
0.0
 13
0.0
 23
0.0
 33
0.0
 16
1.0
 26
0.0
 36
0.0
 17
0.0
 27
1.0
 37
0.0
 76
     0
330
23
  0
LAYOUT
  5
22
102
{ACAD_REACTORS
330
1A
102
}
330
1A
100
AcDbPlotSettings
  1

  2
none_device
  4
Letter_(8.50_x_11.00_Inches)
  6

 40
6.35
 41
6.35
 42
6.35000508
 43
6.35000508
 44
215.9
 45
279.4
 46
0.0
 47
0.0
 48
0.0
 49
0.0
140
0.0
141
0.0
142
1.0
143
1.0
 70
  1712
 72
     1
 73
     0
 74
     0
  7

 75
     0
147
1.0
148
0.0
149
0.0
100
AcDbLayout
  1
Model
 70
     1
 71
     0
 10
0.0
 20
0.0
 11
594.0
 21
841.0
 12
0.0
 22
0.0
 32
0.0
 14
0.0
 24
0.0
 34
0.0
 15
594.0
 25
841.0
 35
0.0
146
0.0
 13
0.0
 23
0.0
 33
0.0
 16
1.0
 26
0.0
 36
0.0
 17
0.0
 27
1.0
 37
0.0
 76
     0
330
1F
331
29
  0
MLINESTYLE
  5
18
102
{ACAD_REACTORS
330
17
102
}
330
17
100
AcDbMlineStyle
  2
Standard
 70
     0
  3

 62
   256
 51
90.0
 52
90.0
 71
     2
 49
0.5
 62
   256
  6
BYLAYER
 49
-0.5
 62
   256
  6
BYLAYER
  0
ACDBPLACEHOLDER
  5
F
102
{ACAD_REACTORS
330
E
102
}
330
E
  0
SCALE
  5
48
102
{ACAD_REACTORS
330
47
102
}
330
47
100
AcDbScale
 70
     0
300
1:1
140
1.0
141
1.0
290
     1
  0
SCALE
  5
49
102
{ACAD_REACTORS
330
47
102
}
330
47
100
AcDbScale
 70
     0
300
1:2
140
1.0
141
2.0
290
     0
  0
SCALE
  5
4A
102
{ACAD_REACTORS
330
47
102
}
330
47
100
AcDbScale
 70
     0
300
1:4
140
1.0
141
4.0
290
     0
  0
SCALE
  5
4B
102
{ACAD_REACTORS
330
47
102
}
330
47
100
AcDbScale
 70
     0
300
1:5
140
1.0
141
5.0
290
     0
  0
SCALE
  5
4C
102
{ACAD_REACTORS
330
47
102
}
330
47
100
AcDbScale
 70
     0
300
1:8
140
1.0
141
8.0
290
     0
  0
SCALE
  5
4D
102
{ACAD_REACTORS
330
47
102
}
330
47
100
AcDbScale
 70
     0
300
1:10
140
1.0
141
10.0
290
     0
  0
SCALE
  5
4E
102
{ACAD_REACTORS
330
47
102
}
330
47
100
AcDbScale
 70
     0
300
1:16
140
1.0
141
16.0
290
     0
  0
SCALE
  5
4F
102
{ACAD_REACTORS
330
47
102
}
330
47
100
AcDbScale
 70
     0
300
1:20
140
1.0
141
20.0
290
     0
  0
SCALE
  5
50
102
{ACAD_REACTORS
330
47
102
}
330
47
100
AcDbScale
 70
     0
300
1:30
140
1.0
141
30.0
290
     0
  0
SCALE
  5
51
102
{ACAD_REACTORS
330
47
102
}
330
47
100
AcDbScale
 70
     0
300
1:40
140
1.0
141
40.0
290
     0
  0
SCALE
  5
52
102
{ACAD_REACTORS
330
47
102
}
330
47
100
AcDbScale
 70
     0
300
1:50
140
1.0
141
50.0
290
     0
  0
SCALE
  5
53
102
{ACAD_REACTORS
330
47
102
}
330
47
100
AcDbScale
 70
     0
300
1:100
140
1.0
141
100.0
290
     0
  0
SCALE
  5
54
102
{ACAD_REACTORS
330
47
102
}
330
47
100
AcDbScale
 70
     0
300
2:1
140
2.0
141
1.0
290
     0
  0
SCALE
  5
55
102
{ACAD_REACTORS
330
47
102
}
330
47
100
AcDbScale
 70
     0
300
4:1
140
4.0
141
1.0
290
     0
  0
SCALE
  5
56
102
{ACAD_REACTORS
330
47
102
}
330
47
100
AcDbScale
 70
     0
300
8:1
140
8.0
141
1.0
290
     0
  0
SCALE
  5
57
102
{ACAD_REACTORS
330
47
102
}
330
47
100
AcDbScale
 70
     0
300
10:1
140
10.0
141
1.0
290
     0
  0
SCALE
  5
58
102
{ACAD_REACTORS
330
47
102
}
330
47
100
AcDbScale
 70
     0
300
100:1
140
100.0
141
1.0
290
     0
  0
SCALE
  5
59
102
{ACAD_REACTORS
330
47
102
}
330
47
100
AcDbScale
 70
     0
300
1/128" = 1'-0"
140
0.0078125
141
12.0
290
     0
  0
SCALE
  5
5A
102
{ACAD_REACTORS
330
47
102
}
330
47
100
AcDbScale
 70
     0
300
1/64" = 1'-0"
140
0.015625
141
12.0
290
     0
  0
SCALE
  5
5B
102
{ACAD_REACTORS
330
47
102
}
330
47
100
AcDbScale
 70
     0
300
1/32" = 1'-0"
140
0.03125
141
12.0
290
     0
  0
SCALE
  5
5C
102
{ACAD_REACTORS
330
47
102
}
330
47
100
AcDbScale
 70
     0
300
1/16" = 1'-0"
140
0.0625
141
12.0
290
     0
  0
SCALE
  5
5D
102
{ACAD_REACTORS
330
47
102
}
330
47
100
AcDbScale
 70
     0
300
3/32" = 1'-0"
140
0.09375
141
12.0
290
     0
  0
SCALE
  5
5E
102
{ACAD_REACTORS
330
47
102
}
330
47
100
AcDbScale
 70
     0
300
1/8" = 1'-0"
140
0.125
141
12.0
290
     0
  0
SCALE
  5
5F
102
{ACAD_REACTORS
330
47
102
}
330
47
100
AcDbScale
 70
     0
300
3/16" = 1'-0"
140
0.1875
141
12.0
290
     0
  0
SCALE
  5
60
102
{ACAD_REACTORS
330
47
102
}
330
47
100
AcDbScale
 70
     0
300
1/4" = 1'-0"
140
0.25
141
12.0
290
     0
  0
SCALE
  5
61
102
{ACAD_REACTORS
330
47
102
}
330
47
100
AcDbScale
 70
     0
300
3/8" = 1'-0"
140
0.375
141
12.0
290
     0
  0
SCALE
  5
62
102
{ACAD_REACTORS
330
47
102
}
330
47
100
AcDbScale
 70
     0
300
1/2" = 1'-0"
140
0.5
141
12.0
290
     0
  0
SCALE
  5
63
102
{ACAD_REACTORS
330
47
102
}
330
47
100
AcDbScale
 70
     0
300
3/4" = 1'-0"
140
0.75
141
12.0
290
     0
  0
SCALE
  5
64
102
{ACAD_REACTORS
330
47
102
}
330
47
100
AcDbScale
 70
     0
300
1" = 1'-0"
140
1.0
141
12.0
290
     0
  0
SCALE
  5
65
102
{ACAD_REACTORS
330
47
102
}
330
47
100
AcDbScale
 70
     0
300
1-1/2" = 1'-0"
140
1.5
141
12.0
290
     0
  0
SCALE
  5
66
102
{ACAD_REACTORS
330
47
102
}
330
47
100
AcDbScale
 70
     0
300
3" = 1'-0"
140
3.0
141
12.0
290
     0
  0
SCALE
  5
67
102
{ACAD_REACTORS
330
47
102
}
330
47
100
AcDbScale
 70
     0
300
6" = 1'-0"
140
6.0
141
12.0
290
     0
  0
SCALE
  5
68
102
{ACAD_REACTORS
330
47
102
}
330
47
100
AcDbScale
 70
     0
300
1'-0" = 1'-0"
140
12.0
141
12.0
290
     0
  0
ENDSEC
  0
EOF
