  0
SECTION
  2
HEADER
  9
$ACADVER
  1
AC1024
  9
$ACADMAINTVER
 70
     6
  9
$DWGCODEPAGE
  3
ANSI_1252
  9
$INSBASE
 10
0.0
 20
0.0
 30
0.0
  9
$EXTMIN
 10
0.0
 20
0.0
 30
0.0
  9
$EXTMAX
 10
594.0
 20
841.0
 30
0.0
  9
$LIMMIN
 10
0.0
 20
0.0
  9
$LIMMAX
 10
594.0
 20
841.0
  9
$ORTHOMODE
 70
     0
  9
$REGENMODE
 70
     1
  9
$FILLMODE
 70
     1
  9
$QTEXTMODE
 70
     0
  9
$MIRRTEXT
 70
     1
  9
$LTSCALE
 40
1.0
  9
$ATTMODE
 70
     1
  9
$TEXTSIZE
 40
10.0
  9
$TRACEWID
 40
1.0
  9
$TEXTSTYLE
  7
Standard
  9
$CLAYER
  8
0
  9
$CELTYPE
  6
ByLayer
  9
$CECOLOR
 62
   256
  9
$CELTSCALE
 40
1.0
  9
$DISPSILH
 70
     0
  9
$DIMSCALE
 40
1.0
  9
$DIMASZ
 40
2.5
  9
$DIMEXO
 40
0.0
  9
$DIMDLI
 40
3.75
  9
$DIMRND
 40
0.0
  9
$DIMDLE
 40
0.0
  9
$DIMEXE
 40
1.0
  9
$DIMTP
 40
0.0
  9
$DIMTM
 40
0.0
  9
$DIMTXT
 40
3.5
  9
$DIMCEN
 40
2.5
  9
$DIMTSZ
 40
0.0
  9
$DIMTOL
 70
     0
  9
$DIMLIM
 70
     0
  9
$DIMTIH
 70
     1
  9
$DIMTOH
 70
     1
  9
$DIMSE1
 70
     0
  9
$DIMSE2
 70
     0
  9
$DIMTAD
 70
     1
  9
$DIMZIN
 70
     0
  9
$DIMBLK
  1

  9
$DIMASO
 70
     1
  9
$DIMSHO
 70
     1
  9
$DIMPOST
  1

  9
$DIMAPOST
  1

  9
$DIMALT
 70
     0
  9
$DIMALTD
 70
     3
  9
$DIMALTF
 40
0.0393700787
  9
$DIMLFAC
 40
1.0
  9
$DIMTOFL
 70
     1
  9
$DIMTVP
 40
0.0
  9
$DIMTIX
 70
     0
  9
$DIMSOXD
 70
     0
  9
$DIMSAH
 70
     0
  9
$DIMBLK1
  1

  9
$DIMBLK2
  1

  9
$DIMSTYLE
  2
ISO-25
  9
$DIMCLRD
 70
     0
  9
$DIMCLRE
 70
     0
  9
$DIMCLRT
 70
     0
  9
$DIMTFAC
 40
1.0
  9
$DIMGAP
 40
1.5
  9
$DIMJUST
 70
     0
  9
$DIMSD1
 70
     0
  9
$DIMSD2
 70
     0
  9
$DIMTOLJ
 70
     0
  9
$DIMTZIN
 70
     0
  9
$DIMALTZ
 70
     0
  9
$DIMALTTZ
 70
     0
  9
$DIMUPT
 70
     0
  9
$DIMDEC
 70
     2
  9
$DIMTDEC
 70
     2
  9
$DIMALTU
 70
     2
  9
$DIMALTTD
 70
     3
  9
$DIMTXSTY
  7
Standard
  9
$DIMAUNIT
 70
     0
  9
$DIMADEC
 70
     2
  9
$DIMALTRND
 40
0.0
  9
$DIMAZIN
 70
     0
  9
$DIMDSEP
 70
    44
  9
$DIMATFIT
 70
     3
  9
$DIMFRAC
 70
     0
  9
$DIMLDRBLK
  1

  9
$DIMLUNIT
 70
     2
  9
$DIMLWD
 70
    -2
  9
$DIMLWE
 70
    -2
  9
$DIMTMOVE
 70
     0
  9
$DIMFXL
 40
1.0
  9
$DIMFXLON
 70
     0
  9
$DIMJOGANG
 40
0.7853981634
  9
$DIMTFILL
 70
     0
  9
$DIMTFILLCLR
 70
     0
  9
$DIMARCSYM
 70
     0
  9
$DIMLTYPE
  6

  9
$DIMLTEX1
  6

  9
$DIMLTEX2
  6

  9
$DIMTXTDIRECTION
 70
     0
  9
$LUNITS
 70
     2
  9
$LUPREC
 70
     2
  9
$SKETCHINC
 40
1.0
  9
$FILLETRAD
 40
10.0
  9
$AUNITS
 70
     0
  9
$AUPREC
 70
     2
  9
$MENU
  1
.
  9
$ELEVATION
 40
0.0
  9
$PELEVATION
 40
0.0
  9
$THICKNESS
 40
0.0
  9
$LIMCHECK
 70
     0
  9
$CHAMFERA
 40
10.0
  9
$CHAMFERB
 40
10.0
  9
$CHAMFERC
 40
20.0
  9
$CHAMFERD
 40
0.0
  9
$SKPOLY
 70
     0
  9
$TDCREATE
 40
2456170.364398507
  9
$TDUCREATE
 40
2456170.281065173
  9
$TDUPDATE
 40
2456170.364398519
  9
$TDUUPDATE
 40
2456170.281065185
  9
$TDINDWG
 40
0.0000000116
  9
$TDUSRTIMER
 40
0.0000000116
  9
$USRTIMER
 70
     1
  9
$ANGBASE
 50
0.0
  9
$ANGDIR
 70
     0
  9
$PDMODE
 70
     0
  9
$PDSIZE
 40
-1.0
  9
$PLINEWID
 40
0.0
  9
$SPLFRAME
 70
     0
  9
$SPLINETYPE
 70
     6
  9
$SPLINESEGS
 70
     8
  9
$HANDSEED
  5
FD
  9
$SURFTAB1
 70
     6
  9
$SURFTAB2
 70
     6
  9
$SURFTYPE
 70
     6
  9
$SURFU
 70
     6
  9
$SURFV
 70
     6
  9
$UCSBASE
  2

  9
$UCSNAME
  2

  9
$UCSORG
 10
0.0
 20
0.0
 30
0.0
  9
$UCSXDIR
 10
1.0
 20
0.0
 30
0.0
  9
$UCSYDIR
 10
0.0
 20
1.0
 30
0.0
  9
$UCSORTHOREF
  2

  9
$UCSORTHOVIEW
 70
     0
  9
$UCSORGTOP
 10
0.0
 20
0.0
 30
0.0
  9
$UCSORGBOTTOM
 10
0.0
 20
0.0
 30
0.0
  9
$UCSORGLEFT
 10
0.0
 20
0.0
 30
0.0
  9
$UCSORGRIGHT
 10
0.0
 20
0.0
 30
0.0
  9
$UCSORGFRONT
 10
0.0
 20
0.0
 30
0.0
  9
$UCSORGBACK
 10
0.0
 20
0.0
 30
0.0
  9
$PUCSBASE
  2

  9
$PUCSNAME
  2

  9
$PUCSORG
 10
0.0
 20
0.0
 30
0.0
  9
$PUCSXDIR
 10
1.0
 20
0.0
 30
0.0
  9
$PUCSYDIR
 10
0.0
 20
1.0
 30
0.0
  9
$PUCSORTHOREF
  2

  9
$PUCSORTHOVIEW
 70
     0
  9
$PUCSORGTOP
 10
0.0
 20
0.0
 30
0.0
  9
$PUCSORGBOTTOM
 10
0.0
 20
0.0
 30
0.0
  9
$PUCSORGLEFT
 10
0.0
 20
0.0
 30
0.0
  9
$PUCSORGRIGHT
 10
0.0
 20
0.0
 30
0.0
  9
$PUCSORGFRONT
 10
0.0
 20
0.0
 30
0.0
  9
$PUCSORGBACK
 10
0.0
 20
0.0
 30
0.0
  9
$USERI1
 70
     0
  9
$USERI2
 70
     0
  9
$USERI3
 70
     0
  9
$USERI4
 70
     0
  9
$USERI5
 70
     0
  9
$USERR1
 40
0.0
  9
$USERR2
 40
0.0
  9
$USERR3
 40
0.0
  9
$USERR4
 40
0.0
  9
$USERR5
 40
0.0
  9
$WORLDVIEW
 70
     1
  9
$SHADEDGE
 70
     3
  9
$SHADEDIF
 70
    70
  9
$TILEMODE
 70
     1
  9
$MAXACTVP
 70
    64
  9
$PINSBASE
 10
0.0
 20
0.0
 30
0.0
  9
$PLIMCHECK
 70
     0
  9
$PEXTMIN
 10
1.0000000000E+20
 20
1.0000000000E+20
 30
1.0000000000E+20
  9
$PEXTMAX
 10
-1.0000000000E+20
 20
-1.0000000000E+20
 30
-1.0000000000E+20
  9
$PLIMMIN
 10
0.0
 20
0.0
  9
$PLIMMAX
 10
420.0
 20
297.0
  9
$UNITMODE
 70
     0
  9
$VISRETAIN
 70
     1
  9
$PLINEGEN
 70
     0
  9
$PSLTSCALE
 70
     1
  9
$TREEDEPTH
 70
  3020
  9
$CMLSTYLE
  2
Standard
  9
$CMLJUST
 70
     0
  9
$CMLSCALE
 40
20.0
  9
$PROXYGRAPHICS
 70
     1
  9
$MEASUREMENT
 70
     1
  9
$CELWEIGHT
370
    -1
  9
$ENDCAPS
280
     0
  9
$JOINSTYLE
280
     0
  9
$LWDISPLAY
290
     1
  9
$INSUNITS
 70
     4
  9
$HYPERLINKBASE
  1

  9
$STYLESHEET
  1

  9
$XEDIT
290
     1
  9
$CEPSNTYPE
380
     0
  9
$PSTYLEMODE
290
     1
  9
$FINGERPRINTGUID
  2
{CDE65D11-F304-442A-8565-3DA5DA2E75E2}
  9
$VERSIONGUID
  2
{FAEB1C32-E019-11D5-929B-00C0DF256EC4}
  9
$EXTNAMES
290
     1
  9
$PSVPSCALE
 40
0.0
  9
$OLESTARTUP
290
     0
  9
$SORTENTS
280
   127
  9
$INDEXCTL
280
     0
  9
$HIDETEXT
280
     1
  9
$XCLIPFRAME
280
     2
  9
$HALOGAP
280
     0
  9
$OBSCOLOR
 70
   257
  9
$OBSLTYPE
280
     0
  9
$INTERSECTIONDISPLAY
280
     0
  9
$INTERSECTIONCOLOR
 70
   257
  9
$DIMASSOC
280
     2
  9
$PROJECTNAME
  1

  9
$CAMERADISPLAY
290
     0
  9
$LENSLENGTH
 40
50.0
  9
$CAMERAHEIGHT
 40
0.0
  9
$STEPSPERSEC
 40
2.0
  9
$STEPSIZE
 40
6.0
  9
$3DDWFPREC
 40
2.0
  9
$PSOLWIDTH
 40
5.0
  9
$PSOLHEIGHT
 40
80.0
  9
$LOFTANG1
 40
1.5707963268
  9
$LOFTANG2
 40
1.5707963268
  9
$LOFTMAG1
 40
0.0
  9
$LOFTMAG2
 40
0.0
  9
$LOFTPARAM
 70
     7
  9
$LOFTNORMALS
280
     1
  9
$LATITUDE
 40
37.795
  9
$LONGITUDE
 40
-122.394
  9
$NORTHDIRECTION
 40
0.0
  9
$TIMEZONE
 70
 -8000
  9
$LIGHTGLYPHDISPLAY
280
     1
  9
$TILEMODELIGHTSYNCH
280
     1
  9
$SOLIDHIST
280
     1
  9
$SHOWHIST
280
     1
  9
$DWFFRAME
280
     2
  9
$DGNFRAME
280
     2
  9
$REALWORLDSCALE
290
     1
  9
$INTERFERECOLOR
 62
   256
  9
$CSHADOW
280
     0
  9
$SHADOWPLANELOCATION
 40
0.0
  0
ENDSEC
  0
SECTION
  2
CLASSES
  0
CLASS
  1
ACDBDICTIONARYWDFLT
  2
AcDbDictionaryWithDefault
  3
ObjectDBX Classes
 90
        0
 91
        4
280
     0
281
     0
  0
CLASS
  1
VISUALSTYLE
  2
AcDbVisualStyle
  3
ObjectDBX Classes
 90
     4095
 91
        4
280
     0
281
     0
  0
CLASS
  1
MATERIAL
  2
AcDbMaterial
  3
ObjectDBX Classes
 90
     1153
 91
        4
280
     0
281
     0
  0
ENDSEC
  0
SECTION
  2
TABLES
  0
TABLE
  2
VPORT
  5
8
330
0
100
AcDbSymbolTable
 70
     1
  0
VPORT
  5
29
330
8
100
AcDbSymbolTableRecord
100
AcDbViewportTableRecord
  2
*Active
 70
     0
 10
0.0
 20
0.0
 11
1.0
 21
1.0
 12
297.0
 22
420.5
 13
0.0
 23
0.0
 14
10.0
 24
10.0
 15
10.0
 25
10.0
 16
0.0
 26
0.0
 36
1.0
 17
0.0
 27
0.0
 37
0.0
 40
841.0
 41
0.7063020214
 42
50.0
 43
0.0
 44
0.0
 50
0.0
 51
0.0
 71
     0
 72
  2000
 73
     1
 74
     3
 75
     0
 76
     0
 77
     0
 78
     0
281
     0
 65
     1
110
0.0
120
0.0
130
0.0
111
1.0
121
0.0
131
0.0
112
0.0
122
1.0
132
0.0
 79
     0
146
0.0
 60
     3
 61
     5
292
     1
282
     1
141
0.0
142
0.0
 63
   250
  0
ENDTAB
  0
TABLE
  2
LTYPE
  5
5
330
0
100
AcDbSymbolTable
 70
     6
  0
LTYPE
  5
14
330
5
100
AcDbSymbolTableRecord
100
AcDbLinetypeTableRecord
  2
ByBlock
 70
     0
  3

 72
    65
 73
     0
 40
0.0
  0
LTYPE
  5
15
330
5
100
AcDbSymbolTableRecord
100
AcDbLinetypeTableRecord
  2
ByLayer
 70
     0
  3

 72
    65
 73
     0
 40
0.0
  0
LTYPE
  5
16
330
5
100
AcDbSymbolTableRecord
100
AcDbLinetypeTableRecord
  2
Continuous
 70
     0
  3
Solid line
 72
    65
 73
     0
 40
0.0
  0
LTYPE
  5
3F
330
5
100
AcDbSymbolTableRecord
100
AcDbLinetypeTableRecord
  2
HIDDEN
 70
     0
  3
Hidden __ __ __ __ __ __ __ __ __ __ __ __ __ __
 72
    65
 73
     2
 40
1.905
 49
1.27
 74
     0
 49
-0.635
 74
     0
  0
LTYPE
  5
40
330
5
100
AcDbSymbolTableRecord
100
AcDbLinetypeTableRecord
  2
PHANTOM
 70
     0
  3
Phantom ______  __  __  ______  __  __  ______
 72
    65
 73
     6
 40
12.7
 49
6.35
 74
     0
 49
-1.27
 74
     0
 49
1.27
 74
     0
 49
-1.27
 74
     0
 49
1.27
 74
     0
 49
-1.27
 74
     0
  0
LTYPE
  5
41
330
5
100
AcDbSymbolTableRecord
100
AcDbLinetypeTableRecord
  2
CENTER
 70
     0
  3
Center ____ _ ____ _ ____ _ ____ _ ____ _ ____
 72
    65
 73
     4
 40
10.16
 49
6.35
 74
     0
 49
-1.27
 74
     0
 49
1.27
 74
     0
 49
-1.27
 74
     0
  0
LTYPE
  5
42
330
5
100
AcDbSymbolTableRecord
100
AcDbLinetypeTableRecord
  2
CENTERX2
 70
     0
  3
Center (2x) ________  __  ________  __  _____
 72
    65
 73
     4
 40
20.32
 49
12.7
 74
     0
 49
-2.54
 74
     0
 49
2.54
 74
     0
 49
-2.54
 74
     0
  0
LTYPE
  5
43
330
5
100
AcDbSymbolTableRecord
100
AcDbLinetypeTableRecord
  2
DOT2
 70
     0
  3
Dot (.5x) ........................................
 72
    65
 73
     2
 40
0.635
 49
0.0
 74
     0
 49
-0.635
 74
     0
  0
ENDTAB
  0
TABLE
  2
LAYER
  5
2
330
0
100
AcDbSymbolTable
 70
     1
  0
LAYER
  5
10
330
2
100
AcDbSymbolTableRecord
100
AcDbLayerTableRecord
  2
0
 70
     0
 62
     7
  6
Continuous
370
    -3
390
F
347
3E
  0
ENDTAB
  0
TABLE
  2
STYLE
  5
3
330
0
100
AcDbSymbolTable
 70
     3
  0
STYLE
  5
11
330
3
100
AcDbSymbolTableRecord
100
AcDbTextStyleTableRecord
  2
Standard
 70
     0
 40
0.0
 41
1.0
 50
0.0
 71
     0
 42
2.5
  3
txt
  4

  0
STYLE
  5
47
330
3
100
AcDbSymbolTableRecord
100
AcDbTextStyleTableRecord
  2
SLDTEXTSTYLE0
 70
     0
 40
0.0
 41
0.96
 50
0.0
 71
     0
 42
0.2
  3
ISOCP3
  4

  0
STYLE
  5
5E
330
3
100
AcDbSymbolTableRecord
100
AcDbTextStyleTableRecord
  2
SLDTEXTSTYLE1
 70
     0
 40
0.0
 41
0.605
 50
0.0
 71
     0
 42
0.2
  3
TXT
  4

  0
ENDTAB
  0
TABLE
  2
VIEW
  5
6
330
0
100
AcDbSymbolTable
 70
     0
  0
ENDTAB
  0
TABLE
  2
UCS
  5
7
330
0
100
AcDbSymbolTable
 70
     0
  0
ENDTAB
  0
TABLE
  2
APPID
  5
9
330
0
100
AcDbSymbolTable
 70
     1
  0
APPID
  5
12
330
9
100
AcDbSymbolTableRecord
100
AcDbRegAppTableRecord
  2
ACAD
 70
     0
  0
ENDTAB
  0
TABLE
  2
DIMSTYLE
  5
A
330
0
100
AcDbSymbolTable
 70
     2
100
AcDbDimStyleTable
  0
DIMSTYLE
105
27
330
A
100
AcDbSymbolTableRecord
100
AcDbDimStyleTableRecord
  2
ISO-25
 70
     0
 41
2.5
 42
0.625
 43
3.75
 44
1.25
 73
     0
 74
     0
 77
     1
 78
     8
140
2.5
141
2.5
143
0.0393700787
147
0.625
171
     3
172
     1
178
     0
271
     2
272
     2
274
     3
278
    44
283
     0
284
     8
340
11
  0
DIMSTYLE
105
48
102
{ACAD_REACTORS
330
46
330
53
102
}
330
A
100
AcDbSymbolTableRecord
100
AcDbDimStyleTableRecord
  2
SLDDIMSTYLE0
 70
     0
 41
2.5
 44
0.0
 45
0.000000001
 73
     0
 74
     0
 77
     1
 78
    12
 79
     3
140
6.0
147
1.5
173
     1
178
     0
271
     2
272
     2
276
     2
284
    12
340
47
  0
ENDTAB
  0
TABLE
  2
BLOCK_RECORD
  5
1
330
0
100
AcDbSymbolTable
 70
     3
  0
BLOCK_RECORD
  5
1F
330
1
100
AcDbSymbolTableRecord
100
AcDbBlockTableRecord
  2
*Model_Space
340
22
 70
     0
280
     1
281
     0
  0
BLOCK_RECORD
  5
1B
330
1
100
AcDbSymbolTableRecord
100
AcDbBlockTableRecord
  2
*Paper_Space
340
1E
 70
     0
280
     1
281
     0
  0
BLOCK_RECORD
  5
23
330
1
100
AcDbSymbolTableRecord
100
AcDbBlockTableRecord
  2
*Paper_Space0
340
26
 70
     0
280
     1
281
     0
  0
BLOCK_RECORD
  5
49
330
1
100
AcDbSymbolTableRecord
100
AcDbBlockTableRecord
  2
*D1
340
0
 70
     0
280
     1
281
     0
  0
BLOCK_RECORD
  5
54
330
1
100
AcDbSymbolTableRecord
100
AcDbBlockTableRecord
  2
*D2
340
0
 70
     0
280
     1
281
     0
  0
ENDTAB
  0
ENDSEC
  0
SECTION
  2
BLOCKS
  0
BLOCK
  5
20
330
1F
100
AcDbEntity
  8
0
100
AcDbBlockBegin
  2
*Model_Space
 70
     0
 10
0.0
 20
0.0
 30
0.0
  3
*Model_Space
  1

  0
ENDBLK
  5
21
330
1F
100
AcDbEntity
  8
0
100
AcDbBlockEnd
  0
BLOCK
  5
1C
330
1B
100
AcDbEntity
 67
     1
  8
0
100
AcDbBlockBegin
  2
*Paper_Space
 70
     0
 10
0.0
 20
0.0
 30
0.0
  3
*Paper_Space
  1

  0
ENDBLK
  5
1D
330
1B
100
AcDbEntity
 67
     1
  8
0
100
AcDbBlockEnd
  0
BLOCK
  5
24
330
23
100
AcDbEntity
  8
0
100
AcDbBlockBegin
  2
*Paper_Space0
 70
     0
 10
0.0
 20
0.0
 30
0.0
  3
*Paper_Space0
  1

  0
ENDBLK
  5
25
330
23
100
AcDbEntity
  8
0
100
AcDbBlockEnd
  0
BLOCK
  5
4A
330
49
100
AcDbEntity
  8
0
100
AcDbBlockBegin
  2
*D1
 70
     1
 10
0.0
 20
0.0
 30
0.0
  3
*D1
  1

  0
SOLID
  5
4C
330
49
100
AcDbEntity
  8
0
  6
Continuous
 62
     7
370
     0
100
AcDbTrace
 10
42.7614395004
 20
152.0299240879
 30
0.0
 11
42.4614395004
 21
149.5299240879
 31
0.0
 12
43.0614395004
 22
149.5299240879
 32
0.0
 13
43.0614395004
 23
149.5299240879
 33
0.0
  0
SOLID
  5
4D
330
49
100
AcDbEntity
  8
0
  6
Continuous
 62
     7
370
     0
100
AcDbTrace
 10
42.7614395004
 20
52.0299240879
 30
0.0
 11
43.0614395004
 21
54.5299240879
 31
0.0
 12
42.4614395004
 22
54.5299240879
 32
0.0
 13
42.4614395004
 23
54.5299240879
 33
0.0
  0
LINE
  5
4E
330
49
100
AcDbEntity
  8
0
  6
Continuous
 62
     7
370
     0
100
AcDbLine
 10
56.6850079902
 20
152.0299240879
 30
0.0
 11
41.7614395004
 21
152.0299240879
 31
0.0
  0
LINE
  5
4F
330
49
100
AcDbEntity
  8
0
  6
Continuous
 62
     7
370
     0
100
AcDbLine
 10
56.6850079902
 20
52.0299240879
 30
0.0
 11
41.7614395004
 21
52.0299240879
 31
0.0
  0
LINE
  5
50
330
49
100
AcDbEntity
  8
0
  6
Continuous
 62
     7
370
     0
100
AcDbLine
 10
42.7614395004
 20
152.0299240879
 30
0.0
 11
42.7614395004
 21
52.0299240879
 31
0.0
  0
MTEXT
  5
51
330
49
100
AcDbEntity
  8
0
  6
Continuous
 62
     7
370
     0
100
AcDbMText
 10
35.0270332946
 20
91.6722208134
 30
0.1
 40
6.0
 41
0.0
 46
0.0
 71
     1
 72
     1
  1
100
  7
SLDTEXTSTYLE0
 11
-7.044195017643634E-15
 21
1.0
 31
0.0
 73
     1
 44
1.0
  0
MTEXT
  5
52
330
49
100
AcDbEntity
  8
0
  6
Continuous
 62
     7
370
     0
100
AcDbMText
 10
35.0270332946
 20
108.4388881795
 30
0.1
 40
6.0
 41
0.0
 46
0.0
 71
     1
 72
     1
  1
mm
  7
SLDTEXTSTYLE0
 11
-7.044195017643634E-15
 21
1.0
 31
0.0
 73
     1
 44
1.0
  0
ENDBLK
  5
4B
330
49
100
AcDbEntity
  8
0
100
AcDbBlockEnd
  0
BLOCK
  5
55
330
54
100
AcDbEntity
  8
0
100
AcDbBlockBegin
  2
*D2
 70
     1
 10
0.0
 20
0.0
 30
0.0
  3
*D2
  1

  0
SOLID
  5
57
330
54
100
AcDbEntity
  8
0
  6
Continuous
 62
     7
370
     0
100
AcDbTrace
 10
56.6850079902
 20
38.4602342313
 30
0.0
 11
59.1850079902
 21
38.1602342313
 31
0.0
 12
59.1850079902
 22
38.7602342313
 32
0.0
 13
59.1850079902
 23
38.7602342313
 33
0.0
  0
SOLID
  5
58
330
54
100
AcDbEntity
  8
0
  6
Continuous
 62
     7
370
     0
100
AcDbTrace
 10
156.6850079902
 20
38.4602342313
 30
0.0
 11
154.1850079902
 21
38.7602342313
 31
0.0
 12
154.1850079902
 22
38.1602342313
 32
0.0
 13
154.1850079902
 23
38.1602342313
 33
0.0
  0
LINE
  5
59
330
54
100
AcDbEntity
  8
0
  6
Continuous
 62
     7
370
     0
100
AcDbLine
 10
56.6850079902
 20
52.0299240879
 30
0.0
 11
56.6850079902
 21
37.4602342313
 31
0.0
  0
LINE
  5
5A
330
54
100
AcDbEntity
  8
0
  6
Continuous
 62
     7
370
     0
100
AcDbLine
 10
156.6850079902
 20
52.0299240879
 30
0.0
 11
156.6850079902
 21
37.4602342313
 31
0.0
  0
LINE
  5
5B
330
54
100
AcDbEntity
  8
0
  6
Continuous
 62
     7
370
     0
100
AcDbLine
 10
56.6850079902
 20
38.4602342313
 30
0.0
 11
156.6850079902
 21
38.4602342313
 31
0.0
  0
MTEXT
  5
5C
330
54
100
AcDbEntity
  8
0
  6
Continuous
 62
     7
370
     0
100
AcDbMText
 10
91.2668151533
 20
46.1946404371
 30
0.1
 40
6.0
 41
0.0
 46
0.0
 71
     1
 72
     1
  1
100
  7
SLDTEXTSTYLE0
 73
     1
 44
1.0
  0
MTEXT
  5
5D
330
54
100
AcDbEntity
  8
0
  6
Continuous
 62
     7
370
     0
100
AcDbMText
 10
108.0334825193
 20
46.1946404371
 30
0.1
 40
6.0
 41
0.0
 46
0.0
 71
     1
 72
     1
  1
mm
  7
SLDTEXTSTYLE0
 73
     1
 44
1.0
  0
ENDBLK
  5
56
330
54
100
AcDbEntity
  8
0
100
AcDbBlockEnd
  0
ENDSEC
  0
SECTION
  2
ENTITIES
  0
LINE
  5
44
330
1F
100
AcDbEntity
  8
0
  6
Continuous
 62
     7
370
     0
100
AcDbLine
 10
56.6850079902
 20
152.0299240879
 30
0.0
 11
56.6850079902
 21
52.0299240879
 31
0.0
  0
LINE
  5
45
330
1F
100
AcDbEntity
  8
0
  6
Continuous
 62
     7
370
     0
100
AcDbLine
 10
56.6850079902
 20
52.0299240879
 30
0.0
 11
156.6850079902
 21
52.0299240879
 31
0.0
  0
DIMENSION
  5
46
330
1F
100
AcDbEntity
  8
0
  6
Continuous
 62
     7
370
     0
100
AcDbDimension
280
     0
  2
*D1
 10
42.7614395004
 20
52.0299240879
 30
0.0
 11
42.7614395004
 21
105.4472211621
 31
0.0
 70
   160
  1
<>mm
 71
     2
 42
-1.0
 73
     0
 74
     0
 75
     0
  3
SLDDIMSTYLE0
100
AcDbAlignedDimension
 13
56.6850079902
 23
152.0299240879
 33
0.0
 14
56.6850079902
 24
52.0299240879
 34
0.0
 50
90.0
100
AcDbRotatedDimension
  0
DIMENSION
  5
53
330
1F
100
AcDbEntity
  8
0
  6
Continuous
 62
     7
370
     0
100
AcDbDimension
280
     0
  2
*D2
 10
156.6850079902
 20
38.4602342313
 30
0.0
 11
105.0418155019
 21
38.4602342313
 31
0.0
 70
   160
  1
<>mm
 71
     2
 42
-1.0
 73
     0
 74
     0
 75
     0
  3
SLDDIMSTYLE0
100
AcDbAlignedDimension
 13
56.6850079902
 23
52.0299240879
 33
0.0
 14
156.6850079902
 24
52.0299240879
 34
0.0
100
AcDbRotatedDimension
  0
MTEXT
  5
5F
330
1F
100
AcDbEntity
  8
0
  6
Continuous
 62
     7
370
     0
100
AcDbMText
 10
265.9763950692
 20
47.3146544345
 30
0.0
 40
10.0
 41
0.0
 46
0.0
 71
     1
 72
     1
  1
33 933 05 75
  7
SLDTEXTSTYLE1
 73
     1
 44
1.0
  0
MTEXT
  5
60
330
1F
100
AcDbEntity
  8
0
  6
Continuous
 62
     7
370
     0
100
AcDbMText
 10
412.8252631579
 20
48.4342449499
 30
0.0
 40
10.0
 41
0.0
 46
0.0
 71
     1
 72
     1
  1
KLUDI GmbH & Co KG
  7
SLDTEXTSTYLE1
 73
     1
 44
1.0
  0
LINE
  5
61
330
1F
100
AcDbEntity
  8
0
  6
Continuous
 62
     7
370
    15
100
AcDbLine
 10
209.0105926799
 20
397.261930329
 30
0.0
 11
209.0105926799
 21
496.2694926002
 31
0.0
  0
LINE
  5
62
330
1F
100
AcDbEntity
  8
0
  6
Continuous
 62
     7
370
    15
100
AcDbLine
 10
184.9385926799
 20
496.2694926002
 30
0.0
 11
184.9385926799
 21
397.2619108498
 31
0.0
  0
LINE
  5
63
330
1F
100
AcDbEntity
  8
0
  6
Continuous
 62
     7
370
    15
100
AcDbLine
 10
187.4460926799
 20
482.9510662131
 30
0.0
 11
187.4460926799
 21
475.2494035519
 31
0.0
  0
LINE
  5
64
330
1F
100
AcDbEntity
  8
0
  6
Continuous
 62
     7
370
    15
100
AcDbLine
 10
206.5030926799
 20
475.2494035519
 30
0.0
 11
206.5030926799
 21
482.9369087876
 31
0.0
  0
SPLINE
  5
65
330
1F
100
AcDbEntity
  8
0
  6
Continuous
 62
     7
370
    15
100
AcDbSpline
210
0.0
220
0.0
230
1.0
 70
     8
 71
     3
 72
    10
 73
     6
 74
     0
 42
0.00000001
 43
0.00000001
 40
0.0
 40
0.0
 40
0.0
 40
0.0
 40
0.0970584935073957
 40
0.6413205658853415
 40
1.0
 40
1.0
 40
1.0
 40
1.0
 10
198.6321900453668
 20
520.5261619916527
 30
0.0
 10
198.5856785261285
 20
520.5546712393095
 30
0.0
 10
198.2783505143268
 20
520.7430480230358
 30
0.0
 10
197.6992137977028
 20
520.8780986973404
 30
0.0
 10
197.1806028087259
 20
520.9072168929924
 30
0.0
 10
196.9745926799254
 20
520.9187836421825
 30
0.0
  0
SPLINE
  5
66
330
1F
100
AcDbEntity
  8
0
  6
Continuous
 62
     7
370
    15
100
AcDbSpline
210
0.0
220
0.0
230
1.0
 70
     8
 71
     3
 72
    10
 73
     6
 74
     0
 42
0.00000001
 43
0.00000001
 40
0.0
 40
0.0
 40
0.0
 40
0.0
 40
0.3054581797634505
 40
0.8612176157681856
 40
1.0
 40
1.0
 40
1.0
 40
1.0
 10
196.9745926799254
 20
520.9187836421825
 30
0.0
 10
196.8014748102393
 20
520.9105805776223
 30
0.0
 10
196.3133812876059
 20
520.8874526204402
 30
0.0
 10
195.7399101556638
 20
520.7666540040741
 30
0.0
 10
195.4075826797354
 20
520.5709638717343
 30
0.0
 10
195.3411774639351
 20
520.5318613406189
 30
0.0
  0
LINE
  5
67
330
1F
100
AcDbEntity
  8
0
  6
Continuous
 62
     7
370
    15
100
AcDbLine
 10
200.4850926799
 20
506.4345812824
 30
0.0
 11
200.4850926799
 21
517.7604943353
 31
0.0
  0
LINE
  5
68
330
1F
100
AcDbEntity
  8
0
  6
Continuous
 62
     7
370
    15
100
AcDbLine
 10
193.4640926799
 20
517.7604943353
 30
0.0
 11
193.4640926799
 21
506.4345812824
 31
0.0
  0
ARC
  5
69
330
1F
100
AcDbEntity
  8
0
  6
Continuous
 62
     7
370
    15
100
AcDbCircle
 10
174.9487126799
 20
490.7263286013
 30
0.0
 40
0.5416200000000231
100
AcDbArc
 50
90.0
 51
180.0
  0
ARC
  5
6A
330
1F
100
AcDbEntity
  8
0
  6
Continuous
 62
     7
370
    15
100
AcDbCircle
 10
219.0004726799
 20
490.7263286013
 30
0.0
 40
0.5416200000000231
100
AcDbArc
 50
0.0
 51
90.0
  0
LINE
  5
6B
330
1F
100
AcDbEntity
  8
0
  6
Continuous
 62
     7
370
    15
100
AcDbLine
 10
219.5420926799
 20
462.3793603244
 30
0.0
 11
219.5420926799
 21
490.7263286013
 31
0.0
  0
LINE
  5
6C
330
1F
100
AcDbEntity
  8
0
  6
Continuous
 62
     7
370
    15
100
AcDbLine
 10
174.4070926799
 20
490.7263286013
 30
0.0
 11
174.4070926799
 21
462.3793437436
 31
0.0
  0
LINE
  5
6D
330
1F
100
AcDbEntity
  8
0
  6
Continuous
 62
     7
370
    15
100
AcDbLine
 10
219.5420926799
 20
369.4034486013
 30
0.0
 11
219.0405926799
 21
379.4334486013
 31
0.0
  0
LINE
  5
6E
330
1F
100
AcDbEntity
  8
0
  6
Continuous
 62
     7
370
    15
100
AcDbLine
 10
174.9085926799
 20
379.4334486013
 30
0.0
 11
174.4070926799
 21
369.4034486013
 31
0.0
  0
LINE
  5
6F
330
1F
100
AcDbEntity
  8
0
  6
Continuous
 62
     7
370
    15
100
AcDbLine
 10
174.9085926799
 20
456.4638486013
 30
0.0
 11
174.9085926799
 21
454.4578486013
 31
0.0
  0
LINE
  5
70
330
1F
100
AcDbEntity
  8
0
  6
Continuous
 62
     7
370
    15
100
AcDbLine
 10
219.0405926799
 20
454.4578486013
 30
0.0
 11
219.0405926799
 21
456.4638486013
 31
0.0
  0
ARC
  5
71
330
1F
100
AcDbEntity
  8
0
  6
Continuous
 62
     7
370
    15
100
AcDbCircle
 10
196.9745926799
 20
456.5375349041
 30
0.0
 40
22.06599999999998
100
AcDbArc
 50
165.181877441
 51
180.1950024137
  0
ARC
  5
72
330
1F
100
AcDbEntity
  8
0
  6
Continuous
 62
     7
370
    15
100
AcDbCircle
 10
196.9745926799
 20
456.5375349041
 30
0.0
 40
22.06600000000003
100
AcDbArc
 50
0.0
 51
14.818122559
  0
LINE
  5
73
330
1F
100
AcDbEntity
  8
0
  6
Continuous
 62
     7
370
    15
100
AcDbLine
 10
174.8985626799
 20
419.0519486013
 30
0.0
 11
174.8985626799
 21
379.7343486013
 31
0.0
  0
LINE
  5
74
330
1F
100
AcDbEntity
  8
0
  6
Continuous
 62
     7
370
    15
100
AcDbLine
 10
219.0506226799
 20
379.7343486013
 30
0.0
 11
219.0506226799
 21
419.0519486013
 31
0.0
  0
LINE
  5
75
330
1F
100
AcDbEntity
  8
0
  6
Continuous
 62
     7
370
    15
100
AcDbLine
 10
219.0405926799
 20
419.3528486013
 30
0.0
 11
219.0405926799
 21
454.4578486013
 31
0.0
  0
LINE
  5
76
330
1F
100
AcDbEntity
  8
0
  6
Continuous
 62
     7
370
    15
100
AcDbLine
 10
174.9085926799
 20
454.4578486013
 30
0.0
 11
174.9085926799
 21
419.3528486013
 31
0.0
  0
LINE
  5
77
330
1F
100
AcDbEntity
  8
0
  6
Continuous
 62
     7
370
    15
100
AcDbLine
 10
175.9115926799
 20
379.7343486013
 30
0.0
 11
175.9115926799
 21
379.4334486013
 31
0.0
  0
LINE
  5
78
330
1F
100
AcDbEntity
  8
0
  6
Continuous
 62
     7
370
    15
100
AcDbLine
 10
218.0375926799
 20
379.4334486013
 30
0.0
 11
218.0375926799
 21
379.7343486013
 31
0.0
  0
LINE
  5
79
330
1F
100
AcDbEntity
  8
0
  6
Continuous
 62
     7
370
    15
100
AcDbLine
 10
175.9115926799
 20
419.3528486013
 30
0.0
 11
175.9115926799
 21
419.0519486013
 31
0.0
  0
LINE
  5
7A
330
1F
100
AcDbEntity
  8
0
  6
Continuous
 62
     7
370
    15
100
AcDbLine
 10
218.0375926799
 20
419.0519486013
 30
0.0
 11
218.0375926799
 21
419.3528486013
 31
0.0
  0
LWPOLYLINE
  5
7B
330
1F
100
AcDbEntity
  8
0
  6
Continuous
 62
     7
370
    15
100
AcDbPolyline
 90
       12
 70
   128
 43
0.0
 10
196.9745926799
 20
506.8966498279
 10
198.8118794648
 20
506.7721040487
 10
200.6061018046
 20
506.4013859588
 10
202.3152046485
 20
505.793184876
 10
203.8991280743
 20
504.9617565182
 10
205.3207462595
 20
503.9265888613
 10
206.5467376786
 20
502.7119453579
 10
207.5483661319
 20
501.3462962223
 10
208.3021542974
 20
499.8616511127
 10
208.7904340194
 20
498.292808852
 10
209.0017604351
 20
496.6765417734
 10
209.0105926799
 20
496.2694926002
  0
LWPOLYLINE
  5
7C
330
1F
100
AcDbEntity
  8
0
  6
Continuous
 62
     7
370
    15
100
AcDbPolyline
 90
       12
 70
   128
 43
0.0
 10
184.9385926799
 20
496.2694926002
 10
184.9474249248
 20
496.6765417734
 10
185.1587513404
 20
498.292808852
 10
185.6470310624
 20
499.8616511127
 10
186.400819228
 20
501.3462962223
 10
187.4024476813
 20
502.7119453579
 10
188.6284391004
 20
503.9265888613
 10
190.0500572855
 20
504.9617565182
 10
191.6339807114
 20
505.793184876
 10
193.3430835552
 20
506.4013859588
 10
195.1373058951
 20
506.7721040487
 10
196.9745926799
 20
506.8966498279
  0
LWPOLYLINE
  5
7D
330
1F
100
AcDbEntity
  8
0
  6
Continuous
 62
     7
370
    15
100
AcDbPolyline
 90
       28
 70
   128
 43
0.0
 10
206.4906832606
 20
482.9367900823
 10
206.4760654465
 20
483.2569500998
 10
206.3363782132
 20
483.5978047262
 10
206.0120921062
 20
483.8425400655
 10
205.5267218609
 20
483.938482471
 10
205.1099408227
 20
483.9406949715
 10
204.6267449571
 20
483.9064491811
 10
204.069366033
 20
483.8452858905
 10
203.4437196958
 20
483.7665198205
 10
202.7766741013
 20
483.6813227775
 10
202.0447302587
 20
483.5930132358
 10
201.2315246377
 20
483.5056024772
 10
200.351213024
 20
483.4264391057
 10
199.134631855
 20
483.3460458968
 10
197.8216667388
 20
483.2986049728
 10
196.517288523
 20
483.2924837442
 10
195.1860804359
 20
483.3284405842
 10
193.995999163
 20
483.3963463594
 10
192.8519962052
 20
483.4924352359
 10
191.7216376956
 20
483.6143278551
 10
190.6918007603
 20
483.7425380819
 10
189.6407444739
 20
483.8732329014
 10
188.7592320781
 20
483.9433289715
 10
188.1726588363
 20
483.9087528413
 10
187.736107738
 20
483.7273975026
 10
187.5230348497
 20
483.4313110354
 10
187.4460926799
 20
482.9510662131
 10
187.4460926799
 20
482.9510662131
  0
SPLINE
  5
7E
330
1F
100
AcDbEntity
  8
0
  6
Continuous
 62
     7
370
    15
100
AcDbSpline
210
0.0
220
0.0
230
1.0
 70
     8
 71
     3
 72
    17
 73
    13
 74
     0
 42
0.00000001
 43
0.00000001
 40
0.0
 40
0.0
 40
0.0
 40
0.0
 40
0.1035892547213762
 40
0.2101923198292172
 40
0.3137790329461828
 40
0.4203806470866733
 40
0.523554351337624
 40
0.6300324452312733
 40
0.7277736247859025
 40
0.8287160768617796
 40
0.9211515707806255
 40
1.0
 40
1.0
 40
1.0
 40
1.0
 10
196.9745926799254
 20
385.5228339269137
 30
0.0
 10
197.6412270401468
 20
385.5498470067729
 30
0.0
 10
198.993890721623
 20
385.6046590810236
 30
0.0
 10
200.9566550949378
 20
386.0484029049568
 30
0.0
 10
202.8239180132571
 20
386.7606684891157
 30
0.0
 10
204.5074821778553
 20
387.7480925708994
 30
0.0
 10
205.9917339579135
 20
389.014234708398
 30
0.0
 10
207.1821478811491
 20
390.4951855924866
 30
0.0
 10
208.0846347953933
 20
392.175391236679
 30
0.0
 10
208.6607867028573
 20
393.9300131678226
 30
0.0
 10
208.9697657167814
 20
395.6522767519915
 30
0.0
 10
208.9871291837396
 20
396.7549473882028
 30
0.0
 10
208.995122240358
 20
397.2625481368232
 30
0.0
  0
SPLINE
  5
7F
330
1F
100
AcDbEntity
  8
0
  6
Continuous
 62
     7
370
    15
100
AcDbSpline
210
0.0
220
0.0
230
1.0
 70
     8
 71
     3
 72
    17
 73
    13
 74
     0
 42
0.00000001
 43
0.00000001
 40
0.0
 40
0.0
 40
0.0
 40
0.0
 40
0.0839560999700433
 40
0.1852710568970207
 40
0.2840830187678138
 40
0.3862080746730295
 40
0.4786663477677501
 40
0.5735356107377588
 40
0.671306898771084
 40
0.771625650012856
 40
0.8838824795256647
 40
0.9999999999999999
 40
0.9999999999999999
 40
0.9999999999999999
 40
0.9999999999999999
 10
184.9539684708067
 20
397.2625863782384
 30
0.0
 10
184.9639716962016
 20
396.7220690952153
 30
0.0
 10
184.9860464250413
 20
395.5292765723072
 30
0.0
 10
185.3343417860156
 20
393.7361821837051
 30
0.0
 10
185.9705914217938
 20
391.9323108427865
 30
0.0
 10
186.8776060161444
 20
390.3414951237784
 30
0.0
 10
188.0193470541518
 20
388.9685927362635
 30
0.0
 10
189.3524677117866
 20
387.8230068050486
 30
0.0
 10
190.9071714202661
 20
386.874643559241
 30
0.0
 10
192.7135526654625
 20
386.1334116470508
 30
0.0
 10
194.7569511925931
 20
385.6231300991844
 30
0.0
 10
196.2270945445845
 20
385.5566406545486
 30
0.0
 10
196.9745926799254
 20
385.5228339269137
 30
0.0
  0
LWPOLYLINE
  5
80
330
1F
100
AcDbEntity
  8
0
  6
Continuous
 62
     7
370
    15
100
AcDbPolyline
 90
       37
 70
   128
 43
0.0
 10
187.4460926799
 20
475.2494035519
 10
187.5908520053
 20
476.0261943268
 10
188.0207315428
 20
476.779382707
 10
188.72266962
 20
477.4860834449
 10
189.6753382037
 20
478.124823796
 10
190.849790941
 20
478.676195958
 10
192.2103426799
 20
479.1234467668
 10
193.7156537442
 20
479.4529867329
 10
195.319986019
 20
479.6548029511
 10
196.9745926799
 20
479.7227633379
 10
198.6291993408
 20
479.6548029511
 10
200.2335316156
 20
479.4529867329
 10
201.7388426799
 20
479.1234467668
 10
203.0993944188
 20
478.676195958
 10
204.2738471562
 20
478.124823796
 10
205.2265157399
 20
477.4860834449
 10
205.9284538171
 20
476.779382707
 10
206.3583333545
 20
476.0261943268
 10
206.5030926799
 20
475.2494035519
 10
206.3583333545
 20
474.472612777
 10
205.9284538171
 20
473.7194243967
 10
205.2265157399
 20
473.0127236589
 10
204.2738471562
 20
472.3739833078
 10
203.0993944188
 20
471.8226111457
 10
201.7388426799
 20
471.3753603369
 10
200.2335316156
 20
471.0458203708
 10
198.6291993408
 20
470.8440041526
 10
196.9745926799
 20
470.7760437659
 10
195.319986019
 20
470.8440041526
 10
193.7156537442
 20
471.0458203708
 10
192.2103426799
 20
471.3753603369
 10
190.849790941
 20
471.8226111457
 10
189.6753382037
 20
472.3739833078
 10
188.72266962
 20
473.0127236589
 10
188.0207315428
 20
473.7194243967
 10
187.5908520053
 20
474.472612777
 10
187.4460926799
 20
475.2494035519
  0
LWPOLYLINE
  5
81
330
1F
100
AcDbEntity
  8
0
  6
Continuous
 62
     7
370
    15
100
AcDbPolyline
 90
       21
 70
   128
 43
0.0
 10
198.6677460281
 20
520.4757328993
 10
198.8725122696
 20
520.3680332908
 10
199.6276515607
 20
519.7902924966
 10
200.1678557996
 20
519.0481095272
 10
200.4493608516
 20
518.2016116326
 10
200.4493608516
 20
517.319377038
 10
200.1678557996
 20
516.4728791434
 10
199.6276515607
 20
515.7306961739
 10
198.8725122696
 20
515.1529553798
 10
197.9636148207
 20
514.7864618842
 10
196.9745926799
 20
514.6609068105
 10
195.9855705391
 20
514.7864618842
 10
195.0766730902
 20
515.1529553798
 10
194.3215337992
 20
515.7306961739
 10
193.7813295602
 20
516.4728791434
 10
193.4998245082
 20
517.319377038
 10
193.4998245082
 20
518.2016116326
 10
193.7813295602
 20
519.0481095272
 10
194.3215337992
 20
519.7902924966
 10
195.0766730902
 20
520.3680332908
 10
195.3082173969
 20
520.4886171814
  0
LINE
  5
82
330
1F
100
AcDbEntity
  8
0
  6
Continuous
 62
     7
370
    15
100
AcDbLine
 10
174.9487126799
 20
491.2679486013
 30
0.0
 11
184.9385926799
 21
491.2679486013
 31
0.0
  0
LINE
  5
83
330
1F
100
AcDbEntity
  8
0
  6
Continuous
 62
     7
370
    15
100
AcDbLine
 10
209.0105926799
 20
491.2679486013
 30
0.0
 11
219.0004726143
 21
491.2679486013
 31
0.0
  0
SPLINE
  5
84
330
1F
100
AcDbEntity
  8
0
  6
Continuous
 62
     7
370
    15
100
AcDbSpline
210
0.0
220
0.0
230
1.0
 70
     8
 71
     3
 72
    10
 73
     6
 74
     0
 42
0.00000001
 43
0.00000001
 40
0.0
 40
0.0
 40
0.0
 40
0.0
 40
0.189622607005945
 40
0.5960839714156837
 40
1.0
 40
1.0
 40
1.0
 40
1.0
 10
174.4243564967985
 20
462.3793437435924
 30
0.0
 10
174.4208564915091
 20
462.3535343039078
 30
0.0
 10
174.4098541269396
 20
462.2724016080227
 30
0.0
 10
174.5330792137393
 20
462.2004899269073
 30
0.0
 10
174.7337347364923
 20
462.1874487227051
 30
0.0
 10
174.8337473757448
 20
462.1809486013358
 30
0.0
  0
SPLINE
  5
85
330
1F
100
AcDbEntity
  8
0
  6
Continuous
 62
     7
370
    15
100
AcDbSpline
210
0.0
220
0.0
230
1.0
 70
     8
 71
     3
 72
    10
 73
     6
 74
     0
 42
0.00000001
 43
0.00000001
 40
0.0
 40
0.0
 40
0.0
 40
0.0
 40
0.3920931067244859
 40
0.7869605347461851
 40
1.0
 40
1.0
 40
1.0
 40
1.0
 10
219.115437984106
 20
462.1809486013358
 30
0.0
 10
219.2130393113461
 20
462.1870287558875
 30
0.0
 10
219.4089325605758
 20
462.1992320861557
 30
0.0
 10
219.5355873824002
 20
462.2695876683515
 30
0.0
 10
219.5276003354434
 20
462.3508738006647
 30
0.0
 10
219.5248012946175
 20
462.379360324427
 30
0.0
  0
LINE
  5
86
330
1F
100
AcDbEntity
  8
0
  6
Continuous
 62
     7
370
    15
100
AcDbLine
 10
174.8337473757
 20
462.1809486013
 30
0.0
 11
184.9385926799
 21
462.1809486013
 31
0.0
  0
LINE
  5
87
330
1F
100
AcDbEntity
  8
0
  6
Continuous
 62
     7
370
    15
100
AcDbLine
 10
209.0105926799
 20
462.1809486013
 30
0.0
 11
219.1154379841
 21
462.1809486013
 31
0.0
  0
LINE
  5
88
330
1F
100
AcDbEntity
  8
0
  6
Continuous
 62
     7
370
    15
100
AcDbLine
 10
174.9085926799
 20
379.4334486013
 30
0.0
 11
219.0405926799
 21
379.4334486013
 31
0.0
  0
LINE
  5
89
330
1F
100
AcDbEntity
  8
0
  6
Continuous
 62
     7
370
    15
100
AcDbLine
 10
174.4070926799
 20
369.4034486013
 30
0.0
 11
219.5420926799
 21
369.4034486013
 31
0.0
  0
LINE
  5
8A
330
1F
100
AcDbEntity
  8
0
  6
Continuous
 62
     7
370
    15
100
AcDbLine
 10
174.8985626799
 20
419.0519486013
 30
0.0
 11
184.9385926799
 21
419.0519486013
 31
0.0
  0
LINE
  5
8B
330
1F
100
AcDbEntity
  8
0
  6
Continuous
 62
     7
370
    15
100
AcDbLine
 10
209.0105926799
 20
419.0519486013
 30
0.0
 11
219.0506226799
 21
419.0519486013
 31
0.0
  0
LINE
  5
8C
330
1F
100
AcDbEntity
  8
0
  6
Continuous
 62
     7
370
    15
100
AcDbLine
 10
174.8985626799
 20
379.7343486013
 30
0.0
 11
219.0506226799
 21
379.7343486013
 31
0.0
  0
LINE
  5
8D
330
1F
100
AcDbEntity
  8
0
  6
Continuous
 62
     7
370
    15
100
AcDbLine
 10
219.0405926799
 20
419.3528486013
 30
0.0
 11
209.0105926799
 21
419.3528486014
 31
0.0
  0
LINE
  5
8E
330
1F
100
AcDbEntity
  8
0
  6
Continuous
 62
     7
370
    15
100
AcDbLine
 10
184.9385926799
 20
419.3528486014
 30
0.0
 11
174.9085926799
 21
419.3528486013
 31
0.0
  0
LWPOLYLINE
  5
8F
330
1F
100
AcDbEntity
  8
0
  6
Continuous
 62
     8
370
     0
100
AcDbPolyline
 90
       41
 70
   128
 43
0.0
 10
196.9745926799
 20
506.6892915988
 10
195.1701993429
 20
506.5639052394
 10
193.4102361583
 20
506.1908335895
 10
191.7380392607
 20
505.5792629114
 10
190.1947836874
 20
504.7442521047
 10
188.8184695123
 20
503.7063619068
 10
187.6429861583
 20
502.491148619
 10
186.6972779267
 20
501.1285348253
 10
186.0046312927
 20
499.6520725998
 10
185.5821015153
 20
498.0981173424
 10
185.4400926799
 20
496.5049325889
 10
185.5821015153
 20
494.9117478355
 10
186.0046312927
 20
493.3577925781
 10
186.6972779267
 20
491.8813303525
 10
187.6429861583
 20
490.5187165589
 10
188.8184695123
 20
489.3035032711
 10
190.1947836874
 20
488.2656130732
 10
191.7380392607
 20
487.4306022665
 10
193.4102361583
 20
486.8190315884
 10
195.1701993429
 20
486.4459599385
 10
196.9745926799
 20
486.3205735791
 10
198.7789860169
 20
486.4459599385
 10
200.5389492015
 20
486.8190315884
 10
202.2111460992
 20
487.4306022665
 10
203.7544016725
 20
488.2656130732
 10
205.1307158475
 20
489.3035032711
 10
206.3061992015
 20
490.5187165589
 10
207.2519074332
 20
491.8813303525
 10
207.9445540671
 20
493.3577925781
 10
208.3670838445
 20
494.9117478355
 10
208.5090926799
 20
496.5049325889
 10
208.3670838445
 20
498.0981173424
 10
207.9445540671
 20
499.6520725998
 10
207.2519074332
 20
501.1285348253
 10
206.3061992015
 20
502.491148619
 10
205.1307158475
 20
503.7063619068
 10
203.7544016725
 20
504.7442521047
 10
202.2111460992
 20
505.5792629114
 10
200.5389492015
 20
506.1908335895
 10
198.7789860169
 20
506.5639052394
 10
196.9745926799
 20
506.6892915988
  0
LWPOLYLINE
  5
90
330
1F
100
AcDbEntity
  8
0
  6
Continuous
 62
     8
370
    15
100
AcDbPolyline
 90
       22
 70
   128
 43
0.0
 10
209.0105926799
 20
496.2694926002
 10
208.9311802323
 20
495.0507338071
 10
208.5803477512
 20
493.4534925139
 10
207.9574862078
 20
491.9222558761
 10
207.0771949488
 20
490.4929147825
 10
205.9601072552
 20
489.1989717769
 10
204.6324067158
 20
488.0707557868
 10
203.1252135058
 20
487.1347112386
 10
201.4738549566
 20
486.4127782233
 10
199.7170375131
 20
485.9218782388
 10
197.8959394871
 20
485.6735175647
 10
196.0532458728
 20
485.6735175647
 10
194.2321478468
 20
485.9218782388
 10
192.4753304032
 20
486.4127782233
 10
190.8239718541
 20
487.1347112386
 10
189.3167786441
 20
488.0707557868
 10
187.9890781046
 20
489.1989717769
 10
186.871990411
 20
490.4929147825
 10
185.991699152
 20
491.9222558761
 10
185.3688376087
 20
493.4534925139
 10
185.0180051276
 20
495.0507338071
 10
184.9385926799
 20
496.2694926002
  0
LWPOLYLINE
  5
91
330
1F
100
AcDbEntity
  8
0
  6
Continuous
 62
     8
370
     0
100
AcDbPolyline
 90
       21
 70
   128
 43
0.0
 10
196.9745926799
 20
520.6527236309
 10
196.0447605439
 20
520.5226911068
 10
195.2059468558
 20
520.1453220238
 10
194.5402605439
 20
519.5575558971
 10
194.1128636224
 20
518.8169273703
 10
193.9655926799
 20
517.995934324
 10
194.1128636224
 20
517.1749412777
 10
194.5402605439
 20
516.434312751
 10
195.2059468558
 20
515.8465466242
 10
196.0447605439
 20
515.4691775412
 10
196.9745926799
 20
515.3391450171
 10
197.904424816
 20
515.4691775412
 10
198.7432385041
 20
515.8465466242
 10
199.408924816
 20
516.434312751
 10
199.8363217375
 20
517.1749412777
 10
199.9835926799
 20
517.995934324
 10
199.8363217375
 20
518.8169273703
 10
199.408924816
 20
519.5575558971
 10
198.7432385041
 20
520.1453220238
 10
197.904424816
 20
520.5226911068
 10
196.9745926799
 20
520.6527236309
  0
LINE
  5
92
330
1F
100
AcDbEntity
  8
0
  6
Continuous
 62
     8
370
    15
100
AcDbLine
 10
209.0105926799
 20
454.4578486013
 30
0.0
 11
219.0405926799
 21
454.4578486013
 31
0.0
  0
LINE
  5
93
330
1F
100
AcDbEntity
  8
0
  6
Continuous
 62
     8
370
    15
100
AcDbLine
 10
174.9085926799
 20
454.4578486013
 30
0.0
 11
184.9385926799
 21
454.4578486013
 31
0.0
  0
LINE
  5
94
330
1F
100
AcDbEntity
  8
0
  6
Continuous
 62
     7
370
    15
100
AcDbLine
 10
340.2028752895
 20
369.4034486013
 30
0.0
 11
339.7013752895
 21
379.4334486013
 31
0.0
  0
LINE
  5
95
330
1F
100
AcDbEntity
  8
0
  6
Continuous
 62
     7
370
    15
100
AcDbLine
 10
295.5693752895
 20
379.4334486013
 30
0.0
 11
295.0678752895
 21
369.4034486013
 31
0.0
  0
ARC
  5
96
330
1F
100
AcDbEntity
  8
0
  6
Continuous
 62
     7
370
    15
100
AcDbCircle
 10
295.6094952895
 20
490.7263286013
 30
0.0
 40
0.5416200000000231
100
AcDbArc
 50
90.0
 51
180.0
  0
ARC
  5
97
330
1F
100
AcDbEntity
  8
0
  6
Continuous
 62
     7
370
    15
100
AcDbCircle
 10
339.6612552895
 20
490.7263286013
 30
0.0
 40
0.5416200000000231
100
AcDbArc
 50
0.0
 51
90.0
  0
LINE
  5
98
330
1F
100
AcDbEntity
  8
0
  6
Continuous
 62
     7
370
    15
100
AcDbLine
 10
340.2028752895
 20
486.011015159
 30
0.0
 11
340.2028752895
 21
490.7263286013
 31
0.0
  0
LINE
  5
99
330
1F
100
AcDbEntity
  8
0
  6
Continuous
 62
     7
370
    15
100
AcDbLine
 10
340.2028752895
 20
474.5161512599
 30
0.0
 11
340.2028752895
 21
476.9246170009
 31
0.0
  0
LINE
  5
9A
330
1F
100
AcDbEntity
  8
0
  6
Continuous
 62
     7
370
    15
100
AcDbLine
 10
340.2028752895
 20
462.1809486013
 30
0.0
 11
340.2028752895
 21
466.4955459428
 31
0.0
  0
LINE
  5
9B
330
1F
100
AcDbEntity
  8
0
  6
Continuous
 62
     7
370
    15
100
AcDbLine
 10
295.0678752895
 20
490.7263286013
 30
0.0
 11
295.0678752895
 21
466.1566706192
 31
0.0
  0
LINE
  5
9C
330
1F
100
AcDbEntity
  8
0
  6
Continuous
 62
     7
370
    15
100
AcDbLine
 10
295.5693752895
 20
456.4638486013
 30
0.0
 11
295.5693752895
 21
454.4578486013
 31
0.0
  0
LINE
  5
9D
330
1F
100
AcDbEntity
  8
0
  6
Continuous
 62
     7
370
    15
100
AcDbLine
 10
339.7013752895
 20
454.4578486013
 30
0.0
 11
339.7013752895
 21
456.3229667062
 31
0.0
  0
ARC
  5
9E
330
1F
100
AcDbEntity
  8
0
  6
Continuous
 62
     7
370
    15
100
AcDbCircle
 10
317.6354983224
 20
456.5375349041
 30
0.0
 40
22.06599999999999
100
AcDbArc
 50
155.4214368222
 51
180.195033394
  0
ARC
  5
9F
330
1F
100
AcDbEntity
  8
0
  6
Continuous
 62
     7
370
    15
100
AcDbCircle
 10
317.6354983224
 20
456.5375349041
 30
0.0
 40
22.06600000000008
100
AcDbArc
 50
0.5423187139
 51
14.818122559
  0
LINE
  5
A0
330
1F
100
AcDbEntity
  8
0
  6
Continuous
 62
     7
370
    15
100
AcDbLine
 10
295.5593452895
 20
419.0519486013
 30
0.0
 11
295.5593452895
 21
379.7343486013
 31
0.0
  0
LINE
  5
A1
330
1F
100
AcDbEntity
  8
0
  6
Continuous
 62
     7
370
    15
100
AcDbLine
 10
339.7114052895
 20
412.7632444116
 30
0.0
 11
339.7114052895
 21
419.0519486013
 31
0.0
  0
LINE
  5
A2
330
1F
100
AcDbEntity
  8
0
  6
Continuous
 62
     7
370
    15
100
AcDbLine
 10
339.7114052895
 20
379.7343486013
 30
0.0
 11
339.7114052895
 21
385.5228339269
 31
0.0
  0
LINE
  5
A3
330
1F
100
AcDbEntity
  8
0
  6
Continuous
 62
     7
370
    15
100
AcDbLine
 10
339.7013752895
 20
419.3528486014
 30
0.0
 11
339.7013752895
 21
454.4578486013
 31
0.0
  0
LINE
  5
A4
330
1F
100
AcDbEntity
  8
0
  6
Continuous
 62
     7
370
    15
100
AcDbLine
 10
295.5693752895
 20
454.4578486013
 30
0.0
 11
295.5693752895
 21
419.3528486013
 31
0.0
  0
LINE
  5
A5
330
1F
100
AcDbEntity
  8
0
  6
Continuous
 62
     7
370
    15
100
AcDbLine
 10
296.5723752895
 20
419.3528486013
 30
0.0
 11
296.5723752895
 21
419.0519486013
 31
0.0
  0
LINE
  5
A6
330
1F
100
AcDbEntity
  8
0
  6
Continuous
 62
     7
370
    15
100
AcDbLine
 10
338.6983752895
 20
419.0519486013
 30
0.0
 11
338.6983752895
 21
419.3528486013
 31
0.0
  0
LINE
  5
A7
330
1F
100
AcDbEntity
  8
0
  6
Continuous
 62
     7
370
    15
100
AcDbLine
 10
296.5723752895
 20
379.7343486013
 30
0.0
 11
296.5723752895
 21
379.4334486013
 31
0.0
  0
LINE
  5
A8
330
1F
100
AcDbEntity
  8
0
  6
Continuous
 62
     7
370
    15
100
AcDbLine
 10
338.6983752895
 20
379.4334486013
 30
0.0
 11
338.6983752895
 21
379.7343486013
 31
0.0
  0
LINE
  5
A9
330
1F
100
AcDbEntity
  8
0
  6
Continuous
 62
     7
370
    15
100
AcDbLine
 10
523.5666667808
 20
483.2804105224
 30
0.0
 11
528.0088013556
 21
485.6423353726
 31
0.0
  0
LINE
  5
AA
330
1F
100
AcDbEntity
  8
0
  6
Continuous
 62
     7
370
    15
100
AcDbLine
 10
339.7114052895
 20
385.5228339269
 30
0.0
 11
506.7746075943
 21
474.3519142759
 31
0.0
  0
LINE
  5
AB
330
1F
100
AcDbEntity
  8
0
  6
Continuous
 62
     7
370
    15
100
AcDbLine
 10
516.7076818962
 20
506.8966498279
 30
0.0
 11
339.6951419665
 21
412.7774128249
 31
0.0
  0
ARC
  5
AC
330
1F
100
AcDbEntity
  8
0
  6
Continuous
 62
     7
370
    15
100
AcDbCircle
 10
516.943121885
 20
506.45385161
 30
0.0
 40
0.5015000000000154
100
AcDbArc
 50
28.0
 51
118.0
  0
ARC
  5
AD
330
1F
100
AcDbEntity
  8
0
  6
Continuous
 62
     7
370
    15
100
AcDbCircle
 10
527.7733613669
 20
486.0851335904
 30
0.0
 40
0.5015000000000421
100
AcDbArc
 50
298.0
 51
28.0
  0
LINE
  5
AE
330
1F
100
AcDbEntity
  8
0
  6
Continuous
 62
     7
370
    15
100
AcDbLine
 10
506.7514484506
 20
474.3561392641
 30
0.0
 11
508.6550189933
 21
470.7760437659
 31
0.0
  0
LINE
  5
AF
330
1F
100
AcDbEntity
  8
0
  6
Continuous
 62
     7
370
    15
100
AcDbLine
 10
525.4813512704
 20
479.7227633379
 30
0.0
 11
523.5770777404
 21
483.304180963
 31
0.0
  0
SPLINE
  5
B0
330
1F
100
AcDbEntity
  8
0
  6
Continuous
 62
     7
370
    15
100
AcDbSpline
210
0.0
220
0.0
230
1.0
 70
     8
 71
     3
 72
    13
 73
     9
 74
     0
 42
0.00000001
 43
0.00000001
 40
0.0
 40
0.0
 40
0.0
 40
0.0
 40
0.110351505069745
 40
0.3512837867115398
 40
0.5952755642538103
 40
0.809325157086079
 40
0.9846398811127364
 40
1.0
 40
1.0
 40
1.0
 40
1.0
 10
340.9359281505356
 20
485.5761391317847
 30
0.0
 10
340.9125989930597
 20
485.5616553221537
 30
0.0
 10
340.8383348969446
 20
485.5155487693708
 30
0.0
 10
340.6855713581608
 20
485.5016387402387
 30
0.0
 10
340.5134564036708
 20
485.5362432071684
 30
0.0
 10
340.3804984466012
 20
485.6222848569882
 30
0.0
 10
340.3076065601545
 20
485.6945396278012
 30
0.0
 10
340.2858780112603
 20
485.7363988037113
 30
0.0
 10
340.2841276330291
 20
485.7397708370046
 30
0.0
  0
SPLINE
  5
B1
330
1F
100
AcDbEntity
  8
0
  6
Continuous
 62
     7
370
    15
100
AcDbSpline
210
0.0
220
0.0
230
1.0
 70
     8
 71
     3
 72
     9
 73
     5
 74
     0
 42
0.00000001
 43
0.00000001
 40
0.0
 40
0.0
 40
0.0
 40
0.0
 40
0.4648575905597366
 40
1.0
 40
1.0
 40
1.0
 40
1.0
 10
340.2880449620218
 20
477.1932247180261
 30
0.0
 10
340.3087564569701
 20
477.2263536478275
 30
0.0
 10
340.3533109514407
 20
477.2976204841107
 30
0.0
 10
340.4271060571812
 20
477.3383677279688
 30
0.0
 10
340.466596947872
 20
477.3601733062251
 30
0.0
  0
LINE
  5
B2
330
1F
100
AcDbEntity
  8
0
  6
Continuous
 62
     7
370
    15
100
AcDbLine
 10
340.6040752895
 20
466.4938486013
 30
0.0
 11
341.2064243015
 21
466.7130857124
 31
0.0
  0
LINE
  5
B3
330
1F
100
AcDbEntity
  8
0
  6
Continuous
 62
     7
370
    15
100
AcDbLine
 10
341.2064243015
 20
474.2986114903
 30
0.0
 11
340.6040752895
 21
474.5178486013
 31
0.0
  0
LINE
  5
B4
330
1F
100
AcDbEntity
  8
0
  6
Continuous
 62
     7
370
    15
100
AcDbLine
 10
340.2025740897
 20
466.4938486013
 30
0.0
 11
340.6040752895
 21
466.4938486013
 31
0.0
  0
LINE
  5
B5
330
1F
100
AcDbEntity
  8
0
  6
Continuous
 62
     7
370
    15
100
AcDbLine
 10
340.6040752895
 20
474.5178486013
 30
0.0
 11
340.2025740897
 21
474.5178486013
 31
0.0
  0
LINE
  5
B6
330
1F
100
AcDbEntity
  8
0
  6
Continuous
 62
     7
370
    15
100
AcDbLine
 10
340.4689353008
 20
477.3674152187
 30
0.0
 11
410.6077919227
 21
514.6609068105
 31
0.0
  0
LINE
  5
B7
330
1F
100
AcDbEntity
  8
0
  6
Continuous
 62
     7
370
    15
100
AcDbLine
 10
407.3116320804
 20
520.86008186
 30
0.0
 11
340.939696247
 21
485.5694975798
 31
0.0
  0
ARC
  5
B8
330
1F
100
AcDbEntity
  8
0
  6
Continuous
 62
     7
370
    15
100
AcDbCircle
 10
341.1378150608
 20
474.1101091506
 30
0.0
 40
0.2006000000000125
100
AcDbArc
 50
0.0
 51
70.0
  0
ARC
  5
B9
330
1F
100
AcDbEntity
  8
0
  6
Continuous
 62
     7
370
    15
100
AcDbCircle
 10
341.1378150608
 20
466.9015880521
 30
0.0
 40
0.2006000000000125
100
AcDbArc
 50
290.0
 51
0.0
  0
LINE
  5
BA
330
1F
100
AcDbEntity
  8
0
  6
Continuous
 62
     7
370
    15
100
AcDbLine
 10
341.3384150608
 20
466.9015880521
 30
0.0
 11
341.3384150608
 21
474.1101091506
 31
0.0
  0
ARC
  5
BB
330
1F
100
AcDbEntity
  8
0
  6
Continuous
 62
     7
370
    15
100
AcDbCircle
 10
407.5470720691
 20
520.4172836422
 30
0.0
 40
0.5014999999999652
100
AcDbArc
 50
28.0
 51
118.0
  0
ARC
  5
BC
330
1F
100
AcDbEntity
  8
0
  6
Continuous
 62
     7
370
    15
100
AcDbCircle
 10
410.3723519339
 20
515.1037050284
 30
0.0
 40
0.5015000000000154
100
AcDbArc
 50
298.0
 51
28.0
  0
LINE
  5
BD
330
1F
100
AcDbEntity
  8
0
  6
Continuous
 62
     7
370
    15
100
AcDbLine
 10
295.5693752895
 20
379.4334486013
 30
0.0
 11
339.7013752895
 21
379.4334486013
 31
0.0
  0
LINE
  5
BE
330
1F
100
AcDbEntity
  8
0
  6
Continuous
 62
     7
370
    15
100
AcDbLine
 10
295.0678752895
 20
369.4034486013
 30
0.0
 11
340.2028752895
 21
369.4034486013
 31
0.0
  0
LINE
  5
BF
330
1F
100
AcDbEntity
  8
0
  6
Continuous
 62
     7
370
    15
100
AcDbLine
 10
317.6353752895
 20
491.2679486013
 30
0.0
 11
339.6612552895
 21
491.2679486013
 31
0.0
  0
LINE
  5
C0
330
1F
100
AcDbEntity
  8
0
  6
Continuous
 62
     7
370
    15
100
AcDbLine
 10
295.6094952895
 20
491.2679486013
 30
0.0
 11
317.6353752895
 21
491.2679486013
 31
0.0
  0
SPLINE
  5
C1
330
1F
100
AcDbEntity
  8
0
  6
Continuous
 62
     7
370
    15
100
AcDbSpline
210
0.0
220
0.0
230
1.0
 70
     8
 71
     3
 72
    12
 73
     8
 74
     0
 42
0.00000001
 43
0.00000001
 40
0.0
 40
0.0
 40
0.0
 40
0.0
 40
0.5
 40
0.5
 40
0.75
 40
0.75
 40
1.0
 40
1.0
 40
1.0
 40
1.0
 10
313.2944156553264
 20
462.9428397877736
 30
0.0
 10
314.7244616367008
 20
462.6906840976035
 30
0.0
 10
316.1664462612435
 20
462.5003456700341
 30
0.0
 10
318.3474291970283
 20
462.309025133517
 30
0.0
 10
319.0774359119317
 20
462.2609696678187
 30
0.0
 10
320.5436368542753
 20
462.1968125380752
 30
0.0
 10
321.2771092836063
 20
462.1809486013358
 30
0.0
 10
322.0028717653229
 20
462.1809486013358
 30
0.0
  0
LINE
  5
C2
330
1F
100
AcDbEntity
  8
0
  6
Continuous
 62
     7
370
    15
100
AcDbLine
 10
295.0678752895
 20
466.1566706192
 30
0.0
 11
313.2944156553
 21
462.9428397878
 31
0.0
  0
LINE
  5
C3
330
1F
100
AcDbEntity
  8
0
  6
Continuous
 62
     7
370
    15
100
AcDbLine
 10
322.0028717653
 20
462.1809486013
 30
0.0
 11
340.2028752895
 21
462.1809486013
 31
0.0
  0
SPLINE
  5
C4
330
1F
100
AcDbEntity
  8
0
  6
Continuous
 62
     7
370
    15
100
AcDbSpline
210
0.0
220
0.0
230
1.0
 70
     8
 71
     3
 72
    28
 73
    24
 74
     0
 42
0.00000001
 43
0.00000001
 40
0.0
 40
0.0
 40
0.0
 40
0.0
 40
0.0058352086247611
 40
0.0523378038418954
 40
0.1002464094821049
 40
0.1470149418808418
 40
0.1951225428550423
 40
0.2432096634683623
 40
0.2925681376362991
 40
0.3433558031577055
 40
0.395371068016432
 40
0.4506267078186745
 40
0.5071476615638173
 40
0.5681401651078787
 40
0.6306042195155809
 40
0.6956210853775617
 40
0.7626155847922218
 40
0.8131546779214124
 40
0.865045528811133
 40
0.9107980633627432
 40
0.9580758775808679
 40
0.9988376531790828
 40
1.0
 40
1.0
 40
1.0
 40
1.0
 10
340.2028752894979
 20
476.9246170008935
 30
0.0
 10
340.2028465911719
 20
476.9247929395152
 30
0.0
 10
340.2025891869463
 20
476.9263709878182
 30
0.0
 10
340.1947088834303
 20
476.9743409766326
 30
0.0
 10
340.1674461474048
 20
477.1453191984104
 30
0.0
 10
340.1263296531348
 20
477.419153087036
 30
0.0
 10
340.0762034754834
 20
477.7846608842941
 30
0.0
 10
340.0214740769048
 20
478.2384812358052
 30
0.0
 10
339.9676528855771
 20
478.7700275666214
 30
0.0
 10
339.9198352615282
 20
479.3720164470242
 30
0.0
 10
339.8825621393004
 20
480.0394678726748
 30
0.0
 10
339.8604115081355
 20
480.7586506166464
 30
0.0
 10
339.8565743687208
 20
481.5287435213692
 30
0.0
 10
339.8734513930973
 20
482.3257206968166
 30
0.0
 10
339.9114650815884
 20
483.1351879060587
 30
0.0
 10
339.9676655761172
 20
483.9232592308223
 30
0.0
 10
340.0305164447063
 20
484.5942191761131
 30
0.0
 10
340.0899977413077
 20
485.1344571729945
 30
0.0
 10
340.1377434207093
 20
485.5250544044241
 30
0.0
 10
340.1756788284528
 20
485.8143900776225
 30
0.0
 10
340.1965637578766
 20
485.9670147680397
 30
0.0
 10
340.2049794055788
 20
486.0275743959377
 30
0.0
 10
340.2027512069342
 20
486.0114618787068
 30
0.0
 10
340.2026894300988
 20
486.011015158964
 30
0.0
  0
SPLINE
  5
C5
330
1F
100
AcDbEntity
  8
0
  6
Continuous
 62
     7
370
    15
100
AcDbSpline
210
0.0
220
0.0
230
1.0
 70
     8
 71
     3
 72
    22
 73
    18
 74
     0
 42
0.00000001
 43
0.00000001
 40
0.0
 40
0.0
 40
0.0
 40
0.0
 40
0.0581498999479336
 40
0.1167104966918814
 40
0.1765588685749274
 40
0.2368486074555472
 40
0.2949970177629842
 40
0.4132376701330684
 40
0.4734645803627026
 40
0.5321365209682449
 40
0.5912151547938932
 40
0.6515816988739958
 40
0.7123964654224748
 40
0.7709356628252313
 40
0.8900521719774237
 40
0.9507828292429872
 40
1.0
 40
1.0
 40
1.0
 40
1.0
 10
339.8518252894979
 20
469.8936898372067
 30
0.0
 10
339.8552859823018
 20
469.784977665777
 30
0.0
 10
339.862231809834
 20
469.5667855186646
 30
0.0
 10
339.8784744837967
 20
469.2445362888262
 30
0.0
 10
339.8986736796259
 20
468.9272051464435
 30
0.0
 10
339.9224805941315
 20
468.6221896899454
 30
0.0
 10
339.9577643476489
 20
468.2353096455759
 30
0.0
 10
339.9972298562717
 20
467.8784082793723
 30
0.0
 10
340.0375668595421
 20
467.5597582589858
 30
0.0
 10
340.0674190020807
 20
467.3412727352786
 30
0.0
 10
340.0960493085644
 20
467.1447127209711
 30
0.0
 10
340.1229443725858
 20
466.9698189304871
 30
0.0
 10
340.1468653442619
 20
466.8211259304798
 30
0.0
 10
340.1739655476549
 20
466.6586023612844
 30
0.0
 10
340.192702470066
 20
466.5512592890847
 30
0.0
 10
340.2018674513798
 20
466.4995077282116
 30
0.0
 10
340.2023554137764
 20
466.4967710102783
 30
0.0
 10
340.2025738458186
 20
466.4955459427507
 30
0.0
  0
SPLINE
  5
C6
330
1F
100
AcDbEntity
  8
0
  6
Continuous
 62
     7
370
    15
100
AcDbSpline
210
0.0
220
0.0
230
1.0
 70
     8
 71
     3
 72
    22
 73
    18
 74
     0
 42
0.00000001
 43
0.00000001
 40
0.0
 40
0.0
 40
0.0
 40
0.0
 40
0.0085249276636009
 40
0.1259987690817415
 40
0.1858668233453036
 40
0.2433880678144006
 40
0.3603477492919633
 40
0.4199158830254222
 40
0.4781110694204076
 40
0.5964403490454416
 40
0.6567113209243255
 40
0.7154672694578482
 40
0.7746339643886619
 40
0.8351044759388863
 40
0.8960298022623977
 40
0.9478699891362004
 40
1.0
 40
1.0
 40
1.0
 40
1.0
 10
340.2025738458186
 20
474.516151259921
 30
0.0
 10
340.2026670936443
 20
474.5166761545042
 30
0.0
 10
340.2040453002085
 20
474.5244341172668
 30
0.0
 10
340.1962464556025
 20
474.4807618733279
 30
0.0
 10
340.1795378774631
 20
474.384735567262
 30
0.0
 10
340.1567303811621
 20
474.2507588547401
 30
0.0
 10
340.126418870374
 20
474.0656459791063
 30
0.0
 10
340.0907940900319
 20
473.8317194052349
 30
0.0
 10
340.0524839831812
 20
473.5658246632321
 30
0.0
 10
340.0117753284112
 20
473.2549417144351
 30
0.0
 10
339.9721888564134
 20
472.9061728773051
 30
0.0
 10
339.9438771955736
 20
472.6272047632426
 30
0.0
 10
339.9177399056048
 20
472.3328813999077
 30
0.0
 10
339.8942764331982
 20
472.0215881920981
 30
0.0
 10
339.8754671318497
 20
471.7119445068308
 30
0.0
 10
339.8609873287113
 20
471.4099176679537
 30
0.0
 10
339.8548849728129
 20
471.215491458384
 30
0.0
 10
339.8518252894979
 20
471.1180073654648
 30
0.0
  0
SPLINE
  5
C7
330
1F
100
AcDbEntity
  8
0
  6
Continuous
 62
     7
370
    15
100
AcDbSpline
210
0.0
220
0.0
230
1.0
 70
    24
 71
     3
 72
     9
 73
     5
 74
     0
 42
0.00000001
 43
0.00000001
 40
0.0
 40
0.0
 40
0.0
 40
0.0
 40
0.5
 40
1.0
 40
1.0
 40
1.0
 40
1.0
 10
339.7011959318288
 20
456.4638486013374
 30
0.0
 10
339.7012557176375
 20
456.4638486013374
 30
0.0
 10
339.7013453965023
 20
456.4638486013374
 30
0.0
 10
339.7013752894978
 20
456.4638486013374
 30
0.0
 10
339.7013752894978
 20
456.4638486013374
 30
0.0
  0
LINE
  5
C8
330
1F
100
AcDbEntity
  8
0
  6
Continuous
 62
     7
370
    15
100
AcDbLine
 10
295.5593452895
 20
419.0519486013
 30
0.0
 11
339.7114052895
 21
419.0519486013
 31
0.0
  0
LINE
  5
C9
330
1F
100
AcDbEntity
  8
0
  6
Continuous
 62
     7
370
    15
100
AcDbLine
 10
295.5593452895
 20
379.7343486013
 30
0.0
 11
339.7114052895
 21
379.7343486013
 31
0.0
  0
LWPOLYLINE
  5
CA
330
1F
100
AcDbEntity
  8
0
  6
Continuous
 62
     7
370
    15
100
AcDbPolyline
 90
       33
 70
   128
 43
0.0
 10
339.7026665877
 20
412.7632444116
 10
339.6895142563
 20
412.7288923054
 10
339.5837714376
 20
412.4512113353
 10
339.4120830194
 20
411.9946726807
 10
339.1790275714
 20
411.3627130891
 10
338.9703107757
 20
410.7834550022
 10
338.7406151996
 20
410.1295495325
 10
338.4922015394
 20
409.4001546269
 10
338.2338013158
 20
408.6127197323
 10
337.876278024
 20
407.4635802544
 10
337.5213089391
 20
406.2324288487
 10
337.1759026038
 20
404.9105358298
 10
336.8576003944
 20
403.5229450176
 10
336.5861240997
 20
402.1134075967
 10
336.3665171985
 20
400.6525465946
 10
336.2118063373
 20
399.119184146
 10
336.1435086469
 20
397.5465472113
 10
336.1510416408
 20
396.5970060923
 10
336.2888910999
 20
394.6863268436
 10
336.4229876157
 20
393.7380155846
 10
336.5917433775
 20
392.8455193005
 10
337.0380354209
 20
391.1312232946
 10
337.3057348299
 20
390.3254743792
 10
338.0936829521
 20
388.4170995217
 10
338.3596733396
 20
387.8711571392
 10
338.6202332402
 20
387.3693438433
 10
339.089367786
 20
386.5319012369
 10
339.2862356853
 20
386.2015001015
 10
339.4651477812
 20
385.9104630014
 10
339.5985396199
 20
385.698722377
 10
339.6827470373
 20
385.5672202441
 10
339.7114052895
 20
385.5228339269
 10
339.7114052895
 20
385.5228339269
  0
LINE
  5
CB
330
1F
100
AcDbEntity
  8
0
  6
Continuous
 62
     7
370
    15
100
AcDbLine
 10
339.7013752895
 20
419.3528486014
 30
0.0
 11
295.5693752895
 21
419.3528486013
 31
0.0
  0
SPLINE
  5
CC
330
1F
100
AcDbEntity
  8
0
  6
Continuous
 62
     7
370
    15
100
AcDbSpline
210
0.0
220
0.0
230
1.0
 70
     8
 71
     3
 72
    24
 73
    20
 74
     0
 42
0.00000001
 43
0.00000001
 40
0.0
 40
0.0
 40
0.0
 40
0.0
 40
0.0677485823300395
 40
0.1376742246673973
 40
0.1831432389387017
 40
0.2289797772982828
 40
0.2757539789961725
 40
0.3227801285678777
 40
0.3839273254494496
 40
0.4455030609722578
 40
0.5084029591982908
 40
0.571778947129158
 40
0.6211073642005871
 40
0.670717140691577
 40
0.7213018979991087
 40
0.7722711056017121
 40
0.8552708467767501
 40
0.9405763707396025
 40
1.0
 40
1.0
 40
1.0
 40
1.0
 10
512.9731384553546
 20
482.9510662131257
 30
0.0
 10
512.6644313155902
 20
482.7695562483531
 30
0.0
 10
512.0370969175165
 20
482.4007036050943
 30
0.0
 10
511.310864839926
 20
481.7742046546363
 30
0.0
 10
510.7348102379665
 20
481.1845783256547
 30
0.0
 10
510.283962391308
 20
480.6571058330329
 30
0.0
 10
509.8665531953832
 20
480.1120242218473
 30
0.0
 10
509.4420298227038
 20
479.5022266098461
 30
0.0
 10
509.0201013393557
 20
478.8371056481728
 30
0.0
 10
508.6055450804976
 20
478.125946596698
 30
0.0
 10
508.2292601950302
 20
477.4340489988498
 30
0.0
 10
507.9158581041454
 20
476.8241151111699
 30
0.0
 10
507.6571521055894
 20
476.299931737792
 30
0.0
 10
507.4439935852693
 20
475.8548284584461
 30
0.0
 10
507.2551002104718
 20
475.4502799461036
 30
0.0
 10
507.0582309556673
 20
475.0196464867519
 30
0.0
 10
506.8834780679987
 20
474.6285126024893
 30
0.0
 10
506.7706860132126
 20
474.3715819110189
 30
0.0
 10
506.7686043372834
 20
474.3667827078345
 30
0.0
 10
506.7677496322298
 20
474.3648122266674
 30
0.0
  0
SPLINE
  5
CD
330
1F
100
AcDbEntity
  8
0
  6
Continuous
 62
     7
370
    15
100
AcDbSpline
210
0.0
220
0.0
230
1.0
 70
     8
 71
     3
 72
    19
 73
    15
 74
     0
 42
0.00000001
 43
0.00000001
 40
0.0
 40
0.0
 40
0.0
 40
0.0
 40
0.0289048746619734
 40
0.1140268077323115
 40
0.1932236034168727
 40
0.2743318923057658
 40
0.3618754794067655
 40
0.4511855691710452
 40
0.5568603411005809
 40
0.6647817911134872
 40
0.7558597038586479
 40
0.8489533844729749
 40
0.9231911586993652
 40
1.0
 40
1.0
 40
1.0
 40
1.0
 10
523.5591069105864
 20
483.2946285704998
 30
0.0
 10
523.5659786582862
 20
483.2933735072709
 30
0.0
 10
523.5930870081038
 20
483.2884224097425
 30
0.0
 10
523.4053608734202
 20
483.3227629914163
 30
0.0
 10
523.0153290147067
 20
483.3921206585005
 30
0.0
 10
522.4243434010831
 20
483.492352648054
 30
0.0
 10
521.6434515631474
 20
483.6144316592672
 30
0.0
 10
520.6274406605041
 20
483.7529102302095
 30
0.0
 10
519.3858048835739
 20
483.8839671610435
 30
0.0
 10
518.0064101628287
 20
483.9588991868289
 30
0.0
 10
516.595810725641
 20
483.9323575547452
 30
0.0
 10
515.2997253154775
 20
483.7723993328578
 30
0.0
 10
514.0631725749649
 20
483.464161735533
 30
0.0
 10
513.3405830576085
 20
483.1240279367611
 30
0.0
 10
512.9731384553546
 20
482.9510662131257
 30
0.0
  0
LINE
  5
CE
330
1F
100
AcDbEntity
  8
0
  6
Continuous
 62
     7
370
    15
100
AcDbLine
 10
517.3859201028
 20
506.6892915988
 30
0.0
 11
528.2161595622
 21
486.3205736213
 31
0.0
  0
LINE
  5
CF
330
1F
100
AcDbEntity
  8
0
  6
Continuous
 62
     7
370
    15
100
AcDbLine
 10
517.0681851318
 20
475.2494035519
 30
0.0
 11
525.4813512704
 21
479.7227633379
 31
0.0
  0
LINE
  5
D0
330
1F
100
AcDbEntity
  8
0
  6
Continuous
 62
     7
370
    15
100
AcDbLine
 10
508.6550189933
 20
470.7760437659
 30
0.0
 11
517.0681851318
 21
475.2494035519
 31
0.0
  0
LINE
  5
D1
330
1F
100
AcDbEntity
  8
0
  6
Continuous
 62
     7
370
    15
100
AcDbLine
 10
340.6040752895
 20
466.4938486013
 30
0.0
 11
340.6040752895
 21
474.5178486013
 31
0.0
  0
LINE
  5
D2
330
1F
100
AcDbEntity
  8
0
  6
Continuous
 62
     7
370
    15
100
AcDbLine
 10
339.8518252895
 20
469.8936898372
 30
0.0
 11
339.8518252895
 21
471.1180073655
 31
0.0
  0
LINE
  5
D3
330
1F
100
AcDbEntity
  8
0
  6
Continuous
 62
     7
370
    15
100
AcDbLine
 10
407.9898702869
 20
520.6527236309
 30
0.0
 11
410.8151501518
 21
515.3391450171
 31
0.0
  0
LINE
  5
D4
330
1F
100
AcDbEntity
  8
0
  6
Continuous
 62
     8
370
    15
100
AcDbLine
 10
295.5693752895
 20
454.4578486013
 30
0.0
 11
339.7013752895
 21
454.4578486013
 31
0.0
  0
SPLINE
  5
D5
330
1F
100
AcDbEntity
  8
0
  6
Continuous
 62
     8
370
     0
100
AcDbSpline
210
0.0
220
0.0
230
1.0
 70
     8
 71
     3
 72
    27
 73
    23
 74
     0
 42
0.00000001
 43
0.00000001
 40
0.0
 40
0.0
 40
0.0
 40
0.0
 40
0.0002921517710177
 40
0.0421213936659707
 40
0.0876593425352564
 40
0.1348742986872028
 40
0.1855784889579914
 40
0.2377482059272954
 40
0.3033320941090376
 40
0.3709529834576445
 40
0.4324232059573789
 40
0.4953198937240755
 40
0.550691465973126
 40
0.6072761158161475
 40
0.6578659673173849
 40
0.7096446951292249
 40
0.7573799617297963
 40
0.8063572234483247
 40
0.852765496699064
 40
0.900483310822929
 40
0.949417995191798
 40
0.9999999999999999
 40
0.9999999999999999
 40
0.9999999999999999
 40
0.9999999999999999
 10
340.9397504270812
 20
485.569249118966
 30
0.0
 10
340.9397721150087
 20
485.569353376051
 30
0.0
 10
340.9428990025567
 20
485.5843847883303
 30
0.0
 10
340.9316460535152
 20
485.5304918587054
 30
0.0
 10
340.9029433616471
 20
485.3914742526252
 30
0.0
 10
340.8508698864374
 20
485.1316905434424
 30
0.0
 10
340.7826643716269
 20
484.774128895134
 30
0.0
 10
340.6965898692109
 20
484.2898387998475
 30
0.0
 10
340.5987896022578
 20
483.6783934740056
 30
0.0
 10
340.5026832196751
 20
482.9708404444899
 30
0.0
 10
340.4219982230798
 20
482.2316779907546
 30
0.0
 10
340.3640701974288
 20
481.5169729101786
 30
0.0
 10
340.3274133493372
 20
480.8161908164183
 30
0.0
 10
340.3120275594576
 20
480.1727684623766
 30
0.0
 10
340.31428639577
 20
479.5668218272176
 30
0.0
 10
340.3303504159579
 20
479.0296010132635
 30
0.0
 10
340.3564091656338
 20
478.5477565505695
 30
0.0
 10
340.3870085148729
 20
478.1436682524281
 30
0.0
 10
340.4182262572414
 20
477.8120426965085
 30
0.0
 10
340.4450834462692
 20
477.5650350285651
 30
0.0
 10
340.4649235667035
 20
477.399404054491
 30
0.0
 10
340.4675833799279
 20
477.3781951888919
 30
0.0
 10
340.4689353007607
 20
477.3674152187123
 30
0.0
  0
SPLINE
  5
D6
330
1F
100
AcDbEntity
  8
0
  6
Continuous
 62
     7
370
    15
100
AcDbSpline
210
0.0
220
0.0
230
1.0
 70
     8
 71
     3
 72
    20
 73
    16
 74
     0
 42
0.00000001
 43
0.00000001
 40
0.0
 40
0.0
 40
0.0
 40
0.0
 40
0.0516251053552943
 40
0.1257723518499406
 40
0.2036190733967088
 40
0.2905360592727688
 40
0.3804971480932308
 40
0.469454617296002
 40
0.5578915588331154
 40
0.646605918154386
 40
0.7363259636414817
 40
0.8283254686724547
 40
0.9080860439251414
 40
0.9808178266867524
 40
1.0
 40
1.0
 40
1.0
 40
1.0
 10
193.4958816367798
 20
217.7111207205756
 30
0.0
 10
193.4943194586708
 20
217.5856782140873
 30
0.0
 10
193.4905135814056
 20
217.2800672336465
 30
0.0
 10
193.7692860226559
 20
216.8468202030033
 30
0.0
 10
194.2258889053246
 20
216.4436823962755
 30
0.0
 10
194.8851522616629
 20
216.1148628682072
 30
0.0
 10
195.7153662362889
 20
215.8835569301884
 30
0.0
 10
196.6445998094612
 20
215.7745288842591
 30
0.0
 10
197.5936846054871
 20
215.7943702570447
 30
0.0
 10
198.4998522059855
 20
215.9416015374533
 30
0.0
 10
199.3034406655057
 20
216.2123337024422
 30
0.0
 10
199.9283115086072
 20
216.5858549626172
 30
0.0
 10
200.3184751266708
 20
217.0411638865967
 30
0.0
 10
200.5054642193494
 20
217.4430014036825
 30
0.0
 10
200.4679532099416
 20
217.6615896649117
 30
0.0
 10
200.4601247721903
 20
217.7072083945388
 30
0.0
  0
LINE
  5
D7
330
1F
100
AcDbEntity
  8
0
  6
Continuous
 62
     7
370
    15
100
AcDbLine
 10
193.4640926799
 20
286.3070929873
 30
0.0
 11
193.4640926799
 21
217.702355312
 31
0.0
  0
LINE
  5
D8
330
1F
100
AcDbEntity
  8
0
  6
Continuous
 62
     7
370
    15
100
AcDbLine
 10
200.4850926799
 20
217.702355312
 30
0.0
 11
200.4850926799
 21
286.3069660222
 31
0.0
  0
SPLINE
  5
D9
330
1F
100
AcDbEntity
  8
0
  6
Continuous
 62
     7
370
    15
100
AcDbSpline
210
0.0
220
0.0
230
1.0
 70
     8
 71
     3
 72
    14
 73
    10
 74
     0
 42
0.00000001
 43
0.00000001
 40
0.0
 40
0.0
 40
0.0
 40
0.0
 40
0.1175282345274839
 40
0.2722777213503589
 40
0.4276966272296299
 40
0.5836355862535983
 40
0.7386471314581928
 40
0.8902070013522566
 40
0.9999999999999999
 40
0.9999999999999999
 40
0.9999999999999999
 40
0.9999999999999999
 10
203.9574311470045
 20
99.47624882628728
 30
0.0
 10
204.3171499127981
 20
99.60345921313976
 30
0.0
 10
205.1505105624412
 20
99.89816758175904
 30
0.0
 10
206.2658952372089
 20
100.4765130163291
 30
0.0
 10
207.303374610623
 20
101.1821941204739
 30
0.0
 10
208.1214280540803
 20
101.9722630602236
 30
0.0
 10
208.6881356427176
 20
102.8287284599104
 30
0.0
 10
208.9958448369021
 20
103.6560770175253
 30
0.0
 10
208.9874167901194
 20
104.1895238035455
 30
0.0
 10
208.983876210924
 20
104.4136220603695
 30
0.0
  0
SPLINE
  5
DA
330
1F
100
AcDbEntity
  8
0
  6
Continuous
 62
     7
370
    15
100
AcDbSpline
210
0.0
220
0.0
230
1.0
 70
     8
 71
     3
 72
    14
 73
    10
 74
     0
 42
0.00000001
 43
0.00000001
 40
0.0
 40
0.0
 40
0.0
 40
0.0
 40
0.0651001814932062
 40
0.2269826307266931
 40
0.3917888704229258
 40
0.5615237583860231
 40
0.734634019303831
 40
0.9088184446363177
 40
1.0
 40
1.0
 40
1.0
 40
1.0
 10
184.9968014848059
 20
103.8960590545503
 30
0.0
 10
185.0050014295593
 20
103.7782722564182
 30
0.0
 10
185.0335919033377
 20
103.3675889573606
 30
0.0
 10
185.3461811451883
 20
102.6862918286922
 30
0.0
 10
185.9128814226237
 20
101.8778838079399
 30
0.0
 10
186.7252858104861
 20
101.1204217070973
 30
0.0
 10
187.764178462694
 20
100.4319183367045
 30
0.0
 10
188.7836757449533
 20
99.90563399271066
 30
0.0
 10
189.5077735933534
 20
99.65209301374756
 30
0.0
 10
189.7565785376775
 20
99.56497460938529
 30
0.0
  0
LINE
  5
DB
330
1F
100
AcDbEntity
  8
0
  6
Continuous
 62
     7
370
    15
100
AcDbLine
 10
184.9385926799
 20
289.9367271144
 30
0.0
 11
184.9385926799
 21
104.3038256876
 31
0.0
  0
LINE
  5
DC
330
1F
100
AcDbEntity
  8
0
  6
Continuous
 62
     7
370
    15
100
AcDbLine
 10
209.0105926799
 20
104.3038256876
 30
0.0
 11
209.0105926799
 21
289.9367271144
 31
0.0
  0
SPLINE
  5
DD
330
1F
100
AcDbEntity
  8
0
  6
Continuous
 62
     7
370
    15
100
AcDbSpline
210
0.0
220
0.0
230
1.0
 70
     8
 71
     3
 72
    20
 73
    16
 74
     0
 42
0.00000001
 43
0.00000001
 40
0.0
 40
0.0
 40
0.0
 40
0.0
 40
0.0539762862101949
 40
0.1616149431599427
 40
0.2503906167734324
 40
0.3254399870703193
 40
0.3872480607686054
 40
0.4347434833227925
 40
0.4604750294721818
 40
0.4758423086384042
 40
0.4897245734473657
 40
0.509867083782728
 40
0.549421637477907
 40
0.6583668269732301
 40
1.0
 40
1.0
 40
1.0
 40
1.0
 10
200.4936658403431
 20
286.3080075028461
 30
0.0
 10
200.4911608008333
 20
286.3336242891942
 30
0.0
 10
200.4836602511214
 20
286.4103256660445
 30
0.0
 10
200.5284946522965
 20
286.5251486799471
 30
0.0
 10
200.5981559972627
 20
286.6332515018202
 30
0.0
 10
200.6771746816002
 20
286.7067419539972
 30
0.0
 10
200.7514053001831
 20
286.7531195330897
 30
0.0
 10
200.8100856628196
 20
286.7781648480346
 30
0.0
 10
200.8485673578652
 20
286.7900332357979
 30
0.0
 10
200.8667201365134
 20
286.7946640163324
 30
0.0
 10
200.8770087010119
 20
286.7970335053424
 30
0.0
 10
200.8853850117801
 20
286.7988000633155
 30
0.0
 10
200.8920714666158
 20
286.8000773477099
 30
0.0
 10
200.8888149912734
 20
286.7994025511786
 30
0.0
 10
200.8589670046837
 20
286.7943902817597
 30
0.0
 10
200.8363359526508
 20
286.7905899272641
 30
0.0
  0
SPLINE
  5
DE
330
1F
100
AcDbEntity
  8
0
  6
Continuous
 62
     7
370
    15
100
AcDbSpline
210
0.0
220
0.0
230
1.0
 70
     8
 71
     3
 72
    11
 73
     7
 74
     0
 42
0.00000001
 43
0.00000001
 40
0.0
 40
0.0
 40
0.0
 40
0.0
 40
0.1186376800742695
 40
0.5345897254640943
 40
0.9653573413606599
 40
1.0
 40
1.0
 40
1.0
 40
1.0
 10
193.302216588593
 20
286.6708071542683
 30
0.0
 10
193.3148098416476
 20
286.6606424836807
 30
0.0
 10
193.3715559250924
 20
286.6148397635376
 30
0.0
 10
193.432014582499
 20
286.4955089350792
 30
0.0
 10
193.4725811272816
 20
286.3762915512631
 30
0.0
 10
193.4622304726524
 20
286.3138021163379
 30
0.0
 10
193.4614600251254
 20
286.3091507360802
 30
0.0
  0
LINE
  5
DF
330
1F
100
AcDbEntity
  8
0
  6
Continuous
 62
     7
370
    15
100
AcDbLine
 10
192.9625926799
 20
286.810242024
 30
0.0
 11
192.9625926799
 21
286.057992024
 31
0.0
  0
LINE
  5
E0
330
1F
100
AcDbEntity
  8
0
  6
Continuous
 62
     7
370
    15
100
AcDbLine
 10
200.9865926799
 20
286.057992024
 30
0.0
 11
200.9865926799
 21
286.810242024
 31
0.0
  0
LINE
  5
E1
330
1F
100
AcDbEntity
  8
0
  6
Continuous
 62
     7
370
    15
100
AcDbLine
 10
192.9625926799
 20
286.057992024
 30
0.0
 11
193.1818297909
 21
285.455643012
 31
0.0
  0
LINE
  5
E2
330
1F
100
AcDbEntity
  8
0
  6
Continuous
 62
     7
370
    15
100
AcDbLine
 10
200.7673555689
 20
285.455643012
 30
0.0
 11
200.9865926799
 21
286.057992024
 31
0.0
  0
ARC
  5
E3
330
1F
100
AcDbEntity
  8
0
  6
Continuous
 62
     7
370
    15
100
AcDbCircle
 10
200.5788532292
 20
285.5242522527
 30
0.0
 40
0.2006000000000085
100
AcDbArc
 50
270.0
 51
340.0
  0
ARC
  5
E4
330
1F
100
AcDbEntity
  8
0
  6
Continuous
 62
     7
370
    15
100
AcDbCircle
 10
193.3703321307
 20
285.5242522527
 30
0.0
 40
0.2006000000000085
100
AcDbArc
 50
200.0
 51
270.0
  0
LINE
  5
E5
330
1F
100
AcDbEntity
  8
0
  6
Continuous
 62
     7
370
    15
100
AcDbLine
 10
193.3703321307
 20
285.3236522527
 30
0.0
 11
193.4640926799
 21
285.3236522527
 31
0.0
  0
LINE
  5
E6
330
1F
100
AcDbEntity
  8
0
  6
Continuous
 62
     7
370
    15
100
AcDbLine
 10
200.4850926799
 20
285.3236522527
 30
0.0
 11
200.5788532292
 21
285.3236522527
 31
0.0
  0
ARC
  5
E7
330
1F
100
AcDbEntity
  8
0
  6
Continuous
 62
     7
370
    15
100
AcDbCircle
 10
196.9843525332
 20
120.6430036418
 30
0.0
 40
22.22126306041952
100
AcDbArc
 50
251.6940255485
 51
287.4744707639
  0
LINE
  5
E8
330
1F
100
AcDbEntity
  8
0
  6
Continuous
 62
     7
370
    15
100
AcDbLine
 10
209.008889045
 20
104.3988945469
 30
0.0
 11
209.0105926799
 21
104.3038256876
 31
0.0
  0
LINE
  5
E9
330
1F
100
AcDbEntity
  8
0
  6
Continuous
 62
     7
370
    15
100
AcDbLine
 10
184.9626731486
 20
103.9465688797
 30
0.0
 11
184.9385926799
 21
104.3038256876
 31
0.0
  0
CIRCLE
  5
EA
330
1F
100
AcDbEntity
  8
0
  6
Continuous
 62
     7
370
    15
100
AcDbCircle
 10
196.9745926799
 20
309.026692024
 30
0.0
 40
22.5675
  0
LINE
  5
EB
330
1F
100
AcDbEntity
  8
0
  6
Continuous
 62
     7
370
    15
100
AcDbLine
 10
192.9625926799
 20
286.810242024
 30
0.0
 11
193.0095698997
 21
286.810242024
 31
0.0
  0
LINE
  5
EC
330
1F
100
AcDbEntity
  8
0
  6
Continuous
 62
     7
370
    15
100
AcDbLine
 10
200.9396154601
 20
286.810242024
 30
0.0
 11
200.9865926799
 21
286.810242024
 31
0.0
  0
ARC
  5
ED
330
1F
100
AcDbEntity
  8
0
  6
Continuous
 62
     7
370
    15
100
AcDbCircle
 10
196.9745926799
 20
309.026692024
 30
0.0
 40
22.56750000000005
100
AcDbArc
 50
0.0
 51
90.0
  0
ARC
  5
EE
330
1F
100
AcDbEntity
  8
0
  6
Continuous
 62
     7
370
    15
100
AcDbCircle
 10
196.9745926799
 20
309.026692024
 30
0.0
 40
22.56750000000002
100
AcDbArc
 50
180.0
 51
237.7690473645
  0
ARC
  5
EF
330
1F
100
AcDbEntity
  8
0
  6
Continuous
 62
     7
370
    15
100
AcDbCircle
 10
196.9745926799
 20
309.026692024
 30
0.0
 40
22.56750000000002
100
AcDbArc
 50
302.2309526355
 51
0.0
  0
LWPOLYLINE
  5
F0
330
1F
100
AcDbEntity
  8
0
  6
Continuous
 62
     8
370
    15
100
AcDbPolyline
 90
        7
 70
   128
 43
0.0
 10
196.9745926799
 20
219.3504352332
 10
197.9636148207
 20
219.2836764163
 10
198.8725122696
 20
219.0888083681
 10
199.6276515607
 20
218.7816181388
 10
200.1678557996
 20
218.3869924539
 10
200.4493608516
 20
217.9369015394
 10
200.4850727938
 20
217.7079026346
  0
LWPOLYLINE
  5
F1
330
1F
100
AcDbEntity
  8
0
  6
Continuous
 62
     8
370
    15
100
AcDbPolyline
 90
        7
 70
   128
 43
0.0
 10
193.4641058981
 20
217.7068779748
 10
193.4998245082
 20
217.9369015394
 10
193.7813295602
 20
218.3869924539
 10
194.3215337992
 20
218.7816181388
 10
195.0766730902
 20
219.0888083681
 10
195.9855705391
 20
219.2836764163
 10
196.9745926799
 20
219.3504352332
  0
LWPOLYLINE
  5
F2
330
1F
100
AcDbEntity
  8
0
  6
Continuous
 62
     8
370
     0
100
AcDbPolyline
 90
       21
 70
   128
 43
0.0
 10
196.9745926799
 20
218.6721970266
 10
196.0447605439
 20
218.6030575071
 10
195.2059468558
 20
218.4024068064
 10
194.5402605439
 20
218.0898860133
 10
194.1128636224
 20
217.6960868402
 10
193.9655926799
 20
217.2595570942
 10
194.1128636224
 20
216.8230273481
 10
194.5402605439
 20
216.4292281751
 10
195.2059468558
 20
216.1167073819
 10
196.0447605439
 20
215.9160566813
 10
196.9745926799
 20
215.8469171618
 10
197.904424816
 20
215.9160566813
 10
198.7432385041
 20
216.1167073819
 10
199.408924816
 20
216.4292281751
 10
199.8363217375
 20
216.8230273481
 10
199.9835926799
 20
217.2595570942
 10
199.8363217375
 20
217.6960868402
 10
199.408924816
 20
218.0898860133
 10
198.7432385041
 20
218.4024068064
 10
197.904424816
 20
218.6030575071
 10
196.9745926799
 20
218.6721970266
  0
SPLINE
  5
F3
330
1F
100
AcDbEntity
  8
0
  6
Continuous
 62
     8
370
     0
100
AcDbSpline
210
0.0
220
0.0
230
1.0
 70
     8
 71
     3
 72
    28
 73
    24
 74
     0
 42
0.00000001
 43
0.00000001
 40
0.0
 40
0.0
 40
0.0
 40
0.0
 40
0.0116680606312844
 40
0.0775392167681551
 40
0.1358809541801739
 40
0.1955016923591575
 40
0.2448094085015162
 40
0.2950640411374004
 40
0.3369262989936296
 40
0.3796524496695223
 40
0.4194353322417997
 40
0.4603342347958825
 40
0.4998548983099456
 40
0.5407181904344247
 40
0.585204545507949
 40
0.6313291812526444
 40
0.6808624753097954
 40
0.7318274531098183
 40
0.7958968328073993
 40
0.861956173832717
 40
0.9220068834600041
 40
0.9834511174321906
 40
1.0
 40
1.0
 40
1.0
 40
1.0
 10
200.4753604145733
 20
286.3072462616084
 30
0.0
 10
200.4784108900426
 20
286.3051025965128
 30
0.0
 10
200.4986825946672
 20
286.290857031823
 30
0.0
 10
200.4103937201928
 20
286.2417117388106
 30
0.0
 10
200.2213443350939
 20
286.1646529062369
 30
0.0
 10
199.9457526883005
 20
286.0806960559752
 30
0.0
 10
199.6051017260741
 20
285.9959377321642
 30
0.0
 10
199.2362256705923
 20
285.9203158150814
 30
0.0
 10
198.8279052817654
 20
285.8527272914532
 30
0.0
 10
198.404965287829
 20
285.7979976026317
 30
0.0
 10
197.9457118417226
 20
285.7553122773799
 30
0.0
 10
197.4687900826482
 20
285.7284681353193
 30
0.0
 10
196.9713944736828
 20
285.7191353420669
 30
0.0
 10
196.4591468881461
 20
285.7288934815939
 30
0.0
 10
195.9388489502968
 20
285.7595639889495
 30
0.0
 10
195.4246036102998
 20
285.8110688578545
 30
0.0
 10
194.943708983476
 20
285.8794359113678
 30
0.0
 10
194.478492683898
 20
285.9654801159206
 30
0.0
 10
194.0634581886077
 20
286.0632062659271
 30
0.0
 10
193.7411196179428
 20
286.1596606372583
 30
0.0
 10
193.5435230132632
 20
286.2391303313706
 30
0.0
 10
193.4582262785466
 20
286.2881018557455
 30
0.0
 10
193.4711820582364
 20
286.3038888455126
 30
0.0
 10
193.4739310659203
 20
286.3072385903534
 30
0.0
  0
LWPOLYLINE
  5
F4
330
1F
100
AcDbEntity
  8
0
  6
Continuous
 62
     8
370
     0
100
AcDbPolyline
 90
       17
 70
   128
 43
0.0
 10
196.9745926799
 20
109.2761472108
 10
195.1701993429
 20
109.2094781009
 10
193.4102361583
 20
109.011112386
 10
191.7380392607
 20
108.6859344883
 10
190.1947836874
 20
108.2419513668
 10
188.8184695123
 20
107.6900953596
 10
187.6429861583
 20
107.0439549929
 10
186.6972779267
 20
106.3194403871
 10
186.0046312927
 20
105.5343914963
 10
185.5821015153
 20
104.7081388296
 10
185.4400926799
 20
103.8610274698
 10
185.5821015153
 20
103.01391611
 10
186.0046312927
 20
102.1876634433
 10
186.6972779267
 20
101.4026145525
 10
187.6429861583
 20
100.6780999467
 10
188.8184695123
 20
100.03195958
 10
190.0048436975
 20
99.5462980125
  0
LWPOLYLINE
  5
F5
330
1F
100
AcDbEntity
  8
0
  6
Continuous
 62
     8
370
     0
100
AcDbPolyline
 90
       18
 70
   128
 43
0.0
 10
203.6569716875
 20
99.4472331764
 10
203.7544016725
 20
99.4801035728
 10
205.1307158475
 20
100.03195958
 10
206.3061992015
 20
100.6780999467
 10
207.2519074332
 20
101.4026145525
 10
207.9445540671
 20
102.1876634433
 10
208.3670838445
 20
103.01391611
 10
208.5090926799
 20
103.8610274698
 10
208.3670838445
 20
104.7081388296
 10
207.9445540671
 20
105.5343914963
 10
207.2519074332
 20
106.3194403871
 10
206.3061992015
 20
107.0439549929
 10
205.1307158475
 20
107.6900953596
 10
203.7544016725
 20
108.2419513668
 10
202.2111460992
 20
108.6859344883
 10
200.5389492015
 20
109.011112386
 10
198.7789860169
 20
109.2094781009
 10
196.9745926799
 20
109.2761472108
  0
LWPOLYLINE
  5
F6
330
1F
100
AcDbEntity
  8
0
  6
Continuous
 62
     8
370
    15
100
AcDbPolyline
 90
       12
 70
   128
 43
0.0
 10
196.9745926799
 20
109.9543854173
 10
198.8118794648
 20
109.8881632519
 10
200.6061018046
 20
109.691048947
 10
202.3152046485
 20
109.3676626949
 10
203.8991280743
 20
108.9255843953
 10
205.3207462595
 20
108.3751759888
 10
206.5467376786
 20
107.7293385819
 10
207.5483661319
 20
107.0032100562
 10
208.3021542974
 20
106.2138102487
 10
208.7904340194
 20
105.379642022
 10
209.0017604351
 20
104.5202575721
 10
209.008889045
 20
104.3988945469
  0
LWPOLYLINE
  5
F7
330
1F
100
AcDbEntity
  8
0
  6
Continuous
 62
     8
370
    15
100
AcDbPolyline
 90
       12
 70
   128
 43
0.0
 10
184.9385926799
 20
104.3038256876
 10
184.9474249248
 20
104.5202575721
 10
185.1587513404
 20
105.379642022
 10
185.6470310624
 20
106.2138102487
 10
186.400819228
 20
107.0032100562
 10
187.4024476813
 20
107.7293385819
 10
188.6284391004
 20
108.3751759888
 10
190.0500572855
 20
108.9255843953
 10
191.6339807114
 20
109.3676626949
 10
193.3430835552
 20
109.691048947
 10
195.1373058951
 20
109.8881632519
 10
196.9745926799
 20
109.9543854173
  0
CIRCLE
  5
F8
330
1F
100
AcDbEntity
  8
0
  6
Continuous
 62
     8
370
     0
100
AcDbCircle
 10
196.9745926799
 20
309.026692024
 30
0.0
 40
22.02588
  0
LINE
  5
F9
330
1F
100
AcDbEntity
  8
0
  6
Continuous
 62
     8
370
     0
100
AcDbLine
 10
193.1818297909
 20
285.455643012
 30
0.0
 11
193.4640926799
 21
285.455643012
 31
0.0
  0
LINE
  5
FA
330
1F
100
AcDbEntity
  8
0
  6
Continuous
 62
     8
370
     0
100
AcDbLine
 10
200.4850926799
 20
285.455643012
 30
0.0
 11
200.7673555689
 21
285.455643012
 31
0.0
  0
ENDSEC
  0
SECTION
  2
OBJECTS
  0
DICTIONARY
  5
C
330
0
100
AcDbDictionary
281
     1
  3
ACAD_GROUP
350
D
  3
ACAD_LAYOUT
350
1A
  3
ACAD_MATERIAL
350
3B
  3
ACAD_MLEADERSTYLE
350
FC
  3
ACAD_MLINESTYLE
350
17
  3
ACAD_PLOTSETTINGS
350
19
  3
ACAD_PLOTSTYLENAME
350
E
  3
ACAD_TABLESTYLE
350
FB
  3
ACAD_VISUALSTYLE
350
2A
  0
DICTIONARY
  5
D
102
{ACAD_REACTORS
330
C
102
}
330
C
100
AcDbDictionary
281
     1
  0
DICTIONARY
  5
1A
102
{ACAD_REACTORS
330
C
102
}
330
C
100
AcDbDictionary
281
     1
  3
Layout1
350
1E
  3
Layout2
350
26
  3
Model
350
22
  0
DICTIONARY
  5
3B
102
{ACAD_REACTORS
330
C
102
}
330
C
100
AcDbDictionary
281
     1
  3
ByBlock
350
3D
  3
ByLayer
350
3C
  3
Global
350
3E
  0
DICTIONARY
  5
FC
102
{ACAD_REACTORS
330
C
102
}
330
C
100
AcDbDictionary
281
     1
  0
DICTIONARY
  5
17
102
{ACAD_REACTORS
330
C
102
}
330
C
100
AcDbDictionary
281
     1
  3
Standard
350
18
  0
DICTIONARY
  5
19
102
{ACAD_REACTORS
330
C
102
}
330
C
100
AcDbDictionary
281
     1
  0
ACDBDICTIONARYWDFLT
  5
E
102
{ACAD_REACTORS
330
C
102
}
330
C
100
AcDbDictionary
281
     1
  3
Normal
350
F
100
AcDbDictionaryWithDefault
340
F
  0
DICTIONARY
  5
FB
102
{ACAD_REACTORS
330
C
102
}
330
C
100
AcDbDictionary
281
     1
  0
DICTIONARY
  5
2A
102
{ACAD_REACTORS
330
C
102
}
330
C
100
AcDbDictionary
281
     1
  3
2dWireframe
350
2F
  3
3D Hidden
350
31
  3
3dWireframe
350
30
  3
Basic
350
32
  3
Brighten
350
36
  3
ColorChange
350
3A
  3
Conceptual
350
34
  3
Dim
350
35
  3
Facepattern
350
39
  3
Flat
350
2B
  3
FlatWithEdges
350
2C
  3
Gouraud
350
2D
  3
GouraudWithEdges
350
2E
  3
Linepattern
350
38
  3
Realistic
350
33
  3
Thicken
350
37
  0
LAYOUT
  5
1E
102
{ACAD_REACTORS
330
1A
102
}
330
1A
100
AcDbPlotSettings
  1

  2
none_device
  4

  6

 40
0.0
 41
0.0
 42
0.0
 43
0.0
 44
0.0
 45
0.0
 46
0.0
 47
0.0
 48
0.0
 49
0.0
140
0.0
141
0.0
142
1.0
143
1.0
 70
   688
 72
     0
 73
     0
 74
     5
  7

 75
    16
 76
     0
 77
     2
 78
   300
147
1.0
148
0.0
149
0.0
100
AcDbLayout
  1
Layout1
 70
     1
 71
     1
 10
0.0
 20
0.0
 11
420.0
 21
297.0
 12
0.0
 22
0.0
 32
0.0
 14
1.0000000000E+20
 24
1.0000000000E+20
 34
1.0000000000E+20
 15
-1.0000000000E+20
 25
-1.0000000000E+20
 35
-1.0000000000E+20
146
0.0
 13
0.0
 23
0.0
 33
0.0
 16
1.0
 26
0.0
 36
0.0
 17
0.0
 27
1.0
 37
0.0
 76
     0
330
1B
  0
LAYOUT
  5
26
102
{ACAD_REACTORS
330
1A
102
}
330
1A
100
AcDbPlotSettings
  1

  2
none_device
  4

  6

 40
0.0
 41
0.0
 42
0.0
 43
0.0
 44
0.0
 45
0.0
 46
0.0
 47
0.0
 48
0.0
 49
0.0
140
0.0
141
0.0
142
1.0
143
1.0
 70
   688
 72
     0
 73
     0
 74
     5
  7

 75
    16
 76
     0
 77
     2
 78
   300
147
1.0
148
0.0
149
0.0
100
AcDbLayout
  1
Layout2
 70
     1
 71
     2
 10
0.0
 20
0.0
 11
0.0
 21
0.0
 12
0.0
 22
0.0
 32
0.0
 14
0.0
 24
0.0
 34
0.0
 15
0.0
 25
0.0
 35
0.0
146
0.0
 13
0.0
 23
0.0
 33
0.0
 16
1.0
 26
0.0
 36
0.0
 17
0.0
 27
1.0
 37
0.0
 76
     0
330
23
  0
LAYOUT
  5
22
102
{ACAD_REACTORS
330
1A
102
}
330
1A
100
AcDbPlotSettings
  1

  2
none_device
  4

  6

 40
0.0
 41
0.0
 42
0.0
 43
0.0
 44
0.0
 45
0.0
 46
0.0
 47
0.0
 48
0.0
 49
0.0
140
0.0
141
0.0
142
1.0
143
1.0
 70
  1712
 72
     0
 73
     0
 74
     0
  7

 75
     0
 76
     0
 77
     2
 78
   300
147
1.0
148
0.0
149
0.0
100
AcDbLayout
  1
Model
 70
     1
 71
     0
 10
0.0
 20
0.0
 11
594.0
 21
841.0
 12
0.0
 22
0.0
 32
0.0
 14
0.0
 24
0.0
 34
0.0
 15
594.0
 25
841.0
 35
0.0
146
0.0
 13
0.0
 23
0.0
 33
0.0
 16
1.0
 26
0.0
 36
0.0
 17
0.0
 27
1.0
 37
0.0
 76
     0
330
1F
331
29
  0
MATERIAL
  5
3D
102
{ACAD_REACTORS
330
3B
102
}
330
3B
100
AcDbMaterial
  1
ByBlock
 72
     1
 94
      127
  0
MATERIAL
  5
3C
102
{ACAD_REACTORS
330
3B
102
}
330
3B
100
AcDbMaterial
  1
ByLayer
 72
     1
 94
      127
  0
MATERIAL
  5
3E
102
{ACAD_REACTORS
330
3B
102
}
330
3B
100
AcDbMaterial
  1
Global
 72
     1
 94
      127
  0
MLINESTYLE
  5
18
102
{ACAD_REACTORS
330
17
102
}
330
17
100
AcDbMlineStyle
  2
Standard
 70
     0
  3

 62
   256
 51
90.0
 52
90.0
 71
     2
 49
0.5
 62
   256
  6
BYLAYER
 49
-0.5
 62
   256
  6
BYLAYER
  0
ACDBPLACEHOLDER
  5
F
102
{ACAD_REACTORS
330
E
102
}
330
E
  0
VISUALSTYLE
  5
2F
102
{ACAD_REACTORS
330
2A
102
}
330
2A
100
AcDbVisualStyle
  2
2dWireframe
 70
     4
177
     2
291
     0
 71
     0
176
     1
 72
     2
176
     1
 73
     0
176
     1
 90
        0
176
     1
 40
-0.6
176
     1
 41
-30.0
176
     1
 62
     5
 63
     7
421
 16777215
176
     1
 74
     1
176
     1
 91
        4
176
     1
 64
     7
176
     1
 65
   257
176
     1
 75
     1
176
     1
175
     1
176
     1
 42
1.0
176
     1
 92
        0
176
     1
 66
   257
176
     1
 43
1.0
176
     1
 76
     1
176
     1
 77
     6
176
     1
 78
     2
176
     1
 67
     7
176
     1
 79
     5
176
     1
170
     0
176
     1
171
     0
176
     1
290
     0
176
     1
 93
        1
176
     1
 44
0.0
176
     1
173
     0
176
     1
  0
VISUALSTYLE
  5
31
102
{ACAD_REACTORS
330
2A
102
}
330
2A
100
AcDbVisualStyle
  2
3D Hidden
 70
     6
177
     2
291
     0
 71
     1
176
     1
 72
     2
176
     1
 73
     2
176
     1
 90
        0
176
     1
 40
-0.6
176
     1
 41
-30.0
176
     1
 62
     5
 63
     7
421
 16777215
176
     1
 74
     2
176
     1
 91
        2
176
     1
 64
     7
176
     1
 65
   257
176
     1
 75
     2
176
     1
175
     1
176
     1
 42
40.0
176
     1
 92
        0
176
     1
 66
   257
176
     1
 43
1.0
176
     1
 76
     1
176
     1
 77
     6
176
     1
 78
     2
176
     1
 67
     7
176
     1
 79
     3
176
     1
170
     0
176
     1
171
     0
176
     1
290
     0
176
     1
 93
        1
176
     1
 44
0.0
176
     1
173
     0
176
     1
  0
VISUALSTYLE
  5
30
102
{ACAD_REACTORS
330
2A
102
}
330
2A
100
AcDbVisualStyle
  2
3dWireframe
 70
     5
177
     2
291
     0
 71
     0
176
     1
 72
     2
176
     1
 73
     0
176
     1
 90
        0
176
     1
 40
-0.6
176
     1
 41
-30.0
176
     1
 62
     5
 63
     7
421
 16777215
176
     1
 74
     1
176
     1
 91
        4
176
     1
 64
     7
176
     1
 65
   257
176
     1
 75
     1
176
     1
175
     1
176
     1
 42
1.0
176
     1
 92
        0
176
     1
 66
   257
176
     1
 43
1.0
176
     1
 76
     1
176
     1
 77
     6
176
     1
 78
     2
176
     1
 67
     7
176
     1
 79
     5
176
     1
170
     0
176
     1
171
     0
176
     1
290
     0
176
     1
 93
        1
176
     1
 44
0.0
176
     1
173
     0
176
     1
  0
VISUALSTYLE
  5
32
102
{ACAD_REACTORS
330
2A
102
}
330
2A
100
AcDbVisualStyle
  2
Basic
 70
     7
177
     2
291
     1
 71
     1
176
     1
 72
     0
176
     1
 73
     1
176
     1
 90
        0
176
     1
 40
-0.6
176
     1
 41
-30.0
176
     1
 62
     5
 63
     7
421
 16777215
176
     1
 74
     0
176
     1
 91
        4
176
     1
 64
     7
176
     1
 65
   257
176
     1
 75
     1
176
     1
175
     1
176
     1
 42
1.0
176
     1
 92
        8
176
     1
 66
     7
176
     1
 43
1.0
176
     1
 76
     1
176
     1
 77
     6
176
     1
 78
     2
176
     1
 67
     7
176
     1
 79
     5
176
     1
170
     0
176
     1
171
     0
176
     1
290
     0
176
     1
 93
        1
176
     1
 44
0.0
176
     1
173
     0
176
     1
  0
VISUALSTYLE
  5
36
102
{ACAD_REACTORS
330
2A
102
}
330
2A
100
AcDbVisualStyle
  2
Brighten
 70
    12
177
     2
291
     1
 71
     2
176
     1
 72
     2
176
     1
 73
     0
176
     1
 90
        0
176
     1
 40
-0.6
176
     1
 41
-30.0
176
     1
 62
     5
 63
     7
421
 16777215
176
     1
 74
     1
176
     1
 91
        4
176
     1
 64
     7
176
     1
 65
   257
176
     1
 75
     1
176
     1
175
     1
176
     1
 42
1.0
176
     1
 92
        8
176
     1
 66
     7
176
     1
 43
1.0
176
     1
 76
     1
176
     1
 77
     6
176
     1
 78
     2
176
     1
 67
     7
176
     1
 79
     5
176
     1
170
     0
176
     1
171
     0
176
     1
290
     0
176
     1
 93
        1
176
     1
 44
50.0
176
     1
173
     0
176
     1
  0
VISUALSTYLE
  5
3A
102
{ACAD_REACTORS
330
2A
102
}
330
2A
100
AcDbVisualStyle
  2
ColorChange
 70
    16
177
     2
291
     1
 71
     2
176
     1
 72
     2
176
     1
 73
     3
176
     1
 90
        0
176
     1
 40
-0.6
176
     1
 41
-30.0
176
     1
 62
     5
 63
     8
421
  8421504
176
     1
 74
     1
176
     1
 91
        4
176
     1
 64
     7
176
     1
 65
   257
176
     1
 75
     1
176
     1
175
     1
176
     1
 42
1.0
176
     1
 92
        8
176
     1
 66
     8
424
  8421504
176
     1
 43
1.0
176
     1
 76
     1
176
     1
 77
     6
176
     1
 78
     2
176
     1
 67
     7
176
     1
 79
     5
176
     1
170
     0
176
     1
171
     0
176
     1
290
     0
176
     1
 93
        1
176
     1
 44
0.0
176
     1
173
     0
176
     1
  0
VISUALSTYLE
  5
34
102
{ACAD_REACTORS
330
2A
102
}
330
2A
100
AcDbVisualStyle
  2
Conceptual
 70
     9
177
     2
291
     0
 71
     3
176
     1
 72
     2
176
     1
 73
     0
176
     1
 90
        0
176
     1
 40
-0.6
176
     1
 41
-30.0
176
     1
 62
     5
 63
     7
421
 16777215
176
     1
 74
     2
176
     1
 91
        2
176
     1
 64
     7
176
     1
 65
   257
176
     1
 75
     1
176
     1
175
     1
176
     1
 42
40.0
176
     1
 92
        8
176
     1
 66
     7
176
     1
 43
1.0
176
     1
 76
     1
176
     1
 77
     6
176
     1
 78
     2
176
     1
 67
     7
176
     1
 79
     3
176
     1
170
     0
176
     1
171
     0
176
     1
290
     0
176
     1
 93
        1
176
     1
 44
0.0
176
     1
173
     0
176
     1
  0
VISUALSTYLE
  5
35
102
{ACAD_REACTORS
330
2A
102
}
330
2A
100
AcDbVisualStyle
  2
Dim
 70
    11
177
     2
291
     1
 71
     2
176
     1
 72
     2
176
     1
 73
     0
176
     1
 90
        0
176
     1
 40
-0.6
176
     1
 41
-30.0
176
     1
 62
     5
 63
     7
421
 16777215
176
     1
 74
     1
176
     1
 91
        4
176
     1
 64
     7
176
     1
 65
   257
176
     1
 75
     1
176
     1
175
     1
176
     1
 42
1.0
176
     1
 92
        8
176
     1
 66
     7
176
     1
 43
1.0
176
     1
 76
     1
176
     1
 77
     6
176
     1
 78
     2
176
     1
 67
     7
176
     1
 79
     5
176
     1
170
     0
176
     1
171
     0
176
     1
290
     0
176
     1
 93
        1
176
     1
 44
-50.0
176
     1
173
     0
176
     1
  0
VISUALSTYLE
  5
39
102
{ACAD_REACTORS
330
2A
102
}
330
2A
100
AcDbVisualStyle
  2
Facepattern
 70
    15
177
     2
291
     1
 71
     2
176
     1
 72
     2
176
     1
 73
     0
176
     1
 90
        0
176
     1
 40
-0.6
176
     1
 41
-30.0
176
     1
 62
     5
 63
     7
421
 16777215
176
     1
 74
     1
176
     1
 91
        4
176
     1
 64
     7
176
     1
 65
   257
176
     1
 75
     1
176
     1
175
     1
176
     1
 42
1.0
176
     1
 92
        8
176
     1
 66
     7
176
     1
 43
1.0
176
     1
 76
     1
176
     1
 77
     6
176
     1
 78
     2
176
     1
 67
     7
176
     1
 79
     5
176
     1
170
     0
176
     1
171
     0
176
     1
290
     0
176
     1
 93
        1
176
     1
 44
0.0
176
     1
173
     0
176
     1
  0
VISUALSTYLE
  5
2B
102
{ACAD_REACTORS
330
2A
102
}
330
2A
100
AcDbVisualStyle
  2
Flat
 70
     0
177
     2
291
     1
 71
     2
176
     1
 72
     1
176
     1
 73
     1
176
     1
 90
        2
176
     1
 40
-0.6
176
     1
 41
30.0
176
     1
 62
     5
 63
     7
421
 16777215
176
     1
 74
     0
176
     1
 91
        4
176
     1
 64
     7
176
     1
 65
   257
176
     1
 75
     1
176
     1
175
     1
176
     1
 42
1.0
176
     1
 92
        8
176
     1
 66
     7
176
     1
 43
1.0
176
     1
 76
     1
176
     1
 77
     6
176
     1
 78
     2
176
     1
 67
     7
176
     1
 79
     5
176
     1
170
     0
176
     1
171
     0
176
     1
290
     0
176
     1
 93
       13
176
     1
 44
0.0
176
     1
173
     0
176
     1
  0
VISUALSTYLE
  5
2C
102
{ACAD_REACTORS
330
2A
102
}
330
2A
100
AcDbVisualStyle
  2
FlatWithEdges
 70
     1
177
     2
291
     1
 71
     2
176
     1
 72
     1
176
     1
 73
     1
176
     1
 90
        2
176
     1
 40
-0.6
176
     1
 41
30.0
176
     1
 62
     5
 63
     7
421
 16777215
176
     1
 74
     1
176
     1
 91
        4
176
     1
 64
     7
176
     1
 65
   257
176
     1
 75
     1
176
     1
175
     1
176
     1
 42
1.0
176
     1
 92
        0
176
     1
 66
   257
176
     1
 43
1.0
176
     1
 76
     1
176
     1
 77
     6
176
     1
 78
     2
176
     1
 67
     7
176
     1
 79
     5
176
     1
170
     0
176
     1
171
     0
176
     1
290
     0
176
     1
 93
       13
176
     1
 44
0.0
176
     1
173
     0
176
     1
  0
VISUALSTYLE
  5
2D
102
{ACAD_REACTORS
330
2A
102
}
330
2A
100
AcDbVisualStyle
  2
Gouraud
 70
     2
177
     2
291
     1
 71
     2
176
     1
 72
     2
176
     1
 73
     1
176
     1
 90
        2
176
     1
 40
-0.6
176
     1
 41
30.0
176
     1
 62
     5
 63
     7
421
 16777215
176
     1
 74
     0
176
     1
 91
        4
176
     1
 64
     7
176
     1
 65
   257
176
     1
 75
     1
176
     1
175
     1
176
     1
 42
1.0
176
     1
 92
        0
176
     1
 66
     7
176
     1
 43
1.0
176
     1
 76
     1
176
     1
 77
     6
176
     1
 78
     2
176
     1
 67
     7
176
     1
 79
     5
176
     1
170
     0
176
     1
171
     0
176
     1
290
     0
176
     1
 93
       13
176
     1
 44
0.0
176
     1
173
     0
176
     1
  0
VISUALSTYLE
  5
2E
102
{ACAD_REACTORS
330
2A
102
}
330
2A
100
AcDbVisualStyle
  2
GouraudWithEdges
 70
     3
177
     2
291
     1
 71
     2
176
     1
 72
     2
176
     1
 73
     1
176
     1
 90
        2
176
     1
 40
-0.6
176
     1
 41
30.0
176
     1
 62
     5
 63
     7
421
 16777215
176
     1
 74
     1
176
     1
 91
        4
176
     1
 64
     7
176
     1
 65
   257
176
     1
 75
     1
176
     1
175
     1
176
     1
 42
1.0
176
     1
 92
        0
176
     1
 66
   257
176
     1
 43
1.0
176
     1
 76
     1
176
     1
 77
     6
176
     1
 78
     2
176
     1
 67
     7
176
     1
 79
     5
176
     1
170
     0
176
     1
171
     0
176
     1
290
     0
176
     1
 93
       13
176
     1
 44
0.0
176
     1
173
     0
176
     1
  0
VISUALSTYLE
  5
38
102
{ACAD_REACTORS
330
2A
102
}
330
2A
100
AcDbVisualStyle
  2
Linepattern
 70
    14
177
     2
291
     1
 71
     2
176
     1
 72
     2
176
     1
 73
     0
176
     1
 90
        0
176
     1
 40
-0.6
176
     1
 41
-30.0
176
     1
 62
     5
 63
     7
421
 16777215
176
     1
 74
     1
176
     1
 91
        4
176
     1
 64
     7
176
     1
 65
   257
176
     1
 75
     7
176
     1
175
     7
176
     1
 42
1.0
176
     1
 92
        8
176
     1
 66
     7
176
     1
 43
1.0
176
     1
 76
     1
176
     1
 77
     6
176
     1
 78
     2
176
     1
 67
     7
176
     1
 79
     5
176
     1
170
     0
176
     1
171
     0
176
     1
290
     0
176
     1
 93
        1
176
     1
 44
0.0
176
     1
173
     0
176
     1
  0
VISUALSTYLE
  5
33
102
{ACAD_REACTORS
330
2A
102
}
330
2A
100
AcDbVisualStyle
  2
Realistic
 70
     8
177
     2
291
     0
 71
     2
176
     1
 72
     2
176
     1
 73
     0
176
     1
 90
        0
176
     1
 40
-0.6
176
     1
 41
-30.0
176
     1
 62
     5
 63
     7
421
 16777215
176
     1
 74
     1
176
     1
 91
        0
176
     1
 64
     7
176
     1
 65
   257
176
     1
 75
     1
176
     1
175
     1
176
     1
 42
1.0
176
     1
 92
        8
176
     1
 66
     8
424
  7895160
176
     1
 43
1.0
176
     1
 76
     1
176
     1
 77
     6
176
     1
 78
     2
176
     1
 67
     7
176
     1
 79
     5
176
     1
170
     0
176
     1
171
     0
176
     1
290
     0
176
     1
 93
       13
176
     1
 44
0.0
176
     1
173
     0
176
     1
  0
VISUALSTYLE
  5
37
102
{ACAD_REACTORS
330
2A
102
}
330
2A
100
AcDbVisualStyle
  2
Thicken
 70
    13
177
     2
291
     1
 71
     2
176
     1
 72
     2
176
     1
 73
     0
176
     1
 90
        0
176
     1
 40
-0.6
176
     1
 41
-30.0
176
     1
 62
     5
 63
     7
421
 16777215
176
     1
 74
     1
176
     1
 91
        4
176
     1
 64
     7
176
     1
 65
   257
176
     1
 75
     1
176
     1
175
     1
176
     1
 42
1.0
176
     1
 92
       12
176
     1
 66
     7
176
     1
 43
1.0
176
     1
 76
     1
176
     1
 77
     6
176
     1
 78
     2
176
     1
 67
     7
176
     1
 79
     5
176
     1
170
     0
176
     1
171
     0
176
     1
290
     0
176
     1
 93
        1
176
     1
 44
0.0
176
     1
173
     0
176
     1
  0
ENDSEC
  0
EOF
