  0
SECTION
  2
HEADER
  9
$ACADVER
  1
AC1014
  9
$ACADMAINTVER
 70
     9
  9
$DWGCODEPAGE
  3
ANSI_1252
  9
$INSBASE
 10
0.0
 20
0.0
 30
0.0
  9
$EXTMIN
 10
0.0
 20
0.0
 30
0.0
  9
$EXTMAX
 10
594.0
 20
841.0
 30
0.0
  9
$LIMMIN
 10
0.0
 20
0.0
  9
$LIMMAX
 10
594.0
 20
841.0
  9
$ORTHOMODE
 70
     0
  9
$REGENMODE
 70
     1
  9
$FILLMODE
 70
     1
  9
$QTEXTMODE
 70
     0
  9
$MIRRTEXT
 70
     1
  9
$DRAGMODE
 70
     2
  9
$LTSCALE
 40
1.0
  9
$OSMODE
 70
    37
  9
$ATTMODE
 70
     1
  9
$TEXTSIZE
 40
10.0
  9
$TRACEWID
 40
1.0
  9
$TEXTSTYLE
  7
STANDARD
  9
$CLAYER
  8
0
  9
$CELTYPE
  6
BYLAYER
  9
$CECOLOR
 62
   256
  9
$CELTSCALE
 40
1.0
  9
$DELOBJ
 70
     1
  9
$DISPSILH
 70
     0
  9
$DIMSCALE
 40
1.0
  9
$DIMASZ
 40
2.5
  9
$DIMEXO
 40
0.0
  9
$DIMDLI
 40
3.75
  9
$DIMRND
 40
0.0
  9
$DIMDLE
 40
0.0
  9
$DIMEXE
 40
1.0
  9
$DIMTP
 40
0.0
  9
$DIMTM
 40
0.0
  9
$DIMTXT
 40
3.5
  9
$DIMCEN
 40
2.5
  9
$DIMTSZ
 40
0.0
  9
$DIMTOL
 70
     0
  9
$DIMLIM
 70
     0
  9
$DIMTIH
 70
     1
  9
$DIMTOH
 70
     1
  9
$DIMSE1
 70
     0
  9
$DIMSE2
 70
     0
  9
$DIMTAD
 70
     1
  9
$DIMZIN
 70
     0
  9
$DIMBLK
  1

  9
$DIMASO
 70
     1
  9
$DIMSHO
 70
     1
  9
$DIMPOST
  1

  9
$DIMAPOST
  1

  9
$DIMALT
 70
     0
  9
$DIMALTD
 70
     3
  9
$DIMALTF
 40
0.0393700787
  9
$DIMLFAC
 40
1.0
  9
$DIMTOFL
 70
     1
  9
$DIMTVP
 40
0.0
  9
$DIMTIX
 70
     0
  9
$DIMSOXD
 70
     0
  9
$DIMSAH
 70
     0
  9
$DIMBLK1
  1

  9
$DIMBLK2
  1

  9
$DIMSTYLE
  2
ISO-25
  9
$DIMCLRD
 70
     0
  9
$DIMCLRE
 70
     0
  9
$DIMCLRT
 70
     0
  9
$DIMTFAC
 40
1.0
  9
$DIMGAP
 40
1.5
  9
$DIMJUST
 70
     0
  9
$DIMSD1
 70
     0
  9
$DIMSD2
 70
     0
  9
$DIMTOLJ
 70
     0
  9
$DIMTZIN
 70
     0
  9
$DIMALTZ
 70
     0
  9
$DIMALTTZ
 70
     0
  9
$DIMFIT
 70
     3
  9
$DIMUPT
 70
     0
  9
$DIMUNIT
 70
     2
  9
$DIMDEC
 70
     2
  9
$DIMTDEC
 70
     2
  9
$DIMALTU
 70
     2
  9
$DIMALTTD
 70
     3
  9
$DIMTXSTY
  7
STANDARD
  9
$DIMAUNIT
 70
     0
  9
$LUNITS
 70
     2
  9
$LUPREC
 70
     2
  9
$SKETCHINC
 40
1.0
  9
$FILLETRAD
 40
10.0
  9
$AUNITS
 70
     0
  9
$AUPREC
 70
     2
  9
$MENU
  1
.
  9
$ELEVATION
 40
0.0
  9
$PELEVATION
 40
0.0
  9
$THICKNESS
 40
0.0
  9
$LIMCHECK
 70
     0
  9
$CHAMFERA
 40
0.0
  9
$CHAMFERB
 40
0.0
  9
$CHAMFERC
 40
0.0
  9
$CHAMFERD
 40
0.0
  9
$SKPOLY
 70
     0
  9
$TDCREATE
 40
2457351.628952998
  9
$TDUPDATE
 40
2457351.628954629
  9
$TDINDWG
 40
0.0000000116
  9
$TDUSRTIMER
 40
0.0000000116
  9
$USRTIMER
 70
     1
  9
$ANGBASE
 50
0.0
  9
$ANGDIR
 70
     0
  9
$PDMODE
 70
     0
  9
$PDSIZE
 40
-1.0
  9
$PLINEWID
 40
0.0
  9
$COORDS
 70
     1
  9
$SPLFRAME
 70
     0
  9
$SPLINETYPE
 70
     6
  9
$SPLINESEGS
 70
     8
  9
$ATTDIA
 70
     0
  9
$ATTREQ
 70
     1
  9
$HANDLING
 70
     1
  9
$HANDSEED
  5
376
  9
$SURFTAB1
 70
     6
  9
$SURFTAB2
 70
     6
  9
$SURFTYPE
 70
     6
  9
$SURFU
 70
     6
  9
$SURFV
 70
     6
  9
$UCSNAME
  2

  9
$UCSORG
 10
0.0
 20
0.0
 30
0.0
  9
$UCSXDIR
 10
1.0
 20
0.0
 30
0.0
  9
$UCSYDIR
 10
0.0
 20
1.0
 30
0.0
  9
$PUCSNAME
  2

  9
$PUCSORG
 10
0.0
 20
0.0
 30
0.0
  9
$PUCSXDIR
 10
1.0
 20
0.0
 30
0.0
  9
$PUCSYDIR
 10
0.0
 20
1.0
 30
0.0
  9
$USERI1
 70
     0
  9
$USERI2
 70
     0
  9
$USERI3
 70
     0
  9
$USERI4
 70
     0
  9
$USERI5
 70
     0
  9
$USERR1
 40
0.0
  9
$USERR2
 40
0.0
  9
$USERR3
 40
0.0
  9
$USERR4
 40
0.0
  9
$USERR5
 40
0.0
  9
$WORLDVIEW
 70
     1
  9
$SHADEDGE
 70
     3
  9
$SHADEDIF
 70
    70
  9
$TILEMODE
 70
     1
  9
$MAXACTVP
 70
    64
  9
$PINSBASE
 10
0.0
 20
0.0
 30
0.0
  9
$PLIMCHECK
 70
     0
  9
$PEXTMIN
 10
1.0000000000E+20
 20
1.0000000000E+20
 30
1.0000000000E+20
  9
$PEXTMAX
 10
-1.0000000000E+20
 20
-1.0000000000E+20
 30
-1.0000000000E+20
  9
$PLIMMIN
 10
0.0
 20
0.0
  9
$PLIMMAX
 10
420.0
 20
297.0
  9
$UNITMODE
 70
     0
  9
$VISRETAIN
 70
     1
  9
$PLINEGEN
 70
     0
  9
$PSLTSCALE
 70
     1
  9
$TREEDEPTH
 70
  3020
  9
$PICKSTYLE
 70
     1
  9
$CMLSTYLE
  2
STANDARD
  9
$CMLJUST
 70
     0
  9
$CMLSCALE
 40
20.0
  9
$PROXYGRAPHICS
 70
     1
  9
$MEASUREMENT
 70
     1
  0
ENDSEC
  0
SECTION
  2
CLASSES
  0
CLASS
  1
ACDBDICTIONARYWDFLT
  2
AcDbDictionaryWithDefault
  3
ObjectDBX Classes
 90
        0
280
     0
281
     0
  0
CLASS
  1
VISUALSTYLE
  2
AcDbVisualStyle
  3
ObjectDBX Classes
 90
     4095
280
     0
281
     0
  0
CLASS
  1
MATERIAL
  2
AcDbMaterial
  3
ObjectDBX Classes
 90
     1153
280
     0
281
     0
  0
CLASS
  1
SCALE
  2
AcDbScale
  3
ObjectDBX Classes
 90
     1153
280
     0
281
     0
  0
CLASS
  1
SUN
  2
AcDbSun
  3
SCENEOE
 90
     1153
280
     0
281
     0
  0
CLASS
  1
XRECORD
  2
AcDbXrecord
  3
ObjectDBX Classes
 90
        0
280
     0
281
     0
  0
CLASS
  1
LWPOLYLINE
  2
AcDbPolyline
  3
ObjectDBX Classes
 90
        0
280
     0
281
     1
  0
CLASS
  1
HATCH
  2
AcDbHatch
  3
ObjectDBX Classes
 90
        0
280
     0
281
     1
  0
ENDSEC
  0
SECTION
  2
TABLES
  0
TABLE
  2
VPORT
  5
8
330
0
100
AcDbSymbolTable
 70
     1
  0
VPORT
  5
29
330
8
100
AcDbSymbolTableRecord
100
AcDbViewportTableRecord
  2
*ACTIVE
 70
     0
 10
0.0
 20
0.0
 11
1.0
 21
1.0
 12
297.0
 22
420.5
 13
0.0
 23
0.0
 14
10.0
 24
10.0
 15
10.0
 25
10.0
 16
0.0
 26
0.0
 36
1.0
 17
0.0
 27
0.0
 37
0.0
 40
841.0
 41
0.7063020214
 42
50.0
 43
0.0
 44
0.0
 50
0.0
 51
0.0
 71
     0
 72
  2000
 73
     1
 74
     3
 75
     0
 76
     0
 77
     0
 78
     0
  0
ENDTAB
  0
TABLE
  2
LTYPE
  5
5
330
0
100
AcDbSymbolTable
 70
     6
  0
LTYPE
  5
14
330
5
100
AcDbSymbolTableRecord
100
AcDbLinetypeTableRecord
  2
BYBLOCK
 70
     0
  3

 72
    65
 73
     0
 40
0.0
  0
LTYPE
  5
15
330
5
100
AcDbSymbolTableRecord
100
AcDbLinetypeTableRecord
  2
BYLAYER
 70
     0
  3

 72
    65
 73
     0
 40
0.0
  0
LTYPE
  5
16
330
5
100
AcDbSymbolTableRecord
100
AcDbLinetypeTableRecord
  2
CONTINUOUS
 70
     0
  3
Solid line
 72
    65
 73
     0
 40
0.0
  0
LTYPE
  5
6A
330
5
100
AcDbSymbolTableRecord
100
AcDbLinetypeTableRecord
  2
HIDDEN
 70
     0
  3
Hidden __ __ __ __ __ __ __ __ __ __ __ __ __ __
 72
    65
 73
     2
 40
1.905
 49
1.27
 74
     0
 49
-0.635
 74
     0
  0
LTYPE
  5
6B
330
5
100
AcDbSymbolTableRecord
100
AcDbLinetypeTableRecord
  2
PHANTOM
 70
     0
  3
Phantom ______  __  __  ______  __  __  ______
 72
    65
 73
     6
 40
12.7
 49
6.35
 74
     0
 49
-1.27
 74
     0
 49
1.27
 74
     0
 49
-1.27
 74
     0
 49
1.27
 74
     0
 49
-1.27
 74
     0
  0
LTYPE
  5
6C
330
5
100
AcDbSymbolTableRecord
100
AcDbLinetypeTableRecord
  2
CENTER
 70
     0
  3
Center ____ _ ____ _ ____ _ ____ _ ____ _ ____
 72
    65
 73
     4
 40
10.16
 49
6.35
 74
     0
 49
-1.27
 74
     0
 49
1.27
 74
     0
 49
-1.27
 74
     0
  0
LTYPE
  5
6D
330
5
100
AcDbSymbolTableRecord
100
AcDbLinetypeTableRecord
  2
CENTERX2
 70
     0
  3
Center (2x) ________  __  ________  __  _____
 72
    65
 73
     4
 40
20.32
 49
12.7
 74
     0
 49
-2.54
 74
     0
 49
2.54
 74
     0
 49
-2.54
 74
     0
  0
LTYPE
  5
6E
330
5
100
AcDbSymbolTableRecord
100
AcDbLinetypeTableRecord
  2
DOT2
 70
     0
  3
Dot (.5x) ........................................
 72
    65
 73
     2
 40
0.635
 49
0.0
 74
     0
 49
-0.635
 74
     0
  0
ENDTAB
  0
TABLE
  2
LAYER
  5
2
330
0
100
AcDbSymbolTable
 70
     1
  0
LAYER
  5
10
330
2
100
AcDbSymbolTableRecord
100
AcDbLayerTableRecord
  2
0
 70
     0
 62
     7
  6
CONTINUOUS
  0
ENDTAB
  0
TABLE
  2
STYLE
  5
3
330
0
100
AcDbSymbolTable
 70
     3
  0
STYLE
  5
11
330
3
100
AcDbSymbolTableRecord
100
AcDbTextStyleTableRecord
  2
STANDARD
 70
     0
 40
0.0
 41
1.0
 50
0.0
 71
     0
 42
10.0
  3
txt
  4

  0
STYLE
  5
72
330
3
100
AcDbSymbolTableRecord
100
AcDbTextStyleTableRecord
  2
SLDTEXTSTYLE0
 70
     0
 40
0.0
 41
0.96
 50
0.0
 71
     0
 42
10.0
  3
ISOCP3
  4

  0
STYLE
  5
89
330
3
100
AcDbSymbolTableRecord
100
AcDbTextStyleTableRecord
  2
SLDTEXTSTYLE1
 70
     0
 40
0.0
 41
0.605
 50
0.0
 71
     0
 42
10.0
  3
TXT
  4

  0
ENDTAB
  0
TABLE
  2
VIEW
  5
6
330
0
100
AcDbSymbolTable
 70
     0
  0
ENDTAB
  0
TABLE
  2
UCS
  5
7
330
0
100
AcDbSymbolTable
 70
     0
  0
ENDTAB
  0
TABLE
  2
APPID
  5
9
330
0
100
AcDbSymbolTable
 70
     1
  0
APPID
  5
12
330
9
100
AcDbSymbolTableRecord
100
AcDbRegAppTableRecord
  2
ACAD
 70
     0
  0
ENDTAB
  0
TABLE
  2
DIMSTYLE
  5
A
330
0
100
AcDbSymbolTable
 70
     2
  0
DIMSTYLE
105
27
330
A
100
AcDbSymbolTableRecord
100
AcDbDimStyleTableRecord
  2
ISO-25
 70
     0
  3

  4

  5

  6

  7

 40
1.0
 41
2.5
 42
0.625
 43
3.75
 44
1.25
 45
0.0
 46
0.0
 47
0.0
 48
0.0
140
2.5
141
2.5
142
0.0
143
0.0393700787
144
1.0
145
0.0
146
1.0
147
0.625
 71
     0
 72
     0
 73
     0
 74
     0
 75
     0
 76
     0
 77
     1
 78
     8
170
     0
171
     3
172
     1
173
     0
174
     0
175
     0
176
     0
177
     0
178
     0
270
     2
271
     2
272
     2
273
     2
274
     3
340
11
275
     0
280
     0
281
     0
282
     0
283
     0
284
     8
285
     0
286
     0
287
     3
288
     0
  0
DIMSTYLE
105
73
102
{ACAD_REACTORS
330
71
330
7E
102
}
330
A
100
AcDbSymbolTableRecord
100
AcDbDimStyleTableRecord
  2
SLDDIMSTYLE0
 70
     0
  3

  4

  5

  6

  7

 40
1.0
 41
2.5
 42
0.0625
 43
0.38
 44
0.0
 45
0.000000001
 46
0.0
 47
0.0
 48
0.0
140
6.0
141
0.09
142
0.0
143
25.4
144
1.0
145
0.0
146
1.0
147
1.5
 71
     0
 72
     0
 73
     0
 74
     0
 75
     0
 76
     0
 77
     1
 78
    12
170
     0
171
     2
172
     0
173
     1
174
     0
175
     0
176
     0
177
     0
178
     0
270
     2
271
     2
272
     2
273
     2
274
     2
340
72
275
     0
280
     0
281
     0
282
     0
283
     1
284
    12
285
     0
286
     0
287
     3
288
     0
  0
ENDTAB
  0
TABLE
  2
BLOCK_RECORD
  5
1
330
0
100
AcDbSymbolTable
 70
     3
  0
BLOCK_RECORD
  5
1F
330
1
100
AcDbSymbolTableRecord
100
AcDbBlockTableRecord
  2
*MODEL_SPACE
  0
BLOCK_RECORD
  5
1B
330
1
100
AcDbSymbolTableRecord
100
AcDbBlockTableRecord
  2
*PAPER_SPACE
  0
BLOCK_RECORD
  5
23
330
1
100
AcDbSymbolTableRecord
100
AcDbBlockTableRecord
  2
*PAPER_SPACE0
  0
BLOCK_RECORD
  5
74
330
1
100
AcDbSymbolTableRecord
100
AcDbBlockTableRecord
  2
_D
  0
BLOCK_RECORD
  5
7F
330
1
100
AcDbSymbolTableRecord
100
AcDbBlockTableRecord
  2
_D_1
  0
ENDTAB
  0
ENDSEC
  0
SECTION
  2
BLOCKS
  0
BLOCK
  5
20
330
1F
100
AcDbEntity
  8
0
100
AcDbBlockBegin
  2
*MODEL_SPACE
 70
     0
 10
0.0
 20
0.0
 30
0.0
  3
*MODEL_SPACE
  1

  0
ENDBLK
  5
21
330
1F
100
AcDbEntity
  8
0
100
AcDbBlockEnd
  0
BLOCK
  5
1C
330
1B
100
AcDbEntity
 67
     1
  8
0
100
AcDbBlockBegin
  2
*PAPER_SPACE
 70
     0
 10
0.0
 20
0.0
 30
0.0
  3
*PAPER_SPACE
  1

  0
ENDBLK
  5
1D
330
1B
100
AcDbEntity
 67
     1
  8
0
100
AcDbBlockEnd
  0
BLOCK
  5
24
330
23
100
AcDbEntity
  8
0
100
AcDbBlockBegin
  2
*PAPER_SPACE0
 70
     0
 10
0.0
 20
0.0
 30
0.0
  3
*PAPER_SPACE0
  1
*PAPER_SPACE0
  0
ENDBLK
  5
25
330
23
100
AcDbEntity
  8
0
100
AcDbBlockEnd
  0
BLOCK
  5
75
330
74
100
AcDbEntity
  8
0
100
AcDbBlockBegin
  2
_D
 70
     0
 10
0.0
 20
0.0
 30
0.0
  3
_D
  1
_D
  0
SOLID
  5
77
330
74
100
AcDbEntity
  8
0
  6
CONTINUOUS
 62
     7
100
AcDbTrace
 10
42.7614395004
 20
152.0299240879
 30
0.0
 11
42.4614395004
 21
149.5299240879
 31
0.0
 12
43.0614395004
 22
149.5299240879
 32
0.0
 13
43.0614395004
 23
149.5299240879
 33
0.0
  0
SOLID
  5
78
330
74
100
AcDbEntity
  8
0
  6
CONTINUOUS
 62
     7
100
AcDbTrace
 10
42.7614395004
 20
52.0299240879
 30
0.0
 11
43.0614395004
 21
54.5299240879
 31
0.0
 12
42.4614395004
 22
54.5299240879
 32
0.0
 13
42.4614395004
 23
54.5299240879
 33
0.0
  0
LINE
  5
79
330
74
100
AcDbEntity
  8
0
  6
CONTINUOUS
 62
     7
100
AcDbLine
 10
56.6850079902
 20
152.0299240879
 30
0.0
 11
41.7614395004
 21
152.0299240879
 31
0.0
  0
LINE
  5
7A
330
74
100
AcDbEntity
  8
0
  6
CONTINUOUS
 62
     7
100
AcDbLine
 10
56.6850079902
 20
52.0299240879
 30
0.0
 11
41.7614395004
 21
52.0299240879
 31
0.0
  0
LINE
  5
7B
330
74
100
AcDbEntity
  8
0
  6
CONTINUOUS
 62
     7
100
AcDbLine
 10
42.7614395004
 20
152.0299240879
 30
0.0
 11
42.7614395004
 21
52.0299240879
 31
0.0
  0
MTEXT
  5
7C
330
74
100
AcDbEntity
  8
0
  6
CONTINUOUS
 62
     7
100
AcDbMText
 10
35.0270332946
 20
94.3680541463
 30
0.0
 40
6.0
 41
0.0
 71
     1
 72
     1
  1
100
  7
SLDTEXTSTYLE0
 11
-7.044195017643634E-15
 21
1.0
 31
0.0
  0
MTEXT
  5
7D
330
74
100
AcDbEntity
  8
0
  6
CONTINUOUS
 62
     7
100
AcDbMText
 10
35.0270332946
 20
105.7430548466
 30
0.0
 40
6.0
 41
0.0
 71
     1
 72
     1
  1
mm
  7
SLDTEXTSTYLE0
 11
-7.044195017643634E-15
 21
1.0
 31
0.0
  0
ENDBLK
  5
76
330
74
100
AcDbEntity
  8
0
100
AcDbBlockEnd
  0
BLOCK
  5
80
330
7F
100
AcDbEntity
  8
0
100
AcDbBlockBegin
  2
_D_1
 70
     0
 10
0.0
 20
0.0
 30
0.0
  3
_D_1
  1
_D_1
  0
SOLID
  5
82
330
7F
100
AcDbEntity
  8
0
  6
CONTINUOUS
 62
     7
100
AcDbTrace
 10
56.6850079902
 20
38.4602342313
 30
0.0
 11
59.1850079902
 21
38.1602342313
 31
0.0
 12
59.1850079902
 22
38.7602342313
 32
0.0
 13
59.1850079902
 23
38.7602342313
 33
0.0
  0
SOLID
  5
83
330
7F
100
AcDbEntity
  8
0
  6
CONTINUOUS
 62
     7
100
AcDbTrace
 10
156.6850079902
 20
38.4602342313
 30
0.0
 11
154.1850079902
 21
38.7602342313
 31
0.0
 12
154.1850079902
 22
38.1602342313
 32
0.0
 13
154.1850079902
 23
38.1602342313
 33
0.0
  0
LINE
  5
84
330
7F
100
AcDbEntity
  8
0
  6
CONTINUOUS
 62
     7
100
AcDbLine
 10
56.6850079902
 20
52.0299240879
 30
0.0
 11
56.6850079902
 21
37.4602342313
 31
0.0
  0
LINE
  5
85
330
7F
100
AcDbEntity
  8
0
  6
CONTINUOUS
 62
     7
100
AcDbLine
 10
156.6850079902
 20
52.0299240879
 30
0.0
 11
156.6850079902
 21
37.4602342313
 31
0.0
  0
LINE
  5
86
330
7F
100
AcDbEntity
  8
0
  6
CONTINUOUS
 62
     7
100
AcDbLine
 10
56.6850079902
 20
38.4602342313
 30
0.0
 11
156.6850079902
 21
38.4602342313
 31
0.0
  0
MTEXT
  5
87
330
7F
100
AcDbEntity
  8
0
  6
CONTINUOUS
 62
     7
100
AcDbMText
 10
93.9626484861
 20
46.1946404371
 30
0.0
 40
6.0
 41
0.0
 71
     1
 72
     1
  1
100
  7
SLDTEXTSTYLE0
  0
MTEXT
  5
88
330
7F
100
AcDbEntity
  8
0
  6
CONTINUOUS
 62
     7
100
AcDbMText
 10
105.3376491864
 20
46.1946404371
 30
0.0
 40
6.0
 41
0.0
 71
     1
 72
     1
  1
mm
  7
SLDTEXTSTYLE0
  0
ENDBLK
  5
81
330
7F
100
AcDbEntity
  8
0
100
AcDbBlockEnd
  0
ENDSEC
  0
SECTION
  2
ENTITIES
  0
LINE
  5
6F
330
1F
100
AcDbEntity
  8
0
  6
CONTINUOUS
 62
     7
100
AcDbLine
 10
56.6850079902
 20
152.0299240879
 30
0.0
 11
56.6850079902
 21
52.0299240879
 31
0.0
  0
LINE
  5
70
330
1F
100
AcDbEntity
  8
0
  6
CONTINUOUS
 62
     7
100
AcDbLine
 10
56.6850079902
 20
52.0299240879
 30
0.0
 11
156.6850079902
 21
52.0299240879
 31
0.0
  0
DIMENSION
  5
71
330
1F
100
AcDbEntity
  8
0
  6
CONTINUOUS
 62
     7
100
AcDbDimension
  2
_D
 10
42.7614395004
 20
52.0299240879
 30
0.0
 11
42.7614395004
 21
105.4472211621
 31
0.0
 70
   160
  1
<>mm
  3
SLDDIMSTYLE0
100
AcDbAlignedDimension
 13
56.6850079902
 23
152.0299240879
 33
0.0
 14
56.6850079902
 24
52.0299240879
 34
0.0
 50
90.0
100
AcDbRotatedDimension
  0
DIMENSION
  5
7E
330
1F
100
AcDbEntity
  8
0
  6
CONTINUOUS
 62
     7
100
AcDbDimension
  2
_D_1
 10
156.6850079902
 20
38.4602342313
 30
0.0
 11
105.0418155019
 21
38.4602342313
 31
0.0
 70
   160
  1
<>mm
  3
SLDDIMSTYLE0
100
AcDbAlignedDimension
 13
56.6850079902
 23
52.0299240879
 33
0.0
 14
156.6850079902
 24
52.0299240879
 34
0.0
100
AcDbRotatedDimension
  0
MTEXT
  5
8A
330
1F
100
AcDbEntity
  8
0
  6
CONTINUOUS
 62
     7
100
AcDbMText
 10
222.8856995391
 20
49.3034557666
 30
0.0
 40
10.0
 41
0.0
 71
     1
 72
     1
  1
64 320 05-00
  7
SLDTEXTSTYLE1
  0
MTEXT
  5
8B
330
1F
100
AcDbEntity
  8
0
  6
CONTINUOUS
 62
     7
100
AcDbMText
 10
412.8252631579
 20
48.4342449499
 30
0.0
 40
10.0
 41
0.0
 71
     1
 72
     1
  1
KLUDI GmbH & Co KG
  7
SLDTEXTSTYLE1
  0
ARC
  5
8C
330
1F
100
AcDbEntity
  8
0
  6
CONTINUOUS
 62
     7
100
AcDbCircle
 10
99.6900006123
 20
370.0619840104
 30
0.0
 40
0.5
100
AcDbArc
 50
180.0
 51
270.0
  0
ARC
  5
8D
330
1F
100
AcDbEntity
  8
0
  6
CONTINUOUS
 62
     7
100
AcDbCircle
 10
299.6900006123
 20
370.0619840104
 30
0.0
 40
0.5
100
AcDbArc
 50
270.0
 51
0.0
  0
LINE
  5
8E
330
1F
100
AcDbEntity
  8
0
  6
CONTINUOUS
 62
     7
100
AcDbLine
 10
99.1899981089
 20
377.5619843904
 30
0.0
 11
99.1899981089
 21
370.0619840341
 31
0.0
  0
LINE
  5
8F
330
1F
100
AcDbEntity
  8
0
  6
CONTINUOUS
 62
     7
100
AcDbLine
 10
300.1900031157
 20
370.0619840341
 30
0.0
 11
300.1900031157
 21
377.5619843904
 31
0.0
  0
ARC
  5
90
330
1F
100
AcDbEntity
  8
0
  6
CONTINUOUS
 62
     7
100
AcDbCircle
 10
206.0024834067
 20
367.3119840104
 30
0.0
 40
0.25
100
AcDbArc
 50
270.0
 51
0.0
  0
ARC
  5
91
330
1F
100
AcDbEntity
  8
0
  6
CONTINUOUS
 62
     7
100
AcDbCircle
 10
202.0024834067
 20
367.3119840104
 30
0.0
 40
0.25
100
AcDbArc
 50
180.0
 51
270.0
  0
LINE
  5
92
330
1F
100
AcDbEntity
  8
0
  6
CONTINUOUS
 62
     7
100
AcDbLine
 10
206.2524831779
 20
367.3119841072
 30
0.0
 11
206.2524831779
 21
369.5619840104
 31
0.0
  0
LINE
  5
93
330
1F
100
AcDbEntity
  8
0
  6
CONTINUOUS
 62
     7
100
AcDbLine
 10
201.7524833716
 20
369.5619840104
 30
0.0
 11
201.7524833716
 21
367.3119841072
 31
0.0
  0
ARC
  5
94
330
1F
100
AcDbEntity
  8
0
  6
CONTINUOUS
 62
     7
100
AcDbCircle
 10
188.799800693
 20
367.3119840104
 30
0.0
 40
0.25
100
AcDbArc
 50
270.0
 51
0.0
  0
ARC
  5
95
330
1F
100
AcDbEntity
  8
0
  6
CONTINUOUS
 62
     7
100
AcDbCircle
 10
184.799800693
 20
367.3119840104
 30
0.0
 40
0.25
100
AcDbArc
 50
180.0
 51
270.0
  0
LINE
  5
96
330
1F
100
AcDbEntity
  8
0
  6
CONTINUOUS
 62
     7
100
AcDbLine
 10
189.0498003848
 20
367.3119841072
 30
0.0
 11
189.0498003848
 21
369.5619840104
 31
0.0
  0
LINE
  5
97
330
1F
100
AcDbEntity
  8
0
  6
CONTINUOUS
 62
     7
100
AcDbLine
 10
184.5498005785
 20
369.5619840104
 30
0.0
 11
184.5498005785
 21
367.3119841072
 31
0.0
  0
ARC
  5
98
330
1F
100
AcDbEntity
  8
0
  6
CONTINUOUS
 62
     7
100
AcDbCircle
 10
223.0166899287
 20
367.3119840104
 30
0.0
 40
0.25
100
AcDbArc
 50
270.0
 51
0.0
  0
ARC
  5
99
330
1F
100
AcDbEntity
  8
0
  6
CONTINUOUS
 62
     7
100
AcDbCircle
 10
219.0166899287
 20
367.3119840104
 30
0.0
 40
0.25
100
AcDbArc
 50
180.0
 51
270.0
  0
LINE
  5
9A
330
1F
100
AcDbEntity
  8
0
  6
CONTINUOUS
 62
     7
100
AcDbLine
 10
223.2666904964
 20
367.3119841072
 30
0.0
 11
223.2666904964
 21
369.5619840104
 31
0.0
  0
LINE
  5
9B
330
1F
100
AcDbEntity
  8
0
  6
CONTINUOUS
 62
     7
100
AcDbLine
 10
218.7666906901
 20
369.5619840104
 30
0.0
 11
218.7666906901
 21
367.3119841072
 31
0.0
  0
ARC
  5
9C
330
1F
100
AcDbEntity
  8
0
  6
CONTINUOUS
 62
     7
100
AcDbCircle
 10
172.1604815698
 20
367.3119840104
 30
0.0
 40
0.25
100
AcDbArc
 50
270.0
 51
0.0
  0
ARC
  5
9D
330
1F
100
AcDbEntity
  8
0
  6
CONTINUOUS
 62
     7
100
AcDbCircle
 10
168.1604815698
 20
367.3119840104
 30
0.0
 40
0.2500000000000284
100
AcDbArc
 50
180.0
 51
270.0
  0
LINE
  5
9E
330
1F
100
AcDbEntity
  8
0
  6
CONTINUOUS
 62
     7
100
AcDbLine
 10
172.4104820676
 20
367.3119841072
 30
0.0
 11
172.4104820676
 21
369.5619840104
 31
0.0
  0
LINE
  5
9F
330
1F
100
AcDbEntity
  8
0
  6
CONTINUOUS
 62
     7
100
AcDbLine
 10
167.9104803987
 20
369.5619840104
 30
0.0
 11
167.9104803987
 21
367.3119841072
 31
0.0
  0
ARC
  5
A0
330
1F
100
AcDbEntity
  8
0
  6
CONTINUOUS
 62
     7
100
AcDbCircle
 10
239.0988177908
 20
367.3119840104
 30
0.0
 40
0.25
100
AcDbArc
 50
270.0
 51
0.0
  0
ARC
  5
A1
330
1F
100
AcDbEntity
  8
0
  6
CONTINUOUS
 62
     7
100
AcDbCircle
 10
235.0988177908
 20
367.3119840104
 30
0.0
 40
0.25
100
AcDbArc
 50
180.0
 51
270.0
  0
LINE
  5
A2
330
1F
100
AcDbEntity
  8
0
  6
CONTINUOUS
 62
     7
100
AcDbLine
 10
239.3488190062
 20
367.3119841072
 30
0.0
 11
239.3488190062
 21
369.5619840104
 31
0.0
  0
LINE
  5
A3
330
1F
100
AcDbEntity
  8
0
  6
CONTINUOUS
 62
     7
100
AcDbLine
 10
234.8488173373
 20
369.5619840104
 30
0.0
 11
234.8488173373
 21
367.3119841072
 31
0.0
  0
ARC
  5
A4
330
1F
100
AcDbEntity
  8
0
  6
CONTINUOUS
 62
     7
100
AcDbCircle
 10
156.811744127
 20
367.3119840104
 30
0.0
 40
0.25
100
AcDbArc
 50
270.0
 51
0.0
  0
ARC
  5
A5
330
1F
100
AcDbEntity
  8
0
  6
CONTINUOUS
 62
     7
100
AcDbCircle
 10
152.811744127
 20
367.3119840104
 30
0.0
 40
0.25
100
AcDbArc
 50
180.0
 51
270.0
  0
LINE
  5
A6
330
1F
100
AcDbEntity
  8
0
  6
CONTINUOUS
 62
     7
100
AcDbLine
 10
157.0617458709
 20
367.3119841072
 30
0.0
 11
157.0617458709
 21
369.5619840104
 31
0.0
  0
LINE
  5
A7
330
1F
100
AcDbEntity
  8
0
  6
CONTINUOUS
 62
     7
100
AcDbLine
 10
152.5617442019
 20
369.5619840104
 30
0.0
 11
152.5617442019
 21
367.3119841072
 31
0.0
  0
ARC
  5
A8
330
1F
100
AcDbEntity
  8
0
  6
CONTINUOUS
 62
     7
100
AcDbCircle
 10
207.89173846
 20
367.3119840104
 30
0.0
 40
0.25
100
AcDbArc
 50
270.0
 51
0.0
  0
LINE
  5
A9
330
1F
100
AcDbEntity
  8
0
  6
CONTINUOUS
 62
     7
100
AcDbLine
 10
208.1417380758
 20
367.3119841072
 30
0.0
 11
208.1417380758
 21
369.5619840104
 31
0.0
  0
ARC
  5
AA
330
1F
100
AcDbEntity
  8
0
  6
CONTINUOUS
 62
     7
100
AcDbCircle
 10
191.3809693661
 20
367.3119840104
 30
0.0
 40
0.25
100
AcDbArc
 50
270.0
 51
0.0
  0
LINE
  5
AB
330
1F
100
AcDbEntity
  8
0
  6
CONTINUOUS
 62
     7
100
AcDbLine
 10
191.6309692822
 20
367.3119841072
 30
0.0
 11
191.6309692822
 21
369.5619840104
 31
0.0
  0
ARC
  5
AC
330
1F
100
AcDbEntity
  8
0
  6
CONTINUOUS
 62
     7
100
AcDbCircle
 10
253.5460008348
 20
367.3119840104
 30
0.0
 40
0.25
100
AcDbArc
 50
270.0
 51
0.0
  0
ARC
  5
AD
330
1F
100
AcDbEntity
  8
0
  6
CONTINUOUS
 62
     7
100
AcDbCircle
 10
249.5460008348
 20
367.3119840104
 30
0.0
 40
0.25
100
AcDbArc
 50
180.0
 51
270.0
  0
LINE
  5
AE
330
1F
100
AcDbEntity
  8
0
  6
CONTINUOUS
 62
     7
100
AcDbLine
 10
253.7960014231
 20
367.3119841072
 30
0.0
 11
253.7960014231
 21
369.5619840104
 31
0.0
  0
LINE
  5
AF
330
1F
100
AcDbEntity
  8
0
  6
CONTINUOUS
 62
     7
100
AcDbLine
 10
249.2959997542
 20
369.5619840104
 30
0.0
 11
249.2959997542
 21
367.3119841072
 31
0.0
  0
ARC
  5
B0
330
1F
100
AcDbEntity
  8
0
  6
CONTINUOUS
 62
     7
100
AcDbCircle
 10
224.0128295564
 20
367.3119840104
 30
0.0
 40
0.25
100
AcDbArc
 50
270.0
 51
0.0
  0
LINE
  5
B1
330
1F
100
AcDbEntity
  8
0
  6
CONTINUOUS
 62
     7
100
AcDbLine
 10
224.2628293969
 20
367.3119841072
 30
0.0
 11
224.2628293969
 21
369.5619840104
 31
0.0
  0
ARC
  5
B2
330
1F
100
AcDbEntity
  8
0
  6
CONTINUOUS
 62
     7
100
AcDbCircle
 10
175.5179546194
 20
367.3119840104
 30
0.0
 40
0.25
100
AcDbArc
 50
270.0
 51
0.0
  0
LINE
  5
B3
330
1F
100
AcDbEntity
  8
0
  6
CONTINUOUS
 62
     7
100
AcDbLine
 10
175.7679539658
 20
367.3119841072
 30
0.0
 11
175.7679539658
 21
369.5619840104
 31
0.0
  0
ARC
  5
B4
330
1F
100
AcDbEntity
  8
0
  6
CONTINUOUS
 62
     7
100
AcDbCircle
 10
143.4244018425
 20
367.3119840104
 30
0.0
 40
0.25
100
AcDbArc
 50
270.0
 51
0.0
  0
ARC
  5
B5
330
1F
100
AcDbEntity
  8
0
  6
CONTINUOUS
 62
     7
100
AcDbCircle
 10
139.4244018425
 20
367.3119840104
 30
0.0
 40
0.25
100
AcDbArc
 50
180.0
 51
270.0
  0
LINE
  5
B6
330
1F
100
AcDbEntity
  8
0
  6
CONTINUOUS
 62
     7
100
AcDbLine
 10
143.6744010933
 20
367.3119841072
 30
0.0
 11
143.6744010933
 21
369.5619840104
 31
0.0
  0
LINE
  5
B7
330
1F
100
AcDbEntity
  8
0
  6
CONTINUOUS
 62
     7
100
AcDbLine
 10
139.1744031496
 20
369.5619840104
 30
0.0
 11
139.1744031496
 21
367.3119841072
 31
0.0
  0
ARC
  5
B8
330
1F
100
AcDbEntity
  8
0
  6
CONTINUOUS
 62
     7
100
AcDbCircle
 10
234.7312952127
 20
367.3119840104
 30
0.0
 40
0.25
100
AcDbArc
 50
180.0
 51
270.0
  0
LINE
  5
B9
330
1F
100
AcDbEntity
  8
0
  6
CONTINUOUS
 62
     7
100
AcDbLine
 10
234.4812950976
 20
369.5619840104
 30
0.0
 11
234.4812950976
 21
367.3119841072
 31
0.0
  0
ARC
  5
BA
330
1F
100
AcDbEntity
  8
0
  6
CONTINUOUS
 62
     7
100
AcDbCircle
 10
161.2994257766
 20
367.3119840104
 30
0.0
 40
0.25
100
AcDbArc
 50
270.0
 51
0.0
  0
ARC
  5
BB
330
1F
100
AcDbEntity
  8
0
  6
CONTINUOUS
 62
     7
100
AcDbCircle
 10
157.2994257766
 20
367.3119840104
 30
0.0
 40
0.2500000000000134
100
AcDbArc
 50
192.7445525715
 51
270.0
  0
LINE
  5
BC
330
1F
100
AcDbEntity
  8
0
  6
CONTINUOUS
 62
     7
100
AcDbLine
 10
161.5494242795
 20
367.3119841072
 30
0.0
 11
161.5494242795
 21
369.5619840104
 31
0.0
  0
ARC
  5
BD
330
1F
100
AcDbEntity
  8
0
  6
CONTINUOUS
 62
     7
100
AcDbCircle
 10
265.7268278363
 20
367.3119840104
 30
0.0
 40
0.25
100
AcDbArc
 50
270.0
 51
0.0
  0
ARC
  5
BE
330
1F
100
AcDbEntity
  8
0
  6
CONTINUOUS
 62
     7
100
AcDbCircle
 10
261.7268278363
 20
367.3119840104
 30
0.0
 40
0.25
100
AcDbArc
 50
180.0
 51
270.0
  0
LINE
  5
BF
330
1F
100
AcDbEntity
  8
0
  6
CONTINUOUS
 62
     7
100
AcDbLine
 10
265.9768252559
 20
367.3119841072
 30
0.0
 11
265.9768252559
 21
369.5619840104
 31
0.0
  0
LINE
  5
C0
330
1F
100
AcDbEntity
  8
0
  6
CONTINUOUS
 62
     7
100
AcDbLine
 10
261.4768273123
 20
369.5619840104
 30
0.0
 11
261.4768273123
 21
367.3119841072
 31
0.0
  0
ARC
  5
C1
330
1F
100
AcDbEntity
  8
0
  6
CONTINUOUS
 62
     7
100
AcDbCircle
 10
193.9621380393
 20
367.3119840104
 30
0.0
 40
0.25
100
AcDbArc
 50
270.0
 51
0.0
  0
ARC
  5
C2
330
1F
100
AcDbEntity
  8
0
  6
CONTINUOUS
 62
     7
100
AcDbCircle
 10
209.4178631853
 20
367.3119840104
 30
0.0
 40
0.25
100
AcDbArc
 50
270.0
 51
0.0
  0
LINE
  5
C3
330
1F
100
AcDbEntity
  8
0
  6
CONTINUOUS
 62
     7
100
AcDbLine
 10
209.6678628512
 20
367.3119841072
 30
0.0
 11
209.6678628512
 21
369.5619840104
 31
0.0
  0
LINE
  5
C4
330
1F
100
AcDbEntity
  8
0
  6
CONTINUOUS
 62
     7
100
AcDbLine
 10
194.2121381797
 20
367.3119841072
 30
0.0
 11
194.2121381797
 21
369.5619840104
 31
0.0
  0
ARC
  5
C5
330
1F
100
AcDbEntity
  8
0
  6
CONTINUOUS
 62
     7
100
AcDbCircle
 10
132.5835458136
 20
367.3119840104
 30
0.0
 40
0.2500000000000284
100
AcDbArc
 50
270.0
 51
0.0
  0
ARC
  5
C6
330
1F
100
AcDbEntity
  8
0
  6
CONTINUOUS
 62
     7
100
AcDbCircle
 10
128.5835458136
 20
367.3119840104
 30
0.0
 40
0.2500000000000284
100
AcDbArc
 50
180.0
 51
270.0
  0
LINE
  5
C7
330
1F
100
AcDbEntity
  8
0
  6
CONTINUOUS
 62
     7
100
AcDbLine
 10
132.8335492797
 20
367.3119841072
 30
0.0
 11
132.8335492797
 21
369.5619840104
 31
0.0
  0
LINE
  5
C8
330
1F
100
AcDbEntity
  8
0
  6
CONTINUOUS
 62
     7
100
AcDbLine
 10
128.3335476108
 20
369.5619840104
 30
0.0
 11
128.3335476108
 21
367.3119841072
 31
0.0
  0
ARC
  5
C9
330
1F
100
AcDbEntity
  8
0
  6
CONTINUOUS
 62
     7
100
AcDbCircle
 10
179.2628699251
 20
367.3119840104
 30
0.0
 40
0.2500000000000284
100
AcDbArc
 50
270.0
 51
0.0
  0
ARC
  5
CA
330
1F
100
AcDbEntity
  8
0
  6
CONTINUOUS
 62
     7
100
AcDbCircle
 10
224.1171312994
 20
367.3119840104
 30
0.0
 40
0.25
100
AcDbArc
 50
270.0
 51
0.0
  0
LINE
  5
CB
330
1F
100
AcDbEntity
  8
0
  6
CONTINUOUS
 62
     7
100
AcDbLine
 10
179.5128690936
 20
367.3119841072
 30
0.0
 11
179.5128690936
 21
369.5619840104
 31
0.0
  0
LINE
  5
CC
330
1F
100
AcDbEntity
  8
0
  6
CONTINUOUS
 62
     7
100
AcDbLine
 10
224.3671319373
 20
367.3119841072
 30
0.0
 11
224.3671319373
 21
369.5619840104
 31
0.0
  0
ARC
  5
CD
330
1F
100
AcDbEntity
  8
0
  6
CONTINUOUS
 62
     7
100
AcDbCircle
 10
247.1223201009
 20
367.3119840104
 30
0.0
 40
0.25
100
AcDbArc
 50
180.0
 51
270.0
  0
LINE
  5
CE
330
1F
100
AcDbEntity
  8
0
  6
CONTINUOUS
 62
     7
100
AcDbLine
 10
246.8723184355
 20
369.5619840104
 30
0.0
 11
246.8723184355
 21
367.3119841072
 31
0.0
  0
ARC
  5
CF
330
1F
100
AcDbEntity
  8
0
  6
CONTINUOUS
 62
     7
100
AcDbCircle
 10
149.6187852967
 20
367.3119840104
 30
0.0
 40
0.25
100
AcDbArc
 50
270.0
 51
0.0
  0
ARC
  5
D0
330
1F
100
AcDbEntity
  8
0
  6
CONTINUOUS
 62
     7
100
AcDbCircle
 10
145.6187852967
 20
367.3119840104
 30
0.0
 40
0.25
100
AcDbArc
 50
180.0
 51
270.0
  0
LINE
  5
D1
330
1F
100
AcDbEntity
  8
0
  6
CONTINUOUS
 62
     7
100
AcDbLine
 10
149.8687839992
 20
367.3119841072
 30
0.0
 11
149.8687839992
 21
369.5619840104
 31
0.0
  0
LINE
  5
D2
330
1F
100
AcDbEntity
  8
0
  6
CONTINUOUS
 62
     7
100
AcDbLine
 10
145.3687860556
 20
369.5619840104
 30
0.0
 11
145.3687860556
 21
367.3119841072
 31
0.0
  0
ARC
  5
D3
330
1F
100
AcDbEntity
  8
0
  6
CONTINUOUS
 62
     7
100
AcDbCircle
 10
275.1089382054
 20
367.3119840104
 30
0.0
 40
0.25
100
AcDbArc
 50
270.0
 51
0.0
  0
ARC
  5
D4
330
1F
100
AcDbEntity
  8
0
  6
CONTINUOUS
 62
     7
100
AcDbCircle
 10
271.1089382054
 20
367.3119840104
 30
0.0
 40
0.2500000000000568
100
AcDbArc
 50
180.0
 51
270.0
  0
LINE
  5
D5
330
1F
100
AcDbEntity
  8
0
  6
CONTINUOUS
 62
     7
100
AcDbLine
 10
275.3589390703
 20
367.3119841072
 30
0.0
 11
275.3589390703
 21
369.5619840104
 31
0.0
  0
LINE
  5
D6
330
1F
100
AcDbEntity
  8
0
  6
CONTINUOUS
 62
     7
100
AcDbLine
 10
270.8589374013
 20
369.5619840104
 30
0.0
 11
270.8589374013
 21
367.3119841072
 31
0.0
  0
ARC
  5
D7
330
1F
100
AcDbEntity
  8
0
  6
CONTINUOUS
 62
     7
100
AcDbCircle
 10
166.7589256217
 20
367.3119840104
 30
0.0
 40
0.25
100
AcDbArc
 50
270.0
 51
0.0
  0
ARC
  5
D8
330
1F
100
AcDbEntity
  8
0
  6
CONTINUOUS
 62
     7
100
AcDbCircle
 10
162.7589256217
 20
367.3119840104
 30
0.0
 40
0.25
100
AcDbArc
 50
180.0
 51
270.0
  0
ARC
  5
D9
330
1F
100
AcDbEntity
  8
0
  6
CONTINUOUS
 62
     7
100
AcDbCircle
 10
232.6210756029
 20
367.3119840104
 30
0.0
 40
0.25
100
AcDbArc
 50
180.0
 51
270.0
  0
LINE
  5
DA
330
1F
100
AcDbEntity
  8
0
  6
CONTINUOUS
 62
     7
100
AcDbLine
 10
232.3710746057
 20
369.5619840104
 30
0.0
 11
232.3710746057
 21
367.3119841072
 31
0.0
  0
LINE
  5
DB
330
1F
100
AcDbEntity
  8
0
  6
CONTINUOUS
 62
     7
100
AcDbLine
 10
167.0089266188
 20
367.3119841072
 30
0.0
 11
167.0089266188
 21
369.5619840104
 31
0.0
  0
LINE
  5
DC
330
1F
100
AcDbEntity
  8
0
  6
CONTINUOUS
 62
     7
100
AcDbLine
 10
162.5089249499
 20
369.5619840104
 30
0.0
 11
162.5089249499
 21
367.3119841072
 31
0.0
  0
ARC
  5
DD
330
1F
100
AcDbEntity
  8
0
  6
CONTINUOUS
 62
     7
100
AcDbCircle
 10
196.5433067125
 20
367.3119840104
 30
0.0
 40
0.25
100
AcDbArc
 50
270.0
 51
0.0
  0
LINE
  5
DE
330
1F
100
AcDbEntity
  8
0
  6
CONTINUOUS
 62
     7
100
AcDbLine
 10
196.7933066115
 20
367.3119841072
 30
0.0
 11
196.7933066115
 21
369.5619840104
 31
0.0
  0
ARC
  5
DF
330
1F
100
AcDbEntity
  8
0
  6
CONTINUOUS
 62
     7
100
AcDbCircle
 10
210.2051471962
 20
367.3119840104
 30
0.0
 40
0.25
100
AcDbArc
 50
270.0
 51
0.0
  0
LINE
  5
E0
330
1F
100
AcDbEntity
  8
0
  6
CONTINUOUS
 62
     7
100
AcDbLine
 10
210.4551470764
 20
367.3119841072
 30
0.0
 11
210.4551470764
 21
369.5619840104
 31
0.0
  0
ARC
  5
E1
330
1F
100
AcDbEntity
  8
0
  6
CONTINUOUS
 62
     7
100
AcDbCircle
 10
260.4073305563
 20
367.3119840104
 30
0.0
 40
0.25
100
AcDbArc
 50
270.0
 51
0.0
  0
ARC
  5
E2
330
1F
100
AcDbEntity
  8
0
  6
CONTINUOUS
 62
     7
100
AcDbCircle
 10
256.4073305563
 20
367.3119840104
 30
0.0
 40
0.2500000000000568
100
AcDbArc
 50
180.0
 51
270.0
  0
LINE
  5
E3
330
1F
100
AcDbEntity
  8
0
  6
CONTINUOUS
 62
     7
100
AcDbLine
 10
260.6573305018
 20
367.3119841072
 30
0.0
 11
260.6573305018
 21
369.5619840104
 31
0.0
  0
LINE
  5
E4
330
1F
100
AcDbEntity
  8
0
  6
CONTINUOUS
 62
     7
100
AcDbLine
 10
256.1573288329
 20
369.5619840104
 30
0.0
 11
256.1573288329
 21
367.3119841072
 31
0.0
  0
ARC
  5
E5
330
1F
100
AcDbEntity
  8
0
  6
CONTINUOUS
 62
     7
100
AcDbCircle
 10
124.7629734689
 20
367.3119840104
 30
0.0
 40
0.25
100
AcDbArc
 50
270.0
 51
0.0
  0
ARC
  5
E6
330
1F
100
AcDbEntity
  8
0
  6
CONTINUOUS
 62
     7
100
AcDbCircle
 10
120.7629734689
 20
367.3119840104
 30
0.0
 40
0.25
100
AcDbArc
 50
180.0
 51
270.0
  0
LINE
  5
E7
330
1F
100
AcDbEntity
  8
0
  6
CONTINUOUS
 62
     7
100
AcDbLine
 10
125.0129728503
 20
367.3119841072
 30
0.0
 11
125.0129728503
 21
369.5619840104
 31
0.0
  0
LINE
  5
E8
330
1F
100
AcDbEntity
  8
0
  6
CONTINUOUS
 62
     7
100
AcDbLine
 10
120.5129711814
 20
369.5619840104
 30
0.0
 11
120.5129711814
 21
367.3119841072
 31
0.0
  0
ARC
  5
E9
330
1F
100
AcDbEntity
  8
0
  6
CONTINUOUS
 62
     7
100
AcDbCircle
 10
183.7713763603
 20
367.3119840104
 30
0.0
 40
0.25
100
AcDbArc
 50
270.0
 51
0.0
  0
ARC
  5
EA
330
1F
100
AcDbEntity
  8
0
  6
CONTINUOUS
 62
     7
100
AcDbCircle
 10
179.7713763603
 20
367.3119840104
 30
0.0
 40
0.25
100
AcDbArc
 50
180.0
 51
270.0
  0
LINE
  5
EB
330
1F
100
AcDbEntity
  8
0
  6
CONTINUOUS
 62
     7
100
AcDbLine
 10
184.0213756002
 20
367.3119841072
 30
0.0
 11
184.0213756002
 21
369.5619840104
 31
0.0
  0
LINE
  5
EC
330
1F
100
AcDbEntity
  8
0
  6
CONTINUOUS
 62
     7
100
AcDbLine
 10
179.521375794
 20
369.5619840104
 30
0.0
 11
179.521375794
 21
367.3119841072
 31
0.0
  0
ARC
  5
ED
330
1F
100
AcDbEntity
  8
0
  6
CONTINUOUS
 62
     7
100
AcDbCircle
 10
137.2099707797
 20
367.3119840104
 30
0.0
 40
0.25
100
AcDbArc
 50
180.0
 51
270.0
  0
LINE
  5
EE
330
1F
100
AcDbEntity
  8
0
  6
CONTINUOUS
 62
     7
100
AcDbLine
 10
136.9599713869
 20
369.5619840104
 30
0.0
 11
136.9599713869
 21
367.3119841072
 31
0.0
  0
ARC
  5
EF
330
1F
100
AcDbEntity
  8
0
  6
CONTINUOUS
 62
     7
100
AcDbCircle
 10
218.3946414778
 20
367.3119840104
 30
0.0
 40
0.25
100
AcDbArc
 50
180.0
 51
270.0
  0
LINE
  5
F0
330
1F
100
AcDbEntity
  8
0
  6
CONTINUOUS
 62
     7
100
AcDbLine
 10
218.144641716
 20
369.5619840104
 30
0.0
 11
218.144641716
 21
367.3119841072
 31
0.0
  0
ARC
  5
F1
330
1F
100
AcDbEntity
  8
0
  6
CONTINUOUS
 62
     7
100
AcDbCircle
 10
245.7057229072
 20
367.3119840104
 30
0.0
 40
0.25
100
AcDbArc
 50
270.0
 51
0.0
  0
ARC
  5
F2
330
1F
100
AcDbEntity
  8
0
  6
CONTINUOUS
 62
     7
100
AcDbCircle
 10
241.7057229072
 20
367.3119840104
 30
0.0
 40
0.25
100
AcDbArc
 50
180.0
 51
270.0
  0
LINE
  5
F3
330
1F
100
AcDbEntity
  8
0
  6
CONTINUOUS
 62
     7
100
AcDbLine
 10
245.9557219334
 20
367.3119841072
 30
0.0
 11
245.9557219334
 21
369.5619840104
 31
0.0
  0
LINE
  5
F4
330
1F
100
AcDbEntity
  8
0
  6
CONTINUOUS
 62
     7
100
AcDbLine
 10
241.4557239898
 20
369.5619840104
 30
0.0
 11
241.4557239898
 21
367.3119841072
 31
0.0
  0
ARC
  5
F5
330
1F
100
AcDbEntity
  8
0
  6
CONTINUOUS
 62
     7
100
AcDbCircle
 10
281.2822886985
 20
367.3119840104
 30
0.0
 40
0.2500000000000568
100
AcDbArc
 50
270.0
 51
0.0
  0
ARC
  5
F6
330
1F
100
AcDbEntity
  8
0
  6
CONTINUOUS
 62
     7
100
AcDbCircle
 10
277.2822886985
 20
367.3119840104
 30
0.0
 40
0.25
100
AcDbArc
 50
180.0
 51
270.0
  0
LINE
  5
F7
330
1F
100
AcDbEntity
  8
0
  6
CONTINUOUS
 62
     7
100
AcDbLine
 10
281.5322889872
 20
367.3119841072
 30
0.0
 11
281.5322889872
 21
369.5619840104
 31
0.0
  0
LINE
  5
F8
330
1F
100
AcDbEntity
  8
0
  6
CONTINUOUS
 62
     7
100
AcDbLine
 10
277.0322873183
 20
369.5619840104
 30
0.0
 11
277.0322873183
 21
367.3119841072
 31
0.0
  0
ARC
  5
F9
330
1F
100
AcDbEntity
  8
0
  6
CONTINUOUS
 62
     7
100
AcDbCircle
 10
199.1244753856
 20
367.3119840104
 30
0.0
 40
0.25
100
AcDbArc
 50
270.0
 51
0.0
  0
LINE
  5
FA
330
1F
100
AcDbEntity
  8
0
  6
CONTINUOUS
 62
     7
100
AcDbLine
 10
199.3744753925
 20
367.3119841072
 30
0.0
 11
199.3744753925
 21
369.5619840104
 31
0.0
  0
ARC
  5
FB
330
1F
100
AcDbEntity
  8
0
  6
CONTINUOUS
 62
     7
100
AcDbCircle
 10
231.0041152581
 20
367.3119840104
 30
0.0
 40
0.25
100
AcDbArc
 50
270.0
 51
0.0
  0
ARC
  5
FC
330
1F
100
AcDbEntity
  8
0
  6
CONTINUOUS
 62
     7
100
AcDbCircle
 10
227.0041152581
 20
367.3119840104
 30
0.0
 40
0.25
100
AcDbArc
 50
180.0
 51
270.0
  0
LINE
  5
FD
330
1F
100
AcDbEntity
  8
0
  6
CONTINUOUS
 62
     7
100
AcDbLine
 10
231.2541170903
 20
367.3119841072
 30
0.0
 11
231.2541170903
 21
369.5619840104
 31
0.0
  0
LINE
  5
FE
330
1F
100
AcDbEntity
  8
0
  6
CONTINUOUS
 62
     7
100
AcDbLine
 10
226.7541154213
 20
369.5619840104
 30
0.0
 11
226.7541154213
 21
367.3119841072
 31
0.0
  0
ARC
  5
FF
330
1F
100
AcDbEntity
  8
0
  6
CONTINUOUS
 62
     7
100
AcDbCircle
 10
215.1900006123
 20
386.0619840104
 30
0.0
 40
1.500000000000057
100
AcDbArc
 50
270.0
 51
289.6148291774
  0
ARC
  5
100
330
1F
100
AcDbEntity
  8
0
  6
CONTINUOUS
 62
     7
100
AcDbCircle
 10
184.1900006123
 20
386.0619840104
 30
0.0
 40
1.5
100
AcDbArc
 50
250.2327775076
 51
270.0
  0
ARC
  5
101
330
1F
100
AcDbEntity
  8
0
  6
CONTINUOUS
 62
     7
100
AcDbCircle
 10
266.002915224
 20
367.3119840104
 30
0.0
 40
0.2500000000000568
100
AcDbArc
 50
270.0
 51
0.0
  0
LINE
  5
102
330
1F
100
AcDbEntity
  8
0
  6
CONTINUOUS
 62
     7
100
AcDbLine
 10
266.2529139705
 20
367.3119841072
 30
0.0
 11
266.2529139705
 21
369.5619840104
 31
0.0
  0
ARC
  5
103
330
1F
100
AcDbEntity
  8
0
  6
CONTINUOUS
 62
     7
100
AcDbCircle
 10
199.6900006123
 20
398.2619840104
 30
0.0
 40
13.00000000000002
100
AcDbArc
 50
29.0688418706
 51
34.2288663278
  0
ARC
  5
104
330
1F
100
AcDbEntity
  8
0
  6
CONTINUOUS
 62
     7
100
AcDbCircle
 10
199.6900006123
 20
398.2619840104
 30
0.0
 40
13.00000000000001
100
AcDbArc
 50
145.1266560904
 51
150.9938918742
  0
ARC
  5
105
330
1F
100
AcDbEntity
  8
0
  6
CONTINUOUS
 62
     7
100
AcDbCircle
 10
199.6900006123
 20
398.2619840104
 30
0.0
 40
13.00000000000002
100
AcDbArc
 50
34.2288663278
 51
34.8733439096
  0
ARC
  5
106
330
1F
100
AcDbEntity
  8
0
  6
CONTINUOUS
 62
     7
100
AcDbCircle
 10
214.1900006123
 20
403.5619840104
 30
0.0
 40
1.0
100
AcDbArc
 50
0.0
 51
90.0
  0
ARC
  5
107
330
1F
100
AcDbEntity
  8
0
  6
CONTINUOUS
 62
     7
100
AcDbCircle
 10
185.1900006123
 20
403.5619840104
 30
0.0
 40
1.0
100
AcDbArc
 50
90.0
 51
180.0
  0
LINE
  5
108
330
1F
100
AcDbEntity
  8
0
  6
CONTINUOUS
 62
     7
100
AcDbLine
 10
215.190000359
 20
392.5619840551
 30
0.0
 11
215.190000359
 21
403.5619858581
 31
0.0
  0
LINE
  5
109
330
1F
100
AcDbEntity
  8
0
  6
CONTINUOUS
 62
     7
100
AcDbLine
 10
184.1900008656
 20
403.5619858581
 30
0.0
 11
184.1900008656
 21
392.5619840551
 31
0.0
  0
ARC
  5
10A
330
1F
100
AcDbEntity
  8
0
  6
CONTINUOUS
 62
     7
100
AcDbCircle
 10
120.3044813472
 20
367.3119840104
 30
0.0
 40
0.25
100
AcDbArc
 50
270.0
 51
336.4891063467
  0
ARC
  5
10B
330
1F
100
AcDbEntity
  8
0
  6
CONTINUOUS
 62
     7
100
AcDbCircle
 10
116.3044813472
 20
367.3119840104
 30
0.0
 40
0.25
100
AcDbArc
 50
180.0
 51
270.0
  0
LINE
  5
10C
330
1F
100
AcDbEntity
  8
0
  6
CONTINUOUS
 62
     7
100
AcDbLine
 10
116.0544841476
 20
369.5619840104
 30
0.0
 11
116.0544841476
 21
367.3119841072
 31
0.0
  0
ARC
  5
10D
330
1F
100
AcDbEntity
  8
0
  6
CONTINUOUS
 62
     7
100
AcDbCircle
 10
136.6013389671
 20
367.3119840104
 30
0.0
 40
0.25
100
AcDbArc
 50
270.0
 51
0.0
  0
LINE
  5
10E
330
1F
100
AcDbEntity
  8
0
  6
CONTINUOUS
 62
     7
100
AcDbLine
 10
132.592441041
 20
367.0621423911
 30
0.0
 11
132.6013370343
 21
367.0619840663
 31
0.0
  0
LINE
  5
10F
330
1F
100
AcDbEntity
  8
0
  6
CONTINUOUS
 62
     7
100
AcDbLine
 10
136.8513419218
 20
367.3119841072
 30
0.0
 11
136.8513419218
 21
369.5619840104
 31
0.0
  0
ARC
  5
110
330
1F
100
AcDbEntity
  8
0
  6
CONTINUOUS
 62
     7
100
AcDbCircle
 10
209.6900006123
 20
411.3119840104
 30
0.0
 40
2.0
100
AcDbArc
 50
308.7069637031
 51
0.0
  0
ARC
  5
111
330
1F
100
AcDbEntity
  8
0
  6
CONTINUOUS
 62
     7
100
AcDbCircle
 10
189.6900006123
 20
411.3119840104
 30
0.0
 40
2.0
100
AcDbArc
 50
180.0
 51
231.2930362969
  0
LINE
  5
112
330
1F
100
AcDbEntity
  8
0
  6
CONTINUOUS
 62
     7
100
AcDbLine
 10
211.6900007166
 20
411.3119829375
 30
0.0
 11
211.6900007166
 21
419.0619837422
 31
0.0
  0
LINE
  5
113
330
1F
100
AcDbEntity
  8
0
  6
CONTINUOUS
 62
     7
100
AcDbLine
 10
187.690000508
 20
419.0619837422
 30
0.0
 11
187.690000508
 21
411.3119829375
 31
0.0
  0
ARC
  5
114
330
1F
100
AcDbEntity
  8
0
  6
CONTINUOUS
 62
     7
100
AcDbCircle
 10
212.8166881367
 20
407.4102119611
 30
0.0
 40
3.000000000000016
100
AcDbArc
 50
128.7069637029
 51
214.8733439096
  0
ARC
  5
115
330
1F
100
AcDbEntity
  8
0
  6
CONTINUOUS
 62
     7
100
AcDbCircle
 10
186.5633130879
 20
407.4102119611
 30
0.0
 40
3.000000000000016
100
AcDbArc
 50
325.1266560904
 51
51.2930362971
  0
ARC
  5
116
330
1F
100
AcDbEntity
  8
0
  6
CONTINUOUS
 62
     7
100
AcDbCircle
 10
246.4818046377
 20
367.3119840104
 30
0.0
 40
0.2500000000000284
100
AcDbArc
 50
180.0
 51
270.0
  0
LINE
  5
117
330
1F
100
AcDbEntity
  8
0
  6
CONTINUOUS
 62
     7
100
AcDbLine
 10
246.2318031974
 20
369.5619840104
 30
0.0
 11
246.2318031974
 21
367.3119841072
 31
0.0
  0
ARC
  5
118
330
1F
100
AcDbEntity
  8
0
  6
CONTINUOUS
 62
     7
100
AcDbCircle
 10
216.302507609
 20
367.3119840104
 30
0.0
 40
0.25
100
AcDbArc
 50
270.0
 51
0.0
  0
ARC
  5
119
330
1F
100
AcDbEntity
  8
0
  6
CONTINUOUS
 62
     7
100
AcDbCircle
 10
212.302507609
 20
367.3119840104
 30
0.0
 40
0.25
100
AcDbArc
 50
180.0
 51
270.0
  0
LINE
  5
11A
330
1F
100
AcDbEntity
  8
0
  6
CONTINUOUS
 62
     7
100
AcDbLine
 10
216.5525085218
 20
367.3119841072
 30
0.0
 11
216.5525085218
 21
369.5619840104
 31
0.0
  0
LINE
  5
11B
330
1F
100
AcDbEntity
  8
0
  6
CONTINUOUS
 62
     7
100
AcDbLine
 10
212.0525077842
 20
369.5619840104
 30
0.0
 11
212.0525077842
 21
367.3119841072
 31
0.0
  0
ARC
  5
11C
330
1F
100
AcDbEntity
  8
0
  6
CONTINUOUS
 62
     7
100
AcDbCircle
 10
283.9770742761
 20
367.3119840104
 30
0.0
 40
0.2500000000000568
100
AcDbArc
 50
270.0
 51
0.0
  0
LINE
  5
11D
330
1F
100
AcDbEntity
  8
0
  6
CONTINUOUS
 62
     7
100
AcDbLine
 10
284.2270745821
 20
367.3119841072
 30
0.0
 11
284.2270745821
 21
369.5619840104
 31
0.0
  0
ARC
  5
11E
330
1F
100
AcDbEntity
  8
0
  6
CONTINUOUS
 62
     7
100
AcDbCircle
 10
267.5574829404
 20
367.3119840104
 30
0.0
 40
0.25
100
AcDbArc
 50
270.0
 51
0.0
  0
LINE
  5
11F
330
1F
100
AcDbEntity
  8
0
  6
CONTINUOUS
 62
     7
100
AcDbLine
 10
267.8074850626
 20
367.3119841072
 30
0.0
 11
267.8074850626
 21
369.5619840104
 31
0.0
  0
ARC
  5
120
330
1F
100
AcDbEntity
  8
0
  6
CONTINUOUS
 62
     7
100
AcDbCircle
 10
115.4029269485
 20
367.3119840104
 30
0.0
 40
0.2500000000000142
100
AcDbArc
 50
180.0
 51
270.0
  0
LINE
  5
121
330
1F
100
AcDbEntity
  8
0
  6
CONTINUOUS
 62
     7
100
AcDbLine
 10
115.1529266424
 20
369.5619840104
 30
0.0
 11
115.1529266424
 21
367.3119841072
 31
0.0
  0
ARC
  5
122
330
1F
100
AcDbEntity
  8
0
  6
CONTINUOUS
 62
     7
100
AcDbCircle
 10
260.9733544984
 20
367.3119840104
 30
0.0
 40
0.25
100
AcDbArc
 50
180.0
 51
270.0
  0
LINE
  5
123
330
1F
100
AcDbEntity
  8
0
  6
CONTINUOUS
 62
     7
100
AcDbLine
 10
260.7233538218
 20
369.5619840104
 30
0.0
 11
260.7233538218
 21
367.3119841072
 31
0.0
  0
ARC
  5
124
330
1F
100
AcDbEntity
  8
0
  6
CONTINUOUS
 62
     7
100
AcDbCircle
 10
224.9538137133
 20
367.3119840104
 30
0.0
 40
0.25
100
AcDbArc
 50
270.0
 51
0.0
  0
LINE
  5
125
330
1F
100
AcDbEntity
  8
0
  6
CONTINUOUS
 62
     7
100
AcDbLine
 10
225.2038135119
 20
367.3119841072
 30
0.0
 11
225.2038135119
 21
369.5619840104
 31
0.0
  0
ARC
  5
126
330
1F
100
AcDbEntity
  8
0
  6
CONTINUOUS
 62
     7
100
AcDbCircle
 10
199.9681476519
 20
367.3119840104
 30
0.0
 40
0.25
100
AcDbArc
 50
270.0
 51
0.0
  0
LINE
  5
127
330
1F
100
AcDbEntity
  8
0
  6
CONTINUOUS
 62
     7
100
AcDbLine
 10
200.218147649
 20
367.3119841072
 30
0.0
 11
200.218147649
 21
369.5619840104
 31
0.0
  0
ARC
  5
128
330
1F
100
AcDbEntity
  8
0
  6
CONTINUOUS
 62
     7
100
AcDbCircle
 10
254.4129001918
 20
367.3119840104
 30
0.0
 40
0.25
100
AcDbArc
 50
180.0
 51
270.0
  0
LINE
  5
129
330
1F
100
AcDbEntity
  8
0
  6
CONTINUOUS
 62
     7
100
AcDbLine
 10
254.1629015394
 20
369.5619840104
 30
0.0
 11
254.1629015394
 21
367.3119841072
 31
0.0
  0
ARC
  5
12A
330
1F
100
AcDbEntity
  8
0
  6
CONTINUOUS
 62
     7
100
AcDbCircle
 10
128.2710630192
 20
367.3119840104
 30
0.0
 40
0.25
100
AcDbArc
 50
270.0
 51
308.679661811
  0
ARC
  5
12B
330
1F
100
AcDbEntity
  8
0
  6
CONTINUOUS
 62
     7
100
AcDbCircle
 10
270.796455411
 20
367.3119840104
 30
0.0
 40
0.25
100
AcDbArc
 50
270.0
 51
308.6796618099
  0
SPLINE
  5
12C
330
1F
100
AcDbEntity
  8
0
  6
CONTINUOUS
 62
     7
100
AcDbSpline
210
0.0
220
0.0
230
1.0
 70
    24
 71
     3
 72
    40
 73
    36
 74
     0
 42
0.000000001
 43
0.00000001
 40
0.0
 40
0.0
 40
0.0
 40
0.0
 40
0.0301345197455415
 40
0.0612794362864639
 40
0.0933458872649901
 40
0.1262229171341915
 40
0.1597785244895419
 40
0.1938616781814905
 40
0.2283058426557329
 40
0.2629333740310658
 40
0.2975609222851248
 40
0.3320050878572952
 40
0.3547296694322106
 40
0.3772854968220309
 40
0.399659782745087
 40
0.4325368244368777
 40
0.4646032704389013
 40
0.4957481930221432
 40
0.5258827137479104
 40
0.5560172348049355
 40
0.5871621603381416
 40
0.6192286035779909
 40
0.6521056324080917
 40
0.6856612311157404
 40
0.7197443826795251
 40
0.7541885476665937
 40
0.7888160873385597
 40
0.8234436300559631
 40
0.8578877959548032
 40
0.8806123737617212
 40
0.9031682130598709
 40
0.9255424999296237
 40
0.958419539850764
 40
0.9904859867799388
 40
1.0
 40
1.0
 40
1.0
 40
1.0
 10
100.9750678129456
 20
369.5619840103875
 30
0.0
 10
101.5304593431797
 20
369.5619840103875
 30
0.0
 10
102.6598644300503
 20
369.5619840103875
 30
0.0
 10
105.4222496008758
 20
369.5619840103875
 30
0.0
 10
109.0518364179594
 20
369.5619840103875
 30
0.0
 10
113.6482325725329
 20
369.5619840103875
 30
0.0
 10
119.184759909787
 20
369.5619840103875
 30
0.0
 10
125.6320400075205
 20
369.5619840103875
 30
0.0
 10
132.9217783937314
 20
369.5619840103875
 30
0.0
 10
140.9581913354795
 20
369.5619840103875
 30
0.0
 10
149.6184864496237
 20
369.5619840103875
 30
0.0
 10
157.7556389368239
 20
369.5619840103875
 30
0.0
 10
165.0952849959353
 20
369.5619840103875
 30
0.0
 10
171.4812233369315
 20
369.5619840103875
 30
0.0
 10
178.9705198040796
 20
369.5619840103875
 30
0.0
 10
187.5337252345211
 20
369.5619840103875
 30
0.0
 10
197.0672565408446
 20
369.5619840103875
 30
0.0
 10
206.3509010341406
 20
369.5619840103875
 30
0.0
 10
215.3860076793424
 20
369.5619840103875
 30
0.0
 10
224.2931489844615
 20
369.5619840103875
 30
0.0
 10
233.1813245129586
 20
369.5619840103875
 30
0.0
 10
242.0305148955895
 20
369.5619840103875
 30
0.0
 10
250.7017201771404
 20
369.5619840103875
 30
0.0
 10
259.0470167284691
 20
369.5619840103875
 30
0.0
 10
266.9163813506808
 20
369.5619840103875
 30
0.0
 10
274.1653735648597
 20
369.5619840103875
 30
0.0
 10
280.6632499697655
 20
369.5619840103875
 30
0.0
 10
286.300428493858
 20
369.5619840103875
 30
0.0
 10
290.4777041158131
 20
369.5619840103875
 30
0.0
 10
293.4894844411564
 20
369.5619840103875
 30
0.0
 10
295.6175369595542
 20
369.5619840103875
 30
0.0
 10
297.5798845784639
 20
369.5619840103875
 30
0.0
 10
299.0254898620277
 20
369.5619840103875
 30
0.0
 10
299.7381581947839
 20
369.5619840103875
 30
0.0
 10
299.6245728978516
 20
369.5619840103875
 30
0.0
 10
299.5985834784768
 20
369.5619840103875
 30
0.0
  0
SPLINE
  5
12D
330
1F
100
AcDbEntity
  8
0
  6
CONTINUOUS
 62
     7
100
AcDbSpline
210
0.0
220
0.0
230
1.0
 70
    24
 71
     3
 72
     9
 73
     5
 74
     0
 42
0.000000001
 43
0.00000001
 40
0.0
 40
0.0
 40
0.0
 40
0.0
 40
0.417864019227751
 40
1.0
 40
1.0
 40
1.0
 40
1.0
 10
99.78141774609304
 20
369.5619840103875
 30
0.0
 10
99.7793044139634
 20
369.5619840103875
 30
0.0
 10
99.77424695021348
 20
369.5619840103875
 30
0.0
 10
100.4720004787639
 20
369.5619840103875
 30
0.0
 10
100.8781879134438
 20
369.5619840103875
 30
0.0
  0
LINE
  5
12E
330
1F
100
AcDbEntity
  8
0
  6
CONTINUOUS
 62
     7
100
AcDbLine
 10
215.1364902891
 20
377.5619843904
 30
0.0
 11
99.1899981089
 21
377.5619843904
 31
0.0
  0
LINE
  5
12F
330
1F
100
AcDbEntity
  8
0
  6
CONTINUOUS
 62
     7
100
AcDbLine
 10
300.1900031157
 20
377.5619843904
 30
0.0
 11
215.1364902891
 21
377.5619843904
 31
0.0
  0
SPLINE
  5
130
330
1F
100
AcDbEntity
  8
0
  6
CONTINUOUS
 62
     7
100
AcDbSpline
210
0.0
220
0.0
230
1.0
 70
    24
 71
     3
 72
    10
 73
     6
 74
     0
 42
0.000000001
 43
0.00000001
 40
0.0
 40
0.0
 40
0.0
 40
0.0
 40
0.2517488464568322
 40
0.5155227424122124
 40
1.0
 40
1.0
 40
1.0
 40
1.0
 10
205.4753606133125
 20
367.0619840662669
 30
0.0
 10
205.3826313770187
 20
367.0619840662669
 30
0.0
 10
205.1927435945373
 20
367.0619840662669
 30
0.0
 10
204.7411162806452
 20
367.0619840662669
 30
0.0
 10
204.3563081314109
 20
367.0619840662669
 30
0.0
 10
204.1071527562998
 20
367.0619840662669
 30
0.0
  0
SPLINE
  5
131
330
1F
100
AcDbEntity
  8
0
  6
CONTINUOUS
 62
     7
100
AcDbSpline
210
0.0
220
0.0
230
1.0
 70
    24
 71
     3
 72
    11
 73
     7
 74
     0
 42
0.000000001
 43
0.00000001
 40
0.0
 40
0.0
 40
0.0
 40
0.0
 40
0.4821756831438283
 40
0.7306675168827843
 40
0.9794767255632182
 40
0.9999999999999999
 40
0.9999999999999999
 40
0.9999999999999999
 40
0.9999999999999999
 10
204.1071527562998
 20
367.0619840662669
 30
0.0
 10
203.8442747146103
 20
367.0619840662669
 30
0.0
 10
203.4459210591295
 20
367.0619840662669
 30
0.0
 10
202.9789947691597
 20
367.0619840662669
 30
0.0
 10
202.7293840227971
 20
367.0619840662669
 30
0.0
 10
202.6442523906636
 20
367.0619840662669
 30
0.0
 10
202.6377653162889
 20
367.0619840662669
 30
0.0
  0
SPLINE
  5
132
330
1F
100
AcDbEntity
  8
0
  6
CONTINUOUS
 62
     7
100
AcDbSpline
210
0.0
220
0.0
230
1.0
 70
    24
 71
     3
 72
    10
 73
     6
 74
     0
 42
0.000000001
 43
0.00000001
 40
0.0
 40
0.0
 40
0.0
 40
0.0
 40
0.0239630553771458
 40
0.3680359177500556
 40
1.0
 40
1.0
 40
1.0
 40
1.0
 10
187.6477668918631
 20
367.0619840662669
 30
0.0
 10
187.639606038373
 20
367.0619840662669
 30
0.0
 10
187.5142677976275
 20
367.0619840662669
 30
0.0
 10
187.1247313375048
 20
367.0619840662669
 30
0.0
 10
186.737599452816
 20
367.0619840662669
 30
0.0
 10
186.4869394265077
 20
367.0619840662669
 30
0.0
  0
SPLINE
  5
133
330
1F
100
AcDbEntity
  8
0
  6
CONTINUOUS
 62
     7
100
AcDbSpline
210
0.0
220
0.0
230
1.0
 70
    24
 71
     3
 72
    10
 73
     6
 74
     0
 42
0.000000001
 43
0.00000001
 40
0.0
 40
0.0
 40
0.0
 40
0.0
 40
0.6201353278433521
 40
0.9397250939683383
 40
1.0
 40
1.0
 40
1.0
 40
1.0
 10
186.4869394265077
 20
367.0619840662669
 30
0.0
 10
186.2369711735774
 20
367.0619840662669
 30
0.0
 10
185.8581805621943
 20
367.0619840662669
 30
0.0
 10
185.5105660261205
 20
367.0619840662669
 30
0.0
 10
185.407455148227
 20
367.0619840662669
 30
0.0
 10
185.3910940624736
 20
367.0619840662669
 30
0.0
  0
SPLINE
  5
134
330
1F
100
AcDbEntity
  8
0
  6
CONTINUOUS
 62
     7
100
AcDbSpline
210
0.0
220
0.0
230
1.0
 70
    24
 71
     3
 72
     9
 73
     5
 74
     0
 42
0.000000001
 43
0.00000001
 40
0.0
 40
0.0
 40
0.0
 40
0.0
 40
0.3442500964143107
 40
0.9999999999999999
 40
0.9999999999999999
 40
0.9999999999999999
 40
0.9999999999999999
 10
222.4996345974467
 20
367.0619840662669
 30
0.0
 10
222.4064274220265
 20
367.0619840662669
 30
0.0
 10
222.1356731756485
 20
367.0619840662669
 30
0.0
 10
221.772479343791
 20
367.0619840662669
 30
0.0
 10
221.5343150235675
 20
367.0619840662669
 30
0.0
  0
SPLINE
  5
135
330
1F
100
AcDbEntity
  8
0
  6
CONTINUOUS
 62
     7
100
AcDbSpline
210
0.0
220
0.0
230
1.0
 70
    24
 71
     3
 72
    11
 73
     7
 74
     0
 42
0.000000001
 43
0.00000001
 40
0.0
 40
0.0
 40
0.0
 40
0.0
 40
0.4238185434571369
 40
0.6422346496660781
 40
0.8609319876835813
 40
1.0
 40
1.0
 40
1.0
 40
1.0
 10
221.5343150235675
 20
367.0619840662669
 30
0.0
 10
221.2749729350982
 20
367.0619840662669
 30
0.0
 10
220.8819781548957
 20
367.0619840662669
 30
0.0
 10
220.370723621583
 20
367.0619840662669
 30
0.0
 10
220.0362225230986
 20
367.0619840662669
 30
0.0
 10
219.878903486717
 20
367.0619840662669
 30
0.0
 10
219.8177515454553
 20
367.0619840662669
 30
0.0
  0
LINE
  5
136
330
1F
100
AcDbEntity
  8
0
  6
CONTINUOUS
 62
     7
100
AcDbLine
 10
238.5866432376
 20
367.0619840663
 30
0.0
 11
238.0067757256
 21
367.0619840663
 31
0.0
  0
SPLINE
  5
137
330
1F
100
AcDbEntity
  8
0
  6
CONTINUOUS
 62
     7
100
AcDbSpline
210
0.0
220
0.0
230
1.0
 70
    24
 71
     3
 72
    11
 73
     7
 74
     0
 42
0.000000001
 43
0.00000001
 40
0.0
 40
0.0
 40
0.0
 40
0.0
 40
0.3955634662054307
 40
0.5994185648622449
 40
0.8035369512825922
 40
1.0
 40
1.0
 40
1.0
 40
1.0
 10
238.0067757256291
 20
367.0619840662669
 30
0.0
 10
237.7616505327849
 20
367.0619840662669
 30
0.0
 10
237.390199163133
 20
367.0619840662669
 30
0.0
 10
236.8616735953925
 20
367.0619840662669
 30
0.0
 10
236.4666819656324
 20
367.0619840662669
 30
0.0
 10
236.2451327481662
 20
367.0619840662669
 30
0.0
 10
236.1364751048348
 20
367.0619840662669
 30
0.0
  0
SPLINE
  5
138
330
1F
100
AcDbEntity
  8
0
  6
CONTINUOUS
 62
     7
100
AcDbSpline
210
0.0
220
0.0
230
1.0
 70
    24
 71
     3
 72
    21
 73
    17
 74
     0
 42
0.000000001
 43
0.00000001
 40
0.0
 40
0.0
 40
0.0
 40
0.0
 40
0.0314752417679119
 40
0.0631137477049831
 40
0.0950625777482343
 40
0.1825636411880477
 40
0.2701880882156458
 40
0.3576891872640708
 40
0.4453136589705443
 40
0.5401049801760919
 40
0.635020922403204
 40
0.7298122996916788
 40
0.8247282980692564
 40
0.883281463285998
 40
0.9413929580076762
 40
1.0
 40
1.0
 40
1.0
 40
1.0
 10
156.8121088089512
 20
367.0619840103875
 30
0.0
 10
156.8114429887436
 20
367.0619840103875
 30
0.0
 10
156.810107894675
 20
367.0619840103875
 30
0.0
 10
156.7962052831084
 20
367.0619840103875
 30
0.0
 10
156.7606994222086
 20
367.0619840103875
 30
0.0
 10
156.675003725026
 20
367.0619840103875
 30
0.0
 10
156.4988520366202
 20
367.0619840103875
 30
0.0
 10
156.2643364781901
 20
367.0619840103875
 30
0.0
 10
155.9692200106078
 20
367.0619840103875
 30
0.0
 10
155.6216836645285
 20
367.0619840103875
 30
0.0
 10
155.2305262044191
 20
367.0619840103875
 30
0.0
 10
154.8224303485734
 20
367.0619840103875
 30
0.0
 10
154.4656661411655
 20
367.0619840103875
 30
0.0
 10
154.1723012487592
 20
367.0619840103875
 30
0.0
 10
153.9381615257379
 20
367.0619840103875
 30
0.0
 10
153.7945854481067
 20
367.0619840103875
 30
0.0
 10
153.7224926216567
 20
367.0619840103875
 30
0.0
  0
SPLINE
  5
139
330
1F
100
AcDbEntity
  8
0
  6
CONTINUOUS
 62
     7
100
AcDbSpline
210
0.0
220
0.0
230
1.0
 70
    24
 71
     3
 72
    10
 73
     6
 74
     0
 42
0.000000001
 43
0.00000001
 40
0.0
 40
0.0
 40
0.0
 40
0.0
 40
0.1865850316014507
 40
0.4733286959404043
 40
1.0
 40
1.0
 40
1.0
 40
1.0
 10
207.331649951633
 20
367.0619840662669
 30
0.0
 10
207.2706370056121
 20
367.0619840662669
 30
0.0
 10
207.115859433544
 20
367.0619840662669
 30
0.0
 10
206.7078796637037
 20
367.0619840662669
 30
0.0
 10
206.3267348436045
 20
367.0619840662669
 30
0.0
 10
206.0799505487047
 20
367.0619840662669
 30
0.0
  0
SPLINE
  5
13A
330
1F
100
AcDbEntity
  8
0
  6
CONTINUOUS
 62
     7
100
AcDbSpline
210
0.0
220
0.0
230
1.0
 70
    24
 71
     3
 72
    11
 73
     7
 74
     0
 42
0.000000001
 43
0.00000001
 40
0.0
 40
0.0
 40
0.0
 40
0.0
 40
0.4694785537922563
 40
0.711425429412365
 40
0.9536832081767812
 40
0.9999999999999999
 40
0.9999999999999999
 40
0.9999999999999999
 40
0.9999999999999999
 10
206.0799505487047
 20
367.0619840662669
 30
0.0
 10
205.8169449283437
 20
367.0619840662669
 30
0.0
 10
205.4183987436634
 20
367.0619840662669
 30
0.0
 10
204.9402744045692
 20
367.0619840662669
 30
0.0
 10
204.6750299394889
 20
367.0619840662669
 30
0.0
 10
204.5773443740329
 20
367.0619840662669
 30
0.0
 10
204.5616656467281
 20
367.0619840662669
 30
0.0
  0
SPLINE
  5
13B
330
1F
100
AcDbEntity
  8
0
  6
CONTINUOUS
 62
     7
100
AcDbSpline
210
0.0
220
0.0
230
1.0
 70
    24
 71
     3
 72
    10
 73
     6
 74
     0
 42
0.000000001
 43
0.00000001
 40
0.0
 40
0.0
 40
0.0
 40
0.0
 40
0.023963784121444
 40
0.3680353828824882
 40
0.9999999999999999
 40
0.9999999999999999
 40
0.9999999999999999
 40
0.9999999999999999
 10
190.2289357893131
 20
367.0619840662669
 30
0.0
 10
190.2207746262854
 20
367.0619840662669
 30
0.0
 10
190.0954356253812
 20
367.0619840662669
 30
0.0
 10
189.7058979180954
 20
367.0619840662669
 30
0.0
 10
189.3187676820811
 20
367.0619840662669
 30
0.0
 10
189.0681083239577
 20
367.0619840662669
 30
0.0
  0
SPLINE
  5
13C
330
1F
100
AcDbEntity
  8
0
  6
CONTINUOUS
 62
     7
100
AcDbSpline
210
0.0
220
0.0
230
1.0
 70
    24
 71
     3
 72
    10
 73
     6
 74
     0
 42
0.000000001
 43
0.00000001
 40
0.0
 40
0.0
 40
0.0
 40
0.0
 40
0.6201345467601993
 40
0.9397249700302175
 40
1.0
 40
1.0
 40
1.0
 40
1.0
 10
189.0681083239577
 20
367.0619840662669
 30
0.0
 10
188.818139817745
 20
367.0619840662669
 30
0.0
 10
188.4393483954056
 20
367.0619840662669
 30
0.0
 10
188.0917349323769
 20
367.0619840662669
 30
0.0
 10
187.988624046883
 20
367.0619840662669
 30
0.0
 10
187.9722629599235
 20
367.0619840662669
 30
0.0
  0
SPLINE
  5
13D
330
1F
100
AcDbEntity
  8
0
  6
CONTINUOUS
 62
     7
100
AcDbSpline
210
0.0
220
0.0
230
1.0
 70
    24
 71
     3
 72
    24
 73
    20
 74
     0
 42
0.000000001
 43
0.00000001
 40
0.0
 40
0.0
 40
0.0
 40
0.0
 40
0.0278383398514865
 40
0.0554470819385247
 40
0.082943369963844
 40
0.1104457846271899
 40
0.1380728277382179
 40
0.1659414113298456
 40
0.2509268455847822
 40
0.3360213771675793
 40
0.4176262440075404
 40
0.4993430049268812
 40
0.5835854184755602
 40
0.6679407908325583
 40
0.7521831438152131
 40
0.8365384685892261
 40
0.8911273140462731
 40
0.9453120702008561
 40
1.0
 40
1.0
 40
1.0
 40
1.0
 10
252.8046109522529
 20
367.0619840103875
 30
0.0
 10
252.770227081209
 20
367.0619840103875
 30
0.0
 10
252.7017429214028
 20
367.0619840103875
 30
0.0
 10
252.5930407966922
 20
367.0619840103875
 30
0.0
 10
252.4806935898667
 20
367.0619840103875
 30
0.0
 10
252.3642457093906
 20
367.0619840103875
 30
0.0
 10
252.243807846338
 20
367.0619840103875
 30
0.0
 10
252.0351056872133
 20
367.0619840103875
 30
0.0
 10
251.7286199711278
 20
367.0619840103875
 30
0.0
 10
251.3319549665782
 20
367.0619840103875
 30
0.0
 10
250.9485562444849
 20
367.0619840103875
 30
0.0
 10
250.5892980943434
 20
367.0619840103875
 30
0.0
 10
250.2613733311628
 20
367.0619840103875
 30
0.0
 10
249.9819182887603
 20
367.0619840103875
 30
0.0
 10
249.7619923494346
 20
367.0619840103875
 30
0.0
 10
249.6311709589025
 20
367.0619840103875
 30
0.0
 10
249.5649586956457
 20
367.0619840103875
 30
0.0
 10
249.5396285669831
 20
367.0619840103875
 30
0.0
 10
249.5505739332869
 20
367.0619840103875
 30
0.0
 10
249.5560719093752
 20
367.0619840103875
 30
0.0
  0
SPLINE
  5
13E
330
1F
100
AcDbEntity
  8
0
  6
CONTINUOUS
 62
     7
100
AcDbSpline
210
0.0
220
0.0
230
1.0
 70
    24
 71
     3
 72
     9
 73
     5
 74
     0
 42
0.000000001
 43
0.00000001
 40
0.0
 40
0.0
 40
0.0
 40
0.0
 40
0.2639506941411059
 40
1.0
 40
1.0
 40
1.0
 40
1.0
 10
223.5180060304664
 20
367.0619840662669
 30
0.0
 10
223.4592708841263
 20
367.0619840662669
 30
0.0
 10
223.2367477097463
 20
367.0619840662669
 30
0.0
 10
222.9219764985166
 20
367.0619840662669
 30
0.0
 10
222.6902893669865
 20
367.0619840662669
 30
0.0
  0
SPLINE
  5
13F
330
1F
100
AcDbEntity
  8
0
  6
CONTINUOUS
 62
     7
100
AcDbSpline
210
0.0
220
0.0
230
1.0
 70
    24
 71
     3
 72
     9
 73
     5
 74
     0
 42
0.000000001
 43
0.00000001
 40
0.0
 40
0.0
 40
0.0
 40
0.0
 40
0.1343147979006985
 40
0.9999999999999999
 40
0.9999999999999999
 40
0.9999999999999999
 40
0.9999999999999999
 10
221.205992151048
 20
367.0619840662669
 30
0.0
 10
221.1881700809482
 20
367.0619840662669
 30
0.0
 10
221.0554812754088
 20
367.0619840662669
 30
0.0
 10
220.9514389955442
 20
367.0619840662669
 30
0.0
 10
220.8613711334727
 20
367.0619840662669
 30
0.0
  0
SPLINE
  5
140
330
1F
100
AcDbEntity
  8
0
  6
CONTINUOUS
 62
     7
100
AcDbSpline
210
0.0
220
0.0
230
1.0
 70
    24
 71
     3
 72
    24
 73
    20
 74
     0
 42
0.000000001
 43
0.00000001
 40
0.0
 40
0.0
 40
0.0
 40
0.0
 40
0.0291160821104507
 40
0.05797345181182
 40
0.0867069471923366
 40
0.1154531495426424
 40
0.1443484599654203
 40
0.1735271885424906
 40
0.2534412777692567
 40
0.3334680523359566
 40
0.4133821740852091
 40
0.4934089711894668
 40
0.57998120017849
 40
0.6666672446433327
 40
0.7532395248495493
 40
0.8399256205989831
 40
0.8934018034650173
 40
0.9464746118599967
 40
1.0
 40
1.0
 40
1.0
 40
1.0
 10
143.4243531117003
 20
367.0619840103875
 30
0.0
 10
143.4234945944066
 20
367.0619840103875
 30
0.0
 10
143.4217851882178
 20
367.0619840103875
 30
0.0
 10
143.4075867019885
 20
367.0619840103875
 30
0.0
 10
143.38483234347
 20
367.0619840103875
 30
0.0
 10
143.3527163881588
 20
367.0619840103875
 30
0.0
 10
143.3114360557755
 20
367.0619840103875
 30
0.0
 10
143.2320882392241
 20
367.0619840103875
 30
0.0
 10
143.0888817754166
 20
367.0619840103875
 30
0.0
 10
142.8468906711686
 20
367.0619840103875
 30
0.0
 10
142.5556671474653
 20
367.0619840103875
 30
0.0
 10
142.2142960151211
 20
367.0619840103875
 30
0.0
 10
141.8330872308384
 20
367.0619840103875
 30
0.0
 10
141.4245620530606
 20
367.0619840103875
 30
0.0
 10
141.0159697480217
 20
367.0619840103875
 30
0.0
 10
140.6744174484338
 20
367.0619840103875
 30
0.0
 10
140.4037879334932
 20
367.0619840103875
 30
0.0
 10
140.1942535711247
 20
367.0619840103875
 30
0.0
 10
140.0717397412571
 20
367.0619840103875
 30
0.0
 10
140.0102227502634
 20
367.0619840103875
 30
0.0
  0
SPLINE
  5
141
330
1F
100
AcDbEntity
  8
0
  6
CONTINUOUS
 62
     7
100
AcDbSpline
210
0.0
220
0.0
230
1.0
 70
    24
 71
     3
 72
    11
 73
     7
 74
     0
 42
0.000000001
 43
0.00000001
 40
0.0
 40
0.0
 40
0.0
 40
0.0
 40
0.0842275864276272
 40
0.4497713536863916
 40
0.8153161580135427
 40
1.0
 40
1.0
 40
1.0
 40
1.0
 10
235.8081540949605
 20
367.0619840662669
 30
0.0
 10
235.7510511079249
 20
367.0619840662669
 30
0.0
 10
235.4461238404128
 20
367.0619840662669
 30
0.0
 10
235.0498083012818
 20
367.0619840662669
 30
0.0
 10
234.7417742876781
 20
367.0619840662669
 30
0.0
 10
234.7614575476972
 20
367.0619840662669
 30
0.0
 10
234.7680642195008
 20
367.0619840662669
 30
0.0
  0
SPLINE
  5
142
330
1F
100
AcDbEntity
  8
0
  6
CONTINUOUS
 62
     7
100
AcDbSpline
210
0.0
220
0.0
230
1.0
 70
    24
 71
     3
 72
    16
 73
    12
 74
     0
 42
0.000000001
 43
0.00000001
 40
0.0
 40
0.0
 40
0.0
 40
0.0
 40
0.0352220243266161
 40
0.1270398092882632
 40
0.295682701383246
 40
0.4643272506982279
 40
0.5560238980627022
 40
0.647841349594976
 40
0.739539019935074
 40
0.8313559804095323
 40
1.0
 40
1.0
 40
1.0
 40
1.0
 10
161.2898050732873
 20
367.0619840662669
 30
0.0
 10
161.2923820319321
 20
367.0619840662669
 30
0.0
 10
161.3016766804096
 20
367.0619840662669
 30
0.0
 10
161.2063121802811
 20
367.0619840662669
 30
0.0
 10
160.9202089397512
 20
367.0619840662669
 30
0.0
 10
160.4280863281492
 20
367.0619840662669
 30
0.0
 10
159.9522905767707
 20
367.0619840662669
 30
0.0
 10
159.5517364302475
 20
367.0619840662669
 30
0.0
 10
159.1421665542025
 20
367.0619840662669
 30
0.0
 10
158.6211391547541
 20
367.0619840662669
 30
0.0
 10
158.2888161791377
 20
367.0619840662669
 30
0.0
 10
158.0736427493356
 20
367.0619840662669
 30
0.0
  0
SPLINE
  5
143
330
1F
100
AcDbEntity
  8
0
  6
CONTINUOUS
 62
     7
100
AcDbSpline
210
0.0
220
0.0
230
1.0
 70
    24
 71
     3
 72
    25
 73
    21
 74
     0
 42
0.000000001
 43
0.00000001
 40
0.0
 40
0.0
 40
0.0
 40
0.0
 40
0.0256585696829603
 40
0.0511055193384238
 40
0.0764488201987036
 40
0.1017977679748132
 40
0.1272615856648576
 40
0.1529480309713201
 40
0.2312790197597871
 40
0.3097105634462942
 40
0.3849256866659445
 40
0.4602439425504929
 40
0.5378900899053284
 40
0.6156403512812548
 40
0.693286442813309
 40
0.7710366603311507
 40
0.8462518502934734
 40
0.9215701665892352
 40
0.9609717947746667
 40
1.0
 40
1.0
 40
1.0
 40
1.0
 10
265.2810818849783
 20
367.0619840103875
 30
0.0
 10
265.2530259959699
 20
367.0619840103875
 30
0.0
 10
265.1971456099627
 20
367.0619840103875
 30
0.0
 10
265.105651496956
 20
367.0619840103875
 30
0.0
 10
265.0091221342185
 20
367.0619840103875
 30
0.0
 10
264.9069916236829
 20
367.0619840103875
 30
0.0
 10
264.7993984482592
 20
367.0619840103875
 30
0.0
 10
264.6097697826186
 20
367.0619840103875
 30
0.0
 10
264.3224981643018
 20
367.0619840103875
 30
0.0
 10
263.9334956281229
 20
367.0619840103875
 30
0.0
 10
263.5421011259656
 20
367.0619840103875
 30
0.0
 10
263.1591137296051
 20
367.0619840103875
 30
0.0
 10
262.792727983238
 20
367.0619840103875
 30
0.0
 10
262.4603194502817
 20
367.0619840103875
 30
0.0
 10
262.1759898254936
 20
367.0619840103875
 30
0.0
 10
261.9566705751278
 20
367.0619840103875
 30
0.0
 10
261.8044300095709
 20
367.0619840103875
 30
0.0
 10
261.7397653073297
 20
367.0619840103875
 30
0.0
 10
261.7224614897295
 20
367.0619840103875
 30
0.0
 10
261.7306237866963
 20
367.0619840103875
 30
0.0
 10
261.7346855038679
 20
367.0619840103875
 30
0.0
  0
SPLINE
  5
144
330
1F
100
AcDbEntity
  8
0
  6
CONTINUOUS
 62
     7
100
AcDbSpline
210
0.0
220
0.0
230
1.0
 70
    24
 71
     3
 72
    10
 73
     6
 74
     0
 42
0.000000001
 43
0.00000001
 40
0.0
 40
0.0
 40
0.0
 40
0.0
 40
0.0239649768280214
 40
0.3680358784288337
 40
1.0
 40
1.0
 40
1.0
 40
1.0
 10
192.8101042211018
 20
367.0619840662669
 30
0.0
 10
192.8019432363935
 20
367.0619840662669
 30
0.0
 10
192.6766130431902
 20
367.0619840662669
 30
0.0
 10
192.2870601280913
 20
367.0619840662669
 30
0.0
 10
191.8999334525939
 20
367.0619840662669
 30
0.0
 10
191.6492762900851
 20
367.0619840662669
 30
0.0
  0
SPLINE
  5
145
330
1F
100
AcDbEntity
  8
0
  6
CONTINUOUS
 62
     7
100
AcDbSpline
210
0.0
220
0.0
230
1.0
 70
    24
 71
     3
 72
    10
 73
     6
 74
     0
 42
0.000000001
 43
0.00000001
 40
0.0
 40
0.0
 40
0.0
 40
0.0
 40
0.6201357211558594
 40
0.9397253809630447
 40
1.0
 40
1.0
 40
1.0
 40
1.0
 10
191.6492762900851
 20
367.0619840662669
 30
0.0
 10
191.3993092035897
 20
367.0619840662669
 30
0.0
 10
191.020520484328
 20
367.0619840662669
 30
0.0
 10
190.6729017563348
 20
367.0619840662669
 30
0.0
 10
190.569792607766
 20
367.0619840662669
 30
0.0
 10
190.5534318573735
 20
367.0619840662669
 30
0.0
  0
SPLINE
  5
146
330
1F
100
AcDbEntity
  8
0
  6
CONTINUOUS
 62
     7
100
AcDbSpline
210
0.0
220
0.0
230
1.0
 70
    24
 71
     3
 72
    10
 73
     6
 74
     0
 42
0.000000001
 43
0.00000001
 40
0.0
 40
0.0
 40
0.0
 40
0.0
 40
0.1726920748413606
 40
0.4643342607456943
 40
1.0
 40
1.0
 40
1.0
 40
1.0
 10
208.9253212250731
 20
367.0619840662669
 30
0.0
 10
208.8734754213932
 20
367.0619840662669
 30
0.0
 10
208.7340724815268
 20
367.0619840662669
 30
0.0
 10
208.3489071982016
 20
367.0619840662669
 30
0.0
 10
207.9736783149746
 20
367.0619840662669
 30
0.0
 10
207.7307249344848
 20
367.0619840662669
 30
0.0
  0
SPLINE
  5
147
330
1F
100
AcDbEntity
  8
0
  6
CONTINUOUS
 62
     7
100
AcDbSpline
210
0.0
220
0.0
230
1.0
 70
    24
 71
     3
 72
    18
 73
    14
 74
     0
 42
0.000000001
 43
0.00000001
 40
0.0
 40
0.0
 40
0.0
 40
0.0
 40
0.0019868285592971
 40
0.0817877356533007
 40
0.1614842388433355
 40
0.2412854250876769
 40
0.3878581967479982
 40
0.5344317873406875
 40
0.6141286050910889
 40
0.6939295909593866
 40
0.7736251778526919
 40
0.8534267240688858
 40
1.0
 40
1.0
 40
1.0
 40
1.0
 10
132.5829191990159
 20
367.0619840662669
 30
0.0
 10
132.5832572510544
 20
367.0619840662669
 30
0.0
 10
132.5971731526732
 20
367.0619840662669
 30
0.0
 10
132.5469303354833
 20
367.0619840662669
 30
0.0
 10
132.4299077466254
 20
367.0619840662669
 30
0.0
 10
132.1677629562881
 20
367.0619840662669
 30
0.0
 10
131.6995415650519
 20
367.0619840662669
 30
0.0
 10
131.0954033281621
 20
367.0619840662669
 30
0.0
 10
130.5732651190754
 20
367.0619840662669
 30
0.0
 10
130.1647848099468
 20
367.0619840662669
 30
0.0
 10
129.774865410515
 20
367.0619840662669
 30
0.0
 10
129.3120753930713
 20
367.0619840662669
 30
0.0
 10
129.0657407858643
 20
367.0619840662669
 30
0.0
 10
128.9062439389489
 20
367.0619840662669
 30
0.0
  0
SPLINE
  5
148
330
1F
100
AcDbEntity
  8
0
  6
CONTINUOUS
 62
     7
100
AcDbSpline
210
0.0
220
0.0
230
1.0
 70
    24
 71
     3
 72
    15
 73
    11
 74
     0
 42
0.000000001
 43
0.00000001
 40
0.0
 40
0.0
 40
0.0
 40
0.0
 40
0.1610063418758876
 40
0.2439810609976403
 40
0.327063146333236
 40
0.4857726390582876
 40
0.6495575636189955
 40
0.8133423899861107
 40
0.9720519852855678
 40
0.9999999999999999
 40
0.9999999999999999
 40
0.9999999999999999
 40
0.9999999999999999
 10
250.6225048489831
 20
367.0619840662669
 30
0.0
 10
250.4290083091857
 20
367.0619840662669
 30
0.0
 10
250.1357932064197
 20
367.0619840662669
 30
0.0
 10
249.6359811895036
 20
367.0619840662669
 30
0.0
 10
249.1198037368485
 20
367.0619840662669
 30
0.0
 10
248.4578873046932
 20
367.0619840662669
 30
0.0
 10
247.7625903630486
 20
367.0619840662669
 30
0.0
 10
247.2878268359059
 20
367.0619840662669
 30
0.0
 10
247.1141328742013
 20
367.0619840662669
 30
0.0
 10
247.1289352620411
 20
367.0619840662669
 30
0.0
 10
247.1311516053937
 20
367.0619840662669
 30
0.0
  0
SPLINE
  5
149
330
1F
100
AcDbEntity
  8
0
  6
CONTINUOUS
 62
     7
100
AcDbSpline
210
0.0
220
0.0
230
1.0
 70
    24
 71
     3
 72
    23
 73
    19
 74
     0
 42
0.000000001
 43
0.00000001
 40
0.0
 40
0.0
 40
0.0
 40
0.0
 40
0.02645642496542
 40
0.0530500665723601
 40
0.0799045235117012
 40
0.1595807048787395
 40
0.2393616355709391
 40
0.3129099983019958
 40
0.386562070182516
 40
0.4601104628457163
 40
0.5337625554683204
 40
0.6134386896997086
 40
0.693219573190815
 40
0.7728957545612538
 40
0.8526766852501713
 40
0.9018931092013149
 40
0.9507382903295752
 40
1.0
 40
1.0
 40
1.0
 40
1.0
 10
149.6129860775736
 20
367.0619840103875
 30
0.0
 10
149.615627671413
 20
367.0619840103875
 30
0.0
 10
149.6209245597574
 20
367.0619840103875
 30
0.0
 10
149.617002989984
 20
367.0619840103875
 30
0.0
 10
149.596286097293
 20
367.0619840103875
 30
0.0
 10
149.5249104601551
 20
367.0619840103875
 30
0.0
 10
149.3563686493302
 20
367.0619840103875
 30
0.0
 10
149.1283980561468
 20
367.0619840103875
 30
0.0
 10
148.8517979789922
 20
367.0619840103875
 30
0.0
 10
148.532526656974
 20
367.0619840103875
 30
0.0
 10
148.1704598858781
 20
367.0619840103875
 30
0.0
 10
147.7769806612218
 20
367.0619840103875
 30
0.0
 10
147.3665886655935
 20
367.0619840103875
 30
0.0
 10
146.9663014020716
 20
367.0619840103875
 30
0.0
 10
146.6411116653893
 20
367.0619840103875
 30
0.0
 10
146.3898864970717
 20
367.0619840103875
 30
0.0
 10
146.1995971784575
 20
367.0619840103875
 30
0.0
 10
146.0923600246042
 20
367.0619840103875
 30
0.0
 10
146.0385138014082
 20
367.0619840103875
 30
0.0
  0
SPLINE
  5
14A
330
1F
100
AcDbEntity
  8
0
  6
CONTINUOUS
 62
     7
100
AcDbSpline
210
0.0
220
0.0
230
1.0
 70
    24
 71
     3
 72
    26
 73
    22
 74
     0
 42
0.000000001
 43
0.00000001
 40
0.0
 40
0.0
 40
0.0
 40
0.0
 40
0.0237914451595057
 40
0.0473866694719589
 40
0.0708857873117794
 40
0.0943901411523372
 40
0.1180010060452628
 40
0.1418182983733056
 40
0.2144492925057282
 40
0.2871735243485433
 40
0.3569153884273346
 40
0.4267528804040402
 40
0.4987488676889051
 40
0.5708413928194002
 40
0.6428373283431985
 40
0.7149298128074579
 40
0.7846717387713124
 40
0.8545092867642325
 40
0.903111077092976
 40
0.9513156586653463
 40
1.0
 40
1.0
 40
1.0
 40
1.0
 10
274.8909078259812
 20
367.0619840103875
 30
0.0
 10
274.8704060959636
 20
367.0619840103875
 30
0.0
 10
274.8295717247248
 20
367.0619840103875
 30
0.0
 10
274.7592843551193
 20
367.0619840103875
 30
0.0
 10
274.6827916327761
 20
367.0619840103875
 30
0.0
 10
274.5994420853806
 20
367.0619840103875
 30
0.0
 10
274.5093959359706
 20
367.0619840103875
 30
0.0
 10
274.3471284436904
 20
367.0619840103875
 30
0.0
 10
274.0916261026682
 20
367.0619840103875
 30
0.0
 10
273.7272871789426
 20
367.0619840103875
 30
0.0
 10
273.3450031875659
 20
367.0619840103875
 30
0.0
 10
272.9550231621074
 20
367.0619840103875
 30
0.0
 10
272.5661960572422
 20
367.0619840103875
 30
0.0
 10
272.1953362857967
 20
367.0619840103875
 30
0.0
 10
271.8591249885953
 20
367.0619840103875
 30
0.0
 10
271.5763760623092
 20
367.0619840103875
 30
0.0
 10
271.3530204440333
 20
367.0619840103875
 30
0.0
 10
271.213846276459
 20
367.0619840103875
 30
0.0
 10
271.1374254286395
 20
367.0619840103875
 30
0.0
 10
271.1038545536958
 20
367.0619840103875
 30
0.0
 10
271.1116795955279
 20
367.0619840103875
 30
0.0
 10
271.1156114898671
 20
367.0619840103875
 30
0.0
  0
SPLINE
  5
14B
330
1F
100
AcDbEntity
  8
0
  6
CONTINUOUS
 62
     7
100
AcDbSpline
210
0.0
220
0.0
230
1.0
 70
    24
 71
     3
 72
    24
 73
    20
 74
     0
 42
0.000000001
 43
0.00000001
 40
0.0
 40
0.0
 40
0.0
 40
0.0
 40
0.0291161366054244
 40
0.0579735583142068
 40
0.0867071040774074
 40
0.1154533559930055
 40
0.1443487159818684
 40
0.1735274949350512
 40
0.2534415545365826
 40
0.3334682994347171
 40
0.4133823915577359
 40
0.4934091589944351
 40
0.5799813558889123
 40
0.6666673682174685
 40
0.7532396163300442
 40
0.839925679942276
 40
0.8934018429840441
 40
0.9464746317037104
 40
1.0
 40
1.0
 40
1.0
 40
1.0
 10
166.7588768903868
 20
367.0619840103875
 30
0.0
 10
166.7580184080537
 20
367.0619840103875
 30
0.0
 10
166.7563090715343
 20
367.0619840103875
 30
0.0
 10
166.7421106417374
 20
367.0619840103875
 30
0.0
 10
166.7193563031567
 20
367.0619840103875
 30
0.0
 10
166.6872403281507
 20
367.0619840103875
 30
0.0
 10
166.6459599372079
 20
367.0619840103875
 30
0.0
 10
166.5666120645611
 20
367.0619840103875
 30
0.0
 10
166.4234055546281
 20
367.0619840103875
 30
0.0
 10
166.181414450309
 20
367.0619840103875
 30
0.0
 10
165.8901909266255
 20
367.0619840103875
 30
0.0
 10
165.5488197942767
 20
367.0619840103875
 30
0.0
 10
165.1676110099952
 20
367.0619840103875
 30
0.0
 10
164.7590858322159
 20
367.0619840103875
 30
0.0
 10
164.3504935271766
 20
367.0619840103875
 30
0.0
 10
164.0089412275878
 20
367.0619840103875
 30
0.0
 10
163.7383117126481
 20
367.0619840103875
 30
0.0
 10
163.5287773502795
 20
367.0619840103875
 30
0.0
 10
163.4062635204124
 20
367.0619840103875
 30
0.0
 10
163.3447465294194
 20
367.0619840103875
 30
0.0
  0
SPLINE
  5
14C
330
1F
100
AcDbEntity
  8
0
  6
CONTINUOUS
 62
     7
100
AcDbSpline
210
0.0
220
0.0
230
1.0
 70
    24
 71
     3
 72
    15
 73
    11
 74
     0
 42
0.000000001
 43
0.00000001
 40
0.0
 40
0.0
 40
0.0
 40
0.0
 40
0.1653142214103651
 40
0.2505100132167591
 40
0.3358146221387761
 40
0.4987710735917612
 40
0.6669387207429093
 40
0.8351063678940572
 40
0.9980628193470424
 40
1.0
 40
1.0
 40
1.0
 40
1.0
 10
236.0352552421353
 20
367.0619840662669
 30
0.0
 10
235.8310771434989
 20
367.0619840662669
 30
0.0
 10
235.5216744934933
 20
367.0619840662669
 30
0.0
 10
235.0115263047179
 20
367.0619840662669
 30
0.0
 10
234.4910925519632
 20
367.0619840662669
 30
0.0
 10
233.8363737552709
 20
367.0619840662669
 30
0.0
 10
233.1662386371943
 20
367.0619840662669
 30
0.0
 10
232.7375257591248
 20
367.0619840662669
 30
0.0
 10
232.5970328713508
 20
367.0619840662669
 30
0.0
 10
232.6217127686832
 20
367.0619840662669
 30
0.0
 10
232.6220027096532
 20
367.0619840662669
 30
0.0
  0
SPLINE
  5
14D
330
1F
100
AcDbEntity
  8
0
  6
CONTINUOUS
 62
     7
100
AcDbSpline
210
0.0
220
0.0
230
1.0
 70
    24
 71
     3
 72
    10
 73
     6
 74
     0
 42
0.000000001
 43
0.00000001
 40
0.0
 40
0.0
 40
0.0
 40
0.0
 40
0.0239661980933257
 40
0.3680368075287464
 40
1.0
 40
1.0
 40
1.0
 40
1.0
 10
195.3912726528905
 20
367.0619840662669
 30
0.0
 10
195.3831118465079
 20
367.0619840662669
 30
0.0
 10
195.2577904619395
 20
367.0619840662669
 30
0.0
 10
194.8682227975186
 20
367.0619840662669
 30
0.0
 10
194.4811001516937
 20
367.0619840662669
 30
0.0
 10
194.2304456531964
 20
367.0619840662669
 30
0.0
  0
SPLINE
  5
14E
330
1F
100
AcDbEntity
  8
0
  6
CONTINUOUS
 62
     7
100
AcDbSpline
210
0.0
220
0.0
230
1.0
 70
    24
 71
     3
 72
    10
 73
     6
 74
     0
 42
0.000000001
 43
0.00000001
 40
0.0
 40
0.0
 40
0.0
 40
0.0
 40
0.6201346318390348
 40
0.9397230719438086
 40
1.0
 40
1.0
 40
1.0
 40
1.0
 10
194.2304456531964
 20
367.0619840662669
 30
0.0
 10
193.9804789567418
 20
367.0619840662669
 30
0.0
 10
193.6016910938881
 20
367.0619840662669
 30
0.0
 10
193.2540672103144
 20
367.0619840662669
 30
0.0
 10
193.1509611321742
 20
367.0619840662669
 30
0.0
 10
193.1346002891622
 20
367.0619840662669
 30
0.0
  0
SPLINE
  5
14F
330
1F
100
AcDbEntity
  8
0
  6
CONTINUOUS
 62
     7
100
AcDbSpline
210
0.0
220
0.0
230
1.0
 70
    24
 71
     3
 72
     9
 73
     5
 74
     0
 42
0.000000001
 43
0.00000001
 40
0.0
 40
0.0
 40
0.0
 40
0.0
 40
0.3442485661690378
 40
1.0
 40
1.0
 40
1.0
 40
1.0
 10
209.6880911774896
 20
367.0619840662669
 30
0.0
 10
209.594884603873
 20
367.0619840662669
 30
0.0
 10
209.3241309021108
 20
367.0619840662669
 30
0.0
 10
208.960937276008
 20
367.0619840662669
 30
0.0
 10
208.7227725349329
 20
367.0619840662669
 30
0.0
  0
SPLINE
  5
150
330
1F
100
AcDbEntity
  8
0
  6
CONTINUOUS
 62
     7
100
AcDbSpline
210
0.0
220
0.0
230
1.0
 70
    24
 71
     3
 72
     9
 73
     5
 74
     0
 42
0.000000001
 43
0.00000001
 40
0.0
 40
0.0
 40
0.0
 40
0.0
 40
0.4701594580936442
 40
1.0
 40
1.0
 40
1.0
 40
1.0
 10
207.402401596304
 20
367.0619840662669
 30
0.0
 10
207.3312392529501
 20
367.0619840662669
 30
0.0
 10
207.1798813633474
 20
367.0619840662669
 30
0.0
 10
207.0663576116282
 20
367.0619840662669
 30
0.0
 10
207.0062081254981
 20
367.0619840662669
 30
0.0
  0
SPLINE
  5
151
330
1F
100
AcDbEntity
  8
0
  6
CONTINUOUS
 62
     7
100
AcDbSpline
210
0.0
220
0.0
230
1.0
 70
    24
 71
     3
 72
    26
 73
    22
 74
     0
 42
0.000000001
 43
0.00000001
 40
0.0
 40
0.0
 40
0.0
 40
0.0
 40
0.0237914439932435
 40
0.0473866671485787
 40
0.0708857838355176
 40
0.0943901365224659
 40
0.1180010002561033
 40
0.1418182914142968
 40
0.2144492819852129
 40
0.2871735102567155
 40
0.3569153709137705
 40
0.4267528594630013
 40
0.4987488432150756
 40
0.5708413648079764
 40
0.6428372967995717
 40
0.714929777725681
 40
0.7846717002680665
 40
0.8545092448333
 40
0.9031110488171413
 40
0.9513156440901603
 40
1.0
 40
1.0
 40
1.0
 40
1.0
 10
260.1893001768708
 20
367.0619840103875
 30
0.0
 10
260.1687984468526
 20
367.0619840103875
 30
0.0
 10
260.1279640756131
 20
367.0619840103875
 30
0.0
 10
260.0576767060071
 20
367.0619840103875
 30
0.0
 10
259.9811839836644
 20
367.0619840103875
 30
0.0
 10
259.8978344362703
 20
367.0619840103875
 30
0.0
 10
259.8077882868632
 20
367.0619840103875
 30
0.0
 10
259.64552079458
 20
367.0619840103875
 30
0.0
 10
259.3900184535603
 20
367.0619840103875
 30
0.0
 10
259.0256795298354
 20
367.0619840103875
 30
0.0
 10
258.6433955384627
 20
367.0619840103875
 30
0.0
 10
258.2534155130039
 20
367.0619840103875
 30
0.0
 10
257.8645884081386
 20
367.0619840103875
 30
0.0
 10
257.4937286366909
 20
367.0619840103875
 30
0.0
 10
257.1575173394879
 20
367.0619840103875
 30
0.0
 10
256.8747684131993
 20
367.0619840103875
 30
0.0
 10
256.6514127949278
 20
367.0619840103875
 30
0.0
 10
256.5122386154766
 20
367.0619840103875
 30
0.0
 10
256.4358177593093
 20
367.0619840103875
 30
0.0
 10
256.4022468905933
 20
367.0619840103875
 30
0.0
 10
256.4100719563043
 20
367.0619840103875
 30
0.0
 10
256.4140038626718
 20
367.0619840103875
 30
0.0
  0
SPLINE
  5
152
330
1F
100
AcDbEntity
  8
0
  6
CONTINUOUS
 62
     7
100
AcDbSpline
210
0.0
220
0.0
230
1.0
 70
    24
 71
     3
 72
    19
 73
    15
 74
     0
 42
0.000000001
 43
0.00000001
 40
0.0
 40
0.0
 40
0.0
 40
0.0
 40
0.0037100175352036
 40
0.0773853784218515
 40
0.1511578163060461
 40
0.2248329812527546
 40
0.2986056326475015
 40
0.4341046971696035
 40
0.5696045884808318
 40
0.6432796895654588
 40
0.7170528767173844
 40
0.790728083955287
 40
0.8645000081282749
 40
1.0
 40
1.0
 40
1.0
 40
1.0
 10
124.7591837234757
 20
367.0619840662669
 30
0.0
 10
124.7604391836068
 20
367.0619840662669
 30
0.0
 10
124.7866261911937
 20
367.0619840662669
 30
0.0
 10
124.7205440568892
 20
367.0619840662669
 30
0.0
 10
124.6054115797381
 20
367.0619840662669
 30
0.0
 10
124.3982736325664
 20
367.0619840662669
 30
0.0
 10
124.0506062206331
 20
367.0619840662669
 30
0.0
 10
123.4969709358203
 20
367.0619840662669
 30
0.0
 10
122.855597015161
 20
367.0619840662669
 30
0.0
 10
122.3340568705563
 20
367.0619840662669
 30
0.0
 10
121.9438272161131
 20
367.0619840662669
 30
0.0
 10
121.5885674926417
 20
367.0619840662669
 30
0.0
 10
121.1889861585632
 20
367.0619840662669
 30
0.0
 10
121.0110604051594
 20
367.0619840662669
 30
0.0
 10
120.8958565182946
 20
367.0619840662669
 30
0.0
  0
SPLINE
  5
153
330
1F
100
AcDbEntity
  8
0
  6
CONTINUOUS
 62
     7
100
AcDbSpline
210
0.0
220
0.0
230
1.0
 70
    24
 71
     3
 72
    21
 73
    17
 74
     0
 42
0.000000001
 43
0.00000001
 40
0.0
 40
0.0
 40
0.0
 40
0.0
 40
0.0314754092418163
 40
0.0631140827352255
 40
0.0950630829746713
 40
0.1825640975625092
 40
0.2701884956695644
 40
0.3576895458671503
 40
0.4453139686519098
 40
0.5401052369370068
 40
0.6350211261710142
 40
0.729812450537556
 40
0.8247283959234014
 40
0.883281528449475
 40
0.9413929907275131
 40
1.0
 40
1.0
 40
1.0
 40
1.0
 10
183.7717410296687
 20
367.0619840103875
 30
0.0
 10
183.7710752555314
 20
367.0619840103875
 30
0.0
 10
183.7697402538587
 20
367.0619840103875
 30
0.0
 10
183.7558376392836
 20
367.0619840103875
 30
0.0
 10
183.7203317333317
 20
367.0619840103875
 30
0.0
 10
183.6346359582544
 20
367.0619840103875
 30
0.0
 10
183.4584842698731
 20
367.0619840103875
 30
0.0
 10
183.2239687114356
 20
367.0619840103875
 30
0.0
 10
182.9288522438514
 20
367.0619840103875
 30
0.0
 10
182.5813158977715
 20
367.0619840103875
 30
0.0
 10
182.1901584376616
 20
367.0619840103875
 30
0.0
 10
181.7820625818175
 20
367.0619840103875
 30
0.0
 10
181.4252983744102
 20
367.0619840103875
 30
0.0
 10
181.1319334820046
 20
367.0619840103875
 30
0.0
 10
180.8977937589836
 20
367.0619840103875
 30
0.0
 10
180.7542176813522
 20
367.0619840103875
 30
0.0
 10
180.6821248549018
 20
367.0619840103875
 30
0.0
  0
SPLINE
  5
154
330
1F
100
AcDbEntity
  8
0
  6
CONTINUOUS
 62
     7
100
AcDbSpline
210
0.0
220
0.0
230
1.0
 70
    24
 71
     3
 72
    26
 73
    22
 74
     0
 42
0.000000001
 43
0.00000001
 40
0.0
 40
0.0
 40
0.0
 40
0.0
 40
0.0248164102785887
 40
0.0494123376053194
 40
0.0739026958342561
 40
0.0984038842640964
 40
0.1230321486353565
 40
0.1479019528279908
 40
0.2216898588483927
 40
0.2955747729487175
 40
0.3636877219385231
 40
0.4318967157041884
 40
0.5000096924137516
 40
0.568218705388887
 40
0.6420065677562137
 40
0.7158914381446302
 40
0.7896793441679181
 40
0.8635642582655102
 40
0.909143461521299
 40
0.9543788577564855
 40
1.0
 40
1.0
 40
1.0
 40
1.0
 10
141.2089331860575
 20
367.0619840103875
 30
0.0
 10
141.2095113507162
 20
367.0619840103875
 30
0.0
 10
141.2106625432936
 20
367.0619840103875
 30
0.0
 10
141.2007296041182
 20
367.0619840103875
 30
0.0
 10
141.1821878555211
 20
367.0619840103875
 30
0.0
 10
141.1542314108947
 20
367.0619840103875
 30
0.0
 10
141.1170583827783
 20
367.0619840103875
 30
0.0
 10
141.0405641982783
 20
367.0619840103875
 30
0.0
 10
140.8939433072206
 20
367.0619840103875
 30
0.0
 10
140.6404536657257
 20
367.0619840103875
 30
0.0
 10
140.3411974995549
 20
367.0619840103875
 30
0.0
 10
140.0090025608106
 20
367.0619840103875
 30
0.0
 10
139.6490879017906
 20
367.0619840103875
 30
0.0
 10
139.2630005607692
 20
367.0619840103875
 30
0.0
 10
138.8636910465813
 20
367.0619840103875
 30
0.0
 10
138.4689095068946
 20
367.0619840103875
 30
0.0
 10
138.1039400023183
 20
367.0619840103875
 30
0.0
 10
137.8265217919072
 20
367.0619840103875
 30
0.0
 10
137.6256227204932
 20
367.0619840103875
 30
0.0
 10
137.4824755822243
 20
367.0619840103875
 30
0.0
 10
137.41059776664
 20
367.0619840103875
 30
0.0
 10
137.37450627445
 20
367.0619840103875
 30
0.0
  0
SPLINE
  5
155
330
1F
100
AcDbEntity
  8
0
  6
CONTINUOUS
 62
     7
100
AcDbSpline
210
0.0
220
0.0
230
1.0
 70
    24
 71
     3
 72
    11
 73
     7
 74
     0
 42
0.000000001
 43
0.00000001
 40
0.0
 40
0.0
 40
0.0
 40
0.0
 40
0.0185137815679866
 40
0.3490906037944805
 40
0.6796669104023784
 40
1.0
 40
1.0
 40
1.0
 40
1.0
 10
219.4894286729358
 20
367.0619840662669
 30
0.0
 10
219.4753226903069
 20
367.0619840662669
 30
0.0
 10
219.2093442906512
 20
367.0619840662669
 30
0.0
 10
218.8104699022925
 20
367.0619840662669
 30
0.0
 10
218.4121242071373
 20
367.0619840662669
 30
0.0
 10
218.4071577135028
 20
367.0619840662669
 30
0.0
 10
218.4047135449908
 20
367.0619840662669
 30
0.0
  0
SPLINE
  5
156
330
1F
100
AcDbEntity
  8
0
  6
CONTINUOUS
 62
     7
100
AcDbSpline
210
0.0
220
0.0
230
1.0
 70
    24
 71
     3
 72
    26
 73
    22
 74
     0
 42
0.000000001
 43
0.00000001
 40
0.0
 40
0.0
 40
0.0
 40
0.0
 40
0.0237914439921726
 40
0.0473866671468681
 40
0.0708857838335952
 40
0.0943901365207521
 40
0.1180010002550051
 40
0.1418182914142022
 40
0.2144492819827662
 40
0.2871735102566801
 40
0.3569153709132541
 40
0.4267528594629856
 40
0.4987488432155175
 40
0.5708413648079796
 40
0.6428372968001642
 40
0.7149297777256736
 40
0.7846717002683502
 40
0.8545092448332909
 40
0.9031110488175105
 40
0.9513156440905305
 40
0.9999999999999999
 40
0.9999999999999999
 40
0.9999999999999999
 40
0.9999999999999999
 10
245.4876925277603
 20
367.0619840103875
 30
0.0
 10
245.467190797743
 20
367.0619840103875
 30
0.0
 10
245.4263564265049
 20
367.0619840103875
 30
0.0
 10
245.3560690569005
 20
367.0619840103875
 30
0.0
 10
245.2795763345582
 20
367.0619840103875
 30
0.0
 10
245.1962267871637
 20
367.0619840103875
 30
0.0
 10
245.1061806377548
 20
367.0619840103875
 30
0.0
 10
244.9439131454755
 20
367.0619840103875
 30
0.0
 10
244.6884108044547
 20
367.0619840103875
 30
0.0
 10
244.3240718807298
 20
367.0619840103875
 30
0.0
 10
243.9417878893533
 20
367.0619840103875
 30
0.0
 10
243.5518078638935
 20
367.0619840103875
 30
0.0
 10
243.1629807590271
 20
367.0619840103875
 30
0.0
 10
242.7921209875788
 20
367.0619840103875
 30
0.0
 10
242.4559096903769
 20
367.0619840103875
 30
0.0
 10
242.1731607640878
 20
367.0619840103875
 30
0.0
 10
241.9498051458171
 20
367.0619840103875
 30
0.0
 10
241.8106309663657
 20
367.0619840103875
 30
0.0
 10
241.7342101101986
 20
367.0619840103875
 30
0.0
 10
241.7006392414824
 20
367.0619840103875
 30
0.0
 10
241.7084643071937
 20
367.0619840103875
 30
0.0
 10
241.7123962135613
 20
367.0619840103875
 30
0.0
  0
SPLINE
  5
157
330
1F
100
AcDbEntity
  8
0
  6
CONTINUOUS
 62
     7
100
AcDbSpline
210
0.0
220
0.0
230
1.0
 70
    24
 71
     3
 72
    12
 73
     8
 74
     0
 42
0.000000001
 43
0.00000001
 40
0.0
 40
0.0
 40
0.0
 40
0.0
 40
0.1477687897702795
 40
0.4223166248251181
 40
0.6965065280643855
 40
0.9710564671992593
 40
0.9999999999999999
 40
0.9999999999999999
 40
0.9999999999999999
 40
0.9999999999999999
 10
157.6640917845033
 20
367.0619840662669
 30
0.0
 10
157.6658404797223
 20
367.0619840662669
 30
0.0
 10
157.6708381728342
 20
367.0619840662669
 30
0.0
 10
157.5885885667031
 20
367.0619840662669
 30
0.0
 10
157.4182468353196
 20
367.0619840662669
 30
0.0
 10
157.2720735793537
 20
367.0619840662669
 30
0.0
 10
157.1518928366841
 20
367.0619840662669
 30
0.0
 10
157.1404314525388
 20
367.0619840662669
 30
0.0
  0
SPLINE
  5
158
330
1F
100
AcDbEntity
  8
0
  6
CONTINUOUS
 62
     7
100
AcDbSpline
210
0.0
220
0.0
230
1.0
 70
    24
 71
     3
 72
    17
 73
    13
 74
     0
 42
0.000000001
 43
0.00000001
 40
0.0
 40
0.0
 40
0.0
 40
0.0
 40
0.1352047553390154
 40
0.204883268909904
 40
0.2746513919018953
 40
0.4079272595940506
 40
0.54546540844693
 40
0.6830041573994792
 40
0.8162806080550512
 40
0.8859592912478604
 40
0.9557270316561665
 40
0.9999999999999999
 40
0.9999999999999999
 40
0.9999999999999999
 40
0.9999999999999999
 10
281.2140895910523
 20
367.0619840662669
 30
0.0
 10
281.119105179132
 20
367.0619840662669
 30
0.0
 10
280.9751700286196
 20
367.0619840662669
 30
0.0
 10
280.6077282791656
 20
367.0619840662669
 30
0.0
 10
280.1824838966733
 20
367.0619840662669
 30
0.0
 10
279.5496949118905
 20
367.0619840662669
 30
0.0
 10
278.750744595284
 20
367.0619840662669
 30
0.0
 10
278.0344552369326
 20
367.0619840662669
 30
0.0
 10
277.5911052035383
 20
367.0619840662669
 30
0.0
 10
277.3811092096158
 20
367.0619840662669
 30
0.0
 10
277.2794207304204
 20
367.0619840662669
 30
0.0
 10
277.3055275081207
 20
367.0619840662669
 30
0.0
 10
277.3156627006791
 20
367.0619840662669
 30
0.0
  0
SPLINE
  5
159
330
1F
100
AcDbEntity
  8
0
  6
CONTINUOUS
 62
     7
100
AcDbSpline
210
0.0
220
0.0
230
1.0
 70
    24
 71
     3
 72
    18
 73
    14
 74
     0
 42
0.000000001
 43
0.00000001
 40
0.0
 40
0.0
 40
0.0
 40
0.0
 40
0.001987262382171
 40
0.0817882122855473
 40
0.1614849545023387
 40
0.2412858707067053
 40
0.3878589007894112
 40
0.5344318231068097
 40
0.6141282817369771
 40
0.6939295937925988
 40
0.7736259891308517
 40
0.8534272220524656
 40
1.0
 40
1.0
 40
1.0
 40
1.0
 10
174.0971091128848
 20
367.0619840662669
 30
0.0
 10
174.0974484267663
 20
367.0619840662669
 30
0.0
 10
174.1114133042904
 20
367.0619840662669
 30
0.0
 10
174.0610988200755
 20
367.0619840662669
 30
0.0
 10
173.9441098350288
 20
367.0619840662669
 30
0.0
 10
173.6819456199188
 20
367.0619840662669
 30
0.0
 10
173.2137351523638
 20
367.0619840662669
 30
0.0
 10
172.6095961291142
 20
367.0619840662669
 30
0.0
 10
172.0874595902818
 20
367.0619840662669
 30
0.0
 10
171.6789774925456
 20
367.0619840662669
 30
0.0
 10
171.28905706876
 20
367.0619840662669
 30
0.0
 10
170.8262674819666
 20
367.0619840662669
 30
0.0
 10
170.5799349643865
 20
367.0619840662669
 30
0.0
 10
170.4204394407533
 20
367.0619840662669
 30
0.0
  0
SPLINE
  5
15A
330
1F
100
AcDbEntity
  8
0
  6
CONTINUOUS
 62
     7
100
AcDbSpline
210
0.0
220
0.0
230
1.0
 70
    24
 71
     3
 72
    10
 73
     6
 74
     0
 42
0.000000001
 43
0.00000001
 40
0.0
 40
0.0
 40
0.0
 40
0.0
 40
0.0239655921206742
 40
0.368036415173061
 40
1.0
 40
1.0
 40
1.0
 40
1.0
 10
197.9724413175098
 20
367.0619840662669
 30
0.0
 10
197.9642804219633
 20
367.0619840662669
 30
0.0
 10
197.8389546329575
 20
367.0619840662669
 30
0.0
 10
197.4493944200715
 20
367.0619840662669
 30
0.0
 10
197.0622698374932
 20
367.0619840662669
 30
0.0
 10
196.8116140849851
 20
367.0619840662669
 30
0.0
  0
SPLINE
  5
15B
330
1F
100
AcDbEntity
  8
0
  6
CONTINUOUS
 62
     7
100
AcDbSpline
210
0.0
220
0.0
230
1.0
 70
    24
 71
     3
 72
    10
 73
     6
 74
     0
 42
0.000000001
 43
0.00000001
 40
0.0
 40
0.0
 40
0.0
 40
0.0
 40
0.595344480341199
 40
0.9190518992678074
 40
1.0
 40
1.0
 40
1.0
 40
1.0
 10
196.8116140849851
 20
367.0619840662669
 30
0.0
 10
196.5695715030266
 20
367.0619840662669
 30
0.0
 10
196.1959227971125
 20
367.0619840662669
 30
0.0
 10
195.8437811731597
 20
367.0619840662669
 30
0.0
 10
195.7327172192927
 20
367.0619840662669
 30
0.0
 10
195.710499763485
 20
367.0619840662669
 30
0.0
  0
SPLINE
  5
15C
330
1F
100
AcDbEntity
  8
0
  6
CONTINUOUS
 62
     7
100
AcDbSpline
210
0.0
220
0.0
230
1.0
 70
    24
 71
     3
 72
    26
 73
    22
 74
     0
 42
0.000000001
 43
0.00000001
 40
0.0
 40
0.0
 40
0.0
 40
0.0
 40
0.0237914451011511
 40
0.0473866693555438
 40
0.0708857871373523
 40
0.0943901409196985
 40
0.1180010057539732
 40
0.1418182980226865
 40
0.2144492919757137
 40
0.2871735236383853
 40
0.3569153875435994
 40
0.4267528793488136
 40
0.4987488664552738
 40
0.5708413914080617
 40
0.6428373267549711
 40
0.7149298110400163
 40
0.784671736832318
 40
0.8545092846517331
 40
0.9031110756696031
 40
0.951315657932194
 40
1.0
 40
1.0
 40
1.0
 40
1.0
 10
230.786084878657
 20
367.0619840103875
 30
0.0
 10
230.7655831486394
 20
367.0619840103875
 30
0.0
 10
230.7247487774008
 20
367.0619840103875
 30
0.0
 10
230.6544614077959
 20
367.0619840103875
 30
0.0
 10
230.5779686854535
 20
367.0619840103875
 30
0.0
 10
230.4946191380591
 20
367.0619840103875
 30
0.0
 10
230.4045729886508
 20
367.0619840103875
 30
0.0
 10
230.2423054963713
 20
367.0619840103875
 30
0.0
 10
229.9868031553504
 20
367.0619840103875
 30
0.0
 10
229.6224642316287
 20
367.0619840103875
 30
0.0
 10
229.2401802402522
 20
367.0619840103875
 30
0.0
 10
228.8502002147942
 20
367.0619840103875
 30
0.0
 10
228.4613731099254
 20
367.0619840103875
 30
0.0
 10
228.0905133384775
 20
367.0619840103875
 30
0.0
 10
227.7543020412731
 20
367.0619840103875
 30
0.0
 10
227.4715531149858
 20
367.0619840103875
 30
0.0
 10
227.2481974967119
 20
367.0619840103875
 30
0.0
 10
227.1090233285366
 20
367.0619840103875
 30
0.0
 10
227.032602480295
 20
367.0619840103875
 30
0.0
 10
226.9990316056636
 20
367.0619840103875
 30
0.0
 10
227.0068566487001
 20
367.0619840103875
 30
0.0
 10
227.010788543646
 20
367.0619840103875
 30
0.0
  0
SPLINE
  5
15D
330
1F
100
AcDbEntity
  8
0
  6
CONTINUOUS
 62
     7
100
AcDbSpline
210
0.0
220
0.0
230
1.0
 70
    24
 71
     3
 72
    16
 73
    12
 74
     0
 42
0.000000001
 43
0.00000001
 40
0.0
 40
0.0
 40
0.0
 40
0.0
 40
0.1232483664699573
 40
0.3895903805379147
 40
0.5720004629095293
 40
0.6992440728603071
 40
0.8397512496093827
 40
0.8933093677629534
 40
0.9472629275476813
 40
0.9787411590876365
 40
1.0
 40
1.0
 40
1.0
 40
1.0
 10
215.6900013722442
 20
384.6629250723611
 30
0.0
 10
215.6900013722442
 20
384.6583082167308
 30
0.0
 10
215.6900013722442
 20
384.643714250146
 30
0.0
 10
215.6900013722442
 20
384.700301397115
 30
0.0
 10
215.6900013722441
 20
384.821003065911
 30
0.0
 10
215.6900013722442
 20
385.0038374425951
 30
0.0
 10
215.6900013722442
 20
385.2207624650678
 30
0.0
 10
215.6900013722441
 20
385.4958234380631
 30
0.0
 10
215.6900013722442
 20
385.7042143585288
 30
0.0
 10
215.6900013722442
 20
385.9081982375067
 30
0.0
 10
215.6900013722442
 20
386.0178016785983
 30
0.0
 10
215.6900013722442
 20
386.0619839209805
 30
0.0
  0
SPLINE
  5
15E
330
1F
100
AcDbEntity
  8
0
  6
CONTINUOUS
 62
     7
100
AcDbSpline
210
0.0
220
0.0
230
1.0
 70
    24
 71
     3
 72
    14
 73
    10
 74
     0
 42
0.000000001
 43
0.00000001
 40
0.0
 40
0.0
 40
0.0
 40
0.0
 40
0.0306706051530485
 40
0.0682339641501874
 40
0.1296115697904307
 40
0.2586680413640303
 40
0.4926185150832874
 40
0.7316303037015616
 40
1.0
 40
1.0
 40
1.0
 40
1.0
 10
183.6899998523257
 20
386.0619839209805
 30
0.0
 10
183.6899998523257
 20
385.9981651088761
 30
0.0
 10
183.6899998523257
 20
385.8561851735109
 30
0.0
 10
183.6899998523257
 20
385.6241315136737
 30
0.0
 10
183.6899998523257
 20
385.3207194692734
 30
0.0
 10
183.6899998523257
 20
384.9855680798199
 30
0.0
 10
183.6899998523257
 20
384.7725240848375
 30
0.0
 10
183.6899998523257
 20
384.6592832518023
 30
0.0
 10
183.6899998523257
 20
384.6616639729613
 30
0.0
 10
183.6899998523257
 20
384.6629232097159
 30
0.0
  0
SPLINE
  5
15F
330
1F
100
AcDbEntity
  8
0
  6
CONTINUOUS
 62
     7
100
AcDbSpline
210
0.0
220
0.0
230
1.0
 70
    24
 71
     3
 72
    14
 73
    10
 74
     0
 42
0.000000001
 43
0.00000001
 40
0.0
 40
0.0
 40
0.0
 40
0.0
 40
0.0937319660592455
 40
0.1875826209578422
 40
0.2816054080674477
 40
0.461342133252982
 40
0.6407354684243041
 40
0.8201624743453337
 40
1.0
 40
1.0
 40
1.0
 40
1.0
 10
214.6900697272105
 20
384.5619840103875
 30
0.0
 10
214.7203066572703
 20
384.5619840103875
 30
0.0
 10
214.7808188051405
 20
384.5619840103875
 30
0.0
 10
214.8607415214504
 20
384.5619840103875
 30
0.0
 10
214.9545634687865
 20
384.5619840103875
 30
0.0
 10
215.0498191760177
 20
384.5619840103875
 30
0.0
 10
215.1303065035553
 20
384.5619840103875
 30
0.0
 10
215.1806779756969
 20
384.5619840103875
 30
0.0
 10
215.186890700397
 20
384.5619840103875
 30
0.0
 10
215.1900006122849
 20
384.5619840103875
 30
0.0
  0
SPLINE
  5
160
330
1F
100
AcDbEntity
  8
0
  6
CONTINUOUS
 62
     7
100
AcDbSpline
210
0.0
220
0.0
230
1.0
 70
    24
 71
     3
 72
    22
 73
    18
 74
     0
 42
0.000000001
 43
0.00000001
 40
0.0
 40
0.0
 40
0.0
 40
0.0
 40
0.2500000000000003
 40
0.2500000000000003
 40
0.5000000000000006
 40
0.5000000000000006
 40
0.6250000000000006
 40
0.6250000000000006
 40
0.7500000000000004
 40
0.7500000000000004
 40
0.8750000000000002
 40
0.8750000000000002
 40
0.9375000000000002
 40
0.9375000000000002
 40
0.9687500000000002
 40
0.9687500000000002
 40
1.0
 40
1.0
 40
1.0
 40
1.0
 10
183.6900006122849
 20
392.5619840103875
 30
0.0
 10
183.6900006122849
 20
392.5619840103875
 30
0.0
 10
183.6900006122851
 20
392.5628430673111
 30
0.0
 10
183.6900006122851
 20
392.5559506970544
 30
0.0
 10
183.6900006122849
 20
392.5484273241526
 30
0.0
 10
183.6900006122849
 20
392.5063295965921
 30
0.0
 10
183.6900006122923
 20
392.4870128273444
 30
0.0
 10
183.6900006122923
 20
392.4296627796436
 30
0.0
 10
183.6900006122851
 20
392.3919055796198
 30
0.0
 10
183.6900006122851
 20
392.2818708067745
 30
0.0
 10
183.6900006122849
 20
392.2120546128563
 30
0.0
 10
183.6900006122849
 20
392.0447149712577
 30
0.0
 10
183.6900006122849
 20
391.9783204221955
 30
0.0
 10
183.6900006122849
 20
391.8487266512346
 30
0.0
 10
183.6900006122849
 20
391.7994306175187
 30
0.0
 10
183.6900006122849
 20
391.6884930015773
 30
0.0
 10
183.6900006122849
 20
391.6262242595533
 30
0.0
 10
183.6900006122849
 20
391.5619840103875
 30
0.0
  0
SPLINE
  5
161
330
1F
100
AcDbEntity
  8
0
  6
CONTINUOUS
 62
     7
100
AcDbSpline
210
0.0
220
0.0
230
1.0
 70
    24
 71
     3
 72
    14
 73
    10
 74
     0
 42
0.000000001
 43
0.00000001
 40
0.0
 40
0.0
 40
0.0
 40
0.0
 40
0.25
 40
0.25
 40
0.5
 40
0.5
 40
0.75
 40
0.75
 40
1.0
 40
1.0
 40
1.0
 40
1.0
 10
183.6900006122849
 20
392.5619840103875
 30
0.0
 10
183.6900006122849
 20
392.5619840103875
 30
0.0
 10
185.3757949770122
 20
392.5619840103875
 30
0.0
 10
191.3767892495881
 20
392.5619840103875
 30
0.0
 10
195.4466568682849
 20
392.5619840103875
 30
0.0
 10
203.9333443562849
 20
392.5619840103875
 30
0.0
 10
208.0032119749818
 20
392.5619840103875
 30
0.0
 10
214.0042062475576
 20
392.5619840103875
 30
0.0
 10
215.6900006122849
 20
392.5619840103875
 30
0.0
 10
215.6900006122849
 20
392.5619840103875
 30
0.0
  0
SPLINE
  5
162
330
1F
100
AcDbEntity
  8
0
  6
CONTINUOUS
 62
     7
100
AcDbSpline
210
0.0
220
0.0
230
1.0
 70
    24
 71
     3
 72
    22
 73
    18
 74
     0
 42
0.000000001
 43
0.00000001
 40
0.0
 40
0.0
 40
0.0
 40
0.0
 40
0.0312499999999992
 40
0.0312499999999992
 40
0.0624999999999984
 40
0.0624999999999984
 40
0.1249999999999979
 40
0.1249999999999979
 40
0.2499999999999981
 40
0.2499999999999981
 40
0.3749999999999983
 40
0.3749999999999983
 40
0.4999999999999987
 40
0.4999999999999987
 40
0.7499999999999993
 40
0.7499999999999993
 40
1.0
 40
1.0
 40
1.0
 40
1.0
 10
215.6900006122849
 20
391.5619840103875
 30
0.0
 10
215.6900006122849
 20
391.627097480604
 30
0.0
 10
215.6900006122849
 20
391.6901772156582
 30
0.0
 10
215.6900006122849
 20
391.8019841657746
 30
0.0
 10
215.6900006122849
 20
391.8517285242833
 30
0.0
 10
215.6900006122849
 20
391.9822611558915
 30
0.0
 10
215.6900006122849
 20
392.048762271135
 30
0.0
 10
215.6900006122849
 20
392.2143477162159
 30
0.0
 10
215.6900006122849
 20
392.2848068588102
 30
0.0
 10
215.6900006122849
 20
392.3938118439475
 30
0.0
 10
215.6900006122849
 20
392.4309660170092
 30
0.0
 10
215.6900006122849
 20
392.4876145036526
 30
0.0
 10
215.6900006122849
 20
392.5067312132965
 30
0.0
 10
215.6900006122849
 20
392.5484668587811
 30
0.0
 10
215.6900006122849
 20
392.5559876560948
 30
0.0
 10
215.6900006122849
 20
392.562837761402
 30
0.0
 10
215.6900006122849
 20
392.5619840103875
 30
0.0
 10
215.6900006122849
 20
392.5619840103875
 30
0.0
  0
LINE
  5
163
330
1F
100
AcDbEntity
  8
0
  6
CONTINUOUS
 62
     7
100
AcDbLine
 10
183.6899998523
 20
391.5619838912
 30
0.0
 11
183.6899998523
 21
386.061983921
 31
0.0
  0
LINE
  5
164
330
1F
100
AcDbEntity
  8
0
  6
CONTINUOUS
 62
     7
100
AcDbLine
 10
215.6900013722
 20
386.061983921
 30
0.0
 11
215.6900013722
 21
391.5619838912
 31
0.0
  0
SPLINE
  5
165
330
1F
100
AcDbEntity
  8
0
  6
CONTINUOUS
 62
     7
100
AcDbSpline
210
0.0
220
0.0
230
1.0
 70
    24
 71
     3
 72
     9
 73
     5
 74
     0
 42
0.000000001
 43
0.00000001
 40
0.0
 40
0.0
 40
0.0
 40
0.0
 40
0.9384525076381738
 40
1.0
 40
1.0
 40
1.0
 40
1.0
 10
265.9547044821045
 20
367.0619840662669
 30
0.0
 10
265.8806486126989
 20
367.0619840662669
 30
0.0
 10
265.8017358613311
 20
367.0619840662669
 30
0.0
 10
265.6205583460764
 20
367.0619840662669
 30
0.0
 10
265.6094073243401
 20
367.0619840662669
 30
0.0
  0
LINE
  5
166
330
1F
100
AcDbEntity
  8
0
  6
CONTINUOUS
 62
     7
100
AcDbLine
 10
214.690000277
 20
377.5619843904
 30
0.0
 11
214.690000277
 21
384.5619836751
 31
0.0
  0
LINE
  5
167
330
1F
100
AcDbEntity
  8
0
  6
CONTINUOUS
 62
     7
100
AcDbLine
 10
184.6900009476
 20
384.5619836751
 30
0.0
 11
184.6900009476
 21
377.5619843904
 31
0.0
  0
LINE
  5
168
330
1F
100
AcDbEntity
  8
0
  6
CONTINUOUS
 62
     7
100
AcDbLine
 10
214.690000277
 20
384.5619836751
 30
0.0
 11
184.6900009476
 21
384.5619836751
 31
0.0
  0
SPLINE
  5
169
330
1F
100
AcDbEntity
  8
0
  6
CONTINUOUS
 62
     7
100
AcDbSpline
210
0.0
220
0.0
230
1.0
 70
    24
 71
     3
 72
    10
 73
     6
 74
     0
 42
0.000000001
 43
0.00000001
 40
0.0
 40
0.0
 40
0.0
 40
0.0
 40
0.4999999999999999
 40
0.4999999999999999
 40
0.9999999999999999
 40
0.9999999999999999
 40
0.9999999999999999
 40
0.9999999999999999
 10
185.1900006122849
 20
404.5619840103875
 30
0.0
 10
185.1900006122848
 20
404.5619840103875
 30
0.0
 10
186.717751755319
 20
404.5619840103875
 30
0.0
 10
192.1561528148407
 20
404.5619840103875
 30
0.0
 10
195.8444703442849
 20
404.5619840103875
 30
0.0
 10
199.6900006122849
 20
404.5619840103875
 30
0.0
  0
SPLINE
  5
16A
330
1F
100
AcDbEntity
  8
0
  6
CONTINUOUS
 62
     7
100
AcDbSpline
210
0.0
220
0.0
230
1.0
 70
    24
 71
     3
 72
    10
 73
     6
 74
     0
 42
0.000000001
 43
0.00000001
 40
0.0
 40
0.0
 40
0.0
 40
0.0
 40
0.4999999999999997
 40
0.4999999999999997
 40
0.9999999999999999
 40
0.9999999999999999
 40
0.9999999999999999
 40
0.9999999999999999
 10
214.1900006122849
 20
404.5619840103875
 30
0.0
 10
214.1900006122848
 20
404.5619840103875
 30
0.0
 10
212.6622494692507
 20
404.5619840103875
 30
0.0
 10
207.2238484097288
 20
404.5619840103875
 30
0.0
 10
203.5355308802849
 20
404.5619840103875
 30
0.0
 10
199.6900006122849
 20
404.5619840103875
 30
0.0
  0
SPLINE
  5
16B
330
1F
100
AcDbEntity
  8
0
  6
CONTINUOUS
 62
     7
100
AcDbSpline
210
0.0
220
0.0
230
1.0
 70
    24
 71
     3
 72
    19
 73
    15
 74
     0
 42
0.000000001
 43
0.00000001
 40
0.0
 40
0.0
 40
0.0
 40
0.0
 40
0.0735565044275336
 40
0.1420669631933171
 40
0.2106673926341777
 40
0.2791776852979926
 40
0.3477776507378036
 40
0.4737783428419599
 40
0.5997782995251856
 40
0.6682883623538267
 40
0.7368889836497032
 40
0.805399042807451
 40
0.8739997911116638
 40
1.0
 40
1.0
 40
1.0
 40
1.0
 10
120.2700151987336
 20
367.0619840662669
 30
0.0
 10
120.2752549008888
 20
367.0619840662669
 30
0.0
 10
120.2853748566836
 20
367.0619840662669
 30
0.0
 10
120.1374738862126
 20
367.0619840662669
 30
0.0
 10
119.9344415227496
 20
367.0619840662669
 30
0.0
 10
119.6601363208992
 20
367.0619840662669
 30
0.0
 10
119.2377388363962
 20
367.0619840662669
 30
0.0
 10
118.6249135408587
 20
367.0619840662669
 30
0.0
 10
117.9737491565465
 20
367.0619840662669
 30
0.0
 10
117.4756871451205
 20
367.0619840662669
 30
0.0
 10
117.1207485606508
 20
367.0619840662669
 30
0.0
 10
116.8156839343921
 20
367.0619840662669
 30
0.0
 10
116.4967607446925
 20
367.0619840662669
 30
0.0
 10
116.3950229674327
 20
367.0619840662669
 30
0.0
 10
116.3291498012803
 20
367.0619840662669
 30
0.0
  0
SPLINE
  5
16C
330
1F
100
AcDbEntity
  8
0
  6
CONTINUOUS
 62
     7
100
AcDbSpline
210
0.0
220
0.0
230
1.0
 70
    24
 71
     3
 72
    18
 73
    14
 74
     0
 42
0.000000001
 43
0.00000001
 40
0.0
 40
0.0
 40
0.0
 40
0.0
 40
0.0850255553984383
 40
0.1642184459018841
 40
0.2435153356770945
 40
0.3227081691371921
 40
0.402004415180844
 40
0.5476516520104179
 40
0.6932980387492135
 40
0.7724904715793734
 40
0.8517875831244209
 40
0.9309800117113068
 40
1.0
 40
1.0
 40
1.0
 40
1.0
 10
136.5668713040612
 20
367.0619840662669
 30
0.0
 10
136.5721109800479
 20
367.0619840662669
 30
0.0
 10
136.5822308956843
 20
367.0619840662669
 30
0.0
 10
136.4343299125701
 20
367.0619840662669
 30
0.0
 10
136.2312977882671
 20
367.0619840662669
 30
0.0
 10
135.9569911966296
 20
367.0619840662669
 30
0.0
 10
135.5346037630613
 20
367.0619840662669
 30
0.0
 10
134.9217009747336
 20
367.0619840662669
 30
0.0
 10
134.2708083038519
 20
367.0619840662669
 30
0.0
 10
133.7721577125834
 20
367.0619840662669
 30
0.0
 10
133.4190737125396
 20
367.0619840662669
 30
0.0
 10
133.1205406146451
 20
367.0619840662669
 30
0.0
 10
132.9777374674775
 20
367.0619840662669
 30
0.0
 10
132.9112364835999
 20
367.0619840662669
 30
0.0
  0
LINE
  5
16D
330
1F
100
AcDbEntity
  8
0
  6
CONTINUOUS
 62
     7
100
AcDbLine
 10
188.4400001653
 20
419.0619837422
 30
0.0
 11
187.690000508
 21
419.0619837422
 31
0.0
  0
LINE
  5
16E
330
1F
100
AcDbEntity
  8
0
  6
CONTINUOUS
 62
     7
100
AcDbLine
 10
188.4400001653
 20
425.5619857389
 30
0.0
 11
188.4400001653
 21
419.0619837422
 31
0.0
  0
LINE
  5
16F
330
1F
100
AcDbEntity
  8
0
  6
CONTINUOUS
 62
     7
100
AcDbLine
 10
210.9400010593
 20
425.5619857389
 30
0.0
 11
188.4400001653
 21
425.5619857389
 31
0.0
  0
LINE
  5
170
330
1F
100
AcDbEntity
  8
0
  6
CONTINUOUS
 62
     7
100
AcDbLine
 10
210.9400010593
 20
419.0619837422
 30
0.0
 11
210.9400010593
 21
425.5619857389
 31
0.0
  0
LINE
  5
171
330
1F
100
AcDbEntity
  8
0
  6
CONTINUOUS
 62
     7
100
AcDbLine
 10
211.6900007166
 20
419.0619837422
 30
0.0
 11
210.9400010593
 21
419.0619837422
 31
0.0
  0
SPLINE
  5
172
330
1F
100
AcDbEntity
  8
0
  6
CONTINUOUS
 62
     7
100
AcDbSpline
210
0.0
220
0.0
230
1.0
 70
    24
 71
     3
 72
     8
 73
     4
 74
     0
 42
0.000000001
 43
0.00000001
 40
0.0
 40
0.0
 40
0.0
 40
0.0
 40
1.0
 40
1.0
 40
1.0
 40
1.0
 10
188.440000612293
 20
426.0619840103217
 30
0.0
 10
188.440000612293
 20
425.9358352080426
 30
0.0
 10
188.4400006122849
 20
425.7660910316914
 30
0.0
 10
188.4400006122849
 20
425.5619840102916
 30
0.0
  0
LINE
  5
173
330
1F
100
AcDbEntity
  8
0
  6
CONTINUOUS
 62
     7
100
AcDbLine
 10
210.9400010593
 20
426.0619830269
 30
0.0
 11
188.4400001653
 21
426.0619830269
 31
0.0
  0
SPLINE
  5
174
330
1F
100
AcDbEntity
  8
0
  6
CONTINUOUS
 62
     7
100
AcDbSpline
210
0.0
220
0.0
230
1.0
 70
    24
 71
     3
 72
     8
 73
     4
 74
     0
 42
0.000000001
 43
0.00000001
 40
0.0
 40
0.0
 40
0.0
 40
0.0
 40
1.0
 40
1.0
 40
1.0
 40
1.0
 10
210.9400006121387
 20
425.5619840112265
 30
0.0
 10
210.9400006121387
 20
425.7660910321623
 30
0.0
 10
210.9400006122849
 20
425.9358352084884
 30
0.0
 10
210.9400006122849
 20
426.0619840106727
 30
0.0
  0
SPLINE
  5
175
330
1F
100
AcDbEntity
  8
0
  6
CONTINUOUS
 62
     7
100
AcDbSpline
210
0.0
220
0.0
230
1.0
 70
    24
 71
     3
 72
    10
 73
     6
 74
     0
 42
0.000000001
 43
0.00000001
 40
0.0
 40
0.0
 40
0.0
 40
0.0
 40
0.2320125839104501
 40
0.493416849318463
 40
1.0
 40
1.0
 40
1.0
 40
1.0
 10
246.8465766794942
 20
367.0619840662669
 30
0.0
 10
246.7824829357797
 20
367.0619840662669
 30
0.0
 10
246.6461759624612
 20
367.0619840662669
 30
0.0
 10
246.4773201577378
 20
367.0619840662669
 30
0.0
 10
246.4948880760982
 20
367.0619840662669
 30
0.0
 10
246.5064763016961
 20
367.0619840662669
 30
0.0
  0
SPLINE
  5
176
330
1F
100
AcDbEntity
  8
0
  6
CONTINUOUS
 62
     7
100
AcDbSpline
210
0.0
220
0.0
230
1.0
 70
    24
 71
     3
 72
    19
 73
    15
 74
     0
 42
0.000000001
 43
0.00000001
 40
0.0
 40
0.0
 40
0.0
 40
0.0
 40
0.0735565597834833
 40
0.1420667056868174
 40
0.2106673037356759
 40
0.2791776296468708
 40
0.3477781325527126
 40
0.4737782434771262
 40
0.5997782613069079
 40
0.6682889023544938
 40
0.7368890156736443
 40
0.805399679424912
 40
0.8740000894346674
 40
1.0
 40
1.0
 40
1.0
 40
1.0
 10
152.8637311346791
 20
367.0619840662669
 30
0.0
 10
152.8689689059302
 20
367.0619840662669
 30
0.0
 10
152.8790851064291
 20
367.0619840662669
 30
0.0
 10
152.7311906334531
 20
367.0619840662669
 30
0.0
 10
152.5281572994876
 20
367.0619840662669
 30
0.0
 10
152.25385203442
 20
367.0619840662669
 30
0.0
 10
151.8314520633986
 20
367.0619840662669
 30
0.0
 10
151.2186283383007
 20
367.0619840662669
 30
0.0
 10
150.5674647089933
 20
367.0619840662669
 30
0.0
 10
150.0694005951302
 20
367.0619840662669
 30
0.0
 10
149.7144637380168
 20
367.0619840662669
 30
0.0
 10
149.4093961683803
 20
367.0619840662669
 30
0.0
 10
149.0904782316873
 20
367.0619840662669
 30
0.0
 10
148.9887418103008
 20
367.0619840662669
 30
0.0
 10
148.9228694625161
 20
367.0619840662669
 30
0.0
  0
SPLINE
  5
177
330
1F
100
AcDbEntity
  8
0
  6
CONTINUOUS
 62
     7
100
AcDbSpline
210
0.0
220
0.0
230
1.0
 70
    24
 71
     3
 72
    26
 73
    22
 74
     0
 42
0.000000001
 43
0.00000001
 40
0.0
 40
0.0
 40
0.0
 40
0.0
 40
0.0228886515029744
 40
0.0456013969865254
 40
0.0682283212565794
 40
0.0908605339453828
 40
0.1135890810878194
 40
0.1365038604663559
 40
0.2102932230715968
 40
0.2841795956689002
 40
0.3579690019291252
 40
0.4318554182383662
 40
0.4999697520547454
 40
0.5681801325983369
 40
0.6362944941343581
 40
0.7045048938884829
 40
0.7782942564926659
 40
0.8521806290910482
 40
0.9015656580095773
 40
0.9505290935414027
 40
1.0
 40
1.0
 40
1.0
 40
1.0
 10
216.0844772218829
 20
367.0619840103875
 30
0.0
 10
216.064683288824
 20
367.0619840103875
 30
0.0
 10
216.0252475449039
 20
367.0619840103875
 30
0.0
 10
215.9576257900503
 20
367.0619840103875
 30
0.0
 10
215.8841748551346
 20
367.0619840103875
 30
0.0
 10
215.8042836300723
 20
367.0619840103875
 30
0.0
 10
215.7181022444311
 20
367.0619840103875
 30
0.0
 10
215.5577121212829
 20
367.0619840103875
 30
0.0
 10
215.3007836161245
 20
367.0619840103875
 30
0.0
 10
214.9248903075173
 20
367.0619840103875
 30
0.0
 10
214.5236646549432
 20
367.0619840103875
 30
0.0
 10
214.1236140760287
 20
367.0619840103875
 30
0.0
 10
213.7411150709052
 20
367.0619840103875
 30
0.0
 10
213.3894545208612
 20
367.0619840103875
 30
0.0
 10
213.069148029207
 20
367.0619840103875
 30
0.0
 10
212.786190550062
 20
367.0619840103875
 30
0.0
 10
212.5525251359364
 20
367.0619840103875
 30
0.0
 10
212.4056386061621
 20
367.0619840103875
 30
0.0
 10
212.3280699664319
 20
367.0619840103875
 30
0.0
 10
212.2961290376433
 20
367.0619840103875
 30
0.0
 10
212.306317673117
 20
367.0619840103875
 30
0.0
 10
212.3114382542298
 20
367.0619840103875
 30
0.0
  0
SPLINE
  5
178
330
1F
100
AcDbEntity
  8
0
  6
CONTINUOUS
 62
     7
100
AcDbSpline
210
0.0
220
0.0
230
1.0
 70
    24
 71
     3
 72
    14
 73
    10
 74
     0
 42
0.000000001
 43
0.00000001
 40
0.0
 40
0.0
 40
0.0
 40
0.0
 40
0.1350786767914559
 40
0.2608904773788334
 40
0.3868676521804294
 40
0.5126798487322469
 40
0.6386572623990328
 40
0.8700429048407904
 40
1.0
 40
1.0
 40
1.0
 40
1.0
 10
169.1605891026519
 20
367.0619840662669
 30
0.0
 10
169.1658274004701
 20
367.0619840662669
 30
0.0
 10
169.1759446303017
 20
367.0619840662669
 30
0.0
 10
169.0280427654139
 20
367.0619840662669
 30
0.0
 10
168.8250278717891
 20
367.0619840662669
 30
0.0
 10
168.5506626130855
 20
367.0619840662669
 30
0.0
 10
168.1285376816121
 20
367.0619840662669
 30
0.0
 10
167.6197079785537
 20
367.0619840662669
 30
0.0
 10
167.2280563839461
 20
367.0619840662669
 30
0.0
 10
167.0871986933015
 20
367.0619840662669
 30
0.0
  0
SPLINE
  5
179
330
1F
100
AcDbEntity
  8
0
  6
CONTINUOUS
 62
     7
100
AcDbSpline
210
0.0
220
0.0
230
1.0
 70
    24
 71
     3
 72
    28
 73
    24
 74
     0
 42
0.000000001
 43
0.00000001
 40
0.0
 40
0.0
 40
0.0
 40
0.0
 40
0.0208402552407838
 40
0.0415086296855467
 40
0.0620928191048579
 40
0.0826815950297258
 40
0.1033636699326945
 40
0.1242265661523679
 40
0.1878481093566296
 40
0.2515513246801978
 40
0.3126421175533337
 40
0.3738166762422557
 40
0.4368819814951679
 40
0.5000318496345032
 40
0.5630971095469057
 40
0.6262469420644643
 40
0.68733778914629
 40
0.7485123969027345
 40
0.812133928937211
 40
0.8758371330760246
 40
0.9173250266200716
 40
0.9584757526426003
 40
1.0
 40
1.0
 40
1.0
 40
1.0
 10
283.9742846645008
 20
367.0619840103875
 30
0.0
 10
283.9712100108607
 20
367.0619840103875
 30
0.0
 10
283.9650860619032
 20
367.0619840103875
 30
0.0
 10
283.9453667720757
 20
367.0619840103875
 30
0.0
 10
283.9179548207658
 20
367.0619840103875
 30
0.0
 10
283.8821155002692
 20
367.0619840103875
 30
0.0
 10
283.8380308619149
 20
367.0619840103875
 30
0.0
 10
283.750255558546
 20
367.0619840103875
 30
0.0
 10
283.5899152848528
 20
367.0619840103875
 30
0.0
 10
283.3208998816803
 20
367.0619840103875
 30
0.0
 10
283.005831244076
 20
367.0619840103875
 30
0.0
 10
282.652559503946
 20
367.0619840103875
 30
0.0
 10
282.270065368409
 20
367.0619840103875
 30
0.0
 10
281.8719124636165
 20
367.0619840103875
 30
0.0
 10
281.477599866992
 20
367.0619840103875
 30
0.0
 10
281.1074638025592
 20
367.0619840103875
 30
0.0
 10
280.7732381529124
 20
367.0619840103875
 30
0.0
 10
280.484250894305
 20
367.0619840103875
 30
0.0
 10
280.2470753484662
 20
367.0619840103875
 30
0.0
 10
280.0971856203882
 20
367.0619840103875
 30
0.0
 10
280.0145327573928
 20
367.0619840103875
 30
0.0
 10
279.9756902124735
 20
367.0619840103875
 30
0.0
 10
279.978468479147
 20
367.0619840103875
 30
0.0
 10
279.9798638885178
 20
367.0619840103875
 30
0.0
  0
SPLINE
  5
17A
330
1F
100
AcDbEntity
  8
0
  6
CONTINUOUS
 62
     7
100
AcDbSpline
210
0.0
220
0.0
230
1.0
 70
    24
 71
     3
 72
    13
 73
     9
 74
     0
 42
0.000000001
 43
0.00000001
 40
0.0
 40
0.0
 40
0.0
 40
0.0
 40
0.1747129910445356
 40
0.3374403144081378
 40
0.5003814659252004
 40
0.6631086986688994
 40
0.826049942049011
 40
1.0
 40
1.0
 40
1.0
 40
1.0
 10
185.4574470706246
 20
367.0619840662669
 30
0.0
 10
185.4626920804161
 20
367.0619840662669
 30
0.0
 10
185.4728222816251
 20
367.0619840662669
 30
0.0
 10
185.3248279949774
 20
367.0619840662669
 30
0.0
 10
185.1221598790331
 20
367.0619840662669
 30
0.0
 10
184.8464942935902
 20
367.0619840662669
 30
0.0
 10
184.5140006562876
 20
367.0619840662669
 30
0.0
 10
184.2410163640181
 20
367.0619840662669
 30
0.0
 10
184.1000639758966
 20
367.0619840662669
 30
0.0
  0
SPLINE
  5
17B
330
1F
100
AcDbEntity
  8
0
  6
CONTINUOUS
 62
     7
100
AcDbSpline
210
0.0
220
0.0
230
1.0
 70
    24
 71
     3
 72
    28
 73
    24
 74
     0
 42
0.000000001
 43
0.00000001
 40
0.0
 40
0.0
 40
0.0
 40
0.0
 40
0.020143230552786
 40
0.0401316544538505
 40
0.060044551123165
 40
0.0799621018823627
 40
0.099964432084013
 40
0.1201306565574912
 40
0.1850692198061545
 40
0.2500931570090567
 40
0.3150317586763861
 40
0.3800557343481415
 40
0.4399999704615208
 40
0.500028732804968
 40
0.5599729933136979
 40
0.6200017725628416
 40
0.6849403358118765
 40
0.7499642730143589
 40
0.8149028746823013
 40
0.8799268503532619
 40
0.9200397886760469
 40
0.9598501523848386
 40
1.0
 40
1.0
 40
1.0
 40
1.0
 10
234.5421226932686
 20
367.0619840103875
 30
0.0
 10
234.5391747827452
 20
367.0619840103875
 30
0.0
 10
234.5333016172576
 20
367.0619840103875
 30
0.0
 10
234.5146340809408
 20
367.0619840103875
 30
0.0
 10
234.4887676785819
 20
367.0619840103875
 30
0.0
 10
234.4550133144793
 20
367.0619840103875
 30
0.0
 10
234.4135426009577
 20
367.0619840103875
 30
0.0
 10
234.3282206130075
 20
367.0619840103875
 30
0.0
 10
234.1687080502432
 20
367.0619840103875
 30
0.0
 10
233.8923306188929
 20
367.0619840103875
 30
0.0
 10
233.5614792869875
 20
367.0619840103875
 30
0.0
 10
233.1967957573558
 20
367.0619840103875
 30
0.0
 10
232.8181030316105
 20
367.0619840103875
 30
0.0
 10
232.4398137332655
 20
367.0619840103875
 30
0.0
 10
232.0649837024712
 20
367.0619840103875
 30
0.0
 10
231.6979008723839
 20
367.0619840103875
 30
0.0
 10
231.3522400056903
 20
367.0619840103875
 30
0.0
 10
231.0487147064847
 20
367.0619840103875
 30
0.0
 10
230.805452724404
 20
367.0619840103875
 30
0.0
 10
230.6579598865029
 20
367.0619840103875
 30
0.0
 10
230.5792753666731
 20
367.0619840103875
 30
0.0
 10
230.5433834215095
 20
367.0619840103875
 30
0.0
 10
230.5462583506205
 20
367.0619840103875
 30
0.0
 10
230.5477019181625
 20
367.0619840103875
 30
0.0
  0
SPLINE
  5
17C
330
1F
100
AcDbEntity
  8
0
  6
CONTINUOUS
 62
     7
100
AcDbSpline
210
0.0
220
0.0
230
1.0
 70
    24
 71
     3
 72
    12
 73
     8
 74
     0
 42
0.000000001
 43
0.00000001
 40
0.0
 40
0.0
 40
0.0
 40
0.0
 40
0.3168734654746144
 40
0.4801758290720882
 40
0.6436882750331621
 40
0.9560401489658167
 40
1.0
 40
1.0
 40
1.0
 40
1.0
 10
267.5564451999924
 20
367.0619840662669
 30
0.0
 10
267.5358861631588
 20
367.0619840662669
 30
0.0
 10
267.5047319213807
 20
367.0619840662669
 30
0.0
 10
267.2646785875682
 20
367.0619840662669
 30
0.0
 10
266.9424316886129
 20
367.0619840662669
 30
0.0
 10
266.6030658860368
 20
367.0619840662669
 30
0.0
 10
266.318170632245
 20
367.0619840662669
 30
0.0
 10
266.2830217666886
 20
367.0619840662669
 30
0.0
  0
SPLINE
  5
17D
330
1F
100
AcDbEntity
  8
0
  6
CONTINUOUS
 62
     7
100
AcDbSpline
210
0.0
220
0.0
230
1.0
 70
    24
 71
     3
 72
    11
 73
     7
 74
     0
 42
0.000000001
 43
0.00000001
 40
0.0
 40
0.0
 40
0.0
 40
0.0
 40
0.0676866334084148
 40
0.3104483418481011
 40
0.5535277964384744
 40
1.0
 40
1.0
 40
1.0
 40
1.0
 10
116.0008325166962
 20
367.0619840662669
 30
0.0
 10
115.9722442235755
 20
367.0619840662669
 30
0.0
 10
115.841122497635
 20
367.0619840662669
 30
0.0
 10
115.6674628627225
 20
367.0619840662669
 30
0.0
 10
115.4391444597297
 20
367.0619840662669
 30
0.0
 10
115.4188546655712
 20
367.0619840662669
 30
0.0
 10
115.4057173915169
 20
367.0619840662669
 30
0.0
  0
SPLINE
  5
17E
330
1F
100
AcDbEntity
  8
0
  6
CONTINUOUS
 62
     7
100
AcDbSpline
210
0.0
220
0.0
230
1.0
 70
    24
 71
     3
 72
     9
 73
     5
 74
     0
 42
0.000000001
 43
0.00000001
 40
0.0
 40
0.0
 40
0.0
 40
0.0
 40
0.0290228561136502
 40
1.0
 40
1.0
 40
1.0
 40
1.0
 10
132.1681826300881
 20
367.0619840662669
 30
0.0
 10
132.1660687798543
 20
367.0619840662669
 30
0.0
 10
132.0932347959917
 20
367.0619840662669
 30
0.0
 10
132.1013217673796
 20
367.0619840662669
 30
0.0
 10
132.1091740317605
 20
367.0619840662669
 30
0.0
  0
SPLINE
  5
17F
330
1F
100
AcDbEntity
  8
0
  6
CONTINUOUS
 62
     7
100
AcDbSpline
210
0.0
220
0.0
230
1.0
 70
    24
 71
     3
 72
     9
 73
     5
 74
     0
 42
0.000000001
 43
0.00000001
 40
0.0
 40
0.0
 40
0.0
 40
0.0
 40
0.9479079830867958
 40
1.0
 40
1.0
 40
1.0
 40
1.0
 10
169.8428462184928
 20
367.0619840662669
 30
0.0
 10
169.7624049894827
 20
367.0619840662669
 30
0.0
 10
169.677543135331
 20
367.0619840662669
 30
0.0
 10
169.4982516312351
 20
367.0619840662669
 30
0.0
 10
169.4889119751714
 20
367.0619840662669
 30
0.0
  0
SPLINE
  5
180
330
1F
100
AcDbEntity
  8
0
  6
CONTINUOUS
 62
     7
100
AcDbSpline
210
0.0
220
0.0
230
1.0
 70
    24
 71
     3
 72
    15
 73
    11
 74
     0
 42
0.000000001
 43
0.00000001
 40
0.0
 40
0.0
 40
0.0
 40
0.0
 40
0.0019375758274127
 40
0.1648940220976653
 40
0.3330615684524387
 40
0.5012290047213238
 40
0.6641854898236598
 40
0.7493808541574304
 40
0.8346856019429596
 40
1.0
 40
1.0
 40
1.0
 40
1.0
 10
213.2856254391334
 20
367.0619840662669
 30
0.0
 10
213.2859153814867
 20
367.0619840662669
 30
0.0
 10
213.310590421366
 20
367.0619840662669
 30
0.0
 10
213.1701039555404
 20
367.0619840662669
 30
0.0
 10
212.741386556711
 20
367.0619840662669
 30
0.0
 10
212.0712540002986
 20
367.0619840662669
 30
0.0
 10
211.4167045407955
 20
367.0619840662669
 30
0.0
 10
210.8962749347248
 20
367.0619840662669
 30
0.0
 10
210.3860892418891
 20
367.0619840662669
 30
0.0
 10
210.0765514538675
 20
367.0619840662669
 30
0.0
 10
209.8723729066513
 20
367.0619840662669
 30
0.0
  0
LINE
  5
181
330
1F
100
AcDbEntity
  8
0
  6
CONTINUOUS
 62
     7
100
AcDbLine
 10
261.4082372673
 20
367.0619840663
 30
0.0
 11
261.0528147705
 21
367.0619840663
 31
0.0
  0
SPLINE
  5
182
330
1F
100
AcDbEntity
  8
0
  6
CONTINUOUS
 62
     7
100
AcDbSpline
210
0.0
220
0.0
230
1.0
 70
    24
 71
     3
 72
    10
 73
     6
 74
     0
 42
0.000000001
 43
0.00000001
 40
0.0
 40
0.0
 40
0.0
 40
0.0
 40
0.5103619504053098
 40
0.7878623909195842
 40
1.0
 40
1.0
 40
1.0
 40
1.0
 10
175.6761516369841
 20
367.0619840662669
 30
0.0
 10
175.4968193743172
 20
367.0619840662669
 30
0.0
 10
175.2199783105945
 20
367.0619840662669
 30
0.0
 10
174.7644937083995
 20
367.0619840662669
 30
0.0
 10
174.5279259125699
 20
367.0619840662669
 30
0.0
 10
174.4254319854043
 20
367.0619840662669
 30
0.0
  0
SPLINE
  5
183
330
1F
100
AcDbEntity
  8
0
  6
CONTINUOUS
 62
     7
100
AcDbSpline
210
0.0
220
0.0
230
1.0
 70
    24
 71
     3
 72
    13
 73
     9
 74
     0
 42
0.000000001
 43
0.00000001
 40
0.0
 40
0.0
 40
0.0
 40
0.0
 40
0.0561463551376323
 40
0.3160241365097313
 40
0.5759018180636838
 40
0.7172060495274459
 40
0.8586963920708577
 40
1.0
 40
1.0
 40
1.0
 40
1.0
 10
173.6823744066022
 20
367.0619840662669
 30
0.0
 10
173.6292204010987
 20
367.0619840662669
 30
0.0
 10
173.3300389377591
 20
367.0619840662669
 30
0.0
 10
172.8343526066528
 20
367.0619840662669
 30
0.0
 10
172.4125843144562
 20
367.0619840662669
 30
0.0
 10
172.2037170345209
 20
367.0619840662669
 30
0.0
 10
172.1156007548973
 20
367.0619840662669
 30
0.0
 10
172.1261173281213
 20
367.0619840662669
 30
0.0
 10
172.1313721425793
 20
367.0619840662669
 30
0.0
  0
SPLINE
  5
184
330
1F
100
AcDbEntity
  8
0
  6
CONTINUOUS
 62
     7
100
AcDbSpline
210
0.0
220
0.0
230
1.0
 70
    24
 71
     3
 72
    12
 73
     8
 74
     0
 42
0.000000001
 43
0.00000001
 40
0.0
 40
0.0
 40
0.0
 40
0.0
 40
0.3563317463542082
 40
0.5500811902231085
 40
0.744084685988672
 40
0.9378339952118777
 40
1.0
 40
1.0
 40
1.0
 40
1.0
 10
122.0295145101807
 20
367.0619840662669
 30
0.0
 10
121.9384340278989
 20
367.0619840662669
 30
0.0
 10
121.797830052496
 20
367.0619840662669
 30
0.0
 10
121.4370126716462
 20
367.0619840662669
 30
0.0
 10
121.1040929847991
 20
367.0619840662669
 30
0.0
 10
120.817480522882
 20
367.0619840662669
 30
0.0
 10
120.6411689027778
 20
367.0619840662669
 30
0.0
 10
120.5983399338982
 20
367.0619840662669
 30
0.0
  0
SPLINE
  5
185
330
1F
100
AcDbEntity
  8
0
  6
CONTINUOUS
 62
     7
100
AcDbSpline
210
0.0
220
0.0
230
1.0
 70
    24
 71
     3
 72
    12
 73
     8
 74
     0
 42
0.000000001
 43
0.00000001
 40
0.0
 40
0.0
 40
0.0
 40
0.0
 40
0.148282625645796
 40
0.4186516376597293
 40
0.6886661765679913
 40
0.9590366491336232
 40
1.0
 40
1.0
 40
1.0
 40
1.0
 10
136.2385540194772
 20
367.0619840662669
 30
0.0
 10
136.1861005302153
 20
367.0619840662669
 30
0.0
 10
136.0380067189222
 20
367.0619840662669
 30
0.0
 10
135.8634256002298
 20
367.0619840662669
 30
0.0
 10
135.7359038314737
 20
367.0619840662669
 30
0.0
 10
135.6657191365622
 20
367.0619840662669
 30
0.0
 10
135.693067514168
 20
367.0619840662669
 30
0.0
 10
135.6966658420823
 20
367.0619840662669
 30
0.0
  0
LINE
  5
186
330
1F
100
AcDbEntity
  8
0
  6
CONTINUOUS
 62
     7
100
AcDbLine
 10
153.6844908185
 20
367.0619840663
 30
0.0
 11
153.6832093187
 21
367.0619840663
 31
0.0
  0
SPLINE
  5
187
330
1F
100
AcDbEntity
  8
0
  6
CONTINUOUS
 62
     7
100
AcDbSpline
210
0.0
220
0.0
230
1.0
 70
    24
 71
     3
 72
    11
 73
     7
 74
     0
 42
0.000000001
 43
0.00000001
 40
0.0
 40
0.0
 40
0.0
 40
0.0
 40
0.1949213762642733
 40
0.3900984833139639
 40
0.748584747569016
 40
1.0
 40
1.0
 40
1.0
 40
1.0
 10
224.9537645764611
 20
367.0619840662669
 30
0.0
 10
224.9460084049832
 20
367.0619840662669
 30
0.0
 10
224.9304858861717
 20
367.0619840662669
 30
0.0
 10
224.7638676193468
 20
367.0619840662669
 30
0.0
 10
224.4563777285144
 20
367.0619840662669
 30
0.0
 10
224.0859709766892
 20
367.0619840662669
 30
0.0
 10
223.9332809038422
 20
367.0619840662669
 30
0.0
  0
SPLINE
  5
188
330
1F
100
AcDbEntity
  8
0
  6
CONTINUOUS
 62
     7
100
AcDbSpline
210
0.0
220
0.0
230
1.0
 70
    24
 71
     3
 72
    12
 73
     8
 74
     0
 42
0.000000001
 43
0.00000001
 40
0.0
 40
0.0
 40
0.0
 40
0.0
 40
0.0228009044530706
 40
0.2214745291431349
 40
0.4204044826318151
 40
0.8004158317442576
 40
1.0
 40
1.0
 40
1.0
 40
1.0
 10
278.6086141057274
 20
367.0619840662669
 30
0.0
 10
278.611444310554
 20
367.0619840662669
 30
0.0
 10
278.6389352498989
 20
367.0619840662669
 30
0.0
 10
278.571570992033
 20
367.0619840662669
 30
0.0
 10
278.4166982452396
 20
367.0619840662669
 30
0.0
 10
278.1201816781804
 20
367.0619840662669
 30
0.0
 10
277.7783440772669
 20
367.0619840662669
 30
0.0
 10
277.6606320328972
 20
367.0619840662669
 30
0.0
  0
SPLINE
  5
189
330
1F
100
AcDbEntity
  8
0
  6
CONTINUOUS
 62
     7
100
AcDbSpline
210
0.0
220
0.0
230
1.0
 70
    24
 71
     3
 72
    12
 73
     8
 74
     0
 42
0.000000001
 43
0.00000001
 40
0.0
 40
0.0
 40
0.0
 40
0.0
 40
0.1574232355755919
 40
0.4327077644711215
 40
0.5766288339307518
 40
0.7207337316801394
 40
1.0
 40
1.0
 40
1.0
 40
1.0
 10
276.9873379655144
 20
367.0619840662669
 30
0.0
 10
276.8443697952482
 20
367.0619840662669
 30
0.0
 10
276.4513945326051
 20
367.0619840662669
 30
0.0
 10
275.9112545137591
 20
367.0619840662669
 30
0.0
 10
275.457490826709
 20
367.0619840662669
 30
0.0
 10
275.0516367377496
 20
367.0619840662669
 30
0.0
 10
274.8698348248827
 20
367.0619840662669
 30
0.0
 10
274.749913711097
 20
367.0619840662669
 30
0.0
  0
SPLINE
  5
18A
330
1F
100
AcDbEntity
  8
0
  6
CONTINUOUS
 62
     7
100
AcDbSpline
210
0.0
220
0.0
230
1.0
 70
    24
 71
     3
 72
    10
 73
     6
 74
     0
 42
0.000000001
 43
0.00000001
 40
0.0
 40
0.0
 40
0.0
 40
0.0
 40
0.2372098362427167
 40
0.4968451985782164
 40
1.0
 40
1.0
 40
1.0
 40
1.0
 10
199.4354488486386
 20
367.0619840662669
 30
0.0
 10
199.3489158248267
 20
367.0619840662669
 30
0.0
 10
199.1676690515882
 20
367.0619840662669
 30
0.0
 10
198.7209293909218
 20
367.0619840662669
 30
0.0
 10
198.3304118485362
 20
367.0619840662669
 30
0.0
 10
198.0728170527107
 20
367.0619840662669
 30
0.0
  0
SPLINE
  5
18B
330
1F
100
AcDbEntity
  8
0
  6
CONTINUOUS
 62
     7
100
AcDbSpline
210
0.0
220
0.0
230
1.0
 70
    24
 71
     3
 72
    16
 73
    12
 74
     0
 42
0.000000001
 43
0.00000001
 40
0.0
 40
0.0
 40
0.0
 40
0.0
 40
0.021416461928093
 40
0.0984707559785606
 40
0.2456659132586216
 40
0.3975683247091685
 40
0.5494702932893518
 40
0.6966654964446511
 40
0.7736211659989098
 40
0.8506751018689443
 40
1.0
 40
1.0
 40
1.0
 40
1.0
 10
258.4051242954991
 20
367.0619840662669
 30
0.0
 10
258.4075077721837
 20
367.0619840662669
 30
0.0
 10
258.4184667602639
 20
367.0619840662669
 30
0.0
 10
258.3341228296575
 20
367.0619840662669
 30
0.0
 10
258.0561561128825
 20
367.0619840662669
 30
0.0
 10
257.4571458472233
 20
367.0619840662669
 30
0.0
 10
256.7026303421649
 20
367.0619840662669
 30
0.0
 10
256.0351565567947
 20
367.0619840662669
 30
0.0
 10
255.5438290609859
 20
367.0619840662669
 30
0.0
 10
255.0866148243935
 20
367.0619840662669
 30
0.0
 10
254.8485139435848
 20
367.0619840662669
 30
0.0
 10
254.6914569027684
 20
367.0619840662669
 30
0.0
  0
SPLINE
  5
18C
330
1F
100
AcDbEntity
  8
0
  6
CONTINUOUS
 62
     7
100
AcDbSpline
210
0.0
220
0.0
230
1.0
 70
    24
 71
     3
 72
    10
 73
     6
 74
     0
 42
0.000000001
 43
0.00000001
 40
0.0
 40
0.0
 40
0.0
 40
0.0
 40
0.1685651698502474
 40
0.584010534438138
 40
1.0
 40
1.0
 40
1.0
 40
1.0
 10
163.0164249725602
 20
367.0619840662669
 30
0.0
 10
162.9836204919272
 20
367.0619840662669
 30
0.0
 10
162.8699661570285
 20
367.0619840662669
 30
0.0
 10
162.7878842228438
 20
367.0619840662669
 30
0.0
 10
162.7686148678631
 20
367.0619840662669
 30
0.0
 10
162.7589738853238
 20
367.0619840662669
 30
0.0
  0
SPLINE
  5
18D
330
1F
100
AcDbEntity
  8
0
  6
CONTINUOUS
 62
     7
100
AcDbSpline
210
0.0
220
0.0
230
1.0
 70
    24
 71
     3
 72
    25
 73
    21
 74
     0
 42
0.000000001
 43
0.00000001
 40
0.0
 40
0.0
 40
0.0
 40
0.0
 40
0.0247159692376886
 40
0.0492419889827955
 40
0.0736753359700769
 40
0.0981143935777069
 40
0.1226574765091921
 40
0.1474016595447847
 40
0.2270820031093473
 40
0.3068671014701921
 40
0.3865474921751904
 40
0.4663326377374341
 40
0.5398848860693599
 40
0.6135408490298693
 40
0.6870931272951003
 40
0.7607491109990918
 40
0.8404294545635151
 40
0.9202145529242995
 40
0.9603055540619687
 40
1.0
 40
1.0
 40
1.0
 40
1.0
 10
146.8395115969832
 20
367.0619840103875
 30
0.0
 10
146.815210071829
 20
367.0619840103875
 30
0.0
 10
146.7667937858886
 20
367.0619840103875
 30
0.0
 10
146.6864217977429
 20
367.0619840103875
 30
0.0
 10
146.6008439458382
 20
367.0619840103875
 30
0.0
 10
146.5094942498918
 20
367.0619840103875
 30
0.0
 10
146.4125110362274
 20
367.0619840103875
 30
0.0
 10
146.2345267411477
 20
367.0619840103875
 30
0.0
 10
145.9564507810472
 20
367.0619840103875
 30
0.0
 10
145.5628703197092
 20
367.0619840103875
 30
0.0
 10
145.1538117591327
 20
367.0619840103875
 30
0.0
 10
144.7566755175651
 20
367.0619840103875
 30
0.0
 10
144.3862081764987
 20
367.0619840103875
 30
0.0
 10
144.0548999408017
 20
367.0619840103875
 30
0.0
 10
143.7624327480328
 20
367.0619840103875
 30
0.0
 10
143.5152462302289
 20
367.0619840103875
 30
0.0
 10
143.3238404296604
 20
367.0619840103875
 30
0.0
 10
143.2274547500149
 20
367.0619840103875
 30
0.0
 10
143.1881898235138
 20
367.0619840103875
 30
0.0
 10
143.1862203547667
 20
367.0619840103875
 30
0.0
 10
143.1852405147887
 20
367.0619840103875
 30
0.0
  0
SPLINE
  5
18E
330
1F
100
AcDbEntity
  8
0
  6
CONTINUOUS
 62
     7
100
AcDbSpline
210
0.0
220
0.0
230
1.0
 70
    24
 71
     3
 72
    26
 73
    22
 74
     0
 42
0.000000001
 43
0.00000001
 40
0.0
 40
0.0
 40
0.0
 40
0.0
 40
0.0228886515066616
 40
0.0456013969953441
 40
0.0682283212715551
 40
0.0908605339670991
 40
0.1135890811164132
 40
0.1365038605015156
 40
0.2102932230900796
 40
0.2841795956774038
 40
0.3579690019234689
 40
0.4318554182201587
 40
0.4999697520542902
 40
0.5681801326162438
 40
0.636294494170478
 40
0.704504893942587
 40
0.7782942565330201
 40
0.8521806291185241
 40
0.901565658025003
 40
0.9505290935495675
 40
0.9999999999999999
 40
0.9999999999999999
 40
0.9999999999999999
 40
0.9999999999999999
 10
128.0530326320679
 20
367.0619840103875
 30
0.0
 10
128.0332386990609
 20
367.0619840103875
 30
0.0
 10
127.993802955243
 20
367.0619840103875
 30
0.0
 10
127.9261812005822
 20
367.0619840103875
 30
0.0
 10
127.8527302658845
 20
367.0619840103875
 30
0.0
 10
127.7728390410683
 20
367.0619840103875
 30
0.0
 10
127.6866576557004
 20
367.0619840103875
 30
0.0
 10
127.526267533124
 20
367.0619840103875
 30
0.0
 10
127.2693390289255
 20
367.0619840103875
 30
0.0
 10
126.8934457217235
 20
367.0619840103875
 30
0.0
 10
126.4922200705292
 20
367.0619840103875
 30
0.0
 10
126.0921694927383
 20
367.0619840103875
 30
0.0
 10
125.7096704883674
 20
367.0619840103875
 30
0.0
 10
125.3580099386322
 20
367.0619840103875
 30
0.0
 10
125.0377034468744
 20
367.0619840103875
 30
0.0
 10
124.7547459671583
 20
367.0619840103875
 30
0.0
 10
124.5210805519292
 20
367.0619840103875
 30
0.0
 10
124.374194020558
 20
367.0619840103875
 30
0.0
 10
124.2966253790464
 20
367.0619840103875
 30
0.0
 10
124.2646844484783
 20
367.0619840103875
 30
0.0
 10
124.2748730825782
 20
367.0619840103875
 30
0.0
 10
124.2799936630006
 20
367.0619840103875
 30
0.0
  0
SPLINE
  5
18F
330
1F
100
AcDbEntity
  8
0
  6
CONTINUOUS
 62
     7
100
AcDbSpline
210
0.0
220
0.0
230
1.0
 70
    24
 71
     3
 72
    11
 73
     7
 74
     0
 42
0.000000001
 43
0.00000001
 40
0.0
 40
0.0
 40
0.0
 40
0.0
 40
0.4342058903424904
 40
0.6702982235236041
 40
0.9066990132187639
 40
1.0
 40
1.0
 40
1.0
 40
1.0
 10
178.1708295382521
 20
367.0619840662669
 30
0.0
 10
177.9343152124335
 20
367.0619840662669
 30
0.0
 10
177.5692001000867
 20
367.0619840662669
 30
0.0
 10
177.0426281195098
 20
367.0619840662669
 30
0.0
 10
176.7181159100936
 20
367.0619840662669
 30
0.0
 10
176.5461535451949
 20
367.0619840662669
 30
0.0
 10
176.497490603473
 20
367.0619840662669
 30
0.0
  0
LINE
  5
190
330
1F
100
AcDbEntity
  8
0
  6
CONTINUOUS
 62
     7
100
AcDbLine
 10
178.7574211992
 20
367.0619840663
 30
0.0
 11
178.1708295383
 21
367.0619840663
 31
0.0
  0
SPLINE
  5
191
330
1F
100
AcDbEntity
  8
0
  6
CONTINUOUS
 62
     7
100
AcDbSpline
210
0.0
220
0.0
230
1.0
 70
    24
 71
     3
 72
    16
 73
    12
 74
     0
 42
0.000000001
 43
0.00000001
 40
0.0
 40
0.0
 40
0.0
 40
0.0
 40
0.0053925559400914
 40
0.0837079858465285
 40
0.233313637832313
 40
0.3877035690681312
 40
0.5420926595764668
 40
0.6916978088443353
 40
0.7699140985946746
 40
0.8482298017506587
 40
1.0
 40
1.0
 40
1.0
 40
1.0
 10
270.7942291088364
 20
367.0619840662669
 30
0.0
 10
270.7950788622271
 20
367.0619840662669
 30
0.0
 10
270.8082694801065
 20
367.0619840662669
 30
0.0
 10
270.7391729484165
 20
367.0619840662669
 30
0.0
 10
270.4909685463907
 20
367.0619840662669
 30
0.0
 10
269.9134820523662
 20
367.0619840662669
 30
0.0
 10
269.1710644716056
 20
367.0619840662669
 30
0.0
 10
268.5025344449726
 20
367.0619840662669
 30
0.0
 10
268.004176980442
 20
367.0619840662669
 30
0.0
 10
267.5360150915913
 20
367.0619840662669
 30
0.0
 10
267.2848381075631
 20
367.0619840662669
 30
0.0
 10
267.1191557235978
 20
367.0619840662669
 30
0.0
  0
SPLINE
  5
192
330
1F
100
AcDbEntity
  8
0
  6
CONTINUOUS
 62
     7
100
AcDbSpline
210
0.0
220
0.0
230
1.0
 70
    24
 71
     3
 72
    10
 73
     6
 74
     0
 42
0.000000001
 43
0.00000001
 40
0.0
 40
0.0
 40
0.0
 40
0.0
 40
0.1921782782086703
 40
0.4671415075805087
 40
1.0
 40
1.0
 40
1.0
 40
1.0
 10
246.1781515665315
 20
367.0619840662669
 30
0.0
 10
246.0850740728168
 20
367.0619840662669
 30
0.0
 10
245.8588239412151
 20
367.0619840662669
 30
0.0
 10
245.3881077699672
 20
367.0619840662669
 30
0.0
 10
245.0784295486279
 20
367.0619840662669
 30
0.0
 10
244.8741584010384
 20
367.0619840662669
 30
0.0
  0
LINE
  5
193
330
1F
100
AcDbEntity
  8
0
  6
CONTINUOUS
 62
     7
100
AcDbLine
 10
192.2749993317
 20
367.0619840663
 30
0.0
 11
191.9775893837
 21
367.0619840663
 31
0.0
  0
LINE
  5
194
330
1F
100
AcDbEntity
  8
0
  6
CONTINUOUS
 62
     7
100
AcDbLine
 10
137.2074275203
 20
367.0619840663
 30
0.0
 11
136.8951885886
 21
367.0619840663
 31
0.0
  0
LINE
  5
195
330
1F
100
AcDbEntity
  8
0
  6
CONTINUOUS
 62
     7
100
AcDbLine
 10
133.6633949466
 20
367.0619840663
 30
0.0
 11
133.6626498885
 21
367.0619840663
 31
0.0
  0
SPLINE
  5
196
330
1F
100
AcDbEntity
  8
0
  6
CONTINUOUS
 62
     7
100
AcDbSpline
210
0.0
220
0.0
230
1.0
 70
    24
 71
     3
 72
    10
 73
     6
 74
     0
 42
0.000000001
 43
0.00000001
 40
0.0
 40
0.0
 40
0.0
 40
0.0
 40
0.6181987177286
 40
0.9543330430678617
 40
1.0
 40
1.0
 40
1.0
 40
1.0
 10
170.6799860037825
 20
367.0619840662669
 30
0.0
 10
170.4444451654015
 20
367.0619840662669
 30
0.0
 10
170.0808332739293
 20
367.0619840662669
 30
0.0
 10
169.6672072095413
 20
367.0619840662669
 30
0.0
 10
169.5167069797834
 20
367.0619840662669
 30
0.0
 10
169.498705763366
 20
367.0619840662669
 30
0.0
  0
SPLINE
  5
197
330
1F
100
AcDbEntity
  8
0
  6
CONTINUOUS
 62
     7
100
AcDbSpline
210
0.0
220
0.0
230
1.0
 70
    24
 71
     3
 72
    11
 73
     7
 74
     0
 42
0.000000001
 43
0.00000001
 40
0.0
 40
0.0
 40
0.0
 40
0.0
 40
0.4342051164338036
 40
0.6702965131519983
 40
0.9066989568352736
 40
1.0
 40
1.0
 40
1.0
 40
1.0
 10
163.1891406066678
 20
367.0619840662669
 30
0.0
 10
162.9526269640018
 20
367.0619840662669
 30
0.0
 10
162.5875131871446
 20
367.0619840662669
 30
0.0
 10
162.0609411502591
 20
367.0619840662669
 30
0.0
 10
161.736429719753
 20
367.0619840662669
 30
0.0
 10
161.5644664962041
 20
367.0619840662669
 30
0.0
 10
161.5158035345338
 20
367.0619840662669
 30
0.0
  0
SPLINE
  5
198
330
1F
100
AcDbEntity
  8
0
  6
CONTINUOUS
 62
     7
100
AcDbSpline
210
0.0
220
0.0
230
1.0
 70
    24
 71
     3
 72
    11
 73
     7
 74
     0
 42
0.000000001
 43
0.00000001
 40
0.0
 40
0.0
 40
0.0
 40
0.0
 40
0.1113242439113322
 40
0.5259059268699362
 40
0.9399396215539669
 40
1.0
 40
1.0
 40
1.0
 40
1.0
 10
177.8425066657327
 20
367.0619840662669
 30
0.0
 10
177.806603490561
 20
367.0619840662669
 30
0.0
 10
177.6369936018899
 20
367.0619840662669
 30
0.0
 10
177.3614996722467
 20
367.0619840662669
 30
0.0
 10
177.1095848179277
 20
367.0619840662669
 30
0.0
 10
177.0060351055191
 20
367.0619840662669
 30
0.0
 10
176.9929169602654
 20
367.0619840662669
 30
0.0
  0
SPLINE
  5
199
330
1F
100
AcDbEntity
  8
0
  6
CONTINUOUS
 62
     7
100
AcDbSpline
210
0.0
220
0.0
230
1.0
 70
    24
 71
     3
 72
     9
 73
     5
 74
     0
 42
0.000000001
 43
0.00000001
 40
0.0
 40
0.0
 40
0.0
 40
0.0
 40
0.3251115902081747
 40
1.0
 40
1.0
 40
1.0
 40
1.0
 10
179.8491175211928
 20
367.0619840662669
 30
0.0
 10
179.7615207700311
 20
367.0619840662669
 30
0.0
 10
179.4920848169617
 20
367.0619840662669
 30
0.0
 10
179.1271960942119
 20
367.0619840662669
 30
0.0
 10
178.8809369243644
 20
367.0619840662669
 30
0.0
  0
LINE
  5
19A
330
1F
100
AcDbEntity
  8
0
  6
CONTINUOUS
 62
     8
100
AcDbLine
 10
186.0507964082
 20
367.3119841072
 30
0.0
 11
184.5498005785
 21
367.3119841072
 31
0.0
  0
LINE
  5
19B
330
1F
100
AcDbEntity
  8
0
  6
CONTINUOUS
 62
     8
100
AcDbLine
 10
189.0498003848
 20
367.3119841072
 30
0.0
 11
186.0507964082
 21
367.3119841072
 31
0.0
  0
LINE
  5
19C
330
1F
100
AcDbEntity
  8
0
  6
CONTINUOUS
 62
     8
100
AcDbLine
 10
168.9867242165
 20
367.3119841072
 30
0.0
 11
167.9104803987
 21
367.3119841072
 31
0.0
  0
LINE
  5
19D
330
1F
100
AcDbEntity
  8
0
  6
CONTINUOUS
 62
     8
100
AcDbLine
 10
172.4104820676
 20
367.3119841072
 30
0.0
 11
168.9867242165
 21
367.3119841072
 31
0.0
  0
LINE
  5
19E
330
1F
100
AcDbEntity
  8
0
  6
CONTINUOUS
 62
     8
100
AcDbLine
 10
153.2645313926
 20
367.3119841072
 30
0.0
 11
152.5617442019
 21
367.3119841072
 31
0.0
  0
LINE
  5
19F
330
1F
100
AcDbEntity
  8
0
  6
CONTINUOUS
 62
     8
100
AcDbLine
 10
157.0617458709
 20
367.3119841072
 30
0.0
 11
153.2645313926
 21
367.3119841072
 31
0.0
  0
LINE
  5
1A0
330
1F
100
AcDbEntity
  8
0
  6
CONTINUOUS
 62
     8
100
AcDbLine
 10
191.6309692822
 20
367.3119841072
 30
0.0
 11
189.0498003848
 21
367.3119841072
 31
0.0
  0
LINE
  5
1A1
330
1F
100
AcDbEntity
  8
0
  6
CONTINUOUS
 62
     8
100
AcDbLine
 10
252.6215291508
 20
367.3119841072
 30
0.0
 11
249.2959997542
 21
367.3119841072
 31
0.0
  0
LINE
  5
1A2
330
1F
100
AcDbEntity
  8
0
  6
CONTINUOUS
 62
     8
100
AcDbLine
 10
253.7960014231
 20
367.3119841072
 30
0.0
 11
252.6215291508
 21
367.3119841072
 31
0.0
  0
LINE
  5
1A3
330
1F
100
AcDbEntity
  8
0
  6
CONTINUOUS
 62
     8
100
AcDbLine
 10
175.7679539658
 20
367.3119841072
 30
0.0
 11
172.4104820676
 21
367.3119841072
 31
0.0
  0
LINE
  5
1A4
330
1F
100
AcDbEntity
  8
0
  6
CONTINUOUS
 62
     8
100
AcDbLine
 10
139.571358908
 20
367.3119841072
 30
0.0
 11
139.1744031496
 21
367.3119841072
 31
0.0
  0
LINE
  5
1A5
330
1F
100
AcDbEntity
  8
0
  6
CONTINUOUS
 62
     8
100
AcDbLine
 10
143.6744010933
 20
367.3119841072
 30
0.0
 11
139.571358908
 21
367.3119841072
 31
0.0
  0
LINE
  5
1A6
330
1F
100
AcDbEntity
  8
0
  6
CONTINUOUS
 62
     8
100
AcDbLine
 10
157.6209454723
 20
367.3119841072
 30
0.0
 11
157.0617458709
 21
367.3119841072
 31
0.0
  0
LINE
  5
1A7
330
1F
100
AcDbEntity
  8
0
  6
CONTINUOUS
 62
     8
100
AcDbLine
 10
161.5494242795
 20
367.3119841072
 30
0.0
 11
157.6209454723
 21
367.3119841072
 31
0.0
  0
LINE
  5
1A8
330
1F
100
AcDbEntity
  8
0
  6
CONTINUOUS
 62
     8
100
AcDbLine
 10
265.1897459216
 20
367.3119841072
 30
0.0
 11
261.4768273123
 21
367.3119841072
 31
0.0
  0
LINE
  5
1A9
330
1F
100
AcDbEntity
  8
0
  6
CONTINUOUS
 62
     8
100
AcDbLine
 10
265.9768252559
 20
367.3119841072
 30
0.0
 11
265.1897459216
 21
367.3119841072
 31
0.0
  0
LINE
  5
1AA
330
1F
100
AcDbEntity
  8
0
  6
CONTINUOUS
 62
     8
100
AcDbLine
 10
194.2121381797
 20
367.3119841072
 30
0.0
 11
191.6309692822
 21
367.3119841072
 31
0.0
  0
LINE
  5
1AB
330
1F
100
AcDbEntity
  8
0
  6
CONTINUOUS
 62
     8
100
AcDbLine
 10
128.5056560226
 20
367.3119841072
 30
0.0
 11
128.3335476108
 21
367.3119841072
 31
0.0
  0
LINE
  5
1AC
330
1F
100
AcDbEntity
  8
0
  6
CONTINUOUS
 62
     8
100
AcDbLine
 10
132.8335492797
 20
367.3119841072
 30
0.0
 11
128.5056560226
 21
367.3119841072
 31
0.0
  0
LINE
  5
1AD
330
1F
100
AcDbEntity
  8
0
  6
CONTINUOUS
 62
     8
100
AcDbLine
 10
175.8948913701
 20
367.3119841072
 30
0.0
 11
175.7679539658
 21
367.3119841072
 31
0.0
  0
LINE
  5
1AE
330
1F
100
AcDbEntity
  8
0
  6
CONTINUOUS
 62
     8
100
AcDbLine
 10
179.5128690936
 20
367.3119841072
 30
0.0
 11
175.8948913701
 21
367.3119841072
 31
0.0
  0
LINE
  5
1AF
330
1F
100
AcDbEntity
  8
0
  6
CONTINUOUS
 62
     8
100
AcDbLine
 10
249.2959997542
 20
367.3119841072
 30
0.0
 11
246.8723184355
 21
367.3119841072
 31
0.0
  0
LINE
  5
1B0
330
1F
100
AcDbEntity
  8
0
  6
CONTINUOUS
 62
     8
100
AcDbLine
 10
145.6203996129
 20
367.3119841072
 30
0.0
 11
145.3687860556
 21
367.3119841072
 31
0.0
  0
LINE
  5
1B1
330
1F
100
AcDbEntity
  8
0
  6
CONTINUOUS
 62
     8
100
AcDbLine
 10
149.8687839992
 20
367.3119841072
 30
0.0
 11
145.6203996129
 21
367.3119841072
 31
0.0
  0
LINE
  5
1B2
330
1F
100
AcDbEntity
  8
0
  6
CONTINUOUS
 62
     8
100
AcDbLine
 10
274.8953117914
 20
367.3119841072
 30
0.0
 11
270.8589374013
 21
367.3119841072
 31
0.0
  0
LINE
  5
1B3
330
1F
100
AcDbEntity
  8
0
  6
CONTINUOUS
 62
     8
100
AcDbLine
 10
275.3589390703
 20
367.3119841072
 30
0.0
 11
274.8953117914
 21
367.3119841072
 31
0.0
  0
LINE
  5
1B4
330
1F
100
AcDbEntity
  8
0
  6
CONTINUOUS
 62
     8
100
AcDbLine
 10
162.9058807082
 20
367.3119841072
 30
0.0
 11
162.5089249499
 21
367.3119841072
 31
0.0
  0
LINE
  5
1B5
330
1F
100
AcDbEntity
  8
0
  6
CONTINUOUS
 62
     8
100
AcDbLine
 10
167.0089266188
 20
367.3119841072
 30
0.0
 11
162.9058807082
 21
367.3119841072
 31
0.0
  0
LINE
  5
1B6
330
1F
100
AcDbEntity
  8
0
  6
CONTINUOUS
 62
     8
100
AcDbLine
 10
196.7933066115
 20
367.3119841072
 30
0.0
 11
194.2121381797
 21
367.3119841072
 31
0.0
  0
LINE
  5
1B7
330
1F
100
AcDbEntity
  8
0
  6
CONTINUOUS
 62
     8
100
AcDbLine
 10
260.1937069483
 20
367.3119841072
 30
0.0
 11
256.1573288329
 21
367.3119841072
 31
0.0
  0
LINE
  5
1B8
330
1F
100
AcDbEntity
  8
0
  6
CONTINUOUS
 62
     8
100
AcDbLine
 10
260.6573305018
 20
367.3119841072
 30
0.0
 11
260.1937069483
 21
367.3119841072
 31
0.0
  0
LINE
  5
1B9
330
1F
100
AcDbEntity
  8
0
  6
CONTINUOUS
 62
     8
100
AcDbLine
 10
120.5510510988
 20
367.3119841072
 30
0.0
 11
120.5129711814
 21
367.3119841072
 31
0.0
  0
LINE
  5
1BA
330
1F
100
AcDbEntity
  8
0
  6
CONTINUOUS
 62
     8
100
AcDbLine
 10
125.0129728503
 20
367.3119841072
 30
0.0
 11
120.5510510988
 21
367.3119841072
 31
0.0
  0
LINE
  5
1BB
330
1F
100
AcDbEntity
  8
0
  6
CONTINUOUS
 62
     8
100
AcDbLine
 10
180.2241648473
 20
367.3119841072
 30
0.0
 11
179.521375794
 21
367.3119841072
 31
0.0
  0
LINE
  5
1BC
330
1F
100
AcDbEntity
  8
0
  6
CONTINUOUS
 62
     8
100
AcDbLine
 10
184.0213756002
 20
367.3119841072
 30
0.0
 11
180.2241648473
 21
367.3119841072
 31
0.0
  0
LINE
  5
1BD
330
1F
100
AcDbEntity
  8
0
  6
CONTINUOUS
 62
     8
100
AcDbLine
 10
137.017244
 20
367.3119841072
 30
0.0
 11
136.9599713869
 21
367.3119841072
 31
0.0
  0
LINE
  5
1BE
330
1F
100
AcDbEntity
  8
0
  6
CONTINUOUS
 62
     8
100
AcDbLine
 10
139.1744031496
 20
367.3119841072
 30
0.0
 11
137.017244
 21
367.3119841072
 31
0.0
  0
LINE
  5
1BF
330
1F
100
AcDbEntity
  8
0
  6
CONTINUOUS
 62
     8
100
AcDbLine
 10
245.4920983799
 20
367.3119841072
 30
0.0
 11
241.4557239898
 21
367.3119841072
 31
0.0
  0
LINE
  5
1C0
330
1F
100
AcDbEntity
  8
0
  6
CONTINUOUS
 62
     8
100
AcDbLine
 10
245.9557219334
 20
367.3119841072
 30
0.0
 11
245.4920983799
 21
367.3119841072
 31
0.0
  0
LINE
  5
1C1
330
1F
100
AcDbEntity
  8
0
  6
CONTINUOUS
 62
     8
100
AcDbLine
 10
281.3140465803
 20
367.3119841072
 30
0.0
 11
277.0322873183
 21
367.3119841072
 31
0.0
  0
LINE
  5
1C2
330
1F
100
AcDbEntity
  8
0
  6
CONTINUOUS
 62
     8
100
AcDbLine
 10
281.5322889872
 20
367.3119841072
 30
0.0
 11
281.3140465803
 21
367.3119841072
 31
0.0
  0
LINE
  5
1C3
330
1F
100
AcDbEntity
  8
0
  6
CONTINUOUS
 62
     8
100
AcDbLine
 10
199.3744753925
 20
367.3119841072
 30
0.0
 11
196.7933066115
 21
367.3119841072
 31
0.0
  0
LINE
  5
1C4
330
1F
100
AcDbEntity
  8
0
  6
CONTINUOUS
 62
     8
100
AcDbLine
 10
266.0733698793
 20
367.3119841072
 30
0.0
 11
265.9768252559
 21
367.3119841072
 31
0.0
  0
LINE
  5
1C5
330
1F
100
AcDbEntity
  8
0
  6
CONTINUOUS
 62
     8
100
AcDbLine
 10
266.2529139705
 20
367.3119841072
 30
0.0
 11
266.0733698793
 21
367.3119841072
 31
0.0
  0
LINE
  5
1C6
330
1F
100
AcDbEntity
  8
0
  6
CONTINUOUS
 62
     8
100
AcDbLine
 10
120.5129711814
 20
367.3119841072
 30
0.0
 11
116.0544841476
 21
367.3119841072
 31
0.0
  0
LINE
  5
1C7
330
1F
100
AcDbEntity
  8
0
  6
CONTINUOUS
 62
     8
100
AcDbLine
 10
136.8513419218
 20
367.3119841072
 30
0.0
 11
132.8335492797
 21
367.3119841072
 31
0.0
  0
LINE
  5
1C8
330
1F
100
AcDbEntity
  8
0
  6
CONTINUOUS
 62
     8
100
AcDbLine
 10
188.4393258877
 20
409.7512762923
 30
0.0
 11
210.9406753369
 21
409.7512762923
 31
0.0
  0
LINE
  5
1C9
330
1F
100
AcDbEntity
  8
0
  6
CONTINUOUS
 62
     8
100
AcDbLine
 10
246.8723184355
 20
367.3119841072
 30
0.0
 11
246.2318031974
 21
367.3119841072
 31
0.0
  0
LINE
  5
1CA
330
1F
100
AcDbEntity
  8
0
  6
CONTINUOUS
 62
     8
100
AcDbLine
 10
152.5617442019
 20
367.3119841072
 30
0.0
 11
149.8687839992
 21
367.3119841072
 31
0.0
  0
LINE
  5
1CB
330
1F
100
AcDbEntity
  8
0
  6
CONTINUOUS
 62
     8
100
AcDbLine
 10
167.9104803987
 20
367.3119841072
 30
0.0
 11
167.0089266188
 21
367.3119841072
 31
0.0
  0
LINE
  5
1CC
330
1F
100
AcDbEntity
  8
0
  6
CONTINUOUS
 62
     8
100
AcDbLine
 10
284.2270745821
 20
367.3119841072
 30
0.0
 11
281.5322889872
 21
367.3119841072
 31
0.0
  0
LINE
  5
1CD
330
1F
100
AcDbEntity
  8
0
  6
CONTINUOUS
 62
     8
100
AcDbLine
 10
184.5498005785
 20
367.3119841072
 30
0.0
 11
184.0213756002
 21
367.3119841072
 31
0.0
  0
LINE
  5
1CE
330
1F
100
AcDbEntity
  8
0
  6
CONTINUOUS
 62
     8
100
AcDbLine
 10
267.8074850626
 20
367.3119841072
 30
0.0
 11
266.2529139705
 21
367.3119841072
 31
0.0
  0
LINE
  5
1CF
330
1F
100
AcDbEntity
  8
0
  6
CONTINUOUS
 62
     8
100
AcDbLine
 10
116.0544841476
 20
367.3119841072
 30
0.0
 11
115.1529266424
 21
367.3119841072
 31
0.0
  0
LINE
  5
1D0
330
1F
100
AcDbEntity
  8
0
  6
CONTINUOUS
 62
     8
100
AcDbLine
 10
261.4768273123
 20
367.3119841072
 30
0.0
 11
260.7233538218
 21
367.3119841072
 31
0.0
  0
LINE
  5
1D1
330
1F
100
AcDbEntity
  8
0
  6
CONTINUOUS
 62
     8
100
AcDbLine
 10
136.9599713869
 20
367.3119841072
 30
0.0
 11
136.8513419218
 21
367.3119841072
 31
0.0
  0
LINE
  5
1D2
330
1F
100
AcDbEntity
  8
0
  6
CONTINUOUS
 62
     8
100
AcDbLine
 10
277.0322873183
 20
367.3119841072
 30
0.0
 11
275.3589390703
 21
367.3119841072
 31
0.0
  0
LINE
  5
1D3
330
1F
100
AcDbEntity
  8
0
  6
CONTINUOUS
 62
     8
100
AcDbLine
 10
200.218147649
 20
367.3119841072
 30
0.0
 11
199.3744753925
 21
367.3119841072
 31
0.0
  0
LINE
  5
1D4
330
1F
100
AcDbEntity
  8
0
  6
CONTINUOUS
 62
     8
100
AcDbLine
 10
256.1573288329
 20
367.3119841072
 30
0.0
 11
254.1629015394
 21
367.3119841072
 31
0.0
  0
LINE
  5
1D5
330
1F
100
AcDbEntity
  8
0
  6
CONTINUOUS
 62
     8
100
AcDbLine
 10
145.3687860556
 20
367.3119841072
 30
0.0
 11
143.6744010933
 21
367.3119841072
 31
0.0
  0
LINE
  5
1D6
330
1F
100
AcDbEntity
  8
0
  6
CONTINUOUS
 62
     8
100
AcDbLine
 10
128.3335476108
 20
367.3119841072
 30
0.0
 11
125.0129728503
 21
367.3119841072
 31
0.0
  0
LINE
  5
1D7
330
1F
100
AcDbEntity
  8
0
  6
CONTINUOUS
 62
     8
100
AcDbLine
 10
270.8589374013
 20
367.3119841072
 30
0.0
 11
267.8074850626
 21
367.3119841072
 31
0.0
  0
LINE
  5
1D8
330
1F
100
AcDbEntity
  8
0
  6
CONTINUOUS
 62
     8
100
AcDbLine
 10
246.2318031974
 20
367.3119841072
 30
0.0
 11
245.9557219334
 21
367.3119841072
 31
0.0
  0
LINE
  5
1D9
330
1F
100
AcDbEntity
  8
0
  6
CONTINUOUS
 62
     8
100
AcDbLine
 10
201.7524833716
 20
367.3119841072
 30
0.0
 11
200.218147649
 21
367.3119841072
 31
0.0
  0
LINE
  5
1DA
330
1F
100
AcDbEntity
  8
0
  6
CONTINUOUS
 62
     8
100
AcDbLine
 10
162.5089249499
 20
367.3119841072
 30
0.0
 11
161.5494242795
 21
367.3119841072
 31
0.0
  0
ARC
  5
1DB
330
1F
100
AcDbEntity
  8
0
  6
CONTINUOUS
 62
     7
100
AcDbCircle
 10
360.2510840457
 20
370.0619840104
 30
0.0
 40
0.5000000000000568
100
AcDbArc
 50
180.0
 51
270.0
  0
ARC
  5
1DC
330
1F
100
AcDbEntity
  8
0
  6
CONTINUOUS
 62
     7
100
AcDbCircle
 10
560.2510840457
 20
370.0619840104
 30
0.0
 40
0.5
100
AcDbArc
 50
270.0
 51
0.0
  0
LINE
  5
1DD
330
1F
100
AcDbEntity
  8
0
  6
CONTINUOUS
 62
     7
100
AcDbLine
 10
359.7510815423
 20
377.5619843904
 30
0.0
 11
359.7510815423
 21
370.0619840341
 31
0.0
  0
LINE
  5
1DE
330
1F
100
AcDbEntity
  8
0
  6
CONTINUOUS
 62
     7
100
AcDbLine
 10
560.7510865491
 20
370.0619840341
 30
0.0
 11
560.7510865491
 21
377.5619843904
 31
0.0
  0
ARC
  5
1DF
330
1F
100
AcDbEntity
  8
0
  6
CONTINUOUS
 62
     7
100
AcDbCircle
 10
457.9386012512
 20
367.3119840104
 30
0.0
 40
0.2500000000000568
100
AcDbArc
 50
270.0
 51
0.0
  0
ARC
  5
1E0
330
1F
100
AcDbEntity
  8
0
  6
CONTINUOUS
 62
     7
100
AcDbCircle
 10
453.9386012512
 20
367.3119840104
 30
0.0
 40
0.25
100
AcDbArc
 50
180.0
 51
270.0
  0
LINE
  5
1E1
330
1F
100
AcDbEntity
  8
0
  6
CONTINUOUS
 62
     7
100
AcDbLine
 10
458.1886012863
 20
367.3119841072
 30
0.0
 11
458.1886012863
 21
369.5619840104
 31
0.0
  0
LINE
  5
1E2
330
1F
100
AcDbEntity
  8
0
  6
CONTINUOUS
 62
     7
100
AcDbLine
 10
453.68860148
 20
369.5619840104
 30
0.0
 11
453.68860148
 21
367.3119841072
 31
0.0
  0
ARC
  5
1E3
330
1F
100
AcDbEntity
  8
0
  6
CONTINUOUS
 62
     7
100
AcDbCircle
 10
475.141283965
 20
367.3119840104
 30
0.0
 40
0.25
100
AcDbArc
 50
270.0
 51
0.0
  0
ARC
  5
1E4
330
1F
100
AcDbEntity
  8
0
  6
CONTINUOUS
 62
     7
100
AcDbCircle
 10
471.141283965
 20
367.3119840104
 30
0.0
 40
0.2500000000000568
100
AcDbArc
 50
180.0
 51
270.0
  0
LINE
  5
1E5
330
1F
100
AcDbEntity
  8
0
  6
CONTINUOUS
 62
     7
100
AcDbLine
 10
475.3912840794
 20
367.3119841072
 30
0.0
 11
475.3912840794
 21
369.5619840104
 31
0.0
  0
LINE
  5
1E6
330
1F
100
AcDbEntity
  8
0
  6
CONTINUOUS
 62
     7
100
AcDbLine
 10
470.8912842732
 20
369.5619840104
 30
0.0
 11
470.8912842732
 21
367.3119841072
 31
0.0
  0
ARC
  5
1E7
330
1F
100
AcDbEntity
  8
0
  6
CONTINUOUS
 62
     7
100
AcDbCircle
 10
440.9243947292
 20
367.3119840104
 30
0.0
 40
0.25
100
AcDbArc
 50
270.0
 51
0.0
  0
ARC
  5
1E8
330
1F
100
AcDbEntity
  8
0
  6
CONTINUOUS
 62
     7
100
AcDbCircle
 10
436.9243947292
 20
367.3119840104
 30
0.0
 40
0.2500000000000568
100
AcDbArc
 50
180.0
 51
270.0
  0
LINE
  5
1E9
330
1F
100
AcDbEntity
  8
0
  6
CONTINUOUS
 62
     7
100
AcDbLine
 10
441.1743939679
 20
367.3119841072
 30
0.0
 11
441.1743939679
 21
369.5619840104
 31
0.0
  0
LINE
  5
1EA
330
1F
100
AcDbEntity
  8
0
  6
CONTINUOUS
 62
     7
100
AcDbLine
 10
436.6743941616
 20
369.5619840104
 30
0.0
 11
436.6743941616
 21
367.3119841072
 31
0.0
  0
ARC
  5
1EB
330
1F
100
AcDbEntity
  8
0
  6
CONTINUOUS
 62
     7
100
AcDbCircle
 10
491.7806030882
 20
367.3119840104
 30
0.0
 40
0.25
100
AcDbArc
 50
270.0
 51
0.0
  0
ARC
  5
1EC
330
1F
100
AcDbEntity
  8
0
  6
CONTINUOUS
 62
     7
100
AcDbCircle
 10
487.7806030882
 20
367.3119840104
 30
0.0
 40
0.25
100
AcDbArc
 50
180.0
 51
270.0
  0
LINE
  5
1ED
330
1F
100
AcDbEntity
  8
0
  6
CONTINUOUS
 62
     7
100
AcDbLine
 10
492.0306042593
 20
367.3119841072
 30
0.0
 11
492.0306042593
 21
369.5619840104
 31
0.0
  0
LINE
  5
1EE
330
1F
100
AcDbEntity
  8
0
  6
CONTINUOUS
 62
     7
100
AcDbLine
 10
487.5306025903
 20
369.5619840104
 30
0.0
 11
487.5306025903
 21
367.3119841072
 31
0.0
  0
ARC
  5
1EF
330
1F
100
AcDbEntity
  8
0
  6
CONTINUOUS
 62
     7
100
AcDbCircle
 10
424.8422668671
 20
367.3119840104
 30
0.0
 40
0.25
100
AcDbArc
 50
270.0
 51
0.0
  0
ARC
  5
1F0
330
1F
100
AcDbEntity
  8
0
  6
CONTINUOUS
 62
     7
100
AcDbCircle
 10
420.8422668671
 20
367.3119840104
 30
0.0
 40
0.25
100
AcDbArc
 50
180.0
 51
270.0
  0
LINE
  5
1F1
330
1F
100
AcDbEntity
  8
0
  6
CONTINUOUS
 62
     7
100
AcDbLine
 10
425.0922673206
 20
367.3119841072
 30
0.0
 11
425.0922673206
 21
369.5619840104
 31
0.0
  0
LINE
  5
1F2
330
1F
100
AcDbEntity
  8
0
  6
CONTINUOUS
 62
     7
100
AcDbLine
 10
420.5922656517
 20
369.5619840104
 30
0.0
 11
420.5922656517
 21
367.3119841072
 31
0.0
  0
ARC
  5
1F3
330
1F
100
AcDbEntity
  8
0
  6
CONTINUOUS
 62
     7
100
AcDbCircle
 10
507.1293405309
 20
367.3119840104
 30
0.0
 40
0.25
100
AcDbArc
 50
270.0
 51
0.0
  0
ARC
  5
1F4
330
1F
100
AcDbEntity
  8
0
  6
CONTINUOUS
 62
     7
100
AcDbCircle
 10
503.1293405309
 20
367.3119840104
 30
0.0
 40
0.2500000000001137
100
AcDbArc
 50
180.0
 51
270.0
  0
LINE
  5
1F5
330
1F
100
AcDbEntity
  8
0
  6
CONTINUOUS
 62
     7
100
AcDbLine
 10
507.379340456
 20
367.3119841072
 30
0.0
 11
507.379340456
 21
369.5619840104
 31
0.0
  0
LINE
  5
1F6
330
1F
100
AcDbEntity
  8
0
  6
CONTINUOUS
 62
     7
100
AcDbLine
 10
502.8793387871
 20
369.5619840104
 30
0.0
 11
502.8793387871
 21
367.3119841072
 31
0.0
  0
ARC
  5
1F7
330
1F
100
AcDbEntity
  8
0
  6
CONTINUOUS
 62
     7
100
AcDbCircle
 10
452.049346198
 20
367.3119840104
 30
0.0
 40
0.2500000000000568
100
AcDbArc
 50
180.0
 51
270.0
  0
LINE
  5
1F8
330
1F
100
AcDbEntity
  8
0
  6
CONTINUOUS
 62
     7
100
AcDbLine
 10
451.7993465822
 20
369.5619840104
 30
0.0
 11
451.7993465822
 21
367.3119841072
 31
0.0
  0
ARC
  5
1F9
330
1F
100
AcDbEntity
  8
0
  6
CONTINUOUS
 62
     7
100
AcDbCircle
 10
468.5601152918
 20
367.3119840104
 30
0.0
 40
0.25
100
AcDbArc
 50
180.0
 51
270.0
  0
LINE
  5
1FA
330
1F
100
AcDbEntity
  8
0
  6
CONTINUOUS
 62
     7
100
AcDbLine
 10
468.3101153757
 20
369.5619840104
 30
0.0
 11
468.3101153757
 21
367.3119841072
 31
0.0
  0
ARC
  5
1FB
330
1F
100
AcDbEntity
  8
0
  6
CONTINUOUS
 62
     7
100
AcDbCircle
 10
410.3950838231
 20
367.3119840104
 30
0.0
 40
0.2500000000000568
100
AcDbArc
 50
270.0
 51
0.0
  0
ARC
  5
1FC
330
1F
100
AcDbEntity
  8
0
  6
CONTINUOUS
 62
     7
100
AcDbCircle
 10
406.3950838231
 20
367.3119840104
 30
0.0
 40
0.25
100
AcDbArc
 50
180.0
 51
270.0
  0
LINE
  5
1FD
330
1F
100
AcDbEntity
  8
0
  6
CONTINUOUS
 62
     7
100
AcDbLine
 10
410.6450849037
 20
367.3119841072
 30
0.0
 11
410.6450849037
 21
369.5619840104
 31
0.0
  0
LINE
  5
1FE
330
1F
100
AcDbEntity
  8
0
  6
CONTINUOUS
 62
     7
100
AcDbLine
 10
406.1450832348
 20
369.5619840104
 30
0.0
 11
406.1450832348
 21
367.3119841072
 31
0.0
  0
ARC
  5
1FF
330
1F
100
AcDbEntity
  8
0
  6
CONTINUOUS
 62
     7
100
AcDbCircle
 10
435.9282551015
 20
367.3119840104
 30
0.0
 40
0.25
100
AcDbArc
 50
180.0
 51
270.0
  0
LINE
  5
200
330
1F
100
AcDbEntity
  8
0
  6
CONTINUOUS
 62
     7
100
AcDbLine
 10
435.6782552611
 20
369.5619840104
 30
0.0
 11
435.6782552611
 21
367.3119841072
 31
0.0
  0
ARC
  5
201
330
1F
100
AcDbEntity
  8
0
  6
CONTINUOUS
 62
     7
100
AcDbCircle
 10
484.4231300385
 20
367.3119840104
 30
0.0
 40
0.2500000000000568
100
AcDbArc
 50
180.0
 51
270.0
  0
LINE
  5
202
330
1F
100
AcDbEntity
  8
0
  6
CONTINUOUS
 62
     7
100
AcDbLine
 10
484.1731306921
 20
369.5619840104
 30
0.0
 11
484.1731306921
 21
367.3119841072
 31
0.0
  0
ARC
  5
203
330
1F
100
AcDbEntity
  8
0
  6
CONTINUOUS
 62
     7
100
AcDbCircle
 10
520.5166828154
 20
367.3119840104
 30
0.0
 40
0.25
100
AcDbArc
 50
270.0
 51
0.0
  0
ARC
  5
204
330
1F
100
AcDbEntity
  8
0
  6
CONTINUOUS
 62
     7
100
AcDbCircle
 10
516.5166828154
 20
367.3119840104
 30
0.0
 40
0.25
100
AcDbArc
 50
180.0
 51
270.0
  0
LINE
  5
205
330
1F
100
AcDbEntity
  8
0
  6
CONTINUOUS
 62
     7
100
AcDbLine
 10
520.7666815083
 20
367.3119841072
 30
0.0
 11
520.7666815083
 21
369.5619840104
 31
0.0
  0
LINE
  5
206
330
1F
100
AcDbEntity
  8
0
  6
CONTINUOUS
 62
     7
100
AcDbLine
 10
516.2666835647
 20
369.5619840104
 30
0.0
 11
516.2666835647
 21
367.3119841072
 31
0.0
  0
ARC
  5
207
330
1F
100
AcDbEntity
  8
0
  6
CONTINUOUS
 62
     7
100
AcDbCircle
 10
425.2097894452
 20
367.3119840104
 30
0.0
 40
0.25
100
AcDbArc
 50
270.0
 51
0.0
  0
LINE
  5
208
330
1F
100
AcDbEntity
  8
0
  6
CONTINUOUS
 62
     7
100
AcDbLine
 10
425.4597895603
 20
367.3119841072
 30
0.0
 11
425.4597895603
 21
369.5619840104
 31
0.0
  0
ARC
  5
209
330
1F
100
AcDbEntity
  8
0
  6
CONTINUOUS
 62
     7
100
AcDbCircle
 10
502.6416588814
 20
367.3119840104
 30
0.0
 40
0.25
100
AcDbArc
 50
270.0
 51
347.2554474282
  0
ARC
  5
20A
330
1F
100
AcDbEntity
  8
0
  6
CONTINUOUS
 62
     7
100
AcDbCircle
 10
498.6416588814
 20
367.3119840104
 30
0.0
 40
0.25
100
AcDbArc
 50
180.0
 51
270.0
  0
LINE
  5
20B
330
1F
100
AcDbEntity
  8
0
  6
CONTINUOUS
 62
     7
100
AcDbLine
 10
498.3916603785
 20
369.5619840104
 30
0.0
 11
498.3916603785
 21
367.3119841072
 31
0.0
  0
ARC
  5
20C
330
1F
100
AcDbEntity
  8
0
  6
CONTINUOUS
 62
     7
100
AcDbCircle
 10
398.2142568216
 20
367.3119840104
 30
0.0
 40
0.25
100
AcDbArc
 50
270.0
 51
0.0
  0
ARC
  5
20D
330
1F
100
AcDbEntity
  8
0
  6
CONTINUOUS
 62
     7
100
AcDbCircle
 10
394.2142568216
 20
367.3119840104
 30
0.0
 40
0.25
100
AcDbArc
 50
180.0
 51
270.0
  0
LINE
  5
20E
330
1F
100
AcDbEntity
  8
0
  6
CONTINUOUS
 62
     7
100
AcDbLine
 10
398.4642573457
 20
367.3119841072
 30
0.0
 11
398.4642573457
 21
369.5619840104
 31
0.0
  0
LINE
  5
20F
330
1F
100
AcDbEntity
  8
0
  6
CONTINUOUS
 62
     7
100
AcDbLine
 10
393.964259402
 20
369.5619840104
 30
0.0
 11
393.964259402
 21
367.3119841072
 31
0.0
  0
ARC
  5
210
330
1F
100
AcDbEntity
  8
0
  6
CONTINUOUS
 62
     7
100
AcDbCircle
 10
465.9789466186
 20
367.3119840104
 30
0.0
 40
0.25
100
AcDbArc
 50
180.0
 51
270.0
  0
ARC
  5
211
330
1F
100
AcDbEntity
  8
0
  6
CONTINUOUS
 62
     7
100
AcDbCircle
 10
450.5232214727
 20
367.3119840104
 30
0.0
 40
0.25
100
AcDbArc
 50
180.0
 51
270.0
  0
LINE
  5
212
330
1F
100
AcDbEntity
  8
0
  6
CONTINUOUS
 62
     7
100
AcDbLine
 10
450.2732218068
 20
369.5619840104
 30
0.0
 11
450.2732218068
 21
367.3119841072
 31
0.0
  0
LINE
  5
213
330
1F
100
AcDbEntity
  8
0
  6
CONTINUOUS
 62
     7
100
AcDbLine
 10
465.7289464783
 20
369.5619840104
 30
0.0
 11
465.7289464783
 21
367.3119841072
 31
0.0
  0
ARC
  5
214
330
1F
100
AcDbEntity
  8
0
  6
CONTINUOUS
 62
     7
100
AcDbCircle
 10
531.3575388444
 20
367.3119840104
 30
0.0
 40
0.2500000000001137
100
AcDbArc
 50
270.0
 51
0.0
  0
ARC
  5
215
330
1F
100
AcDbEntity
  8
0
  6
CONTINUOUS
 62
     7
100
AcDbCircle
 10
527.3575388444
 20
367.3119840104
 30
0.0
 40
0.25
100
AcDbArc
 50
180.0
 51
270.0
  0
LINE
  5
216
330
1F
100
AcDbEntity
  8
0
  6
CONTINUOUS
 62
     7
100
AcDbLine
 10
531.6075370472
 20
367.3119841072
 30
0.0
 11
531.6075370472
 21
369.5619840104
 31
0.0
  0
LINE
  5
217
330
1F
100
AcDbEntity
  8
0
  6
CONTINUOUS
 62
     7
100
AcDbLine
 10
527.1075353782
 20
369.5619840104
 30
0.0
 11
527.1075353782
 21
367.3119841072
 31
0.0
  0
ARC
  5
218
330
1F
100
AcDbEntity
  8
0
  6
CONTINUOUS
 62
     7
100
AcDbCircle
 10
435.8239533585
 20
367.3119840104
 30
0.0
 40
0.25
100
AcDbArc
 50
180.0
 51
270.0
  0
ARC
  5
219
330
1F
100
AcDbEntity
  8
0
  6
CONTINUOUS
 62
     7
100
AcDbCircle
 10
480.6782147328
 20
367.3119840104
 30
0.0
 40
0.25
100
AcDbArc
 50
180.0
 51
270.0
  0
LINE
  5
21A
330
1F
100
AcDbEntity
  8
0
  6
CONTINUOUS
 62
     7
100
AcDbLine
 10
435.5739527207
 20
369.5619840104
 30
0.0
 11
435.5739527207
 21
367.3119841072
 31
0.0
  0
LINE
  5
21B
330
1F
100
AcDbEntity
  8
0
  6
CONTINUOUS
 62
     7
100
AcDbLine
 10
480.4282155644
 20
369.5619840104
 30
0.0
 11
480.4282155644
 21
367.3119841072
 31
0.0
  0
ARC
  5
21C
330
1F
100
AcDbEntity
  8
0
  6
CONTINUOUS
 62
     7
100
AcDbCircle
 10
412.818764557
 20
367.3119840104
 30
0.0
 40
0.2500000000000568
100
AcDbArc
 50
270.0
 51
0.0
  0
LINE
  5
21D
330
1F
100
AcDbEntity
  8
0
  6
CONTINUOUS
 62
     7
100
AcDbLine
 10
413.0687662225
 20
367.3119841072
 30
0.0
 11
413.0687662225
 21
369.5619840104
 31
0.0
  0
ARC
  5
21E
330
1F
100
AcDbEntity
  8
0
  6
CONTINUOUS
 62
     7
100
AcDbCircle
 10
514.3222993612
 20
367.3119840104
 30
0.0
 40
0.25
100
AcDbArc
 50
270.0
 51
0.0
  0
ARC
  5
21F
330
1F
100
AcDbEntity
  8
0
  6
CONTINUOUS
 62
     7
100
AcDbCircle
 10
510.3222993612
 20
367.3119840104
 30
0.0
 40
0.25
100
AcDbArc
 50
180.0
 51
270.0
  0
LINE
  5
220
330
1F
100
AcDbEntity
  8
0
  6
CONTINUOUS
 62
     7
100
AcDbLine
 10
514.5722986024
 20
367.3119841072
 30
0.0
 11
514.5722986024
 21
369.5619840104
 31
0.0
  0
LINE
  5
221
330
1F
100
AcDbEntity
  8
0
  6
CONTINUOUS
 62
     7
100
AcDbLine
 10
510.0723006587
 20
369.5619840104
 30
0.0
 11
510.0723006587
 21
367.3119841072
 31
0.0
  0
ARC
  5
222
330
1F
100
AcDbEntity
  8
0
  6
CONTINUOUS
 62
     7
100
AcDbCircle
 10
388.8321464525
 20
367.3119840104
 30
0.0
 40
0.25
100
AcDbArc
 50
270.0
 51
0.0
  0
ARC
  5
223
330
1F
100
AcDbEntity
  8
0
  6
CONTINUOUS
 62
     7
100
AcDbCircle
 10
384.8321464525
 20
367.3119840104
 30
0.0
 40
0.2500000000000568
100
AcDbArc
 50
180.0
 51
270.0
  0
LINE
  5
224
330
1F
100
AcDbEntity
  8
0
  6
CONTINUOUS
 62
     7
100
AcDbLine
 10
389.0821472566
 20
367.3119841072
 30
0.0
 11
389.0821472566
 21
369.5619840104
 31
0.0
  0
LINE
  5
225
330
1F
100
AcDbEntity
  8
0
  6
CONTINUOUS
 62
     7
100
AcDbLine
 10
384.5821455877
 20
369.5619840104
 30
0.0
 11
384.5821455877
 21
367.3119841072
 31
0.0
  0
ARC
  5
226
330
1F
100
AcDbEntity
  8
0
  6
CONTINUOUS
 62
     7
100
AcDbCircle
 10
497.1821590363
 20
367.3119840104
 30
0.0
 40
0.25
100
AcDbArc
 50
270.0
 51
0.0
  0
ARC
  5
227
330
1F
100
AcDbEntity
  8
0
  6
CONTINUOUS
 62
     7
100
AcDbCircle
 10
493.1821590363
 20
367.3119840104
 30
0.0
 40
0.2500000000000568
100
AcDbArc
 50
180.0
 51
270.0
  0
ARC
  5
228
330
1F
100
AcDbEntity
  8
0
  6
CONTINUOUS
 62
     7
100
AcDbCircle
 10
427.320009055
 20
367.3119840104
 30
0.0
 40
0.25
100
AcDbArc
 50
270.0
 51
0.0
  0
LINE
  5
229
330
1F
100
AcDbEntity
  8
0
  6
CONTINUOUS
 62
     7
100
AcDbLine
 10
427.5700100522
 20
367.3119841072
 30
0.0
 11
427.5700100522
 21
369.5619840104
 31
0.0
  0
LINE
  5
22A
330
1F
100
AcDbEntity
  8
0
  6
CONTINUOUS
 62
     7
100
AcDbLine
 10
497.432159708
 20
367.3119841072
 30
0.0
 11
497.432159708
 21
369.5619840104
 31
0.0
  0
LINE
  5
22B
330
1F
100
AcDbEntity
  8
0
  6
CONTINUOUS
 62
     7
100
AcDbLine
 10
492.9321580391
 20
369.5619840104
 30
0.0
 11
492.9321580391
 21
367.3119841072
 31
0.0
  0
ARC
  5
22C
330
1F
100
AcDbEntity
  8
0
  6
CONTINUOUS
 62
     7
100
AcDbCircle
 10
463.3977779455
 20
367.3119840104
 30
0.0
 40
0.2500000000000568
100
AcDbArc
 50
180.0
 51
270.0
  0
LINE
  5
22D
330
1F
100
AcDbEntity
  8
0
  6
CONTINUOUS
 62
     7
100
AcDbLine
 10
463.1477780465
 20
369.5619840104
 30
0.0
 11
463.1477780465
 21
367.3119841072
 31
0.0
  0
ARC
  5
22E
330
1F
100
AcDbEntity
  8
0
  6
CONTINUOUS
 62
     7
100
AcDbCircle
 10
449.7359374618
 20
367.3119840104
 30
0.0
 40
0.25
100
AcDbArc
 50
180.0
 51
270.0
  0
LINE
  5
22F
330
1F
100
AcDbEntity
  8
0
  6
CONTINUOUS
 62
     7
100
AcDbLine
 10
449.4859375815
 20
369.5619840104
 30
0.0
 11
449.4859375815
 21
367.3119841072
 31
0.0
  0
ARC
  5
230
330
1F
100
AcDbEntity
  8
0
  6
CONTINUOUS
 62
     7
100
AcDbCircle
 10
403.5337541016
 20
367.3119840104
 30
0.0
 40
0.25
100
AcDbArc
 50
270.0
 51
0.0
  0
ARC
  5
231
330
1F
100
AcDbEntity
  8
0
  6
CONTINUOUS
 62
     7
100
AcDbCircle
 10
399.5337541016
 20
367.3119840104
 30
0.0
 40
0.2500000000000568
100
AcDbArc
 50
180.0
 51
270.0
  0
LINE
  5
232
330
1F
100
AcDbEntity
  8
0
  6
CONTINUOUS
 62
     7
100
AcDbLine
 10
403.7837558251
 20
367.3119841072
 30
0.0
 11
403.7837558251
 21
369.5619840104
 31
0.0
  0
LINE
  5
233
330
1F
100
AcDbEntity
  8
0
  6
CONTINUOUS
 62
     7
100
AcDbLine
 10
399.2837541561
 20
369.5619840104
 30
0.0
 11
399.2837541561
 21
367.3119841072
 31
0.0
  0
ARC
  5
234
330
1F
100
AcDbEntity
  8
0
  6
CONTINUOUS
 62
     7
100
AcDbCircle
 10
539.178111189
 20
367.3119840104
 30
0.0
 40
0.2500000000001137
100
AcDbArc
 50
270.0
 51
0.0
  0
ARC
  5
235
330
1F
100
AcDbEntity
  8
0
  6
CONTINUOUS
 62
     7
100
AcDbCircle
 10
535.178111189
 20
367.3119840104
 30
0.0
 40
0.25
100
AcDbArc
 50
180.0
 51
270.0
  0
LINE
  5
236
330
1F
100
AcDbEntity
  8
0
  6
CONTINUOUS
 62
     7
100
AcDbLine
 10
539.4281134765
 20
367.3119841072
 30
0.0
 11
539.4281134765
 21
369.5619840104
 31
0.0
  0
LINE
  5
237
330
1F
100
AcDbEntity
  8
0
  6
CONTINUOUS
 62
     7
100
AcDbLine
 10
534.9281118076
 20
369.5619840104
 30
0.0
 11
534.9281118076
 21
367.3119841072
 31
0.0
  0
ARC
  5
238
330
1F
100
AcDbEntity
  8
0
  6
CONTINUOUS
 62
     7
100
AcDbCircle
 10
480.1697082977
 20
367.3119840104
 30
0.0
 40
0.25
100
AcDbArc
 50
270.0
 51
0.0
  0
ARC
  5
239
330
1F
100
AcDbEntity
  8
0
  6
CONTINUOUS
 62
     7
100
AcDbCircle
 10
476.1697082977
 20
367.3119840104
 30
0.0
 40
0.25
100
AcDbArc
 50
180.0
 51
270.0
  0
LINE
  5
23A
330
1F
100
AcDbEntity
  8
0
  6
CONTINUOUS
 62
     7
100
AcDbLine
 10
480.419708864
 20
367.3119841072
 30
0.0
 11
480.419708864
 21
369.5619840104
 31
0.0
  0
LINE
  5
23B
330
1F
100
AcDbEntity
  8
0
  6
CONTINUOUS
 62
     7
100
AcDbLine
 10
475.9197090577
 20
369.5619840104
 30
0.0
 11
475.9197090577
 21
367.3119841072
 31
0.0
  0
ARC
  5
23C
330
1F
100
AcDbEntity
  8
0
  6
CONTINUOUS
 62
     7
100
AcDbCircle
 10
522.7311138782
 20
367.3119840104
 30
0.0
 40
0.25
100
AcDbArc
 50
270.0
 51
0.0
  0
LINE
  5
23D
330
1F
100
AcDbEntity
  8
0
  6
CONTINUOUS
 62
     7
100
AcDbLine
 10
522.981113271
 20
367.3119841072
 30
0.0
 11
522.981113271
 21
369.5619840104
 31
0.0
  0
ARC
  5
23E
330
1F
100
AcDbEntity
  8
0
  6
CONTINUOUS
 62
     7
100
AcDbCircle
 10
441.5464431801
 20
367.3119840104
 30
0.0
 40
0.25
100
AcDbArc
 50
270.0
 51
0.0
  0
LINE
  5
23F
330
1F
100
AcDbEntity
  8
0
  6
CONTINUOUS
 62
     7
100
AcDbLine
 10
441.7964429419
 20
367.3119841072
 30
0.0
 11
441.7964429419
 21
369.5619840104
 31
0.0
  0
ARC
  5
240
330
1F
100
AcDbEntity
  8
0
  6
CONTINUOUS
 62
     7
100
AcDbCircle
 10
418.2353617508
 20
367.3119840104
 30
0.0
 40
0.25
100
AcDbArc
 50
270.0
 51
0.0
  0
ARC
  5
241
330
1F
100
AcDbEntity
  8
0
  6
CONTINUOUS
 62
     7
100
AcDbCircle
 10
414.2353617508
 20
367.3119840104
 30
0.0
 40
0.25
100
AcDbArc
 50
180.0
 51
270.0
  0
LINE
  5
242
330
1F
100
AcDbEntity
  8
0
  6
CONTINUOUS
 62
     7
100
AcDbLine
 10
418.4853606682
 20
367.3119841072
 30
0.0
 11
418.4853606682
 21
369.5619840104
 31
0.0
  0
LINE
  5
243
330
1F
100
AcDbEntity
  8
0
  6
CONTINUOUS
 62
     7
100
AcDbLine
 10
413.9853627246
 20
369.5619840104
 30
0.0
 11
413.9853627246
 21
367.3119841072
 31
0.0
  0
ARC
  5
244
330
1F
100
AcDbEntity
  8
0
  6
CONTINUOUS
 62
     7
100
AcDbCircle
 10
382.6587959594
 20
367.3119840104
 30
0.0
 40
0.25
100
AcDbArc
 50
270.0
 51
0.0
  0
ARC
  5
245
330
1F
100
AcDbEntity
  8
0
  6
CONTINUOUS
 62
     7
100
AcDbCircle
 10
378.6587959594
 20
367.3119840104
 30
0.0
 40
0.25
100
AcDbArc
 50
180.0
 51
270.0
  0
LINE
  5
246
330
1F
100
AcDbEntity
  8
0
  6
CONTINUOUS
 62
     7
100
AcDbLine
 10
382.9087973397
 20
367.3119841072
 30
0.0
 11
382.9087973397
 21
369.5619840104
 31
0.0
  0
LINE
  5
247
330
1F
100
AcDbEntity
  8
0
  6
CONTINUOUS
 62
     7
100
AcDbLine
 10
378.4087956708
 20
369.5619840104
 30
0.0
 11
378.4087956708
 21
367.3119841072
 31
0.0
  0
ARC
  5
248
330
1F
100
AcDbEntity
  8
0
  6
CONTINUOUS
 62
     7
100
AcDbCircle
 10
460.8166092723
 20
367.3119840104
 30
0.0
 40
0.25
100
AcDbArc
 50
180.0
 51
270.0
  0
LINE
  5
249
330
1F
100
AcDbEntity
  8
0
  6
CONTINUOUS
 62
     7
100
AcDbLine
 10
460.5666092654
 20
369.5619840104
 30
0.0
 11
460.5666092654
 21
367.3119841072
 31
0.0
  0
ARC
  5
24A
330
1F
100
AcDbEntity
  8
0
  6
CONTINUOUS
 62
     7
100
AcDbCircle
 10
432.9369693999
 20
367.3119840104
 30
0.0
 40
0.2500000000000568
100
AcDbArc
 50
270.0
 51
0.0
  0
ARC
  5
24B
330
1F
100
AcDbEntity
  8
0
  6
CONTINUOUS
 62
     7
100
AcDbCircle
 10
428.9369693999
 20
367.3119840104
 30
0.0
 40
0.25
100
AcDbArc
 50
180.0
 51
270.0
  0
LINE
  5
24C
330
1F
100
AcDbEntity
  8
0
  6
CONTINUOUS
 62
     7
100
AcDbLine
 10
433.1869692366
 20
367.3119841072
 30
0.0
 11
433.1869692366
 21
369.5619840104
 31
0.0
  0
LINE
  5
24D
330
1F
100
AcDbEntity
  8
0
  6
CONTINUOUS
 62
     7
100
AcDbLine
 10
428.6869675677
 20
369.5619840104
 30
0.0
 11
428.6869675677
 21
367.3119841072
 31
0.0
  0
ARC
  5
24E
330
1F
100
AcDbEntity
  8
0
  6
CONTINUOUS
 62
     7
100
AcDbCircle
 10
475.7510840457
 20
386.0619840104
 30
0.0
 40
1.5
100
AcDbArc
 50
270.0
 51
0.0
  0
ARC
  5
24F
330
1F
100
AcDbEntity
  8
0
  6
CONTINUOUS
 62
     7
100
AcDbCircle
 10
444.7510840457
 20
386.0619840104
 30
0.0
 40
1.5
100
AcDbArc
 50
180.0
 51
270.0
  0
ARC
  5
250
330
1F
100
AcDbEntity
  8
0
  6
CONTINUOUS
 62
     7
100
AcDbCircle
 10
444.2510840457
 20
391.5619840104
 30
0.0
 40
1.0
100
AcDbArc
 50
90.0
 51
180.0
  0
ARC
  5
251
330
1F
100
AcDbEntity
  8
0
  6
CONTINUOUS
 62
     7
100
AcDbCircle
 10
476.2510840457
 20
391.5619840104
 30
0.0
 40
1.0
100
AcDbArc
 50
0.0
 51
90.0
  0
ARC
  5
252
330
1F
100
AcDbEntity
  8
0
  6
CONTINUOUS
 62
     7
100
AcDbCircle
 10
393.9381694339
 20
367.3119840104
 30
0.0
 40
0.25
100
AcDbArc
 50
180.0
 51
270.0
  0
LINE
  5
253
330
1F
100
AcDbEntity
  8
0
  6
CONTINUOUS
 62
     7
100
AcDbLine
 10
393.6881706874
 20
369.5619840104
 30
0.0
 11
393.6881706874
 21
367.3119841072
 31
0.0
  0
LINE
  5
254
330
1F
100
AcDbEntity
  8
0
  6
CONTINUOUS
 62
     7
100
AcDbLine
 10
443.2510831218
 20
391.5619838912
 30
0.0
 11
443.2510831218
 21
386.061983921
 31
0.0
  0
LINE
  5
255
330
1F
100
AcDbEntity
  8
0
  6
CONTINUOUS
 62
     7
100
AcDbLine
 10
477.2510849695
 20
386.061983921
 30
0.0
 11
477.2510849695
 21
391.5619838912
 31
0.0
  0
ARC
  5
256
330
1F
100
AcDbEntity
  8
0
  6
CONTINUOUS
 62
     7
100
AcDbCircle
 10
474.7510840457
 20
403.5619840104
 30
0.0
 40
1.0
100
AcDbArc
 50
0.0
 51
90.0
  0
ARC
  5
257
330
1F
100
AcDbEntity
  8
0
  6
CONTINUOUS
 62
     7
100
AcDbCircle
 10
445.7510840457
 20
403.5619840104
 30
0.0
 40
1.0
100
AcDbArc
 50
90.0
 51
180.0
  0
LINE
  5
258
330
1F
100
AcDbEntity
  8
0
  6
CONTINUOUS
 62
     7
100
AcDbLine
 10
475.7510837923
 20
392.5619840551
 30
0.0
 11
475.7510837923
 21
403.5619858581
 31
0.0
  0
LINE
  5
259
330
1F
100
AcDbEntity
  8
0
  6
CONTINUOUS
 62
     7
100
AcDbLine
 10
444.751084299
 20
403.5619858581
 30
0.0
 11
444.751084299
 21
392.5619840551
 31
0.0
  0
ARC
  5
25A
330
1F
100
AcDbEntity
  8
0
  6
CONTINUOUS
 62
     7
100
AcDbCircle
 10
543.6366033107
 20
367.3119840104
 30
0.0
 40
0.25
100
AcDbArc
 50
270.0
 51
0.0
  0
ARC
  5
25B
330
1F
100
AcDbEntity
  8
0
  6
CONTINUOUS
 62
     7
100
AcDbCircle
 10
539.6366033107
 20
367.3119840104
 30
0.0
 40
0.25
100
AcDbArc
 50
203.5108937025
 51
270.0
  0
LINE
  5
25C
330
1F
100
AcDbEntity
  8
0
  6
CONTINUOUS
 62
     7
100
AcDbLine
 10
543.8866005104
 20
367.3119841072
 30
0.0
 11
543.8866005104
 21
369.5619840104
 31
0.0
  0
LINE
  5
25D
330
1F
100
AcDbEntity
  8
0
  6
CONTINUOUS
 62
     7
100
AcDbLine
 10
444.2510832857
 20
384.5619836751
 30
0.0
 11
444.2510832857
 21
377.5619843904
 31
0.0
  0
LINE
  5
25E
330
1F
100
AcDbEntity
  8
0
  6
CONTINUOUS
 62
     7
100
AcDbLine
 10
476.2510848056
 20
377.5619843904
 30
0.0
 11
476.2510848056
 21
384.5619836751
 31
0.0
  0
LINE
  5
25F
330
1F
100
AcDbEntity
  8
0
  6
CONTINUOUS
 62
     7
100
AcDbLine
 10
527.3397476237
 20
367.0619840663
 30
0.0
 11
527.3486436169
 21
367.0621423911
 31
0.0
  0
ARC
  5
260
330
1F
100
AcDbEntity
  8
0
  6
CONTINUOUS
 62
     7
100
AcDbCircle
 10
523.3397456909
 20
367.3119840104
 30
0.0
 40
0.25
100
AcDbArc
 50
180.0
 51
270.0
  0
LINE
  5
261
330
1F
100
AcDbEntity
  8
0
  6
CONTINUOUS
 62
     7
100
AcDbLine
 10
523.0897427361
 20
369.5619840104
 30
0.0
 11
523.0897427361
 21
367.3119841072
 31
0.0
  0
SPLINE
  5
262
330
1F
100
AcDbEntity
  8
0
  6
CONTINUOUS
 62
     7
100
AcDbSpline
210
0.0
220
0.0
230
1.0
 70
     8
 71
     3
 72
     9
 73
     5
 74
     0
 42
0.000000001
 43
0.00000001
 40
0.0
 40
0.0
 40
0.0
 40
0.0
 40
0.600388660959155
 40
0.9999999999999999
 40
0.9999999999999999
 40
0.9999999999999999
 40
0.9999999999999999
 10
471.5802301477291
 20
404.556366421629
 30
0.0
 10
471.4570569350573
 20
404.8125475834768
 30
0.0
 10
471.2519011406838
 20
405.2392397888868
 30
0.0
 10
470.9570993348216
 20
405.6086851315733
 30
0.0
 10
470.8392931904294
 20
405.7563196796666
 30
0.0
  0
LINE
  5
263
330
1F
100
AcDbEntity
  8
0
  6
CONTINUOUS
 62
     7
100
AcDbLine
 10
449.6400835748
 20
405.7621609349
 30
0.0
 11
448.9052775141
 21
404.5693527836
 31
0.0
  0
ARC
  5
264
330
1F
100
AcDbEntity
  8
0
  6
CONTINUOUS
 62
     7
100
AcDbCircle
 10
470.2510840457
 20
411.3119840104
 30
0.0
 40
2.0
100
AcDbArc
 50
308.7069637031
 51
0.0
  0
ARC
  5
265
330
1F
100
AcDbEntity
  8
0
  6
CONTINUOUS
 62
     7
100
AcDbCircle
 10
450.2510840457
 20
411.3119840104
 30
0.0
 40
2.0
100
AcDbArc
 50
180.0
 51
231.2930362969
  0
LINE
  5
266
330
1F
100
AcDbEntity
  8
0
  6
CONTINUOUS
 62
     7
100
AcDbLine
 10
472.25108415
 20
411.3119829375
 30
0.0
 11
472.25108415
 21
425.5619857389
 31
0.0
  0
LINE
  5
267
330
1F
100
AcDbEntity
  8
0
  6
CONTINUOUS
 62
     7
100
AcDbLine
 10
448.2510839414
 20
425.5619857389
 30
0.0
 11
448.2510839414
 21
411.3119829375
 31
0.0
  0
ARC
  5
268
330
1F
100
AcDbEntity
  8
0
  6
CONTINUOUS
 62
     7
100
AcDbCircle
 10
473.37777157
 20
407.4102119611
 30
0.0
 40
2.999999999999981
100
AcDbArc
 50
128.7069637029
 51
214.8733439096
  0
ARC
  5
269
330
1F
100
AcDbEntity
  8
0
  6
CONTINUOUS
 62
     7
100
AcDbCircle
 10
447.1243965213
 20
407.4102119611
 30
0.0
 40
3.000000000000052
100
AcDbArc
 50
325.1266560904
 51
51.2930362971
  0
LINE
  5
26A
330
1F
100
AcDbEntity
  8
0
  6
CONTINUOUS
 62
     7
100
AcDbLine
 10
448.7510840233
 20
426.0619830269
 30
0.0
 11
448.2510839414
 21
425.5619857389
 31
0.0
  0
LINE
  5
26B
330
1F
100
AcDbEntity
  8
0
  6
CONTINUOUS
 62
     7
100
AcDbLine
 10
472.25108415
 20
425.5619857389
 30
0.0
 11
471.751084068
 21
426.0619830269
 31
0.0
  0
ARC
  5
26C
330
1F
100
AcDbEntity
  8
0
  6
CONTINUOUS
 62
     7
100
AcDbCircle
 10
413.4592800203
 20
367.3119840104
 30
0.0
 40
0.25
100
AcDbArc
 50
270.0
 51
0.0
  0
LINE
  5
26D
330
1F
100
AcDbEntity
  8
0
  6
CONTINUOUS
 62
     7
100
AcDbLine
 10
413.7092814605
 20
367.3119841072
 30
0.0
 11
413.7092814605
 21
369.5619840104
 31
0.0
  0
ARC
  5
26E
330
1F
100
AcDbEntity
  8
0
  6
CONTINUOUS
 62
     7
100
AcDbCircle
 10
447.638577049
 20
367.3119840104
 30
0.0
 40
0.25
100
AcDbArc
 50
270.0
 51
0.0
  0
ARC
  5
26F
330
1F
100
AcDbEntity
  8
0
  6
CONTINUOUS
 62
     7
100
AcDbCircle
 10
443.638577049
 20
367.3119840104
 30
0.0
 40
0.25
100
AcDbArc
 50
180.0
 51
270.0
  0
LINE
  5
270
330
1F
100
AcDbEntity
  8
0
  6
CONTINUOUS
 62
     7
100
AcDbLine
 10
447.8885768737
 20
367.3119841072
 30
0.0
 11
447.8885768737
 21
369.5619840104
 31
0.0
  0
LINE
  5
271
330
1F
100
AcDbEntity
  8
0
  6
CONTINUOUS
 62
     7
100
AcDbLine
 10
443.3885761361
 20
369.5619840104
 30
0.0
 11
443.3885761361
 21
367.3119841072
 31
0.0
  0
ARC
  5
272
330
1F
100
AcDbEntity
  8
0
  6
CONTINUOUS
 62
     7
100
AcDbCircle
 10
375.9640103819
 20
367.3119840104
 30
0.0
 40
0.25
100
AcDbArc
 50
180.0
 51
270.0
  0
LINE
  5
273
330
1F
100
AcDbEntity
  8
0
  6
CONTINUOUS
 62
     7
100
AcDbLine
 10
375.7140100758
 20
369.5619840104
 30
0.0
 11
375.7140100758
 21
367.3119841072
 31
0.0
  0
ARC
  5
274
330
1F
100
AcDbEntity
  8
0
  6
CONTINUOUS
 62
     7
100
AcDbCircle
 10
392.3836017176
 20
367.3119840104
 30
0.0
 40
0.2500000000000568
100
AcDbArc
 50
180.0
 51
270.0
  0
LINE
  5
275
330
1F
100
AcDbEntity
  8
0
  6
CONTINUOUS
 62
     7
100
AcDbLine
 10
392.1335995953
 20
369.5619840104
 30
0.0
 11
392.1335995953
 21
367.3119841072
 31
0.0
  0
ARC
  5
276
330
1F
100
AcDbEntity
  8
0
  6
CONTINUOUS
 62
     7
100
AcDbCircle
 10
544.5381577094
 20
367.3119840104
 30
0.0
 40
0.25
100
AcDbArc
 50
270.0
 51
0.0
  0
LINE
  5
277
330
1F
100
AcDbEntity
  8
0
  6
CONTINUOUS
 62
     7
100
AcDbLine
 10
544.7881580155
 20
367.3119841072
 30
0.0
 11
544.7881580155
 21
369.5619840104
 31
0.0
  0
ARC
  5
278
330
1F
100
AcDbEntity
  8
0
  6
CONTINUOUS
 62
     7
100
AcDbCircle
 10
398.9677301596
 20
367.3119840104
 30
0.0
 40
0.25
100
AcDbArc
 50
270.0
 51
0.0
  0
LINE
  5
279
330
1F
100
AcDbEntity
  8
0
  6
CONTINUOUS
 62
     7
100
AcDbLine
 10
399.2177308362
 20
367.3119841072
 30
0.0
 11
399.2177308362
 21
369.5619840104
 31
0.0
  0
ARC
  5
27A
330
1F
100
AcDbEntity
  8
0
  6
CONTINUOUS
 62
     7
100
AcDbCircle
 10
434.9872709446
 20
367.3119840104
 30
0.0
 40
0.2500000000000568
100
AcDbArc
 50
180.0
 51
270.0
  0
LINE
  5
27B
330
1F
100
AcDbEntity
  8
0
  6
CONTINUOUS
 62
     7
100
AcDbLine
 10
434.7372711461
 20
369.5619840104
 30
0.0
 11
434.7372711461
 21
367.3119841072
 31
0.0
  0
ARC
  5
27C
330
1F
100
AcDbEntity
  8
0
  6
CONTINUOUS
 62
     7
100
AcDbCircle
 10
459.9729370061
 20
367.3119840104
 30
0.0
 40
0.2500000000000568
100
AcDbArc
 50
180.0
 51
270.0
  0
LINE
  5
27D
330
1F
100
AcDbEntity
  8
0
  6
CONTINUOUS
 62
     7
100
AcDbLine
 10
459.722937009
 20
369.5619840104
 30
0.0
 11
459.722937009
 21
367.3119841072
 31
0.0
  0
ARC
  5
27E
330
1F
100
AcDbEntity
  8
0
  6
CONTINUOUS
 62
     7
100
AcDbCircle
 10
405.5281844661
 20
367.3119840104
 30
0.0
 40
0.25
100
AcDbArc
 50
270.0
 51
0.0
  0
LINE
  5
27F
330
1F
100
AcDbEntity
  8
0
  6
CONTINUOUS
 62
     7
100
AcDbLine
 10
405.7781831186
 20
367.3119841072
 30
0.0
 11
405.7781831186
 21
369.5619840104
 31
0.0
  0
ARC
  5
280
330
1F
100
AcDbEntity
  8
0
  6
CONTINUOUS
 62
     7
100
AcDbCircle
 10
531.6700216388
 20
367.3119840104
 30
0.0
 40
0.25
100
AcDbArc
 50
231.320338189
 51
270.0
  0
ARC
  5
281
330
1F
100
AcDbEntity
  8
0
  6
CONTINUOUS
 62
     7
100
AcDbCircle
 10
389.144629247
 20
367.3119840104
 30
0.0
 40
0.25
100
AcDbArc
 50
231.3203382115
 51
270.0
  0
SPLINE
  5
282
330
1F
100
AcDbEntity
  8
0
  6
CONTINUOUS
 62
     7
100
AcDbSpline
210
0.0
220
0.0
230
1.0
 70
    24
 71
     3
 72
    23
 73
    19
 74
     0
 42
0.000000001
 43
0.00000001
 40
0.0
 40
0.0
 40
0.0
 40
0.0
 40
0.0636985030376718
 40
0.1295327880251906
 40
0.1973150172530253
 40
0.2668106523146327
 40
0.3377406679612884
 40
0.4097858137712276
 40
0.4825940660320661
 40
0.5557899201928103
 40
0.6289858100318926
 40
0.7017940646135368
 40
0.7498294021832932
 40
0.7975080262874735
 40
0.8448029071042283
 40
0.9142985671564858
 40
0.982080785864964
 40
1.0
 40
1.0
 40
1.0
 40
1.0
 10
476.2311228375532
 20
369.5619840103875
 30
0.0
 10
479.1745342573472
 20
369.5619840103875
 30
0.0
 10
485.1600483484021
 20
369.5619840103875
 30
0.0
 10
494.0322335896166
 20
369.5619840103875
 30
0.0
 10
502.8723485632974
 20
369.5619840103875
 30
0.0
 10
511.5288054587308
 20
369.5619840103875
 30
0.0
 10
519.8572001478051
 20
369.5619840103875
 30
0.0
 10
527.7066300454636
 20
369.5619840103875
 30
0.0
 10
534.9331407131755
 20
369.5619840103875
 30
0.0
 10
541.4062106697137
 20
369.5619840103875
 30
0.0
 10
547.0166618645949
 20
369.5619840103875
 30
0.0
 10
551.1687985461438
 20
369.5619840103875
 30
0.0
 10
554.1579442513471
 20
369.5619840103875
 30
0.0
 10
556.2661499007929
 20
369.5619840103875
 30
0.0
 10
558.205886167604
 20
369.5619840103875
 30
0.0
 10
559.6221810126167
 20
369.5619840103875
 30
0.0
 10
560.3108413635182
 20
369.5619840103875
 30
0.0
 10
560.1908194730634
 20
369.5619840103875
 30
0.0
 10
560.1657242338755
 20
369.5619840103875
 30
0.0
  0
SPLINE
  5
283
330
1F
100
AcDbEntity
  8
0
  6
CONTINUOUS
 62
     7
100
AcDbSpline
210
0.0
220
0.0
230
1.0
 70
    24
 71
     3
 72
    26
 73
    22
 74
     0
 42
0.000000001
 43
0.00000001
 40
0.0
 40
0.0
 40
0.0
 40
0.0
 40
0.0391710422746331
 40
0.0912451836039451
 40
0.1433193255056896
 40
0.1971395029913823
 40
0.2525521147397567
 40
0.3093654638341929
 40
0.3673514197215766
 40
0.4262490165220217
 40
0.4857704647583979
 40
0.5456087947313201
 40
0.605447129966929
 40
0.6649685797788975
 40
0.7042379243002636
 40
0.7432156792180235
 40
0.7818797013606357
 40
0.8386930696210103
 40
0.894105687744746
 40
0.9479258617870024
 40
1.0
 40
1.0
 40
1.0
 40
1.0
 10
360.3364438574412
 20
369.5619840103875
 30
0.0
 10
360.3462181035447
 20
369.5619840103875
 30
0.0
 10
360.3689862717762
 20
369.5619840103875
 30
0.0
 10
361.3720691485872
 20
369.5619840103875
 30
0.0
 10
363.1764178339596
 20
369.5619840103875
 30
0.0
 10
365.8704349422724
 20
369.5619840103875
 30
0.0
 10
369.484148123802
 20
369.5619840103875
 30
0.0
 10
374.0505757185996
 20
369.5619840103875
 30
0.0
 10
379.5622286404298
 20
369.5619840103875
 30
0.0
 10
385.9849720962135
 20
369.5619840103875
 30
0.0
 10
393.2524099404711
 20
369.5619840103875
 30
0.0
 10
401.2687652027695
 20
369.5619840103875
 30
0.0
 10
409.9116879116259
 20
369.5619840103875
 30
0.0
 10
418.0359707350012
 20
369.5619840103875
 30
0.0
 10
425.3663390493304
 20
369.5619840103875
 30
0.0
 10
431.7457487716308
 20
369.5619840103875
 30
0.0
 10
439.2289475022859
 20
369.5619840103875
 30
0.0
 10
447.7881079383652
 20
369.5619840103875
 30
0.0
 10
457.3173707966855
 20
369.5619840103875
 30
0.0
 10
466.6089324068305
 20
369.5619840103875
 30
0.0
 10
472.649997213192
 20
369.5619840103875
 30
0.0
 10
475.6207256402471
 20
369.5619840103875
 30
0.0
  0
LINE
  5
284
330
1F
100
AcDbEntity
  8
0
  6
CONTINUOUS
 62
     7
100
AcDbLine
 10
560.7510865491
 20
377.5619843904
 30
0.0
 11
359.7510815423
 21
377.5619843904
 31
0.0
  0
SPLINE
  5
285
330
1F
100
AcDbEntity
  8
0
  6
CONTINUOUS
 62
     7
100
AcDbSpline
210
0.0
220
0.0
230
1.0
 70
    24
 71
     3
 72
    13
 73
     9
 74
     0
 42
0.000000001
 43
0.00000001
 40
0.0
 40
0.0
 40
0.0
 40
0.0
 40
0.2470767016615172
 40
0.3814205576628814
 40
0.5159408721630414
 40
0.6502850590894272
 40
0.7848043538065516
 40
0.9999999999999999
 40
0.9999999999999999
 40
0.9999999999999999
 40
0.9999999999999999
 10
456.043270399014
 20
367.0619840662669
 30
0.0
 10
456.2930274331939
 20
367.0619840662669
 30
0.0
 10
456.6785857096988
 20
367.0619840662669
 30
0.0
 10
457.1309536017353
 20
367.0619840662669
 30
0.0
 10
457.435329812783
 20
367.0619840662669
 30
0.0
 10
457.6762590911425
 20
367.0619840662669
 30
0.0
 10
457.8893533810687
 20
367.0619840662669
 30
0.0
 10
457.9099900058734
 20
367.0619840662669
 30
0.0
 10
457.9226886678138
 20
367.0619840662669
 30
0.0
  0
SPLINE
  5
286
330
1F
100
AcDbEntity
  8
0
  6
CONTINUOUS
 62
     7
100
AcDbSpline
210
0.0
220
0.0
230
1.0
 70
    24
 71
     3
 72
    13
 73
     9
 74
     0
 42
0.000000001
 43
0.00000001
 40
0.0
 40
0.0
 40
0.0
 40
0.0
 40
0.0301430069291069
 40
0.2746923370067197
 40
0.5116618640169294
 40
0.6355523006450159
 40
0.7596015741661468
 40
1.0
 40
1.0
 40
1.0
 40
1.0
 10
453.9555194612243
 20
367.0619840662669
 30
0.0
 10
453.9501740406204
 20
367.0619840662669
 30
0.0
 10
453.9014613796235
 20
367.0619840662669
 30
0.0
 10
454.1058134102125
 20
367.0619840662669
 30
0.0
 10
454.4842963093291
 20
367.0619840662669
 30
0.0
 10
454.907772635356
 20
367.0619840662669
 30
0.0
 10
455.385724474199
 20
367.0619840662669
 30
0.0
 10
455.7819262345133
 20
367.0619840662669
 30
0.0
 10
456.043270399014
 20
367.0619840662669
 30
0.0
  0
SPLINE
  5
287
330
1F
100
AcDbEntity
  8
0
  6
CONTINUOUS
 62
     7
100
AcDbSpline
210
0.0
220
0.0
230
1.0
 70
    24
 71
     3
 72
    10
 73
     6
 74
     0
 42
0.000000001
 43
0.00000001
 40
0.0
 40
0.0
 40
0.0
 40
0.0
 40
0.0627609837456157
 40
0.7255070378028232
 40
0.9999999999999999
 40
0.9999999999999999
 40
0.9999999999999999
 40
0.9999999999999999
 10
474.8206515621044
 20
367.0619840662669
 30
0.0
 10
474.8348381819839
 20
367.0619840662669
 30
0.0
 10
474.9988332622211
 20
367.0619840662669
 30
0.0
 10
475.1414557609781
 20
367.0619840662669
 30
0.0
 10
475.1147027425448
 20
367.0619840662669
 30
0.0
 10
475.1068674783804
 20
367.0619840662669
 30
0.0
  0
SPLINE
  5
288
330
1F
100
AcDbEntity
  8
0
  6
CONTINUOUS
 62
     7
100
AcDbSpline
210
0.0
220
0.0
230
1.0
 70
    24
 71
     3
 72
    10
 73
     6
 74
     0
 42
0.000000001
 43
0.00000001
 40
0.0
 40
0.0
 40
0.0
 40
0.0
 40
0.1726898955735204
 40
0.464333333828232
 40
1.0
 40
1.0
 40
1.0
 40
1.0
 10
474.6487424533465
 20
367.0619840662669
 30
0.0
 10
474.5968964109221
 20
367.0619840662669
 30
0.0
 10
474.4574913481953
 20
367.0619840662669
 30
0.0
 10
474.0723300712993
 20
367.0619840662669
 30
0.0
 10
473.6970994911053
 20
367.0619840662669
 30
0.0
 10
473.4541452314355
 20
367.0619840662669
 30
0.0
  0
SPLINE
  5
289
330
1F
100
AcDbEntity
  8
0
  6
CONTINUOUS
 62
     7
100
AcDbSpline
210
0.0
220
0.0
230
1.0
 70
    24
 71
     3
 72
    11
 73
     7
 74
     0
 42
0.000000001
 43
0.00000001
 40
0.0
 40
0.0
 40
0.0
 40
0.0
 40
0.4515860692754669
 40
0.6843130598509437
 40
0.9173369786389372
 40
0.9999999999999999
 40
0.9999999999999999
 40
0.9999999999999999
 40
0.9999999999999999
 10
473.4541452314355
 20
367.0619840662669
 30
0.0
 10
473.1917125796151
 20
367.0619840662669
 30
0.0
 10
472.7940340346145
 20
367.0619840662669
 30
0.0
 10
472.3014160218668
 20
367.0619840662669
 30
0.0
 10
472.0113460683622
 20
367.0619840662669
 30
0.0
 10
471.89310641733
 20
367.0619840662669
 30
0.0
 10
471.8621452163555
 20
367.0619840662669
 30
0.0
  0
SPLINE
  5
28A
330
1F
100
AcDbEntity
  8
0
  6
CONTINUOUS
 62
     7
100
AcDbSpline
210
0.0
220
0.0
230
1.0
 70
    24
 71
     3
 72
    10
 73
     6
 74
     0
 42
0.000000001
 43
0.00000001
 40
0.0
 40
0.0
 40
0.0
 40
0.0
 40
0.3052358349620869
 40
0.7926786065936788
 40
1.0
 40
1.0
 40
1.0
 40
1.0
 10
471.178731397877
 20
367.0619840662669
 30
0.0
 10
471.1752620570497
 20
367.0619840662669
 30
0.0
 10
471.1662523932496
 20
367.0619840662669
 30
0.0
 10
471.4111735796266
 20
367.0619840662669
 30
0.0
 10
471.6588603863134
 20
367.0619840662669
 30
0.0
 10
471.7327714722254
 20
367.0619840662669
 30
0.0
  0
SPLINE
  5
28B
330
1F
100
AcDbEntity
  8
0
  6
CONTINUOUS
 62
     7
100
AcDbSpline
210
0.0
220
0.0
230
1.0
 70
    24
 71
     3
 72
    13
 73
     9
 74
     0
 42
0.000000001
 43
0.00000001
 40
0.0
 40
0.0
 40
0.0
 40
0.0
 40
0.287678713587562
 40
0.4440992159446699
 40
0.6007248230210859
 40
0.7571452166741544
 40
0.9137695679126158
 40
1.0
 40
1.0
 40
1.0
 40
1.0
 10
439.4420203577378
 20
367.0619840662669
 30
0.0
 10
439.6780615967299
 20
367.0619840662669
 30
0.0
 10
440.0424463225226
 20
367.0619840662669
 30
0.0
 10
440.4277376591094
 20
367.0619840662669
 30
0.0
 10
440.669721444338
 20
367.0619840662669
 30
0.0
 10
440.831356278114
 20
367.0619840662669
 30
0.0
 10
440.9292159755246
 20
367.0619840662669
 30
0.0
 10
440.9037023974262
 20
367.0619840662669
 30
0.0
 10
440.8946432929137
 20
367.0619840662669
 30
0.0
  0
SPLINE
  5
28C
330
1F
100
AcDbEntity
  8
0
  6
CONTINUOUS
 62
     7
100
AcDbSpline
210
0.0
220
0.0
230
1.0
 70
    24
 71
     3
 72
    13
 73
     9
 74
     0
 42
0.000000001
 43
0.00000001
 40
0.0
 40
0.0
 40
0.0
 40
0.0
 40
0.1434728199419629
 40
0.3594450885521981
 40
0.5687244197924032
 40
0.6781384096500299
 40
0.7876922429264274
 40
1.0
 40
1.0
 40
1.0
 40
1.0
 10
436.9593788694241
 20
367.0619840662669
 30
0.0
 10
436.9587162491025
 20
367.0619840662669
 30
0.0
 10
436.9570561742516
 20
367.0619840662669
 30
0.0
 10
437.3039908308928
 20
367.0619840662669
 30
0.0
 10
437.7981460994826
 20
367.0619840662669
 30
0.0
 10
438.2752153675523
 20
367.0619840662669
 30
0.0
 10
438.7911470081282
 20
367.0619840662669
 30
0.0
 10
439.1833281252818
 20
367.0619840662669
 30
0.0
 10
439.4420203577378
 20
367.0619840662669
 30
0.0
  0
SPLINE
  5
28D
330
1F
100
AcDbEntity
  8
0
  6
CONTINUOUS
 62
     7
100
AcDbSpline
210
0.0
220
0.0
230
1.0
 70
    24
 71
     3
 72
     9
 73
     5
 74
     0
 42
0.000000001
 43
0.00000001
 40
0.0
 40
0.0
 40
0.0
 40
0.0
 40
0.0738633946430708
 40
1.0
 40
1.0
 40
1.0
 40
1.0
 10
491.6167207818129
 20
367.0619840662669
 30
0.0
 10
491.6273068546971
 20
367.0619840662669
 30
0.0
 10
491.7706264643012
 20
367.0619840662669
 30
0.0
 10
491.7746304958941
 20
367.0619840662669
 30
0.0
 10
491.7783387761214
 20
367.0619840662669
 30
0.0
  0
SPLINE
  5
28E
330
1F
100
AcDbEntity
  8
0
  6
CONTINUOUS
 62
     7
100
AcDbSpline
210
0.0
220
0.0
230
1.0
 70
    24
 71
     3
 72
     9
 73
     5
 74
     0
 42
0.000000001
 43
0.00000001
 40
0.0
 40
0.0
 40
0.0
 40
0.0
 40
0.236472209535746
 40
1.0
 40
1.0
 40
1.0
 40
1.0
 10
491.2884090851643
 20
367.0619840662669
 30
0.0
 10
491.2387312443653
 20
367.0619840662669
 30
0.0
 10
491.0286522634291
 20
367.0619840662669
 30
0.0
 10
490.7273636034159
 20
367.0619840662669
 30
0.0
 10
490.4973213385441
 20
367.0619840662669
 30
0.0
  0
SPLINE
  5
28F
330
1F
100
AcDbEntity
  8
0
  6
CONTINUOUS
 62
     7
100
AcDbSpline
210
0.0
220
0.0
230
1.0
 70
    24
 71
     3
 72
    11
 73
     7
 74
     0
 42
0.000000001
 43
0.00000001
 40
0.0
 40
0.0
 40
0.0
 40
0.0
 40
0.3916282271171592
 40
0.5934548388173673
 40
0.7955418473014291
 40
1.0
 40
1.0
 40
1.0
 40
1.0
 10
490.4973213385441
 20
367.0619840662669
 30
0.0
 10
490.2438109116251
 20
367.0619840662669
 30
0.0
 10
489.8596532357263
 20
367.0619840662669
 30
0.0
 10
489.3360856763942
 20
367.0619840662669
 30
0.0
 10
488.9446063246386
 20
367.0619840662669
 30
0.0
 10
488.7343456204721
 20
367.0619840662669
 30
0.0
 10
488.6286021034815
 20
367.0619840662669
 30
0.0
  0
SPLINE
  5
290
330
1F
100
AcDbEntity
  8
0
  6
CONTINUOUS
 62
     7
100
AcDbSpline
210
0.0
220
0.0
230
1.0
 70
    24
 71
     3
 72
    11
 73
     7
 74
     0
 42
0.000000001
 43
0.00000001
 40
0.0
 40
0.0
 40
0.0
 40
0.0
 40
0.0333711587629481
 40
0.5206051836195998
 40
0.7753352340726026
 40
0.9999999999999999
 40
0.9999999999999999
 40
0.9999999999999999
 40
0.9999999999999999
 10
487.7903149287798
 20
367.0619840662669
 30
0.0
 10
487.7871898571368
 20
367.0619840662669
 30
0.0
 10
487.7384373248044
 20
367.0619840662669
 30
0.0
 10
487.890161742048
 20
367.0619840662669
 30
0.0
 10
488.1222301731509
 20
367.0619840662669
 30
0.0
 10
488.2956104088107
 20
367.0619840662669
 30
0.0
 10
488.3768637489178
 20
367.0619840662669
 30
0.0
  0
SPLINE
  5
291
330
1F
100
AcDbEntity
  8
0
  6
CONTINUOUS
 62
     7
100
AcDbSpline
210
0.0
220
0.0
230
1.0
 70
    24
 71
     3
 72
    12
 73
     8
 74
     0
 42
0.000000001
 43
0.00000001
 40
0.0
 40
0.0
 40
0.0
 40
0.0
 40
0.3418021661575833
 40
0.5276506915832445
 40
0.7137445097917047
 40
0.8995931637068851
 40
1.0
 40
1.0
 40
1.0
 40
1.0
 10
423.7502240400412
 20
367.0619840662669
 30
0.0
 10
423.9619708674417
 20
367.0619840662669
 30
0.0
 10
424.2888510659332
 20
367.0619840662669
 30
0.0
 10
424.5922300127226
 20
367.0619840662669
 30
0.0
 10
424.7548012812054
 20
367.0619840662669
 30
0.0
 10
424.838999011488
 20
367.0619840662669
 30
0.0
 10
424.8338587788064
 20
367.0619840662669
 30
0.0
 10
424.8320557932951
 20
367.0619840662669
 30
0.0
  0
SPLINE
  5
292
330
1F
100
AcDbEntity
  8
0
  6
CONTINUOUS
 62
     7
100
AcDbSpline
210
0.0
220
0.0
230
1.0
 70
    24
 71
     3
 72
    14
 73
    10
 74
     0
 42
0.000000001
 43
0.00000001
 40
0.0
 40
0.0
 40
0.0
 40
0.0
 40
0.035140000586901
 40
0.2294358503975341
 40
0.4237323391071359
 40
0.6120088343648109
 40
0.7104415569089227
 40
0.8090001206856724
 40
1.0
 40
1.0
 40
1.0
 40
1.0
 10
420.8645843725302
 20
367.0619840662669
 30
0.0
 10
420.8577475536252
 20
367.0619840662669
 30
0.0
 10
420.8131086426043
 20
367.0619840662669
 30
0.0
 10
421.030046960097
 20
367.0619840662669
 30
0.0
 10
421.505010346735
 20
367.0619840662669
 30
0.0
 10
422.0933038225784
 20
367.0619840662669
 30
0.0
 10
422.6031094941598
 20
367.0619840662669
 30
0.0
 10
423.1344716526756
 20
367.0619840662669
 30
0.0
 10
423.5054907242479
 20
367.0619840662669
 30
0.0
 10
423.7502240400412
 20
367.0619840662669
 30
0.0
  0
SPLINE
  5
293
330
1F
100
AcDbEntity
  8
0
  6
CONTINUOUS
 62
     7
100
AcDbSpline
210
0.0
220
0.0
230
1.0
 70
    24
 71
     3
 72
    14
 73
    10
 74
     0
 42
0.000000001
 43
0.00000001
 40
0.0
 40
0.0
 40
0.0
 40
0.0
 40
0.1814388753835663
 40
0.2749442032034325
 40
0.3685689129046556
 40
0.5474198207470192
 40
0.7319902497163068
 40
0.916559673610776
 40
1.0
 40
1.0
 40
1.0
 40
1.0
 10
506.2185921530821
 20
367.0619840662669
 30
0.0
 10
505.9848661847328
 20
367.0619840662669
 30
0.0
 10
505.6306885036823
 20
367.0619840662669
 30
0.0
 10
505.1006213994934
 20
367.0619840662669
 30
0.0
 10
504.5815684220828
 20
367.0619840662669
 30
0.0
 10
503.9641033501716
 20
367.0619840662669
 30
0.0
 10
503.4182138888248
 20
367.0619840662669
 30
0.0
 10
503.1332561172237
 20
367.0619840662669
 30
0.0
 10
503.1582344635631
 20
367.0619840662669
 30
0.0
 10
503.1660110514261
 20
367.0619840662669
 30
0.0
  0
SPLINE
  5
294
330
1F
100
AcDbEntity
  8
0
  6
CONTINUOUS
 62
     7
100
AcDbSpline
210
0.0
220
0.0
230
1.0
 70
    24
 71
     3
 72
    10
 73
     6
 74
     0
 42
0.000000001
 43
0.00000001
 40
0.0
 40
0.0
 40
0.0
 40
0.0
 40
0.0784516284820907
 40
0.636114776529864
 40
1.0
 40
1.0
 40
1.0
 40
1.0
 10
454.9021958198049
 20
367.0619840662669
 30
0.0
 10
454.920655985796
 20
367.0619840662669
 30
0.0
 10
455.0703378291352
 20
367.0619840662669
 30
0.0
 10
455.2716792767508
 20
367.0619840662669
 30
0.0
 10
455.4275847566508
 20
367.0619840662669
 30
0.0
 10
455.4891460399725
 20
367.0619840662669
 30
0.0
  0
SPLINE
  5
295
330
1F
100
AcDbEntity
  8
0
  6
CONTINUOUS
 62
     7
100
AcDbSpline
210
0.0
220
0.0
230
1.0
 70
    24
 71
     3
 72
    13
 73
     9
 74
     0
 42
0.000000001
 43
0.00000001
 40
0.0
 40
0.0
 40
0.0
 40
0.0
 40
0.055020176351429
 40
0.2932960797124949
 40
0.5241875089973531
 40
0.6448999004600632
 40
0.7657673103665968
 40
1.0
 40
1.0
 40
1.0
 40
1.0
 10
452.077175007353
 20
367.0619840662669
 30
0.0
 10
452.0688613395984
 20
367.0619840662669
 30
0.0
 10
452.0245436670247
 20
367.0619840662669
 30
0.0
 10
452.2519372803782
 20
367.0619840662669
 30
0.0
 10
452.6561090384274
 20
367.0619840662669
 30
0.0
 10
453.0917312160042
 20
367.0619840662669
 30
0.0
 10
453.5790511630771
 20
367.0619840662669
 30
0.0
 10
453.9758320450623
 20
367.0619840662669
 30
0.0
 10
454.2375583957531
 20
367.0619840662669
 30
0.0
  0
SPLINE
  5
296
330
1F
100
AcDbEntity
  8
0
  6
CONTINUOUS
 62
     7
100
AcDbSpline
210
0.0
220
0.0
230
1.0
 70
    24
 71
     3
 72
    11
 73
     7
 74
     0
 42
0.000000001
 43
0.00000001
 40
0.0
 40
0.0
 40
0.0
 40
0.0
 40
0.4515854498904424
 40
0.6843129987775091
 40
0.9173369626467817
 40
1.0
 40
1.0
 40
1.0
 40
1.0
 10
470.8729763339855
 20
367.0619840662669
 30
0.0
 10
470.6105440006253
 20
367.0619840662669
 30
0.0
 10
470.21286542825
 20
367.0619840662669
 30
0.0
 10
469.7202473731872
 20
367.0619840662669
 30
0.0
 10
469.4301771726082
 20
367.0619840662669
 30
0.0
 10
469.311937520232
 20
367.0619840662669
 30
0.0
 10
469.2809763189056
 20
367.0619840662669
 30
0.0
  0
SPLINE
  5
297
330
1F
100
AcDbEntity
  8
0
  6
CONTINUOUS
 62
     7
100
AcDbSpline
210
0.0
220
0.0
230
1.0
 70
    24
 71
     3
 72
    10
 73
     6
 74
     0
 42
0.000000001
 43
0.00000001
 40
0.0
 40
0.0
 40
0.0
 40
0.0
 40
0.3052346094387337
 40
0.7926794556371815
 40
1.0
 40
1.0
 40
1.0
 40
1.0
 10
468.597562500427
 20
367.0619840662669
 30
0.0
 10
468.5940938066308
 20
367.0619840662669
 30
0.0
 10
468.5850857773149
 20
367.0619840662669
 30
0.0
 10
468.8300027791732
 20
367.0619840662669
 30
0.0
 10
469.0776913850429
 20
367.0619840662669
 30
0.0
 10
469.1516025747754
 20
367.0619840662669
 30
0.0
  0
SPLINE
  5
298
330
1F
100
AcDbEntity
  8
0
  6
CONTINUOUS
 62
     7
100
AcDbSpline
210
0.0
220
0.0
230
1.0
 70
    24
 71
     3
 72
    16
 73
    12
 74
     0
 42
0.000000001
 43
0.00000001
 40
0.0
 40
0.0
 40
0.0
 40
0.0
 40
0.0442288313068099
 40
0.1351895255957282
 40
0.3022581159827415
 40
0.4693278386531128
 40
0.5601687518217954
 40
0.651128834457004
 40
0.7419699252279041
 40
0.8329302852883699
 40
1.0
 40
1.0
 40
1.0
 40
1.0
 10
410.3848659257986
 20
367.0619840662669
 30
0.0
 10
410.3870287210481
 20
367.0619840662669
 30
0.0
 10
410.3936395053507
 20
367.0619840662669
 30
0.0
 10
410.2884496811254
 20
367.0619840662669
 30
0.0
 10
409.9888724962414
 20
367.0619840662669
 30
0.0
 10
409.4882465466877
 20
367.0619840662669
 30
0.0
 10
409.0078813787383
 20
367.0619840662669
 30
0.0
 10
408.6055004110618
 20
367.0619840662669
 30
0.0
 10
408.1958192557827
 20
367.0619840662669
 30
0.0
 10
407.6767667836775
 20
367.0619840662669
 30
0.0
 10
407.3488150739831
 20
367.0619840662669
 30
0.0
 10
407.1364723901846
 20
367.0619840662669
 30
0.0
  0
SPLINE
  5
299
330
1F
100
AcDbEntity
  8
0
  6
CONTINUOUS
 62
     7
100
AcDbSpline
210
0.0
220
0.0
230
1.0
 70
    24
 71
     3
 72
    10
 73
     6
 74
     0
 42
0.000000001
 43
0.00000001
 40
0.0
 40
0.0
 40
0.0
 40
0.0
 40
0.3684029547245344
 40
0.7870153192182319
 40
1.0
 40
1.0
 40
1.0
 40
1.0
 10
435.9447792928316
 20
367.0619840662669
 30
0.0
 10
435.9623378528357
 20
367.0619840662669
 30
0.0
 10
435.9998480180757
 20
367.0619840662669
 30
0.0
 10
436.3321388792787
 20
367.0619840662669
 30
0.0
 10
436.6646625963825
 20
367.0619840662669
 30
0.0
 10
436.7767949413159
 20
367.0619840662669
 30
0.0
  0
LINE
  5
29A
330
1F
100
AcDbEntity
  8
0
  6
CONTINUOUS
 62
     7
100
AcDbLine
 10
438.0537685763
 20
367.0619840663
 30
0.0
 11
438.6057150375
 21
367.0619840663
 31
0.0
  0
SPLINE
  5
29B
330
1F
100
AcDbEntity
  8
0
  6
CONTINUOUS
 62
     7
100
AcDbSpline
210
0.0
220
0.0
230
1.0
 70
    24
 71
     3
 72
     9
 73
     5
 74
     0
 42
0.000000001
 43
0.00000001
 40
0.0
 40
0.0
 40
0.0
 40
0.0
 40
0.1626156245061209
 40
1.0
 40
1.0
 40
1.0
 40
1.0
 10
487.9292663942673
 20
367.0619840662669
 30
0.0
 10
487.8993674471775
 20
367.0619840662669
 30
0.0
 10
487.7155047514457
 20
367.0619840662669
 30
0.0
 10
487.4444136836106
 20
367.0619840662669
 30
0.0
 10
487.2174062590697
 20
367.0619840662669
 30
0.0
  0
SPLINE
  5
29C
330
1F
100
AcDbEntity
  8
0
  6
CONTINUOUS
 62
     7
100
AcDbSpline
210
0.0
220
0.0
230
1.0
 70
    24
 71
     3
 72
    10
 73
     6
 74
     0
 42
0.000000001
 43
0.00000001
 40
0.0
 40
0.0
 40
0.0
 40
0.0
 40
0.49773026727972
 40
0.754237007596082
 40
1.0
 40
1.0
 40
1.0
 40
1.0
 10
487.2174062590697
 20
367.0619840662669
 30
0.0
 10
486.9675978949124
 20
367.0619840662669
 30
0.0
 10
486.5890500640076
 20
367.0619840662669
 30
0.0
 10
486.0637486617454
 20
367.0619840662669
 30
0.0
 10
485.8161328514934
 20
367.0619840662669
 30
0.0
 10
485.6949732463457
 20
367.0619840662669
 30
0.0
  0
SPLINE
  5
29D
330
1F
100
AcDbEntity
  8
0
  6
CONTINUOUS
 62
     7
100
AcDbSpline
210
0.0
220
0.0
230
1.0
 70
    24
 71
     3
 72
    11
 73
     7
 74
     0
 42
0.000000001
 43
0.00000001
 40
0.0
 40
0.0
 40
0.0
 40
0.0
 40
0.4744330473494152
 40
0.7276808662443631
 40
0.9812523596509699
 40
1.0
 40
1.0
 40
1.0
 40
1.0
 10
484.4261337827542
 20
367.0619840662669
 30
0.0
 10
484.4492133818719
 20
367.0619840662669
 30
0.0
 10
484.484612650056
 20
367.0619840662669
 30
0.0
 10
484.7382566961955
 20
367.0619840662669
 30
0.0
 10
484.8882923503363
 20
367.0619840662669
 30
0.0
 10
485.0070807295061
 20
367.0619840662669
 30
0.0
 10
485.0152586411335
 20
367.0619840662669
 30
0.0
  0
SPLINE
  5
29E
330
1F
100
AcDbEntity
  8
0
  6
CONTINUOUS
 62
     7
100
AcDbSpline
210
0.0
220
0.0
230
1.0
 70
    24
 71
     3
 72
    15
 73
    11
 74
     0
 42
0.000000001
 43
0.00000001
 40
0.0
 40
0.0
 40
0.0
 40
0.0
 40
0.1653146437427144
 40
0.2505096648771368
 40
0.3358142633423381
 40
0.498770850148606
 40
0.6669384766854154
 40
0.8351054413820194
 40
0.9980620281882872
 40
1.0
 40
1.0
 40
1.0
 40
1.0
 10
519.9308604757883
 20
367.0619840662669
 30
0.0
 10
519.7266825488723
 20
367.0619840662669
 30
0.0
 10
519.41728137975
 20
367.0619840662669
 30
0.0
 10
518.9071341786827
 20
367.0619840662669
 30
0.0
 10
518.3867011396502
 20
367.0619840662669
 30
0.0
 10
517.7319828762658
 20
367.0619840662669
 30
0.0
 10
517.0618497772509
 20
367.0619840662669
 30
0.0
 10
516.6331305215352
 20
367.0619840662669
 30
0.0
 10
516.4926477980403
 20
367.0619840662669
 30
0.0
 10
516.5173179995055
 20
367.0619840662669
 30
0.0
 10
516.5176079433062
 20
367.0619840662669
 30
0.0
  0
SPLINE
  5
29F
330
1F
100
AcDbEntity
  8
0
  6
CONTINUOUS
 62
     7
100
AcDbSpline
210
0.0
220
0.0
230
1.0
 70
    24
 71
     3
 72
    10
 73
     6
 74
     0
 42
0.000000001
 43
0.00000001
 40
0.0
 40
0.0
 40
0.0
 40
0.0
 40
0.0703014552332191
 40
0.9932594400060627
 40
1.0
 40
1.0
 40
1.0
 40
1.0
 10
425.2072223286726
 20
367.0619840662669
 30
0.0
 10
425.2081597222163
 20
367.0619840662669
 30
0.0
 10
425.2214037579644
 20
367.0619840662669
 30
0.0
 10
425.2153551936925
 20
367.0619840662669
 30
0.0
 10
425.1607725418115
 20
367.0619840662669
 30
0.0
 10
425.1603768031695
 20
367.0619840662669
 30
0.0
  0
SPLINE
  5
2A0
330
1F
100
AcDbEntity
  8
0
  6
CONTINUOUS
 62
     7
100
AcDbSpline
210
0.0
220
0.0
230
1.0
 70
    24
 71
     3
 72
    14
 73
    10
 74
     0
 42
0.000000001
 43
0.00000001
 40
0.0
 40
0.0
 40
0.0
 40
0.0
 40
0.1745922037162672
 40
0.264569531252379
 40
0.3546617392727138
 40
0.526763327772316
 40
0.7043698348491093
 40
0.8819746928001204
 40
1.0
 40
1.0
 40
1.0
 40
1.0
 10
501.8674419086076
 20
367.0619840662669
 30
0.0
 10
501.6443756231939
 20
367.0619840662669
 30
0.0
 10
501.306350549256
 20
367.0619840662669
 30
0.0
 10
500.7814764780609
 20
367.0619840662669
 30
0.0
 10
500.2592083088518
 20
367.0619840662669
 30
0.0
 10
499.6228600370944
 20
367.0619840662669
 30
0.0
 10
499.0267253725752
 20
367.0619840662669
 30
0.0
 10
498.676439837672
 20
367.0619840662669
 30
0.0
 10
498.6742489542853
 20
367.0619840662669
 30
0.0
 10
498.6733742814162
 20
367.0619840662669
 30
0.0
  0
SPLINE
  5
2A1
330
1F
100
AcDbEntity
  8
0
  6
CONTINUOUS
 62
     7
100
AcDbSpline
210
0.0
220
0.0
230
1.0
 70
    24
 71
     3
 72
    23
 73
    19
 74
     0
 42
0.000000001
 43
0.00000001
 40
0.0
 40
0.0
 40
0.0
 40
0.0
 40
0.0264564647309051
 40
0.0530501461255665
 40
0.079904643475112
 40
0.1595808144539456
 40
0.2393617347442636
 40
0.3129100878859462
 40
0.3865621501637253
 40
0.4601105332373687
 40
0.5337626162572805
 40
0.6134387401017918
 40
0.6932196131895023
 40
0.7728957841741239
 40
0.8526767044584628
 40
0.9018931219934228
 40
0.9507382967531671
 40
1.0
 40
1.0
 40
1.0
 40
1.0
 10
398.2047269900998
 20
367.0619840103875
 30
0.0
 10
398.2083113308782
 20
367.0619840103875
 30
0.0
 10
398.215498602647
 20
367.0619840103875
 30
0.0
 10
398.2144331685594
 20
367.0619840103875
 30
0.0
 10
398.1984551031557
 20
367.0619840103875
 30
0.0
 10
398.1336318057006
 20
367.0619840103875
 30
0.0
 10
397.9727225429753
 20
367.0619840103875
 30
0.0
 10
397.7514090597386
 20
367.0619840103875
 30
0.0
 10
397.4802828791242
 20
367.0619840103875
 30
0.0
 10
397.1653489383335
 20
367.0619840103875
 30
0.0
 10
396.8063422512151
 20
367.0619840103875
 30
0.0
 10
396.4144813079811
 20
367.0619840103875
 30
0.0
 10
396.0039504951979
 20
367.0619840103875
 30
0.0
 10
395.601835895364
 20
367.0619840103875
 30
0.0
 10
395.2735549265728
 20
367.0619840103875
 30
0.0
 10
395.0188114979221
 20
367.0619840103875
 30
0.0
 10
394.825097460999
 20
367.0619840103875
 30
0.0
 10
394.7151898925308
 20
367.0619840103875
 30
0.0
 10
394.660002793191
 20
367.0619840103875
 30
0.0
  0
SPLINE
  5
2A2
330
1F
100
AcDbEntity
  8
0
  6
CONTINUOUS
 62
     7
100
AcDbSpline
210
0.0
220
0.0
230
1.0
 70
    24
 71
     3
 72
    11
 73
     7
 74
     0
 42
0.000000001
 43
0.00000001
 40
0.0
 40
0.0
 40
0.0
 40
0.0
 40
0.4515864386940988
 40
0.6843134680884501
 40
0.9173384910730609
 40
1.0
 40
1.0
 40
1.0
 40
1.0
 10
468.2918083678582
 20
367.0619840662669
 30
0.0
 10
468.0293763116937
 20
367.0619840662669
 30
0.0
 10
467.6316987574014
 20
367.0619840662669
 30
0.0
 10
467.139076035758
 20
367.0619840662669
 30
0.0
 10
466.8490115870648
 20
367.0619840662669
 30
0.0
 10
466.7307692618715
 20
367.0619840662669
 30
0.0
 10
466.6998078871169
 20
367.0619840662669
 30
0.0
  0
SPLINE
  5
2A3
330
1F
100
AcDbEntity
  8
0
  6
CONTINUOUS
 62
     7
100
AcDbSpline
210
0.0
220
0.0
230
1.0
 70
    24
 71
     3
 72
    10
 73
     6
 74
     0
 42
0.000000001
 43
0.00000001
 40
0.0
 40
0.0
 40
0.0
 40
0.0
 40
0.3052352221995561
 40
0.7926790311159293
 40
1.0
 40
1.0
 40
1.0
 40
1.0
 10
466.0163940686383
 20
367.0619840662669
 30
0.0
 10
466.0129250513273
 20
367.0619840662669
 30
0.0
 10
466.003916204769
 20
367.0619840662669
 30
0.0
 10
466.248835298886
 20
367.0619840662669
 30
0.0
 10
466.4965230051642
 20
367.0619840662669
 30
0.0
 10
466.5704341429868
 20
367.0619840662669
 30
0.0
  0
SPLINE
  5
2A4
330
1F
100
AcDbEntity
  8
0
  6
CONTINUOUS
 62
     7
100
AcDbSpline
210
0.0
220
0.0
230
1.0
 70
    24
 71
     3
 72
     9
 73
     5
 74
     0
 42
0.000000001
 43
0.00000001
 40
0.0
 40
0.0
 40
0.0
 40
0.0
 40
0.0827253992478588
 40
1.0
 40
1.0
 40
1.0
 40
1.0
 10
453.3711876544752
 20
367.0619840662669
 30
0.0
 10
453.3630343890042
 20
367.0619840662669
 30
0.0
 10
453.2644762007683
 20
367.0619840662669
 30
0.0
 10
453.1513573838877
 20
367.0619840662669
 30
0.0
 10
453.047596366296
 20
367.0619840662669
 30
0.0
  0
SPLINE
  5
2A5
330
1F
100
AcDbEntity
  8
0
  6
CONTINUOUS
 62
     7
100
AcDbSpline
210
0.0
220
0.0
230
1.0
 70
    24
 71
     3
 72
    10
 73
     6
 74
     0
 42
0.000000001
 43
0.00000001
 40
0.0
 40
0.0
 40
0.0
 40
0.0
 40
0.6201357211558594
 40
0.9397253809630447
 40
1.0
 40
1.0
 40
1.0
 40
1.0
 10
452.2103597234585
 20
367.0619840662669
 30
0.0
 10
451.9603926369631
 20
367.0619840662669
 30
0.0
 10
451.5816039177014
 20
367.0619840662669
 30
0.0
 10
451.2339851897083
 20
367.0619840662669
 30
0.0
 10
451.1308760411395
 20
367.0619840662669
 30
0.0
 10
451.1145152907469
 20
367.0619840662669
 30
0.0
  0
SPLINE
  5
2A6
330
1F
100
AcDbEntity
  8
0
  6
CONTINUOUS
 62
     7
100
AcDbSpline
210
0.0
220
0.0
230
1.0
 70
    24
 71
     3
 72
    10
 73
     6
 74
     0
 42
0.000000001
 43
0.00000001
 40
0.0
 40
0.0
 40
0.0
 40
0.0
 40
0.1801820048989101
 40
0.6384172245491243
 40
1.0
 40
1.0
 40
1.0
 40
1.0
 10
450.560668931494
 20
367.0619840662669
 30
0.0
 10
450.5516018261466
 20
367.0619840662669
 30
0.0
 10
450.5194754424168
 20
367.0619840662669
 30
0.0
 10
450.7528216975859
 20
367.0619840662669
 30
0.0
 10
451.0937260384987
 20
367.0619840662669
 30
0.0
 10
451.2440827499726
 20
367.0619840662669
 30
0.0
  0
SPLINE
  5
2A7
330
1F
100
AcDbEntity
  8
0
  6
CONTINUOUS
 62
     7
100
AcDbSpline
210
0.0
220
0.0
230
1.0
 70
    24
 71
     3
 72
    16
 73
    12
 74
     0
 42
0.000000001
 43
0.00000001
 40
0.0
 40
0.0
 40
0.0
 40
0.0
 40
0.1517702168925764
 40
0.2299860409635827
 40
0.3083018763353507
 40
0.4579070533065269
 40
0.612297788661522
 40
0.7666861850517591
 40
0.9162918554148889
 40
0.9945078030790556
 40
0.9999999999999999
 40
0.9999999999999999
 40
0.9999999999999999
 40
0.9999999999999999
 10
531.0348407189944
 20
367.0619840662669
 30
0.0
 10
530.8691597479661
 20
367.0619840662669
 30
0.0
 10
530.6180939501439
 20
367.0619840662669
 30
0.0
 10
530.1499795507162
 20
367.0619840662669
 30
0.0
 10
529.6516345542375
 20
367.0619840662669
 30
0.0
 10
528.9829296562592
 20
367.0619840662669
 30
0.0
 10
528.2405117298483
 20
367.0619840662669
 30
0.0
 10
527.6630236321517
 20
367.0619840662669
 30
0.0
 10
527.4148983946372
 20
367.0619840662669
 30
0.0
 10
527.345743642843
 20
367.0619840662669
 30
0.0
 10
527.3589528172317
 20
367.0619840662669
 30
0.0
 10
527.35981948782
 20
367.0619840662669
 30
0.0
  0
SPLINE
  5
2A8
330
1F
100
AcDbEntity
  8
0
  6
CONTINUOUS
 62
     7
100
AcDbSpline
210
0.0
220
0.0
230
1.0
 70
    24
 71
     3
 72
     9
 73
     5
 74
     0
 42
0.000000001
 43
0.00000001
 40
0.0
 40
0.0
 40
0.0
 40
0.0
 40
0.7694273200437162
 40
1.0
 40
1.0
 40
1.0
 40
1.0
 10
484.4943531613447
 20
367.0619840662669
 30
0.0
 10
484.5756331994551
 20
367.0619840662669
 30
0.0
 10
484.6812702570341
 20
367.0619840662669
 30
0.0
 10
484.6705092515725
 20
367.0619840662669
 30
0.0
 10
484.6680280577042
 20
367.0619840662669
 30
0.0
  0
LINE
  5
2A9
330
1F
100
AcDbEntity
  8
0
  6
CONTINUOUS
 62
     7
100
AcDbLine
 10
484.1660414647
 20
367.0619840663
 30
0.0
 11
483.5861739527
 21
367.0619840663
 31
0.0
  0
SPLINE
  5
2AA
330
1F
100
AcDbEntity
  8
0
  6
CONTINUOUS
 62
     7
100
AcDbSpline
210
0.0
220
0.0
230
1.0
 70
    24
 71
     3
 72
    11
 73
     7
 74
     0
 42
0.000000001
 43
0.00000001
 40
0.0
 40
0.0
 40
0.0
 40
0.0
 40
0.395564754282844
 40
0.5994200452114481
 40
0.8035376959290779
 40
1.0
 40
1.0
 40
1.0
 40
1.0
 10
483.5861739527085
 20
367.0619840662669
 30
0.0
 10
483.341048164851
 20
367.0619840662669
 30
0.0
 10
482.9695961857523
 20
367.0619840662669
 30
0.0
 10
482.441070425742
 20
367.0619840662669
 30
0.0
 10
482.0460807110097
 20
367.0619840662669
 30
0.0
 10
481.8245311388879
 20
367.0619840662669
 30
0.0
 10
481.7158733319142
 20
367.0619840662669
 30
0.0
  0
SPLINE
  5
2AB
330
1F
100
AcDbEntity
  8
0
  6
CONTINUOUS
 62
     7
100
AcDbSpline
210
0.0
220
0.0
230
1.0
 70
    24
 71
     3
 72
    11
 73
     7
 74
     0
 42
0.000000001
 43
0.00000001
 40
0.0
 40
0.0
 40
0.0
 40
0.0
 40
0.4101882344816876
 40
0.673847248359705
 40
0.9378449142962224
 40
1.0
 40
1.0
 40
1.0
 40
1.0
 10
480.7005342851975
 20
367.0619840662669
 30
0.0
 10
480.7078092561323
 20
367.0619840662669
 30
0.0
 10
480.7197604013243
 20
367.0619840662669
 30
0.0
 10
480.9279039338394
 20
367.0619840662669
 30
0.0
 10
481.0773030392903
 20
367.0619840662669
 30
0.0
 10
481.2099064732073
 20
367.0619840662669
 30
0.0
 10
481.2351767729618
 20
367.0619840662669
 30
0.0
  0
SPLINE
  5
2AC
330
1F
100
AcDbEntity
  8
0
  6
CONTINUOUS
 62
     7
100
AcDbSpline
210
0.0
220
0.0
230
1.0
 70
    24
 71
     3
 72
    14
 73
    10
 74
     0
 42
0.000000001
 43
0.00000001
 40
0.0
 40
0.0
 40
0.0
 40
0.0
 40
0.0387394195374317
 40
0.1646946873467284
 40
0.2908144005307495
 40
0.5224628736180241
 40
0.7541115333068573
 40
0.8800666771033079
 40
1.0
 40
1.0
 40
1.0
 40
1.0
 10
412.8099740307429
 20
367.0619840662669
 30
0.0
 10
412.8124402773165
 20
367.0619840662669
 30
0.0
 10
412.822925145526
 20
367.0619840662669
 30
0.0
 10
412.7583242194347
 20
367.0619840662669
 30
0.0
 10
412.5737024232826
 20
367.0619840662669
 30
0.0
 10
412.1727683169182
 20
367.0619840662669
 30
0.0
 10
411.6121321819582
 20
367.0619840662669
 30
0.0
 10
411.1091353060915
 20
367.0619840662669
 30
0.0
 10
410.84299714685
 20
367.0619840662669
 30
0.0
 10
410.713186935673
 20
367.0619840662669
 30
0.0
  0
SPLINE
  5
2AD
330
1F
100
AcDbEntity
  8
0
  6
CONTINUOUS
 62
     7
100
AcDbSpline
210
0.0
220
0.0
230
1.0
 70
    24
 71
     3
 72
    25
 73
    21
 74
     0
 42
0.000000001
 43
0.00000001
 40
0.0
 40
0.0
 40
0.0
 40
0.0
 40
0.0256585659830416
 40
0.0511055119689546
 40
0.0764488091744752
 40
0.1017977532948626
 40
0.1272615673124723
 40
0.1529480089142587
 40
0.2312789864073235
 40
0.3097105187820371
 40
0.3849256311550635
 40
0.4602438761773484
 40
0.5378900123346732
 40
0.6156402624978962
 40
0.6932863428325408
 40
0.7710365491376121
 40
0.8462517282548696
 40
0.9215700336868438
 40
0.9609717286214325
 40
1.0
 40
1.0
 40
1.0
 40
1.0
 10
513.9025708772356
 20
367.0619840103875
 30
0.0
 10
513.8752202978604
 20
367.0619840103875
 30
0.0
 10
513.820744714052
 20
367.0619840103875
 30
0.0
 10
513.7312053778764
 20
367.0619840103875
 30
0.0
 10
513.6365029514861
 20
367.0619840103875
 30
0.0
 10
513.5360617956306
 20
367.0619840103875
 30
0.0
 10
513.4300228574828
 20
367.0619840103875
 30
0.0
 10
513.2427744038571
 20
367.0619840103875
 30
0.0
 10
512.9581335032092
 20
367.0619840103875
 30
0.0
 10
512.5708443400966
 20
367.0619840103875
 30
0.0
 10
512.1795918329822
 20
367.0619840103875
 30
0.0
 10
511.7951411121147
 20
367.0619840103875
 30
0.0
 10
511.4257686486889
 20
367.0619840103875
 30
0.0
 10
511.0888287900132
 20
367.0619840103875
 30
0.0
 10
510.7987077344983
 20
367.0619840103875
 30
0.0
 10
510.5725722245861
 20
367.0619840103875
 30
0.0
 10
510.4128395640485
 20
367.0619840103875
 30
0.0
 10
510.3415251931252
 20
367.0619840103875
 30
0.0
 10
510.3187552117977
 20
367.0619840103875
 30
0.0
 10
510.3241278413942
 20
367.0619840103875
 30
0.0
 10
510.3268013660144
 20
367.0619840103875
 30
0.0
  0
SPLINE
  5
2AE
330
1F
100
AcDbEntity
  8
0
  6
CONTINUOUS
 62
     7
100
AcDbSpline
210
0.0
220
0.0
230
1.0
 70
    24
 71
     3
 72
    18
 73
    14
 74
     0
 42
0.000000001
 43
0.00000001
 40
0.0
 40
0.0
 40
0.0
 40
0.0
 40
0.0412603004276358
 40
0.1179212512776466
 40
0.1944814485627496
 40
0.2711420893706058
 40
0.4119476840759225
 40
0.5527523922300877
 40
0.6293124762881542
 40
0.705973427138165
 40
0.7825336244232679
 40
0.8591948342611473
 40
1.0
 40
1.0
 40
1.0
 40
1.0
 10
388.8219580810168
 20
367.0619840662669
 30
0.0
 10
388.8237655640495
 20
367.0619840662669
 30
0.0
 10
388.8289313204468
 20
367.0619840662669
 30
0.0
 10
388.7446316628946
 20
367.0619840662669
 30
0.0
 10
388.5828032873143
 20
367.0619840662669
 30
0.0
 10
388.2758534537176
 20
367.0619840662669
 30
0.0
 10
387.7622778314907
 20
367.0619840662669
 30
0.0
 10
387.1360448974601
 20
367.0619840662669
 30
0.0
 10
386.6113401927964
 20
367.0619840662669
 30
0.0
 10
386.209784061185
 20
367.0619840662669
 30
0.0
 10
385.8351428832955
 20
367.0619840662669
 30
0.0
 10
385.4015744123241
 20
367.0619840662669
 30
0.0
 10
385.1882800375692
 20
367.0619840662669
 30
0.0
 10
385.05017615963
 20
367.0619840662669
 30
0.0
  0
SPLINE
  5
2AF
330
1F
100
AcDbEntity
  8
0
  6
CONTINUOUS
 62
     7
100
AcDbSpline
210
0.0
220
0.0
230
1.0
 70
    24
 71
     3
 72
    15
 73
    11
 74
     0
 42
0.000000001
 43
0.00000001
 40
0.0
 40
0.0
 40
0.0
 40
0.0
 40
0.1653142214103651
 40
0.2505100132167591
 40
0.3358146221387761
 40
0.4987710735917612
 40
0.6669387207429093
 40
0.8351063678940572
 40
0.9980628193470424
 40
1.0
 40
1.0
 40
1.0
 40
1.0
 10
496.5963386755087
 20
367.0619840662669
 30
0.0
 10
496.3921605768723
 20
367.0619840662669
 30
0.0
 10
496.0827579268667
 20
367.0619840662669
 30
0.0
 10
495.5726097380914
 20
367.0619840662669
 30
0.0
 10
495.0521759853367
 20
367.0619840662669
 30
0.0
 10
494.3974571886444
 20
367.0619840662669
 30
0.0
 10
493.7273220705678
 20
367.0619840662669
 30
0.0
 10
493.2986091924982
 20
367.0619840662669
 30
0.0
 10
493.1581163047243
 20
367.0619840662669
 30
0.0
 10
493.1827962020566
 20
367.0619840662669
 30
0.0
 10
493.1830861430266
 20
367.0619840662669
 30
0.0
  0
SPLINE
  5
2B0
330
1F
100
AcDbEntity
  8
0
  6
CONTINUOUS
 62
     7
100
AcDbSpline
210
0.0
220
0.0
230
1.0
 70
    24
 71
     3
 72
    13
 73
     9
 74
     0
 42
0.000000001
 43
0.00000001
 40
0.0
 40
0.0
 40
0.0
 40
0.0
 40
0.1334574785206673
 40
0.2670900491038677
 40
0.5125360531732626
 40
0.7579820572426575
 40
0.8914395901924168
 40
1.0
 40
1.0
 40
1.0
 40
1.0
 10
427.3199611168005
 20
367.0619840662669
 30
0.0
 10
427.3121008178199
 20
367.0619840662669
 30
0.0
 10
427.2963699073907
 20
367.0619840662669
 30
0.0
 10
427.1317526940495
 20
367.0619840662669
 30
0.0
 10
426.7692086546371
 20
367.0619840662669
 30
0.0
 10
426.2286048987621
 20
367.0619840662669
 30
0.0
 10
425.7535091349746
 20
367.0619840662669
 30
0.0
 10
425.5068258774983
 20
367.0619840662669
 30
0.0
 10
425.3961727779009
 20
367.0619840662669
 30
0.0
  0
SPLINE
  5
2B1
330
1F
100
AcDbEntity
  8
0
  6
CONTINUOUS
 62
     7
100
AcDbSpline
210
0.0
220
0.0
230
1.0
 70
    24
 71
     3
 72
    11
 73
     7
 74
     0
 42
0.000000001
 43
0.00000001
 40
0.0
 40
0.0
 40
0.0
 40
0.0
 40
0.4515870348112568
 40
0.6843133652823044
 40
0.9173399920562615
 40
1.0
 40
1.0
 40
1.0
 40
1.0
 10
465.7106394704082
 20
367.0619840662669
 30
0.0
 10
465.4482079718642
 20
367.0619840662669
 30
0.0
 10
465.0505318472614
 20
367.0619840662669
 30
0.0
 10
464.5579048936148
 20
367.0619840662669
 30
0.0
 10
464.2678456923564
 20
367.0619840662669
 30
0.0
 10
464.1496005339822
 20
367.0619840662669
 30
0.0
 10
464.1186389896669
 20
367.0619840662669
 30
0.0
  0
SPLINE
  5
2B2
330
1F
100
AcDbEntity
  8
0
  6
CONTINUOUS
 62
     7
100
AcDbSpline
210
0.0
220
0.0
230
1.0
 70
    24
 71
     3
 72
    10
 73
     6
 74
     0
 42
0.000000001
 43
0.00000001
 40
0.0
 40
0.0
 40
0.0
 40
0.0
 40
0.3052358924593305
 40
0.7926786741627085
 40
0.9999999999999999
 40
0.9999999999999999
 40
0.9999999999999999
 40
0.9999999999999999
 10
463.4352251711883
 20
367.0619840662669
 30
0.0
 10
463.431756024662
 20
367.0619840662669
 30
0.0
 10
463.4227468663786
 20
367.0619840662669
 30
0.0
 10
463.6676676192612
 20
367.0619840662669
 30
0.0
 10
463.9153542346739
 20
367.0619840662669
 30
0.0
 10
463.9892652455368
 20
367.0619840662669
 30
0.0
  0
SPLINE
  5
2B3
330
1F
100
AcDbEntity
  8
0
  6
CONTINUOUS
 62
     7
100
AcDbSpline
210
0.0
220
0.0
230
1.0
 70
    24
 71
     3
 72
    10
 73
     6
 74
     0
 42
0.000000001
 43
0.00000001
 40
0.0
 40
0.0
 40
0.0
 40
0.0
 40
0.2874879410944948
 40
0.720245513980158
 40
1.0
 40
1.0
 40
1.0
 40
1.0
 10
449.7709222893812
 20
367.0619840662669
 30
0.0
 10
449.770985400595
 20
367.0619840662669
 30
0.0
 10
449.7711435135523
 20
367.0619840662669
 30
0.0
 10
450.0591292489885
 20
367.0619840662669
 30
0.0
 10
450.402270475239
 20
367.0619840662669
 30
0.0
 10
450.5369984369376
 20
367.0619840662669
 30
0.0
  0
SPLINE
  5
2B4
330
1F
100
AcDbEntity
  8
0
  6
CONTINUOUS
 62
     7
100
AcDbSpline
210
0.0
220
0.0
230
1.0
 70
    24
 71
     3
 72
    18
 73
    14
 74
     0
 42
0.000000001
 43
0.00000001
 40
0.0
 40
0.0
 40
0.0
 40
0.0
 40
0.0412603105307606
 40
0.1179212801522088
 40
0.1944818164138598
 40
0.2711428835153244
 40
0.4119477451747517
 40
0.552752487806793
 40
0.6293125906115984
 40
0.7059735602330467
 40
0.7825344167247393
 40
0.859195076303957
 40
1.0
 40
1.0
 40
1.0
 40
1.0
 10
403.5235666494467
 20
367.0619840662669
 30
0.0
 10
403.525374148182
 20
367.0619840662669
 30
0.0
 10
403.5305399494569
 20
367.0619840662669
 30
0.0
 10
403.4462395925167
 20
367.0619840662669
 30
0.0
 10
403.2844129105105
 20
367.0619840662669
 30
0.0
 10
402.9774577295217
 20
367.0619840662669
 30
0.0
 10
402.4638859700373
 20
367.0619840662669
 30
0.0
 10
401.8376533910064
 20
367.0619840662669
 30
0.0
 10
401.3129486882044
 20
367.0619840662669
 30
0.0
 10
400.9113918774251
 20
367.0619840662669
 30
0.0
 10
400.5367489355784
 20
367.0619840662669
 30
0.0
 10
400.1031837688772
 20
367.0619840662669
 30
0.0
 10
399.8898890770543
 20
367.0619840662669
 30
0.0
 10
399.75178472806
 20
367.0619840662669
 30
0.0
  0
SPLINE
  5
2B5
330
1F
100
AcDbEntity
  8
0
  6
CONTINUOUS
 62
     7
100
AcDbSpline
210
0.0
220
0.0
230
1.0
 70
    24
 71
     3
 72
    17
 73
    13
 74
     0
 42
0.000000001
 43
0.00000001
 40
0.0
 40
0.0
 40
0.0
 40
0.0
 40
0.1402944066272317
 40
0.2125956465083228
 40
0.2849903045150938
 40
0.4232830970170437
 40
0.5659992367258971
 40
0.7087138545036114
 40
0.847007138288218
 40
0.9193087178662233
 40
0.991702653996599
 40
1.0
 40
1.0
 40
1.0
 40
1.0
 10
539.0452281396487
 20
367.0619840662669
 30
0.0
 10
538.9252757404581
 20
367.0619840662669
 30
0.0
 10
538.7435054299431
 20
367.0619840662669
 30
0.0
 10
538.3379459339843
 20
367.0619840662669
 30
0.0
 10
537.883233189163
 20
367.0619840662669
 30
0.0
 10
537.2314863885991
 20
367.0619840662669
 30
0.0
 10
536.4419569302885
 20
367.0619840662669
 30
0.0
 10
535.7678311955574
 20
367.0619840662669
 30
0.0
 10
535.3760245083096
 20
367.0619840662669
 30
0.0
 10
535.2241048644267
 20
367.0619840662669
 30
0.0
 10
535.1561650411054
 20
367.0619840662669
 30
0.0
 10
535.1836967107025
 20
367.0619840662669
 30
0.0
 10
535.1865277450182
 20
367.0619840662669
 30
0.0
  0
SPLINE
  5
2B6
330
1F
100
AcDbEntity
  8
0
  6
CONTINUOUS
 62
     7
100
AcDbSpline
210
0.0
220
0.0
230
1.0
 70
    24
 71
     3
 72
    14
 73
    10
 74
     0
 42
0.000000001
 43
0.00000001
 40
0.0
 40
0.0
 40
0.0
 40
0.0
 40
0.181438836892337
 40
0.2749442208345749
 40
0.3685693940566329
 40
0.5474200916288848
 40
0.7319901764230858
 40
0.9165601275164469
 40
1.0
 40
1.0
 40
1.0
 40
1.0
 10
479.2589605610468
 20
367.0619840662669
 30
0.0
 10
479.0252345197363
 20
367.0619840662669
 30
0.0
 10
478.671056630275
 20
367.0619840662669
 30
0.0
 10
478.1409892319464
 20
367.0619840662669
 30
0.0
 10
477.6219361418668
 20
367.0619840662669
 30
0.0
 10
477.0044692937381
 20
367.0619840662669
 30
0.0
 10
476.4585824679374
 20
367.0619840662669
 30
0.0
 10
476.1736226257659
 20
367.0619840662669
 30
0.0
 10
476.1986010340331
 20
367.0619840662669
 30
0.0
 10
476.2063775967457
 20
367.0619840662669
 30
0.0
  0
SPLINE
  5
2B7
330
1F
100
AcDbEntity
  8
0
  6
CONTINUOUS
 62
     7
100
AcDbSpline
210
0.0
220
0.0
230
1.0
 70
    24
 71
     3
 72
    26
 73
    22
 74
     0
 42
0.000000001
 43
0.00000001
 40
0.0
 40
0.0
 40
0.0
 40
0.0
 40
0.023791443992338
 40
0.0473866671471402
 40
0.070885783833913
 40
0.0943901365210571
 40
0.1180010002552389
 40
0.1418182914143072
 40
0.2144492819828919
 40
0.2871735102569407
 40
0.3569153709138771
 40
0.426752859463316
 40
0.4987488432167813
 40
0.5708413648082674
 40
0.6428372968008846
 40
0.714929777725922
 40
0.7846717002692899
 40
0.8545092448335083
 40
0.9031110488172946
 40
0.9513156440902669
 40
1.0
 40
1.0
 40
1.0
 40
1.0
 10
522.5665783969072
 20
367.0619840103875
 30
0.0
 10
522.5485338237654
 20
367.0619840103875
 30
0.0
 10
522.5125935007842
 20
367.0619840103875
 30
0.0
 10
522.4493132499992
 20
367.0619840103875
 30
0.0
 10
522.3795274660539
 20
367.0619840103875
 30
0.0
 10
522.3025644176889
 20
367.0619840103875
 30
0.0
 10
522.2185895199793
 20
367.0619840103875
 30
0.0
 10
522.0659763488655
 20
367.0619840103875
 30
0.0
 10
521.8222588850825
 20
367.0619840103875
 30
0.0
 10
521.4684919343533
 20
367.0619840103875
 30
0.0
 10
521.0922365910825
 20
367.0619840103875
 30
0.0
 10
520.7034880947576
 20
367.0619840103875
 30
0.0
 10
520.3112164773835
 20
367.0619840103875
 30
0.0
 10
519.9319251770725
 20
367.0619840103875
 30
0.0
 10
519.5829214426326
 20
367.0619840103875
 30
0.0
 10
519.2834630901328
 20
367.0619840103875
 30
0.0
 10
519.040462836716
 20
367.0619840103875
 30
0.0
 10
518.8815919507502
 20
367.0619840103875
 30
0.0
 10
518.7867200962107
 20
367.0619840103875
 30
0.0
 10
518.7365310558723
 20
367.0619840103875
 30
0.0
 10
518.7331878280089
 20
367.0619840103875
 30
0.0
 10
518.7315079368221
 20
367.0619840103875
 30
0.0
  0
SPLINE
  5
2B8
330
1F
100
AcDbEntity
  8
0
  6
CONTINUOUS
 62
     7
100
AcDbSpline
210
0.0
220
0.0
230
1.0
 70
    24
 71
     3
 72
    10
 73
     6
 74
     0
 42
0.000000001
 43
0.00000001
 40
0.0
 40
0.0
 40
0.0
 40
0.0
 40
0.1867647612785037
 40
0.5708598585345459
 40
1.0
 40
1.0
 40
1.0
 40
1.0
 10
441.5362239639857
 20
367.0619840662669
 30
0.0
 10
441.5381283840453
 20
367.0619840662669
 30
0.0
 10
441.5439493802459
 20
367.0619840662669
 30
0.0
 10
441.4728372219761
 20
367.0619840662669
 30
0.0
 10
441.3200484834658
 20
367.0619840662669
 30
0.0
 10
441.2394226353266
 20
367.0619840662669
 30
0.0
  0
SPLINE
  5
2B9
330
1F
100
AcDbEntity
  8
0
  6
CONTINUOUS
 62
     7
100
AcDbSpline
210
0.0
220
0.0
230
1.0
 70
    24
 71
     3
 72
    11
 73
     7
 74
     0
 42
0.000000001
 43
0.00000001
 40
0.0
 40
0.0
 40
0.0
 40
0.0
 40
0.1518627319352576
 40
0.5663378968139252
 40
0.7830299281333676
 40
1.0
 40
1.0
 40
1.0
 40
1.0
 10
502.9603154223062
 20
367.0619840662669
 30
0.0
 10
502.8840475289508
 20
367.0619840662669
 30
0.0
 10
502.5996235773532
 20
367.0619840662669
 30
0.0
 10
502.3873908542941
 20
367.0619840662669
 30
0.0
 10
502.262827133545
 20
367.0619840662669
 30
0.0
 10
502.2699274768561
 20
367.0619840662669
 30
0.0
 10
502.2734799246885
 20
367.0619840662669
 30
0.0
  0
SPLINE
  5
2BA
330
1F
100
AcDbEntity
  8
0
  6
CONTINUOUS
 62
     7
100
AcDbSpline
210
0.0
220
0.0
230
1.0
 70
    24
 71
     3
 72
    18
 73
    14
 74
     0
 42
0.000000001
 43
0.00000001
 40
0.0
 40
0.0
 40
0.0
 40
0.0
 40
0.0412606739832895
 40
0.1179211699691207
 40
0.1944817226044414
 40
0.2711428061010758
 40
0.411947697873828
 40
0.5527530450914833
 40
0.6293131619288287
 40
0.7059741479454259
 40
0.7825342392145148
 40
0.8591953227111492
 40
1.0
 40
1.0
 40
1.0
 40
1.0
 10
418.2251752178767
 20
367.0619840662669
 30
0.0
 10
418.2269811414646
 20
367.0619840662669
 30
0.0
 10
418.232142390708
 20
367.0619840662669
 30
0.0
 10
418.1478497698935
 20
367.0619840662669
 30
0.0
 10
417.9860209717313
 20
367.0619840662669
 30
0.0
 10
417.679066533001
 20
367.0619840662669
 30
0.0
 10
417.1654938850866
 20
367.0619840662669
 30
0.0
 10
416.5392591452544
 20
367.0619840662669
 30
0.0
 10
416.0145535125267
 20
367.0619840662669
 30
0.0
 10
415.612998231407
 20
367.0619840662669
 30
0.0
 10
415.2383550515423
 20
367.0619840662669
 30
0.0
 10
414.8047945319026
 20
367.0619840662669
 30
0.0
 10
414.5914982928639
 20
367.0619840662669
 30
0.0
 10
414.4533932964899
 20
367.0619840662669
 30
0.0
  0
SPLINE
  5
2BB
330
1F
100
AcDbEntity
  8
0
  6
CONTINUOUS
 62
     7
100
AcDbSpline
210
0.0
220
0.0
230
1.0
 70
    24
 71
     3
 72
    19
 73
    15
 74
     0
 42
0.000000001
 43
0.00000001
 40
0.0
 40
0.0
 40
0.0
 40
0.0
 40
0.0397677168918531
 40
0.1107765867348068
 40
0.1818792016093418
 40
0.2528878340412259
 40
0.3239905303011676
 40
0.4545866488074077
 40
0.5851816422188744
 40
0.6561908290886388
 40
0.7272936069116945
 40
0.7983023556271805
 40
0.8694050309895965
 40
0.9999999999999999
 40
0.9999999999999999
 40
0.9999999999999999
 40
0.9999999999999999
 10
382.6287821691134
 20
367.0619840662669
 30
0.0
 10
382.6380214080703
 20
367.0619840662669
 30
0.0
 10
382.6637581472061
 20
367.0619840662669
 30
0.0
 10
382.5658917354627
 20
367.0619840662669
 30
0.0
 10
382.404190830802
 20
367.0619840662669
 30
0.0
 10
382.1626085955112
 20
367.0619840662669
 30
0.0
 10
381.7753038564563
 20
367.0619840662669
 30
0.0
 10
381.1889292095184
 20
367.0619840662669
 30
0.0
 10
380.5390805738945
 20
367.0619840662669
 30
0.0
 10
380.0264747512751
 20
367.0619840662669
 30
0.0
 10
379.6518372626194
 20
367.0619840662669
 30
0.0
 10
379.3198573322109
 20
367.0619840662669
 30
0.0
 10
378.9586245057965
 20
367.0619840662669
 30
0.0
 10
378.8180282050874
 20
367.0619840662669
 30
0.0
 10
378.7269950668909
 20
367.0619840662669
 30
0.0
  0
SPLINE
  5
2BC
330
1F
100
AcDbEntity
  8
0
  6
CONTINUOUS
 62
     7
100
AcDbSpline
210
0.0
220
0.0
230
1.0
 70
    24
 71
     3
 72
     9
 73
     5
 74
     0
 42
0.000000001
 43
0.00000001
 40
0.0
 40
0.0
 40
0.0
 40
0.0
 40
0.7462160099994585
 40
1.0
 40
1.0
 40
1.0
 40
1.0
 10
489.52064521719
 20
367.0619840662669
 30
0.0
 10
489.3578585293154
 20
367.0619840662669
 30
0.0
 10
489.1397089778541
 20
367.0619840662669
 30
0.0
 10
488.8292140201836
 20
367.0619840662669
 30
0.0
 10
488.7504153709509
 20
367.0619840662669
 30
0.0
  0
SPLINE
  5
2BD
330
1F
100
AcDbEntity
  8
0
  6
CONTINUOUS
 62
     7
100
AcDbSpline
210
0.0
220
0.0
230
1.0
 70
    24
 71
     3
 72
    11
 73
     7
 74
     0
 42
0.000000001
 43
0.00000001
 40
0.0
 40
0.0
 40
0.0
 40
0.0
 40
0.4178613942547527
 40
0.6450663057945708
 40
0.8725696273159882
 40
1.0
 40
1.0
 40
1.0
 40
1.0
 10
463.1294705729582
 20
367.0619840662669
 30
0.0
 10
462.8765636656355
 20
367.0619840662669
 30
0.0
 10
462.4861429982572
 20
367.0619840662669
 30
0.0
 10
461.9891237964459
 20
367.0619840662669
 30
0.0
 10
461.6801004670818
 20
367.0619840662669
 30
0.0
 10
461.525981369457
 20
367.0619840662669
 30
0.0
 10
461.4706486288109
 20
367.0619840662669
 30
0.0
  0
SPLINE
  5
2BE
330
1F
100
AcDbEntity
  8
0
  6
CONTINUOUS
 62
     7
100
AcDbSpline
210
0.0
220
0.0
230
1.0
 70
    24
 71
     3
 72
    11
 73
     7
 74
     0
 42
0.000000001
 43
0.00000001
 40
0.0
 40
0.0
 40
0.0
 40
0.0
 40
0.2811415370341083
 40
0.5422231330679331
 40
0.8036471368855765
 40
0.9999999999999999
 40
0.9999999999999999
 40
0.9999999999999999
 40
0.9999999999999999
 10
460.8510330260382
 20
367.0619840662669
 30
0.0
 10
460.8456507693347
 20
367.0619840662669
 30
0.0
 10
460.835270289369
 20
367.0619840662669
 30
0.0
 10
460.9848529657392
 20
367.0619840662669
 30
0.0
 10
461.1656746969136
 20
367.0619840662669
 30
0.0
 10
461.3316389689033
 20
367.0619840662669
 30
0.0
 10
461.4028255279758
 20
367.0619840662669
 30
0.0
  0
SPLINE
  5
2BF
330
1F
100
AcDbEntity
  8
0
  6
CONTINUOUS
 62
     7
100
AcDbSpline
210
0.0
220
0.0
230
1.0
 70
    24
 71
     3
 72
    18
 73
    14
 74
     0
 42
0.000000001
 43
0.00000001
 40
0.0
 40
0.0
 40
0.0
 40
0.0
 40
0.0412604997245754
 40
0.1179212464048886
 40
0.1944816445975231
 40
0.2711425300121788
 40
0.4119477087371327
 40
0.5527527303310974
 40
0.6293128528406937
 40
0.7059737705410798
 40
0.7825340086188098
 40
0.8591950977951757
 40
1.0
 40
1.0
 40
1.0
 40
1.0
 10
432.9267819236615
 20
367.0619840662669
 30
0.0
 10
432.9285886268422
 20
367.0619840662669
 30
0.0
 10
432.9337521292811
 20
367.0619840662669
 30
0.0
 10
432.8494559947697
 20
367.0619840662669
 30
0.0
 10
432.6876273884484
 20
367.0619840662669
 30
0.0
 10
432.3806754568088
 20
367.0619840662669
 30
0.0
 10
431.8671009702359
 20
367.0619840662669
 30
0.0
 10
431.2408671233109
 20
367.0619840662669
 30
0.0
 10
430.7161623885456
 20
367.0619840662669
 30
0.0
 10
430.3146060618269
 20
367.0619840662669
 30
0.0
 10
429.9399640804203
 20
367.0619840662669
 30
0.0
 10
429.5064028163262
 20
367.0619840662669
 30
0.0
 10
429.2931056640877
 20
367.0619840662669
 30
0.0
 10
429.1550000022747
 20
367.0619840662669
 30
0.0
  0
SPLINE
  5
2C0
330
1F
100
AcDbEntity
  8
0
  6
CONTINUOUS
 62
     7
100
AcDbSpline
210
0.0
220
0.0
230
1.0
 70
     8
 71
     3
 72
    36
 73
    32
 74
     0
 42
0.000000001
 43
0.00000001
 40
0.0
 40
0.0
 40
0.0
 40
0.0
 40
0.03125
 40
0.03125
 40
0.0625
 40
0.0625
 40
0.125
 40
0.125
 40
0.1874999999999999
 40
0.1874999999999999
 40
0.2499999999999999
 40
0.2499999999999999
 40
0.3749999999999999
 40
0.3749999999999999
 40
0.5
 40
0.5
 40
0.625
 40
0.625
 40
0.7499999999999999
 40
0.7499999999999999
 40
0.8124999999999998
 40
0.8124999999999998
 40
0.8749999999999997
 40
0.8749999999999997
 40
0.9062499999999998
 40
0.9062499999999998
 40
0.9374999999999999
 40
0.9374999999999999
 40
0.96875
 40
0.96875
 40
1.0
 40
1.0
 40
1.0
 40
1.0
 10
465.9956466921963
 20
386.0619840103875
 30
0.0
 10
465.9956466921963
 20
385.928825012899
 30
0.0
 10
465.9412277547486
 20
385.8034478490607
 30
0.0
 10
465.7823712474504
 20
385.5931149411398
 30
0.0
 10
465.6818497036397
 20
385.5077016412606
 30
0.0
 10
465.3561348965761
 20
385.2849334671561
 30
0.0
 10
465.1150741502273
 20
385.1844825239162
 30
0.0
 10
464.6186000683337
 20
385.0192939602575
 30
0.0
 10
464.3659497235054
 20
384.9583542922941
 30
0.0
 10
463.8587661608578
 20
384.8593680844555
 30
0.0
 10
463.6035254115747
 20
384.8216529009812
 30
0.0
 10
462.8347830118173
 20
384.7300790910559
 30
0.0
 10
462.3181028248351
 20
384.6972005550268
 30
0.0
 10
461.2823622012328
 20
384.6557884710742
 30
0.0
 10
460.7643512613424
 20
384.6477153615279
 30
0.0
 10
459.7281484118628
 20
384.6478260509009
 30
0.0
 10
459.2097814571136
 20
384.6560200965116
 30
0.0
 10
458.1743936459771
 20
384.6977596849297
 30
0.0
 10
457.656644958934
 20
384.7308654398834
 30
0.0
 10
456.8850962153829
 20
384.8235222594272
 30
0.0
 10
456.6284145892913
 20
384.8617987310783
 30
0.0
 10
456.1201639919395
 20
384.9620130918901
 30
0.0
 10
455.8674119798941
 20
385.0238662015403
 30
0.0
 10
455.5001466459432
 20
385.1473010227041
 30
0.0
 10
455.3796740989317
 20
385.1936045979349
 30
0.0
 10
455.144637154845
 20
385.3018476522761
 30
0.0
 10
455.0294955449326
 20
385.3639713992231
 30
0.0
 10
454.8158007189306
 20
385.5114977902277
 30
0.0
 10
454.7163308305421
 20
385.5969395146986
 30
0.0
 10
454.5607137103869
 20
385.8045307879146
 30
0.0
 10
454.5065213991203
 20
385.9304033367931
 30
0.0
 10
454.5065213991203
 20
386.0619840103875
 30
0.0
  0
SPLINE
  5
2C1
330
1F
100
AcDbEntity
  8
0
  6
CONTINUOUS
 62
     7
100
AcDbSpline
210
0.0
220
0.0
230
1.0
 70
    24
 71
     3
 72
    16
 73
    12
 74
     0
 42
0.000000001
 43
0.00000001
 40
0.0
 40
0.0
 40
0.0
 40
0.0
 40
0.0468748425120962
 40
0.0938090406622948
 40
0.1408293211878545
 40
0.3203812341634907
 40
0.5000004483070336
 40
0.6795523620692636
 40
0.8591715762170581
 40
0.9296586271257663
 40
1.0
 40
1.0
 40
1.0
 40
1.0
 10
464.156510453876
 20
384.5619840103875
 30
0.0
 10
464.0369270669306
 20
384.5619840103875
 30
0.0
 10
463.7976088696355
 20
384.5619840103875
 30
0.0
 10
463.4357073472076
 20
384.5619840103875
 30
0.0
 10
462.729682336287
 20
384.5619840103875
 30
0.0
 10
461.6692409347729
 20
384.5619840103875
 30
0.0
 10
460.251283344848
 20
384.5619840103875
 30
0.0
 10
458.8330156963099
 20
384.5619840103875
 30
0.0
 10
457.7116259090361
 20
384.5619840103875
 30
0.0
 10
456.884862762701
 20
384.5619840103875
 30
0.0
 10
456.5252504130559
 20
384.5619840103875
 30
0.0
 10
456.3456302362685
 20
384.5619840103875
 30
0.0
  0
SPLINE
  5
2C2
330
1F
100
AcDbEntity
  8
0
  6
CONTINUOUS
 62
     7
100
AcDbSpline
210
0.0
220
0.0
230
1.0
 70
    24
 71
     3
 72
    10
 73
     6
 74
     0
 42
0.000000001
 43
0.00000001
 40
0.0
 40
0.0
 40
0.0
 40
0.0
 40
0.5000000000000002
 40
0.5000000000000002
 40
0.9999999999999999
 40
0.9999999999999999
 40
0.9999999999999999
 40
0.9999999999999999
 10
444.2510840456583
 20
392.5619840103875
 30
0.0
 10
444.2510840456582
 20
392.5619840103875
 30
0.0
 10
445.9368784103855
 20
392.5619840103875
 30
0.0
 10
451.9378726829613
 20
392.5619840103875
 30
0.0
 10
456.0077403016583
 20
392.5619840103875
 30
0.0
 10
460.2510840456583
 20
392.5619840103875
 30
0.0
  0
SPLINE
  5
2C3
330
1F
100
AcDbEntity
  8
0
  6
CONTINUOUS
 62
     7
100
AcDbSpline
210
0.0
220
0.0
230
1.0
 70
     8
 71
     3
 72
    22
 73
    18
 74
     0
 42
0.000000001
 43
0.00000001
 40
0.0
 40
0.0
 40
0.0
 40
0.0
 40
0.0312499999999997
 40
0.0312499999999997
 40
0.0624999999999993
 40
0.0624999999999993
 40
0.1249999999999999
 40
0.1249999999999999
 40
0.2500000000000001
 40
0.2500000000000001
 40
0.3750000000000003
 40
0.3750000000000003
 40
0.5000000000000003
 40
0.5000000000000003
 40
0.7500000000000001
 40
0.7500000000000001
 40
1.0
 40
1.0
 40
1.0
 40
1.0
 10
454.5065213991203
 20
391.5619840103875
 30
0.0
 10
454.5065213991203
 20
391.627097480604
 30
0.0
 10
454.526069901156
 20
391.6901772156582
 30
0.0
 10
454.5885314786493
 20
391.8019841657746
 30
0.0
 10
454.6312051994803
 20
391.8517285242833
 30
0.0
 10
454.7714695347265
 20
391.9822611558915
 30
0.0
 10
454.883512015111
 20
392.048762271135
 30
0.0
 10
455.2258243562505
 20
392.2143477162159
 30
0.0
 10
455.473242395419
 20
392.2848068588102
 30
0.0
 10
455.9675952698208
 20
392.3938118439476
 30
0.0
 10
456.216752434012
 20
392.4309660170092
 30
0.0
 10
456.7170830591489
 20
392.4876145036526
 30
0.0
 10
456.9682996326457
 20
392.5067312132965
 30
0.0
 10
457.7237321211322
 20
392.5484668587811
 30
0.0
 10
458.2296855816428
 20
392.5559876560948
 30
0.0
 10
459.2403593838612
 20
392.562837761402
 30
0.0
 10
459.7457245329209
 20
392.5619840103875
 30
0.0
 10
460.2510840456583
 20
392.5619840103875
 30
0.0
  0
SPLINE
  5
2C4
330
1F
100
AcDbEntity
  8
0
  6
CONTINUOUS
 62
     7
100
AcDbSpline
210
0.0
220
0.0
230
1.0
 70
     8
 71
     3
 72
    22
 73
    18
 74
     0
 42
0.000000001
 43
0.00000001
 40
0.0
 40
0.0
 40
0.0
 40
0.0
 40
0.2500000000000003
 40
0.2500000000000003
 40
0.5000000000000006
 40
0.5000000000000006
 40
0.6250000000000006
 40
0.6250000000000006
 40
0.7500000000000004
 40
0.7500000000000004
 40
0.8750000000000002
 40
0.8750000000000002
 40
0.9375000000000002
 40
0.9375000000000002
 40
0.9687500000000002
 40
0.9687500000000002
 40
1.0
 40
1.0
 40
1.0
 40
1.0
 10
460.2510840456583
 20
392.5619840103875
 30
0.0
 10
460.7572178232332
 20
392.5619840103875
 30
0.0
 10
461.2633549435434
 20
392.5628430673111
 30
0.0
 10
462.2755956793198
 20
392.5559506970544
 30
0.0
 10
462.7817837765085
 20
392.5484273241526
 30
0.0
 10
463.5398018817596
 20
392.5063295965921
 30
0.0
 10
463.7922653896241
 20
392.4870128273444
 30
0.0
 10
464.2949966698044
 20
392.4296627796436
 30
0.0
 10
464.5456638796752
 20
392.3919055796198
 30
0.0
 10
465.0396848279005
 20
392.2818708067745
 30
0.0
 10
465.2834048156096
 20
392.2120546128563
 30
0.0
 10
465.6258077382344
 20
392.0447149712577
 30
0.0
 10
465.7360010359679
 20
391.9783204221955
 30
0.0
 10
465.873623231249
 20
391.8487266512346
 30
0.0
 10
465.9154305738341
 20
391.7994306175187
 30
0.0
 10
465.9766573663294
 20
391.6884930015773
 30
0.0
 10
465.9956466921963
 20
391.6262242595533
 30
0.0
 10
465.9956466921963
 20
391.5619840103875
 30
0.0
  0
SPLINE
  5
2C5
330
1F
100
AcDbEntity
  8
0
  6
CONTINUOUS
 62
     7
100
AcDbSpline
210
0.0
220
0.0
230
1.0
 70
    24
 71
     3
 72
    10
 73
     6
 74
     0
 42
0.000000001
 43
0.00000001
 40
0.0
 40
0.0
 40
0.0
 40
0.0
 40
0.5
 40
0.5
 40
1.0
 40
1.0
 40
1.0
 40
1.0
 10
460.2510840456583
 20
392.5619840103875
 30
0.0
 10
464.4944277896583
 20
392.5619840103875
 30
0.0
 10
468.564295408355
 20
392.5619840103875
 30
0.0
 10
474.5652896809309
 20
392.5619840103875
 30
0.0
 10
476.2510840456583
 20
392.5619840103875
 30
0.0
 10
476.2510840456583
 20
392.5619840103875
 30
0.0
  0
SPLINE
  5
2C6
330
1F
100
AcDbEntity
  8
0
  6
CONTINUOUS
 62
     7
100
AcDbSpline
210
0.0
220
0.0
230
1.0
 70
    24
 71
     3
 72
     9
 73
     5
 74
     0
 42
0.000000001
 43
0.00000001
 40
0.0
 40
0.0
 40
0.0
 40
0.0
 40
0.0900515516091595
 40
1.0
 40
1.0
 40
1.0
 40
1.0
 10
394.3316773336031
 20
367.0619840662669
 30
0.0
 10
394.3155169609069
 20
367.0619840662669
 30
0.0
 10
394.1360600564178
 20
367.0619840662669
 30
0.0
 10
394.0576915115991
 20
367.0619840662669
 30
0.0
 10
393.9863801758386
 20
367.0619840662669
 30
0.0
  0
LINE
  5
2C7
330
1F
100
AcDbEntity
  8
0
  6
CONTINUOUS
 62
     7
100
AcDbLine
 10
465.99564653
 20
391.5619838912
 30
0.0
 11
465.99564653
 21
386.061983921
 31
0.0
  0
LINE
  5
2C8
330
1F
100
AcDbEntity
  8
0
  6
CONTINUOUS
 62
     7
100
AcDbLine
 10
454.5065215613
 20
386.061983921
 30
0.0
 11
454.5065215613
 21
391.5619838912
 31
0.0
  0
SPLINE
  5
2C9
330
1F
100
AcDbEntity
  8
0
  6
CONTINUOUS
 62
     7
100
AcDbSpline
210
0.0
220
0.0
230
1.0
 70
    24
 71
     3
 72
    14
 73
    10
 74
     0
 42
0.000000001
 43
0.00000001
 40
0.0
 40
0.0
 40
0.0
 40
0.0
 40
0.2499999999999999
 40
0.2499999999999999
 40
0.4999999999999999
 40
0.4999999999999999
 40
0.7499999999999999
 40
0.7499999999999999
 40
0.9999999999999999
 40
0.9999999999999999
 40
0.9999999999999999
 40
0.9999999999999999
 10
445.7510840456583
 20
404.5619840103875
 30
0.0
 10
445.7510840456583
 20
404.5619840103875
 30
0.0
 10
447.2788351886925
 20
404.5619840103875
 30
0.0
 10
452.7172362482143
 20
404.5619840103875
 30
0.0
 10
456.4055537776583
 20
404.5619840103875
 30
0.0
 10
464.0966143136583
 20
404.5619840103875
 30
0.0
 10
467.7849318431023
 20
404.5619840103875
 30
0.0
 10
473.2233329026242
 20
404.5619840103875
 30
0.0
 10
474.7510840456583
 20
404.5619840103875
 30
0.0
 10
474.7510840456583
 20
404.5619840103875
 30
0.0
  0
SPLINE
  5
2CA
330
1F
100
AcDbEntity
  8
0
  6
CONTINUOUS
 62
     7
100
AcDbSpline
210
0.0
220
0.0
230
1.0
 70
    24
 71
     3
 72
    28
 73
    24
 74
     0
 42
0.000000001
 43
0.00000001
 40
0.0
 40
0.0
 40
0.0
 40
0.0
 40
0.0208402552404581
 40
0.0415086296850239
 40
0.0620928191042688
 40
0.0826815950291976
 40
0.1033636699323496
 40
0.1242265661523247
 40
0.1878481093568178
 40
0.2515513246801919
 40
0.3126421175530431
 40
0.3738166762421734
 40
0.4368819814936348
 40
0.5000318496344279
 40
0.5630971095463287
 40
0.6262469420643931
 40
0.6873377891449304
 40
0.7485123969026448
 40
0.8121339289364213
 40
0.8758371330760811
 40
0.91732502662048
 40
0.9584757526429974
 40
1.0
 40
1.0
 40
1.0
 40
1.0
 10
543.6119318459487
 20
367.0619840103875
 30
0.0
 10
543.6043270859346
 20
367.0619840103875
 30
0.0
 10
543.5891802864533
 20
367.0619840103875
 30
0.0
 10
543.5561352519475
 20
367.0619840103875
 30
0.0
 10
543.5156510079
 20
367.0619840103875
 30
0.0
 10
543.467001938435
 20
367.0619840103875
 30
0.0
 10
543.4103675327148
 20
367.0619840103875
 30
0.0
 10
543.3019788916336
 20
367.0619840103875
 30
0.0
 10
543.1144985208177
 20
367.0619840103875
 30
0.0
 10
542.8164822968572
 20
367.0619840103875
 30
0.0
 10
542.478865497132
 20
367.0619840103875
 30
0.0
 10
542.1102461990679
 20
367.0619840103875
 30
0.0
 10
541.7197214645707
 20
367.0619840103875
 30
0.0
 10
541.3219178743169
 20
367.0619840103875
 30
0.0
 10
540.9359349779494
 20
367.0619840103875
 30
0.0
 10
540.5820647102931
 20
367.0619840103875
 30
0.0
 10
540.2707223207492
 20
367.0619840103875
 30
0.0
 10
540.0108860268449
 20
367.0619840103875
 30
0.0
 10
539.8082710988591
 20
367.0619840103875
 30
0.0
 10
539.6929279042271
 20
367.0619840103875
 30
0.0
 10
539.6415978619639
 20
367.0619840103875
 30
0.0
 10
539.6299332147386
 20
367.0619840103875
 30
0.0
 10
539.650796171052
 20
367.0619840103875
 30
0.0
 10
539.6612747780977
 20
367.0619840103875
 30
0.0
  0
LINE
  5
2CB
330
1F
100
AcDbEntity
  8
0
  6
CONTINUOUS
 62
     7
100
AcDbLine
 10
454.6833196479
 20
377.5619843904
 30
0.0
 11
454.6833196479
 21
384.5619836751
 31
0.0
  0
LINE
  5
2CC
330
1F
100
AcDbEntity
  8
0
  6
CONTINUOUS
 62
     7
100
AcDbLine
 10
465.8188484434
 20
384.5619836751
 30
0.0
 11
464.1564923629
 21
384.5619836751
 31
0.0
  0
LINE
  5
2CD
330
1F
100
AcDbEntity
  8
0
  6
CONTINUOUS
 62
     7
100
AcDbLine
 10
465.8188484434
 20
384.5619836751
 30
0.0
 11
465.8188484434
 21
377.5619843904
 31
0.0
  0
LINE
  5
2CE
330
1F
100
AcDbEntity
  8
0
  6
CONTINUOUS
 62
     7
100
AcDbLine
 10
456.3456498842
 20
384.5619836751
 30
0.0
 11
454.6833196479
 21
384.5619836751
 31
0.0
  0
LINE
  5
2CF
330
1F
100
AcDbEntity
  8
0
  6
CONTINUOUS
 62
     7
100
AcDbLine
 10
454.6833196479
 20
384.5619836751
 30
0.0
 11
444.2510832857
 21
384.5619836751
 31
0.0
  0
LINE
  5
2D0
330
1F
100
AcDbEntity
  8
0
  6
CONTINUOUS
 62
     7
100
AcDbLine
 10
476.2510848056
 20
384.5619836751
 30
0.0
 11
465.8188484434
 21
384.5619836751
 31
0.0
  0
SPLINE
  5
2D1
330
1F
100
AcDbEntity
  8
0
  6
CONTINUOUS
 62
     7
100
AcDbSpline
210
0.0
220
0.0
230
1.0
 70
    24
 71
     3
 72
    16
 73
    12
 74
     0
 42
0.000000001
 43
0.00000001
 40
0.0
 40
0.0
 40
0.0
 40
0.0
 40
0.0682456109719491
 40
0.1416122805016304
 40
0.2817636208781261
 40
0.4263963520652548
 40
0.5710292285462721
 40
0.7111811769689859
 40
0.7844541501145788
 40
0.8578207405705202
 40
1.0
 40
1.0
 40
1.0
 40
1.0
 10
527.0314947526552
 20
367.0619840662669
 30
0.0
 10
526.9607539214641
 20
367.0619840662669
 30
0.0
 10
526.8139639625657
 20
367.0619840662669
 30
0.0
 10
526.4225798766398
 20
367.0619840662669
 30
0.0
 10
525.8191498813383
 20
367.0619840662669
 30
0.0
 10
525.0183565814069
 20
367.0619840662669
 30
0.0
 10
524.2682100323182
 20
367.0619840662669
 30
0.0
 10
523.777659014312
 20
367.0619840662669
 30
0.0
 10
523.5128169183034
 20
367.0619840662669
 30
0.0
 10
523.3332245582928
 20
367.0619840662669
 30
0.0
 10
523.3520187419693
 20
367.0619840662669
 30
0.0
 10
523.3644158403971
 20
367.0619840662669
 30
0.0
  0
LINE
  5
2D2
330
1F
100
AcDbEntity
  8
0
  6
CONTINUOUS
 62
     7
100
AcDbLine
 10
464.4269072275
 20
419.0619837422
 30
0.0
 11
456.0752608638
 21
419.0619837422
 31
0.0
  0
LINE
  5
2D3
330
1F
100
AcDbEntity
  8
0
  6
CONTINUOUS
 62
     7
100
AcDbLine
 10
464.4269072275
 20
425.5619857389
 30
0.0
 11
464.4269072275
 21
419.0619837422
 31
0.0
  0
LINE
  5
2D4
330
1F
100
AcDbEntity
  8
0
  6
CONTINUOUS
 62
     7
100
AcDbLine
 10
472.25108415
 20
425.5619857389
 30
0.0
 11
464.4269072275
 21
425.5619857389
 31
0.0
  0
LINE
  5
2D5
330
1F
100
AcDbEntity
  8
0
  6
CONTINUOUS
 62
     7
100
AcDbLine
 10
456.0752608638
 20
425.5619857389
 30
0.0
 11
448.2510839414
 21
425.5619857389
 31
0.0
  0
LINE
  5
2D6
330
1F
100
AcDbEntity
  8
0
  6
CONTINUOUS
 62
     7
100
AcDbLine
 10
456.0752608638
 20
419.0619837422
 30
0.0
 11
456.0752608638
 21
425.5619857389
 31
0.0
  0
LINE
  5
2D7
330
1F
100
AcDbEntity
  8
0
  6
CONTINUOUS
 62
     7
100
AcDbLine
 10
457.8662360843
 20
426.0619830269
 30
0.0
 11
448.7510840233
 21
426.0619830269
 31
0.0
  0
SPLINE
  5
2D8
330
1F
100
AcDbEntity
  8
0
  6
CONTINUOUS
 62
     7
100
AcDbSpline
210
0.0
220
0.0
230
1.0
 70
     8
 71
     3
 72
     8
 73
     4
 74
     0
 42
0.000000001
 43
0.00000001
 40
0.0
 40
0.0
 40
0.0
 40
0.0
 40
1.0
 40
1.0
 40
1.0
 40
1.0
 10
456.0752607739208
 20
425.561984009487
 30
0.0
 10
456.6618000261893
 20
425.7660910310777
 30
0.0
 10
457.2579326116972
 20
425.9358352074935
 30
0.0
 10
457.8662360448083
 20
426.061984009768
 30
0.0
  0
SPLINE
  5
2D9
330
1F
100
AcDbEntity
  8
0
  6
CONTINUOUS
 62
     7
100
AcDbSpline
210
0.0
220
0.0
230
1.0
 70
     8
 71
     3
 72
     8
 73
     4
 74
     0
 42
0.000000001
 43
0.00000001
 40
0.0
 40
0.0
 40
0.0
 40
0.0
 40
1.0
 40
1.0
 40
1.0
 40
1.0
 10
462.6359320488106
 20
426.0619840103217
 30
0.0
 10
463.2442354812176
 20
425.9358352080426
 30
0.0
 10
463.8403680659886
 20
425.7660910316914
 30
0.0
 10
464.426907317593
 20
425.5619840102916
 30
0.0
  0
LINE
  5
2DA
330
1F
100
AcDbEntity
  8
0
  6
CONTINUOUS
 62
     7
100
AcDbLine
 10
457.8662360843
 20
426.0619830269
 30
0.0
 11
462.635932007
 21
426.0619830269
 31
0.0
  0
LINE
  5
2DB
330
1F
100
AcDbEntity
  8
0
  6
CONTINUOUS
 62
     7
100
AcDbLine
 10
471.751084068
 20
426.0619830269
 30
0.0
 11
462.635932007
 21
426.0619830269
 31
0.0
  0
SPLINE
  5
2DC
330
1F
100
AcDbEntity
  8
0
  6
CONTINUOUS
 62
     7
100
AcDbSpline
210
0.0
220
0.0
230
1.0
 70
    24
 71
     3
 72
    14
 73
    10
 74
     0
 42
0.000000001
 43
0.00000001
 40
0.0
 40
0.0
 40
0.0
 40
0.0
 40
0.1422847771656167
 40
0.3150054490384985
 40
0.4877254786497209
 40
0.6550938013374685
 40
0.7425956909670236
 40
0.8302098665458802
 40
1.0
 40
1.0
 40
1.0
 40
1.0
 10
510.1070836942293
 20
367.0619840662669
 30
0.0
 10
509.9156602040928
 20
367.0619840662669
 30
0.0
 10
509.4918661505886
 20
367.0619840662669
 30
0.0
 10
508.7189600618003
 20
367.0619840662669
 30
0.0
 10
507.9720217622574
 20
367.0619840662669
 30
0.0
 10
507.480714536739
 20
367.0619840662669
 30
0.0
 10
507.2159824864794
 20
367.0619840662669
 30
0.0
 10
507.0363566647696
 20
367.0619840662669
 30
0.0
 10
507.0551579504406
 20
367.0619840662669
 30
0.0
 10
507.0675597350694
 20
367.0619840662669
 30
0.0
  0
SPLINE
  5
2DD
330
1F
100
AcDbEntity
  8
0
  6
CONTINUOUS
 62
     7
100
AcDbSpline
210
0.0
220
0.0
230
1.0
 70
    24
 71
     3
 72
    10
 73
     6
 74
     0
 42
0.000000001
 43
0.00000001
 40
0.0
 40
0.0
 40
0.0
 40
0.0
 40
0.3601383023290178
 40
0.695568992814903
 40
1.0
 40
1.0
 40
1.0
 40
1.0
 10
413.4248145680525
 20
367.0619840662669
 30
0.0
 10
413.4296973958193
 20
367.0619840662669
 30
0.0
 10
413.4391280605663
 20
367.0619840662669
 30
0.0
 10
413.3004670383291
 20
367.0619840662669
 30
0.0
 10
413.1622526725736
 20
367.0619840662669
 30
0.0
 10
413.0964935581782
 20
367.0619840662669
 30
0.0
  0
SPLINE
  5
2DE
330
1F
100
AcDbEntity
  8
0
  6
CONTINUOUS
 62
     7
100
AcDbSpline
210
0.0
220
0.0
230
1.0
 70
    24
 71
     3
 72
    18
 73
    14
 74
     0
 42
0.000000001
 43
0.00000001
 40
0.0
 40
0.0
 40
0.0
 40
0.0
 40
0.0412604044375405
 40
0.1179213468167385
 40
0.1944815725916884
 40
0.2711425475680971
 40
0.4119475654064029
 40
0.5527524451654
 40
0.6293127303445488
 40
0.7059737097218993
 40
0.782533864928497
 40
0.8591949821616941
 40
0.9999999999999999
 40
0.9999999999999999
 40
0.9999999999999999
 40
0.9999999999999999
 10
447.6283895607688
 20
367.0619840662669
 30
0.0
 10
447.6301966490677
 20
367.0619840662669
 30
0.0
 10
447.6353612684875
 20
367.0619840662669
 30
0.0
 10
447.5510634744379
 20
367.0619840662669
 30
0.0
 10
447.3892350033705
 20
367.0619840662669
 30
0.0
 10
447.0822819583394
 20
367.0619840662669
 30
0.0
 10
446.5687087004684
 20
367.0619840662669
 30
0.0
 10
445.942475272061
 20
367.0619840662669
 30
0.0
 10
445.4177700464009
 20
367.0619840662669
 30
0.0
 10
445.0162141374216
 20
367.0619840662669
 30
0.0
 10
444.6415716469463
 20
367.0619840662669
 30
0.0
 10
444.2080088901253
 20
367.0619840662669
 30
0.0
 10
443.9947121349473
 20
367.0619840662669
 30
0.0
 10
443.8566067080595
 20
367.0619840662669
 30
0.0
  0
SPLINE
  5
2DF
330
1F
100
AcDbEntity
  8
0
  6
CONTINUOUS
 62
     7
100
AcDbSpline
210
0.0
220
0.0
230
1.0
 70
    24
 71
     3
 72
    10
 73
     6
 74
     0
 42
0.000000001
 43
0.00000001
 40
0.0
 40
0.0
 40
0.0
 40
0.0
 40
0.5458715090165285
 40
0.8271882023720988
 40
1.0
 40
1.0
 40
1.0
 40
1.0
 10
494.7213590900996
 20
367.0619840662669
 30
0.0
 10
494.6513299296445
 20
367.0619840662669
 30
0.0
 10
494.5452110089944
 20
367.0619840662669
 30
0.0
 10
494.2586758917662
 20
367.0619840662669
 30
0.0
 10
494.0930634161509
 20
367.0619840662669
 30
0.0
 10
494.0300420682528
 20
367.0619840662669
 30
0.0
  0
SPLINE
  5
2E0
330
1F
100
AcDbEntity
  8
0
  6
CONTINUOUS
 62
     7
100
AcDbSpline
210
0.0
220
0.0
230
1.0
 70
    24
 71
     3
 72
     9
 73
     5
 74
     0
 42
0.000000001
 43
0.00000001
 40
0.0
 40
0.0
 40
0.0
 40
0.0
 40
0.5996442575167411
 40
1.0
 40
1.0
 40
1.0
 40
1.0
 10
492.8547614078619
 20
367.0619840662669
 30
0.0
 10
492.7116315877337
 20
367.0619840662669
 30
0.0
 10
492.4729403665071
 20
367.0619840662669
 30
0.0
 10
492.2559369588778
 20
367.0619840662669
 30
0.0
 10
492.1690583984949
 20
367.0619840662669
 30
0.0
  0
SPLINE
  5
2E1
330
1F
100
AcDbEntity
  8
0
  6
CONTINUOUS
 62
     7
100
AcDbSpline
210
0.0
220
0.0
230
1.0
 70
    24
 71
     3
 72
    28
 73
    24
 74
     0
 42
0.000000001
 43
0.00000001
 40
0.0
 40
0.0
 40
0.0
 40
0.0
 40
0.0201432305568757
 40
0.0401316544627084
 40
0.0600445511370982
 40
0.0799621019012969
 40
0.099964432107495
 40
0.1201306565846995
 40
0.1850692198204535
 40
0.2500931570085291
 40
0.3150317586631894
 40
0.3800557343198648
 40
0.439999970448899
 40
0.5000287328046453
 40
0.5599729933283323
 40
0.6200017725904153
 40
0.6849403358267757
 40
0.7499642730143161
 40
0.8149028746709908
 40
0.8799268503256453
 40
0.9200397886582649
 40
0.9598501523772986
 40
0.9999999999999999
 40
0.9999999999999999
 40
0.9999999999999999
 40
0.9999999999999999
 10
379.9612207694325
 20
367.0619840103875
 30
0.0
 10
379.9626838147523
 20
367.0619840103875
 30
0.0
 10
379.9655986614584
 20
367.0619840103875
 30
0.0
 10
379.9600290378173
 20
367.0619840103875
 30
0.0
 10
379.947107930549
 20
367.0619840103875
 30
0.0
 10
379.9261452876087
 20
367.0619840103875
 30
0.0
 10
379.8973134892162
 20
367.0619840103875
 30
0.0
 10
379.8336465902809
 20
367.0619840103875
 30
0.0
 10
379.7035871524902
 20
367.0619840103875
 30
0.0
 10
379.4604392395662
 20
367.0619840103875
 30
0.0
 10
379.1568369844273
 20
367.0619840103875
 30
0.0
 10
378.8113429089152
 20
367.0619840103875
 30
0.0
 10
378.4441168374135
 20
367.0619840103875
 30
0.0
 10
378.0694610921548
 20
367.0619840103875
 30
0.0
 10
377.6910012999997
 20
367.0619840103875
 30
0.0
 10
377.3124618723579
 20
367.0619840103875
 30
0.0
 10
376.9476078778984
 20
367.0619840103875
 30
0.0
 10
376.6168505490075
 20
367.0619840103875
 30
0.0
 10
376.3403451475005
 20
367.0619840103875
 30
0.0
 10
376.159500301614
 20
367.0619840103875
 30
0.0
 10
376.0505865261467
 20
367.0619840103875
 30
0.0
 10
375.988796813717
 20
367.0619840103875
 30
0.0
 10
375.9741529922768
 20
367.0619840103875
 30
0.0
 10
375.9667999952102
 20
367.0619840103875
 30
0.0
  0
SPLINE
  5
2E2
330
1F
100
AcDbEntity
  8
0
  6
CONTINUOUS
 62
     7
100
AcDbSpline
210
0.0
220
0.0
230
1.0
 70
    24
 71
     3
 72
    11
 73
     7
 74
     0
 42
0.000000001
 43
0.00000001
 40
0.0
 40
0.0
 40
0.0
 40
0.0
 40
0.412949464372347
 40
0.6374830070071713
 40
0.8623121919624461
 40
1.0
 40
1.0
 40
1.0
 40
1.0
 10
478.4245011221268
 20
367.0619840662669
 30
0.0
 10
478.3588427128416
 20
367.0619840662669
 30
0.0
 10
478.2574837723473
 20
367.0619840662669
 30
0.0
 10
477.9370226236113
 20
367.0619840662669
 30
0.0
 10
477.6759248850382
 20
367.0619840662669
 30
0.0
 10
477.4823152361594
 20
367.0619840662669
 30
0.0
 10
477.4087802331545
 20
367.0619840662669
 30
0.0
  0
SPLINE
  5
2E3
330
1F
100
AcDbEntity
  8
0
  6
CONTINUOUS
 62
     7
100
AcDbSpline
210
0.0
220
0.0
230
1.0
 70
    24
 71
     3
 72
    13
 73
     9
 74
     0
 42
0.000000001
 43
0.00000001
 40
0.0
 40
0.0
 40
0.0
 40
0.0
 40
0.2263739568416439
 40
0.3787738811165025
 40
0.5313742210646826
 40
0.6837743055009314
 40
0.8363748664267561
 40
1.0
 40
1.0
 40
1.0
 40
1.0
 10
476.0006819676258
 20
367.0619840662669
 30
0.0
 10
475.8039537915627
 20
367.0619840662669
 30
0.0
 10
475.4747838825676
 20
367.0619840662669
 30
0.0
 10
475.0941910194027
 20
367.0619840662669
 30
0.0
 10
474.8192780972354
 20
367.0619840662669
 30
0.0
 10
474.6162891542168
 20
367.0619840662669
 30
0.0
 10
474.4682734593206
 20
367.0619840662669
 30
0.0
 10
474.4783985477071
 20
367.0619840662669
 30
0.0
 10
474.4836375873186
 20
367.0619840662669
 30
0.0
  0
SPLINE
  5
2E4
330
1F
100
AcDbEntity
  8
0
  6
CONTINUOUS
 62
     7
100
AcDbSpline
210
0.0
220
0.0
230
1.0
 70
    24
 71
     3
 72
    13
 73
     9
 74
     0
 42
0.000000001
 43
0.00000001
 40
0.0
 40
0.0
 40
0.0
 40
0.0
 40
0.2422683020323534
 40
0.3739973810502196
 40
0.5058994518187486
 40
0.6376289713745369
 40
0.7695307460428671
 40
1.0
 40
1.0
 40
1.0
 40
1.0
 10
429.3933831911185
 20
367.0619840662669
 30
0.0
 10
429.3797220387783
 20
367.0619840662669
 30
0.0
 10
429.3586328778997
 20
367.0619840662669
 30
0.0
 10
429.1343794420666
 20
367.0619840662669
 30
0.0
 10
428.8930304634233
 20
367.0619840662669
 30
0.0
 10
428.5886505843165
 20
367.0619840662669
 30
0.0
 10
428.1471539976192
 20
367.0619840662669
 30
0.0
 10
427.7737652723591
 20
367.0619840662669
 30
0.0
 10
427.5362887244322
 20
367.0619840662669
 30
0.0
  0
SPLINE
  5
2E5
330
1F
100
AcDbEntity
  8
0
  6
CONTINUOUS
 62
     7
100
AcDbSpline
210
0.0
220
0.0
230
1.0
 70
    24
 71
     3
 72
    13
 73
     9
 74
     0
 42
0.000000001
 43
0.00000001
 40
0.0
 40
0.0
 40
0.0
 40
0.0
 40
0.0287137715216819
 40
0.1949801344401086
 40
0.3614637025779734
 40
0.5277296992807652
 40
0.6942138481673769
 40
1.0
 40
1.0
 40
1.0
 40
1.0
 10
393.6580628912546
 20
367.0619840662669
 30
0.0
 10
393.6350151159676
 20
367.0619840662669
 30
0.0
 10
393.4785097846978
 20
367.0619840662669
 30
0.0
 10
393.2280254140865
 20
367.0619840662669
 30
0.0
 10
392.9148656357638
 20
367.0619840662669
 30
0.0
 10
392.6673267272518
 20
367.0619840662669
 30
0.0
 10
392.4327674498845
 20
367.0619840662669
 30
0.0
 10
392.4035543752432
 20
367.0619840662669
 30
0.0
 10
392.3846394579508
 20
367.0619840662669
 30
0.0
  0
SPLINE
  5
2E6
330
1F
100
AcDbEntity
  8
0
  6
CONTINUOUS
 62
     7
100
AcDbSpline
210
0.0
220
0.0
230
1.0
 70
    24
 71
     3
 72
    11
 73
     7
 74
     0
 42
0.000000001
 43
0.00000001
 40
0.0
 40
0.0
 40
0.0
 40
0.0
 40
0.463594804259646
 40
0.7025108820494274
 40
0.9417321045800466
 40
0.9999999999999999
 40
0.9999999999999999
 40
0.9999999999999999
 40
0.9999999999999999
 10
544.5353672664263
 20
367.0619840662669
 30
0.0
 10
544.5215249902406
 20
367.0619840662669
 30
0.0
 10
544.500549022513
 20
367.0619840662669
 30
0.0
 10
544.2614683689225
 20
367.0619840662669
 30
0.0
 10
544.1028160429746
 20
367.0619840662669
 30
0.0
 10
543.9668777763544
 20
367.0619840662669
 30
0.0
 10
543.940252141247
 20
367.0619840662669
 30
0.0
  0
SPLINE
  5
2E7
330
1F
100
AcDbEntity
  8
0
  6
CONTINUOUS
 62
     7
100
AcDbSpline
210
0.0
220
0.0
230
1.0
 70
    24
 71
     3
 72
    12
 73
     8
 74
     0
 42
0.000000001
 43
0.00000001
 40
0.0
 40
0.0
 40
0.0
 40
0.0
 40
0.32900284125463
 40
0.5078923719222773
 40
0.687016870087462
 40
0.8659065993861175
 40
1.0
 40
1.0
 40
1.0
 40
1.0
 10
450.068711751292
 20
367.0619840662669
 30
0.0
 10
449.8719222410526
 20
367.0619840662669
 30
0.0
 10
449.5681318824532
 20
367.0619840662669
 30
0.0
 10
449.0621845877326
 20
367.0619840662669
 30
0.0
 10
448.6555175678927
 20
367.0619840662669
 30
0.0
 10
448.2783499894281
 20
367.0619840662669
 30
0.0
 10
448.0540619659775
 20
367.0619840662669
 30
0.0
 10
447.9579687874415
 20
367.0619840662669
 30
0.0
  0
SPLINE
  5
2E8
330
1F
100
AcDbEntity
  8
0
  6
CONTINUOUS
 62
     7
100
AcDbSpline
210
0.0
220
0.0
230
1.0
 70
    24
 71
     3
 72
    10
 73
     6
 74
     0
 42
0.000000001
 43
0.00000001
 40
0.0
 40
0.0
 40
0.0
 40
0.0
 40
0.4149988594463835
 40
0.7073075940898711
 40
1.0
 40
1.0
 40
1.0
 40
1.0
 10
447.1442862238385
 20
367.0619840662669
 30
0.0
 10
447.0234179728932
 20
367.0619840662669
 30
0.0
 10
446.8174149205185
 20
367.0619840662669
 30
0.0
 10
446.6798130300313
 20
367.0619840662669
 30
0.0
 10
446.6629959617816
 20
367.0619840662669
 30
0.0
 10
446.6545819129445
 20
367.0619840662669
 30
0.0
  0
SPLINE
  5
2E9
330
1F
100
AcDbEntity
  8
0
  6
CONTINUOUS
 62
     7
100
AcDbSpline
210
0.0
220
0.0
230
1.0
 70
    24
 71
     3
 72
    12
 73
     8
 74
     0
 42
0.000000001
 43
0.00000001
 40
0.0
 40
0.0
 40
0.0
 40
0.0
 40
0.2799462545624068
 40
0.4598407050333479
 40
0.6399724684444613
 40
0.819867895619274
 40
1.0
 40
1.0
 40
1.0
 40
1.0
 10
428.7215643386938
 20
367.0619840662669
 30
0.0
 10
428.531692822126
 20
367.0619840662669
 30
0.0
 10
428.2198091993901
 20
367.0619840662669
 30
0.0
 10
427.9009044444365
 20
367.0619840662669
 30
0.0
 10
427.6976753988693
 20
367.0619840662669
 30
0.0
 10
427.5642185146871
 20
367.0619840662669
 30
0.0
 10
427.5457070190474
 20
367.0619840662669
 30
0.0
 10
427.5364451866247
 20
367.0619840662669
 30
0.0
  0
SPLINE
  5
2EA
330
1F
100
AcDbEntity
  8
0
  6
CONTINUOUS
 62
     7
100
AcDbSpline
210
0.0
220
0.0
230
1.0
 70
    24
 71
     3
 72
     9
 73
     5
 74
     0
 42
0.000000001
 43
0.00000001
 40
0.0
 40
0.0
 40
0.0
 40
0.0
 40
0.9704882447742385
 40
1.0
 40
1.0
 40
1.0
 40
1.0
 10
398.8882698874571
 20
367.0619840662669
 30
0.0
 10
398.8034095483262
 20
367.0619840662669
 30
0.0
 10
398.7159686755614
 20
367.0619840662669
 30
0.0
 10
398.5375937329546
 20
367.0619840662669
 30
0.0
 10
398.53232957531
 20
367.0619840662669
 30
0.0
  0
SPLINE
  5
2EB
330
1F
100
AcDbEntity
  8
0
  6
CONTINUOUS
 62
     7
100
AcDbSpline
210
0.0
220
0.0
230
1.0
 70
    24
 71
     3
 72
    11
 73
     7
 74
     0
 42
0.000000001
 43
0.00000001
 40
0.0
 40
0.0
 40
0.0
 40
0.0
 40
0.244242075132291
 40
0.4359771337429869
 40
0.6279568987505724
 40
1.0
 40
1.0
 40
1.0
 40
1.0
 10
539.3329546611408
 20
367.0619840662669
 30
0.0
 10
539.166965297369
 20
367.0619840662669
 30
0.0
 10
538.8706708648483
 20
367.0619840662669
 30
0.0
 10
538.5188278563128
 20
367.0619840662669
 30
0.0
 10
538.1501457288059
 20
367.0619840662669
 30
0.0
 10
538.0063929509996
 20
367.0619840662669
 30
0.0
 10
537.9115701477625
 20
367.0619840662669
 30
0.0
  0
SPLINE
  5
2EC
330
1F
100
AcDbEntity
  8
0
  6
CONTINUOUS
 62
     7
100
AcDbSpline
210
0.0
220
0.0
230
1.0
 70
    24
 71
     3
 72
    11
 73
     7
 74
     0
 42
0.000000001
 43
0.00000001
 40
0.0
 40
0.0
 40
0.0
 40
0.0
 40
0.0586719050374067
 40
0.3274105339553017
 40
0.5964937180263865
 40
1.0
 40
1.0
 40
1.0
 40
1.0
 10
524.24003787447
 20
367.0619840662669
 30
0.0
 10
524.2451425322756
 20
367.0619840662669
 30
0.0
 10
524.2736283763392
 20
367.0619840662669
 30
0.0
 10
524.1989673262543
 20
367.0619840662669
 30
0.0
 10
524.0610159864373
 20
367.0619840662669
 30
0.0
 10
523.8382008025324
 20
367.0619840662669
 30
0.0
 10
523.7045273940661
 20
367.0619840662669
 30
0.0
  0
LINE
  5
2ED
330
1F
100
AcDbEntity
  8
0
  6
CONTINUOUS
 62
     7
100
AcDbLine
 10
414.2455742519
 20
367.0619840663
 30
0.0
 11
414.244292752
 21
367.0619840663
 31
0.0
  0
SPLINE
  5
2EE
330
1F
100
AcDbEntity
  8
0
  6
CONTINUOUS
 62
     7
100
AcDbSpline
210
0.0
220
0.0
230
1.0
 70
    24
 71
     3
 72
    10
 73
     6
 74
     0
 42
0.000000001
 43
0.00000001
 40
0.0
 40
0.0
 40
0.0
 40
0.0
 40
0.4149979452111977
 40
0.7073062550436445
 40
1.0
 40
1.0
 40
1.0
 40
1.0
 10
435.4770243923762
 20
367.0619840662669
 30
0.0
 10
435.3561567081241
 20
367.0619840662669
 30
0.0
 10
435.1501545577747
 20
367.0619840662669
 30
0.0
 10
435.012550620069
 20
367.0619840662669
 30
0.0
 10
434.9957339542937
 20
367.0619840662669
 30
0.0
 10
434.9873200814822
 20
367.0619840662669
 30
0.0
  0
SPLINE
  5
2EF
330
1F
100
AcDbEntity
  8
0
  6
CONTINUOUS
 62
     7
100
AcDbSpline
210
0.0
220
0.0
230
1.0
 70
    24
 71
     3
 72
    13
 73
     9
 74
     0
 42
0.000000001
 43
0.00000001
 40
0.0
 40
0.0
 40
0.0
 40
0.0
 40
0.2701121507480635
 40
0.416981160177664
 40
0.5640438009620788
 40
0.7109138675153583
 40
0.8579734607173863
 40
1.0
 40
1.0
 40
1.0
 40
1.0
 10
385.1911709468462
 20
367.0619840662669
 30
0.0
 10
385.0759633216225
 20
367.0619840662669
 30
0.0
 10
384.8981134578009
 20
367.0619840662669
 30
0.0
 10
384.4986549897532
 20
367.0619840662669
 30
0.0
 10
384.1433584825666
 20
367.0619840662669
 30
0.0
 10
383.7537853169315
 20
367.0619840662669
 30
0.0
 10
383.3477333036451
 20
367.0619840662669
 30
0.0
 10
383.0857955726651
 20
367.0619840662669
 30
0.0
 10
382.957106904278
 20
367.0619840662669
 30
0.0
  0
SPLINE
  5
2F0
330
1F
100
AcDbEntity
  8
0
  6
CONTINUOUS
 62
     7
100
AcDbSpline
210
0.0
220
0.0
230
1.0
 70
    24
 71
     3
 72
    12
 73
     8
 74
     0
 42
0.000000001
 43
0.00000001
 40
0.0
 40
0.0
 40
0.0
 40
0.0
 40
0.1739413640897682
 40
0.3803192911882183
 40
0.5869698207579901
 40
0.7933490792635087
 40
1.0
 40
1.0
 40
1.0
 40
1.0
 10
382.2622806589701
 20
367.0619840662669
 30
0.0
 10
382.1607308960031
 20
367.0619840662669
 30
0.0
 10
381.9386943834461
 20
367.0619840662669
 30
0.0
 10
381.6900890092426
 20
367.0619840662669
 30
0.0
 10
381.4850627741967
 20
367.0619840662669
 30
0.0
 10
381.3520843935758
 20
367.0619840662669
 30
0.0
 10
381.3335090763144
 20
367.0619840662669
 30
0.0
 10
381.3242153089144
 20
367.0619840662669
 30
0.0
  0
SPLINE
  5
2F1
330
1F
100
AcDbEntity
  8
0
  6
CONTINUOUS
 62
     7
100
AcDbSpline
210
0.0
220
0.0
230
1.0
 70
    24
 71
     3
 72
    11
 73
     7
 74
     0
 42
0.000000001
 43
0.00000001
 40
0.0
 40
0.0
 40
0.0
 40
0.0
 40
0.0605969011739446
 40
0.5253660189896048
 40
0.778076737356372
 40
1.0
 40
1.0
 40
1.0
 40
1.0
 10
459.9889865609933
 20
367.0619840662669
 30
0.0
 10
459.9839068646491
 20
367.0619840662669
 30
0.0
 10
459.9398666613654
 20
367.0619840662669
 30
0.0
 10
460.0949666711515
 20
367.0619840662669
 30
0.0
 10
460.3360319572602
 20
367.0619840662669
 30
0.0
 10
460.5165792175635
 20
367.0619840662669
 30
0.0
 10
460.6009971873485
 20
367.0619840662669
 30
0.0
  0
LINE
  5
2F2
330
1F
100
AcDbEntity
  8
0
  6
CONTINUOUS
 62
     7
100
AcDbLine
 10
461.7311382724
 20
367.0619840663
 30
0.0
 11
462.0776063354
 21
367.0619840663
 31
0.0
  0
SPLINE
  5
2F3
330
1F
100
AcDbEntity
  8
0
  6
CONTINUOUS
 62
     7
100
AcDbSpline
210
0.0
220
0.0
230
1.0
 70
    24
 71
     3
 72
    11
 73
     7
 74
     0
 42
0.000000001
 43
0.00000001
 40
0.0
 40
0.0
 40
0.0
 40
0.0
 40
0.4667979933786034
 40
0.7206118873948351
 40
0.974757561374082
 40
1.0
 40
1.0
 40
1.0
 40
1.0
 10
405.2496277551749
 20
367.0619840662669
 30
0.0
 10
405.098682686181
 20
367.0619840662669
 30
0.0
 10
404.8656636659548
 20
367.0619840662669
 30
0.0
 10
404.4125784859846
 20
367.0619840662669
 30
0.0
 10
404.146964700972
 20
367.0619840662669
 30
0.0
 10
403.9988647074048
 20
367.0619840662669
 30
0.0
 10
403.9854840200045
 20
367.0619840662669
 30
0.0
  0
SPLINE
  5
2F4
330
1F
100
AcDbEntity
  8
0
  6
CONTINUOUS
 62
     7
100
AcDbSpline
210
0.0
220
0.0
230
1.0
 70
    24
 71
     3
 72
     9
 73
     5
 74
     0
 42
0.000000001
 43
0.00000001
 40
0.0
 40
0.0
 40
0.0
 40
0.0
 40
0.329411742660558
 40
1.0
 40
1.0
 40
1.0
 40
1.0
 10
423.4219030301668
 20
367.0619840662669
 30
0.0
 10
423.3994623397073
 20
367.0619840662669
 30
0.0
 10
423.3313388105389
 20
367.0619840662669
 30
0.0
 10
423.3245858049481
 20
367.0619840662669
 30
0.0
 10
423.3200573186972
 20
367.0619840662669
 30
0.0
  0
SPLINE
  5
2F5
330
1F
100
AcDbEntity
  8
0
  6
CONTINUOUS
 62
     7
100
AcDbSpline
210
0.0
220
0.0
230
1.0
 70
    24
 71
     3
 72
    10
 73
     6
 74
     0
 42
0.000000001
 43
0.00000001
 40
0.0
 40
0.0
 40
0.0
 40
0.0
 40
0.0093773361355664
 40
0.7982027966834513
 40
1.0
 40
1.0
 40
1.0
 40
1.0
 10
497.181231604109
 20
367.0619840662669
 30
0.0
 10
497.1815204630904
 20
367.0619840662669
 30
0.0
 10
497.2061082610959
 20
367.0619840662669
 30
0.0
 10
497.1483166625872
 20
367.0619840662669
 30
0.0
 10
496.9625099038709
 20
367.0619840662669
 30
0.0
 10
496.9246596853831
 20
367.0619840662669
 30
0.0
  0
SPLINE
  5
2F6
330
1F
100
AcDbEntity
  8
0
  6
CONTINUOUS
 62
     7
100
AcDbSpline
210
0.0
220
0.0
230
1.0
 70
    24
 71
     3
 72
    13
 73
     9
 74
     0
 42
0.000000001
 43
0.00000001
 40
0.0
 40
0.0
 40
0.0
 40
0.0
 40
0.0843812473780455
 40
0.3152532195862911
 40
0.5389714617151349
 40
0.6559325334647225
 40
0.773044596067791
 40
1.0
 40
1.0
 40
1.0
 40
1.0
 10
516.0814919333556
 20
367.0619840662669
 30
0.0
 10
516.0170919342671
 20
367.0619840662669
 30
0.0
 10
515.776489813715
 20
367.0619840662669
 30
0.0
 10
515.1633220791516
 20
367.0619840662669
 30
0.0
 10
514.5050634506241
 20
367.0619840662669
 30
0.0
 10
514.0021211846448
 20
367.0619840662669
 30
0.0
 10
513.5291327861075
 20
367.0619840662669
 30
0.0
 10
513.2715081775212
 20
367.0619840662669
 30
0.0
 10
513.1015726189711
 20
367.0619840662669
 30
0.0
  0
SPLINE
  5
2F7
330
1F
100
AcDbEntity
  8
0
  6
CONTINUOUS
 62
     7
100
AcDbSpline
210
0.0
220
0.0
230
1.0
 70
    24
 71
     3
 72
     9
 73
     5
 74
     0
 42
0.000000001
 43
0.00000001
 40
0.0
 40
0.0
 40
0.0
 40
0.0
 40
0.8363016334733598
 40
0.9999999999999999
 40
0.9999999999999999
 40
0.9999999999999999
 40
0.9999999999999999
 10
535.6633500020602
 20
367.0619840662669
 30
0.0
 10
535.6721622099327
 20
367.0619840662669
 30
0.0
 10
535.6826993265902
 20
367.0619840662669
 30
0.0
 10
535.6454238192914
 20
367.0619840662669
 30
0.0
 10
535.6393218796351
 20
367.0619840662669
 30
0.0
  0
SPLINE
  5
2F8
330
1F
100
AcDbEntity
  8
0
  6
CONTINUOUS
 62
     7
100
AcDbSpline
210
0.0
220
0.0
230
1.0
 70
    24
 71
     3
 72
    13
 73
     9
 74
     0
 42
0.000000001
 43
0.00000001
 40
0.0
 40
0.0
 40
0.0
 40
0.0
 40
0.1189895863063987
 40
0.3411340983398619
 40
0.5563959239903226
 40
0.6689382102880341
 40
0.7816232735957755
 40
1.0
 40
1.0
 40
1.0
 40
1.0
 10
534.9089638154604
 20
367.0619840662669
 30
0.0
 10
534.8030851368824
 20
367.0619840662669
 30
0.0
 10
534.4995390143072
 20
367.0619840662669
 30
0.0
 10
533.8255023298756
 20
367.0619840662669
 30
0.0
 10
533.168603954428
 20
367.0619840662669
 30
0.0
 10
532.6885161177219
 20
367.0619840662669
 30
0.0
 10
532.2494395803026
 20
367.0619840662669
 30
0.0
 10
532.0316867070567
 20
367.0619840662669
 30
0.0
 10
531.8880514066317
 20
367.0619840662669
 30
0.0
  0
SPLINE
  5
2F9
330
1F
100
AcDbEntity
  8
0
  6
CONTINUOUS
 62
     7
100
AcDbSpline
210
0.0
220
0.0
230
1.0
 70
    24
 71
     3
 72
     9
 73
     5
 74
     0
 42
0.000000001
 43
0.00000001
 40
0.0
 40
0.0
 40
0.0
 40
0.0
 40
0.3806735979852358
 40
1.0
 40
1.0
 40
1.0
 40
1.0
 10
481.5634996454813
 20
367.0619840662669
 30
0.0
 10
481.6036311029316
 20
367.0619840662669
 30
0.0
 10
481.7090533272798
 20
367.0619840662669
 30
0.0
 10
481.8348197528572
 20
367.0619840662669
 30
0.0
 10
481.9127102207043
 20
367.0619840662669
 30
0.0
  0
SPLINE
  5
2FA
330
1F
100
AcDbEntity
  8
0
  6
CONTINUOUS
 62
     7
100
AcDbSpline
210
0.0
220
0.0
230
1.0
 70
    24
 71
     3
 72
    18
 73
    14
 74
     0
 42
0.000000001
 43
0.00000001
 40
0.0
 40
0.0
 40
0.0
 40
0.0
 40
0.1465738289628769
 40
0.2262692718216678
 40
0.3060709674976132
 40
0.3857676691571216
 40
0.4655689135358176
 40
0.6121411821711981
 40
0.7587144852696983
 40
0.8384105615160287
 40
0.9182115634659097
 40
0.9979083440094012
 40
1.0
 40
1.0
 40
1.0
 40
1.0
 10
392.8219289343455
 20
367.0619840662669
 30
0.0
 10
392.6624333194035
 20
367.0619840662669
 30
0.0
 10
392.4162163998688
 20
367.0619840662669
 30
0.0
 10
391.9534789216153
 20
367.0619840662669
 30
0.0
 10
391.5637376390604
 20
367.0619840662669
 30
0.0
 10
391.1550931660902
 20
367.0619840662669
 30
0.0
 10
390.6329391247191
 20
367.0619840662669
 30
0.0
 10
390.028634088778
 20
367.0619840662669
 30
0.0
 10
389.5605573469796
 20
367.0619840662669
 30
0.0
 10
389.2983344693316
 20
367.0619840662669
 30
0.0
 10
389.1813812416335
 20
367.0619840662669
 30
0.0
 10
389.1309244487253
 20
367.0619840662669
 30
0.0
 10
389.144954475279
 20
367.0619840662669
 30
0.0
 10
389.1453132789233
 20
367.0619840662669
 30
0.0
  0
LINE
  5
2FB
330
1F
100
AcDbEntity
  8
0
  6
CONTINUOUS
 62
     7
100
AcDbLine
 10
415.0669262569
 20
367.0619840663
 30
0.0
 11
414.7817031305
 21
367.0619840663
 31
0.0
  0
LINE
  5
2FC
330
1F
100
AcDbEntity
  8
0
  6
CONTINUOUS
 62
     7
100
AcDbLine
 10
414.0132763248
 20
367.0619840663
 30
0.0
 11
413.7629330914
 21
367.0619840663
 31
0.0
  0
SPLINE
  5
2FD
330
1F
100
AcDbEntity
  8
0
  6
CONTINUOUS
 62
     7
100
AcDbSpline
210
0.0
220
0.0
230
1.0
 70
    24
 71
     3
 72
    10
 73
     6
 74
     0
 42
0.000000001
 43
0.00000001
 40
0.0
 40
0.0
 40
0.0
 40
0.0
 40
0.2743579543892679
 40
0.6369408736524698
 40
1.0
 40
1.0
 40
1.0
 40
1.0
 10
411.9906262319186
 20
367.0619840662669
 30
0.0
 10
411.927871052583
 20
367.0619840662669
 30
0.0
 10
411.7821805846644
 20
367.0619840662669
 30
0.0
 10
411.6799197729832
 20
367.0619840662669
 30
0.0
 10
411.6618402498689
 20
367.0619840662669
 30
0.0
 10
411.6527945559122
 20
367.0619840662669
 30
0.0
  0
LINE
  5
2FE
330
1F
100
AcDbEntity
  8
0
  6
CONTINUOUS
 62
     7
100
AcDbLine
 10
523.0478928249
 20
367.0619840663
 30
0.0
 11
522.7336571376
 21
367.0619840663
 31
0.0
  0
SPLINE
  5
2FF
330
1F
100
AcDbEntity
  8
0
  6
CONTINUOUS
 62
     7
100
AcDbSpline
210
0.0
220
0.0
230
1.0
 70
    24
 71
     3
 72
     9
 73
     5
 74
     0
 42
0.000000001
 43
0.00000001
 40
0.0
 40
0.0
 40
0.0
 40
0.0
 40
0.1392950171712665
 40
1.0
 40
1.0
 40
1.0
 40
1.0
 10
424.7522787015536
 20
367.0619840662669
 30
0.0
 10
424.7443977748358
 20
367.0619840662669
 30
0.0
 10
424.6878205412931
 20
367.0619840662669
 30
0.0
 10
424.6981650275905
 20
367.0619840662669
 30
0.0
 10
424.7070685784914
 20
367.0619840662669
 30
0.0
  0
SPLINE
  5
300
330
1F
100
AcDbEntity
  8
0
  6
CONTINUOUS
 62
     7
100
AcDbSpline
210
0.0
220
0.0
230
1.0
 70
    24
 71
     3
 72
    10
 73
     6
 74
     0
 42
0.000000001
 43
0.00000001
 40
0.0
 40
0.0
 40
0.0
 40
0.0
 40
0.2481989629039828
 40
0.8756813420572395
 40
1.0
 40
1.0
 40
1.0
 40
1.0
 10
489.4035537551739
 20
367.0619840662669
 30
0.0
 10
489.4522421424845
 20
367.0619840662669
 30
0.0
 10
489.6240217174025
 20
367.0619840662669
 30
0.0
 10
489.840387162601
 20
367.0619840662669
 30
0.0
 10
490.0031316631369
 20
367.0619840662669
 30
0.0
 10
490.0300432752468
 20
367.0619840662669
 30
0.0
  0
LINE
  5
301
330
1F
100
AcDbEntity
  8
0
  6
CONTINUOUS
 62
     7
100
AcDbLine
 10
442.4235396843
 20
367.0619840663
 30
0.0
 11
441.8645375233
 21
367.0619840663
 31
0.0
  0
SPLINE
  5
302
330
1F
100
AcDbEntity
  8
0
  6
CONTINUOUS
 62
     7
100
AcDbSpline
210
0.0
220
0.0
230
1.0
 70
    24
 71
     3
 72
    10
 73
     6
 74
     0
 42
0.000000001
 43
0.00000001
 40
0.0
 40
0.0
 40
0.0
 40
0.0
 40
0.2276675773577783
 40
0.6769061205208573
 40
1.0
 40
1.0
 40
1.0
 40
1.0
 10
443.1158085178234
 20
367.0619840662669
 30
0.0
 10
443.2224599525973
 20
367.0619840662669
 30
0.0
 10
443.5395582842904
 20
367.0619840662669
 30
0.0
 10
443.8211164497292
 20
367.0619840662669
 30
0.0
 10
443.8301328929318
 20
367.0619840662669
 30
0.0
 10
443.8339047889807
 20
367.0619840662669
 30
0.0
  0
SPLINE
  5
303
330
1F
100
AcDbEntity
  8
0
  6
CONTINUOUS
 62
     7
100
AcDbSpline
210
0.0
220
0.0
230
1.0
 70
    24
 71
     3
 72
     9
 73
     5
 74
     0
 42
0.000000001
 43
0.00000001
 40
0.0
 40
0.0
 40
0.0
 40
0.0
 40
0.3072205969484624
 40
1.0
 40
1.0
 40
1.0
 40
1.0
 10
443.357771710644
 20
367.0619840662669
 30
0.0
 10
443.2787054917386
 20
367.0619840662669
 30
0.0
 10
443.0213457323646
 20
367.0619840662669
 30
0.0
 10
442.6681951405146
 20
367.0619840662669
 30
0.0
 10
442.4235396843054
 20
367.0619840662669
 30
0.0
  0
SPLINE
  5
304
330
1F
100
AcDbEntity
  8
0
  6
CONTINUOUS
 62
     7
100
AcDbSpline
210
0.0
220
0.0
230
1.0
 70
    24
 71
     3
 72
    10
 73
     6
 74
     0
 42
0.000000001
 43
0.00000001
 40
0.0
 40
0.0
 40
0.0
 40
0.0
 40
0.4491169258004787
 40
0.9648726383474477
 40
1.0
 40
1.0
 40
1.0
 40
1.0
 10
459.6017962146201
 20
367.0619840662669
 30
0.0
 10
459.7450254467839
 20
367.0619840662669
 30
0.0
 10
460.0527358874004
 20
367.0619840662669
 30
0.0
 10
460.2240052525189
 20
367.0619840662669
 30
0.0
 10
460.174329871283
 20
367.0619840662669
 30
0.0
 10
460.1711622933275
 20
367.0619840662669
 30
0.0
  0
LINE
  5
305
330
1F
100
AcDbEntity
  8
0
  6
CONTINUOUS
 62
     7
100
AcDbLine
 10
414.0132763248
 20
367.0619840663
 30
0.0
 11
413.8636649411
 21
367.0619840663
 31
0.0
  0
SPLINE
  5
306
330
1F
100
AcDbEntity
  8
0
  6
CONTINUOUS
 62
     7
100
AcDbSpline
210
0.0
220
0.0
230
1.0
 70
    24
 71
     3
 72
     9
 73
     5
 74
     0
 42
0.000000001
 43
0.00000001
 40
0.0
 40
0.0
 40
0.0
 40
0.0
 40
0.4039287957559988
 40
1.0
 40
1.0
 40
1.0
 40
1.0
 10
497.5095563392737
 20
367.0619840662669
 30
0.0
 10
497.6233349148634
 20
367.0619840662669
 30
0.0
 10
497.9050146979966
 20
367.0619840662669
 30
0.0
 10
498.1700585738071
 20
367.0619840662669
 30
0.0
 10
498.328043596039
 20
367.0619840662669
 30
0.0
  0
SPLINE
  5
307
330
1F
100
AcDbEntity
  8
0
  6
CONTINUOUS
 62
     7
100
AcDbSpline
210
0.0
220
0.0
230
1.0
 70
    24
 71
     3
 72
    11
 73
     7
 74
     0
 42
0.000000001
 43
0.00000001
 40
0.0
 40
0.0
 40
0.0
 40
0.0
 40
0.288170501848567
 40
0.7001158895082117
 40
0.9241068382120031
 40
1.0
 40
1.0
 40
1.0
 40
1.0
 10
479.6075639139511
 20
367.0619840662669
 30
0.0
 10
479.6084744630742
 20
367.0619840662669
 30
0.0
 10
479.6106866600379
 20
367.0619840662669
 30
0.0
 10
479.8915299670814
 20
367.0619840662669
 30
0.0
 10
480.1705173682806
 20
367.0619840662669
 30
0.0
 10
480.3207919773923
 20
367.0619840662669
 30
0.0
 10
480.3588227193453
 20
367.0619840662669
 30
0.0
  0
LINE
  5
308
330
1F
100
AcDbEntity
  8
0
  6
CONTINUOUS
 62
     8
100
AcDbLine
 10
455.4154756304
 20
367.3119841072
 30
0.0
 11
453.68860148
 21
367.3119841072
 31
0.0
  0
LINE
  5
309
330
1F
100
AcDbEntity
  8
0
  6
CONTINUOUS
 62
     8
100
AcDbLine
 10
458.1886012863
 20
367.3119841072
 30
0.0
 11
455.4154756304
 21
367.3119841072
 31
0.0
  0
LINE
  5
30A
330
1F
100
AcDbEntity
  8
0
  6
CONTINUOUS
 62
     8
100
AcDbLine
 10
473.0845712881
 20
367.3119841072
 30
0.0
 11
470.8912842732
 21
367.3119841072
 31
0.0
  0
LINE
  5
30B
330
1F
100
AcDbEntity
  8
0
  6
CONTINUOUS
 62
     8
100
AcDbLine
 10
475.3912840794
 20
367.3119841072
 30
0.0
 11
473.0845712881
 21
367.3119841072
 31
0.0
  0
LINE
  5
30C
330
1F
100
AcDbEntity
  8
0
  6
CONTINUOUS
 62
     8
100
AcDbLine
 10
437.9577194165
 20
367.3119841072
 30
0.0
 11
436.6743941616
 21
367.3119841072
 31
0.0
  0
LINE
  5
30D
330
1F
100
AcDbEntity
  8
0
  6
CONTINUOUS
 62
     8
100
AcDbLine
 10
441.1743939679
 20
367.3119841072
 30
0.0
 11
437.9577194165
 21
367.3119841072
 31
0.0
  0
LINE
  5
30E
330
1F
100
AcDbEntity
  8
0
  6
CONTINUOUS
 62
     8
100
AcDbLine
 10
490.1927825819
 20
367.3119841072
 30
0.0
 11
487.5306025903
 21
367.3119841072
 31
0.0
  0
LINE
  5
30F
330
1F
100
AcDbEntity
  8
0
  6
CONTINUOUS
 62
     8
100
AcDbLine
 10
492.0306042593
 20
367.3119841072
 30
0.0
 11
490.1927825819
 21
367.3119841072
 31
0.0
  0
LINE
  5
310
330
1F
100
AcDbEntity
  8
0
  6
CONTINUOUS
 62
     8
100
AcDbLine
 10
421.4742877345
 20
367.3119841072
 30
0.0
 11
420.5922656517
 21
367.3119841072
 31
0.0
  0
LINE
  5
311
330
1F
100
AcDbEntity
  8
0
  6
CONTINUOUS
 62
     8
100
AcDbLine
 10
425.0922673206
 20
367.3119841072
 30
0.0
 11
421.4742877345
 21
367.3119841072
 31
0.0
  0
LINE
  5
312
330
1F
100
AcDbEntity
  8
0
  6
CONTINUOUS
 62
     8
100
AcDbLine
 10
505.9923962514
 20
367.3119841072
 30
0.0
 11
502.8793387871
 21
367.3119841072
 31
0.0
  0
LINE
  5
313
330
1F
100
AcDbEntity
  8
0
  6
CONTINUOUS
 62
     8
100
AcDbLine
 10
507.379340456
 20
367.3119841072
 30
0.0
 11
505.9923962514
 21
367.3119841072
 31
0.0
  0
LINE
  5
314
330
1F
100
AcDbEntity
  8
0
  6
CONTINUOUS
 62
     8
100
AcDbLine
 10
453.68860148
 20
367.3119841072
 30
0.0
 11
451.7993465822
 21
367.3119841072
 31
0.0
  0
LINE
  5
315
330
1F
100
AcDbEntity
  8
0
  6
CONTINUOUS
 62
     8
100
AcDbLine
 10
470.8912842732
 20
367.3119841072
 30
0.0
 11
468.3101153757
 21
367.3119841072
 31
0.0
  0
LINE
  5
316
330
1F
100
AcDbEntity
  8
0
  6
CONTINUOUS
 62
     8
100
AcDbLine
 10
406.6855930548
 20
367.3119841072
 30
0.0
 11
406.1450832348
 21
367.3119841072
 31
0.0
  0
LINE
  5
317
330
1F
100
AcDbEntity
  8
0
  6
CONTINUOUS
 62
     8
100
AcDbLine
 10
410.6450849037
 20
367.3119841072
 30
0.0
 11
406.6855930548
 21
367.3119841072
 31
0.0
  0
LINE
  5
318
330
1F
100
AcDbEntity
  8
0
  6
CONTINUOUS
 62
     8
100
AcDbLine
 10
436.6743941616
 20
367.3119841072
 30
0.0
 11
435.6782552611
 21
367.3119841072
 31
0.0
  0
LINE
  5
319
330
1F
100
AcDbEntity
  8
0
  6
CONTINUOUS
 62
     8
100
AcDbLine
 10
487.5306025903
 20
367.3119841072
 30
0.0
 11
484.1731306921
 21
367.3119841072
 31
0.0
  0
LINE
  5
31A
330
1F
100
AcDbEntity
  8
0
  6
CONTINUOUS
 62
     8
100
AcDbLine
 10
519.7928980749
 20
367.3119841072
 30
0.0
 11
516.2666835647
 21
367.3119841072
 31
0.0
  0
LINE
  5
31B
330
1F
100
AcDbEntity
  8
0
  6
CONTINUOUS
 62
     8
100
AcDbLine
 10
520.7666815083
 20
367.3119841072
 30
0.0
 11
519.7928980749
 21
367.3119841072
 31
0.0
  0
LINE
  5
31C
330
1F
100
AcDbEntity
  8
0
  6
CONTINUOUS
 62
     8
100
AcDbLine
 10
425.4597895603
 20
367.3119841072
 30
0.0
 11
425.0922673206
 21
367.3119841072
 31
0.0
  0
LINE
  5
31D
330
1F
100
AcDbEntity
  8
0
  6
CONTINUOUS
 62
     8
100
AcDbLine
 10
501.6755633812
 20
367.3119841072
 30
0.0
 11
498.3916603785
 21
367.3119841072
 31
0.0
  0
LINE
  5
31E
330
1F
100
AcDbEntity
  8
0
  6
CONTINUOUS
 62
     8
100
AcDbLine
 10
502.8793387871
 20
367.3119841072
 30
0.0
 11
501.6755633812
 21
367.3119841072
 31
0.0
  0
LINE
  5
31F
330
1F
100
AcDbEntity
  8
0
  6
CONTINUOUS
 62
     8
100
AcDbLine
 10
394.2379639309
 20
367.3119841072
 30
0.0
 11
393.964259402
 21
367.3119841072
 31
0.0
  0
LINE
  5
320
330
1F
100
AcDbEntity
  8
0
  6
CONTINUOUS
 62
     8
100
AcDbLine
 10
398.4642573457
 20
367.3119841072
 30
0.0
 11
394.2379639309
 21
367.3119841072
 31
0.0
  0
LINE
  5
321
330
1F
100
AcDbEntity
  8
0
  6
CONTINUOUS
 62
     8
100
AcDbLine
 10
468.3101153757
 20
367.3119841072
 30
0.0
 11
465.7289464783
 21
367.3119841072
 31
0.0
  0
LINE
  5
322
330
1F
100
AcDbEntity
  8
0
  6
CONTINUOUS
 62
     8
100
AcDbLine
 10
451.7742176365
 20
367.3119841072
 30
0.0
 11
450.2732218068
 21
367.3119841072
 31
0.0
  0
LINE
  5
323
330
1F
100
AcDbEntity
  8
0
  6
CONTINUOUS
 62
     8
100
AcDbLine
 10
530.9911356132
 20
367.3119841072
 30
0.0
 11
527.1075353782
 21
367.3119841072
 31
0.0
  0
LINE
  5
324
330
1F
100
AcDbEntity
  8
0
  6
CONTINUOUS
 62
     8
100
AcDbLine
 10
531.6075370472
 20
367.3119841072
 30
0.0
 11
530.9911356132
 21
367.3119841072
 31
0.0
  0
LINE
  5
325
330
1F
100
AcDbEntity
  8
0
  6
CONTINUOUS
 62
     8
100
AcDbLine
 10
435.6782552611
 20
367.3119841072
 30
0.0
 11
435.5739527207
 21
367.3119841072
 31
0.0
  0
LINE
  5
326
330
1F
100
AcDbEntity
  8
0
  6
CONTINUOUS
 62
     8
100
AcDbLine
 10
483.3193463098
 20
367.3119841072
 30
0.0
 11
480.4282155644
 21
367.3119841072
 31
0.0
  0
LINE
  5
327
330
1F
100
AcDbEntity
  8
0
  6
CONTINUOUS
 62
     8
100
AcDbLine
 10
484.1731306921
 20
367.3119841072
 30
0.0
 11
483.3193463098
 21
367.3119841072
 31
0.0
  0
LINE
  5
328
330
1F
100
AcDbEntity
  8
0
  6
CONTINUOUS
 62
     8
100
AcDbLine
 10
413.0687662225
 20
367.3119841072
 30
0.0
 11
410.6450849037
 21
367.3119841072
 31
0.0
  0
LINE
  5
329
330
1F
100
AcDbEntity
  8
0
  6
CONTINUOUS
 62
     8
100
AcDbLine
 10
513.8206989329
 20
367.3119841072
 30
0.0
 11
510.0723006587
 21
367.3119841072
 31
0.0
  0
LINE
  5
32A
330
1F
100
AcDbEntity
  8
0
  6
CONTINUOUS
 62
     8
100
AcDbLine
 10
514.5722986024
 20
367.3119841072
 30
0.0
 11
513.8206989329
 21
367.3119841072
 31
0.0
  0
LINE
  5
32B
330
1F
100
AcDbEntity
  8
0
  6
CONTINUOUS
 62
     8
100
AcDbLine
 10
384.6754268568
 20
367.3119841072
 30
0.0
 11
384.5821455877
 21
367.3119841072
 31
0.0
  0
LINE
  5
32C
330
1F
100
AcDbEntity
  8
0
  6
CONTINUOUS
 62
     8
100
AcDbLine
 10
389.0821472566
 20
367.3119841072
 30
0.0
 11
384.6754268568
 21
367.3119841072
 31
0.0
  0
LINE
  5
32D
330
1F
100
AcDbEntity
  8
0
  6
CONTINUOUS
 62
     8
100
AcDbLine
 10
496.4583762746
 20
367.3119841072
 30
0.0
 11
492.9321580391
 21
367.3119841072
 31
0.0
  0
LINE
  5
32E
330
1F
100
AcDbEntity
  8
0
  6
CONTINUOUS
 62
     8
100
AcDbLine
 10
497.432159708
 20
367.3119841072
 30
0.0
 11
496.4583762746
 21
367.3119841072
 31
0.0
  0
LINE
  5
32F
330
1F
100
AcDbEntity
  8
0
  6
CONTINUOUS
 62
     8
100
AcDbLine
 10
427.5700100522
 20
367.3119841072
 30
0.0
 11
425.4597895603
 21
367.3119841072
 31
0.0
  0
LINE
  5
330
330
1F
100
AcDbEntity
  8
0
  6
CONTINUOUS
 62
     8
100
AcDbLine
 10
465.7289464783
 20
367.3119841072
 30
0.0
 11
463.1477780465
 21
367.3119841072
 31
0.0
  0
LINE
  5
331
330
1F
100
AcDbEntity
  8
0
  6
CONTINUOUS
 62
     8
100
AcDbLine
 10
450.2732218068
 20
367.3119841072
 30
0.0
 11
449.4859375815
 21
367.3119841072
 31
0.0
  0
LINE
  5
332
330
1F
100
AcDbEntity
  8
0
  6
CONTINUOUS
 62
     8
100
AcDbLine
 10
399.3770316999
 20
367.3119841072
 30
0.0
 11
399.2837541561
 21
367.3119841072
 31
0.0
  0
LINE
  5
333
330
1F
100
AcDbEntity
  8
0
  6
CONTINUOUS
 62
     8
100
AcDbLine
 10
403.7837558251
 20
367.3119841072
 30
0.0
 11
399.3770316999
 21
367.3119841072
 31
0.0
  0
LINE
  5
334
330
1F
100
AcDbEntity
  8
0
  6
CONTINUOUS
 62
     8
100
AcDbLine
 10
539.0976951282
 20
367.3119841072
 30
0.0
 11
534.9281118076
 21
367.3119841072
 31
0.0
  0
LINE
  5
335
330
1F
100
AcDbEntity
  8
0
  6
CONTINUOUS
 62
     8
100
AcDbLine
 10
539.4281134765
 20
367.3119841072
 30
0.0
 11
539.0976951282
 21
367.3119841072
 31
0.0
  0
LINE
  5
336
330
1F
100
AcDbEntity
  8
0
  6
CONTINUOUS
 62
     8
100
AcDbLine
 10
479.0327665221
 20
367.3119841072
 30
0.0
 11
475.9197090577
 21
367.3119841072
 31
0.0
  0
LINE
  5
337
330
1F
100
AcDbEntity
  8
0
  6
CONTINUOUS
 62
     8
100
AcDbLine
 10
480.419708864
 20
367.3119841072
 30
0.0
 11
479.0327665221
 21
367.3119841072
 31
0.0
  0
LINE
  5
338
330
1F
100
AcDbEntity
  8
0
  6
CONTINUOUS
 62
     8
100
AcDbLine
 10
522.5998596113
 20
367.3119841072
 30
0.0
 11
520.7666815083
 21
367.3119841072
 31
0.0
  0
LINE
  5
339
330
1F
100
AcDbEntity
  8
0
  6
CONTINUOUS
 62
     8
100
AcDbLine
 10
522.981113271
 20
367.3119841072
 30
0.0
 11
522.5998596113
 21
367.3119841072
 31
0.0
  0
LINE
  5
33A
330
1F
100
AcDbEntity
  8
0
  6
CONTINUOUS
 62
     8
100
AcDbLine
 10
441.7964429419
 20
367.3119841072
 30
0.0
 11
441.1743939679
 21
367.3119841072
 31
0.0
  0
LINE
  5
33B
330
1F
100
AcDbEntity
  8
0
  6
CONTINUOUS
 62
     8
100
AcDbLine
 10
414.0786402683
 20
367.3119841072
 30
0.0
 11
413.9853627246
 21
367.3119841072
 31
0.0
  0
LINE
  5
33C
330
1F
100
AcDbEntity
  8
0
  6
CONTINUOUS
 62
     8
100
AcDbLine
 10
418.4853606682
 20
367.3119841072
 30
0.0
 11
414.0786402683
 21
367.3119841072
 31
0.0
  0
LINE
  5
33D
330
1F
100
AcDbEntity
  8
0
  6
CONTINUOUS
 62
     8
100
AcDbLine
 10
378.4159035246
 20
367.3119841072
 30
0.0
 11
378.4087956708
 21
367.3119841072
 31
0.0
  0
LINE
  5
33E
330
1F
100
AcDbEntity
  8
0
  6
CONTINUOUS
 62
     8
100
AcDbLine
 10
382.9087973397
 20
367.3119841072
 30
0.0
 11
378.4159035246
 21
367.3119841072
 31
0.0
  0
LINE
  5
33F
330
1F
100
AcDbEntity
  8
0
  6
CONTINUOUS
 62
     8
100
AcDbLine
 10
463.1477780465
 20
367.3119841072
 30
0.0
 11
460.5666092654
 21
367.3119841072
 31
0.0
  0
LINE
  5
340
330
1F
100
AcDbEntity
  8
0
  6
CONTINUOUS
 62
     8
100
AcDbLine
 10
428.7802488368
 20
367.3119841072
 30
0.0
 11
428.6869675677
 21
367.3119841072
 31
0.0
  0
LINE
  5
341
330
1F
100
AcDbEntity
  8
0
  6
CONTINUOUS
 62
     8
100
AcDbLine
 10
433.1869692366
 20
367.3119841072
 30
0.0
 11
428.7802488368
 21
367.3119841072
 31
0.0
  0
LINE
  5
342
330
1F
100
AcDbEntity
  8
0
  6
CONTINUOUS
 62
     8
100
AcDbLine
 10
393.6897651117
 20
367.3119841072
 30
0.0
 11
393.6881706874
 21
367.3119841072
 31
0.0
  0
LINE
  5
343
330
1F
100
AcDbEntity
  8
0
  6
CONTINUOUS
 62
     8
100
AcDbLine
 10
393.964259402
 20
367.3119841072
 30
0.0
 11
393.6897651117
 21
367.3119841072
 31
0.0
  0
LINE
  5
344
330
1F
100
AcDbEntity
  8
0
  6
CONTINUOUS
 62
     8
100
AcDbLine
 10
543.8866005104
 20
367.3119841072
 30
0.0
 11
539.4281134765
 21
367.3119841072
 31
0.0
  0
LINE
  5
345
330
1F
100
AcDbEntity
  8
0
  6
CONTINUOUS
 62
     8
100
AcDbLine
 10
527.1075353782
 20
367.3119841072
 30
0.0
 11
523.0897427361
 21
367.3119841072
 31
0.0
  0
LINE
  5
346
330
1F
100
AcDbEntity
  8
0
  6
CONTINUOUS
 62
     8
100
AcDbLine
 10
460.2510840457
 20
409.7512762923
 30
0.0
 11
471.5017587702
 21
409.7512762923
 31
0.0
  0
LINE
  5
347
330
1F
100
AcDbEntity
  8
0
  6
CONTINUOUS
 62
     8
100
AcDbLine
 10
449.0004093211
 20
409.7512762923
 30
0.0
 11
460.2510840457
 21
409.7512762923
 31
0.0
  0
LINE
  5
348
330
1F
100
AcDbEntity
  8
0
  6
CONTINUOUS
 62
     8
100
AcDbLine
 10
510.0723006587
 20
367.3119841072
 30
0.0
 11
507.379340456
 21
367.3119841072
 31
0.0
  0
LINE
  5
349
330
1F
100
AcDbEntity
  8
0
  6
CONTINUOUS
 62
     8
100
AcDbLine
 10
413.7092814605
 20
367.3119841072
 30
0.0
 11
413.0687662225
 21
367.3119841072
 31
0.0
  0
LINE
  5
34A
330
1F
100
AcDbEntity
  8
0
  6
CONTINUOUS
 62
     8
100
AcDbLine
 10
443.4818555426
 20
367.3119841072
 30
0.0
 11
443.3885761361
 21
367.3119841072
 31
0.0
  0
LINE
  5
34B
330
1F
100
AcDbEntity
  8
0
  6
CONTINUOUS
 62
     8
100
AcDbLine
 10
447.8885768737
 20
367.3119841072
 30
0.0
 11
443.4818555426
 21
367.3119841072
 31
0.0
  0
LINE
  5
34C
330
1F
100
AcDbEntity
  8
0
  6
CONTINUOUS
 62
     8
100
AcDbLine
 10
492.9321580391
 20
367.3119841072
 30
0.0
 11
492.0306042593
 21
367.3119841072
 31
0.0
  0
LINE
  5
34D
330
1F
100
AcDbEntity
  8
0
  6
CONTINUOUS
 62
     8
100
AcDbLine
 10
378.4087956708
 20
367.3119841072
 30
0.0
 11
375.7140100758
 21
367.3119841072
 31
0.0
  0
LINE
  5
34E
330
1F
100
AcDbEntity
  8
0
  6
CONTINUOUS
 62
     8
100
AcDbLine
 10
475.9197090577
 20
367.3119841072
 30
0.0
 11
475.3912840794
 21
367.3119841072
 31
0.0
  0
LINE
  5
34F
330
1F
100
AcDbEntity
  8
0
  6
CONTINUOUS
 62
     8
100
AcDbLine
 10
428.6869675677
 20
367.3119841072
 30
0.0
 11
427.5700100522
 21
367.3119841072
 31
0.0
  0
LINE
  5
350
330
1F
100
AcDbEntity
  8
0
  6
CONTINUOUS
 62
     8
100
AcDbLine
 10
393.6881706874
 20
367.3119841072
 30
0.0
 11
392.1335995953
 21
367.3119841072
 31
0.0
  0
LINE
  5
351
330
1F
100
AcDbEntity
  8
0
  6
CONTINUOUS
 62
     8
100
AcDbLine
 10
544.7881580155
 20
367.3119841072
 30
0.0
 11
543.8866005104
 21
367.3119841072
 31
0.0
  0
LINE
  5
352
330
1F
100
AcDbEntity
  8
0
  6
CONTINUOUS
 62
     8
100
AcDbLine
 10
449.4859375815
 20
367.3119841072
 30
0.0
 11
447.8885768737
 21
367.3119841072
 31
0.0
  0
LINE
  5
353
330
1F
100
AcDbEntity
  8
0
  6
CONTINUOUS
 62
     8
100
AcDbLine
 10
399.2177308362
 20
367.3119841072
 30
0.0
 11
398.4642573457
 21
367.3119841072
 31
0.0
  0
LINE
  5
354
330
1F
100
AcDbEntity
  8
0
  6
CONTINUOUS
 62
     8
100
AcDbLine
 10
523.0897427361
 20
367.3119841072
 30
0.0
 11
522.981113271
 21
367.3119841072
 31
0.0
  0
LINE
  5
355
330
1F
100
AcDbEntity
  8
0
  6
CONTINUOUS
 62
     8
100
AcDbLine
 10
435.5739527207
 20
367.3119841072
 30
0.0
 11
434.7372711461
 21
367.3119841072
 31
0.0
  0
LINE
  5
356
330
1F
100
AcDbEntity
  8
0
  6
CONTINUOUS
 62
     8
100
AcDbLine
 10
384.5821455877
 20
367.3119841072
 30
0.0
 11
382.9087973397
 21
367.3119841072
 31
0.0
  0
LINE
  5
357
330
1F
100
AcDbEntity
  8
0
  6
CONTINUOUS
 62
     8
100
AcDbLine
 10
460.5666092654
 20
367.3119841072
 30
0.0
 11
459.722937009
 21
367.3119841072
 31
0.0
  0
LINE
  5
358
330
1F
100
AcDbEntity
  8
0
  6
CONTINUOUS
 62
     8
100
AcDbLine
 10
405.7781831186
 20
367.3119841072
 30
0.0
 11
403.7837558251
 21
367.3119841072
 31
0.0
  0
LINE
  5
359
330
1F
100
AcDbEntity
  8
0
  6
CONTINUOUS
 62
     8
100
AcDbLine
 10
516.2666835647
 20
367.3119841072
 30
0.0
 11
514.5722986024
 21
367.3119841072
 31
0.0
  0
LINE
  5
35A
330
1F
100
AcDbEntity
  8
0
  6
CONTINUOUS
 62
     8
100
AcDbLine
 10
534.9281118076
 20
367.3119841072
 30
0.0
 11
531.6075370472
 21
367.3119841072
 31
0.0
  0
LINE
  5
35B
330
1F
100
AcDbEntity
  8
0
  6
CONTINUOUS
 62
     8
100
AcDbLine
 10
392.1335995953
 20
367.3119841072
 30
0.0
 11
389.0821472566
 21
367.3119841072
 31
0.0
  0
LINE
  5
35C
330
1F
100
AcDbEntity
  8
0
  6
CONTINUOUS
 62
     8
100
AcDbLine
 10
413.9853627246
 20
367.3119841072
 30
0.0
 11
413.7092814605
 21
367.3119841072
 31
0.0
  0
LINE
  5
35D
330
1F
100
AcDbEntity
  8
0
  6
CONTINUOUS
 62
     8
100
AcDbLine
 10
443.3885761361
 20
367.3119841072
 30
0.0
 11
441.7964429419
 21
367.3119841072
 31
0.0
  0
LINE
  5
35E
330
1F
100
AcDbEntity
  8
0
  6
CONTINUOUS
 62
     8
100
AcDbLine
 10
459.722937009
 20
367.3119841072
 30
0.0
 11
458.1886012863
 21
367.3119841072
 31
0.0
  0
LINE
  5
35F
330
1F
100
AcDbEntity
  8
0
  6
CONTINUOUS
 62
     8
100
AcDbLine
 10
498.3916603785
 20
367.3119841072
 30
0.0
 11
497.432159708
 21
367.3119841072
 31
0.0
  0
LINE
  5
360
330
1F
100
AcDbEntity
  8
0
  6
CONTINUOUS
 62
     7
100
AcDbLine
 10
210.9400010593
 20
197.6626312782
 30
0.0
 11
210.9400010593
 21
202.432327201
 31
0.0
  0
ARC
  5
361
330
1F
100
AcDbEntity
  8
0
  6
CONTINUOUS
 62
     7
100
AcDbCircle
 10
199.6900006129
 20
200.04747924
 30
0.0
 40
11.50000000057005
100
AcDbArc
 50
191.9687455532
 51
348.0312544212
  0
LINE
  5
362
330
1F
100
AcDbEntity
  8
0
  6
CONTINUOUS
 62
     7
100
AcDbLine
 10
188.4400001653
 20
202.432327201
 30
0.0
 11
188.4400001653
 21
197.6626312782
 31
0.0
  0
ARC
  5
363
330
1F
100
AcDbEntity
  8
0
  6
CONTINUOUS
 62
     7
100
AcDbCircle
 10
199.690000613
 20
200.0474792399
 30
0.0
 40
11.49999999963334
100
AcDbArc
 50
11.9687455586
 51
168.0312544712
  0
ARC
  5
364
330
1F
100
AcDbEntity
  8
0
  6
CONTINUOUS
 62
     7
100
AcDbCircle
 10
199.6900006123
 20
200.0474792396
 30
0.0
 40
12.00000000004805
100
AcDbArc
 50
200.3641348059
 51
339.6358651932
  0
SPLINE
  5
365
330
1F
100
AcDbEntity
  8
0
  6
CONTINUOUS
 62
     7
100
AcDbSpline
210
0.0
220
0.0
230
1.0
 70
    24
 71
     3
 72
     8
 73
     4
 74
     0
 42
0.000000001
 43
0.00000001
 40
0.0
 40
0.0
 40
0.0
 40
0.0
 40
1.0
 40
1.0
 40
1.0
 40
1.0
 10
188.440000612293
 20
197.6626312364485
 30
0.0
 10
188.440000612293
 20
197.0543278040415
 30
0.0
 10
188.4400006122849
 20
196.4581952192705
 30
0.0
 10
188.4400006122849
 20
195.8716559676661
 30
0.0
  0
SPLINE
  5
366
330
1F
100
AcDbEntity
  8
0
  6
CONTINUOUS
 62
     7
100
AcDbSpline
210
0.0
220
0.0
230
1.0
 70
    24
 71
     3
 72
     8
 73
     4
 74
     0
 42
0.000000001
 43
0.00000001
 40
0.0
 40
0.0
 40
0.0
 40
0.0
 40
1.0
 40
1.0
 40
1.0
 40
1.0
 10
210.9400006121387
 20
195.8716559672236
 30
0.0
 10
210.9400006121387
 20
196.4581952173765
 30
0.0
 10
210.9400006122849
 20
197.0543278014224
 30
0.0
 10
210.9400006122849
 20
197.6626312322945
 30
0.0
  0
ARC
  5
367
330
1F
100
AcDbEntity
  8
0
  6
CONTINUOUS
 62
     7
100
AcDbCircle
 10
199.6900006123
 20
200.0474792396
 30
0.0
 40
11.99999999999999
100
AcDbArc
 50
20.3641348083
 51
159.6358651944
  0
SPLINE
  5
368
330
1F
100
AcDbEntity
  8
0
  6
CONTINUOUS
 62
     7
100
AcDbSpline
210
0.0
220
0.0
230
1.0
 70
    24
 71
     3
 72
     8
 73
     4
 74
     0
 42
0.000000001
 43
0.00000001
 40
0.0
 40
0.0
 40
0.0
 40
0.0
 40
1.0
 40
1.0
 40
1.0
 40
1.0
 10
188.4400006121468
 20
204.2233025113383
 30
0.0
 10
188.4400006121468
 20
203.6367632590697
 30
0.0
 10
188.4400006122849
 20
203.0406306735619
 30
0.0
 10
188.4400006122849
 20
202.4323272404508
 30
0.0
  0
SPLINE
  5
369
330
1F
100
AcDbEntity
  8
0
  6
CONTINUOUS
 62
     7
100
AcDbSpline
210
0.0
220
0.0
230
1.0
 70
    24
 71
     3
 72
     8
 73
     4
 74
     0
 42
0.000000001
 43
0.00000001
 40
0.0
 40
0.0
 40
0.0
 40
0.0
 40
1.0
 40
1.0
 40
1.0
 40
1.0
 10
210.9400006122954
 20
202.4323272439087
 30
0.0
 10
210.9400006122954
 20
203.0406306760605
 30
0.0
 10
210.9400006122849
 20
203.6367632608887
 30
0.0
 10
210.9400006122849
 20
204.223302512247
 30
0.0
  0
ARC
  5
36A
330
1F
100
AcDbEntity
  8
0
  6
CONTINUOUS
 62
     7
100
AcDbCircle
 10
199.6900006123
 20
200.0474792396
 30
0.0
 40
12.00000000000003
100
AcDbArc
 50
159.6358651935
 51
200.3641348063
  0
ARC
  5
36B
330
1F
100
AcDbEntity
  8
0
  6
CONTINUOUS
 62
     7
100
AcDbCircle
 10
199.6900006123
 20
200.0474792396
 30
0.0
 40
11.99999999999999
100
AcDbArc
 50
339.6358651938
 51
20.3641348073
  0
CIRCLE
  5
36C
330
1F
100
AcDbEntity
  8
0
  6
CONTINUOUS
 62
     7
100
AcDbCircle
 10
199.6900006123
 20
200.0474792396
 30
0.0
 40
15.50000000000002
  0
ARC
  5
36D
330
1F
100
AcDbEntity
  8
0
  6
CONTINUOUS
 62
     7
100
AcDbCircle
 10
199.6900006123
 20
200.0474792396
 30
0.0
 40
17.00000000000002
100
AcDbArc
 50
19.7499227956
 51
160.2500772044
  0
SPLINE
  5
36E
330
1F
100
AcDbEntity
  8
0
  6
CONTINUOUS
 62
     7
100
AcDbSpline
210
0.0
220
0.0
230
1.0
 70
    24
 71
     3
 72
    22
 73
    18
 74
     0
 42
0.000000001
 43
0.00000001
 40
0.0
 40
0.0
 40
0.0
 40
0.0
 40
0.0312499999999997
 40
0.0312499999999997
 40
0.0624999999999993
 40
0.0624999999999993
 40
0.1249999999999999
 40
0.1249999999999999
 40
0.2500000000000001
 40
0.2500000000000001
 40
0.3750000000000003
 40
0.3750000000000003
 40
0.5000000000000003
 40
0.5000000000000003
 40
0.7500000000000001
 40
0.7500000000000001
 40
1.0
 40
1.0
 40
1.0
 40
1.0
 10
183.6900006122849
 20
205.7920418861388
 30
0.0
 10
183.6900006122849
 20
205.7920418861388
 30
0.0
 10
183.6900006122849
 20
205.7724933841031
 30
0.0
 10
183.6900006122849
 20
205.7100318066098
 30
0.0
 10
183.6900006122849
 20
205.6673580857787
 30
0.0
 10
183.6900006122849
 20
205.5270937505326
 30
0.0
 10
183.6900006122849
 20
205.4150512701481
 30
0.0
 10
183.6900006122849
 20
205.0727389290086
 30
0.0
 10
183.6900006122849
 20
204.8253208898401
 30
0.0
 10
183.6900006122849
 20
204.3309680154383
 30
0.0
 10
183.6900006122849
 20
204.0818108512471
 30
0.0
 10
183.6900006122849
 20
203.5814802261102
 30
0.0
 10
183.6900006122849
 20
203.3302636526134
 30
0.0
 10
183.6900006122849
 20
202.5748311641269
 30
0.0
 10
183.6900006122849
 20
202.0688777036163
 30
0.0
 10
183.6900006122849
 20
201.0582039013979
 30
0.0
 10
183.6900006122849
 20
200.5528387523382
 30
0.0
 10
183.6900006122849
 20
200.0474792396008
 30
0.0
  0
SPLINE
  5
36F
330
1F
100
AcDbEntity
  8
0
  6
CONTINUOUS
 62
     7
100
AcDbSpline
210
0.0
220
0.0
230
1.0
 70
    24
 71
     3
 72
    22
 73
    18
 74
     0
 42
0.000000001
 43
0.00000001
 40
0.0
 40
0.0
 40
0.0
 40
0.0
 40
0.2500000000000002
 40
0.2500000000000002
 40
0.5000000000000003
 40
0.5000000000000003
 40
0.6250000000000003
 40
0.6250000000000003
 40
0.7500000000000001
 40
0.7500000000000001
 40
0.8749999999999999
 40
0.8749999999999999
 40
0.9374999999999999
 40
0.9374999999999999
 40
0.96875
 40
0.96875
 40
1.0
 40
1.0
 40
1.0
 40
1.0
 10
215.6900006122849
 20
200.0474792396008
 30
0.0
 10
215.6900006122849
 20
200.5536130171757
 30
0.0
 10
215.6900006122847
 20
201.0597501374859
 30
0.0
 10
215.6900006122847
 20
202.0719908732623
 30
0.0
 10
215.6900006122849
 20
202.578178970451
 30
0.0
 10
215.6900006122849
 20
203.336197075702
 30
0.0
 10
215.6900006122775
 20
203.5886605835666
 30
0.0
 10
215.6900006122775
 20
204.0913918637469
 30
0.0
 10
215.6900006122847
 20
204.3420590736176
 30
0.0
 10
215.6900006122847
 20
204.8360800218429
 30
0.0
 10
215.6900006122849
 20
205.0798000095521
 30
0.0
 10
215.6900006122849
 20
205.4222029321768
 30
0.0
 10
215.6900006122849
 20
205.5323962299104
 30
0.0
 10
215.6900006122849
 20
205.6700184251915
 30
0.0
 10
215.6900006122849
 20
205.7118257677765
 30
0.0
 10
215.6900006122849
 20
205.7730525602719
 30
0.0
 10
215.6900006122849
 20
205.7920418861388
 30
0.0
 10
215.6900006122849
 20
205.7920418861388
 30
0.0
  0
ARC
  5
370
330
1F
100
AcDbEntity
  8
0
  6
CONTINUOUS
 62
     7
100
AcDbCircle
 10
199.6900006123
 20
200.0474792396
 30
0.0
 40
17.00000000000002
100
AcDbArc
 50
199.7499227956
 51
340.2500772044
  0
SPLINE
  5
371
330
1F
100
AcDbEntity
  8
0
  6
CONTINUOUS
 62
     7
100
AcDbSpline
210
0.0
220
0.0
230
1.0
 70
    24
 71
     3
 72
    22
 73
    18
 74
     0
 42
0.000000001
 43
0.00000001
 40
0.0
 40
0.0
 40
0.0
 40
0.0
 40
0.2500000000000003
 40
0.2500000000000003
 40
0.5000000000000006
 40
0.5000000000000006
 40
0.6250000000000006
 40
0.6250000000000006
 40
0.7500000000000004
 40
0.7500000000000004
 40
0.8750000000000002
 40
0.8750000000000002
 40
0.9375000000000002
 40
0.9375000000000002
 40
0.9687500000000002
 40
0.9687500000000002
 40
1.0
 40
1.0
 40
1.0
 40
1.0
 10
183.6900006122849
 20
200.0474792396008
 30
0.0
 10
183.6900006122849
 20
199.5413454620258
 30
0.0
 10
183.6900006122851
 20
199.0352083417156
 30
0.0
 10
183.6900006122851
 20
198.0229676059392
 30
0.0
 10
183.6900006122849
 20
197.5167795087505
 30
0.0
 10
183.6900006122849
 20
196.7587614034994
 30
0.0
 10
183.6900006122923
 20
196.506297895635
 30
0.0
 10
183.6900006122923
 20
196.0035666154546
 30
0.0
 10
183.6900006122851
 20
195.7528994055839
 30
0.0
 10
183.6900006122851
 20
195.2588784573586
 30
0.0
 10
183.6900006122849
 20
195.0151584696495
 30
0.0
 10
183.6900006122849
 20
194.6727555470247
 30
0.0
 10
183.6900006122849
 20
194.5625622492911
 30
0.0
 10
183.6900006122849
 20
194.4249400540101
 30
0.0
 10
183.6900006122849
 20
194.383132711425
 30
0.0
 10
183.6900006122849
 20
194.3219059189296
 30
0.0
 10
183.6900006122849
 20
194.3029165930627
 30
0.0
 10
183.6900006122849
 20
194.3029165930627
 30
0.0
  0
SPLINE
  5
372
330
1F
100
AcDbEntity
  8
0
  6
CONTINUOUS
 62
     7
100
AcDbSpline
210
0.0
220
0.0
230
1.0
 70
    24
 71
     3
 72
    22
 73
    18
 74
     0
 42
0.000000001
 43
0.00000001
 40
0.0
 40
0.0
 40
0.0
 40
0.0
 40
0.0312499999999992
 40
0.0312499999999992
 40
0.0624999999999984
 40
0.0624999999999984
 40
0.1249999999999979
 40
0.1249999999999979
 40
0.2499999999999981
 40
0.2499999999999981
 40
0.3749999999999983
 40
0.3749999999999983
 40
0.4999999999999987
 40
0.4999999999999987
 40
0.7499999999999993
 40
0.7499999999999993
 40
1.0
 40
1.0
 40
1.0
 40
1.0
 10
215.6900006122849
 20
194.3029165930627
 30
0.0
 10
215.6900006122849
 20
194.3029165930627
 30
0.0
 10
215.6900006122849
 20
194.3224650950984
 30
0.0
 10
215.6900006122849
 20
194.3849266725917
 30
0.0
 10
215.6900006122849
 20
194.4276003934228
 30
0.0
 10
215.6900006122849
 20
194.5678647286689
 30
0.0
 10
215.6900006122849
 20
194.6799072090534
 30
0.0
 10
215.6900006122849
 20
195.0222195501929
 30
0.0
 10
215.6900006122849
 20
195.2696375893615
 30
0.0
 10
215.6900006122849
 20
195.7639904637632
 30
0.0
 10
215.6900006122849
 20
196.0131476279544
 30
0.0
 10
215.6900006122849
 20
196.5134782530913
 30
0.0
 10
215.6900006122849
 20
196.7646948265881
 30
0.0
 10
215.6900006122849
 20
197.5201273150746
 30
0.0
 10
215.6900006122849
 20
198.0260807755852
 30
0.0
 10
215.6900006122849
 20
199.0367545778036
 30
0.0
 10
215.6900006122849
 20
199.5421197268633
 30
0.0
 10
215.6900006122849
 20
200.0474792396008
 30
0.0
  0
CIRCLE
  5
373
330
1F
100
AcDbEntity
  8
0
  6
CONTINUOUS
 62
     7
100
AcDbCircle
 10
199.6900006123
 20
200.0474792396
 30
0.0
 40
100.5
  0
SPLINE
  5
374
330
1F
100
AcDbEntity
  8
0
  6
CONTINUOUS
 62
     8
100
AcDbSpline
210
0.0
220
0.0
230
1.0
 70
     8
 71
     3
 72
    58
 73
    54
 74
     0
 42
0.000000001
 43
0.00000001
 40
0.0
 40
0.0
 40
0.0
 40
0.0
 40
0.003127653294003
 40
0.0062541334061758
 40
0.0093797414530356
 40
0.012504778803186
 40
0.0156295469903534
 40
0.0187543476261842
 40
0.02187948231293
 40
0.0250052525561457
 40
0.0281319596775279
 40
0.0312599047280184
 40
0.04688754000135
 40
0.0625167971568151
 40
0.0781444324304096
 40
0.0937736895856184
 40
0.1094013248592426
 40
0.1250305820144146
 40
0.1562780491002498
 40
0.187525516186085
 40
0.2187729832719203
 40
0.2500204503577557
 40
0.2812679174435909
 40
0.3125153845294262
 40
0.3437628516152614
 40
0.3750103187010966
 40
0.4062577857869319
 40
0.4375052528727671
 40
0.4687527199586025
 40
0.5000001870444377
 40
0.5312476541302731
 40
0.5624951212161083
 40
0.5937425883019435
 40
0.6249900553877789
 40
0.6562375224736141
 40
0.6874849895594493
 40
0.7187324566452845
 40
0.7499799237311199
 40
0.7812273908169554
 40
0.8124748579027905
 40
0.8437223249886256
 40
0.8749697920744608
 40
0.8905974273480739
 40
0.9062266845032599
 40
0.9218543197771693
 40
0.9374835769320607
 40
0.9531112122067668
 40
0.9687404693608617
 40
0.9749945285548038
 40
0.9812450988489825
 40
0.9874945922661497
 40
0.9937454220756685
 40
1.0
 40
1.0
 40
1.0
 40
1.0
 10
297.940000612285
 20
200.0474792396007
 30
0.0
 10
297.9390905264595
 20
200.3691727524769
 30
0.0
 10
297.9372706961815
 20
201.0124391110874
 30
0.0
 10
297.9225432520989
 20
201.9770958430298
 30
0.0
 10
297.8990315426234
 20
202.9412977932542
 30
0.0
 10
297.8658751355313
 20
203.9050449318761
 30
0.0
 10
297.8233044892895
 20
204.8683372557729
 30
0.0
 10
297.7712578957825
 20
205.8311746457372
 30
0.0
 10
297.7097517851396
 20
206.7935574202022
 30
0.0
 10
297.6387821513405
 20
207.7554842631013
 30
0.0
 10
297.5583486048664
 20
208.7169599615439
 30
0.0
 10
297.3487353059011
 20
210.9578718547464
 30
0.0
 10
296.9157762747648
 20
214.4695377518874
 30
0.0
 10
296.0908262640162
 20
219.2226077771288
 30
0.0
 10
295.0340078786257
 20
223.9298332671833
 30
0.0
 10
293.7471472159608
 20
228.5792070506171
 30
0.0
 10
292.2339769958958
 20
233.1602329527869
 30
0.0
 10
289.9193872911812
 20
239.1602157304866
 30
0.0
 10
286.4779927459564
 20
246.4369591175889
 30
0.0
 10
281.5132438031866
 20
254.7199308882764
 30
0.0
 10
275.760372167357
 20
262.4768451319654
 30
0.0
 10
269.2749334584284
 20
269.6324050359356
 30
0.0
 10
262.1193451821086
 20
276.1178576713668
 30
0.0
 10
254.3625305013159
 20
281.8707019735355
 30
0.0
 10
246.0791888513933
 20
286.8355463244463
 30
0.0
 10
237.3490941257464
 20
290.9645734996394
 30
0.0
 10
228.2563216985511
 20
294.2180195300044
 30
0.0
 10
218.8884399952643
 20
296.5645517320849
 30
0.0
 10
209.3356668226091
 20
297.9815717769653
 30
0.0
 10
199.6900006122849
 20
298.4554329709185
 30
0.0
 10
190.0443344019608
 20
297.9815717769654
 30
0.0
 10
180.4915612293055
 20
296.5645517320846
 30
0.0
 10
171.1236795260191
 20
294.2180195300052
 30
0.0
 10
162.030907098822
 20
290.9645734996366
 30
0.0
 10
153.3008123731821
 20
286.8355463244568
 30
0.0
 10
145.0174707232333
 20
281.8707019734963
 30
0.0
 10
137.2606560425384
 20
276.1178576715134
 30
0.0
 10
130.1050677658534
 20
269.6324050353883
 30
0.0
 10
123.6196290582875
 20
262.4768451340076
 30
0.0
 10
117.8667574173724
 20
254.7199308806547
 30
0.0
 10
112.9020084935816
 20
246.4369591460337
 30
0.0
 10
109.4606853337083
 20
239.1603667141248
 30
0.0
 10
107.1460805692599
 20
233.1603903280336
 30
0.0
 10
105.6329508198023
 20
228.5795265393766
 30
0.0
 10
104.3460340623826
 20
223.9299944499248
 30
0.0
 10
103.2892397315975
 20
219.222938819364
 30
0.0
 10
102.4642506258453
 20
214.4696886774063
 30
0.0
 10
101.991914792079
 20
210.6388135677132
 30
0.0
 10
101.7365501620456
 20
207.7562860124316
 30
0.0
 10
101.6038958329692
 20
205.8317686161944
 30
0.0
 10
101.5098310268754
 20
203.9053623171493
 30
0.0
 10
101.4509157838457
 20
201.9770531576785
 30
0.0
 10
101.4436397297303
 20
200.6907990507815
 30
0.0
 10
101.4400006122848
 20
200.0474792396008
 30
0.0
  0
SPLINE
  5
375
330
1F
100
AcDbEntity
  8
0
  6
CONTINUOUS
 62
     8
100
AcDbSpline
210
0.0
220
0.0
230
1.0
 70
     8
 71
     3
 72
    58
 73
    54
 74
     0
 42
0.000000001
 43
0.00000001
 40
0.0
 40
0.0
 40
0.0
 40
0.0
 40
0.0031276532935536
 40
0.006254133405377
 40
0.0093797414519872
 40
0.0125047788019879
 40
0.0156295469891054
 40
0.018754347624986
 40
0.0218794823118813
 40
0.0250052525553461
 40
0.0281319596770765
 40
0.0312599047280145
 40
0.0468875399993687
 40
0.0625167971568127
 40
0.0781444324283358
 40
0.0937736895856147
 40
0.1094013248581525
 40
0.1250305820144147
 40
0.15627804910025
 40
0.1875255161860852
 40
0.2187729832719205
 40
0.2500204503577561
 40
0.2812679174435916
 40
0.312515384529427
 40
0.3437628516152622
 40
0.3750103187010974
 40
0.4062577857869327
 40
0.4375052528727683
 40
0.4687527199586038
 40
0.5000001870444392
 40
0.5312476541302744
 40
0.56249512121611
 40
0.5937425883019456
 40
0.6249900553877809
 40
0.6562375224736161
 40
0.6874849895594514
 40
0.7187324566452865
 40
0.7499799237311221
 40
0.7812273908169577
 40
0.812474857902793
 40
0.8437223249886282
 40
0.8749697920744635
 40
0.8905974273503044
 40
0.9062266845032622
 40
0.9218543197769367
 40
0.9374835769320577
 40
0.9531112122054676
 40
0.9687404693608613
 40
0.9749945285547595
 40
0.981245098848916
 40
0.9874945922660833
 40
0.9937454220756242
 40
1.0
 40
1.0
 40
1.0
 40
1.0
 10
101.4400006122848
 20
200.0474792396008
 30
0.0
 10
101.4409106981103
 20
199.7257857267707
 30
0.0
 10
101.4427305283884
 20
199.0825193682425
 30
0.0
 10
101.4574579724713
 20
198.117862636408
 30
0.0
 10
101.4809696819468
 20
197.1536606862606
 30
0.0
 10
101.5141260890391
 20
196.1899135476849
 30
0.0
 10
101.5566967352811
 20
195.2266212238036
 30
0.0
 10
101.6087433287883
 20
194.2637838338238
 30
0.0
 10
101.6702494394312
 20
193.3014010593126
 30
0.0
 10
101.7412190732305
 20
192.3394742163366
 30
0.0
 10
101.8216526197052
 20
191.3779985177862
 30
0.0
 10
102.0312659186238
 20
189.1370866247014
 30
0.0
 10
102.4642249497705
 20
185.6254207275148
 30
0.0
 10
103.2891749604706
 20
180.8723507024808
 30
0.0
 10
104.3459933459046
 20
176.165125212228
 30
0.0
 10
105.6328540085187
 20
171.5157514288967
 30
0.0
 10
107.1460242285989
 20
166.9347255265067
 30
0.0
 10
109.4606139333621
 20
160.9347427488245
 30
0.0
 10
112.9020084786062
 20
153.6579993616099
 30
0.0
 10
117.866757421385
 20
145.3750275909259
 30
0.0
 10
123.6196290572123
 20
137.6181133472359
 30
0.0
 10
130.1050677661414
 20
130.462553443266
 30
0.0
 10
137.2606560424612
 20
123.9771008078347
 30
0.0
 10
145.017470723254
 20
118.224256505666
 30
0.0
 10
153.3008123731765
 20
113.2594121547553
 30
0.0
 10
162.0309070988233
 20
109.1303849795622
 30
0.0
 10
171.1236795260186
 20
105.8769389491971
 30
0.0
 10
180.4915612293055
 20
103.5304067471167
 30
0.0
 10
190.0443344019608
 20
102.1133867022362
 30
0.0
 10
199.6900006122849
 20
101.639525508283
 30
0.0
 10
209.3356668226091
 20
102.1133867022362
 30
0.0
 10
218.8884399952643
 20
103.5304067471169
 30
0.0
 10
228.2563216985507
 20
105.8769389491964
 30
0.0
 10
237.3490941257479
 20
109.130384979565
 30
0.0
 10
246.0791888513877
 20
113.2594121547447
 30
0.0
 10
254.3625305013364
 20
118.2242565057053
 30
0.0
 10
262.1193451820315
 20
123.9771008076881
 30
0.0
 10
269.2749334587165
 20
130.4625534438132
 30
0.0
 10
275.7603721662823
 20
137.618113345194
 30
0.0
 10
281.5132438071979
 20
145.3750275985466
 30
0.0
 10
286.4779927309864
 20
153.6579993331685
 30
0.0
 10
289.919315890965
 20
160.9345917652823
 30
0.0
 10
292.2339206553778
 20
166.9345681513873
 30
0.0
 10
293.7470504048371
 20
171.5154319400185
 30
0.0
 10
295.0339671621266
 20
176.1649640292674
 30
0.0
 10
296.0907614929461
 20
180.8720196596819
 30
0.0
 10
296.915750598732
 20
185.6252698016593
 30
0.0
 10
297.3880864324748
 20
189.4561449113512
 30
0.0
 10
297.6434510625251
 20
192.3386724667584
 30
0.0
 10
297.7761053916006
 20
194.263189862989
 30
0.0
 10
297.8701701976946
 20
196.189596162034
 30
0.0
 10
297.9290854407242
 20
198.1179053215116
 30
0.0
 10
297.9363614948396
 20
199.4041594284155
 30
0.0
 10
297.940000612285
 20
200.0474792396008
 30
0.0
  0
ENDSEC
  0
SECTION
  2
OBJECTS
  0
DICTIONARY
  5
C
330
0
100
AcDbDictionary
  3
ACAD_GROUP
350
D
  3
ACAD_MLINESTYLE
350
17
  3
ACAD_SCALELIST
350
47
  0
DICTIONARY
  5
D
102
{ACAD_REACTORS
330
C
102
}
330
C
100
AcDbDictionary
  0
DICTIONARY
  5
17
102
{ACAD_REACTORS
330
C
102
}
330
C
100
AcDbDictionary
  3
STANDARD
350
18
  0
DICTIONARY
  5
47
102
{ACAD_REACTORS
330
C
102
}
330
C
100
AcDbDictionary
  0
MLINESTYLE
  5
18
102
{ACAD_REACTORS
330
17
102
}
330
17
100
AcDbMlineStyle
  2
Standard
 70
     0
  3

 62
   256
 51
90.0
 52
90.0
 71
     2
 49
0.5
 62
   256
  6
BYLAYER
 49
-0.5
 62
   256
  6
BYLAYER
  0
ENDSEC
  0
EOF
