  0
SECTION
  2
HEADER
  9
$ACADVER
  1
AC1024
  9
$ACADMAINTVER
 70
     6
  9
$DWGCODEPAGE
  3
ANSI_1252
  9
$INSBASE
 10
0.0
 20
0.0
 30
0.0
  9
$EXTMIN
 10
0.0
 20
0.0
 30
0.0
  9
$EXTMAX
 10
594.0
 20
841.0
 30
0.0
  9
$LIMMIN
 10
0.0
 20
0.0
  9
$LIMMAX
 10
594.0
 20
841.0
  9
$ORTHOMODE
 70
     0
  9
$REGENMODE
 70
     1
  9
$FILLMODE
 70
     1
  9
$QTEXTMODE
 70
     0
  9
$MIRRTEXT
 70
     1
  9
$LTSCALE
 40
1.0
  9
$ATTMODE
 70
     1
  9
$TEXTSIZE
 40
10.0
  9
$TRACEWID
 40
1.0
  9
$TEXTSTYLE
  7
Standard
  9
$CLAYER
  8
0
  9
$CELTYPE
  6
ByLayer
  9
$CECOLOR
 62
   256
  9
$CELTSCALE
 40
1.0
  9
$DISPSILH
 70
     0
  9
$DIMSCALE
 40
1.0
  9
$DIMASZ
 40
2.5
  9
$DIMEXO
 40
0.0
  9
$DIMDLI
 40
3.75
  9
$DIMRND
 40
0.0
  9
$DIMDLE
 40
0.0
  9
$DIMEXE
 40
1.0
  9
$DIMTP
 40
0.0
  9
$DIMTM
 40
0.0
  9
$DIMTXT
 40
3.5
  9
$DIMCEN
 40
2.5
  9
$DIMTSZ
 40
0.0
  9
$DIMTOL
 70
     0
  9
$DIMLIM
 70
     0
  9
$DIMTIH
 70
     1
  9
$DIMTOH
 70
     1
  9
$DIMSE1
 70
     0
  9
$DIMSE2
 70
     0
  9
$DIMTAD
 70
     1
  9
$DIMZIN
 70
     0
  9
$DIMBLK
  1

  9
$DIMASO
 70
     1
  9
$DIMSHO
 70
     1
  9
$DIMPOST
  1

  9
$DIMAPOST
  1

  9
$DIMALT
 70
     0
  9
$DIMALTD
 70
     3
  9
$DIMALTF
 40
0.0393700787
  9
$DIMLFAC
 40
1.0
  9
$DIMTOFL
 70
     1
  9
$DIMTVP
 40
0.0
  9
$DIMTIX
 70
     0
  9
$DIMSOXD
 70
     0
  9
$DIMSAH
 70
     0
  9
$DIMBLK1
  1

  9
$DIMBLK2
  1

  9
$DIMSTYLE
  2
ISO-25
  9
$DIMCLRD
 70
     0
  9
$DIMCLRE
 70
     0
  9
$DIMCLRT
 70
     0
  9
$DIMTFAC
 40
1.0
  9
$DIMGAP
 40
1.5
  9
$DIMJUST
 70
     0
  9
$DIMSD1
 70
     0
  9
$DIMSD2
 70
     0
  9
$DIMTOLJ
 70
     0
  9
$DIMTZIN
 70
     0
  9
$DIMALTZ
 70
     0
  9
$DIMALTTZ
 70
     0
  9
$DIMUPT
 70
     0
  9
$DIMDEC
 70
     2
  9
$DIMTDEC
 70
     2
  9
$DIMALTU
 70
     2
  9
$DIMALTTD
 70
     3
  9
$DIMTXSTY
  7
Standard
  9
$DIMAUNIT
 70
     0
  9
$DIMADEC
 70
     2
  9
$DIMALTRND
 40
0.0
  9
$DIMAZIN
 70
     0
  9
$DIMDSEP
 70
    44
  9
$DIMATFIT
 70
     3
  9
$DIMFRAC
 70
     0
  9
$DIMLDRBLK
  1

  9
$DIMLUNIT
 70
     2
  9
$DIMLWD
 70
    -2
  9
$DIMLWE
 70
    -2
  9
$DIMTMOVE
 70
     0
  9
$DIMFXL
 40
1.0
  9
$DIMFXLON
 70
     0
  9
$DIMJOGANG
 40
0.7853981634
  9
$DIMTFILL
 70
     0
  9
$DIMTFILLCLR
 70
     0
  9
$DIMARCSYM
 70
     0
  9
$DIMLTYPE
  6

  9
$DIMLTEX1
  6

  9
$DIMLTEX2
  6

  9
$DIMTXTDIRECTION
 70
     0
  9
$LUNITS
 70
     2
  9
$LUPREC
 70
     2
  9
$SKETCHINC
 40
1.0
  9
$FILLETRAD
 40
10.0
  9
$AUNITS
 70
     0
  9
$AUPREC
 70
     2
  9
$MENU
  1
.
  9
$ELEVATION
 40
0.0
  9
$PELEVATION
 40
0.0
  9
$THICKNESS
 40
0.0
  9
$LIMCHECK
 70
     0
  9
$CHAMFERA
 40
10.0
  9
$CHAMFERB
 40
10.0
  9
$CHAMFERC
 40
20.0
  9
$CHAMFERD
 40
0.0
  9
$SKPOLY
 70
     0
  9
$TDCREATE
 40
2456171.364388275
  9
$TDUCREATE
 40
2456171.281054942
  9
$TDUPDATE
 40
2456171.364388287
  9
$TDUUPDATE
 40
2456171.281054954
  9
$TDINDWG
 40
0.0000000116
  9
$TDUSRTIMER
 40
0.0000000116
  9
$USRTIMER
 70
     1
  9
$ANGBASE
 50
0.0
  9
$ANGDIR
 70
     0
  9
$PDMODE
 70
     0
  9
$PDSIZE
 40
-1.0
  9
$PLINEWID
 40
0.0
  9
$SPLFRAME
 70
     0
  9
$SPLINETYPE
 70
     6
  9
$SPLINESEGS
 70
     8
  9
$HANDSEED
  5
106
  9
$SURFTAB1
 70
     6
  9
$SURFTAB2
 70
     6
  9
$SURFTYPE
 70
     6
  9
$SURFU
 70
     6
  9
$SURFV
 70
     6
  9
$UCSBASE
  2

  9
$UCSNAME
  2

  9
$UCSORG
 10
0.0
 20
0.0
 30
0.0
  9
$UCSXDIR
 10
1.0
 20
0.0
 30
0.0
  9
$UCSYDIR
 10
0.0
 20
1.0
 30
0.0
  9
$UCSORTHOREF
  2

  9
$UCSORTHOVIEW
 70
     0
  9
$UCSORGTOP
 10
0.0
 20
0.0
 30
0.0
  9
$UCSORGBOTTOM
 10
0.0
 20
0.0
 30
0.0
  9
$UCSORGLEFT
 10
0.0
 20
0.0
 30
0.0
  9
$UCSORGRIGHT
 10
0.0
 20
0.0
 30
0.0
  9
$UCSORGFRONT
 10
0.0
 20
0.0
 30
0.0
  9
$UCSORGBACK
 10
0.0
 20
0.0
 30
0.0
  9
$PUCSBASE
  2

  9
$PUCSNAME
  2

  9
$PUCSORG
 10
0.0
 20
0.0
 30
0.0
  9
$PUCSXDIR
 10
1.0
 20
0.0
 30
0.0
  9
$PUCSYDIR
 10
0.0
 20
1.0
 30
0.0
  9
$PUCSORTHOREF
  2

  9
$PUCSORTHOVIEW
 70
     0
  9
$PUCSORGTOP
 10
0.0
 20
0.0
 30
0.0
  9
$PUCSORGBOTTOM
 10
0.0
 20
0.0
 30
0.0
  9
$PUCSORGLEFT
 10
0.0
 20
0.0
 30
0.0
  9
$PUCSORGRIGHT
 10
0.0
 20
0.0
 30
0.0
  9
$PUCSORGFRONT
 10
0.0
 20
0.0
 30
0.0
  9
$PUCSORGBACK
 10
0.0
 20
0.0
 30
0.0
  9
$USERI1
 70
     0
  9
$USERI2
 70
     0
  9
$USERI3
 70
     0
  9
$USERI4
 70
     0
  9
$USERI5
 70
     0
  9
$USERR1
 40
0.0
  9
$USERR2
 40
0.0
  9
$USERR3
 40
0.0
  9
$USERR4
 40
0.0
  9
$USERR5
 40
0.0
  9
$WORLDVIEW
 70
     1
  9
$SHADEDGE
 70
     3
  9
$SHADEDIF
 70
    70
  9
$TILEMODE
 70
     1
  9
$MAXACTVP
 70
    64
  9
$PINSBASE
 10
0.0
 20
0.0
 30
0.0
  9
$PLIMCHECK
 70
     0
  9
$PEXTMIN
 10
1.0000000000E+20
 20
1.0000000000E+20
 30
1.0000000000E+20
  9
$PEXTMAX
 10
-1.0000000000E+20
 20
-1.0000000000E+20
 30
-1.0000000000E+20
  9
$PLIMMIN
 10
0.0
 20
0.0
  9
$PLIMMAX
 10
420.0
 20
297.0
  9
$UNITMODE
 70
     0
  9
$VISRETAIN
 70
     1
  9
$PLINEGEN
 70
     0
  9
$PSLTSCALE
 70
     1
  9
$TREEDEPTH
 70
  3020
  9
$CMLSTYLE
  2
Standard
  9
$CMLJUST
 70
     0
  9
$CMLSCALE
 40
20.0
  9
$PROXYGRAPHICS
 70
     1
  9
$MEASUREMENT
 70
     1
  9
$CELWEIGHT
370
    -1
  9
$ENDCAPS
280
     0
  9
$JOINSTYLE
280
     0
  9
$LWDISPLAY
290
     1
  9
$INSUNITS
 70
     4
  9
$HYPERLINKBASE
  1

  9
$STYLESHEET
  1

  9
$XEDIT
290
     1
  9
$CEPSNTYPE
380
     0
  9
$PSTYLEMODE
290
     1
  9
$FINGERPRINTGUID
  2
{9170F434-7874-43D7-AA80-AC1941EA5DFF}
  9
$VERSIONGUID
  2
{FAEB1C32-E019-11D5-929B-00C0DF256EC4}
  9
$EXTNAMES
290
     1
  9
$PSVPSCALE
 40
0.0
  9
$OLESTARTUP
290
     0
  9
$SORTENTS
280
   127
  9
$INDEXCTL
280
     0
  9
$HIDETEXT
280
     1
  9
$XCLIPFRAME
280
     2
  9
$HALOGAP
280
     0
  9
$OBSCOLOR
 70
   257
  9
$OBSLTYPE
280
     0
  9
$INTERSECTIONDISPLAY
280
     0
  9
$INTERSECTIONCOLOR
 70
   257
  9
$DIMASSOC
280
     2
  9
$PROJECTNAME
  1

  9
$CAMERADISPLAY
290
     0
  9
$LENSLENGTH
 40
50.0
  9
$CAMERAHEIGHT
 40
0.0
  9
$STEPSPERSEC
 40
2.0
  9
$STEPSIZE
 40
6.0
  9
$3DDWFPREC
 40
2.0
  9
$PSOLWIDTH
 40
5.0
  9
$PSOLHEIGHT
 40
80.0
  9
$LOFTANG1
 40
1.5707963268
  9
$LOFTANG2
 40
1.5707963268
  9
$LOFTMAG1
 40
0.0
  9
$LOFTMAG2
 40
0.0
  9
$LOFTPARAM
 70
     7
  9
$LOFTNORMALS
280
     1
  9
$LATITUDE
 40
37.795
  9
$LONGITUDE
 40
-122.394
  9
$NORTHDIRECTION
 40
0.0
  9
$TIMEZONE
 70
 -8000
  9
$LIGHTGLYPHDISPLAY
280
     1
  9
$TILEMODELIGHTSYNCH
280
     1
  9
$SOLIDHIST
280
     1
  9
$SHOWHIST
280
     1
  9
$DWFFRAME
280
     2
  9
$DGNFRAME
280
     2
  9
$REALWORLDSCALE
290
     1
  9
$INTERFERECOLOR
 62
   256
  9
$CSHADOW
280
     0
  9
$SHADOWPLANELOCATION
 40
0.0
  0
ENDSEC
  0
SECTION
  2
CLASSES
  0
CLASS
  1
ACDBDICTIONARYWDFLT
  2
AcDbDictionaryWithDefault
  3
ObjectDBX Classes
 90
        0
 91
        4
280
     0
281
     0
  0
CLASS
  1
VISUALSTYLE
  2
AcDbVisualStyle
  3
ObjectDBX Classes
 90
     4095
 91
        4
280
     0
281
     0
  0
CLASS
  1
MATERIAL
  2
AcDbMaterial
  3
ObjectDBX Classes
 90
     1153
 91
        4
280
     0
281
     0
  0
ENDSEC
  0
SECTION
  2
TABLES
  0
TABLE
  2
VPORT
  5
8
330
0
100
AcDbSymbolTable
 70
     1
  0
VPORT
  5
29
330
8
100
AcDbSymbolTableRecord
100
AcDbViewportTableRecord
  2
*Active
 70
     0
 10
0.0
 20
0.0
 11
1.0
 21
1.0
 12
297.0
 22
420.5
 13
0.0
 23
0.0
 14
10.0
 24
10.0
 15
10.0
 25
10.0
 16
0.0
 26
0.0
 36
1.0
 17
0.0
 27
0.0
 37
0.0
 40
841.0
 41
0.7063020214
 42
50.0
 43
0.0
 44
0.0
 50
0.0
 51
0.0
 71
     0
 72
  2000
 73
     1
 74
     3
 75
     0
 76
     0
 77
     0
 78
     0
281
     0
 65
     1
110
0.0
120
0.0
130
0.0
111
1.0
121
0.0
131
0.0
112
0.0
122
1.0
132
0.0
 79
     0
146
0.0
 60
     3
 61
     5
292
     1
282
     1
141
0.0
142
0.0
 63
   250
  0
ENDTAB
  0
TABLE
  2
LTYPE
  5
5
330
0
100
AcDbSymbolTable
 70
     6
  0
LTYPE
  5
14
330
5
100
AcDbSymbolTableRecord
100
AcDbLinetypeTableRecord
  2
ByBlock
 70
     0
  3

 72
    65
 73
     0
 40
0.0
  0
LTYPE
  5
15
330
5
100
AcDbSymbolTableRecord
100
AcDbLinetypeTableRecord
  2
ByLayer
 70
     0
  3

 72
    65
 73
     0
 40
0.0
  0
LTYPE
  5
16
330
5
100
AcDbSymbolTableRecord
100
AcDbLinetypeTableRecord
  2
Continuous
 70
     0
  3
Solid line
 72
    65
 73
     0
 40
0.0
  0
LTYPE
  5
3F
330
5
100
AcDbSymbolTableRecord
100
AcDbLinetypeTableRecord
  2
HIDDEN
 70
     0
  3
Hidden __ __ __ __ __ __ __ __ __ __ __ __ __ __
 72
    65
 73
     2
 40
1.905
 49
1.27
 74
     0
 49
-0.635
 74
     0
  0
LTYPE
  5
40
330
5
100
AcDbSymbolTableRecord
100
AcDbLinetypeTableRecord
  2
PHANTOM
 70
     0
  3
Phantom ______  __  __  ______  __  __  ______
 72
    65
 73
     6
 40
12.7
 49
6.35
 74
     0
 49
-1.27
 74
     0
 49
1.27
 74
     0
 49
-1.27
 74
     0
 49
1.27
 74
     0
 49
-1.27
 74
     0
  0
LTYPE
  5
41
330
5
100
AcDbSymbolTableRecord
100
AcDbLinetypeTableRecord
  2
CENTER
 70
     0
  3
Center ____ _ ____ _ ____ _ ____ _ ____ _ ____
 72
    65
 73
     4
 40
10.16
 49
6.35
 74
     0
 49
-1.27
 74
     0
 49
1.27
 74
     0
 49
-1.27
 74
     0
  0
LTYPE
  5
42
330
5
100
AcDbSymbolTableRecord
100
AcDbLinetypeTableRecord
  2
CENTERX2
 70
     0
  3
Center (2x) ________  __  ________  __  _____
 72
    65
 73
     4
 40
20.32
 49
12.7
 74
     0
 49
-2.54
 74
     0
 49
2.54
 74
     0
 49
-2.54
 74
     0
  0
LTYPE
  5
43
330
5
100
AcDbSymbolTableRecord
100
AcDbLinetypeTableRecord
  2
DOT2
 70
     0
  3
Dot (.5x) ........................................
 72
    65
 73
     2
 40
0.635
 49
0.0
 74
     0
 49
-0.635
 74
     0
  0
ENDTAB
  0
TABLE
  2
LAYER
  5
2
330
0
100
AcDbSymbolTable
 70
     1
  0
LAYER
  5
10
330
2
100
AcDbSymbolTableRecord
100
AcDbLayerTableRecord
  2
0
 70
     0
 62
     7
  6
Continuous
370
    -3
390
F
347
3E
  0
ENDTAB
  0
TABLE
  2
STYLE
  5
3
330
0
100
AcDbSymbolTable
 70
     3
  0
STYLE
  5
11
330
3
100
AcDbSymbolTableRecord
100
AcDbTextStyleTableRecord
  2
Standard
 70
     0
 40
0.0
 41
1.0
 50
0.0
 71
     0
 42
2.5
  3
txt
  4

  0
STYLE
  5
47
330
3
100
AcDbSymbolTableRecord
100
AcDbTextStyleTableRecord
  2
SLDTEXTSTYLE0
 70
     0
 40
0.0
 41
0.96
 50
0.0
 71
     0
 42
0.2
  3
ISOCP3
  4

  0
STYLE
  5
5E
330
3
100
AcDbSymbolTableRecord
100
AcDbTextStyleTableRecord
  2
SLDTEXTSTYLE1
 70
     0
 40
0.0
 41
0.605
 50
0.0
 71
     0
 42
0.2
  3
TXT
  4

  0
ENDTAB
  0
TABLE
  2
VIEW
  5
6
330
0
100
AcDbSymbolTable
 70
     0
  0
ENDTAB
  0
TABLE
  2
UCS
  5
7
330
0
100
AcDbSymbolTable
 70
     0
  0
ENDTAB
  0
TABLE
  2
APPID
  5
9
330
0
100
AcDbSymbolTable
 70
     1
  0
APPID
  5
12
330
9
100
AcDbSymbolTableRecord
100
AcDbRegAppTableRecord
  2
ACAD
 70
     0
  0
ENDTAB
  0
TABLE
  2
DIMSTYLE
  5
A
330
0
100
AcDbSymbolTable
 70
     2
100
AcDbDimStyleTable
  0
DIMSTYLE
105
27
330
A
100
AcDbSymbolTableRecord
100
AcDbDimStyleTableRecord
  2
ISO-25
 70
     0
 41
2.5
 42
0.625
 43
3.75
 44
1.25
 73
     0
 74
     0
 77
     1
 78
     8
140
2.5
141
2.5
143
0.0393700787
147
0.625
171
     3
172
     1
178
     0
271
     2
272
     2
274
     3
278
    44
283
     0
284
     8
340
11
  0
DIMSTYLE
105
48
102
{ACAD_REACTORS
330
46
330
53
102
}
330
A
100
AcDbSymbolTableRecord
100
AcDbDimStyleTableRecord
  2
SLDDIMSTYLE0
 70
     0
 41
2.5
 44
0.0
 45
0.000000001
 73
     0
 74
     0
 77
     1
 78
    12
 79
     3
140
6.0
147
1.5
173
     1
178
     0
271
     2
272
     2
276
     2
284
    12
340
47
  0
ENDTAB
  0
TABLE
  2
BLOCK_RECORD
  5
1
330
0
100
AcDbSymbolTable
 70
     3
  0
BLOCK_RECORD
  5
1F
330
1
100
AcDbSymbolTableRecord
100
AcDbBlockTableRecord
  2
*Model_Space
340
22
 70
     0
280
     1
281
     0
  0
BLOCK_RECORD
  5
1B
330
1
100
AcDbSymbolTableRecord
100
AcDbBlockTableRecord
  2
*Paper_Space
340
1E
 70
     0
280
     1
281
     0
  0
BLOCK_RECORD
  5
23
330
1
100
AcDbSymbolTableRecord
100
AcDbBlockTableRecord
  2
*Paper_Space0
340
26
 70
     0
280
     1
281
     0
  0
BLOCK_RECORD
  5
49
330
1
100
AcDbSymbolTableRecord
100
AcDbBlockTableRecord
  2
*D1
340
0
 70
     0
280
     1
281
     0
  0
BLOCK_RECORD
  5
54
330
1
100
AcDbSymbolTableRecord
100
AcDbBlockTableRecord
  2
*D2
340
0
 70
     0
280
     1
281
     0
  0
ENDTAB
  0
ENDSEC
  0
SECTION
  2
BLOCKS
  0
BLOCK
  5
20
330
1F
100
AcDbEntity
  8
0
100
AcDbBlockBegin
  2
*Model_Space
 70
     0
 10
0.0
 20
0.0
 30
0.0
  3
*Model_Space
  1

  0
ENDBLK
  5
21
330
1F
100
AcDbEntity
  8
0
100
AcDbBlockEnd
  0
BLOCK
  5
1C
330
1B
100
AcDbEntity
 67
     1
  8
0
100
AcDbBlockBegin
  2
*Paper_Space
 70
     0
 10
0.0
 20
0.0
 30
0.0
  3
*Paper_Space
  1

  0
ENDBLK
  5
1D
330
1B
100
AcDbEntity
 67
     1
  8
0
100
AcDbBlockEnd
  0
BLOCK
  5
24
330
23
100
AcDbEntity
  8
0
100
AcDbBlockBegin
  2
*Paper_Space0
 70
     0
 10
0.0
 20
0.0
 30
0.0
  3
*Paper_Space0
  1

  0
ENDBLK
  5
25
330
23
100
AcDbEntity
  8
0
100
AcDbBlockEnd
  0
BLOCK
  5
4A
330
49
100
AcDbEntity
  8
0
100
AcDbBlockBegin
  2
*D1
 70
     1
 10
0.0
 20
0.0
 30
0.0
  3
*D1
  1

  0
SOLID
  5
4C
330
49
100
AcDbEntity
  8
0
  6
Continuous
 62
     7
370
     0
100
AcDbTrace
 10
42.7614395004
 20
152.0299240879
 30
0.0
 11
42.4614395004
 21
149.5299240879
 31
0.0
 12
43.0614395004
 22
149.5299240879
 32
0.0
 13
43.0614395004
 23
149.5299240879
 33
0.0
  0
SOLID
  5
4D
330
49
100
AcDbEntity
  8
0
  6
Continuous
 62
     7
370
     0
100
AcDbTrace
 10
42.7614395004
 20
52.0299240879
 30
0.0
 11
43.0614395004
 21
54.5299240879
 31
0.0
 12
42.4614395004
 22
54.5299240879
 32
0.0
 13
42.4614395004
 23
54.5299240879
 33
0.0
  0
LINE
  5
4E
330
49
100
AcDbEntity
  8
0
  6
Continuous
 62
     7
370
     0
100
AcDbLine
 10
56.6850079902
 20
152.0299240879
 30
0.0
 11
41.7614395004
 21
152.0299240879
 31
0.0
  0
LINE
  5
4F
330
49
100
AcDbEntity
  8
0
  6
Continuous
 62
     7
370
     0
100
AcDbLine
 10
56.6850079902
 20
52.0299240879
 30
0.0
 11
41.7614395004
 21
52.0299240879
 31
0.0
  0
LINE
  5
50
330
49
100
AcDbEntity
  8
0
  6
Continuous
 62
     7
370
     0
100
AcDbLine
 10
42.7614395004
 20
152.0299240879
 30
0.0
 11
42.7614395004
 21
52.0299240879
 31
0.0
  0
MTEXT
  5
51
330
49
100
AcDbEntity
  8
0
  6
Continuous
 62
     7
370
     0
100
AcDbMText
 10
35.0270332946
 20
91.6722208134
 30
0.1
 40
6.0
 41
0.0
 46
0.0
 71
     1
 72
     1
  1
100
  7
SLDTEXTSTYLE0
 11
-7.044195017643634E-15
 21
1.0
 31
0.0
 73
     1
 44
1.0
  0
MTEXT
  5
52
330
49
100
AcDbEntity
  8
0
  6
Continuous
 62
     7
370
     0
100
AcDbMText
 10
35.0270332946
 20
108.4388881795
 30
0.1
 40
6.0
 41
0.0
 46
0.0
 71
     1
 72
     1
  1
mm
  7
SLDTEXTSTYLE0
 11
-7.044195017643634E-15
 21
1.0
 31
0.0
 73
     1
 44
1.0
  0
ENDBLK
  5
4B
330
49
100
AcDbEntity
  8
0
100
AcDbBlockEnd
  0
BLOCK
  5
55
330
54
100
AcDbEntity
  8
0
100
AcDbBlockBegin
  2
*D2
 70
     1
 10
0.0
 20
0.0
 30
0.0
  3
*D2
  1

  0
SOLID
  5
57
330
54
100
AcDbEntity
  8
0
  6
Continuous
 62
     7
370
     0
100
AcDbTrace
 10
56.6850079902
 20
38.4602342313
 30
0.0
 11
59.1850079902
 21
38.1602342313
 31
0.0
 12
59.1850079902
 22
38.7602342313
 32
0.0
 13
59.1850079902
 23
38.7602342313
 33
0.0
  0
SOLID
  5
58
330
54
100
AcDbEntity
  8
0
  6
Continuous
 62
     7
370
     0
100
AcDbTrace
 10
156.6850079902
 20
38.4602342313
 30
0.0
 11
154.1850079902
 21
38.7602342313
 31
0.0
 12
154.1850079902
 22
38.1602342313
 32
0.0
 13
154.1850079902
 23
38.1602342313
 33
0.0
  0
LINE
  5
59
330
54
100
AcDbEntity
  8
0
  6
Continuous
 62
     7
370
     0
100
AcDbLine
 10
56.6850079902
 20
52.0299240879
 30
0.0
 11
56.6850079902
 21
37.4602342313
 31
0.0
  0
LINE
  5
5A
330
54
100
AcDbEntity
  8
0
  6
Continuous
 62
     7
370
     0
100
AcDbLine
 10
156.6850079902
 20
52.0299240879
 30
0.0
 11
156.6850079902
 21
37.4602342313
 31
0.0
  0
LINE
  5
5B
330
54
100
AcDbEntity
  8
0
  6
Continuous
 62
     7
370
     0
100
AcDbLine
 10
56.6850079902
 20
38.4602342313
 30
0.0
 11
156.6850079902
 21
38.4602342313
 31
0.0
  0
MTEXT
  5
5C
330
54
100
AcDbEntity
  8
0
  6
Continuous
 62
     7
370
     0
100
AcDbMText
 10
91.2668151533
 20
46.1946404371
 30
0.1
 40
6.0
 41
0.0
 46
0.0
 71
     1
 72
     1
  1
100
  7
SLDTEXTSTYLE0
 73
     1
 44
1.0
  0
MTEXT
  5
5D
330
54
100
AcDbEntity
  8
0
  6
Continuous
 62
     7
370
     0
100
AcDbMText
 10
108.0334825193
 20
46.1946404371
 30
0.1
 40
6.0
 41
0.0
 46
0.0
 71
     1
 72
     1
  1
mm
  7
SLDTEXTSTYLE0
 73
     1
 44
1.0
  0
ENDBLK
  5
56
330
54
100
AcDbEntity
  8
0
100
AcDbBlockEnd
  0
ENDSEC
  0
SECTION
  2
ENTITIES
  0
LINE
  5
44
330
1F
100
AcDbEntity
  8
0
  6
Continuous
 62
     7
370
     0
100
AcDbLine
 10
56.6850079902
 20
152.0299240879
 30
0.0
 11
56.6850079902
 21
52.0299240879
 31
0.0
  0
LINE
  5
45
330
1F
100
AcDbEntity
  8
0
  6
Continuous
 62
     7
370
     0
100
AcDbLine
 10
56.6850079902
 20
52.0299240879
 30
0.0
 11
156.6850079902
 21
52.0299240879
 31
0.0
  0
DIMENSION
  5
46
330
1F
100
AcDbEntity
  8
0
  6
Continuous
 62
     7
370
     0
100
AcDbDimension
280
     0
  2
*D1
 10
42.7614395004
 20
52.0299240879
 30
0.0
 11
42.7614395004
 21
105.4472211621
 31
0.0
 70
   160
  1
<>mm
 71
     2
 42
-1.0
 73
     0
 74
     0
 75
     0
  3
SLDDIMSTYLE0
100
AcDbAlignedDimension
 13
56.6850079902
 23
152.0299240879
 33
0.0
 14
56.6850079902
 24
52.0299240879
 34
0.0
 50
90.0
100
AcDbRotatedDimension
  0
DIMENSION
  5
53
330
1F
100
AcDbEntity
  8
0
  6
Continuous
 62
     7
370
     0
100
AcDbDimension
280
     0
  2
*D2
 10
156.6850079902
 20
38.4602342313
 30
0.0
 11
105.0418155019
 21
38.4602342313
 31
0.0
 70
   160
  1
<>mm
 71
     2
 42
-1.0
 73
     0
 74
     0
 75
     0
  3
SLDDIMSTYLE0
100
AcDbAlignedDimension
 13
56.6850079902
 23
52.0299240879
 33
0.0
 14
156.6850079902
 24
52.0299240879
 34
0.0
100
AcDbRotatedDimension
  0
MTEXT
  5
5F
330
1F
100
AcDbEntity
  8
0
  6
Continuous
 62
     7
370
     0
100
AcDbMText
 10
265.4456774884
 20
46.4661239034
 30
0.0
 40
10.0
 41
0.0
 46
0.0
 71
     1
 72
     1
  1
33 938 05 75
  7
SLDTEXTSTYLE1
 73
     1
 44
1.0
  0
MTEXT
  5
60
330
1F
100
AcDbEntity
  8
0
  6
Continuous
 62
     7
370
     0
100
AcDbMText
 10
412.8252631579
 20
48.4342449499
 30
0.0
 40
10.0
 41
0.0
 46
0.0
 71
     1
 72
     1
  1
KLUDI GmbH & Co KG
  7
SLDTEXTSTYLE1
 73
     1
 44
1.0
  0
LINE
  5
61
330
1F
100
AcDbEntity
  8
0
  6
Continuous
 62
     7
370
    15
100
AcDbLine
 10
194.0061079072
 20
424.7179035126
 30
0.0
 11
194.0061079072
 21
523.7254657838
 31
0.0
  0
LINE
  5
62
330
1F
100
AcDbEntity
  8
0
  6
Continuous
 62
     7
370
    15
100
AcDbLine
 10
169.9341079072
 20
523.7254657838
 30
0.0
 11
169.9341079072
 21
424.7178840334
 31
0.0
  0
LINE
  5
63
330
1F
100
AcDbEntity
  8
0
  6
Continuous
 62
     7
370
    15
100
AcDbLine
 10
172.4416079072
 20
510.4070393968
 30
0.0
 11
172.4416079072
 21
502.7053767355
 31
0.0
  0
LINE
  5
64
330
1F
100
AcDbEntity
  8
0
  6
Continuous
 62
     7
370
    15
100
AcDbLine
 10
191.4986079072
 20
502.7053767355
 30
0.0
 11
191.4986079072
 21
510.3928819713
 31
0.0
  0
SPLINE
  5
65
330
1F
100
AcDbEntity
  8
0
  6
Continuous
 62
     7
370
    15
100
AcDbSpline
210
0.0
220
0.0
230
1.0
 70
     8
 71
     3
 72
    10
 73
     6
 74
     0
 42
0.00000001
 43
0.00000001
 40
0.0
 40
0.0
 40
0.0
 40
0.0
 40
0.3137090765573574
 40
0.8884026605937214
 40
1.0
 40
1.0
 40
1.0
 40
1.0
 10
183.5081829000282
 20
548.0228857554173
 30
0.0
 10
183.3596628689271
 20
548.0946031374542
 30
0.0
 10
182.939064293235
 20
548.2977018609961
 30
0.0
 10
182.3957697714267
 20
548.367647227861
 30
0.0
 10
182.0296434759801
 20
548.3737624356911
 30
0.0
 10
181.9701079072252
 20
548.3747568258257
 30
0.0
  0
SPLINE
  5
66
330
1F
100
AcDbEntity
  8
0
  6
Continuous
 62
     7
370
    15
100
AcDbSpline
210
0.0
220
0.0
230
1.0
 70
     8
 71
     3
 72
    10
 73
     6
 74
     0
 42
0.00000001
 43
0.00000001
 40
0.0
 40
0.0
 40
0.0
 40
0.0
 40
0.3491555137543069
 40
0.9847627864114378
 40
1.0
 40
1.0
 40
1.0
 40
1.0
 10
181.9701079072252
 20
548.3747568258257
 30
0.0
 10
181.7935747388549
 20
548.3655615608361
 30
0.0
 10
181.2956782774498
 20
548.3396271149628
 30
0.0
 10
180.774521848721
 20
548.2425455765747
 30
0.0
 10
180.4950335306104
 20
548.080810758667
 30
0.0
 10
180.488490303636
 20
548.0770243119546
 30
0.0
  0
LINE
  5
67
330
1F
100
AcDbEntity
  8
0
  6
Continuous
 62
     7
370
    15
100
AcDbLine
 10
185.4806079072
 20
533.8905544661
 30
0.0
 11
185.4806079072
 21
545.2164675189
 31
0.0
  0
LINE
  5
68
330
1F
100
AcDbEntity
  8
0
  6
Continuous
 62
     7
370
    15
100
AcDbLine
 10
178.4596079072
 20
545.2164675189
 30
0.0
 11
178.4596079072
 21
533.8905544661
 31
0.0
  0
LINE
  5
69
330
1F
100
AcDbEntity
  8
0
  6
Continuous
 62
     7
370
    15
100
AcDbLine
 10
206.0421079072
 20
391.844421785
 30
0.0
 11
204.0361079072
 21
406.889421785
 31
0.0
  0
LINE
  5
6A
330
1F
100
AcDbEntity
  8
0
  6
Continuous
 62
     7
370
    15
100
AcDbLine
 10
159.9041079072
 20
406.889421785
 30
0.0
 11
157.8981079072
 21
391.844421785
 31
0.0
  0
LINE
  5
6B
330
1F
100
AcDbEntity
  8
0
  6
Continuous
 62
     7
370
    15
100
AcDbLine
 10
157.8981079072
 20
391.844421785
 30
0.0
 11
157.8981079072
 21
376.799421785
 31
0.0
  0
LINE
  5
6C
330
1F
100
AcDbEntity
  8
0
  6
Continuous
 62
     7
370
    15
100
AcDbLine
 10
206.0421079072
 20
376.799421785
 30
0.0
 11
206.0421079072
 21
391.844421785
 31
0.0
  0
LINE
  5
6D
330
1F
100
AcDbEntity
  8
0
  6
Continuous
 62
     7
370
    15
100
AcDbLine
 10
204.5376079072
 20
489.8353335081
 30
0.0
 11
204.5376079072
 21
518.182301785
 31
0.0
  0
LINE
  5
6E
330
1F
100
AcDbEntity
  8
0
  6
Continuous
 62
     7
370
    15
100
AcDbLine
 10
159.4026079072
 20
518.182301785
 30
0.0
 11
159.4026079072
 21
489.8353169272
 31
0.0
  0
ARC
  5
6F
330
1F
100
AcDbEntity
  8
0
  6
Continuous
 62
     7
370
    15
100
AcDbCircle
 10
159.9442279072
 20
518.182301785
 30
0.0
 40
0.5416199999999947
100
AcDbArc
 50
90.0
 51
180.0
  0
ARC
  5
70
330
1F
100
AcDbEntity
  8
0
  6
Continuous
 62
     7
370
    15
100
AcDbCircle
 10
203.9959879072
 20
518.182301785
 30
0.0
 40
0.5416200000000231
100
AcDbArc
 50
0.0
 51
90.0
  0
ARC
  5
71
330
1F
100
AcDbEntity
  8
0
  6
Continuous
 62
     7
370
    15
100
AcDbCircle
 10
181.970226934
 20
484.6956080878
 30
0.0
 40
22.06600000000001
100
AcDbArc
 50
167.0598357025
 51
180.1895738256
  0
ARC
  5
72
330
1F
100
AcDbEntity
  8
0
  6
Continuous
 62
     7
370
    15
100
AcDbCircle
 10
181.970226934
 20
484.6956080878
 30
0.0
 40
22.06599999999998
100
AcDbArc
 50
0.0
 51
12.9401642975
  0
LINE
  5
73
330
1F
100
AcDbEntity
  8
0
  6
Continuous
 62
     7
370
    15
100
AcDbLine
 10
159.9041079072
 20
484.621921785
 30
0.0
 11
159.9041079072
 21
482.615921785
 31
0.0
  0
LINE
  5
74
330
1F
100
AcDbEntity
  8
0
  6
Continuous
 62
     7
370
    15
100
AcDbLine
 10
204.0361079072
 20
482.615921785
 30
0.0
 11
204.0361079072
 21
484.621921785
 31
0.0
  0
LINE
  5
75
330
1F
100
AcDbEntity
  8
0
  6
Continuous
 62
     7
370
    15
100
AcDbLine
 10
159.8940779072
 20
446.507921785
 30
0.0
 11
159.8940779072
 21
407.190321785
 31
0.0
  0
LINE
  5
76
330
1F
100
AcDbEntity
  8
0
  6
Continuous
 62
     7
370
    15
100
AcDbLine
 10
204.0461379072
 20
407.190321785
 30
0.0
 11
204.0461379072
 21
446.507921785
 31
0.0
  0
LINE
  5
77
330
1F
100
AcDbEntity
  8
0
  6
Continuous
 62
     7
370
    15
100
AcDbLine
 10
204.0361079072
 20
447.510921785
 30
0.0
 11
204.0361079072
 21
482.615921785
 31
0.0
  0
LINE
  5
78
330
1F
100
AcDbEntity
  8
0
  6
Continuous
 62
     7
370
    15
100
AcDbLine
 10
159.9041079072
 20
482.615921785
 30
0.0
 11
159.9041079072
 21
447.510921785
 31
0.0
  0
LINE
  5
79
330
1F
100
AcDbEntity
  8
0
  6
Continuous
 62
     7
370
    15
100
AcDbLine
 10
203.0331079072
 20
446.507921785
 30
0.0
 11
203.0331079072
 21
447.510921785
 31
0.0
  0
LINE
  5
7A
330
1F
100
AcDbEntity
  8
0
  6
Continuous
 62
     7
370
    15
100
AcDbLine
 10
160.9071079072
 20
447.510921785
 30
0.0
 11
160.9071079072
 21
446.507921785
 31
0.0
  0
LINE
  5
7B
330
1F
100
AcDbEntity
  8
0
  6
Continuous
 62
     7
370
    15
100
AcDbLine
 10
203.0331079072
 20
406.889421785
 30
0.0
 11
203.0331079072
 21
407.190321785
 31
0.0
  0
LINE
  5
7C
330
1F
100
AcDbEntity
  8
0
  6
Continuous
 62
     7
370
    15
100
AcDbLine
 10
160.9071079072
 20
407.190321785
 30
0.0
 11
160.9071079072
 21
406.889421785
 31
0.0
  0
LWPOLYLINE
  5
7D
330
1F
100
AcDbEntity
  8
0
  6
Continuous
 62
     7
370
    15
100
AcDbPolyline
 90
       11
 70
   128
 43
0.0
 10
181.9701079072
 20
534.3526230115
 10
183.8529531284
 20
534.2217850713
 10
185.6894364515
 20
533.8324929149
 10
187.4343375621
 20
533.1943322073
 10
189.0446912038
 20
532.3230165829
 10
190.4808451256
 20
531.2400007243
 10
191.7074364515
 20
529.9719520761
 10
192.6942624324
 20
528.5500942044
 10
193.4170241374
 20
527.0094379691
 10
193.8579247746
 20
525.3879194397
 10
194.0061079072
 20
523.7254657838
  0
LWPOLYLINE
  5
7E
330
1F
100
AcDbEntity
  8
0
  6
Continuous
 62
     7
370
    15
100
AcDbPolyline
 90
       11
 70
   128
 43
0.0
 10
169.9341079072
 20
523.7254657838
 10
170.0822910398
 20
525.3879194397
 10
170.5231916771
 20
527.0094379691
 10
171.2459533821
 20
528.5500942044
 10
172.2327793629
 20
529.9719520761
 10
173.4593706889
 20
531.2400007243
 10
174.8955246106
 20
532.3230165829
 10
176.5058782524
 20
533.1943322073
 10
178.2507793629
 20
533.8324929149
 10
180.087262686
 20
534.2217850713
 10
181.9701079072
 20
534.3526230115
  0
LWPOLYLINE
  5
7F
330
1F
100
AcDbEntity
  8
0
  6
Continuous
 62
     7
370
    15
100
AcDbPolyline
 90
       28
 70
   128
 43
0.0
 10
191.4861984879
 20
510.3927632659
 10
191.4715806738
 20
510.7129232834
 10
191.3318934405
 20
511.0537779099
 10
191.0076073335
 20
511.2985132492
 10
190.5222370882
 20
511.3944556547
 10
190.10545605
 20
511.3966681551
 10
189.6222601844
 20
511.3624223647
 10
189.0648812603
 20
511.3012590742
 10
188.4392349231
 20
511.2224930042
 10
187.7721893286
 20
511.1372959612
 10
187.040245486
 20
511.0489864194
 10
186.227039865
 20
510.9615756609
 10
185.3467282513
 20
510.8824122893
 10
184.1301470823
 20
510.8020190805
 10
182.8171819661
 20
510.7545781565
 10
181.5128037503
 20
510.7484569278
 10
180.1815956632
 20
510.7844137679
 10
178.9915143903
 20
510.8523195431
 10
177.8475114325
 20
510.9484084195
 10
176.7171529229
 20
511.0703010387
 10
175.6873159876
 20
511.1985112656
 10
174.6362597012
 20
511.3292060851
 10
173.7547473054
 20
511.3993021551
 10
173.1681740636
 20
511.364726025
 10
172.7316229653
 20
511.1833706862
 10
172.518550077
 20
510.887284219
 10
172.4416079072
 20
510.4070393968
 10
172.4416079072
 20
510.4070393968
  0
SPLINE
  5
80
330
1F
100
AcDbEntity
  8
0
  6
Continuous
 62
     7
370
    15
100
AcDbSpline
210
0.0
220
0.0
230
1.0
 70
     8
 71
     3
 72
    17
 73
    13
 74
     0
 42
0.00000001
 43
0.00000001
 40
0.0
 40
0.0
 40
0.0
 40
0.0
 40
0.1035892547213763
 40
0.2101923198292174
 40
0.313779032946183
 40
0.4203806470866738
 40
0.5235543513376244
 40
0.630032445231274
 40
0.7277736247859034
 40
0.8287160768617808
 40
0.9211515707806268
 40
1.0
 40
1.0
 40
1.0
 40
1.0
 10
181.9701079072254
 20
412.9788071105569
 30
0.0
 10
182.6367422674468
 20
413.0058201904162
 30
0.0
 10
183.9894059489231
 20
413.0606322646668
 30
0.0
 10
185.9521703222378
 20
413.5043760886
 30
0.0
 10
187.8194332405572
 20
414.2166416727589
 30
0.0
 10
189.5029974051553
 20
415.2040657545426
 30
0.0
 10
190.9872491852136
 20
416.4702078920412
 30
0.0
 10
192.1776631084491
 20
417.9511587761299
 30
0.0
 10
193.0801500226934
 20
419.6313644203223
 30
0.0
 10
193.6563019301573
 20
421.3859863514659
 30
0.0
 10
193.9652809440815
 20
423.1082499356348
 30
0.0
 10
193.9826444110397
 20
424.2109205718461
 30
0.0
 10
193.990637467658
 20
424.7185213204664
 30
0.0
  0
SPLINE
  5
81
330
1F
100
AcDbEntity
  8
0
  6
Continuous
 62
     7
370
    15
100
AcDbSpline
210
0.0
220
0.0
230
1.0
 70
     8
 71
     3
 72
    17
 73
    13
 74
     0
 42
0.00000001
 43
0.00000001
 40
0.0
 40
0.0
 40
0.0
 40
0.0
 40
0.0839560999700417
 40
0.1852710568970193
 40
0.2840830187678129
 40
0.3862080746730288
 40
0.4786663477677496
 40
0.5735356107377584
 40
0.6713068987710835
 40
0.7716256500128557
 40
0.8838824795256646
 40
1.0
 40
1.0
 40
1.0
 40
1.0
 10
169.9494836981067
 20
424.7185595618816
 30
0.0
 10
169.9594869235016
 20
424.1780422788585
 30
0.0
 10
169.9815616523414
 20
422.9852497559504
 30
0.0
 10
170.3298570133156
 20
421.1921553673484
 30
0.0
 10
170.9661066490938
 20
419.3882840264297
 30
0.0
 10
171.8731212434445
 20
417.7974683074216
 30
0.0
 10
173.0148622814519
 20
416.4245659199067
 30
0.0
 10
174.3479829390867
 20
415.2789799886918
 30
0.0
 10
175.9026866475662
 20
414.3306167428842
 30
0.0
 10
177.7090678927626
 20
413.5893848306941
 30
0.0
 10
179.7524664198932
 20
413.0791032828276
 30
0.0
 10
181.2226097718846
 20
413.0126138381919
 30
0.0
 10
181.9701079072254
 20
412.9788071105569
 30
0.0
  0
LWPOLYLINE
  5
82
330
1F
100
AcDbEntity
  8
0
  6
Continuous
 62
     7
370
    15
100
AcDbPolyline
 90
       36
 70
   128
 43
0.0
 10
172.4416079072
 20
502.7053767355
 10
172.5947348223
 20
503.5041259682
 10
173.0491939423
 20
504.2772027434
 10
173.7903785774
 20
504.9997597373
 10
174.7944664434
 20
505.6485733738
 10
176.0291853302
 20
506.2027902486
 10
177.4548503569
 20
506.6445973755
 10
179.0256394763
 20
506.9597947097
 10
180.6910662339
 20
507.1382515498
 10
182.3976024432
 20
507.1742321459
 10
184.0903986264
 20
507.0665800521
 10
185.7150469213
 20
506.8187552954
 10
187.219329795
 20
506.4387231672
 10
188.5548983581
 20
505.9386982129
 10
189.6788263381
 20
505.3347516459
 10
190.554989765
 20
504.6462948059
 10
191.1552280254
 20
503.8954552621
 10
191.4602489676
 20
503.1063656152
 10
191.4602489676
 20
502.3043878558
 10
191.1552280254
 20
501.515298209
 10
190.554989765
 20
500.7644586651
 10
189.6788263381
 20
500.0760018251
 10
188.5548983581
 20
499.4720552581
 10
187.219329795
 20
498.9720303038
 10
185.7150469213
 20
498.5919981757
 10
184.0903986264
 20
498.3441734189
 10
182.3976024432
 20
498.2365213252
 10
180.6910662339
 20
498.2725019213
 10
179.0256394763
 20
498.4509587613
 10
177.4548503569
 20
498.7661560956
 10
176.0291853302
 20
499.2079632224
 10
174.7944664434
 20
499.7621800972
 10
173.7903785774
 20
500.4109937337
 10
173.0491939423
 20
501.1335507277
 10
172.5947348223
 20
501.9066275028
 10
172.4416079072
 20
502.7053767355
  0
LWPOLYLINE
  5
83
330
1F
100
AcDbEntity
  8
0
  6
Continuous
 62
     7
370
    15
100
AcDbPolyline
 90
       20
 70
   128
 43
0.0
 10
183.5529544983
 20
547.9830971068
 10
183.9476429711
 20
547.7774669162
 10
184.7147273264
 20
547.1490287306
 10
185.2379402018
 20
546.3488740003
 10
185.4707918372
 20
545.4480999847
 10
185.3925923429
 20
544.526744408
 10
185.0102900872
 20
543.6666737565
 10
184.3578543032
 20
542.944309082
 10
183.4932567734
 20
542.4238356558
 10
182.4933207826
 20
542.1514998259
 10
181.4468950318
 20
542.1514998259
 10
180.4469590411
 20
542.4238356558
 10
179.5823615113
 20
542.944309082
 10
178.9299257272
 20
543.6666737565
 10
178.5476234715
 20
544.526744408
 10
178.4694239772
 20
545.4480999847
 10
178.7022756126
 20
546.3488740003
 10
179.225488488
 20
547.1490287306
 10
179.9925728434
 20
547.7774669162
 10
180.4651279834
 20
548.0167683028
  0
LINE
  5
84
330
1F
100
AcDbEntity
  8
0
  6
Continuous
 62
     7
370
    15
100
AcDbLine
 10
181.9701079072
 20
391.844421785
 30
0.0
 11
206.0421079072
 21
391.844421785
 31
0.0
  0
LINE
  5
85
330
1F
100
AcDbEntity
  8
0
  6
Continuous
 62
     7
370
    15
100
AcDbLine
 10
157.8981079072
 20
391.844421785
 30
0.0
 11
181.9701079072
 21
391.844421785
 31
0.0
  0
LINE
  5
86
330
1F
100
AcDbEntity
  8
0
  6
Continuous
 62
     7
370
    15
100
AcDbLine
 10
181.9701079072
 20
406.889421785
 30
0.0
 11
204.0361079072
 21
406.889421785
 31
0.0
  0
LINE
  5
87
330
1F
100
AcDbEntity
  8
0
  6
Continuous
 62
     7
370
    15
100
AcDbLine
 10
159.9041079072
 20
406.889421785
 30
0.0
 11
181.9701079072
 21
406.889421785
 31
0.0
  0
LINE
  5
88
330
1F
100
AcDbEntity
  8
0
  6
Continuous
 62
     7
370
    15
100
AcDbLine
 10
181.9701079072
 20
376.799421785
 30
0.0
 11
206.0421079072
 21
376.799421785
 31
0.0
  0
LINE
  5
89
330
1F
100
AcDbEntity
  8
0
  6
Continuous
 62
     7
370
    15
100
AcDbLine
 10
157.8981079072
 20
376.799421785
 30
0.0
 11
181.9701079072
 21
376.799421785
 31
0.0
  0
SPLINE
  5
8A
330
1F
100
AcDbEntity
  8
0
  6
Continuous
 62
     7
370
    15
100
AcDbSpline
210
0.0
220
0.0
230
1.0
 70
     8
 71
     3
 72
    10
 73
     6
 74
     0
 42
0.00000001
 43
0.00000001
 40
0.0
 40
0.0
 40
0.0
 40
0.0
 40
0.1896226070059291
 40
0.5960839714156752
 40
1.0
 40
1.0
 40
1.0
 40
1.0
 10
159.4198717240986
 20
489.8353169272356
 30
0.0
 10
159.4163717188092
 20
489.8095074875511
 30
0.0
 10
159.4053693542397
 20
489.728374791666
 30
0.0
 10
159.5285944410394
 20
489.6564631105506
 30
0.0
 10
159.7292499637924
 20
489.6434219063484
 30
0.0
 10
159.8292626030449
 20
489.6369217849791
 30
0.0
  0
SPLINE
  5
8B
330
1F
100
AcDbEntity
  8
0
  6
Continuous
 62
     7
370
    15
100
AcDbSpline
210
0.0
220
0.0
230
1.0
 70
     8
 71
     3
 72
    10
 73
     6
 74
     0
 42
0.00000001
 43
0.00000001
 40
0.0
 40
0.0
 40
0.0
 40
0.0
 40
0.392093106724479
 40
0.7869605347461714
 40
1.0
 40
1.0
 40
1.0
 40
1.0
 10
204.110953211406
 20
489.6369217849791
 30
0.0
 10
204.2085545386462
 20
489.6430019395307
 30
0.0
 10
204.4044477878758
 20
489.655205269799
 30
0.0
 10
204.5311026097002
 20
489.7255608519948
 30
0.0
 10
204.5231155627435
 20
489.806846984308
 30
0.0
 10
204.5203165219176
 20
489.8353335080703
 30
0.0
  0
LINE
  5
8C
330
1F
100
AcDbEntity
  8
0
  6
Continuous
 62
     7
370
    15
100
AcDbLine
 10
159.829262603
 20
489.636921785
 30
0.0
 11
169.9341079072
 21
489.636921785
 31
0.0
  0
LINE
  5
8D
330
1F
100
AcDbEntity
  8
0
  6
Continuous
 62
     7
370
    15
100
AcDbLine
 10
194.0061079072
 20
489.636921785
 30
0.0
 11
204.1109532114
 21
489.636921785
 31
0.0
  0
LINE
  5
8E
330
1F
100
AcDbEntity
  8
0
  6
Continuous
 62
     7
370
    15
100
AcDbLine
 10
159.9442279072
 20
518.723921785
 30
0.0
 11
169.9341079072
 21
518.723921785
 31
0.0
  0
LINE
  5
8F
330
1F
100
AcDbEntity
  8
0
  6
Continuous
 62
     7
370
    15
100
AcDbLine
 10
194.0061079072
 20
518.723921785
 30
0.0
 11
203.9959879072
 21
518.723921785
 31
0.0
  0
LINE
  5
90
330
1F
100
AcDbEntity
  8
0
  6
Continuous
 62
     7
370
    15
100
AcDbLine
 10
159.8940779072
 20
446.507921785
 30
0.0
 11
169.9341079072
 21
446.507921785
 31
0.0
  0
LINE
  5
91
330
1F
100
AcDbEntity
  8
0
  6
Continuous
 62
     7
370
    15
100
AcDbLine
 10
194.0061079072
 20
446.507921785
 30
0.0
 11
204.0461379072
 21
446.507921785
 31
0.0
  0
LINE
  5
92
330
1F
100
AcDbEntity
  8
0
  6
Continuous
 62
     7
370
    15
100
AcDbLine
 10
159.8940779072
 20
407.190321785
 30
0.0
 11
204.0461379072
 21
407.190321785
 31
0.0
  0
LINE
  5
93
330
1F
100
AcDbEntity
  8
0
  6
Continuous
 62
     7
370
    15
100
AcDbLine
 10
204.0361079072
 20
447.510921785
 30
0.0
 11
194.0061079072
 21
447.510921785
 31
0.0
  0
LINE
  5
94
330
1F
100
AcDbEntity
  8
0
  6
Continuous
 62
     7
370
    15
100
AcDbLine
 10
169.9341079072
 20
447.510921785
 30
0.0
 11
159.9041079072
 21
447.510921785
 31
0.0
  0
LWPOLYLINE
  5
95
330
1F
100
AcDbEntity
  8
0
  6
Continuous
 62
     8
370
     0
100
AcDbPolyline
 90
       40
 70
   128
 43
0.0
 10
181.9701079072
 20
534.1452647824
 10
180.1198439882
 20
534.013380008
 10
178.3175009327
 20
533.6211414313
 10
176.6097584793
 20
532.9787078253
 10
175.0408462604
 20
532.1027178829
 10
173.6513982783
 20
531.0158592836
 10
172.4774005061
 20
529.7462810941
 10
171.5492588692
 20
528.3268647228
 10
170.8910117486
 20
526.7943723079
 10
170.5197073989
 20
525.1884945982
 10
170.4449624078
 20
523.5508229826
 10
170.6687126312
 20
521.923772296
 10
171.185163056
 20
520.3494822963
 10
171.9809378873
 20
518.8687262677
 10
173.035426975
 20
517.5198550134
 10
174.3213196057
 20
516.3378035905
 10
175.8053118358
 20
515.3531865099
 10
177.4489690458
 20
514.5915048367
 10
179.2097213775
 20
514.0724857263
 10
181.0419662704
 20
513.8095715009
 10
182.8982495441
 20
513.8095715009
 10
184.730494437
 20
514.0724857263
 10
186.4912467687
 20
514.5915048367
 10
188.1349039787
 20
515.3531865099
 10
189.6188962087
 20
516.3378035905
 10
190.9047888394
 20
517.5198550134
 10
191.9592779272
 20
518.8687262677
 10
192.7550527585
 20
520.3494822963
 10
193.2715031832
 20
521.923772296
 10
193.4952534066
 20
523.5508229826
 10
193.4205084155
 20
525.1884945982
 10
193.0492040658
 20
526.7943723079
 10
192.3909569452
 20
528.3268647228
 10
191.4628153084
 20
529.7462810941
 10
190.2888175361
 20
531.0158592836
 10
188.8993695541
 20
532.1027178829
 10
187.3304573352
 20
532.9787078253
 10
185.6227148817
 20
533.6211414313
 10
183.8203718263
 20
534.013380008
 10
181.9701079072
 20
534.1452647824
  0
LWPOLYLINE
  5
96
330
1F
100
AcDbEntity
  8
0
  6
Continuous
 62
     8
370
    15
100
AcDbPolyline
 90
       21
 70
   128
 43
0.0
 10
194.0061079072
 20
523.7254657838
 10
193.8579247746
 20
522.063012128
 10
193.4170241374
 20
520.4414935986
 10
192.6942624324
 20
518.9008373633
 10
191.7074364515
 20
517.4789794916
 10
190.4808451256
 20
516.2109308434
 10
189.0446912038
 20
515.1279149848
 10
187.4343375621
 20
514.2565993604
 10
185.6894364515
 20
513.6184386528
 10
183.8529531284
 20
513.2291464964
 10
181.9701079072
 20
513.0983085562
 10
180.087262686
 20
513.2291464964
 10
178.2507793629
 20
513.6184386528
 10
176.5058782524
 20
514.2565993604
 10
174.8955246106
 20
515.1279149848
 10
173.4593706889
 20
516.2109308434
 10
172.2327793629
 20
517.4789794916
 10
171.2459533821
 20
518.9008373633
 10
170.5231916771
 20
520.4414935986
 10
170.0822910398
 20
522.063012128
 10
169.9341079072
 20
523.7254657838
  0
LWPOLYLINE
  5
97
330
1F
100
AcDbEntity
  8
0
  6
Continuous
 62
     8
370
     0
100
AcDbPolyline
 90
       20
 70
   128
 43
0.0
 10
181.9701079072
 20
548.1086968146
 10
180.9930872044
 20
547.9647446417
 10
180.1219418547
 20
547.5484875747
 10
179.4510739741
 20
546.9050335256
 10
179.053182507
 20
546.1041107249
 10
178.9713851678
 20
545.2325115856
 10
179.2145459673
 20
544.3846873988
 10
179.75631466
 20
543.6525130704
 10
180.5379822016
 20
543.1153310497
 10
181.4748427851
 20
542.831353344
 10
182.4653730294
 20
542.831353344
 10
183.4022336129
 20
543.1153310497
 10
184.1839011544
 20
543.6525130704
 10
184.7256698471
 20
544.3846873988
 10
184.9688306467
 20
545.2325115856
 10
184.8870333074
 20
546.1041107249
 10
184.4891418403
 20
546.9050335256
 10
183.8182739597
 20
547.5484875747
 10
182.9471286101
 20
547.9647446417
 10
181.9701079072
 20
548.1086968146
  0
LINE
  5
98
330
1F
100
AcDbEntity
  8
0
  6
Continuous
 62
     8
370
    15
100
AcDbLine
 10
203.3176091141
 20
482.615921785
 30
0.0
 11
204.0361079072
 21
482.615921785
 31
0.0
  0
LINE
  5
99
330
1F
100
AcDbEntity
  8
0
  6
Continuous
 62
     8
370
    15
100
AcDbLine
 10
159.9041079072
 20
482.615921785
 30
0.0
 11
169.9341079072
 21
482.615921785
 31
0.0
  0
LINE
  5
9A
330
1F
100
AcDbEntity
  8
0
  6
Continuous
 62
     8
370
    15
100
AcDbLine
 10
194.0061079072
 20
482.615921785
 30
0.0
 11
203.3176091141
 21
482.615921785
 31
0.0
  0
LINE
  5
9B
330
1F
100
AcDbEntity
  8
0
  6
Continuous
 62
     7
370
    15
100
AcDbLine
 10
292.5466912192
 20
391.844421785
 30
0.0
 11
292.5466912192
 21
376.799421785
 31
0.0
  0
LINE
  5
9C
330
1F
100
AcDbEntity
  8
0
  6
Continuous
 62
     7
370
    15
100
AcDbLine
 10
340.6906912192
 20
376.799421785
 30
0.0
 11
340.6906912192
 21
391.844421785
 31
0.0
  0
LINE
  5
9D
330
1F
100
AcDbEntity
  8
0
  6
Continuous
 62
     7
370
    15
100
AcDbLine
 10
340.6906912192
 20
391.844421785
 30
0.0
 11
338.6846912192
 21
406.889421785
 31
0.0
  0
LINE
  5
9E
330
1F
100
AcDbEntity
  8
0
  6
Continuous
 62
     7
370
    15
100
AcDbLine
 10
294.5526912192
 20
406.889421785
 30
0.0
 11
292.5466912192
 21
391.844421785
 31
0.0
  0
ARC
  5
9F
330
1F
100
AcDbEntity
  8
0
  6
Continuous
 62
     7
370
    15
100
AcDbCircle
 10
294.5928112192
 20
518.182301785
 30
0.0
 40
0.5416199999999662
100
AcDbArc
 50
90.0
 51
180.0
  0
ARC
  5
A0
330
1F
100
AcDbEntity
  8
0
  6
Continuous
 62
     7
370
    15
100
AcDbCircle
 10
338.6445712192
 20
518.182301785
 30
0.0
 40
0.5416200000000231
100
AcDbArc
 50
0.0
 51
90.0
  0
LINE
  5
A1
330
1F
100
AcDbEntity
  8
0
  6
Continuous
 62
     7
370
    15
100
AcDbLine
 10
339.1861912192
 20
513.4669883426
 30
0.0
 11
339.1861912192
 21
518.182301785
 31
0.0
  0
LINE
  5
A2
330
1F
100
AcDbEntity
  8
0
  6
Continuous
 62
     7
370
    15
100
AcDbLine
 10
339.1861912192
 20
501.9605483508
 30
0.0
 11
339.1861912192
 21
504.3805901845
 31
0.0
  0
LINE
  5
A3
330
1F
100
AcDbEntity
  8
0
  6
Continuous
 62
     7
370
    15
100
AcDbLine
 10
339.1861912192
 20
489.636921785
 30
0.0
 11
339.1861912192
 21
493.9630952191
 31
0.0
  0
LINE
  5
A4
330
1F
100
AcDbEntity
  8
0
  6
Continuous
 62
     7
370
    15
100
AcDbLine
 10
294.0511912192
 20
518.182301785
 30
0.0
 11
294.0511912192
 21
493.6126438029
 31
0.0
  0
ARC
  5
A5
330
1F
100
AcDbEntity
  8
0
  6
Continuous
 62
     7
370
    15
100
AcDbCircle
 10
316.6187223595
 20
484.6956080878
 30
0.0
 40
22.06599999999995
100
AcDbArc
 50
157.2690456557
 51
180.1895696435
  0
ARC
  5
A6
330
1F
100
AcDbEntity
  8
0
  6
Continuous
 62
     7
370
    15
100
AcDbCircle
 10
316.6187223595
 20
484.6956080878
 30
0.0
 40
22.06600000000003
100
AcDbArc
 50
0.0
 51
12.9401642975
  0
LINE
  5
A7
330
1F
100
AcDbEntity
  8
0
  6
Continuous
 62
     7
370
    15
100
AcDbLine
 10
294.5526912192
 20
484.621921785
 30
0.0
 11
294.5526912192
 21
482.615921785
 31
0.0
  0
LINE
  5
A8
330
1F
100
AcDbEntity
  8
0
  6
Continuous
 62
     7
370
    15
100
AcDbLine
 10
338.6846912192
 20
482.615921785
 30
0.0
 11
338.6846912192
 21
484.621921785
 31
0.0
  0
LINE
  5
A9
330
1F
100
AcDbEntity
  8
0
  6
Continuous
 62
     7
370
    15
100
AcDbLine
 10
294.5426612192
 20
446.507921785
 30
0.0
 11
294.5426612192
 21
407.190321785
 31
0.0
  0
LINE
  5
AA
330
1F
100
AcDbEntity
  8
0
  6
Continuous
 62
     7
370
    15
100
AcDbLine
 10
338.6947212192
 20
440.2192175952
 30
0.0
 11
338.6947212192
 21
446.507921785
 31
0.0
  0
LINE
  5
AB
330
1F
100
AcDbEntity
  8
0
  6
Continuous
 62
     7
370
    15
100
AcDbLine
 10
338.6947212192
 20
407.190321785
 30
0.0
 11
338.6947212192
 21
412.9788071106
 31
0.0
  0
LINE
  5
AC
330
1F
100
AcDbEntity
  8
0
  6
Continuous
 62
     7
370
    15
100
AcDbLine
 10
338.6846912192
 20
447.510921785
 30
0.0
 11
338.6846912192
 21
482.615921785
 31
0.0
  0
LINE
  5
AD
330
1F
100
AcDbEntity
  8
0
  6
Continuous
 62
     7
370
    15
100
AcDbLine
 10
294.5526912192
 20
482.615921785
 30
0.0
 11
294.5526912192
 21
447.510921785
 31
0.0
  0
LINE
  5
AE
330
1F
100
AcDbEntity
  8
0
  6
Continuous
 62
     7
370
    15
100
AcDbLine
 10
337.6816912192
 20
446.507921785
 30
0.0
 11
337.6816912192
 21
447.510921785
 31
0.0
  0
LINE
  5
AF
330
1F
100
AcDbEntity
  8
0
  6
Continuous
 62
     7
370
    15
100
AcDbLine
 10
295.5556912192
 20
447.510921785
 30
0.0
 11
295.5556912192
 21
446.507921785
 31
0.0
  0
LINE
  5
B0
330
1F
100
AcDbEntity
  8
0
  6
Continuous
 62
     7
370
    15
100
AcDbLine
 10
337.6816912192
 20
406.889421785
 30
0.0
 11
337.6816912192
 21
407.190321785
 31
0.0
  0
LINE
  5
B1
330
1F
100
AcDbEntity
  8
0
  6
Continuous
 62
     7
370
    15
100
AcDbLine
 10
295.5556912192
 20
407.190321785
 30
0.0
 11
295.5556912192
 21
406.889421785
 31
0.0
  0
LINE
  5
B2
330
1F
100
AcDbEntity
  8
0
  6
Continuous
 62
     7
370
    15
100
AcDbLine
 10
522.5576125032
 20
510.7404405388
 30
0.0
 11
526.9921172852
 21
513.0983085562
 31
0.0
  0
LINE
  5
B3
330
1F
100
AcDbEntity
  8
0
  6
Continuous
 62
     7
370
    15
100
AcDbLine
 10
338.6947212192
 20
412.9788071106
 30
0.0
 11
505.7555297263
 21
501.8066146548
 31
0.0
  0
LINE
  5
B4
330
1F
100
AcDbEntity
  8
0
  6
Continuous
 62
     7
370
    15
100
AcDbLine
 10
515.6909978259
 20
534.3526230115
 30
0.0
 11
338.6784578962
 21
440.2333860085
 31
0.0
  0
ARC
  5
B5
330
1F
100
AcDbEntity
  8
0
  6
Continuous
 62
     7
370
    15
100
AcDbCircle
 10
515.9264378146
 20
533.9098247937
 30
0.0
 40
0.5015000000000688
100
AcDbArc
 50
28.0
 51
118.0
  0
ARC
  5
B6
330
1F
100
AcDbEntity
  8
0
  6
Continuous
 62
     7
370
    15
100
AcDbCircle
 10
526.7566772965
 20
513.541106774
 30
0.0
 40
0.5015000000000688
100
AcDbArc
 50
298.0
 51
28.0
  0
LINE
  5
B7
330
1F
100
AcDbEntity
  8
0
  6
Continuous
 62
     7
370
    15
100
AcDbLine
 10
505.7357738345
 20
501.8102139404
 30
0.0
 11
507.6383349229
 21
498.2320169495
 31
0.0
  0
LINE
  5
B8
330
1F
100
AcDbEntity
  8
0
  6
Continuous
 62
     7
370
    15
100
AcDbLine
 10
524.4646672
 20
507.1787365215
 30
0.0
 11
522.563608678
 21
510.7541075961
 31
0.0
  0
SPLINE
  5
B9
330
1F
100
AcDbEntity
  8
0
  6
Continuous
 62
     7
370
    15
100
AcDbSpline
210
0.0
220
0.0
230
1.0
 70
     8
 71
     3
 72
    11
 73
     7
 74
     0
 42
0.00000001
 43
0.00000001
 40
0.0
 40
0.0
 40
0.0
 40
0.0
 40
0.2500000098113463
 40
0.500000012003413
 40
0.7500000082681147
 40
1.0
 40
1.0
 40
1.0
 40
1.0
 10
339.1861912183522
 20
504.3805901894246
 30
0.0
 10
339.1897274457629
 20
504.4258441112941
 30
0.0
 10
339.1967999004764
 20
504.5163519536537
 30
0.0
 10
339.253192456219
 20
504.6416633787499
 30
0.0
 10
339.3373611762803
 20
504.750285200978
 30
0.0
 10
339.4139545459279
 20
504.7990206687646
 30
0.0
 10
339.4522512304046
 20
504.8233884024369
 30
0.0
  0
SPLINE
  5
BA
330
1F
100
AcDbEntity
  8
0
  6
Continuous
 62
     7
370
    15
100
AcDbSpline
210
0.0
220
0.0
230
1.0
 70
     8
 71
     3
 72
    15
 73
    11
 74
     0
 42
0.00000001
 43
0.00000001
 40
0.0
 40
0.0
 40
0.0
 40
0.0
 40
0.1250000002716867
 40
0.2500000003729975
 40
0.3750000003553777
 40
0.5000000002619275
 40
0.6250000001327883
 40
0.750000000010631
 40
0.8749999999457104
 40
1.0
 40
1.0
 40
1.0
 40
1.0
 10
339.9231312078787
 20
513.0255340533979
 30
0.0
 10
339.8836248139538
 20
513.0081703906974
 30
0.0
 10
339.8046120261578
 20
512.9734430653198
 30
0.0
 10
339.6742319791159
 20
512.9617891242777
 30
0.0
 10
339.5458409352027
 20
512.9814251742997
 30
0.0
 10
339.4265460919807
 20
513.0337137941469
 30
0.0
 10
339.3243724444556
 20
513.1144968687165
 30
0.0
 10
339.2467588973061
 20
513.2186408647902
 30
0.0
 10
339.1958389920448
 20
513.3392308074094
 30
0.0
 10
339.1894071434505
 20
513.4252984499666
 30
0.0
 10
339.1861912191518
 20
513.4683322712657
 30
0.0
  0
LINE
  5
BB
330
1F
100
AcDbEntity
  8
0
  6
Continuous
 62
     7
370
    15
100
AcDbLine
 10
339.1838359776
 20
493.949821785
 30
0.0
 11
339.5873912192
 21
493.949821785
 31
0.0
  0
LINE
  5
BC
330
1F
100
AcDbEntity
  8
0
  6
Continuous
 62
     7
370
    15
100
AcDbLine
 10
339.5873912192
 20
501.973821785
 30
0.0
 11
339.1838359776
 21
501.973821785
 31
0.0
  0
LINE
  5
BD
330
1F
100
AcDbEntity
  8
0
  6
Continuous
 62
     7
370
    15
100
AcDbLine
 10
339.5873912192
 20
493.949821785
 30
0.0
 11
340.1897402312
 21
494.169058896
 31
0.0
  0
LINE
  5
BE
330
1F
100
AcDbEntity
  8
0
  6
Continuous
 62
     7
370
    15
100
AcDbLine
 10
340.1897402312
 20
501.754584674
 30
0.0
 11
339.5873912192
 21
501.973821785
 31
0.0
  0
LINE
  5
BF
330
1F
100
AcDbEntity
  8
0
  6
Continuous
 62
     7
370
    15
100
AcDbLine
 10
339.4522512304
 20
504.8233884024
 30
0.0
 11
409.5911078523
 21
542.1168799942
 31
0.0
  0
LINE
  5
C0
330
1F
100
AcDbEntity
  8
0
  6
Continuous
 62
     7
370
    15
100
AcDbLine
 10
406.29494801
 20
548.3160550436
 30
0.0
 11
339.9230121767
 21
513.0254707634
 31
0.0
  0
ARC
  5
C1
330
1F
100
AcDbEntity
  8
0
  6
Continuous
 62
     7
370
    15
100
AcDbCircle
 10
340.1211309904
 20
501.5660823342
 30
0.0
 40
0.2006000000000319
100
AcDbArc
 50
0.0
 51
70.0
  0
ARC
  5
C2
330
1F
100
AcDbEntity
  8
0
  6
Continuous
 62
     7
370
    15
100
AcDbCircle
 10
340.1211309904
 20
494.3575612357
 30
0.0
 40
0.2006000000000085
100
AcDbArc
 50
290.0
 51
0.0
  0
LINE
  5
C3
330
1F
100
AcDbEntity
  8
0
  6
Continuous
 62
     7
370
    15
100
AcDbLine
 10
340.3217309904
 20
494.3575612357
 30
0.0
 11
340.3217309904
 21
501.5660823342
 31
0.0
  0
ARC
  5
C4
330
1F
100
AcDbEntity
  8
0
  6
Continuous
 62
     7
370
    15
100
AcDbCircle
 10
406.5303879988
 20
547.8732568258
 30
0.0
 40
0.5015000000000421
100
AcDbArc
 50
28.0
 51
118.0
  0
ARC
  5
C5
330
1F
100
AcDbEntity
  8
0
  6
Continuous
 62
     7
370
    15
100
AcDbCircle
 10
409.3556678636
 20
542.559678212
 30
0.0
 40
0.5014999999999652
100
AcDbArc
 50
298.0
 51
28.0
  0
LINE
  5
C6
330
1F
100
AcDbEntity
  8
0
  6
Continuous
 62
     7
370
    15
100
AcDbLine
 10
292.5466912192
 20
376.799421785
 30
0.0
 11
340.6906912192
 21
376.799421785
 31
0.0
  0
LINE
  5
C7
330
1F
100
AcDbEntity
  8
0
  6
Continuous
 62
     7
370
    15
100
AcDbLine
 10
292.5466912192
 20
391.844421785
 30
0.0
 11
340.6906912192
 21
391.844421785
 31
0.0
  0
LINE
  5
C8
330
1F
100
AcDbEntity
  8
0
  6
Continuous
 62
     7
370
    15
100
AcDbLine
 10
294.5526912192
 20
406.889421785
 30
0.0
 11
338.6846912192
 21
406.889421785
 31
0.0
  0
LINE
  5
C9
330
1F
100
AcDbEntity
  8
0
  6
Continuous
 62
     7
370
    15
100
AcDbLine
 10
316.6186912192
 20
518.723921785
 30
0.0
 11
338.6445712192
 21
518.723921785
 31
0.0
  0
LINE
  5
CA
330
1F
100
AcDbEntity
  8
0
  6
Continuous
 62
     7
370
    15
100
AcDbLine
 10
294.5928112192
 20
518.723921785
 30
0.0
 11
316.6186912192
 21
518.723921785
 31
0.0
  0
SPLINE
  5
CB
330
1F
100
AcDbEntity
  8
0
  6
Continuous
 62
     7
370
    15
100
AcDbSpline
210
0.0
220
0.0
230
1.0
 70
     8
 71
     3
 72
    12
 73
     8
 74
     0
 42
0.00000001
 43
0.00000001
 40
0.0
 40
0.0
 40
0.0
 40
0.0
 40
0.5
 40
0.5
 40
0.75
 40
0.75
 40
1.0
 40
1.0
 40
1.0
 40
1.0
 10
312.2777315849802
 20
490.3988129714169
 30
0.0
 10
313.7077775663547
 20
490.1466572812469
 30
0.0
 10
315.1497621908974
 20
489.9563188536774
 30
0.0
 10
317.3307451266822
 20
489.7649983171602
 30
0.0
 10
318.0607518415856
 20
489.716942851462
 30
0.0
 10
319.5269527839292
 20
489.6527857217184
 30
0.0
 10
320.2604252132602
 20
489.6369217849791
 30
0.0
 10
320.9861876949768
 20
489.6369217849791
 30
0.0
  0
LINE
  5
CC
330
1F
100
AcDbEntity
  8
0
  6
Continuous
 62
     7
370
    15
100
AcDbLine
 10
294.0511912192
 20
493.6126438029
 30
0.0
 11
312.277731585
 21
490.3988129714
 31
0.0
  0
LINE
  5
CD
330
1F
100
AcDbEntity
  8
0
  6
Continuous
 62
     7
370
    15
100
AcDbLine
 10
320.986187695
 20
489.636921785
 30
0.0
 11
339.1861912192
 21
489.636921785
 31
0.0
  0
SPLINE
  5
CE
330
1F
100
AcDbEntity
  8
0
  6
Continuous
 62
     7
370
    15
100
AcDbSpline
210
0.0
220
0.0
230
1.0
 70
     8
 71
     3
 72
    16
 73
    12
 74
     0
 42
0.00000001
 43
0.00000001
 40
0.0
 40
0.0
 40
0.0
 40
0.0
 40
0.116684778975102
 40
0.2367918157222546
 40
0.3534644233694118
 40
0.4734598223116799
 40
0.5911861993356087
 40
0.712335126153954
 40
0.8298018691937656
 40
0.950768958159165
 40
0.9999999999999999
 40
0.9999999999999999
 40
0.9999999999999999
 40
0.9999999999999999
 10
338.8351412191518
 20
497.3496630208501
 30
0.0
 10
338.8430186852569
 20
497.1323210770169
 30
0.0
 10
338.8590046563385
 20
496.6912627490592
 30
0.0
 10
338.9044298789917
 20
496.0737815139627
 30
0.0
 10
338.9601674939903
 20
495.5035495346989
 30
0.0
 10
339.0210138353784
 20
495.0061303446483
 30
0.0
 10
339.0806831733988
 20
494.5867920505326
 30
0.0
 10
339.1319907584218
 20
494.2638327541392
 30
0.0
 10
339.1683328953662
 20
494.0504121516539
 30
0.0
 10
339.1863103541933
 20
493.9491439450064
 30
0.0
 10
339.1843908567139
 20
493.959965116818
 30
0.0
 10
339.1838356281678
 20
493.963095219127
 30
0.0
  0
SPLINE
  5
CF
330
1F
100
AcDbEntity
  8
0
  6
Continuous
 62
     7
370
    15
100
AcDbSpline
210
0.0
220
0.0
230
1.0
 70
     8
 71
     3
 72
    16
 73
    12
 74
     0
 42
0.00000001
 43
0.00000001
 40
0.0
 40
0.0
 40
0.0
 40
0.0
 40
0.0666321753566049
 40
0.1858878736598774
 40
0.3012928409064743
 40
0.4199712103547197
 40
0.5367273172257926
 40
0.65680070885945
 40
0.7746891981284303
 40
0.8960418477924675
 40
1.0
 40
1.0
 40
1.0
 40
1.0
 10
339.1838356281678
 20
501.9605483508312
 30
0.0
 10
339.1841334828868
 20
501.9622351630797
 30
0.0
 10
339.1849644264973
 20
501.9669409668519
 30
0.0
 10
339.1645369996195
 20
501.851458786074
 30
0.0
 10
339.1266560939571
 20
501.627379258462
 30
0.0
 10
339.075095583413
 20
501.2995728345824
 30
0.0
 10
339.0155537111322
 20
500.8761368829527
 30
0.0
 10
338.9548318132421
 20
500.3717401376999
 30
0.0
 10
338.8994634518323
 20
499.7917316265057
 30
0.0
 10
338.8568252679098
 20
499.1875905182609
 30
0.0
 10
338.8419873964586
 20
498.7677120193212
 30
0.0
 10
338.8351412191518
 20
498.5739805491081
 30
0.0
  0
LINE
  5
D0
330
1F
100
AcDbEntity
  8
0
  6
Continuous
 62
     7
370
    15
100
AcDbLine
 10
294.5426612192
 20
446.507921785
 30
0.0
 11
338.6947212192
 21
446.507921785
 31
0.0
  0
LINE
  5
D1
330
1F
100
AcDbEntity
  8
0
  6
Continuous
 62
     7
370
    15
100
AcDbLine
 10
294.5426612192
 20
407.190321785
 30
0.0
 11
338.6947212192
 21
407.190321785
 31
0.0
  0
LWPOLYLINE
  5
D2
330
1F
100
AcDbEntity
  8
0
  6
Continuous
 62
     7
370
    15
100
AcDbPolyline
 90
       33
 70
   128
 43
0.0
 10
338.6859825173
 20
440.2192175952
 10
338.672830186
 20
440.184865489
 10
338.5670873672
 20
439.907184519
 10
338.3953989491
 20
439.4506458644
 10
338.1623435011
 20
438.8186862728
 10
337.9536267053
 20
438.2394281858
 10
337.7239311292
 20
437.5855227161
 10
337.4755174691
 20
436.8561278105
 10
337.2171172454
 20
436.068692916
 10
336.8595939536
 20
434.919553438
 10
336.5046248687
 20
433.6884020324
 10
336.1592185335
 20
432.3665090134
 10
335.8409163241
 20
430.9789182013
 10
335.5694400293
 20
429.5693807804
 10
335.3498331282
 20
428.1085197782
 10
335.195122267
 20
426.5751573297
 10
335.1268245766
 20
425.0025203949
 10
335.1343575705
 20
424.0529792759
 10
335.2722070295
 20
422.1423000272
 10
335.4063035454
 20
421.1939887682
 10
335.5750593072
 20
420.3014924842
 10
336.0213513505
 20
418.5871964782
 10
336.2890507596
 20
417.7814475629
 10
337.0769988818
 20
415.8730727053
 10
337.3429892692
 20
415.3271303228
 10
337.6035491699
 20
414.8253170269
 10
338.0726837156
 20
413.9878744206
 10
338.269551615
 20
413.6574732852
 10
338.4484637109
 20
413.3664361851
 10
338.5818555495
 20
413.1546955606
 10
338.6660629669
 20
413.0231934277
 10
338.6947212192
 20
412.9788071106
 10
338.6947212192
 20
412.9788071106
  0
LINE
  5
D3
330
1F
100
AcDbEntity
  8
0
  6
Continuous
 62
     7
370
    15
100
AcDbLine
 10
316.6186912192
 20
447.510921785
 30
0.0
 11
294.5526912192
 21
447.510921785
 31
0.0
  0
LINE
  5
D4
330
1F
100
AcDbEntity
  8
0
  6
Continuous
 62
     7
370
    15
100
AcDbLine
 10
338.6846912192
 20
447.510921785
 30
0.0
 11
316.6186912192
 21
447.510921785
 31
0.0
  0
SPLINE
  5
D5
330
1F
100
AcDbEntity
  8
0
  6
Continuous
 62
     7
370
    15
100
AcDbSpline
210
0.0
220
0.0
230
1.0
 70
     8
 71
     3
 72
    24
 73
    20
 74
     0
 42
0.00000001
 43
0.00000001
 40
0.0
 40
0.0
 40
0.0
 40
0.0
 40
0.0337698124507243
 40
0.1026232880712821
 40
0.1377419672374464
 40
0.1832123910095643
 40
0.2757539144956236
 40
0.3227815218380107
 40
0.3839306142307337
 40
0.4455082585490275
 40
0.5084101066184645
 40
0.5717880591511127
 40
0.670657762207666
 40
0.7721169534029863
 40
0.8135213392865742
 40
0.8976440099677311
 40
0.9405010783314522
 40
0.981914036212679
 40
1.0
 40
1.0
 40
1.0
 40
1.0
 10
511.9564543850085
 20
510.4070393967689
 30
0.0
 10
511.8010000617859
 20
510.3199528135544
 30
0.0
 10
511.3285889751892
 20
510.0553048671255
 30
0.0
 10
510.7459069752142
 20
509.6205373543391
 30
0.0
 10
510.1694933547914
 20
509.1039442712383
 30
0.0
 10
509.551632015148
 20
508.4690298383209
 30
0.0
 10
508.9751334491135
 20
507.7478584625495
 30
0.0
 10
508.4253768676287
 20
506.9582630441963
 30
0.0
 10
508.0034069045028
 20
506.2930582406094
 30
0.0
 10
507.5888677959542
 20
505.5819316717054
 30
0.0
 10
507.212559172591
 20
504.8899950403986
 30
0.0
 10
506.8108388432786
 20
504.1081454902043
 30
0.0
 10
506.4121161316407
 20
503.2839556078957
 30
0.0
 10
506.1307907502691
 20
502.6722996862687
 30
0.0
 10
505.9297774066466
 20
502.2260873767345
 30
0.0
 10
505.8212391359733
 20
501.9806675186956
 30
0.0
 10
505.7639244932083
 20
501.8501823844337
 30
0.0
 10
505.7381503766064
 20
501.7913035426954
 30
0.0
 10
505.7469922862752
 20
501.8114825898319
 30
0.0
 10
505.7496799729356
 20
501.8176164407578
 30
0.0
  0
SPLINE
  5
D6
330
1F
100
AcDbEntity
  8
0
  6
Continuous
 62
     7
370
    15
100
AcDbSpline
210
0.0
220
0.0
230
1.0
 70
     8
 71
     3
 72
    24
 73
    20
 74
     0
 42
0.00000001
 43
0.00000001
 40
0.0
 40
0.0
 40
0.0
 40
0.0
 40
0.0712429474456683
 40
0.1139994674879055
 40
0.153491642501406
 40
0.2336255125394443
 40
0.2743054603135961
 40
0.31797389497438
 40
0.4063853045160848
 40
0.4511501464329196
 40
0.5038629147600598
 40
0.6106232429489278
 40
0.6647431343639844
 40
0.7101889662386818
 40
0.8021833290739894
 40
0.8489229561004182
 40
0.8859298589712954
 40
0.9613615076317326
 40
1.0
 40
1.0
 40
1.0
 40
1.0
 10
522.5532649589853
 20
510.7486170802894
 30
0.0
 10
522.5440916014079
 20
510.7503102775538
 30
0.0
 10
522.5294128448938
 20
510.7530196487043
 30
0.0
 10
522.3671424270487
 20
510.7824228747553
 30
0.0
 10
522.1369774328799
 20
510.8235057359561
 30
0.0
 10
521.812658815368
 20
510.880020111207
 30
0.0
 10
521.396859827834
 20
510.9489605816834
 30
0.0
 10
520.9030759582946
 20
511.0275380915294
 30
0.0
 10
520.3141626329439
 20
511.1142496070753
 30
0.0
 10
519.6247467427036
 20
511.2029142090435
 30
0.0
 10
518.8157045858494
 20
511.2942508598995
 30
0.0
 10
517.8907384573309
 20
511.3708251883616
 30
0.0
 10
516.9401640932779
 20
511.4030511613377
 30
0.0
 10
516.0289700857497
 20
511.399735897013
 30
0.0
 10
515.1184747195549
 20
511.340532691468
 30
0.0
 10
514.2348906313321
 20
511.2003785043211
 30
0.0
 10
513.434317567421
 20
511.0170135303451
 30
0.0
 10
512.6772723373233
 20
510.7674235641775
 30
0.0
 10
512.1388364699626
 20
510.4982241621113
 30
0.0
 10
511.9564543850085
 20
510.4070393967689
 30
0.0
  0
LINE
  5
D7
330
1F
100
AcDbEntity
  8
0
  6
Continuous
 62
     7
370
    15
100
AcDbLine
 10
516.3692360324
 20
534.1452647824
 30
0.0
 11
527.1994753319
 21
513.7765471059
 31
0.0
  0
LINE
  5
D8
330
1F
100
AcDbEntity
  8
0
  6
Continuous
 62
     7
370
    15
100
AcDbLine
 10
516.0515010615
 20
502.7053767355
 30
0.0
 11
524.4646672
 21
507.1787365215
 31
0.0
  0
LINE
  5
D9
330
1F
100
AcDbEntity
  8
0
  6
Continuous
 62
     7
370
    15
100
AcDbLine
 10
507.6383349229
 20
498.2320169495
 30
0.0
 11
516.0515010615
 21
502.7053767355
 31
0.0
  0
LINE
  5
DA
330
1F
100
AcDbEntity
  8
0
  6
Continuous
 62
     7
370
    15
100
AcDbLine
 10
338.8351412192
 20
497.3496630209
 30
0.0
 11
338.8351412192
 21
498.5739805491
 31
0.0
  0
LINE
  5
DB
330
1F
100
AcDbEntity
  8
0
  6
Continuous
 62
     7
370
    15
100
AcDbLine
 10
339.5873912192
 20
493.949821785
 30
0.0
 11
339.5873912192
 21
501.973821785
 31
0.0
  0
LINE
  5
DC
330
1F
100
AcDbEntity
  8
0
  6
Continuous
 62
     7
370
    15
100
AcDbLine
 10
406.9731862166
 20
548.1086968146
 30
0.0
 11
409.7984659113
 21
542.7951185208
 31
0.0
  0
SPLINE
  5
DD
330
1F
100
AcDbEntity
  8
0
  6
Continuous
 62
     8
370
     0
100
AcDbSpline
210
0.0
220
0.0
230
1.0
 70
     8
 71
     3
 72
    28
 73
    24
 74
     0
 42
0.00000001
 43
0.00000001
 40
0.0
 40
0.0
 40
0.0
 40
0.0
 40
0.0058352086247611
 40
0.0523378038418955
 40
0.1002464094821051
 40
0.1470149418808424
 40
0.1951225428550412
 40
0.2432096634683613
 40
0.2925681376362987
 40
0.3433558031577045
 40
0.3953710680164311
 40
0.4506267078186746
 40
0.5071476615638173
 40
0.5681401651078798
 40
0.6306042195155813
 40
0.6956210853775624
 40
0.7626155847922218
 40
0.8131546779214126
 40
0.8650455288111326
 40
0.9107980633627432
 40
0.9580758775808679
 40
0.9988376531790829
 40
1.0
 40
1.0
 40
1.0
 40
1.0
 10
339.1861912191518
 20
504.3805901845369
 30
0.0
 10
339.1861625208258
 20
504.3807661231584
 30
0.0
 10
339.1859051166003
 20
504.3823441714615
 30
0.0
 10
339.1780248130843
 20
504.4303141602758
 30
0.0
 10
339.1507620770587
 20
504.6012923820537
 30
0.0
 10
339.1096455827888
 20
504.8751262706793
 30
0.0
 10
339.0595194051373
 20
505.2406340679373
 30
0.0
 10
339.0047900065588
 20
505.6944544194485
 30
0.0
 10
338.950968815231
 20
506.2260007502646
 30
0.0
 10
338.9031511911822
 20
506.8279896306673
 30
0.0
 10
338.8658780689543
 20
507.495441056318
 30
0.0
 10
338.8437274377894
 20
508.2146238002896
 30
0.0
 10
338.8398902983748
 20
508.9847167050124
 30
0.0
 10
338.8567673227513
 20
509.7816938804599
 30
0.0
 10
338.8947810112424
 20
510.5911610897019
 30
0.0
 10
338.9509815057712
 20
511.3792324144657
 30
0.0
 10
339.0138323743602
 20
512.0501923597564
 30
0.0
 10
339.0733136709617
 20
512.5904303566377
 30
0.0
 10
339.1210593503633
 20
512.9810275880673
 30
0.0
 10
339.1589947581068
 20
513.2703632612659
 30
0.0
 10
339.1798796875304
 20
513.4229879516829
 30
0.0
 10
339.1882953352329
 20
513.4835475795812
 30
0.0
 10
339.1860671365881
 20
513.4674350623501
 30
0.0
 10
339.1860053597526
 20
513.4669883426072
 30
0.0
  0
LINE
  5
DE
330
1F
100
AcDbEntity
  8
0
  6
Continuous
 62
     8
370
    15
100
AcDbLine
 10
294.5526912192
 20
482.615921785
 30
0.0
 11
338.6846912192
 21
482.615921785
 31
0.0
  0
SPLINE
  5
DF
330
1F
100
AcDbEntity
  8
0
  6
Continuous
 62
     8
370
     0
100
AcDbSpline
210
0.0
220
0.0
230
1.0
 70
     8
 71
     3
 72
    26
 73
    22
 74
     0
 42
0.00000001
 43
0.00000001
 40
0.0
 40
0.0
 40
0.0
 40
0.0
 40
0.0416605391200671
 40
0.0872203972068763
 40
0.1344580694180746
 40
0.1851866544884004
 40
0.2373814713514326
 40
0.3029969132528284
 40
0.3706503363630716
 40
0.4321501334156673
 40
0.4950770820361774
 40
0.5504752946555386
 40
0.6070871685047516
 40
0.6577013597948594
 40
0.7095049993877275
 40
0.757263232379308
 40
0.8062640580375258
 40
0.8526946592362464
 40
0.9004354313543858
 40
0.9493936591781291
 40
1.0
 40
1.0
 40
1.0
 40
1.0
 10
339.9230886269387
 20
513.0253293290143
 30
0.0
 10
339.9212507573161
 20
513.0165502251831
 30
0.0
 10
339.9174029982164
 20
512.9981703160545
 30
0.0
 10
339.885542996289
 20
512.844012064581
 30
0.0
 10
339.8343964413658
 20
512.5886738920209
 30
0.0
 10
339.7659207582744
 20
512.2298165087888
 30
0.0
 10
339.6799266050797
 20
511.7459117707016
 30
0.0
 10
339.5820991999924
 20
511.1343362895799
 30
0.0
 10
339.4860006941478
 20
510.4268210371288
 30
0.0
 10
339.4053137436147
 20
509.6876492122513
 30
0.0
 10
339.3473862230898
 20
508.9729465542748
 30
0.0
 10
339.3107292539772
 20
508.2721638800938
 30
0.0
 10
339.2953434950793
 20
507.6287416746411
 30
0.0
 10
339.297602323857
 20
507.022795003346
 30
0.0
 10
339.3136663459989
 20
506.4855741987627
 30
0.0
 10
339.3397250951846
 20
506.0037297337179
 30
0.0
 10
339.3703244445531
 20
505.5996414361974
 30
0.0
 10
339.4015421868883
 20
505.2680158801177
 30
0.0
 10
339.4283993759251
 20
505.0210082122177
 30
0.0
 10
339.448239496357
 20
504.8553772381319
 30
0.0
 10
339.4508993095817
 20
504.8341683725344
 30
0.0
 10
339.4522512304147
 20
504.8233884023555
 30
0.0
  0
SPLINE
  5
E0
330
1F
100
AcDbEntity
  8
0
  6
Continuous
 62
     7
370
    15
100
AcDbSpline
210
0.0
220
0.0
230
1.0
 70
     8
 71
     3
 72
    13
 73
     9
 74
     0
 42
0.00000001
 43
0.00000001
 40
0.0
 40
0.0
 40
0.0
 40
0.0
 40
0.151054837837516
 40
0.3362861327539604
 40
0.524332815760412
 40
0.7181569490537058
 40
0.8767491585862766
 40
1.0
 40
1.0
 40
1.0
 40
1.0
 10
182.0430788139019
 20
210.1200364251807
 30
0.0
 10
182.3055694137374
 20
210.127575193084
 30
0.0
 10
182.8899396329679
 20
210.1443583901018
 30
0.0
 10
183.7386483137258
 20
210.329828140396
 30
0.0
 10
184.5241336709635
 20
210.6410236964415
 30
0.0
 10
185.0853809684531
 20
211.0578987702093
 30
0.0
 10
185.4286295227872
 20
211.5357912923906
 30
0.0
 10
185.4525658280236
 20
211.8710671976841
 30
0.0
 10
185.4630332486353
 20
212.0176843922341
 30
0.0
  0
SPLINE
  5
E1
330
1F
100
AcDbEntity
  8
0
  6
Continuous
 62
     7
370
    15
100
AcDbSpline
210
0.0
220
0.0
230
1.0
 70
     8
 71
     3
 72
    14
 73
    10
 74
     0
 42
0.00000001
 43
0.00000001
 40
0.0
 40
0.0
 40
0.0
 40
0.0
 40
0.1196970442463228
 40
0.2691266595981959
 40
0.428955685957943
 40
0.6067672139990927
 40
0.7882725656023244
 40
0.9677495058111912
 40
1.0
 40
1.0
 40
1.0
 40
1.0
 10
178.4855765883575
 20
212.0252468388041
 30
0.0
 10
178.4916595562926
 20
211.8781085738779
 30
0.0
 10
178.5053364925202
 20
211.5472831137508
 30
0.0
 10
178.8232941546028
 20
211.100297404528
 30
0.0
 10
179.3217859742253
 20
210.7015151082372
 30
0.0
 10
180.0309495783035
 20
210.3795730931493
 30
0.0
 10
180.9061606725928
 20
210.177178041602
 30
0.0
 10
181.6108076731134
 20
210.0919333577587
 30
0.0
 10
181.9859385717712
 20
210.1163215899174
 30
0.0
 10
182.0430788139019
 20
210.1200364251807
 30
0.0
  0
LINE
  5
E2
330
1F
100
AcDbEntity
  8
0
  6
Continuous
 62
     7
370
    15
100
AcDbLine
 10
178.4596079072
 20
280.628697475
 30
0.0
 11
178.4596079072
 21
212.0239597996
 31
0.0
  0
LINE
  5
E3
330
1F
100
AcDbEntity
  8
0
  6
Continuous
 62
     7
370
    15
100
AcDbLine
 10
185.4806079072
 20
212.0239597996
 30
0.0
 11
185.4806079072
 21
280.6285705098
 31
0.0
  0
SPLINE
  5
E4
330
1F
100
AcDbEntity
  8
0
  6
Continuous
 62
     7
370
    15
100
AcDbSpline
210
0.0
220
0.0
230
1.0
 70
     8
 71
     3
 72
    17
 73
    13
 74
     0
 42
0.00000001
 43
0.00000001
 40
0.0
 40
0.0
 40
0.0
 40
0.0
 40
0.0180620398692336
 40
0.1275017442021299
 40
0.2370978946666874
 40
0.3469490519242368
 40
0.4571662780566926
 40
0.5678516305636022
 40
0.6790031126643591
 40
0.790005752150802
 40
0.8991822559871729
 40
1.0
 40
1.0
 40
1.0
 40
1.0
 10
184.3591438953429
 20
92.8327575217528
 30
0.0
 10
184.4563849166798
 20
92.8393889597002
 30
0.0
 10
185.1428190026538
 20
92.8862009427866
 30
0.0
 10
186.3695580625097
 20
93.09387032726801
 30
0.0
 10
187.9891297116966
 20
93.45785464425325
 30
0.0
 10
189.4749155121254
 20
93.94692507916436
 30
0.0
 10
190.8009690863304
 20
94.53857867483254
 30
0.0
 10
191.9367343870261
 20
95.2286090541819
 30
0.0
 10
192.8575134330389
 20
96.0070279432266
 30
0.0
 10
193.52701564524
 20
96.86188555005448
 30
0.0
 10
193.9429732334211
 20
97.75894524702791
 30
0.0
 10
193.981308404544
 20
98.37313085285093
 30
0.0
 10
193.9997130299495
 20
98.66799991625827
 30
0.0
  0
SPLINE
  5
E5
330
1F
100
AcDbEntity
  8
0
  6
Continuous
 62
     7
370
    15
100
AcDbSpline
210
0.0
220
0.0
230
1.0
 70
     8
 71
     3
 72
    13
 73
     9
 74
     0
 42
0.00000001
 43
0.00000001
 40
0.0
 40
0.0
 40
0.0
 40
0.0
 40
0.0685000403000988
 40
0.2616900844876542
 40
0.4544600979114415
 40
0.6469666526036673
 40
0.8393588690208086
 40
1.0
 40
1.0
 40
1.0
 40
1.0
 10
175.4875418126763
 20
93.63855320681472
 30
0.0
 10
175.6610348109711
 20
93.58005693157295
 30
0.0
 10
176.3238285433963
 20
93.35658414026982
 30
0.0
 10
177.6184020580767
 20
93.08298242525484
 30
0.0
 10
179.326635532141
 20
92.8261532563263
 30
0.0
 10
181.0997568115157
 20
92.70514255022952
 30
0.0
 10
182.7950149753436
 20
92.69670653556089
 30
0.0
 10
183.8699947371045
 20
92.79021037329058
 30
0.0
 10
184.3591438953429
 20
92.8327575217528
 30
0.0
  0
SPLINE
  5
E6
330
1F
100
AcDbEntity
  8
0
  6
Continuous
 62
     7
370
    15
100
AcDbSpline
210
0.0
220
0.0
230
1.0
 70
     8
 71
     3
 72
    15
 73
    11
 74
     0
 42
0.00000001
 43
0.00000001
 40
0.0
 40
0.0
 40
0.0
 40
0.0
 40
0.0088286790037322
 40
0.1522753082209941
 40
0.2956024928632308
 40
0.4423956965608139
 40
0.5934733484367216
 40
0.7469260067767853
 40
0.9007893629916495
 40
1.0
 40
1.0
 40
1.0
 40
1.0
 10
169.9422423452058
 20
98.58659430733807
 30
0.0
 10
169.9398692468583
 20
98.56819751552578
 30
0.0
 10
169.898938516208
 20
98.25089329115572
 30
0.0
 10
170.0721435654281
 20
97.63073181280026
 30
0.0
 10
170.4670698358943
 20
96.7706863152483
 30
0.0
 10
171.1365014579907
 20
95.95966803246753
 30
0.0
 10
172.0362772569002
 20
95.20460640721431
 30
0.0
 10
173.1715741064499
 20
94.52688044464283
 30
0.0
 10
174.3285382424761
 20
93.9948446523935
 30
0.0
 10
175.1611424394793
 20
93.73889224588447
 30
0.0
 10
175.4875418126763
 20
93.63855320681472
 30
0.0
  0
LINE
  5
E7
330
1F
100
AcDbEntity
  8
0
  6
Continuous
 62
     7
370
    15
100
AcDbLine
 10
169.9341079072
 20
284.2583316021
 30
0.0
 11
169.9341079072
 21
98.6254301753
 31
0.0
  0
LINE
  5
E8
330
1F
100
AcDbEntity
  8
0
  6
Continuous
 62
     7
370
    15
100
AcDbLine
 10
194.0061079072
 20
98.6254301753
 30
0.0
 11
194.0061079072
 21
284.2583316021
 31
0.0
  0
SPLINE
  5
E9
330
1F
100
AcDbEntity
  8
0
  6
Continuous
 62
     7
370
    15
100
AcDbSpline
210
0.0
220
0.0
230
1.0
 70
     8
 71
     3
 72
    19
 73
    15
 74
     0
 42
0.00000001
 43
0.00000001
 40
0.0
 40
0.0
 40
0.0
 40
0.0
 40
0.1004996123241085
 40
0.2373994233922112
 40
0.2870379305463669
 40
0.3212361521966517
 40
0.3318043084943402
 40
0.3421384899652166
 40
0.3675166768952504
 40
0.4251586466041052
 40
0.5656169806300562
 40
0.7195696285526597
 40
0.8948548464417786
 40
1.0
 40
1.0
 40
1.0
 40
1.0
 10
178.0670108950152
 20
281.1208729488162
 30
0.0
 10
178.0614106304529
 20
281.1218376903173
 30
0.0
 10
178.0481817279011
 20
281.1241165953876
 30
0.0
 10
178.0490340438168
 20
281.1240254092911
 30
0.0
 10
178.05066266357
 20
281.1236947442865
 30
0.0
 10
178.053229543086
 20
281.1232499934496
 30
0.0
 10
178.0622645375763
 20
281.1214100671535
 30
0.0
 10
178.0752661417372
 20
281.1185545297586
 30
0.0
 10
178.1065231159604
 20
281.1105587701941
 30
0.0
 10
178.1781986945523
 20
281.0854364296804
 30
0.0
 10
178.2837360652146
 20
281.0227099257395
 30
0.0
 10
178.3904067212218
 20
280.9011259242552
 30
0.0
 10
178.4554761395154
 20
280.760945125125
 30
0.0
 10
178.4528145456854
 20
280.6644144206347
 30
0.0
 10
178.4518166020941
 20
280.6282209951711
 30
0.0
  0
SPLINE
  5
EA
330
1F
100
AcDbEntity
  8
0
  6
Continuous
 62
     7
370
    15
100
AcDbSpline
210
0.0
220
0.0
230
1.0
 70
     8
 71
     3
 72
    11
 73
     7
 74
     0
 42
0.00000001
 43
0.00000001
 40
0.0
 40
0.0
 40
0.0
 40
0.0
 40
0.098980470439564
 40
0.5119159922669299
 40
0.8496976401314088
 40
1.0
 40
1.0
 40
1.0
 40
1.0
 10
185.4857197919212
 20
280.630569614581
 30
0.0
 10
185.4839841029749
 20
280.6432541112795
 30
0.0
 10
185.4750073126522
 20
280.7088569184294
 30
0.0
 10
185.5120868409806
 20
280.816834093339
 30
0.0
 10
185.5654663091576
 20
280.9209188505571
 30
0.0
 10
185.6107519210748
 20
280.9649337018843
 30
0.0
 10
185.6246973366824
 20
280.978487794866
 30
0.0
  0
LINE
  5
EB
330
1F
100
AcDbEntity
  8
0
  6
Continuous
 62
     7
370
    15
100
AcDbLine
 10
177.9581079072
 20
281.1318465117
 30
0.0
 11
177.9581079072
 21
280.3795965117
 31
0.0
  0
LINE
  5
EC
330
1F
100
AcDbEntity
  8
0
  6
Continuous
 62
     7
370
    15
100
AcDbLine
 10
185.9821079072
 20
280.3795965117
 30
0.0
 11
185.9821079072
 21
281.1318465117
 31
0.0
  0
LINE
  5
ED
330
1F
100
AcDbEntity
  8
0
  6
Continuous
 62
     7
370
    15
100
AcDbLine
 10
177.9581079072
 20
280.3795965117
 30
0.0
 11
178.1773450182
 21
279.7772474996
 31
0.0
  0
LINE
  5
EE
330
1F
100
AcDbEntity
  8
0
  6
Continuous
 62
     7
370
    15
100
AcDbLine
 10
185.7628707962
 20
279.7772474996
 30
0.0
 11
185.9821079072
 21
280.3795965117
 31
0.0
  0
ARC
  5
EF
330
1F
100
AcDbEntity
  8
0
  6
Continuous
 62
     7
370
    15
100
AcDbCircle
 10
185.5743684565
 20
279.8458567404
 30
0.0
 40
0.2006000000000085
100
AcDbArc
 50
270.0
 51
340.0
  0
ARC
  5
F0
330
1F
100
AcDbEntity
  8
0
  6
Continuous
 62
     7
370
    15
100
AcDbCircle
 10
178.365847358
 20
279.8458567404
 30
0.0
 40
0.2006000000000319
100
AcDbArc
 50
200.0
 51
270.0
  0
LINE
  5
F1
330
1F
100
AcDbEntity
  8
0
  6
Continuous
 62
     7
370
    15
100
AcDbLine
 10
178.365847358
 20
279.6452567404
 30
0.0
 11
178.4596079072
 21
279.6452567404
 31
0.0
  0
LINE
  5
F2
330
1F
100
AcDbEntity
  8
0
  6
Continuous
 62
     7
370
    15
100
AcDbLine
 10
185.4806079072
 20
279.6452567404
 30
0.0
 11
185.5743684565
 21
279.6452567404
 31
0.0
  0
CIRCLE
  5
F3
330
1F
100
AcDbEntity
  8
0
  6
Continuous
 62
     7
370
    15
100
AcDbCircle
 10
181.9701079072
 20
303.3482965117
 30
0.0
 40
22.56749999999997
  0
SPLINE
  5
F4
330
1F
100
AcDbEntity
  8
0
  6
Continuous
 62
     7
370
    15
100
AcDbSpline
210
0.0
220
0.0
230
1.0
 70
     8
 71
     3
 72
     9
 73
     5
 74
     0
 42
0.00000001
 43
0.00000001
 40
0.0
 40
0.0
 40
0.0
 40
0.0
 40
0.0855517696479048
 40
0.9999999999999999
 40
0.9999999999999999
 40
0.9999999999999999
 40
0.9999999999999999
 10
182.6352998201491
 20
280.7912444361447
 30
0.0
 10
182.6168301336295
 20
280.7904872669291
 30
0.0
 10
182.4009411275279
 20
280.7816368454969
 30
0.0
 10
182.1758981028736
 20
280.7811979024032
 30
0.0
 10
181.9701079072254
 20
280.7807965116679
 30
0.0
  0
LINE
  5
F5
330
1F
100
AcDbEntity
  8
0
  6
Continuous
 62
     7
370
    15
100
AcDbLine
 10
177.9581079072
 20
281.1318465117
 30
0.0
 11
178.005085127
 21
281.1318465117
 31
0.0
  0
LINE
  5
F6
330
1F
100
AcDbEntity
  8
0
  6
Continuous
 62
     7
370
    15
100
AcDbLine
 10
185.9351306874
 20
281.1318465117
 30
0.0
 11
185.9821079072
 21
281.1318465117
 31
0.0
  0
LINE
  5
F7
330
1F
100
AcDbEntity
  8
0
  6
Continuous
 62
     7
370
    15
100
AcDbLine
 10
177.9581079072
 20
280.3795965117
 30
0.0
 11
178.4596079072
 21
280.3795965117
 31
0.0
  0
LINE
  5
F8
330
1F
100
AcDbEntity
  8
0
  6
Continuous
 62
     7
370
    15
100
AcDbLine
 10
185.4806079072
 20
280.3795965117
 30
0.0
 11
185.9821079072
 21
280.3795965117
 31
0.0
  0
ARC
  5
F9
330
1F
100
AcDbEntity
  8
0
  6
Continuous
 62
     7
370
    15
100
AcDbCircle
 10
181.9701079072
 20
303.3482965117
 30
0.0
 40
24.07200000000006
100
AcDbArc
 50
300.0
 51
240.0
  0
LWPOLYLINE
  5
FA
330
1F
100
AcDbEntity
  8
0
  6
Continuous
 62
     8
370
    15
100
AcDbPolyline
 90
        7
 70
   128
 43
0.0
 10
181.9701079072
 20
213.6720397208
 10
183.004845947
 20
213.5988201541
 10
183.9476429711
 20
213.3856673337
 10
184.7147273264
 20
213.0515208231
 10
185.2379402018
 20
212.6260710063
 10
185.4707918372
 20
212.1471209664
 10
185.4805972598
 20
212.0199006829
  0
LWPOLYLINE
  5
FB
330
1F
100
AcDbEntity
  8
0
  6
Continuous
 62
     8
370
    15
100
AcDbPolyline
 90
        7
 70
   128
 43
0.0
 10
178.4596080818
 20
212.0234400045
 10
178.4694239772
 20
212.1471209664
 10
178.7022756126
 20
212.6260710063
 10
179.225488488
 20
213.0515208231
 10
179.9925728434
 20
213.3856673337
 10
180.9353698675
 20
213.5988201541
 10
181.9701079072
 20
213.6720397208
  0
LWPOLYLINE
  5
FC
330
1F
100
AcDbEntity
  8
0
  6
Continuous
 62
     8
370
     0
100
AcDbPolyline
 90
       20
 70
   128
 43
0.0
 10
181.9701079072
 20
212.9938015143
 10
180.9930872044
 20
212.9172607862
 10
180.1219418547
 20
212.6959329777
 10
179.4510739741
 20
212.353802391
 10
179.053182507
 20
211.9279441838
 10
178.9713851678
 20
211.4645067008
 10
179.2145459673
 20
211.0137105843
 10
179.75631466
 20
210.6244065883
 10
180.5379822016
 20
210.3387818414
 10
181.4748427851
 20
210.1877882168
 10
182.4653730294
 20
210.1877882168
 10
183.4022336129
 20
210.3387818414
 10
184.1839011544
 20
210.6244065883
 10
184.7256698471
 20
211.0137105843
 10
184.9688306467
 20
211.4645067008
 10
184.8870333074
 20
211.9279441838
 10
184.4891418403
 20
212.353802391
 10
183.8182739597
 20
212.6959329777
 10
182.9471286101
 20
212.9172607862
 10
181.9701079072
 20
212.9938015143
  0
SPLINE
  5
FD
330
1F
100
AcDbEntity
  8
0
  6
Continuous
 62
     8
370
     0
100
AcDbSpline
210
0.0
220
0.0
230
1.0
 70
     8
 71
     3
 72
    28
 73
    24
 74
     0
 42
0.00000001
 43
0.00000001
 40
0.0
 40
0.0
 40
0.0
 40
0.0
 40
0.0116680606312855
 40
0.0775392167681551
 40
0.1358809541801734
 40
0.195501692359157
 40
0.2448094085015174
 40
0.2950640411374005
 40
0.3369262989936295
 40
0.3796524496695226
 40
0.4194353322418001
 40
0.4603342347958829
 40
0.4998548983099459
 40
0.540718190434425
 40
0.5852045455079491
 40
0.6313291812526449
 40
0.6808624753097957
 40
0.7318274531098184
 40
0.7958968328073993
 40
0.8619561738327176
 40
0.9220068834600059
 40
0.9834511174321902
 40
1.0
 40
1.0
 40
1.0
 40
1.0
 10
185.4708756418733
 20
280.6288507492521
 30
0.0
 10
185.4739261173426
 20
280.6267070841565
 30
0.0
 10
185.4941978219672
 20
280.6124615194666
 30
0.0
 10
185.4059089474928
 20
280.5633162264543
 30
0.0
 10
185.2168595623939
 20
280.4862573938806
 30
0.0
 10
184.9412679156005
 20
280.4023005436189
 30
0.0
 10
184.6006169533742
 20
280.317542219808
 30
0.0
 10
184.2317408978923
 20
280.2419203027251
 30
0.0
 10
183.8234205090654
 20
280.1743317790969
 30
0.0
 10
183.4004805151289
 20
280.1196020902754
 30
0.0
 10
182.9412270690226
 20
280.0769167650237
 30
0.0
 10
182.4643053099481
 20
280.0500726229631
 30
0.0
 10
181.9669097009828
 20
280.0407398297106
 30
0.0
 10
181.4546621154461
 20
280.0504979692377
 30
0.0
 10
180.9343641775968
 20
280.0811684765932
 30
0.0
 10
180.4201188375998
 20
280.1326733454982
 30
0.0
 10
179.939224210776
 20
280.2010403990116
 30
0.0
 10
179.474007911198
 20
280.2870846035643
 30
0.0
 10
179.0589734159077
 20
280.3848107535709
 30
0.0
 10
178.7366348452428
 20
280.481265124902
 30
0.0
 10
178.5390382405632
 20
280.5607348190143
 30
0.0
 10
178.4537415058466
 20
280.6097063433892
 30
0.0
 10
178.4666972855364
 20
280.6254933331563
 30
0.0
 10
178.4694462932203
 20
280.6288430779972
 30
0.0
  0
LWPOLYLINE
  5
FE
330
1F
100
AcDbEntity
  8
0
  6
Continuous
 62
     8
370
     0
100
AcDbPolyline
 90
       40
 70
   128
 43
0.0
 10
181.9701079072
 20
103.5977516984
 10
180.1198439882
 20
103.52762732
 10
178.3175009327
 20
103.3190703692
 10
176.6097584793
 20
102.9774823617
 10
175.0408462604
 20
102.5117102473
 10
173.6513982783
 20
101.9338172792
 10
172.4774005061
 20
101.2587705816
 10
171.5492588692
 20
100.5040535095
 10
170.8910117486
 20
99.6892128386
 10
170.5197073989
 20
98.8353525142
 10
170.4449624078
 20
97.9645870703
 10
170.6687126312
 20
97.0994688744
 10
171.185163056
 20
96.2624040334
 10
171.9809378873
 20
95.475072087
 10
173.035426975
 20
94.757864519
 10
174.3213196057
 20
94.1293566287
 10
175.8053118358
 20
93.6058264404
 10
177.4489690458
 20
93.2008331108
 10
179.2097213775
 20
92.9248657546
 10
181.0419662704
 20
92.7850717812
 10
182.8982495441
 20
92.7850717812
 10
184.730494437
 20
92.9248657546
 10
186.4912467687
 20
93.2008331108
 10
188.1349039787
 20
93.6058264404
 10
189.6188962087
 20
94.1293566287
 10
190.9047888394
 20
94.757864519
 10
191.9592779272
 20
95.475072087
 10
192.7550527585
 20
96.2624040334
 10
193.2715031832
 20
97.0994688744
 10
193.4952534066
 20
97.9645870703
 10
193.4205084155
 20
98.8353525142
 10
193.0492040658
 20
99.6892128386
 10
192.3909569452
 20
100.5040535095
 10
191.4628153084
 20
101.2587705816
 10
190.2888175361
 20
101.9338172792
 10
188.8993695541
 20
102.5117102473
 10
187.3304573352
 20
102.9774823617
 10
185.6227148817
 20
103.3190703692
 10
183.8203718263
 20
103.52762732
 10
181.9701079072
 20
103.5977516984
  0
LWPOLYLINE
  5
FF
330
1F
100
AcDbEntity
  8
0
  6
Continuous
 62
     8
370
    15
100
AcDbPolyline
 90
       11
 70
   128
 43
0.0
 10
181.9701079072
 20
104.275989905
 10
183.8529531284
 20
104.2064221381
 10
185.6894364515
 20
103.9994318269
 10
187.4343375621
 20
103.6601157597
 10
189.0446912038
 20
103.1968290243
 10
190.4808451256
 20
102.6209792776
 10
191.7074364515
 20
101.9467458516
 10
192.6942624324
 20
101.1907306108
 10
193.4170241374
 20
100.3715491595
 10
193.8579247746
 20
99.5093724638
 10
194.005844883
 20
98.6627862172
  0
LWPOLYLINE
  5
100
330
1F
100
AcDbEntity
  8
0
  6
Continuous
 62
     8
370
    15
100
AcDbPolyline
 90
       12
 70
   128
 43
0.0
 10
169.9343192637
 20
98.5919435584
 10
169.9341079072
 20
98.6254301753
 10
170.0822910398
 20
99.5093724638
 10
170.5231916771
 20
100.3715491595
 10
171.2459533821
 20
101.1907306108
 10
172.2327793629
 20
101.9467458516
 10
173.4593706889
 20
102.6209792776
 10
174.8955246106
 20
103.1968290243
 10
176.5058782524
 20
103.6601157597
 10
178.2507793629
 20
103.9994318269
 10
180.087262686
 20
104.2064221381
 10
181.9701079072
 20
104.275989905
  0
CIRCLE
  5
101
330
1F
100
AcDbEntity
  8
0
  6
Continuous
 62
     8
370
     0
100
AcDbCircle
 10
181.9701079072
 20
303.3482965117
 30
0.0
 40
22.02587999999997
  0
LINE
  5
102
330
1F
100
AcDbEntity
  8
0
  6
Continuous
 62
     8
370
     0
100
AcDbLine
 10
178.1773450182
 20
279.7772474996
 30
0.0
 11
178.4596079072
 21
279.7772474996
 31
0.0
  0
LINE
  5
103
330
1F
100
AcDbEntity
  8
0
  6
Continuous
 62
     8
370
     0
100
AcDbLine
 10
185.4806079072
 20
279.7772474996
 30
0.0
 11
185.7628707962
 21
279.7772474996
 31
0.0
  0
ENDSEC
  0
SECTION
  2
OBJECTS
  0
DICTIONARY
  5
C
330
0
100
AcDbDictionary
281
     1
  3
ACAD_GROUP
350
D
  3
ACAD_LAYOUT
350
1A
  3
ACAD_MATERIAL
350
3B
  3
ACAD_MLEADERSTYLE
350
105
  3
ACAD_MLINESTYLE
350
17
  3
ACAD_PLOTSETTINGS
350
19
  3
ACAD_PLOTSTYLENAME
350
E
  3
ACAD_TABLESTYLE
350
104
  3
ACAD_VISUALSTYLE
350
2A
  0
DICTIONARY
  5
D
102
{ACAD_REACTORS
330
C
102
}
330
C
100
AcDbDictionary
281
     1
  0
DICTIONARY
  5
1A
102
{ACAD_REACTORS
330
C
102
}
330
C
100
AcDbDictionary
281
     1
  3
Layout1
350
1E
  3
Layout2
350
26
  3
Model
350
22
  0
DICTIONARY
  5
3B
102
{ACAD_REACTORS
330
C
102
}
330
C
100
AcDbDictionary
281
     1
  3
ByBlock
350
3D
  3
ByLayer
350
3C
  3
Global
350
3E
  0
DICTIONARY
  5
105
102
{ACAD_REACTORS
330
C
102
}
330
C
100
AcDbDictionary
281
     1
  0
DICTIONARY
  5
17
102
{ACAD_REACTORS
330
C
102
}
330
C
100
AcDbDictionary
281
     1
  3
Standard
350
18
  0
DICTIONARY
  5
19
102
{ACAD_REACTORS
330
C
102
}
330
C
100
AcDbDictionary
281
     1
  0
ACDBDICTIONARYWDFLT
  5
E
102
{ACAD_REACTORS
330
C
102
}
330
C
100
AcDbDictionary
281
     1
  3
Normal
350
F
100
AcDbDictionaryWithDefault
340
F
  0
DICTIONARY
  5
104
102
{ACAD_REACTORS
330
C
102
}
330
C
100
AcDbDictionary
281
     1
  0
DICTIONARY
  5
2A
102
{ACAD_REACTORS
330
C
102
}
330
C
100
AcDbDictionary
281
     1
  3
2dWireframe
350
2F
  3
3D Hidden
350
31
  3
3dWireframe
350
30
  3
Basic
350
32
  3
Brighten
350
36
  3
ColorChange
350
3A
  3
Conceptual
350
34
  3
Dim
350
35
  3
Facepattern
350
39
  3
Flat
350
2B
  3
FlatWithEdges
350
2C
  3
Gouraud
350
2D
  3
GouraudWithEdges
350
2E
  3
Linepattern
350
38
  3
Realistic
350
33
  3
Thicken
350
37
  0
LAYOUT
  5
1E
102
{ACAD_REACTORS
330
1A
102
}
330
1A
100
AcDbPlotSettings
  1

  2
none_device
  4

  6

 40
0.0
 41
0.0
 42
0.0
 43
0.0
 44
0.0
 45
0.0
 46
0.0
 47
0.0
 48
0.0
 49
0.0
140
0.0
141
0.0
142
1.0
143
1.0
 70
   688
 72
     0
 73
     0
 74
     5
  7

 75
    16
 76
     0
 77
     2
 78
   300
147
1.0
148
0.0
149
0.0
100
AcDbLayout
  1
Layout1
 70
     1
 71
     1
 10
0.0
 20
0.0
 11
420.0
 21
297.0
 12
0.0
 22
0.0
 32
0.0
 14
1.0000000000E+20
 24
1.0000000000E+20
 34
1.0000000000E+20
 15
-1.0000000000E+20
 25
-1.0000000000E+20
 35
-1.0000000000E+20
146
0.0
 13
0.0
 23
0.0
 33
0.0
 16
1.0
 26
0.0
 36
0.0
 17
0.0
 27
1.0
 37
0.0
 76
     0
330
1B
  0
LAYOUT
  5
26
102
{ACAD_REACTORS
330
1A
102
}
330
1A
100
AcDbPlotSettings
  1

  2
none_device
  4

  6

 40
0.0
 41
0.0
 42
0.0
 43
0.0
 44
0.0
 45
0.0
 46
0.0
 47
0.0
 48
0.0
 49
0.0
140
0.0
141
0.0
142
1.0
143
1.0
 70
   688
 72
     0
 73
     0
 74
     5
  7

 75
    16
 76
     0
 77
     2
 78
   300
147
1.0
148
0.0
149
0.0
100
AcDbLayout
  1
Layout2
 70
     1
 71
     2
 10
0.0
 20
0.0
 11
0.0
 21
0.0
 12
0.0
 22
0.0
 32
0.0
 14
0.0
 24
0.0
 34
0.0
 15
0.0
 25
0.0
 35
0.0
146
0.0
 13
0.0
 23
0.0
 33
0.0
 16
1.0
 26
0.0
 36
0.0
 17
0.0
 27
1.0
 37
0.0
 76
     0
330
23
  0
LAYOUT
  5
22
102
{ACAD_REACTORS
330
1A
102
}
330
1A
100
AcDbPlotSettings
  1

  2
none_device
  4

  6

 40
0.0
 41
0.0
 42
0.0
 43
0.0
 44
0.0
 45
0.0
 46
0.0
 47
0.0
 48
0.0
 49
0.0
140
0.0
141
0.0
142
1.0
143
1.0
 70
  1712
 72
     0
 73
     0
 74
     0
  7

 75
     0
 76
     0
 77
     2
 78
   300
147
1.0
148
0.0
149
0.0
100
AcDbLayout
  1
Model
 70
     1
 71
     0
 10
0.0
 20
0.0
 11
594.0
 21
841.0
 12
0.0
 22
0.0
 32
0.0
 14
0.0
 24
0.0
 34
0.0
 15
594.0
 25
841.0
 35
0.0
146
0.0
 13
0.0
 23
0.0
 33
0.0
 16
1.0
 26
0.0
 36
0.0
 17
0.0
 27
1.0
 37
0.0
 76
     0
330
1F
331
29
  0
MATERIAL
  5
3D
102
{ACAD_REACTORS
330
3B
102
}
330
3B
100
AcDbMaterial
  1
ByBlock
 72
     1
 94
      127
  0
MATERIAL
  5
3C
102
{ACAD_REACTORS
330
3B
102
}
330
3B
100
AcDbMaterial
  1
ByLayer
 72
     1
 94
      127
  0
MATERIAL
  5
3E
102
{ACAD_REACTORS
330
3B
102
}
330
3B
100
AcDbMaterial
  1
Global
 72
     1
 94
      127
  0
MLINESTYLE
  5
18
102
{ACAD_REACTORS
330
17
102
}
330
17
100
AcDbMlineStyle
  2
Standard
 70
     0
  3

 62
   256
 51
90.0
 52
90.0
 71
     2
 49
0.5
 62
   256
  6
BYLAYER
 49
-0.5
 62
   256
  6
BYLAYER
  0
ACDBPLACEHOLDER
  5
F
102
{ACAD_REACTORS
330
E
102
}
330
E
  0
VISUALSTYLE
  5
2F
102
{ACAD_REACTORS
330
2A
102
}
330
2A
100
AcDbVisualStyle
  2
2dWireframe
 70
     4
177
     2
291
     0
 71
     0
176
     1
 72
     2
176
     1
 73
     0
176
     1
 90
        0
176
     1
 40
-0.6
176
     1
 41
-30.0
176
     1
 62
     5
 63
     7
421
 16777215
176
     1
 74
     1
176
     1
 91
        4
176
     1
 64
     7
176
     1
 65
   257
176
     1
 75
     1
176
     1
175
     1
176
     1
 42
1.0
176
     1
 92
        0
176
     1
 66
   257
176
     1
 43
1.0
176
     1
 76
     1
176
     1
 77
     6
176
     1
 78
     2
176
     1
 67
     7
176
     1
 79
     5
176
     1
170
     0
176
     1
171
     0
176
     1
290
     0
176
     1
 93
        1
176
     1
 44
0.0
176
     1
173
     0
176
     1
  0
VISUALSTYLE
  5
31
102
{ACAD_REACTORS
330
2A
102
}
330
2A
100
AcDbVisualStyle
  2
3D Hidden
 70
     6
177
     2
291
     0
 71
     1
176
     1
 72
     2
176
     1
 73
     2
176
     1
 90
        0
176
     1
 40
-0.6
176
     1
 41
-30.0
176
     1
 62
     5
 63
     7
421
 16777215
176
     1
 74
     2
176
     1
 91
        2
176
     1
 64
     7
176
     1
 65
   257
176
     1
 75
     2
176
     1
175
     1
176
     1
 42
40.0
176
     1
 92
        0
176
     1
 66
   257
176
     1
 43
1.0
176
     1
 76
     1
176
     1
 77
     6
176
     1
 78
     2
176
     1
 67
     7
176
     1
 79
     3
176
     1
170
     0
176
     1
171
     0
176
     1
290
     0
176
     1
 93
        1
176
     1
 44
0.0
176
     1
173
     0
176
     1
  0
VISUALSTYLE
  5
30
102
{ACAD_REACTORS
330
2A
102
}
330
2A
100
AcDbVisualStyle
  2
3dWireframe
 70
     5
177
     2
291
     0
 71
     0
176
     1
 72
     2
176
     1
 73
     0
176
     1
 90
        0
176
     1
 40
-0.6
176
     1
 41
-30.0
176
     1
 62
     5
 63
     7
421
 16777215
176
     1
 74
     1
176
     1
 91
        4
176
     1
 64
     7
176
     1
 65
   257
176
     1
 75
     1
176
     1
175
     1
176
     1
 42
1.0
176
     1
 92
        0
176
     1
 66
   257
176
     1
 43
1.0
176
     1
 76
     1
176
     1
 77
     6
176
     1
 78
     2
176
     1
 67
     7
176
     1
 79
     5
176
     1
170
     0
176
     1
171
     0
176
     1
290
     0
176
     1
 93
        1
176
     1
 44
0.0
176
     1
173
     0
176
     1
  0
VISUALSTYLE
  5
32
102
{ACAD_REACTORS
330
2A
102
}
330
2A
100
AcDbVisualStyle
  2
Basic
 70
     7
177
     2
291
     1
 71
     1
176
     1
 72
     0
176
     1
 73
     1
176
     1
 90
        0
176
     1
 40
-0.6
176
     1
 41
-30.0
176
     1
 62
     5
 63
     7
421
 16777215
176
     1
 74
     0
176
     1
 91
        4
176
     1
 64
     7
176
     1
 65
   257
176
     1
 75
     1
176
     1
175
     1
176
     1
 42
1.0
176
     1
 92
        8
176
     1
 66
     7
176
     1
 43
1.0
176
     1
 76
     1
176
     1
 77
     6
176
     1
 78
     2
176
     1
 67
     7
176
     1
 79
     5
176
     1
170
     0
176
     1
171
     0
176
     1
290
     0
176
     1
 93
        1
176
     1
 44
0.0
176
     1
173
     0
176
     1
  0
VISUALSTYLE
  5
36
102
{ACAD_REACTORS
330
2A
102
}
330
2A
100
AcDbVisualStyle
  2
Brighten
 70
    12
177
     2
291
     1
 71
     2
176
     1
 72
     2
176
     1
 73
     0
176
     1
 90
        0
176
     1
 40
-0.6
176
     1
 41
-30.0
176
     1
 62
     5
 63
     7
421
 16777215
176
     1
 74
     1
176
     1
 91
        4
176
     1
 64
     7
176
     1
 65
   257
176
     1
 75
     1
176
     1
175
     1
176
     1
 42
1.0
176
     1
 92
        8
176
     1
 66
     7
176
     1
 43
1.0
176
     1
 76
     1
176
     1
 77
     6
176
     1
 78
     2
176
     1
 67
     7
176
     1
 79
     5
176
     1
170
     0
176
     1
171
     0
176
     1
290
     0
176
     1
 93
        1
176
     1
 44
50.0
176
     1
173
     0
176
     1
  0
VISUALSTYLE
  5
3A
102
{ACAD_REACTORS
330
2A
102
}
330
2A
100
AcDbVisualStyle
  2
ColorChange
 70
    16
177
     2
291
     1
 71
     2
176
     1
 72
     2
176
     1
 73
     3
176
     1
 90
        0
176
     1
 40
-0.6
176
     1
 41
-30.0
176
     1
 62
     5
 63
     8
421
  8421504
176
     1
 74
     1
176
     1
 91
        4
176
     1
 64
     7
176
     1
 65
   257
176
     1
 75
     1
176
     1
175
     1
176
     1
 42
1.0
176
     1
 92
        8
176
     1
 66
     8
424
  8421504
176
     1
 43
1.0
176
     1
 76
     1
176
     1
 77
     6
176
     1
 78
     2
176
     1
 67
     7
176
     1
 79
     5
176
     1
170
     0
176
     1
171
     0
176
     1
290
     0
176
     1
 93
        1
176
     1
 44
0.0
176
     1
173
     0
176
     1
  0
VISUALSTYLE
  5
34
102
{ACAD_REACTORS
330
2A
102
}
330
2A
100
AcDbVisualStyle
  2
Conceptual
 70
     9
177
     2
291
     0
 71
     3
176
     1
 72
     2
176
     1
 73
     0
176
     1
 90
        0
176
     1
 40
-0.6
176
     1
 41
-30.0
176
     1
 62
     5
 63
     7
421
 16777215
176
     1
 74
     2
176
     1
 91
        2
176
     1
 64
     7
176
     1
 65
   257
176
     1
 75
     1
176
     1
175
     1
176
     1
 42
40.0
176
     1
 92
        8
176
     1
 66
     7
176
     1
 43
1.0
176
     1
 76
     1
176
     1
 77
     6
176
     1
 78
     2
176
     1
 67
     7
176
     1
 79
     3
176
     1
170
     0
176
     1
171
     0
176
     1
290
     0
176
     1
 93
        1
176
     1
 44
0.0
176
     1
173
     0
176
     1
  0
VISUALSTYLE
  5
35
102
{ACAD_REACTORS
330
2A
102
}
330
2A
100
AcDbVisualStyle
  2
Dim
 70
    11
177
     2
291
     1
 71
     2
176
     1
 72
     2
176
     1
 73
     0
176
     1
 90
        0
176
     1
 40
-0.6
176
     1
 41
-30.0
176
     1
 62
     5
 63
     7
421
 16777215
176
     1
 74
     1
176
     1
 91
        4
176
     1
 64
     7
176
     1
 65
   257
176
     1
 75
     1
176
     1
175
     1
176
     1
 42
1.0
176
     1
 92
        8
176
     1
 66
     7
176
     1
 43
1.0
176
     1
 76
     1
176
     1
 77
     6
176
     1
 78
     2
176
     1
 67
     7
176
     1
 79
     5
176
     1
170
     0
176
     1
171
     0
176
     1
290
     0
176
     1
 93
        1
176
     1
 44
-50.0
176
     1
173
     0
176
     1
  0
VISUALSTYLE
  5
39
102
{ACAD_REACTORS
330
2A
102
}
330
2A
100
AcDbVisualStyle
  2
Facepattern
 70
    15
177
     2
291
     1
 71
     2
176
     1
 72
     2
176
     1
 73
     0
176
     1
 90
        0
176
     1
 40
-0.6
176
     1
 41
-30.0
176
     1
 62
     5
 63
     7
421
 16777215
176
     1
 74
     1
176
     1
 91
        4
176
     1
 64
     7
176
     1
 65
   257
176
     1
 75
     1
176
     1
175
     1
176
     1
 42
1.0
176
     1
 92
        8
176
     1
 66
     7
176
     1
 43
1.0
176
     1
 76
     1
176
     1
 77
     6
176
     1
 78
     2
176
     1
 67
     7
176
     1
 79
     5
176
     1
170
     0
176
     1
171
     0
176
     1
290
     0
176
     1
 93
        1
176
     1
 44
0.0
176
     1
173
     0
176
     1
  0
VISUALSTYLE
  5
2B
102
{ACAD_REACTORS
330
2A
102
}
330
2A
100
AcDbVisualStyle
  2
Flat
 70
     0
177
     2
291
     1
 71
     2
176
     1
 72
     1
176
     1
 73
     1
176
     1
 90
        2
176
     1
 40
-0.6
176
     1
 41
30.0
176
     1
 62
     5
 63
     7
421
 16777215
176
     1
 74
     0
176
     1
 91
        4
176
     1
 64
     7
176
     1
 65
   257
176
     1
 75
     1
176
     1
175
     1
176
     1
 42
1.0
176
     1
 92
        8
176
     1
 66
     7
176
     1
 43
1.0
176
     1
 76
     1
176
     1
 77
     6
176
     1
 78
     2
176
     1
 67
     7
176
     1
 79
     5
176
     1
170
     0
176
     1
171
     0
176
     1
290
     0
176
     1
 93
       13
176
     1
 44
0.0
176
     1
173
     0
176
     1
  0
VISUALSTYLE
  5
2C
102
{ACAD_REACTORS
330
2A
102
}
330
2A
100
AcDbVisualStyle
  2
FlatWithEdges
 70
     1
177
     2
291
     1
 71
     2
176
     1
 72
     1
176
     1
 73
     1
176
     1
 90
        2
176
     1
 40
-0.6
176
     1
 41
30.0
176
     1
 62
     5
 63
     7
421
 16777215
176
     1
 74
     1
176
     1
 91
        4
176
     1
 64
     7
176
     1
 65
   257
176
     1
 75
     1
176
     1
175
     1
176
     1
 42
1.0
176
     1
 92
        0
176
     1
 66
   257
176
     1
 43
1.0
176
     1
 76
     1
176
     1
 77
     6
176
     1
 78
     2
176
     1
 67
     7
176
     1
 79
     5
176
     1
170
     0
176
     1
171
     0
176
     1
290
     0
176
     1
 93
       13
176
     1
 44
0.0
176
     1
173
     0
176
     1
  0
VISUALSTYLE
  5
2D
102
{ACAD_REACTORS
330
2A
102
}
330
2A
100
AcDbVisualStyle
  2
Gouraud
 70
     2
177
     2
291
     1
 71
     2
176
     1
 72
     2
176
     1
 73
     1
176
     1
 90
        2
176
     1
 40
-0.6
176
     1
 41
30.0
176
     1
 62
     5
 63
     7
421
 16777215
176
     1
 74
     0
176
     1
 91
        4
176
     1
 64
     7
176
     1
 65
   257
176
     1
 75
     1
176
     1
175
     1
176
     1
 42
1.0
176
     1
 92
        0
176
     1
 66
     7
176
     1
 43
1.0
176
     1
 76
     1
176
     1
 77
     6
176
     1
 78
     2
176
     1
 67
     7
176
     1
 79
     5
176
     1
170
     0
176
     1
171
     0
176
     1
290
     0
176
     1
 93
       13
176
     1
 44
0.0
176
     1
173
     0
176
     1
  0
VISUALSTYLE
  5
2E
102
{ACAD_REACTORS
330
2A
102
}
330
2A
100
AcDbVisualStyle
  2
GouraudWithEdges
 70
     3
177
     2
291
     1
 71
     2
176
     1
 72
     2
176
     1
 73
     1
176
     1
 90
        2
176
     1
 40
-0.6
176
     1
 41
30.0
176
     1
 62
     5
 63
     7
421
 16777215
176
     1
 74
     1
176
     1
 91
        4
176
     1
 64
     7
176
     1
 65
   257
176
     1
 75
     1
176
     1
175
     1
176
     1
 42
1.0
176
     1
 92
        0
176
     1
 66
   257
176
     1
 43
1.0
176
     1
 76
     1
176
     1
 77
     6
176
     1
 78
     2
176
     1
 67
     7
176
     1
 79
     5
176
     1
170
     0
176
     1
171
     0
176
     1
290
     0
176
     1
 93
       13
176
     1
 44
0.0
176
     1
173
     0
176
     1
  0
VISUALSTYLE
  5
38
102
{ACAD_REACTORS
330
2A
102
}
330
2A
100
AcDbVisualStyle
  2
Linepattern
 70
    14
177
     2
291
     1
 71
     2
176
     1
 72
     2
176
     1
 73
     0
176
     1
 90
        0
176
     1
 40
-0.6
176
     1
 41
-30.0
176
     1
 62
     5
 63
     7
421
 16777215
176
     1
 74
     1
176
     1
 91
        4
176
     1
 64
     7
176
     1
 65
   257
176
     1
 75
     7
176
     1
175
     7
176
     1
 42
1.0
176
     1
 92
        8
176
     1
 66
     7
176
     1
 43
1.0
176
     1
 76
     1
176
     1
 77
     6
176
     1
 78
     2
176
     1
 67
     7
176
     1
 79
     5
176
     1
170
     0
176
     1
171
     0
176
     1
290
     0
176
     1
 93
        1
176
     1
 44
0.0
176
     1
173
     0
176
     1
  0
VISUALSTYLE
  5
33
102
{ACAD_REACTORS
330
2A
102
}
330
2A
100
AcDbVisualStyle
  2
Realistic
 70
     8
177
     2
291
     0
 71
     2
176
     1
 72
     2
176
     1
 73
     0
176
     1
 90
        0
176
     1
 40
-0.6
176
     1
 41
-30.0
176
     1
 62
     5
 63
     7
421
 16777215
176
     1
 74
     1
176
     1
 91
        0
176
     1
 64
     7
176
     1
 65
   257
176
     1
 75
     1
176
     1
175
     1
176
     1
 42
1.0
176
     1
 92
        8
176
     1
 66
     8
424
  7895160
176
     1
 43
1.0
176
     1
 76
     1
176
     1
 77
     6
176
     1
 78
     2
176
     1
 67
     7
176
     1
 79
     5
176
     1
170
     0
176
     1
171
     0
176
     1
290
     0
176
     1
 93
       13
176
     1
 44
0.0
176
     1
173
     0
176
     1
  0
VISUALSTYLE
  5
37
102
{ACAD_REACTORS
330
2A
102
}
330
2A
100
AcDbVisualStyle
  2
Thicken
 70
    13
177
     2
291
     1
 71
     2
176
     1
 72
     2
176
     1
 73
     0
176
     1
 90
        0
176
     1
 40
-0.6
176
     1
 41
-30.0
176
     1
 62
     5
 63
     7
421
 16777215
176
     1
 74
     1
176
     1
 91
        4
176
     1
 64
     7
176
     1
 65
   257
176
     1
 75
     1
176
     1
175
     1
176
     1
 42
1.0
176
     1
 92
       12
176
     1
 66
     7
176
     1
 43
1.0
176
     1
 76
     1
176
     1
 77
     6
176
     1
 78
     2
176
     1
 67
     7
176
     1
 79
     5
176
     1
170
     0
176
     1
171
     0
176
     1
290
     0
176
     1
 93
        1
176
     1
 44
0.0
176
     1
173
     0
176
     1
  0
ENDSEC
  0
EOF
