  0
SECTION
  2
HEADER
  9
$ACADVER
  1
AC1015
  9
$ACADMAINTVER
 70
     6
  9
$DWGCODEPAGE
  3
ANSI_1252
  9
$INSBASE
 10
0.0
 20
0.0
 30
0.0
  9
$EXTMIN
 10
0.0
 20
0.0
 30
0.0
  9
$EXTMAX
 10
594.0
 20
841.0
 30
0.0
  9
$LIMMIN
 10
0.0
 20
0.0
  9
$LIMMAX
 10
594.0
 20
841.0
  9
$ORTHOMODE
 70
     0
  9
$REGENMODE
 70
     1
  9
$FILLMODE
 70
     1
  9
$QTEXTMODE
 70
     0
  9
$MIRRTEXT
 70
     1
  9
$LTSCALE
 40
1.0
  9
$ATTMODE
 70
     1
  9
$TEXTSIZE
 40
10.0
  9
$TRACEWID
 40
1.0
  9
$TEXTSTYLE
  7
Standard
  9
$CLAYER
  8
0
  9
$CELTYPE
  6
ByLayer
  9
$CECOLOR
 62
   256
  9
$CELTSCALE
 40
1.0
  9
$DISPSILH
 70
     0
  9
$DIMSCALE
 40
1.0
  9
$DIMASZ
 40
2.5
  9
$DIMEXO
 40
0.0
  9
$DIMDLI
 40
3.75
  9
$DIMRND
 40
0.0
  9
$DIMDLE
 40
0.0
  9
$DIMEXE
 40
1.0
  9
$DIMTP
 40
0.0
  9
$DIMTM
 40
0.0
  9
$DIMTXT
 40
3.5
  9
$DIMCEN
 40
2.5
  9
$DIMTSZ
 40
0.0
  9
$DIMTOL
 70
     0
  9
$DIMLIM
 70
     0
  9
$DIMTIH
 70
     1
  9
$DIMTOH
 70
     1
  9
$DIMSE1
 70
     0
  9
$DIMSE2
 70
     0
  9
$DIMTAD
 70
     1
  9
$DIMZIN
 70
     0
  9
$DIMBLK
  1

  9
$DIMASO
 70
     1
  9
$DIMSHO
 70
     1
  9
$DIMPOST
  1

  9
$DIMAPOST
  1

  9
$DIMALT
 70
     0
  9
$DIMALTD
 70
     3
  9
$DIMALTF
 40
0.0393700787
  9
$DIMLFAC
 40
1.0
  9
$DIMTOFL
 70
     1
  9
$DIMTVP
 40
0.0
  9
$DIMTIX
 70
     0
  9
$DIMSOXD
 70
     0
  9
$DIMSAH
 70
     0
  9
$DIMBLK1
  1

  9
$DIMBLK2
  1

  9
$DIMSTYLE
  2
ISO-25
  9
$DIMCLRD
 70
     0
  9
$DIMCLRE
 70
     0
  9
$DIMCLRT
 70
     0
  9
$DIMTFAC
 40
1.0
  9
$DIMGAP
 40
1.5
  9
$DIMJUST
 70
     0
  9
$DIMSD1
 70
     0
  9
$DIMSD2
 70
     0
  9
$DIMTOLJ
 70
     0
  9
$DIMTZIN
 70
     0
  9
$DIMALTZ
 70
     0
  9
$DIMALTTZ
 70
     0
  9
$DIMUPT
 70
     0
  9
$DIMDEC
 70
     2
  9
$DIMTDEC
 70
     2
  9
$DIMALTU
 70
     2
  9
$DIMALTTD
 70
     3
  9
$DIMTXSTY
  7
Standard
  9
$DIMAUNIT
 70
     0
  9
$DIMADEC
 70
     2
  9
$DIMALTRND
 40
0.0
  9
$DIMAZIN
 70
     0
  9
$DIMDSEP
 70
    44
  9
$DIMATFIT
 70
     3
  9
$DIMFRAC
 70
     0
  9
$DIMLDRBLK
  1

  9
$DIMLUNIT
 70
     2
  9
$DIMLWD
 70
    -2
  9
$DIMLWE
 70
    -2
  9
$DIMTMOVE
 70
     0
  9
$LUNITS
 70
     2
  9
$LUPREC
 70
     2
  9
$SKETCHINC
 40
1.0
  9
$FILLETRAD
 40
10.0
  9
$AUNITS
 70
     0
  9
$AUPREC
 70
     2
  9
$MENU
  1
.
  9
$ELEVATION
 40
0.0
  9
$PELEVATION
 40
0.0
  9
$THICKNESS
 40
0.0
  9
$LIMCHECK
 70
     0
  9
$CHAMFERA
 40
0.0
  9
$CHAMFERB
 40
0.0
  9
$CHAMFERC
 40
0.0
  9
$CHAMFERD
 40
0.0
  9
$SKPOLY
 70
     0
  9
$TDCREATE
 40
2459450.595915984
  9
$TDUCREATE
 40
2459450.51258265
  9
$TDUPDATE
 40
2459450.595916701
  9
$TDUUPDATE
 40
2459450.512583368
  9
$TDINDWG
 40
0.0000000116
  9
$TDUSRTIMER
 40
0.0000000116
  9
$USRTIMER
 70
     1
  9
$ANGBASE
 50
0.0
  9
$ANGDIR
 70
     0
  9
$PDMODE
 70
     0
  9
$PDSIZE
 40
-1.0
  9
$PLINEWID
 40
0.0
  9
$SPLFRAME
 70
     0
  9
$SPLINETYPE
 70
     6
  9
$SPLINESEGS
 70
     8
  9
$HANDSEED
  5
135
  9
$SURFTAB1
 70
     6
  9
$SURFTAB2
 70
     6
  9
$SURFTYPE
 70
     6
  9
$SURFU
 70
     6
  9
$SURFV
 70
     6
  9
$UCSBASE
  2

  9
$UCSNAME
  2

  9
$UCSORG
 10
0.0
 20
0.0
 30
0.0
  9
$UCSXDIR
 10
1.0
 20
0.0
 30
0.0
  9
$UCSYDIR
 10
0.0
 20
1.0
 30
0.0
  9
$UCSORTHOREF
  2

  9
$UCSORTHOVIEW
 70
     0
  9
$UCSORGTOP
 10
0.0
 20
0.0
 30
0.0
  9
$UCSORGBOTTOM
 10
0.0
 20
0.0
 30
0.0
  9
$UCSORGLEFT
 10
0.0
 20
0.0
 30
0.0
  9
$UCSORGRIGHT
 10
0.0
 20
0.0
 30
0.0
  9
$UCSORGFRONT
 10
0.0
 20
0.0
 30
0.0
  9
$UCSORGBACK
 10
0.0
 20
0.0
 30
0.0
  9
$PUCSBASE
  2

  9
$PUCSNAME
  2

  9
$PUCSORG
 10
0.0
 20
0.0
 30
0.0
  9
$PUCSXDIR
 10
1.0
 20
0.0
 30
0.0
  9
$PUCSYDIR
 10
0.0
 20
1.0
 30
0.0
  9
$PUCSORTHOREF
  2

  9
$PUCSORTHOVIEW
 70
     0
  9
$PUCSORGTOP
 10
0.0
 20
0.0
 30
0.0
  9
$PUCSORGBOTTOM
 10
0.0
 20
0.0
 30
0.0
  9
$PUCSORGLEFT
 10
0.0
 20
0.0
 30
0.0
  9
$PUCSORGRIGHT
 10
0.0
 20
0.0
 30
0.0
  9
$PUCSORGFRONT
 10
0.0
 20
0.0
 30
0.0
  9
$PUCSORGBACK
 10
0.0
 20
0.0
 30
0.0
  9
$USERI1
 70
     0
  9
$USERI2
 70
     0
  9
$USERI3
 70
     0
  9
$USERI4
 70
     0
  9
$USERI5
 70
     0
  9
$USERR1
 40
0.0
  9
$USERR2
 40
0.0
  9
$USERR3
 40
0.0
  9
$USERR4
 40
0.0
  9
$USERR5
 40
0.0
  9
$WORLDVIEW
 70
     1
  9
$SHADEDGE
 70
     3
  9
$SHADEDIF
 70
    70
  9
$TILEMODE
 70
     1
  9
$MAXACTVP
 70
    64
  9
$PINSBASE
 10
0.0
 20
0.0
 30
0.0
  9
$PLIMCHECK
 70
     0
  9
$PEXTMIN
 10
1.0000000000E+20
 20
1.0000000000E+20
 30
1.0000000000E+20
  9
$PEXTMAX
 10
-1.0000000000E+20
 20
-1.0000000000E+20
 30
-1.0000000000E+20
  9
$PLIMMIN
 10
0.0
 20
0.0
  9
$PLIMMAX
 10
420.0
 20
297.0
  9
$UNITMODE
 70
     0
  9
$VISRETAIN
 70
     1
  9
$PLINEGEN
 70
     0
  9
$PSLTSCALE
 70
     1
  9
$TREEDEPTH
 70
  3020
  9
$CMLSTYLE
  2
Standard
  9
$CMLJUST
 70
     0
  9
$CMLSCALE
 40
20.0
  9
$PROXYGRAPHICS
 70
     1
  9
$MEASUREMENT
 70
     1
  9
$CELWEIGHT
370
    -1
  9
$ENDCAPS
280
     0
  9
$JOINSTYLE
280
     0
  9
$LWDISPLAY
290
     1
  9
$INSUNITS
 70
     4
  9
$HYPERLINKBASE
  1

  9
$STYLESHEET
  1

  9
$XEDIT
290
     1
  9
$CEPSNTYPE
380
     0
  9
$PSTYLEMODE
290
     1
  9
$FINGERPRINTGUID
  2
{ace1a116-6924-4480-8b1e-d7117b9a490f}
  9
$VERSIONGUID
  2
{FAEB1C32-E019-11D5-929B-00C0DF256EC4}
  9
$EXTNAMES
290
     1
  9
$PSVPSCALE
 40
0.0
  9
$OLESTARTUP
290
     0
  0
ENDSEC
  0
SECTION
  2
CLASSES
  0
CLASS
  1
ACDBDICTIONARYWDFLT
  2
AcDbDictionaryWithDefault
  3
ObjectDBX Classes
 90
        0
280
     0
281
     0
  0
CLASS
  1
VISUALSTYLE
  2
AcDbVisualStyle
  3
ObjectDBX Classes
 90
     4095
280
     0
281
     0
  0
CLASS
  1
MATERIAL
  2
AcDbMaterial
  3
ObjectDBX Classes
 90
     1153
280
     0
281
     0
  0
CLASS
  1
SCALE
  2
AcDbScale
  3
ObjectDBX Classes
 90
     1153
280
     0
281
     0
  0
CLASS
  1
TABLESTYLE
  2
AcDbTableStyle
  3
ObjectDBX Classes
 90
     4095
280
     0
281
     0
  0
CLASS
  1
MLEADERSTYLE
  2
AcDbMLeaderStyle
  3
ACDB_MLEADERSTYLE_CLASS
 90
     4095
280
     0
281
     0
  0
CLASS
  1
SUN
  2
AcDbSun
  3
SCENEOE
 90
     1153
280
     0
281
     0
  0
CLASS
  1
ACDBPLACEHOLDER
  2
AcDbPlaceHolder
  3
ObjectDBX Classes
 90
        0
280
     0
281
     0
  0
CLASS
  1
LAYOUT
  2
AcDbLayout
  3
ObjectDBX Classes
 90
        0
280
     0
281
     0
  0
ENDSEC
  0
SECTION
  2
TABLES
  0
TABLE
  2
VPORT
  5
8
330
0
100
AcDbSymbolTable
 70
     1
  0
VPORT
  5
29
330
8
100
AcDbSymbolTableRecord
100
AcDbViewportTableRecord
  2
*Active
 70
     0
 10
0.0
 20
0.0
 11
1.0
 21
1.0
 12
297.0
 22
420.5
 13
0.0
 23
0.0
 14
10.0
 24
10.0
 15
10.0
 25
10.0
 16
0.0
 26
0.0
 36
1.0
 17
0.0
 27
0.0
 37
0.0
 40
841.0
 41
0.7063020214
 42
50.0
 43
0.0
 44
0.0
 50
0.0
 51
0.0
 71
     0
 72
  2000
 73
     1
 74
     3
 75
     0
 76
     0
 77
     0
 78
     0
281
     0
 65
     1
110
0.0
120
0.0
130
0.0
111
1.0
121
0.0
131
0.0
112
0.0
122
1.0
132
0.0
 79
     0
146
0.0
  0
ENDTAB
  0
TABLE
  2
LTYPE
  5
5
330
0
100
AcDbSymbolTable
 70
     6
  0
LTYPE
  5
14
330
5
100
AcDbSymbolTableRecord
100
AcDbLinetypeTableRecord
  2
ByBlock
 70
     0
  3

 72
    65
 73
     0
 40
0.0
  0
LTYPE
  5
15
330
5
100
AcDbSymbolTableRecord
100
AcDbLinetypeTableRecord
  2
ByLayer
 70
     0
  3

 72
    65
 73
     0
 40
0.0
  0
LTYPE
  5
16
330
5
100
AcDbSymbolTableRecord
100
AcDbLinetypeTableRecord
  2
Continuous
 70
     0
  3
Solid line
 72
    65
 73
     0
 40
0.0
  0
LTYPE
  5
6E
330
5
100
AcDbSymbolTableRecord
100
AcDbLinetypeTableRecord
  2
HIDDEN
 70
     0
  3
Hidden __ __ __ __ __ __ __ __ __ __ __ __ __ __
 72
    65
 73
     2
 40
1.905
 49
1.27
 74
     0
 49
-0.635
 74
     0
  0
LTYPE
  5
6F
330
5
100
AcDbSymbolTableRecord
100
AcDbLinetypeTableRecord
  2
PHANTOM
 70
     0
  3
Phantom ______  __  __  ______  __  __  ______
 72
    65
 73
     6
 40
12.7
 49
6.35
 74
     0
 49
-1.27
 74
     0
 49
1.27
 74
     0
 49
-1.27
 74
     0
 49
1.27
 74
     0
 49
-1.27
 74
     0
  0
LTYPE
  5
70
330
5
100
AcDbSymbolTableRecord
100
AcDbLinetypeTableRecord
  2
CENTER
 70
     0
  3
Center ____ _ ____ _ ____ _ ____ _ ____ _ ____
 72
    65
 73
     4
 40
10.16
 49
6.35
 74
     0
 49
-1.27
 74
     0
 49
1.27
 74
     0
 49
-1.27
 74
     0
  0
LTYPE
  5
71
330
5
100
AcDbSymbolTableRecord
100
AcDbLinetypeTableRecord
  2
CENTERX2
 70
     0
  3
Center (2x) ________  __  ________  __  _____
 72
    65
 73
     4
 40
20.32
 49
12.7
 74
     0
 49
-2.54
 74
     0
 49
2.54
 74
     0
 49
-2.54
 74
     0
  0
LTYPE
  5
72
330
5
100
AcDbSymbolTableRecord
100
AcDbLinetypeTableRecord
  2
DOT2
 70
     0
  3
Dot (.5x) ........................................
 72
    65
 73
     2
 40
0.635
 49
0.0
 74
     0
 49
-0.635
 74
     0
  0
ENDTAB
  0
TABLE
  2
LAYER
  5
2
330
0
100
AcDbSymbolTable
 70
     1
  0
LAYER
  5
10
330
2
100
AcDbSymbolTableRecord
100
AcDbLayerTableRecord
  2
0
 70
     0
 62
     7
  6
Continuous
370
    -3
390
F
  0
ENDTAB
  0
TABLE
  2
STYLE
  5
3
330
0
100
AcDbSymbolTable
 70
     3
  0
STYLE
  5
11
330
3
100
AcDbSymbolTableRecord
100
AcDbTextStyleTableRecord
  2
Standard
 70
     0
 40
0.0
 41
1.0
 50
0.0
 71
     0
 42
10.0
  3
txt
  4

  0
STYLE
  5
76
330
3
100
AcDbSymbolTableRecord
100
AcDbTextStyleTableRecord
  2
SLDTEXTSTYLE0
 70
     0
 40
0.0
 41
0.96
 50
0.0
 71
     0
 42
10.0
  3
ISOCP3
  4

  0
STYLE
  5
8D
330
3
100
AcDbSymbolTableRecord
100
AcDbTextStyleTableRecord
  2
SLDTEXTSTYLE1
 70
     0
 40
0.0
 41
0.605
 50
0.0
 71
     0
 42
10.0
  3
TXT
  4

  0
ENDTAB
  0
TABLE
  2
VIEW
  5
6
330
0
100
AcDbSymbolTable
 70
     0
  0
ENDTAB
  0
TABLE
  2
UCS
  5
7
330
0
100
AcDbSymbolTable
 70
     0
  0
ENDTAB
  0
TABLE
  2
APPID
  5
9
330
0
100
AcDbSymbolTable
 70
     1
  0
APPID
  5
12
330
9
100
AcDbSymbolTableRecord
100
AcDbRegAppTableRecord
  2
ACAD
 70
     0
  0
ENDTAB
  0
TABLE
  2
DIMSTYLE
  5
A
330
0
100
AcDbSymbolTable
 70
     2
100
AcDbDimStyleTable
  0
DIMSTYLE
105
27
330
A
100
AcDbSymbolTableRecord
100
AcDbDimStyleTableRecord
  2
ISO-25
 70
     0
 41
2.5
 42
0.625
 43
3.75
 44
1.25
 73
     0
 74
     0
 77
     1
 78
     8
140
2.5
141
2.5
143
0.0393700787
147
0.625
171
     3
172
     1
178
     0
271
     2
272
     2
274
     3
278
    44
283
     0
284
     8
340
11
  0
DIMSTYLE
105
77
102
{ACAD_REACTORS
330
75
330
82
102
}
330
A
100
AcDbSymbolTableRecord
100
AcDbDimStyleTableRecord
  2
SLDDIMSTYLE0
 70
     0
 41
2.5
 44
0.0
 45
0.000000001
 73
     0
 74
     0
 77
     1
 78
    12
 79
     3
140
6.0
147
1.5
173
     1
178
     0
271
     2
272
     2
276
     2
284
    12
340
76
  0
ENDTAB
  0
TABLE
  2
BLOCK_RECORD
  5
1
330
0
100
AcDbSymbolTable
 70
     3
  0
BLOCK_RECORD
  5
1F
330
1
100
AcDbSymbolTableRecord
100
AcDbBlockTableRecord
  2
*Model_Space
340
22
  0
BLOCK_RECORD
  5
1B
330
1
100
AcDbSymbolTableRecord
100
AcDbBlockTableRecord
  2
*Paper_Space
340
1E
  0
BLOCK_RECORD
  5
23
330
1
100
AcDbSymbolTableRecord
100
AcDbBlockTableRecord
  2
*Paper_Space0
340
26
  0
BLOCK_RECORD
  5
78
330
1
100
AcDbSymbolTableRecord
100
AcDbBlockTableRecord
  2
_D
340
0
  0
BLOCK_RECORD
  5
83
330
1
100
AcDbSymbolTableRecord
100
AcDbBlockTableRecord
  2
_D_1
340
0
  0
ENDTAB
  0
ENDSEC
  0
SECTION
  2
BLOCKS
  0
BLOCK
  5
20
330
1F
100
AcDbEntity
  8
0
100
AcDbBlockBegin
  2
*Model_Space
 70
     0
 10
0.0
 20
0.0
 30
0.0
  3
*Model_Space
  1

  0
ENDBLK
  5
21
330
1F
100
AcDbEntity
  8
0
100
AcDbBlockEnd
  0
BLOCK
  5
1C
330
1B
100
AcDbEntity
 67
     1
  8
0
100
AcDbBlockBegin
  2
*Paper_Space
 70
     0
 10
0.0
 20
0.0
 30
0.0
  3
*Paper_Space
  1

  0
ENDBLK
  5
1D
330
1B
100
AcDbEntity
 67
     1
  8
0
100
AcDbBlockEnd
  0
BLOCK
  5
24
330
23
100
AcDbEntity
  8
0
100
AcDbBlockBegin
  2
*Paper_Space0
 70
     0
 10
0.0
 20
0.0
 30
0.0
  3
*Paper_Space0
  1

  0
ENDBLK
  5
25
330
23
100
AcDbEntity
  8
0
100
AcDbBlockEnd
  0
BLOCK
  5
79
330
78
100
AcDbEntity
  8
0
100
AcDbBlockBegin
  2
_D
 70
     0
 10
0.0
 20
0.0
 30
0.0
  3
_D
  1

  0
SOLID
  5
7B
330
78
100
AcDbEntity
  8
0
  6
Continuous
 62
     7
370
    18
100
AcDbTrace
 10
42.7614395004
 20
152.0299240879
 30
0.0
 11
42.4614395004
 21
149.5299240879
 31
0.0
 12
43.0614395004
 22
149.5299240879
 32
0.0
 13
43.0614395004
 23
149.5299240879
 33
0.0
  0
SOLID
  5
7C
330
78
100
AcDbEntity
  8
0
  6
Continuous
 62
     7
370
    18
100
AcDbTrace
 10
42.7614395004
 20
52.0299240879
 30
0.0
 11
43.0614395004
 21
54.5299240879
 31
0.0
 12
42.4614395004
 22
54.5299240879
 32
0.0
 13
42.4614395004
 23
54.5299240879
 33
0.0
  0
LINE
  5
7D
330
78
100
AcDbEntity
  8
0
  6
Continuous
 62
     7
370
     0
100
AcDbLine
 10
56.6850079902
 20
152.0299240879
 30
0.0
 11
41.7614395004
 21
152.0299240879
 31
0.0
  0
LINE
  5
7E
330
78
100
AcDbEntity
  8
0
  6
Continuous
 62
     7
370
     0
100
AcDbLine
 10
56.6850079902
 20
52.0299240879
 30
0.0
 11
41.7614395004
 21
52.0299240879
 31
0.0
  0
LINE
  5
7F
330
78
100
AcDbEntity
  8
0
  6
Continuous
 62
     7
370
     0
100
AcDbLine
 10
42.7614395004
 20
152.0299240879
 30
0.0
 11
42.7614395004
 21
52.0299240879
 31
0.0
  0
MTEXT
  5
80
330
78
100
AcDbEntity
  8
0
  6
Continuous
 62
     7
370
    18
100
AcDbMText
 10
35.0270332946
 20
94.3680541463
 30
0.0
 40
6.0
 41
0.0
 71
     1
 72
     1
  1
100
  7
SLDTEXTSTYLE0
 11
-7.044195017643634E-15
 21
1.0
 31
0.0
 73
     1
 44
1.0
  0
MTEXT
  5
81
330
78
100
AcDbEntity
  8
0
  6
Continuous
 62
     7
370
    18
100
AcDbMText
 10
35.0270332946
 20
105.7430548466
 30
0.0
 40
6.0
 41
0.0
 71
     1
 72
     1
  1
mm
  7
SLDTEXTSTYLE0
 11
-7.044195017643634E-15
 21
1.0
 31
0.0
 73
     1
 44
1.0
  0
ENDBLK
  5
7A
330
78
100
AcDbEntity
  8
0
100
AcDbBlockEnd
  0
BLOCK
  5
84
330
83
100
AcDbEntity
  8
0
100
AcDbBlockBegin
  2
_D_1
 70
     0
 10
0.0
 20
0.0
 30
0.0
  3
_D_1
  1

  0
SOLID
  5
86
330
83
100
AcDbEntity
  8
0
  6
Continuous
 62
     7
370
    18
100
AcDbTrace
 10
56.6850079902
 20
38.4602342313
 30
0.0
 11
59.1850079902
 21
38.1602342313
 31
0.0
 12
59.1850079902
 22
38.7602342313
 32
0.0
 13
59.1850079902
 23
38.7602342313
 33
0.0
  0
SOLID
  5
87
330
83
100
AcDbEntity
  8
0
  6
Continuous
 62
     7
370
    18
100
AcDbTrace
 10
156.6850079902
 20
38.4602342313
 30
0.0
 11
154.1850079902
 21
38.7602342313
 31
0.0
 12
154.1850079902
 22
38.1602342313
 32
0.0
 13
154.1850079902
 23
38.1602342313
 33
0.0
  0
LINE
  5
88
330
83
100
AcDbEntity
  8
0
  6
Continuous
 62
     7
370
     0
100
AcDbLine
 10
56.6850079902
 20
52.0299240879
 30
0.0
 11
56.6850079902
 21
37.4602342313
 31
0.0
  0
LINE
  5
89
330
83
100
AcDbEntity
  8
0
  6
Continuous
 62
     7
370
     0
100
AcDbLine
 10
156.6850079902
 20
52.0299240879
 30
0.0
 11
156.6850079902
 21
37.4602342313
 31
0.0
  0
LINE
  5
8A
330
83
100
AcDbEntity
  8
0
  6
Continuous
 62
     7
370
     0
100
AcDbLine
 10
56.6850079902
 20
38.4602342313
 30
0.0
 11
156.6850079902
 21
38.4602342313
 31
0.0
  0
MTEXT
  5
8B
330
83
100
AcDbEntity
  8
0
  6
Continuous
 62
     7
370
    18
100
AcDbMText
 10
93.9626484861
 20
46.1946404371
 30
0.0
 40
6.0
 41
0.0
 71
     1
 72
     1
  1
100
  7
SLDTEXTSTYLE0
 73
     1
 44
1.0
  0
MTEXT
  5
8C
330
83
100
AcDbEntity
  8
0
  6
Continuous
 62
     7
370
    18
100
AcDbMText
 10
105.3376491864
 20
46.1946404371
 30
0.0
 40
6.0
 41
0.0
 71
     1
 72
     1
  1
mm
  7
SLDTEXTSTYLE0
 73
     1
 44
1.0
  0
ENDBLK
  5
85
330
83
100
AcDbEntity
  8
0
100
AcDbBlockEnd
  0
ENDSEC
  0
SECTION
  2
ENTITIES
  0
LINE
  5
73
330
1F
100
AcDbEntity
  8
0
  6
Continuous
 62
     7
370
    18
100
AcDbLine
 10
56.6850079902
 20
152.0299240879
 30
0.0
 11
56.6850079902
 21
52.0299240879
 31
0.0
  0
LINE
  5
74
330
1F
100
AcDbEntity
  8
0
  6
Continuous
 62
     7
370
    18
100
AcDbLine
 10
56.6850079902
 20
52.0299240879
 30
0.0
 11
156.6850079902
 21
52.0299240879
 31
0.0
  0
DIMENSION
  5
75
330
1F
100
AcDbEntity
  8
0
  6
Continuous
 62
     7
370
    18
100
AcDbDimension
  2
_D
 10
42.7614395004
 20
52.0299240879
 30
0.0
 11
42.7614395004
 21
105.4472211621
 31
0.0
 70
   160
  1
<>mm
 71
     2
 42
-1.0
  3
SLDDIMSTYLE0
100
AcDbAlignedDimension
 13
56.6850079902
 23
152.0299240879
 33
0.0
 14
56.6850079902
 24
52.0299240879
 34
0.0
 50
90.0
100
AcDbRotatedDimension
  0
DIMENSION
  5
82
330
1F
100
AcDbEntity
  8
0
  6
Continuous
 62
     7
370
    18
100
AcDbDimension
  2
_D_1
 10
156.6850079902
 20
38.4602342313
 30
0.0
 11
105.0418155019
 21
38.4602342313
 31
0.0
 70
   160
  1
<>mm
 71
     2
 42
-1.0
  3
SLDDIMSTYLE0
100
AcDbAlignedDimension
 13
56.6850079902
 23
52.0299240879
 33
0.0
 14
156.6850079902
 24
52.0299240879
 34
0.0
100
AcDbRotatedDimension
  0
MTEXT
  5
8E
330
1F
100
AcDbEntity
  8
0
  6
Continuous
 62
     7
370
     0
100
AcDbMText
 10
412.8252631579
 20
48.4342449499
 30
0.0
 40
10.0
 41
0.0
 71
     1
 72
     1
  1
KLUDI GmbH & Co KG
  7
SLDTEXTSTYLE1
 73
     1
 44
1.0
  0
MTEXT
  5
8F
330
1F
100
AcDbEntity
  8
0
  6
Continuous
 62
     7
370
     0
100
AcDbMText
 10
210.0873490389
 20
48.4342449499
 30
0.0
 40
10.0
 41
0.0
 71
     1
 72
     1
  1
20 659 .. 15
  7
SLDTEXTSTYLE1
 73
     1
 44
1.0
  0
ARC
  5
90
330
1F
100
AcDbEntity
  8
0
  6
Continuous
 62
     7
370
    25
100
AcDbCircle
 10
208.6658121637
 20
365.9354232029
 30
0.0
 40
24.99999999999998
100
AcDbArc
 50
286.9433715374
 51
253.0566284541
  0
SPLINE
  5
91
330
1F
100
AcDbEntity
  8
0
  6
Continuous
 62
     7
370
    25
100
AcDbSpline
210
0.0
220
0.0
230
1.0
 70
     8
 71
     3
 72
    20
 73
    16
 74
     0
 42
0.00000001
 43
0.00000001
 40
0.0
 40
0.0
 40
0.0
 40
0.0
 40
0.125
 40
0.125
 40
0.25
 40
0.25
 40
0.375
 40
0.375
 40
0.5
 40
0.5
 40
0.75
 40
0.75
 40
0.875
 40
0.875
 40
1.0
 40
1.0
 40
1.0
 40
1.0
 10
215.9514720458162
 20
342.020591819794
 30
0.0
 10
215.826528572502
 20
341.982527756683
 30
0.0
 10
215.6991482337454
 20
341.9444635883252
 30
0.0
 10
215.4403112701542
 20
341.8515708345731
 30
0.0
 10
215.3091844763744
 20
341.7968916016717
 30
0.0
 10
215.0560901789735
 20
341.6648777568207
 30
0.0
 10
214.9344525064072
 20
341.5876924973639
 30
0.0
 10
214.7154555653463
 20
341.4108696021456
 30
0.0
 10
214.6184261279064
 20
341.311381318877
 30
0.0
 10
214.3744170016122
 20
340.9819624936778
 30
0.0
 10
214.2740239330602
 20
340.7167484143063
 30
0.0
 10
214.1954076447016
 20
340.3014449659894
 30
0.0
 10
214.1808542377037
 20
340.160874962217
 30
0.0
 10
214.1660402681775
 20
339.8831310744314
 30
0.0
 10
214.1658121617675
 20
339.7462080029004
 30
0.0
 10
214.1658121617575
 20
339.6099033748756
 30
0.0
  0
SPLINE
  5
92
330
1F
100
AcDbEntity
  8
0
  6
Continuous
 62
     7
370
    25
100
AcDbSpline
210
0.0
220
0.0
230
1.0
 70
     8
 71
     3
 72
    20
 73
    16
 74
     0
 42
0.00000001
 43
0.00000001
 40
0.0
 40
0.0
 40
0.0
 40
0.0
 40
0.1249999999999977
 40
0.1249999999999977
 40
0.2499999999999953
 40
0.2499999999999953
 40
0.4999999999999969
 40
0.4999999999999969
 40
0.6249999999999977
 40
0.6249999999999977
 40
0.7499999999999984
 40
0.7499999999999984
 40
0.8749999999999992
 40
0.8749999999999992
 40
1.0
 40
1.0
 40
1.0
 40
1.0
 10
203.1658121617575
 20
339.6099033756871
 30
0.0
 10
203.1658121617675
 20
339.7462080037118
 30
0.0
 10
203.1655840553778
 20
339.8831310752429
 30
0.0
 10
203.1507700858926
 20
340.1608749630307
 30
0.0
 10
203.1362166789154
 20
340.3014449668053
 30
0.0
 10
203.0576003906181
 20
340.7167484151338
 30
0.0
 10
202.9572073221051
 20
340.9819624945201
 30
0.0
 10
202.7131981958596
 20
341.3113813197552
 30
0.0
 10
202.6161687584344
 20
341.4108696030381
 30
0.0
 10
202.3971718173995
 20
341.5876924982888
 30
0.0
 10
202.2755341448446
 20
341.6648777577635
 30
0.0
 10
202.0224398474632
 20
341.7968916026519
 30
0.0
 10
201.8913130536915
 20
341.8515708355725
 30
0.0
 10
201.632476090114
 20
341.9444635893628
 30
0.0
 10
201.505095751363
 20
341.9825277577394
 30
0.0
 10
201.3801522780544
 20
342.020591820869
 30
0.0
  0
LINE
  5
93
330
1F
100
AcDbEntity
  8
0
  6
Continuous
 62
     7
370
    25
100
AcDbLine
 10
214.1658121618
 20
339.6099033749
 30
0.0
 11
214.1658121564
 21
266.9354232025
 31
0.0
  0
LINE
  5
94
330
1F
100
AcDbEntity
  8
0
  6
Continuous
 62
     7
370
    25
100
AcDbLine
 10
203.1658121564
 20
266.9354232033
 30
0.0
 11
203.1658121618
 21
339.6099033757
 31
0.0
  0
ARC
  5
95
330
1F
100
AcDbEntity
  8
0
  6
Continuous
 62
     7
370
    25
100
AcDbCircle
 10
213.1658121564
 20
266.9354232026
 30
0.0
 40
1.000000000000057
100
AcDbArc
 50
269.9999999958
 51
359.9999999958
  0
LINE
  5
96
330
1F
100
AcDbEntity
  8
0
  6
Continuous
 62
     7
370
    25
100
AcDbLine
 10
213.1658121563
 20
265.9354232026
 30
0.0
 11
204.1658121563
 21
265.9354232032
 31
0.0
  0
ARC
  5
97
330
1F
100
AcDbEntity
  8
0
  6
Continuous
 62
     7
370
    25
100
AcDbCircle
 10
204.1658121564
 20
266.9354232032
 30
0.0
 40
1.0
100
AcDbArc
 50
179.9999999958
 51
269.9999999958
  0
SPLINE
  5
98
330
1F
100
AcDbEntity
  8
0
  6
Continuous
 62
     7
370
    25
100
AcDbSpline
210
0.0
220
0.0
230
1.0
 70
    11
 71
     3
 72
    95
 73
    91
 74
     0
 42
0.00000001
 43
0.00000001
 40
0.0
 40
0.0
 40
0.0
 40
0.0
 40
0.0312499999999996
 40
0.0312499999999996
 40
0.0468749999999995
 40
0.0468749999999995
 40
0.0624999999999993
 40
0.0624999999999993
 40
0.093749999999999
 40
0.093749999999999
 40
0.1093749999999988
 40
0.1093749999999988
 40
0.1249999999999987
 40
0.1249999999999987
 40
0.1562499999999984
 40
0.1562499999999984
 40
0.1718749999999983
 40
0.1718749999999983
 40
0.1874999999999981
 40
0.203124999999998
 40
0.203124999999998
 40
0.2187499999999979
 40
0.2187499999999979
 40
0.2499999999999977
 40
0.2499999999999977
 40
0.2656249999999974
 40
0.2656249999999974
 40
0.2812499999999972
 40
0.2812499999999972
 40
0.3124999999999968
 40
0.3124999999999968
 40
0.3281249999999967
 40
0.3281249999999967
 40
0.3437499999999966
 40
0.3437499999999966
 40
0.3749999999999964
 40
0.3749999999999964
 40
0.4062499999999963
 40
0.4062499999999963
 40
0.4218749999999963
 40
0.4218749999999963
 40
0.4374999999999964
 40
0.4374999999999964
 40
0.4687499999999964
 40
0.4687499999999964
 40
0.4999999999999966
 40
0.4999999999999966
 40
0.5312499999999967
 40
0.5312499999999967
 40
0.5468749999999967
 40
0.5468749999999967
 40
0.5624999999999967
 40
0.5781249999999968
 40
0.5781249999999968
 40
0.5937499999999968
 40
0.5937499999999968
 40
0.624999999999997
 40
0.624999999999997
 40
0.640624999999997
 40
0.640624999999997
 40
0.6562499999999971
 40
0.6562499999999971
 40
0.6874999999999972
 40
0.6874999999999972
 40
0.7031249999999974
 40
0.7031249999999974
 40
0.7187499999999976
 40
0.7187499999999976
 40
0.7499999999999978
 40
0.7499999999999978
 40
0.7656249999999979
 40
0.7656249999999979
 40
0.7812499999999981
 40
0.7968749999999982
 40
0.7968749999999982
 40
0.8124999999999983
 40
0.8124999999999983
 40
0.8437499999999987
 40
0.8437499999999987
 40
0.874999999999999
 40
0.874999999999999
 40
0.9062499999999993
 40
0.9062499999999993
 40
0.9218749999999993
 40
0.9218749999999993
 40
0.9374999999999993
 40
0.9374999999999993
 40
0.9687499999999997
 40
0.9687499999999997
 40
1.0
 40
1.0
 40
1.0
 40
1.0
 10
200.6275203100415
 20
442.001142911575
 30
0.0
 10
201.160309758364
 20
442.5321916307635
 30
0.0
 10
201.7363050283219
 20
443.0020878892184
 30
0.0
 10
202.662456760194
 20
443.6189541971147
 30
0.0
 10
202.9816108424101
 20
443.8098042547402
 30
0.0
 10
203.6412690482917
 20
444.1612860447331
 30
0.0
 10
203.9828922382884
 20
444.3221694965092
 30
0.0
 10
205.0179866388353
 20
444.7486697692352
 30
0.0
 10
205.7281037368847
 20
444.9626592230675
 30
0.0
 10
206.8230913576107
 20
445.1790718412339
 30
0.0
 10
207.1943824132123
 20
445.233774233624
 30
0.0
 10
207.9416036561854
 20
445.3061540401436
 30
0.0
 10
208.3140968806232
 20
445.323635685712
 30
0.0
 10
209.4283290368275
 20
445.3217083766731
 30
0.0
 10
210.1668511946872
 20
445.2484419009191
 30
0.0
 10
211.2680315674621
 20
445.0279923324943
 30
0.0
 10
211.6336471247319
 20
444.9357481204185
 30
0.0
 10
212.3465309341933
 20
444.7181421988893
 30
0.0
 10
213.0452274336659
 20
444.4667002821464
 30
0.0
 10
213.7159780065811
 20
444.1486087864477
 30
0.0
 10
214.3725653436266
 20
443.7967387110533
 30
0.0
 10
214.6954117006563
 20
443.6027765453462
 30
0.0
 10
215.6289709771748
 20
442.9768806431949
 30
0.0
 10
216.2017450755023
 20
442.5046820635596
 30
0.0
 10
216.9884932536702
 20
441.7161809523178
 30
0.0
 10
217.2385869389306
 20
441.439883815793
 30
0.0
 10
217.7137234779753
 20
440.8595437133324
 30
0.0
 10
217.9371713283644
 20
440.5571536734707
 30
0.0
 10
218.55609470927
 20
439.6276462970467
 30
0.0
 10
218.9049645365994
 20
438.9732300235756
 30
0.0
 10
219.3321174211192
 20
437.9391979493665
 30
0.0
 10
219.4588826547738
 20
437.5837031421777
 30
0.0
 10
219.6749551755173
 20
436.8675797233925
 30
0.0
 10
219.764692167137
 20
436.50653343589
 30
0.0
 10
219.9803231007311
 20
435.4146557641728
 30
0.0
 10
220.0531599988564
 20
434.6751708706941
 30
0.0
 10
220.0514659342464
 20
433.1721656483498
 30
0.0
 10
219.9766800775525
 20
432.4308424569924
 30
0.0
 10
219.7584870575201
 20
431.3398363026091
 30
0.0
 10
219.6679552002383
 20
430.9793275538818
 30
0.0
 10
219.4505404715424
 20
430.2647630116766
 30
0.0
 10
219.3229094478066
 20
429.9093086217202
 30
0.0
 10
218.8927673225444
 20
428.8749081369049
 30
0.0
 10
218.5421484333338
 20
428.2212835567308
 30
0.0
 10
217.7147737630318
 20
426.985096845958
 30
0.0
 10
217.2330649449522
 20
426.3994659977371
 30
0.0
 10
216.1808428179163
 20
425.3499400603148
 30
0.0
 10
215.6071123904358
 20
424.8794304109143
 30
0.0
 10
214.6736346412425
 20
424.2567014069927
 30
0.0
 10
214.3497091884937
 20
424.063056055146
 30
0.0
 10
213.6915179794771
 20
423.7123203211944
 30
0.0
 10
213.0195911976267
 20
423.3956773408547
 30
0.0
 10
212.3206537863176
 20
423.1460768309105
 30
0.0
 10
211.6080506422748
 20
422.9303957260532
 30
0.0
 10
211.2432090266763
 20
422.8391961121055
 30
0.0
 10
210.1396506044466
 20
422.6209019741261
 30
0.0
 10
209.4005611987776
 20
422.5494996877581
 30
0.0
 10
208.2870039534809
 20
422.5502451358172
 30
0.0
 10
207.914991733574
 20
422.5685987463229
 30
0.0
 10
207.1692670730156
 20
422.6425519157416
 30
0.0
 10
206.7968366529044
 20
422.6982545709766
 30
0.0
 10
205.7012317045294
 20
422.9174877397863
 30
0.0
 10
204.9917448248008
 20
423.1332884390644
 30
0.0
 10
203.9589554394863
 20
423.5616781450267
 30
0.0
 10
203.6181333148652
 20
423.7230987463278
 30
0.0
 10
202.9582688610069
 20
424.0766532538767
 30
0.0
 10
202.6392730464919
 20
424.2684576173328
 30
0.0
 10
201.7142512200975
 20
424.8877928657872
 30
0.0
 10
201.1398812461738
 20
425.3588205334977
 30
0.0
 10
200.3440394023718
 20
426.1556547362176
 30
0.0
 10
200.0924150781325
 20
426.4339802046744
 30
0.0
 10
199.6209614571989
 20
427.0096220873451
 30
0.0
 10
199.1795465484209
 20
427.6060049499054
 30
0.0
 10
198.7976224847775
 20
428.2434647539829
 30
0.0
 10
198.4460171731989
 20
428.9018588985045
 30
0.0
 10
198.2847606976505
 20
429.2433176388955
 30
0.0
 10
197.8566911661356
 20
430.2794473568155
 30
0.0
 10
197.6421609540886
 20
430.9895757238432
 30
0.0
 10
197.3525659584429
 20
432.4479720994111
 30
0.0
 10
197.2786828385447
 20
433.2027166268653
 30
0.0
 10
197.2799334780855
 20
434.689444475001
 30
0.0
 10
197.3526518824095
 20
435.4277233315368
 30
0.0
 10
197.5716884628266
 20
436.5273856878552
 30
0.0
 10
197.6636603051043
 20
436.893604419389
 30
0.0
 10
197.8808683175795
 20
437.6075763381173
 30
0.0
 10
198.00637589306
 20
437.9572599856452
 30
0.0
 10
198.43267018946
 20
438.9848096985675
 30
0.0
 10
198.784112045864
 20
439.6434253982192
 30
0.0
 10
199.6195813250913
 20
440.8922679638433
 30
0.0
 10
200.094730861719
 20
441.4700941923866
 30
0.0
 10
200.6275203100415
 20
442.001142911575
 30
0.0
  0
ARC
  5
99
330
1F
100
AcDbEntity
  8
0
  6
Continuous
 62
     7
370
    25
100
AcDbCircle
 10
208.6658121644
 20
395.9354232023
 30
0.0
 40
85.25000000000006
100
AcDbArc
 50
90.0
 51
266.3009289336
  0
ARC
  5
9A
330
1F
100
AcDbEntity
  8
0
  6
Continuous
 62
     7
370
    25
100
AcDbCircle
 10
208.6658121644
 20
395.9354232023
 30
0.0
 40
85.25000000000006
100
AcDbArc
 50
273.6990710599
 51
90.0
  0
SPLINE
  5
9B
330
1F
100
AcDbEntity
  8
0
  6
Continuous
 62
     8
370
    18
100
AcDbSpline
210
0.0
220
0.0
230
1.0
 70
     8
 71
     3
 72
    22
 73
    18
 74
     0
 42
0.00000001
 43
0.00000001
 40
0.0
 40
0.0
 40
0.0
 40
0.0
 40
0.125
 40
0.125
 40
0.25
 40
0.25
 40
0.375
 40
0.375
 40
0.5
 40
0.5
 40
0.625
 40
0.625
 40
0.75
 40
0.75
 40
0.875
 40
0.875
 40
1.0
 40
1.0
 40
1.0
 40
1.0
 10
213.1658121617575
 20
339.6099033749493
 30
0.0
 10
213.1658121617716
 20
339.801806449234
 30
0.0
 10
213.1674677806376
 20
339.9935121863087
 30
0.0
 10
213.1961915709768
 20
340.3738946769266
 30
0.0
 10
213.2222844693289
 20
340.5626876756291
 30
0.0
 10
213.3073249883865
 20
340.9363576393138
 30
0.0
 10
213.3670194687557
 20
341.1223995184591
 30
0.0
 10
213.5217578216052
 20
341.4729259665834
 30
0.0
 10
213.6170168305177
 20
341.6392762234744
 30
0.0
 10
213.8479516882423
 20
341.9514964603868
 30
0.0
 10
213.979099233199
 20
342.0912110499992
 30
0.0
 10
214.2689084650827
 20
342.3418707414492
 30
0.0
 10
214.4291460352486
 20
342.4535234208667
 30
0.0
 10
214.7616776456788
 20
342.644815615306
 30
0.0
 10
214.9348557958912
 20
342.7254516109305
 30
0.0
 10
215.2915447994079
 20
342.8642862204766
 30
0.0
 10
215.4757664560051
 20
342.9210443684092
 30
0.0
 10
215.6600456505315
 20
342.977185075118
 30
0.0
  0
LINE
  5
9C
330
1F
100
AcDbEntity
  8
0
  6
Continuous
 62
     8
370
    18
100
AcDbLine
 10
213.1658121564
 20
266.9354232026
 30
0.0
 11
213.1658121618
 21
339.6099033749
 31
0.0
  0
LINE
  5
9D
330
1F
100
AcDbEntity
  8
0
  6
Continuous
 62
     8
370
    18
100
AcDbLine
 10
204.1658121564
 20
266.9354232032
 30
0.0
 11
213.1658121564
 21
266.9354232026
 31
0.0
  0
LINE
  5
9E
330
1F
100
AcDbEntity
  8
0
  6
Continuous
 62
     8
370
    18
100
AcDbLine
 10
204.1658121618
 20
339.6099033756
 30
0.0
 11
204.1658121564
 21
266.9354232032
 31
0.0
  0
SPLINE
  5
9F
330
1F
100
AcDbEntity
  8
0
  6
Continuous
 62
     8
370
    18
100
AcDbSpline
210
0.0
220
0.0
230
1.0
 70
     8
 71
     3
 72
    22
 73
    18
 74
     0
 42
0.00000001
 43
0.00000001
 40
0.0
 40
0.0
 40
0.0
 40
0.0
 40
0.125
 40
0.125
 40
0.25
 40
0.25
 40
0.375
 40
0.375
 40
0.5
 40
0.5
 40
0.625
 40
0.625
 40
0.75
 40
0.75
 40
0.875
 40
0.875
 40
1.0
 40
1.0
 40
1.0
 40
1.0
 10
201.6715786734802
 20
342.97718507615
 30
0.0
 10
201.8551077992641
 20
342.9212728780579
 30
0.0
 10
202.0384025699279
 20
342.8648273003943
 30
0.0
 10
202.3938952188867
 20
342.7266802185556
 30
0.0
 10
202.566724879443
 20
342.6464166166181
 30
0.0
 10
202.8991206749095
 20
342.4557023461384
 30
0.0
 10
203.0595753712983
 20
342.3442258308893
 30
0.0
 10
203.3497568224236
 20
342.0939592346529
 30
0.0
 10
203.4811673589566
 20
341.9543889794384
 30
0.0
 10
203.712595865415
 20
341.6424809195296
 30
0.0
 10
203.8080695559448
 20
341.4763277524124
 30
0.0
 10
203.9632953516748
 20
341.1260214567213
 30
0.0
 10
204.0232285225282
 20
340.9401088567322
 30
0.0
 10
204.108782581364
 20
340.5660722844337
 30
0.0
 10
204.1351157877701
 20
340.3768323950861
 30
0.0
 10
204.1641263591059
 20
339.995156650766
 30
0.0
 10
204.1658121617717
 20
339.8024927733117
 30
0.0
 10
204.1658121617575
 20
339.6099033756133
 30
0.0
  0
ARC
  5
A0
330
1F
100
AcDbEntity
  8
0
  6
Continuous
 62
     8
370
    18
100
AcDbCircle
 10
208.6658121637
 20
365.9354232029
 30
0.0
 40
24.00000000000001
100
AcDbArc
 50
286.9433715374
 51
253.0566284541
  0
LINE
  5
A1
330
1F
100
AcDbEntity
  8
0
  6
Continuous
 62
     8
370
    18
100
AcDbLine
 10
215.9514720458
 20
342.0205918198
 30
0.0
 11
215.6600456505
 21
342.9771850751
 31
0.0
  0
LINE
  5
A2
330
1F
100
AcDbEntity
  8
0
  6
Continuous
 62
     8
370
    18
100
AcDbLine
 10
201.3801522781
 20
342.0205918209
 30
0.0
 11
201.6715786735
 21
342.9771850761
 31
0.0
  0
LINE
  5
A3
330
1F
100
AcDbEntity
  8
0
  6
Continuous
 62
     8
370
    18
100
AcDbLine
 10
214.1658121618
 20
339.6099033749
 30
0.0
 11
213.1658121618
 21
339.6099033749
 31
0.0
  0
LINE
  5
A4
330
1F
100
AcDbEntity
  8
0
  6
Continuous
 62
     8
370
    18
100
AcDbLine
 10
203.1658121618
 20
339.6099033757
 30
0.0
 11
204.1658121618
 21
339.6099033756
 31
0.0
  0
LINE
  5
A5
330
1F
100
AcDbEntity
  8
0
  6
Continuous
 62
     8
370
    18
100
AcDbLine
 10
213.1658121564
 20
266.9354232026
 30
0.0
 11
214.1658121564
 21
266.9354232025
 31
0.0
  0
LINE
  5
A6
330
1F
100
AcDbEntity
  8
0
  6
Continuous
 62
     8
370
    18
100
AcDbLine
 10
204.1658121564
 20
266.9354232032
 30
0.0
 11
203.1658121564
 21
266.9354232033
 31
0.0
  0
LINE
  5
A7
330
1F
100
AcDbEntity
  8
0
  6
Continuous
 62
     8
370
    18
100
AcDbLine
 10
213.1658121564
 20
266.9354232026
 30
0.0
 11
213.1658121563
 21
265.9354232026
 31
0.0
  0
LINE
  5
A8
330
1F
100
AcDbEntity
  8
0
  6
Continuous
 62
     8
370
    18
100
AcDbLine
 10
204.1658121564
 20
266.9354232032
 30
0.0
 11
204.1658121563
 21
265.9354232032
 31
0.0
  0
CIRCLE
  5
A9
330
1F
100
AcDbEntity
  8
0
  6
Continuous
 62
     8
370
    18
100
AcDbCircle
 10
208.6658121644
 20
433.9354232038
 30
0.0
 40
10.77261423033985
  0
CIRCLE
  5
AA
330
1F
100
AcDbEntity
  8
0
  6
Continuous
 62
     8
370
    18
100
AcDbCircle
 10
208.6658121644
 20
433.9354232038
 30
0.0
 40
11.25817459227761
  0
ARC
  5
AB
330
1F
100
AcDbEntity
  8
0
  6
Continuous
 62
     8
370
    18
100
AcDbCircle
 10
208.6658121644
 20
395.9354232023
 30
0.0
 40
83.8947335706369
100
AcDbArc
 50
90.0
 51
266.2410875836
  0
ARC
  5
AC
330
1F
100
AcDbEntity
  8
0
  6
Continuous
 62
     8
370
    18
100
AcDbCircle
 10
208.6658121644
 20
395.9354232023
 30
0.0
 40
83.89473357063692
100
AcDbArc
 50
273.7589124099
 51
90.0
  0
ARC
  5
AD
330
1F
100
AcDbEntity
  8
0
  6
Continuous
 62
     8
370
    18
100
AcDbCircle
 10
208.6658121644
 20
395.9354232023
 30
0.0
 40
84.88240593367375
100
AcDbArc
 50
90.0
 51
266.284887196
  0
ARC
  5
AE
330
1F
100
AcDbEntity
  8
0
  6
Continuous
 62
     8
370
    18
100
AcDbCircle
 10
208.6658121644
 20
395.9354232023
 30
0.0
 40
84.88240593367378
100
AcDbArc
 50
273.7151127975
 51
90.0
  0
LINE
  5
AF
330
1F
100
AcDbEntity
  8
0
  6
Continuous
 62
     7
370
    25
100
AcDbLine
 10
123.4158121644
 20
185.0865168172
 30
0.0
 11
123.7834062308
 21
171.0486657775
 31
0.0
  0
LINE
  5
B0
330
1F
100
AcDbEntity
  8
0
  6
Continuous
 62
     7
370
    25
100
AcDbLine
 10
293.5482180981
 20
171.0486657775
 30
0.0
 11
293.9158121644
 21
185.0865168172
 31
0.0
  0
ARC
  5
B1
330
1F
100
AcDbEntity
  8
0
  6
Continuous
 62
     7
370
    25
100
AcDbCircle
 10
292.5485607731
 20
171.0748427258
 30
0.0
 40
0.9999999999991912
100
AcDbArc
 50
270.686704177
 51
358.5
  0
ARC
  5
B2
330
1F
100
AcDbEntity
  8
0
  6
Continuous
 62
     7
370
    25
100
AcDbCircle
 10
124.7830635557
 20
171.0748427258
 30
0.0
 40
0.9999999999991912
100
AcDbArc
 50
181.5
 51
269.313295823
  0
ARC
  5
B3
330
1F
100
AcDbEntity
  8
0
  6
Continuous
 62
     7
370
    25
100
AcDbCircle
 10
208.6658121644
 20
7169.5721588992
 30
0.0
 40
6999.999999999999
100
AcDbArc
 50
269.313295823
 51
269.9068148598
  0
ARC
  5
B4
330
1F
100
AcDbEntity
  8
0
  6
Continuous
 62
     7
370
    25
100
AcDbCircle
 10
208.6658121644
 20
7169.5721588992
 30
0.0
 40
6999.999999999999
100
AcDbArc
 50
270.0931851402
 51
270.686704177
  0
LINE
  5
B5
330
1F
100
AcDbEntity
  8
0
  6
Continuous
 62
     7
370
    25
100
AcDbLine
 10
197.2793163291
 20
169.6838675779
 30
0.0
 11
197.4076375722
 21
162.3323484875
 31
0.0
  0
LINE
  5
B6
330
1F
100
AcDbEntity
  8
0
  6
Continuous
 62
     7
370
    25
100
AcDbLine
 10
219.9239867567
 20
162.3323484875
 30
0.0
 11
220.0523181559
 21
169.6844494203
 31
0.0
  0
ARC
  5
B7
330
1F
100
AcDbEntity
  8
0
  6
Continuous
 62
     7
370
    25
100
AcDbCircle
 10
197.9075614197
 20
162.3410746907
 30
0.0
 40
0.5000000000000357
100
AcDbArc
 50
181.0
 51
268.3538393218
  0
ARC
  5
B8
330
1F
100
AcDbEntity
  8
0
  6
Continuous
 62
     7
370
    25
100
AcDbCircle
 10
219.4240629091
 20
162.3410746907
 30
0.0
 40
0.5000000000000073
100
AcDbArc
 50
271.6461606782
 51
359.0
  0
ARC
  5
B9
330
1F
100
AcDbEntity
  8
0
  6
Continuous
 62
     7
370
    25
100
AcDbCircle
 10
208.6658121644
 20
536.6865168172
 30
0.0
 40
374.9999999999999
100
AcDbArc
 50
268.3538393218
 51
270.0
  0
ARC
  5
BA
330
1F
100
AcDbEntity
  8
0
  6
Continuous
 62
     7
370
    25
100
AcDbCircle
 10
208.6658121644
 20
536.6865168172
 30
0.0
 40
374.9999999999999
100
AcDbArc
 50
270.0
 51
271.6461606782
  0
LINE
  5
BB
330
1F
100
AcDbEntity
  8
0
  6
Continuous
 62
     7
370
    25
100
AcDbLine
 10
183.6658121637
 20
135.7097278489
 30
0.0
 11
183.6658121637
 21
102.0865168172
 31
0.0
  0
LINE
  5
BC
330
1F
100
AcDbEntity
  8
0
  6
Continuous
 62
     7
370
    25
100
AcDbLine
 10
233.6658121637
 20
102.0865168172
 30
0.0
 11
233.6658121637
 21
135.7051002306
 31
0.0
  0
ARC
  5
BD
330
1F
100
AcDbEntity
  8
0
  6
Continuous
 62
     7
370
    25
100
AcDbCircle
 10
232.6658121637
 20
102.0865168172
 30
0.0
 40
1.000000000000028
100
AcDbArc
 50
270.0
 51
0.0
  0
ARC
  5
BE
330
1F
100
AcDbEntity
  8
0
  6
Continuous
 62
     7
370
    25
100
AcDbCircle
 10
184.6658121637
 20
102.0865168172
 30
0.0
 40
1.0
100
AcDbArc
 50
180.0
 51
270.0
  0
LINE
  5
BF
330
1F
100
AcDbEntity
  8
0
  6
Continuous
 62
     7
370
    25
100
AcDbLine
 10
232.6658121644
 20
142.0865168172
 30
0.0
 11
232.6658121644
 21
169.6133018772
 31
0.0
  0
LINE
  5
C0
330
1F
100
AcDbEntity
  8
0
  6
Continuous
 62
     7
370
    25
100
AcDbLine
 10
184.6658121644
 20
169.6133018772
 30
0.0
 11
184.6658121644
 21
142.0865168172
 31
0.0
  0
ARC
  5
C1
330
1F
100
AcDbEntity
  8
0
  6
Continuous
 62
     7
370
    25
100
AcDbCircle
 10
208.6658121644
 20
142.0865168172
 30
0.0
 40
24.00000000000003
100
AcDbArc
 50
180.0
 51
194.9175149528
  0
ARC
  5
C2
330
1F
100
AcDbEntity
  8
0
  6
Continuous
 62
     7
370
    25
100
AcDbCircle
 10
208.6658121644
 20
142.0865168172
 30
0.0
 40
24.00000000000003
100
AcDbArc
 50
345.0790412041
 51
0.0
  0
LINE
  5
C3
330
1F
100
AcDbEntity
  8
0
  6
Continuous
 62
     7
370
    25
100
AcDbLine
 10
208.6658121644
 20
185.0865168172
 30
0.0
 11
123.4158121644
 21
185.0865168172
 31
0.0
  0
LINE
  5
C4
330
1F
100
AcDbEntity
  8
0
  6
Continuous
 62
     7
370
    25
100
AcDbLine
 10
293.9158121644
 20
185.0865168172
 30
0.0
 11
208.6658121644
 21
185.0865168172
 31
0.0
  0
SPLINE
  5
C5
330
1F
100
AcDbEntity
  8
0
  6
Continuous
 62
     7
370
    25
100
AcDbSpline
210
0.0
220
0.0
230
1.0
 70
     8
 71
     3
 72
    21
 73
    17
 74
     0
 42
0.00000001
 43
0.00000001
 40
0.0
 40
0.0
 40
0.0
 40
0.0
 40
0.0716377295099801
 40
0.1432754543430895
 40
0.2149132147166463
 40
0.2865509724736273
 40
0.358188137014439
 40
0.4298253021458709
 40
0.5014622172711461
 40
0.5730991359351967
 40
0.6447364847381019
 40
0.7163738384769864
 40
0.7880121139844066
 40
0.8596503936618877
 40
0.9312896827754468
 40
1.0
 40
1.0
 40
1.0
 40
1.0
 10
200.6275203100415
 20
169.7283509752015
 30
0.0
 10
201.1034012612778
 20
169.7306815313106
 30
0.0
 10
202.0551631326823
 20
169.7353426433767
 30
0.0
 10
203.7290106466295
 20
169.7405828112026
 30
0.0
 10
205.5291676991459
 20
169.7442912653669
 30
0.0
 10
207.4210082666838
 20
169.7463149168434
 30
0.0
 10
209.3477082480024
 20
169.7465562481468
 30
0.0
 10
211.255761428505
 20
169.7450724845997
 30
0.0
 10
213.0887005117333
 20
169.74183635954
 30
0.0
 10
214.7986625099722
 20
169.7370080063911
 30
0.0
 10
216.3310790310818
 20
169.7306605041019
 30
0.0
 10
217.6498948227416
 20
169.7230315539458
 30
0.0
 10
218.7103075874402
 20
169.7142883621977
 30
0.0
 10
219.4844785619671
 20
169.7047186752309
 30
0.0
 10
219.9646728653153
 20
169.694704317038
 30
0.0
 10
220.0192268032517
 20
169.6878946329934
 30
0.0
 10
220.0459345260537
 20
169.6845608470063
 30
0.0
  0
SPLINE
  5
C6
330
1F
100
AcDbEntity
  8
0
  6
Continuous
 62
     7
370
    25
100
AcDbSpline
210
0.0
220
0.0
230
1.0
 70
     8
 71
     3
 72
    12
 73
     8
 74
     0
 42
0.00000001
 43
0.00000001
 40
0.0
 40
0.0
 40
0.0
 40
0.0
 40
0.0895784750512167
 40
0.3039250097442503
 40
0.5182722278629076
 40
0.7326194351711908
 40
1.0
 40
1.0
 40
1.0
 40
1.0
 10
197.3193537987505
 20
169.6845664345458
 30
0.0
 10
197.3100891470629
 20
169.6860180534616
 30
0.0
 10
197.2786557100366
 20
169.69094315732
 30
0.0
 10
197.5609113337225
 20
169.6992853585346
 30
0.0
 10
198.1651577694135
 20
169.7091803061025
 30
0.0
 10
199.1369386690922
 20
169.7192527043143
 30
0.0
 10
200.0954843662223
 20
169.7251035132674
 30
0.0
 10
200.6275203100415
 20
169.7283509752015
 30
0.0
  0
SPLINE
  5
C7
330
1F
100
AcDbEntity
  8
0
  6
Continuous
 62
     7
370
    25
100
AcDbSpline
210
0.0
220
0.0
230
1.0
 70
     8
 71
     3
 72
     8
 73
     4
 74
     0
 42
0.00000001
 43
0.00000001
 40
0.0
 40
0.0
 40
0.0
 40
0.0
 40
1.0
 40
1.0
 40
1.0
 40
1.0
 10
233.5245083330533
 20
135.8865168172349
 30
0.0
 10
233.711452990868
 20
135.8865168172349
 30
0.0
 10
233.7102863632982
 20
135.6618790421692
 30
0.0
 10
233.53932341403
 20
135.2118481777584
 30
0.0
  0
SPLINE
  5
C8
330
1F
100
AcDbEntity
  8
0
  6
Continuous
 62
     7
370
    25
100
AcDbSpline
210
0.0
220
0.0
230
1.0
 70
     8
 71
     3
 72
     8
 73
     4
 74
     0
 42
0.00000001
 43
0.00000001
 40
0.0
 40
0.0
 40
0.0
 40
0.0
 40
1.0
 40
1.0
 40
1.0
 40
1.0
 10
183.7923009137396
 20
135.2118481777584
 30
0.0
 10
183.6213379642216
 20
135.6618790421692
 30
0.0
 10
183.6201713363977
 20
135.8865168172349
 30
0.0
 10
183.807115993954
 20
135.8865168172349
 30
0.0
  0
LINE
  5
C9
330
1F
100
AcDbEntity
  8
0
  6
Continuous
 62
     7
370
    25
100
AcDbLine
 10
232.6658121637
 20
101.0865168172
 30
0.0
 11
184.6658121637
 21
101.0865168172
 31
0.0
  0
LWPOLYLINE
  5
CA
330
1F
100
AcDbEntity
  8
0
  6
Continuous
 62
     7
370
    25
100
AcDbPolyline
 90
       26
 70
   128
 43
0.0
 10
185.7553506621
 20
135.405033343
 10
186.3614171004
 20
134.7536673936
 10
187.2430347726
 20
134.1237330454
 10
188.3893120658
 20
133.5230125846
 10
189.7860877297
 20
132.9589273855
 10
191.4161058262
 20
132.4384462259
 10
193.2592289119
 20
131.9679991939
 10
195.2926868178
 20
131.5533982498
 10
197.4913579555
 20
131.1997654247
 10
199.8280796718
 20
130.9114695419
 10
202.27398382
 20
130.692072244
 10
204.7988534
 20
130.5442839922
 10
207.3714958632
 20
130.4699305807
 10
209.9601284688
 20
130.4699305807
 10
212.5327709319
 20
130.5442839922
 10
215.0576405118
 20
130.692072244
 10
217.5035446599
 20
130.9114695419
 10
219.8402663761
 20
131.1997654247
 10
222.0389375136
 20
131.5533982498
 10
224.0723954193
 20
131.9679991939
 10
225.9155185047
 20
132.4384462259
 10
227.5455366009
 20
132.9589273855
 10
228.9423122645
 20
133.5230125846
 10
230.0885895574
 20
134.1237330454
 10
230.9702072292
 20
134.7536673936
 10
231.5762736671
 20
135.405033343
  0
SPLINE
  5
CB
330
1F
100
AcDbEntity
  8
0
  6
Continuous
 62
     7
370
    25
100
AcDbSpline
210
0.0
220
0.0
230
1.0
 70
     8
 71
     3
 72
     9
 73
     5
 74
     0
 42
0.00000001
 43
0.00000001
 40
0.0
 40
0.0
 40
0.0
 40
0.0
 40
0.9843912232554027
 40
1.0
 40
1.0
 40
1.0
 40
1.0
 10
185.7553506621181
 20
135.4050333430163
 30
0.0
 10
185.5996019762791
 20
135.6268944723474
 30
0.0
 10
185.4413836966363
 20
135.8522734924868
 30
0.0
 10
185.4758508542693
 20
135.9096136189057
 30
0.0
 10
185.4763888444378
 20
135.9105086281375
 30
0.0
  0
LINE
  5
CC
330
1F
100
AcDbEntity
  8
0
  6
Continuous
 62
     7
370
    25
100
AcDbLine
 10
231.8529959358
 20
135.9079391655
 30
0.0
 11
231.5762736671
 21
135.405033343
 31
0.0
  0
ARC
  5
CD
330
1F
100
AcDbEntity
  8
0
  6
Continuous
 62
     7
370
    25
100
AcDbCircle
 10
184.0065523851
 20
135.8870804352
 30
0.0
 40
0.1994371875063775
100
AcDbArc
 50
90.1628409311
 51
180.1619205267
  0
ARC
  5
CE
330
1F
100
AcDbEntity
  8
0
  6
Continuous
 62
     7
370
    25
100
AcDbCircle
 10
233.325071942
 20
135.8870804352
 30
0.0
 40
0.1994371875048187
100
AcDbArc
 50
359.8380794728
 51
89.8371590684
  0
LINE
  5
CF
330
1F
100
AcDbEntity
  8
0
  6
Continuous
 62
     7
370
    25
100
AcDbLine
 10
184.0059855633
 20
136.0865168172
 30
0.0
 11
185.4279120872
 21
136.0865168172
 31
0.0
  0
LINE
  5
D0
330
1F
100
AcDbEntity
  8
0
  6
Continuous
 62
     7
370
    25
100
AcDbLine
 10
231.9037122417
 20
136.0865168172
 30
0.0
 11
233.3256387637
 21
136.0865168172
 31
0.0
  0
LINE
  5
D1
330
1F
100
AcDbEntity
  8
0
  6
Continuous
 62
     8
370
    18
100
AcDbLine
 10
208.6658121644
 20
171.0486657775
 30
0.0
 11
123.7834062308
 21
171.0486657775
 31
0.0
  0
LINE
  5
D2
330
1F
100
AcDbEntity
  8
0
  6
Continuous
 62
     8
370
    18
100
AcDbLine
 10
293.5482180981
 20
171.0486657775
 30
0.0
 11
208.6658121644
 21
171.0486657775
 31
0.0
  0
LINE
  5
D3
330
1F
100
AcDbEntity
  8
0
  6
Continuous
 62
     8
370
    18
100
AcDbLine
 10
208.6658121644
 20
170.0749145481
 30
0.0
 11
124.7710785938
 21
170.0749145481
 31
0.0
  0
LINE
  5
D4
330
1F
100
AcDbEntity
  8
0
  6
Continuous
 62
     8
370
    18
100
AcDbLine
 10
292.5605457351
 20
170.0749145481
 30
0.0
 11
208.6658121644
 21
170.0749145481
 31
0.0
  0
LINE
  5
D5
330
1F
100
AcDbEntity
  8
0
  6
Continuous
 62
     8
370
    18
100
AcDbLine
 10
208.6658121644
 20
162.3323484875
 30
0.0
 11
219.9239867567
 21
162.3323484875
 31
0.0
  0
LINE
  5
D6
330
1F
100
AcDbEntity
  8
0
  6
Continuous
 62
     8
370
    18
100
AcDbLine
 10
197.4076375722
 20
162.3323484875
 30
0.0
 11
208.6658121644
 21
162.3323484875
 31
0.0
  0
LINE
  5
D7
330
1F
100
AcDbEntity
  8
0
  6
Continuous
 62
     8
370
    18
100
AcDbLine
 10
219.4384263948
 20
161.841281043
 30
0.0
 11
197.8931979341
 21
161.841281043
 31
0.0
  0
LINE
  5
D8
330
1F
100
AcDbEntity
  8
0
  6
Continuous
 62
     8
370
    18
100
AcDbLine
 10
183.6658121637
 20
102.0865168172
 30
0.0
 11
233.6658121637
 21
102.0865168172
 31
0.0
  0
ELLIPSE
  5
D9
330
1F
100
AcDbEntity
  8
0
  6
Continuous
 62
     8
370
    18
100
AcDbEllipse
 10
208.6658121637
 20
135.8794615812
 30
0.0
 11
25.0
 21
-5.274785053188680E-10
 31
0.0
210
0.0
220
0.0
230
1.0
 40
0.2658055989
 41
3.242228852600731
 42
6.182549108327508
  0
ARC
  5
DA
330
1F
100
AcDbEntity
  8
0
  6
Continuous
 62
     8
370
    18
100
AcDbCircle
 10
183.9944347519
 20
135.2027178578
 30
0.0
 40
0.2023399399284055
100
AcDbArc
 50
90.8908046378
 51
177.4137261778
  0
ELLIPSE
  5
DB
330
1F
100
AcDbEntity
  8
0
  6
Continuous
 62
     8
370
    18
100
AcDbEllipse
 10
208.6658121637
 20
136.0726467464
 30
0.0
 11
24.80000000000001
 21
-5.281322046357673E-10
 31
0.0
210
0.0
220
0.0
230
1.0
 40
0.2679491924
 41
3.242228852600824
 42
6.182549108327612
  0
ARC
  5
DC
330
1F
100
AcDbEntity
  8
0
  6
Continuous
 62
     8
370
    18
100
AcDbCircle
 10
233.3371895758
 20
135.2027178578
 30
0.0
 40
0.2023399399204285
100
AcDbArc
 50
2.58627382
 51
89.109195363
  0
LINE
  5
DD
330
1F
100
AcDbEntity
  8
0
  6
Continuous
 62
     8
370
    18
100
AcDbLine
 10
233.340335324
 20
135.405033343
 30
0.0
 11
231.5762736671
 21
135.405033343
 31
0.0
  0
LINE
  5
DE
330
1F
100
AcDbEntity
  8
0
  6
Continuous
 62
     8
370
    18
100
AcDbLine
 10
185.7553506621
 20
135.405033343
 30
0.0
 11
183.9912890037
 21
135.405033343
 31
0.0
  0
LINE
  5
DF
330
1F
100
AcDbEntity
  8
0
  6
Continuous
 62
     8
370
    18
100
AcDbLine
 10
191.9855896936
 20
142.0865168172
 30
0.0
 11
184.6658121644
 21
142.0865168172
 31
0.0
  0
LINE
  5
E0
330
1F
100
AcDbEntity
  8
0
  6
Continuous
 62
     8
370
    18
100
AcDbLine
 10
232.6658121644
 20
142.0865168172
 30
0.0
 11
191.9855896936
 21
142.0865168172
 31
0.0
  0
SPLINE
  5
E1
330
1F
100
AcDbEntity
  8
0
  6
Continuous
 62
     8
370
    18
100
AcDbSpline
210
0.0
220
0.0
230
1.0
 70
     8
 71
     3
 72
     8
 73
     4
 74
     0
 42
0.00000001
 43
0.00000001
 40
0.0
 40
0.0
 40
0.0
 40
0.0
 40
1.0
 40
1.0
 40
1.0
 40
1.0
 10
184.005985563312
 20
136.0865168172349
 30
0.0
 10
183.8204849995767
 20
136.0865168172349
 30
0.0
 10
183.8217408134067
 20
135.8594838477336
 30
0.0
 10
183.9912890037431
 20
135.4050333430162
 30
0.0
  0
SPLINE
  5
E2
330
1F
100
AcDbEntity
  8
0
  6
Continuous
 62
     8
370
    18
100
AcDbSpline
210
0.0
220
0.0
230
1.0
 70
     8
 71
     3
 72
     8
 73
     4
 74
     0
 42
0.00000001
 43
0.00000001
 40
0.0
 40
0.0
 40
0.0
 40
0.0
 40
1.0
 40
1.0
 40
1.0
 40
1.0
 10
233.3403353240311
 20
135.4050333430162
 30
0.0
 10
233.5098835141173
 20
135.8594838477336
 30
0.0
 10
233.5111393276927
 20
136.0865168172349
 30
0.0
 10
233.3256387636985
 20
136.0865168172349
 30
0.0
  0
LINE
  5
E3
330
1F
100
AcDbEntity
  8
0
  6
Continuous
 62
     7
370
    25
100
AcDbLine
 10
399.2202425349
 20
310.6854232023
 30
0.0
 11
413.2580935746
 21
311.0530172686
 31
0.0
  0
LINE
  5
E4
330
1F
100
AcDbEntity
  8
0
  6
Continuous
 62
     7
370
    25
100
AcDbLine
 10
413.2580935746
 20
480.817829136
 30
0.0
 11
399.2202425349
 21
481.1854232023
 31
0.0
  0
ARC
  5
E5
330
1F
100
AcDbEntity
  8
0
  6
Continuous
 62
     7
370
    25
100
AcDbCircle
 10
413.2319166263
 20
479.818171811
 30
0.0
 40
0.9999999999991912
100
AcDbArc
 50
0.686704177
 51
88.5
  0
ARC
  5
E6
330
1F
100
AcDbEntity
  8
0
  6
Continuous
 62
     7
370
    25
100
AcDbCircle
 10
413.2319166263
 20
312.0526745936
 30
0.0
 40
0.9999999999991912
100
AcDbArc
 50
271.5
 51
359.313295823
  0
ARC
  5
E7
330
1F
100
AcDbEntity
  8
0
  6
Continuous
 62
     7
370
    25
100
AcDbCircle
 10
-6585.2653995471
 20
395.9354232023
 30
0.0
 40
6999.999999999999
100
AcDbArc
 50
0.4039564895
 51
0.686704177
  0
ARC
  5
E8
330
1F
100
AcDbEntity
  8
0
  6
Continuous
 62
     7
370
    25
100
AcDbCircle
 10
-6585.2653995471
 20
395.9354232023
 30
0.0
 40
6999.999999999999
100
AcDbArc
 50
359.9502372805
 51
0.2181194484
  0
ARC
  5
E9
330
1F
100
AcDbEntity
  8
0
  6
Continuous
 62
     7
370
    25
100
AcDbCircle
 10
-6585.2653995471
 20
395.9354232023
 30
0.0
 40
7000.0
100
AcDbArc
 50
359.313295823
 51
359.5580888323
  0
LINE
  5
EA
330
1F
100
AcDbEntity
  8
0
  6
Continuous
 62
     7
370
    25
100
AcDbLine
 10
462.6864663132
 20
340.9354232029
 30
0.0
 11
470.0989221913
 21
340.9354232029
 31
0.0
  0
LINE
  5
EB
330
1F
100
AcDbEntity
  8
0
  6
Continuous
 62
     7
370
    25
100
AcDbLine
 10
448.4202425349
 20
340.9354232029
 30
0.0
 11
454.7540187566
 21
340.9354232029
 31
0.0
  0
LINE
  5
EC
330
1F
100
AcDbEntity
  8
0
  6
Continuous
 62
     7
370
    25
100
AcDbLine
 10
482.2202425349
 20
390.9354232029
 30
0.0
 11
455.0724377433
 21
390.9354232029
 31
0.0
  0
ARC
  5
ED
330
1F
100
AcDbEntity
  8
0
  6
Continuous
 62
     7
370
    25
100
AcDbCircle
 10
482.2202425349
 20
389.9354232029
 30
0.0
 40
1.0
100
AcDbArc
 50
0.0
 51
90.0
  0
ARC
  5
EE
330
1F
100
AcDbEntity
  8
0
  6
Continuous
 62
     7
370
    25
100
AcDbCircle
 10
455.0724377433
 20
390.7354232029
 30
0.0
 40
0.1999999999999563
100
AcDbArc
 50
90.7309222137
 51
165.0
  0
ARC
  5
EF
330
1F
100
AcDbEntity
  8
0
  6
Continuous
 62
     7
370
    25
100
AcDbCircle
 10
448.4202425349
 20
341.1354232029
 30
0.0
 40
0.1999999999999886
100
AcDbArc
 50
180.0
 51
270.0
  0
LINE
  5
F0
330
1F
100
AcDbEntity
  8
0
  6
Continuous
 62
     7
370
    25
100
AcDbLine
 10
442.2202425349
 20
389.9354232023
 30
0.0
 11
414.7316882036
 21
389.9354232023
 31
0.0
  0
LINE
  5
F1
330
1F
100
AcDbEntity
  8
0
  6
Continuous
 62
     7
370
    25
100
AcDbLine
 10
414.5263576912
 20
341.9354232023
 30
0.0
 11
442.2202425349
 21
341.9354232023
 31
0.0
  0
ARC
  5
F2
330
1F
100
AcDbEntity
  8
0
  6
Continuous
 62
     7
370
    25
100
AcDbCircle
 10
442.2202425349
 20
365.9354232023
 30
0.0
 40
24.00000000000007
100
AcDbArc
 50
61.0260063712
 51
90.0
  0
ARC
  5
F3
330
1F
100
AcDbEntity
  8
0
  6
Continuous
 62
     7
370
    25
100
AcDbCircle
 10
442.2202425349
 20
365.9354232023
 30
0.0
 40
23.99999999999994
100
AcDbArc
 50
270.0
 51
284.4775121859
  0
LINE
  5
F4
330
1F
100
AcDbEntity
  8
0
  6
Continuous
 62
     7
370
    25
100
AcDbLine
 10
414.684408917
 20
422.5500011542
 30
0.0
 11
421.9744108646
 21
422.6772486115
 31
0.0
  0
LINE
  5
F5
330
1F
100
AcDbEntity
  8
0
  6
Continuous
 62
     7
370
    25
100
AcDbLine
 10
421.9744108646
 20
445.1935977961
 30
0.0
 11
414.561186456
 21
445.3229961094
 31
0.0
  0
ARC
  5
F6
330
1F
100
AcDbEntity
  8
0
  6
Continuous
 62
     7
370
    25
100
AcDbCircle
 10
421.9656846614
 20
423.1771724591
 30
0.0
 40
0.5000000000000089
100
AcDbArc
 50
271.0
 51
358.3538393218
  0
ARC
  5
F7
330
1F
100
AcDbEntity
  8
0
  6
Continuous
 62
     7
370
    25
100
AcDbCircle
 10
421.9656846614
 20
444.6936739485
 30
0.0
 40
0.5000000000000104
100
AcDbArc
 50
1.6461606782
 51
89.0
  0
ARC
  5
F8
330
1F
100
AcDbEntity
  8
0
  6
Continuous
 62
     7
370
    25
100
AcDbCircle
 10
47.6202425349
 20
433.9354232038
 30
0.0
 40
375.0000000000001
100
AcDbArc
 50
0.0002309418
 51
1.6461606782
  0
ARC
  5
F9
330
1F
100
AcDbEntity
  8
0
  6
Continuous
 62
     7
370
    25
100
AcDbCircle
 10
47.6202425349
 20
433.9354232038
 30
0.0
 40
375.0000000000001
100
AcDbArc
 50
358.3538393218
 51
0.0002309418
  0
SPLINE
  5
FA
330
1F
100
AcDbEntity
  8
0
  6
Continuous
 62
     7
370
    25
100
AcDbSpline
210
0.0
220
0.0
230
1.0
 70
     8
 71
     3
 72
    10
 73
     6
 74
     0
 42
0.00000001
 43
0.00000001
 40
0.0
 40
0.0
 40
0.0
 40
0.0
 40
0.2434843217213459
 40
0.4985425015593249
 40
1.0
 40
1.0
 40
1.0
 40
1.0
 10
471.8454426698565
 20
340.7219445399547
 30
0.0
 10
471.9152748314798
 20
340.6176249164634
 30
0.0
 10
472.0582585780259
 20
340.404026908635
 30
0.0
 10
472.2009351896871
 20
339.9010352952516
 30
0.0
 10
472.2237161380336
 20
339.5149955980313
 30
0.0
 10
472.2388165222001
 20
339.2591086330613
 30
0.0
  0
SPLINE
  5
FB
330
1F
100
AcDbEntity
  8
0
  6
Continuous
 62
     7
370
    25
100
AcDbSpline
210
0.0
220
0.0
230
1.0
 70
     8
 71
     3
 72
    22
 73
    18
 74
     0
 42
0.00000001
 43
0.00000001
 40
0.0
 40
0.0
 40
0.0
 40
0.0
 40
0.2127485439902501
 40
0.3128785741476416
 40
0.361792938037148
 40
0.3886239256809869
 40
0.4196659041486545
 40
0.5842409498427745
 40
0.6236477218727916
 40
0.6578359915020232
 40
0.6731719194922349
 40
0.6879945936140072
 40
0.7033419835972701
 40
0.7205225529661331
 40
0.765219747061301
 40
0.8305032634184616
 40
1.0
 40
1.0
 40
1.0
 40
1.0
 10
470.098922191325
 20
340.9362259584348
 30
0.0
 10
470.4470923108112
 20
340.9286071673363
 30
0.0
 10
470.9591285790858
 20
340.9174025947883
 30
0.0
 10
471.4751580017755
 20
340.6995106790908
 30
0.0
 10
471.7029913631959
 20
340.5251100146037
 30
0.0
 10
471.8180476513575
 20
340.4050191937558
 30
0.0
 10
472.0089822766545
 20
340.1567897066034
 30
0.0
 10
472.0998472497392
 20
339.9222804389535
 30
0.0
 10
472.1682785964482
 20
339.6218887730984
 30
0.0
 10
472.188484083031
 20
339.4930606220943
 30
0.0
 10
472.2001030123319
 20
339.3912712080622
 30
0.0
 10
472.206645819911
 20
339.3182962169201
 30
0.0
 10
472.2114882427214
 20
339.2475551475463
 30
0.0
 10
472.2163892009777
 20
339.1501121290482
 30
0.0
 10
472.2190654842064
 20
339.0433430539078
 30
0.0
 10
472.220413219414
 20
338.9072909012642
 30
0.0
 10
472.2202615542601
 20
338.8856985456577
 30
0.0
 10
472.2201520614544
 20
338.8701102082035
 30
0.0
  0
LINE
  5
FC
330
1F
100
AcDbEntity
  8
0
  6
Continuous
 62
     7
370
    25
100
AcDbLine
 10
454.7394165247
 20
340.9327430987
 30
0.0
 11
454.9388239018
 21
340.384875833
 31
0.0
  0
LINE
  5
FD
330
1F
100
AcDbEntity
  8
0
  6
Continuous
 62
     7
370
    25
100
AcDbLine
 10
462.501661168
 20
340.384875833
 30
0.0
 11
462.701068545
 21
340.9327430986
 31
0.0
  0
ARC
  5
FE
330
1F
100
AcDbEntity
  8
0
  6
Continuous
 62
     7
370
    25
100
AcDbCircle
 10
462.3137226438
 20
340.4532798616
 30
0.0
 40
0.1999999999999318
100
AcDbArc
 50
270.0
 51
340.0
  0
ARC
  5
FF
330
1F
100
AcDbEntity
  8
0
  6
Continuous
 62
     7
370
    25
100
AcDbCircle
 10
455.126762426
 20
340.4532798616
 30
0.0
 40
0.199999999999963
100
AcDbArc
 50
200.0
 51
270.0
  0
LINE
  5
100
330
1F
100
AcDbEntity
  8
0
  6
Continuous
 62
     7
370
    25
100
AcDbLine
 10
455.126762426
 20
340.2532798616
 30
0.0
 11
462.3137226438
 21
340.2532798616
 31
0.0
  0
LINE
  5
101
330
1F
100
AcDbEntity
  8
0
  6
Continuous
 62
     7
370
    25
100
AcDbLine
 10
455.126762426
 20
340.2532798616
 30
0.0
 11
462.3137226438
 21
340.2532798616
 31
0.0
  0
LINE
  5
102
330
1F
100
AcDbEntity
  8
0
  6
Continuous
 62
     7
370
    25
100
AcDbLine
 10
399.2202425349
 20
481.1854232023
 30
0.0
 11
399.2202425349
 21
310.6854232023
 31
0.0
  0
SPLINE
  5
103
330
1F
100
AcDbEntity
  8
0
  6
Continuous
 62
     7
370
    25
100
AcDbSpline
210
0.0
220
0.0
230
1.0
 70
     8
 71
     3
 72
    21
 73
    17
 74
     0
 42
0.00000001
 43
0.00000001
 40
0.0
 40
0.0
 40
0.0
 40
0.0
 40
0.070570686332222
 40
0.143187939060774
 40
0.2137586213503513
 40
0.2863758380392047
 40
0.3569468737543599
 40
0.4295644649990806
 40
0.5001356433193715
 40
0.5727534049510034
 40
0.64332431007585
 40
0.715941807943171
 40
0.7865121437964997
 40
0.8591290593381882
 40
0.9296987793406873
 40
0.9999999999999999
 40
0.9999999999999999
 40
0.9999999999999999
 40
0.9999999999999999
 10
414.7019007823383
 20
382.9055178841681
 30
0.0
 10
414.6976755440559
 20
381.9196340285864
 30
0.0
 10
414.6891025345932
 20
379.9192754552055
 30
0.0
 10
414.6740614666815
 20
376.4097194914545
 30
0.0
 10
414.6577520540636
 20
372.6042269969899
 30
0.0
 10
414.6407430862586
 20
368.6355161305545
 30
0.0
 10
414.6232598760594
 20
364.5561601930038
 30
0.0
 10
414.6060985843491
 20
360.5519274754277
 30
0.0
 10
414.5894396039839
 20
356.6649082012904
 30
0.0
 10
414.5740537690599
 20
353.0749586824929
 30
0.0
 10
414.5600984461278
 20
349.8187948629444
 30
0.0
 10
414.5482253479756
 20
347.0484769934311
 30
0.0
 10
414.5385360715762
 20
344.7877078565279
 30
0.0
 10
414.5315566936968
 20
343.1592329807018
 30
0.0
 10
414.527117744933
 20
342.1235087890033
 30
0.0
 10
414.5266109312506
 20
342.0052557958509
 30
0.0
 10
414.5263580074015
 20
341.9462419940961
 30
0.0
  0
SPLINE
  5
104
330
1F
100
AcDbEntity
  8
0
  6
Continuous
 62
     7
370
    25
100
AcDbSpline
210
0.0
220
0.0
230
1.0
 70
     8
 71
     3
 72
    12
 73
     8
 74
     0
 42
0.00000001
 43
0.00000001
 40
0.0
 40
0.0
 40
0.0
 40
0.0
 40
0.0846327525985111
 40
0.3024979554272317
 40
0.5142227015756236
 40
0.7320874345124483
 40
1.0
 40
1.0
 40
1.0
 40
1.0
 10
414.7316881076546
 20
389.8558761119615
 30
0.0
 10
414.7317727628403
 20
389.8756289811586
 30
0.0
 10
414.7320753409767
 20
389.946230519718
 30
0.0
 10
414.7295519864272
 20
389.3574479891155
 30
0.0
 10
414.7241439813575
 20
388.0955814972796
 30
0.0
 10
414.7153889069144
 20
386.0527343257825
 30
0.0
 10
414.7066953778767
 20
384.0242523549239
 30
0.0
 10
414.7019007823383
 20
382.9055178841681
 30
0.0
  0
SPLINE
  5
105
330
1F
100
AcDbEntity
  8
0
  6
Continuous
 62
     7
370
    25
100
AcDbSpline
210
0.0
220
0.0
230
1.0
 70
     8
 71
     3
 72
    12
 73
     8
 74
     0
 42
0.00000001
 43
0.00000001
 40
0.0
 40
0.0
 40
0.0
 40
0.0
 40
0.2121603030024755
 40
0.4304732147234515
 40
0.6426335372033483
 40
0.8609466224526953
 40
1.0
 40
1.0
 40
1.0
 40
1.0
 10
414.5784083769181
 20
442.001142911575
 30
0.0
 10
414.5761077651321
 20
442.4249181963175
 30
0.0
 10
414.5714398242526
 20
443.2847581690262
 30
0.0
 10
414.566212672185
 20
444.2476042859882
 30
0.0
 10
414.5625129546996
 20
444.9290952431816
 30
0.0
 10
414.5605505654982
 20
445.290568745527
 30
0.0
 10
414.5605625903242
 20
445.2883537635017
 30
0.0
 10
414.5605672692542
 20
445.2874919010611
 30
0.0
  0
SPLINE
  5
106
330
1F
100
AcDbEntity
  8
0
  6
Continuous
 62
     7
370
    25
100
AcDbSpline
210
0.0
220
0.0
230
1.0
 70
     8
 71
     3
 72
    21
 73
    17
 74
     0
 42
0.00000001
 43
0.00000001
 40
0.0
 40
0.0
 40
0.0
 40
0.0
 40
0.0521660878698788
 40
0.12269069695024
 40
0.195260512767638
 40
0.2657853625426043
 40
0.3383553934622851
 40
0.4088810462112685
 40
0.48145189022208
 40
0.5519785563391763
 40
0.6245504551111186
 40
0.6950779008922666
 40
0.7676506338592259
 40
0.8381782838927606
 40
0.9107512648836207
 40
1.0
 40
1.0
 40
1.0
 40
1.0
 10
414.6838221875365
 20
422.5836477904442
 30
0.0
 10
414.6838048607663
 20
422.5868394510014
 30
0.0
 10
414.683764109512
 20
422.5943459954669
 30
0.0
 10
414.6816494482864
 20
422.9838749423057
 30
0.0
 10
414.6778850657344
 20
423.6772887666274
 30
0.0
 10
414.6724352353381
 20
424.6811679385461
 30
0.0
 10
414.6656312842569
 20
425.9344801048437
 30
0.0
 10
414.6575221296766
 20
427.4282138227534
 30
0.0
 10
414.6484888153312
 20
429.0921788422594
 30
0.0
 10
414.6386231036684
 20
430.9094715951416
 30
0.0
 10
414.628381526781
 20
432.7959970802642
 30
0.0
 10
414.6178719286794
 20
434.7318898815485
 30
0.0
 10
414.6075721631865
 20
436.6291281742615
 30
0.0
 10
414.5976212808359
 20
438.4620987735652
 30
0.0
 10
414.5875458346509
 20
440.3180117684075
 30
0.0
 10
414.5816564952883
 20
441.4028354451623
 30
0.0
 10
414.578408376918
 20
442.001142911575
 30
0.0
  0
SPLINE
  5
107
330
1F
100
AcDbEntity
  8
0
  6
Continuous
 62
     7
370
    25
100
AcDbSpline
210
0.0
220
0.0
230
1.0
 70
     8
 71
     3
 72
     8
 73
     4
 74
     0
 42
0.00000001
 43
0.00000001
 40
0.0
 40
0.0
 40
0.0
 40
0.0
 40
1.0
 40
1.0
 40
1.0
 40
1.0
 10
448.2202425348847
 20
363.3023732529654
 30
0.0
 10
448.2202425348847
 20
365.0572271308015
 30
0.0
 10
448.4472755043859
 20
366.7827217818987
 30
0.0
 10
448.9017260091034
 20
368.4787541550169
 30
0.0
  0
LINE
  5
108
330
1F
100
AcDbEntity
  8
0
  6
Continuous
 62
     7
370
    25
100
AcDbLine
 10
455.0693599596
 20
390.9238441251
 30
0.0
 11
449.0949111744
 21
368.4470836294
 31
0.0
  0
SPLINE
  5
109
330
1F
100
AcDbEntity
  8
0
  6
Continuous
 62
     7
370
    25
100
AcDbSpline
210
0.0
220
0.0
230
1.0
 70
     8
 71
     3
 72
    30
 73
    26
 74
     0
 42
0.00000001
 43
0.00000001
 40
0.0
 40
0.0
 40
0.0
 40
0.0
 40
0.125000000000023
 40
0.125000000000023
 40
0.1875000000000287
 40
0.1875000000000287
 40
0.2500000000000344
 40
0.2500000000000344
 40
0.31250000000004
 40
0.31250000000004
 40
0.3750000000000457
 40
0.3750000000000457
 40
0.500000000000057
 40
0.500000000000057
 40
0.5625000000000536
 40
0.5625000000000536
 40
0.6250000000000502
 40
0.6250000000000502
 40
0.6875000000000469
 40
0.6875000000000469
 40
0.7500000000000434
 40
0.7500000000000434
 40
0.8750000000000218
 40
0.8750000000000218
 40
1.0
 40
1.0
 40
1.0
 40
1.0
 10
462.3948173402192
 20
340.9854232030108
 30
0.0
 10
462.2399526267448
 20
341.0082312982025
 30
0.0
 10
462.0372621426961
 20
341.0368019800542
 30
0.0
 10
461.6630816071194
 20
341.0829589040131
 30
0.0
 10
461.526301267169
 20
341.0988902866704
 30
0.0
 10
461.2375943158904
 20
341.1298500049605
 30
0.0
 10
461.0846732904988
 20
341.145008828318
 30
0.0
 10
460.7615992570412
 20
341.1737340575344
 30
0.0
 10
460.5899182534382
 20
341.1873971313122
 30
0.0
 10
460.2375643275956
 20
341.2115203441383
 30
0.0
 10
460.0568576305855
 20
341.222019453936
 30
0.0
 10
459.5013346713284
 20
341.2479112839869
 30
0.0
 10
459.1082390464786
 20
341.2574835246544
 30
0.0
 10
458.5276120917348
 20
341.2575049794265
 30
0.0
 10
458.3343216629315
 20
341.2552349177457
 30
0.0
 10
457.9482563232306
 20
341.2461801690919
 30
0.0
 10
457.75616499893
 20
341.2393691790322
 30
0.0
 10
457.3850278052704
 20
341.2220981083475
 30
0.0
 10
457.204383111162
 20
341.2116068432672
 30
0.0
 10
456.8529357988421
 20
341.1875727904013
 30
0.0
 10
456.6809884081913
 20
341.1739105380365
 30
0.0
 10
456.1948848445743
 20
341.1307212345653
 30
0.0
 10
455.9046947145588
 20
341.0986466522994
 30
0.0
 10
455.4035171989927
 20
341.0368524235993
 30
0.0
 10
455.2005311855064
 20
341.0082311129982
 30
0.0
 10
455.0456677295502
 20
340.9854232030108
 30
0.0
  0
SPLINE
  5
10A
330
1F
100
AcDbEntity
  8
0
  6
Continuous
 62
     7
370
    25
100
AcDbSpline
210
0.0
220
0.0
230
1.0
 70
     8
 71
     3
 72
     9
 73
     5
 74
     0
 42
0.00000001
 43
0.00000001
 40
0.0
 40
0.0
 40
0.0
 40
0.0
 40
0.9372674908162152
 40
0.9999999999999999
 40
0.9999999999999999
 40
0.9999999999999999
 40
0.9999999999999999
 10
455.0456677295502
 20
340.9854232030108
 30
0.0
 10
454.8622649263
 20
340.9555053399809
 30
0.0
 10
454.6665867393926
 20
340.9235850362011
 30
0.0
 10
454.7488576932058
 20
340.9371466073291
 30
0.0
 10
454.7540187565714
 20
340.9379973587144
 30
0.0
  0
SPLINE
  5
10B
330
1F
100
AcDbEntity
  8
0
  6
Continuous
 62
     7
370
    25
100
AcDbSpline
210
0.0
220
0.0
230
1.0
 70
     8
 71
     3
 72
     9
 73
     5
 74
     0
 42
0.00000001
 43
0.00000001
 40
0.0
 40
0.0
 40
0.0
 40
0.0
 40
0.8044675612561697
 40
0.9999999999999999
 40
0.9999999999999999
 40
0.9999999999999999
 40
0.9999999999999999
 10
462.6864663131633
 20
340.9379973587208
 30
0.0
 10
462.6593410841081
 20
340.942844309829
 30
0.0
 10
462.6256228456588
 20
340.9488693521572
 30
0.0
 10
462.4325661807288
 20
340.9794447256636
 30
0.0
 10
462.3948173402193
 20
340.9854232030108
 30
0.0
  0
LINE
  5
10C
330
1F
100
AcDbEntity
  8
0
  6
Continuous
 62
     7
370
    25
100
AcDbLine
 10
483.2202425349
 20
389.9354232029
 30
0.0
 11
483.2202425349
 21
342.9771850761
 31
0.0
  0
LINE
  5
10D
330
1F
100
AcDbEntity
  8
0
  6
Continuous
 62
     7
370
    25
100
AcDbLine
 10
448.9017260091
 20
368.478754155
 30
0.0
 11
454.8792525719
 21
390.7871869893
 31
0.0
  0
LINE
  5
10E
330
1F
100
AcDbEntity
  8
0
  6
Continuous
 62
     7
370
    25
100
AcDbLine
 10
448.2202425349
 20
341.1354232029
 30
0.0
 11
448.2202425349
 21
363.302373253
 31
0.0
  0
SPLINE
  5
10F
330
1F
100
AcDbEntity
  8
0
  6
Continuous
 62
     7
370
    25
100
AcDbSpline
210
0.0
220
0.0
230
1.0
 70
    24
 71
     3
 72
    22
 73
    18
 74
     0
 42
0.00000001
 43
0.00000001
 40
0.0
 40
0.0
 40
0.0
 40
0.0
 40
0.125
 40
0.125
 40
0.25
 40
0.25
 40
0.375
 40
0.375
 40
0.5
 40
0.5
 40
0.625
 40
0.625
 40
0.75
 40
0.75
 40
0.875
 40
0.875
 40
1.0
 40
1.0
 40
1.0
 40
1.0
 10
483.2202425348847
 20
342.97718507615
 30
0.0
 10
483.2202425348846
 20
342.9212728780578
 30
0.0
 10
483.2202425348848
 20
342.8648273003943
 30
0.0
 10
483.2202425348848
 20
342.7266802185555
 30
0.0
 10
483.2202425348847
 20
342.6464166166181
 30
0.0
 10
483.2202425348846
 20
342.4557023461384
 30
0.0
 10
483.2202425348847
 20
342.3442258308892
 30
0.0
 10
483.2202425348847
 20
342.0939592346528
 30
0.0
 10
483.2202425348848
 20
341.9543889794383
 30
0.0
 10
483.2202425348848
 20
341.6424809195296
 30
0.0
 10
483.2202425348846
 20
341.4763277524124
 30
0.0
 10
483.2202425348846
 20
341.1260214567213
 30
0.0
 10
483.2202425348848
 20
340.9401088567321
 30
0.0
 10
483.2202425348849
 20
340.5660722844337
 30
0.0
 10
483.2202425348847
 20
340.3768323950861
 30
0.0
 10
483.2202425348847
 20
339.9951566507659
 30
0.0
 10
483.2202425348847
 20
339.8024927733116
 30
0.0
 10
483.2202425348847
 20
339.6099033756132
 30
0.0
  0
LINE
  5
110
330
1F
100
AcDbEntity
  8
0
  6
Continuous
 62
     7
370
    25
100
AcDbLine
 10
472.2577988494
 20
339.2601990934
 30
0.0
 11
472.2202425349
 21
339.1900307556
 31
0.0
  0
SPLINE
  5
111
330
1F
100
AcDbEntity
  8
0
  6
Continuous
 62
     7
370
    25
100
AcDbSpline
210
0.0
220
0.0
230
1.0
 70
     8
 71
     3
 72
    22
 73
    18
 74
     0
 42
0.00000001
 43
0.00000001
 40
0.0
 40
0.0
 40
0.0
 40
0.0
 40
0.125
 40
0.125
 40
0.25
 40
0.25
 40
0.375
 40
0.375
 40
0.5
 40
0.5
 40
0.625
 40
0.625
 40
0.75
 40
0.75
 40
0.875
 40
0.875
 40
1.0
 40
1.0
 40
1.0
 40
1.0
 10
472.2202425348846
 20
339.1901194392393
 30
0.0
 10
472.220242534415
 20
339.3367225916712
 30
0.0
 10
472.2198116041007
 20
339.4841311767215
 30
0.0
 10
472.1996078019122
 20
339.7816023633573
 30
0.0
 10
472.1799254704117
 20
339.9313211854907
 30
0.0
 10
472.1115757650324
 20
340.2206528393019
 30
0.0
 10
472.0629989315273
 20
340.3599218915276
 30
0.0
 10
471.9331568104176
 20
340.6127917827111
 30
0.0
 10
471.8519820631865
 20
340.7260488422168
 30
0.0
 10
471.6564641807932
 20
340.9188436928898
 30
0.0
 10
471.5416087156266
 20
340.9988867758962
 30
0.0
 10
471.2851742876086
 20
341.126916475291
 30
0.0
 10
471.1439439363207
 20
341.1748138062878
 30
0.0
 10
470.850541173607
 20
341.2422049786948
 30
0.0
 10
470.6987173737447
 20
341.2616095347132
 30
0.0
 10
470.3970654686848
 20
341.2815260257206
 30
0.0
 10
470.2475859750509
 20
341.2819486753177
 30
0.0
 10
470.098922191325
 20
341.2819486753177
 30
0.0
  0
LINE
  5
112
330
1F
100
AcDbEntity
  8
0
  6
Continuous
 62
     7
370
    25
100
AcDbLine
 10
472.2202425349
 20
266.9354232032
 30
0.0
 11
472.2202425349
 21
339.1900307556
 31
0.0
  0
LINE
  5
113
330
1F
100
AcDbEntity
  8
0
  6
Continuous
 62
     7
370
    25
100
AcDbLine
 10
482.2202425349
 20
265.9354232032
 30
0.0
 11
473.2202425349
 21
265.9354232032
 31
0.0
  0
ARC
  5
114
330
1F
100
AcDbEntity
  8
0
  6
Continuous
 62
     7
370
    25
100
AcDbCircle
 10
473.2202425349
 20
266.9354232032
 30
0.0
 40
1.0
100
AcDbArc
 50
180.0
 51
270.0
  0
ARC
  5
115
330
1F
100
AcDbEntity
  8
0
  6
Continuous
 62
     7
370
    25
100
AcDbCircle
 10
482.2202425349
 20
266.9354232032
 30
0.0
 40
1.0
100
AcDbArc
 50
270.0
 51
0.0
  0
LINE
  5
116
330
1F
100
AcDbEntity
  8
0
  6
Continuous
 62
     7
370
    25
100
AcDbLine
 10
483.2202425349
 20
339.6099033756
 30
0.0
 11
483.2202425349
 21
266.9354232032
 31
0.0
  0
LINE
  5
117
330
1F
100
AcDbEntity
  8
0
  6
Continuous
 62
     7
370
    25
100
AcDbLine
 10
455.0456677296
 20
340.985423203
 30
0.0
 11
462.3948173402
 21
340.985423203
 31
0.0
  0
LINE
  5
118
330
1F
100
AcDbEntity
  8
0
  6
Continuous
 62
     8
370
    18
100
AcDbLine
 10
413.2580935746
 20
480.817829136
 30
0.0
 11
413.2580935746
 21
311.0530172686
 31
0.0
  0
LINE
  5
119
330
1F
100
AcDbEntity
  8
0
  6
Continuous
 62
     8
370
    18
100
AcDbLine
 10
414.2318448041
 20
479.8301567729
 30
0.0
 11
414.2318448041
 21
312.0406896316
 31
0.0
  0
SPLINE
  5
11A
330
1F
100
AcDbEntity
  8
0
  6
Continuous
 62
     8
370
    18
100
AcDbSpline
210
0.0
220
0.0
230
1.0
 70
     8
 71
     3
 72
     8
 73
     4
 74
     0
 42
0.00000001
 43
0.00000001
 40
0.0
 40
0.0
 40
0.0
 40
0.0
 40
1.0
 40
1.0
 40
1.0
 40
1.0
 10
449.0949111743611
 20
368.4470836294086
 30
0.0
 10
448.6448803099503
 20
366.7540009167647
 30
0.0
 10
448.4202425348847
 20
365.0319689774187
 30
0.0
 10
448.4202425348847
 20
363.2811389791756
 30
0.0
  0
ARC
  5
11B
330
1F
100
AcDbEntity
  8
0
  6
Continuous
 62
     8
370
    18
100
AcDbCircle
 10
448.3708061529
 20
363.7680014398
 30
0.0
 40
0.4893659279791734
100
AcDbArc
 50
252.0810805821
 51
275.7979844712
  0
ARC
  5
11C
330
1F
100
AcDbEntity
  8
0
  6
Continuous
 62
     8
370
    18
100
AcDbCircle
 10
448.9166819866
 20
367.9649485949
 30
0.0
 40
0.5140231851157578
100
AcDbArc
 50
69.7123335656
 51
91.6673087266
  0
SPLINE
  5
11D
330
1F
100
AcDbEntity
  8
0
  6
Continuous
 62
     8
370
    18
100
AcDbSpline
210
0.0
220
0.0
230
1.0
 70
     8
 71
     3
 72
    23
 73
    19
 74
     0
 42
0.00000001
 43
0.00000001
 40
0.0
 40
0.0
 40
0.0
 40
0.0
 40
0.0331867439762042
 40
0.0661401785636331
 40
0.0989640307156735
 40
0.1317632568154786
 40
0.1646430490757129
 40
0.1977078307795262
 40
0.2310602877041241
 40
0.2904092139197619
 40
0.3502512812894731
 40
0.4728582961787957
 40
0.6011590110453212
 40
0.7300542628984361
 40
0.7971030313761103
 40
0.8642696152263685
 40
0.9320556753949595
 40
1.0
 40
1.0
 40
1.0
 40
1.0
 10
470.0989221913223
 20
341.281947534578
 30
0.0
 10
470.0964207089641
 20
341.291264681626
 30
0.0
 10
470.0914353301648
 20
341.3098334743311
 30
0.0
 10
470.0956524784124
 20
341.339028348485
 30
0.0
 10
470.1085198711385
 20
341.3690123645079
 30
0.0
 10
470.1308575290558
 20
341.3998681803782
 30
0.0
 10
470.1624389199974
 20
341.4315434539379
 30
0.0
 10
470.2033484897863
 20
341.4640216102273
 30
0.0
 10
470.2662753225271
 20
341.5057814318394
 30
0.0
 10
470.3613736320597
 20
341.5571928966898
 30
0.0
 10
470.5488368121929
 20
341.63880472265
 30
0.0
 10
470.857645822007
 20
341.7417034995507
 30
0.0
 10
471.331846655972
 20
341.8543509548777
 30
0.0
 10
471.8052501985761
 20
341.9301573671186
 30
0.0
 10
472.2161152386509
 20
341.9757598198865
 30
0.0
 10
472.5431014846395
 20
342.0011877841724
 30
0.0
 10
472.8790750326091
 20
342.0175414443429
 30
0.0
 10
473.1064316666133
 20
342.0195742386002
 30
0.0
 10
473.2202425348847
 20
342.0205918208689
 30
0.0
  0
SPLINE
  5
11E
330
1F
100
AcDbEntity
  8
0
  6
Continuous
 62
     8
370
    18
100
AcDbSpline
210
0.0
220
0.0
230
1.0
 70
    24
 71
     3
 72
     8
 73
     4
 74
     0
 42
0.00000001
 43
0.00000001
 40
0.0
 40
0.0
 40
0.0
 40
0.0
 40
1.0
 40
1.0
 40
1.0
 40
1.0
 10
470.098922191325
 20
340.9354232028942
 30
0.0
 10
470.098922191325
 20
340.9354232029967
 30
0.0
 10
470.098922191325
 20
341.051466483867
 30
0.0
 10
470.098922191325
 20
341.2819475345791
 30
0.0
  0
LINE
  5
11F
330
1F
100
AcDbEntity
  8
0
  6
Continuous
 62
     8
370
    18
100
AcDbLine
 10
482.2202425349
 20
342.0205918209
 30
0.0
 11
482.2202425349
 21
390.9354232029
 31
0.0
  0
LINE
  5
120
330
1F
100
AcDbEntity
  8
0
  6
Continuous
 62
     8
370
    18
100
AcDbLine
 10
473.2202425349
 20
342.0205918209
 30
0.0
 11
482.2202425349
 21
342.0205918209
 31
0.0
  0
LINE
  5
121
330
1F
100
AcDbEntity
  8
0
  6
Continuous
 62
     8
370
    18
100
AcDbLine
 10
448.4202425349
 20
363.2811389792
 30
0.0
 11
448.4202425349
 21
340.9354232029
 31
0.0
  0
ARC
  5
122
330
1F
100
AcDbEntity
  8
0
  6
Continuous
 62
     8
370
    18
100
AcDbCircle
 10
482.2414748709
 20
342.9993808588
 30
0.0
 40
0.9790193015891853
100
AcDbArc
 50
268.7573088467
 51
358.7009105584
  0
LINE
  5
123
330
1F
100
AcDbEntity
  8
0
  6
Continuous
 62
     8
370
    18
100
AcDbLine
 10
442.2202425349
 20
383.1914418139
 30
0.0
 11
442.2202425349
 21
341.9354232023
 31
0.0
  0
LINE
  5
124
330
1F
100
AcDbEntity
  8
0
  6
Continuous
 62
     8
370
    18
100
AcDbLine
 10
442.2202425349
 20
389.9354232023
 30
0.0
 11
442.2202425349
 21
383.1914418139
 31
0.0
  0
LINE
  5
125
330
1F
100
AcDbEntity
  8
0
  6
Continuous
 62
     8
370
    18
100
AcDbLine
 10
421.9744108646
 20
422.6772486115
 30
0.0
 11
421.9744108646
 21
445.1935977961
 31
0.0
  0
LINE
  5
126
330
1F
100
AcDbEntity
  8
0
  6
Continuous
 62
     8
370
    18
100
AcDbLine
 10
422.4654783091
 20
444.7080374341
 30
0.0
 11
422.4654783091
 21
423.1628089734
 31
0.0
  0
SPLINE
  5
127
330
1F
100
AcDbEntity
  8
0
  6
Continuous
 62
     8
370
    18
100
AcDbSpline
210
0.0
220
0.0
230
1.0
 70
    24
 71
     3
 72
    20
 73
    16
 74
     0
 42
0.00000001
 43
0.00000001
 40
0.0
 40
0.0
 40
0.0
 40
0.0
 40
0.1249999999999977
 40
0.1249999999999977
 40
0.2499999999999953
 40
0.2499999999999953
 40
0.4999999999999969
 40
0.4999999999999969
 40
0.6249999999999977
 40
0.6249999999999977
 40
0.7499999999999984
 40
0.7499999999999984
 40
0.8749999999999992
 40
0.8749999999999992
 40
1.0
 40
1.0
 40
1.0
 40
1.0
 10
473.2202425348847
 20
339.609903375687
 30
0.0
 10
473.2202425348846
 20
339.7462080037118
 30
0.0
 10
473.2202425348847
 20
339.8831310752429
 30
0.0
 10
473.2202425348847
 20
340.1608749630306
 30
0.0
 10
473.2202425348847
 20
340.3014449668053
 30
0.0
 10
473.2202425348846
 20
340.7167484151337
 30
0.0
 10
473.2202425348847
 20
340.98196249452
 30
0.0
 10
473.2202425348847
 20
341.3113813197552
 30
0.0
 10
473.2202425348847
 20
341.4108696030381
 30
0.0
 10
473.2202425348847
 20
341.5876924982887
 30
0.0
 10
473.2202425348847
 20
341.6648777577635
 30
0.0
 10
473.2202425348847
 20
341.7968916026518
 30
0.0
 10
473.2202425348847
 20
341.8515708355725
 30
0.0
 10
473.2202425348846
 20
341.9444635893628
 30
0.0
 10
473.2202425348846
 20
341.9825277577394
 30
0.0
 10
473.2202425348847
 20
342.0205918208689
 30
0.0
  0
SPLINE
  5
128
330
1F
100
AcDbEntity
  8
0
  6
Continuous
 62
     8
370
    18
100
AcDbSpline
210
0.0
220
0.0
230
1.0
 70
    24
 71
     3
 72
    20
 73
    16
 74
     0
 42
0.00000001
 43
0.00000001
 40
0.0
 40
0.0
 40
0.0
 40
0.0
 40
0.1249999999999977
 40
0.1249999999999977
 40
0.2499999999999953
 40
0.2499999999999953
 40
0.4999999999999969
 40
0.4999999999999969
 40
0.6249999999999977
 40
0.6249999999999977
 40
0.7499999999999984
 40
0.7499999999999984
 40
0.8749999999999992
 40
0.8749999999999992
 40
1.0
 40
1.0
 40
1.0
 40
1.0
 10
482.2202425348847
 20
339.609903375687
 30
0.0
 10
482.2202425348846
 20
339.7462080037118
 30
0.0
 10
482.2202425348846
 20
339.8831310752429
 30
0.0
 10
482.2202425348847
 20
340.1608749630306
 30
0.0
 10
482.2202425348847
 20
340.3014449668053
 30
0.0
 10
482.2202425348846
 20
340.7167484151337
 30
0.0
 10
482.2202425348847
 20
340.98196249452
 30
0.0
 10
482.2202425348846
 20
341.3113813197552
 30
0.0
 10
482.2202425348847
 20
341.4108696030381
 30
0.0
 10
482.2202425348846
 20
341.5876924982887
 30
0.0
 10
482.2202425348847
 20
341.6648777577635
 30
0.0
 10
482.2202425348846
 20
341.7968916026518
 30
0.0
 10
482.2202425348847
 20
341.8515708355725
 30
0.0
 10
482.2202425348846
 20
341.9444635893628
 30
0.0
 10
482.2202425348846
 20
341.9825277577394
 30
0.0
 10
482.2202425348847
 20
342.0205918208689
 30
0.0
  0
LINE
  5
129
330
1F
100
AcDbEntity
  8
0
  6
Continuous
 62
     8
370
    18
100
AcDbLine
 10
482.2202425349
 20
339.6099033757
 30
0.0
 11
473.2202425349
 21
339.6099033757
 31
0.0
  0
LINE
  5
12A
330
1F
100
AcDbEntity
  8
0
  6
Continuous
 62
     8
370
    18
100
AcDbLine
 10
482.2202425349
 20
339.6099033757
 30
0.0
 11
483.2202425349
 21
339.6099033756
 31
0.0
  0
SPLINE
  5
12B
330
1F
100
AcDbEntity
  8
0
  6
Continuous
 62
     8
370
    18
100
AcDbSpline
210
0.0
220
0.0
230
1.0
 70
     8
 71
     3
 72
    13
 73
     9
 74
     0
 42
0.00000001
 43
0.00000001
 40
0.0
 40
0.0
 40
0.0
 40
0.0
 40
0.13502331276286
 40
0.2744378409955891
 40
0.4088169855429461
 40
0.5581858358441858
 40
0.8496706339053116
 40
1.0
 40
1.0
 40
1.0
 40
1.0
 10
473.2202425348847
 20
339.609903375687
 30
0.0
 10
473.1559794743006
 20
339.6080844675034
 30
0.0
 10
473.0253633959245
 20
339.6043874967756
 30
0.0
 10
472.8399057315798
 20
339.5761296831987
 30
0.0
 10
472.6647592877962
 20
339.5320211395475
 30
0.0
 10
472.4623404942284
 20
339.4552969256627
 30
0.0
 10
472.2947865000666
 20
339.3567962737927
 30
0.0
 10
472.2671890222035
 20
339.2847225276001
 30
0.0
 10
472.2577988493899
 20
339.2601990934139
 30
0.0
  0
LINE
  5
12C
330
1F
100
AcDbEntity
  8
0
  6
Continuous
 62
     8
370
    18
100
AcDbLine
 10
473.2202425349
 20
339.6099033757
 30
0.0
 11
473.2202425349
 21
266.9354232033
 31
0.0
  0
LINE
  5
12D
330
1F
100
AcDbEntity
  8
0
  6
Continuous
 62
     8
370
    18
100
AcDbLine
 10
472.2202425349
 20
266.9354232032
 30
0.0
 11
473.2202425349
 21
266.9354232033
 31
0.0
  0
LINE
  5
12E
330
1F
100
AcDbEntity
  8
0
  6
Continuous
 62
     8
370
    18
100
AcDbLine
 10
482.2202425349
 20
266.9354232033
 30
0.0
 11
482.2202425349
 21
339.6099033757
 31
0.0
  0
LINE
  5
12F
330
1F
100
AcDbEntity
  8
0
  6
Continuous
 62
     8
370
    18
100
AcDbLine
 10
473.2202425349
 20
266.9354232033
 30
0.0
 11
482.2202425349
 21
266.9354232033
 31
0.0
  0
LINE
  5
130
330
1F
100
AcDbEntity
  8
0
  6
Continuous
 62
     8
370
    18
100
AcDbLine
 10
482.2202425349
 20
266.9354232033
 30
0.0
 11
482.2202425349
 21
265.9354232032
 31
0.0
  0
LINE
  5
131
330
1F
100
AcDbEntity
  8
0
  6
Continuous
 62
     8
370
    18
100
AcDbLine
 10
473.2202425349
 20
266.9354232033
 30
0.0
 11
473.2202425349
 21
265.9354232032
 31
0.0
  0
LINE
  5
132
330
1F
100
AcDbEntity
  8
0
  6
Continuous
 62
     8
370
    18
100
AcDbLine
 10
483.2202425349
 20
266.9354232032
 30
0.0
 11
482.2202425349
 21
266.9354232033
 31
0.0
  0
LINE
  5
133
330
1F
100
AcDbEntity
  8
0
  6
Continuous
 62
     8
370
    18
100
AcDbLine
 10
454.9388239018
 20
340.384875833
 30
0.0
 11
462.501661168
 21
340.384875833
 31
0.0
  0
ENDSEC
  0
SECTION
  2
OBJECTS
  0
DICTIONARY
  5
C
330
0
100
AcDbDictionary
281
     1
  3
ACAD_GROUP
350
D
  3
ACAD_LAYOUT
350
1A
  3
ACAD_MLINESTYLE
350
17
  3
ACAD_PLOTSETTINGS
350
19
  3
ACAD_PLOTSTYLENAME
350
E
  3
ACAD_SCALELIST
350
47
  3
DWGPROPS
350
134
  0
DICTIONARY
  5
D
102
{ACAD_REACTORS
330
C
102
}
330
C
100
AcDbDictionary
281
     1
  0
DICTIONARY
  5
1A
102
{ACAD_REACTORS
330
C
102
}
330
C
100
AcDbDictionary
281
     1
  3
Layout1
350
1E
  3
Layout2
350
26
  3
Model
350
22
  0
DICTIONARY
  5
17
102
{ACAD_REACTORS
330
C
102
}
330
C
100
AcDbDictionary
281
     1
  3
Standard
350
18
  0
DICTIONARY
  5
19
102
{ACAD_REACTORS
330
C
102
}
330
C
100
AcDbDictionary
281
     1
  0
ACDBDICTIONARYWDFLT
  5
E
102
{ACAD_REACTORS
330
C
102
}
330
C
100
AcDbDictionary
281
     1
  3
Normal
350
F
100
AcDbDictionaryWithDefault
340
F
  0
DICTIONARY
  5
47
102
{ACAD_REACTORS
330
C
102
}
330
C
100
AcDbDictionary
281
     1
  3
A0
350
48
  3
A1
350
49
  3
A2
350
4A
  3
A3
350
4B
  3
A4
350
4C
  3
A5
350
4D
  3
A6
350
4E
  3
A7
350
4F
  3
A8
350
50
  3
A9
350
51
  3
B0
350
52
  3
B1
350
53
  3
B2
350
54
  3
B3
350
55
  3
B4
350
56
  3
B5
350
57
  3
B6
350
58
  3
B7
350
59
  3
B8
350
5A
  3
B9
350
5B
  3
C0
350
5C
  3
C1
350
5D
  3
C2
350
5E
  3
C3
350
5F
  3
C4
350
60
  3
C5
350
61
  3
C6
350
62
  3
C7
350
63
  3
C8
350
64
  3
C9
350
65
  3
D0
350
66
  3
D1
350
67
  3
D2
350
68
  0
XRECORD
  5
134
102
{ACAD_REACTORS
330
C
102
}
330
C
100
AcDbXrecord
280
     1
  1
DWGPROPS COOKIE
  2

  3

  4

  6

  7

  8
mkramer
  9

300
=
301
=
302
=
303
=
304
=
305
=
306
=
307
=
308
=
309
=
 40
0.0
 41
2459450.51258265
 42
2459450.512583368
  1

 90
        0
  0
LAYOUT
  5
1E
102
{ACAD_REACTORS
330
1A
102
}
330
1A
100
AcDbPlotSettings
  1

  2
none_device
  4

  6

 40
0.0
 41
0.0
 42
0.0
 43
0.0
 44
0.0
 45
0.0
 46
0.0
 47
0.0
 48
0.0
 49
0.0
140
0.0
141
0.0
142
1.0
143
1.0
 70
   688
 72
     1
 73
     0
 74
     5
  7

 75
    16
147
1.0
148
0.0
149
0.0
100
AcDbLayout
  1
Layout1
 70
     1
 71
     1
 10
0.0
 20
0.0
 11
420.0
 21
297.0
 12
0.0
 22
0.0
 32
0.0
 14
1.0000000000E+20
 24
1.0000000000E+20
 34
1.0000000000E+20
 15
-1.0000000000E+20
 25
-1.0000000000E+20
 35
-1.0000000000E+20
146
0.0
 13
0.0
 23
0.0
 33
0.0
 16
1.0
 26
0.0
 36
0.0
 17
0.0
 27
1.0
 37
0.0
 76
     0
330
1B
  0
LAYOUT
  5
26
102
{ACAD_REACTORS
330
1A
102
}
330
1A
100
AcDbPlotSettings
  1

  2
none_device
  4

  6

 40
0.0
 41
0.0
 42
0.0
 43
0.0
 44
0.0
 45
0.0
 46
0.0
 47
0.0
 48
0.0
 49
0.0
140
0.0
141
0.0
142
1.0
143
1.0
 70
   688
 72
     1
 73
     0
 74
     5
  7

 75
    16
147
1.0
148
0.0
149
0.0
100
AcDbLayout
  1
Layout2
 70
     1
 71
     2
 10
0.0
 20
0.0
 11
0.0
 21
0.0
 12
0.0
 22
0.0
 32
0.0
 14
0.0
 24
0.0
 34
0.0
 15
0.0
 25
0.0
 35
0.0
146
0.0
 13
0.0
 23
0.0
 33
0.0
 16
1.0
 26
0.0
 36
0.0
 17
0.0
 27
1.0
 37
0.0
 76
     0
330
23
  0
LAYOUT
  5
22
102
{ACAD_REACTORS
330
1A
102
}
330
1A
100
AcDbPlotSettings
  1

  2
none_device
  4
Letter_(8.50_x_11.00_Inches)
  6

 40
6.35
 41
6.35
 42
6.35000508
 43
6.35000508
 44
215.9
 45
279.4
 46
0.0
 47
0.0
 48
0.0
 49
0.0
140
0.0
141
0.0
142
1.0
143
1.0
 70
  1712
 72
     1
 73
     0
 74
     0
  7

 75
     0
147
1.0
148
0.0
149
0.0
100
AcDbLayout
  1
Model
 70
     1
 71
     0
 10
0.0
 20
0.0
 11
594.0
 21
841.0
 12
0.0
 22
0.0
 32
0.0
 14
0.0
 24
0.0
 34
0.0
 15
594.0
 25
841.0
 35
0.0
146
0.0
 13
0.0
 23
0.0
 33
0.0
 16
1.0
 26
0.0
 36
0.0
 17
0.0
 27
1.0
 37
0.0
 76
     0
330
1F
331
29
  0
MLINESTYLE
  5
18
102
{ACAD_REACTORS
330
17
102
}
330
17
100
AcDbMlineStyle
  2
Standard
 70
     0
  3

 62
   256
 51
90.0
 52
90.0
 71
     2
 49
0.5
 62
   256
  6
BYLAYER
 49
-0.5
 62
   256
  6
BYLAYER
  0
ACDBPLACEHOLDER
  5
F
102
{ACAD_REACTORS
330
E
102
}
330
E
  0
SCALE
  5
48
102
{ACAD_REACTORS
330
47
102
}
330
47
100
AcDbScale
 70
     0
300
1:1
140
1.0
141
1.0
290
     1
  0
SCALE
  5
49
102
{ACAD_REACTORS
330
47
102
}
330
47
100
AcDbScale
 70
     0
300
1:2
140
1.0
141
2.0
290
     0
  0
SCALE
  5
4A
102
{ACAD_REACTORS
330
47
102
}
330
47
100
AcDbScale
 70
     0
300
1:4
140
1.0
141
4.0
290
     0
  0
SCALE
  5
4B
102
{ACAD_REACTORS
330
47
102
}
330
47
100
AcDbScale
 70
     0
300
1:5
140
1.0
141
5.0
290
     0
  0
SCALE
  5
4C
102
{ACAD_REACTORS
330
47
102
}
330
47
100
AcDbScale
 70
     0
300
1:8
140
1.0
141
8.0
290
     0
  0
SCALE
  5
4D
102
{ACAD_REACTORS
330
47
102
}
330
47
100
AcDbScale
 70
     0
300
1:10
140
1.0
141
10.0
290
     0
  0
SCALE
  5
4E
102
{ACAD_REACTORS
330
47
102
}
330
47
100
AcDbScale
 70
     0
300
1:16
140
1.0
141
16.0
290
     0
  0
SCALE
  5
4F
102
{ACAD_REACTORS
330
47
102
}
330
47
100
AcDbScale
 70
     0
300
1:20
140
1.0
141
20.0
290
     0
  0
SCALE
  5
50
102
{ACAD_REACTORS
330
47
102
}
330
47
100
AcDbScale
 70
     0
300
1:30
140
1.0
141
30.0
290
     0
  0
SCALE
  5
51
102
{ACAD_REACTORS
330
47
102
}
330
47
100
AcDbScale
 70
     0
300
1:40
140
1.0
141
40.0
290
     0
  0
SCALE
  5
52
102
{ACAD_REACTORS
330
47
102
}
330
47
100
AcDbScale
 70
     0
300
1:50
140
1.0
141
50.0
290
     0
  0
SCALE
  5
53
102
{ACAD_REACTORS
330
47
102
}
330
47
100
AcDbScale
 70
     0
300
1:100
140
1.0
141
100.0
290
     0
  0
SCALE
  5
54
102
{ACAD_REACTORS
330
47
102
}
330
47
100
AcDbScale
 70
     0
300
2:1
140
2.0
141
1.0
290
     0
  0
SCALE
  5
55
102
{ACAD_REACTORS
330
47
102
}
330
47
100
AcDbScale
 70
     0
300
4:1
140
4.0
141
1.0
290
     0
  0
SCALE
  5
56
102
{ACAD_REACTORS
330
47
102
}
330
47
100
AcDbScale
 70
     0
300
8:1
140
8.0
141
1.0
290
     0
  0
SCALE
  5
57
102
{ACAD_REACTORS
330
47
102
}
330
47
100
AcDbScale
 70
     0
300
10:1
140
10.0
141
1.0
290
     0
  0
SCALE
  5
58
102
{ACAD_REACTORS
330
47
102
}
330
47
100
AcDbScale
 70
     0
300
100:1
140
100.0
141
1.0
290
     0
  0
SCALE
  5
59
102
{ACAD_REACTORS
330
47
102
}
330
47
100
AcDbScale
 70
     0
300
1/128" = 1'-0"
140
0.0078125
141
12.0
290
     0
  0
SCALE
  5
5A
102
{ACAD_REACTORS
330
47
102
}
330
47
100
AcDbScale
 70
     0
300
1/64" = 1'-0"
140
0.015625
141
12.0
290
     0
  0
SCALE
  5
5B
102
{ACAD_REACTORS
330
47
102
}
330
47
100
AcDbScale
 70
     0
300
1/32" = 1'-0"
140
0.03125
141
12.0
290
     0
  0
SCALE
  5
5C
102
{ACAD_REACTORS
330
47
102
}
330
47
100
AcDbScale
 70
     0
300
1/16" = 1'-0"
140
0.0625
141
12.0
290
     0
  0
SCALE
  5
5D
102
{ACAD_REACTORS
330
47
102
}
330
47
100
AcDbScale
 70
     0
300
3/32" = 1'-0"
140
0.09375
141
12.0
290
     0
  0
SCALE
  5
5E
102
{ACAD_REACTORS
330
47
102
}
330
47
100
AcDbScale
 70
     0
300
1/8" = 1'-0"
140
0.125
141
12.0
290
     0
  0
SCALE
  5
5F
102
{ACAD_REACTORS
330
47
102
}
330
47
100
AcDbScale
 70
     0
300
3/16" = 1'-0"
140
0.1875
141
12.0
290
     0
  0
SCALE
  5
60
102
{ACAD_REACTORS
330
47
102
}
330
47
100
AcDbScale
 70
     0
300
1/4" = 1'-0"
140
0.25
141
12.0
290
     0
  0
SCALE
  5
61
102
{ACAD_REACTORS
330
47
102
}
330
47
100
AcDbScale
 70
     0
300
3/8" = 1'-0"
140
0.375
141
12.0
290
     0
  0
SCALE
  5
62
102
{ACAD_REACTORS
330
47
102
}
330
47
100
AcDbScale
 70
     0
300
1/2" = 1'-0"
140
0.5
141
12.0
290
     0
  0
SCALE
  5
63
102
{ACAD_REACTORS
330
47
102
}
330
47
100
AcDbScale
 70
     0
300
3/4" = 1'-0"
140
0.75
141
12.0
290
     0
  0
SCALE
  5
64
102
{ACAD_REACTORS
330
47
102
}
330
47
100
AcDbScale
 70
     0
300
1" = 1'-0"
140
1.0
141
12.0
290
     0
  0
SCALE
  5
65
102
{ACAD_REACTORS
330
47
102
}
330
47
100
AcDbScale
 70
     0
300
1-1/2" = 1'-0"
140
1.5
141
12.0
290
     0
  0
SCALE
  5
66
102
{ACAD_REACTORS
330
47
102
}
330
47
100
AcDbScale
 70
     0
300
3" = 1'-0"
140
3.0
141
12.0
290
     0
  0
SCALE
  5
67
102
{ACAD_REACTORS
330
47
102
}
330
47
100
AcDbScale
 70
     0
300
6" = 1'-0"
140
6.0
141
12.0
290
     0
  0
SCALE
  5
68
102
{ACAD_REACTORS
330
47
102
}
330
47
100
AcDbScale
 70
     0
300
1'-0" = 1'-0"
140
12.0
141
12.0
290
     0
  0
ENDSEC
  0
EOF
